0
SECTION
2
HEADER
9
$ACADVER
1
AC1015
9
$DWGCODEPAGE
3
ANSI_1252
9
$HANDSEED
5
241
9
$ANGBASE
50
0
9
$ANGDIR
70
0
9
$ATTMODE
70
1
9
$AUNITS
70
0
9
$AUPREC
70
0
9
$CECOLOR
62
256
9
$CELTSCALE
40
1
9
$CELTYPE
6
ByLayer
9
$CELWEIGHT
370
18
9
$CLAYER
8
0
9
$CMLJUST
70
0
9
$CMLSCALE
40
1
9
$CMLSTYLE
2
Standard
9
$DIMSTYLE
2
Standard
9
$TEXTSIZE
40
0.2
9
$TEXTSTYLE
7
Standard
9
$LUNITS
70
2
9
$LUPREC
70
4
9
$EXTNAMES
290
1
9
$INSUNITS
70
4
9
$LTSCALE
40
1
9
$LWDISPLAY
290
1
9
$PDMODE
70
0
9
$PDSIZE
40
0
9
$PLINEGEN
70
0
0
ENDSEC
0
SECTION
2
CLASSES
0
CLASS
1
RASTERVARIABLES
2
AcDbRasterVariables
3
ISM
90
0
280
0
281
0
0
ENDSEC
0
SECTION
2
TABLES
0
TABLE
2
VPORT
5
237
100
AcDbSymbolTable
0
VPORT
5
1
100
AcDbSymbolTableRecord
100
AcDbViewportTableRecord
2
*Active
70
0
10
0
20
0
11
1
21
1
12
-1
22
1
13
0
23
0
14
0.5
24
0.5
15
10
25
10
16
0
26
0
36
1
17
0
27
0
37
0
0
ENDTAB
0
TABLE
2
LTYPE
5
238
100
AcDbSymbolTable
0
LTYPE
5
14
100
AcDbSymbolTableRecord
100
AcDbLinetypeTableRecord
70
0
2
ByBlock
3

72
65
73
0
40
0
0
LTYPE
5
15
100
AcDbSymbolTableRecord
100
AcDbLinetypeTableRecord
70
0
2
ByLayer
3

72
65
73
0
40
0
0
LTYPE
5
16
100
AcDbSymbolTableRecord
100
AcDbLinetypeTableRecord
70
0
2
CONTINUOUS
3
Solid line
72
65
73
0
40
0
0
LTYPE
5
6A
100
AcDbSymbolTableRecord
100
AcDbLinetypeTableRecord
70
0
2
CENTER
3
____ _ ____ _ ____ _ ____
72
65
73
4
40
47.5
49
22
74
0
49
-8.5
74
0
49
8.5
74
0
49
-8.5
74
0
0
LTYPE
5
6B
100
AcDbSymbolTableRecord
100
AcDbLinetypeTableRecord
70
0
2
DASHED
3
__ __ __ __ __ __ __ __ __
72
65
73
2
40
25.72
49
12.86
74
0
49
-12.86
74
0
0
ENDTAB
0
TABLE
2
LAYER
5
239
100
AcDbSymbolTable
0
LAYER
5
10
100
AcDbSymbolTableRecord
100
AcDbLayerTableRecord
2
0
70
0
62
7
6
CONTINUOUS
290
1
370
-3
390
0
0
LAYER
5
6D
100
AcDbSymbolTableRecord
100
AcDbLayerTableRecord
2
80
70
0
62
-6
6
CONTINUOUS
290
1
370
-3
390
0
0
LAYER
5
6F
100
AcDbSymbolTableRecord
100
AcDbLayerTableRecord
2
81
70
0
62
-3
6
CONTINUOUS
290
1
370
-3
390
0
0
LAYER
5
72
100
AcDbSymbolTableRecord
100
AcDbLayerTableRecord
2
1
70
0
62
4
6
CONTINUOUS
290
1
370
-3
390
0
0
LAYER
5
8F
100
AcDbSymbolTableRecord
100
AcDbLayerTableRecord
2
4
70
0
62
-2
6
CENTER
290
1
370
-3
390
0
0
LAYER
5
197
100
AcDbSymbolTableRecord
100
AcDbLayerTableRecord
2
2
70
0
62
7
6
CONTINUOUS
290
1
370
-3
390
0
0
LAYER
5
223
100
AcDbSymbolTableRecord
100
AcDbLayerTableRecord
2
SK1
70
0
62
4
6
CONTINUOUS
290
1
370
-3
390
0
0
LAYER
5
224
100
AcDbSymbolTableRecord
100
AcDbLayerTableRecord
2
SK4
70
0
62
2
6
CENTER
290
1
370
-3
390
0
0
LAYER
5
225
100
AcDbSymbolTableRecord
100
AcDbLayerTableRecord
2
SK6
70
0
62
5
6
CONTINUOUS
290
1
370
-3
390
0
0
LAYER
5
226
100
AcDbSymbolTableRecord
100
AcDbLayerTableRecord
2
SK2
70
0
62
7
6
CONTINUOUS
290
1
370
-3
390
0
0
ENDTAB
0
TABLE
2
STYLE
5
23a
100
AcDbSymbolTable
0
STYLE
5
11
100
AcDbSymbolTableRecord
100
AcDbTextStyleTableRecord
2
Standard
3
txt
70
0
71
0
40
0
41
1
42
0
50
0
0
STYLE
5
192
100
AcDbSymbolTableRecord
100
AcDbTextStyleTableRecord
2
iso_b_vert
3
simplex.shx
70
0
71
0
40
0
41
1
42
0
50
0
0
STYLE
5
193
100
AcDbSymbolTableRecord
100
AcDbTextStyleTableRecord
2
DWGDirectTextStyle
3
simplex
70
0
71
0
40
0
41
1
42
0
50
0
0
ENDTAB
0
TABLE
2
DIMSTYLE
5
23b
100
AcDbSymbolTable
100
AcDbDimStyleTable
0
DIMSTYLE
105
27
100
AcDbSymbolTableRecord
100
AcDbDimStyleTableRecord
2
Standard
70
0
3
<>
41
0.18
42
0.0625
44
0.18
140
0.18
147
0.09
73
0
74
0
77
1
271
2
275
0
278
52
280
0
340
11
0
ENDTAB
0
TABLE
2
VIEW
5
23c
100
AcDbSymbolTable
0
ENDTAB
0
TABLE
2
UCS
5
23d
100
AcDbSymbolTable
0
ENDTAB
0
TABLE
2
APPID
5
23e
100
AcDbSymbolTable
0
APPID
5
12
100
AcDbSymbolTableRecord
100
AcDbRegAppTableRecord
2
ACAD
70
0
0
ENDTAB
0
TABLE
2
BLOCK_RECORD
5
23f
100
AcDbSymbolTable
0
BLOCK_RECORD
5
1F
100
AcDbSymbolTableRecord
100
AcDbBlockTableRecord
2
*Model_Space
340
0
70
0
0
BLOCK_RECORD
5
1B
100
AcDbSymbolTableRecord
100
AcDbBlockTableRecord
2
*Paper_Space
340
0
70
0
0
BLOCK_RECORD
5
23
100
AcDbSymbolTableRecord
100
AcDbBlockTableRecord
2
*Paper_Space0
340
0
70
0
0
BLOCK_RECORD
5
195
100
AcDbSymbolTableRecord
100
AcDbBlockTableRecord
2
DimnDraft3D1
340
0
70
0
0
BLOCK_RECORD
5
1A0
100
AcDbSymbolTableRecord
100
AcDbBlockTableRecord
2
DimnDraft3D2
340
0
70
0
0
BLOCK_RECORD
5
1AA
100
AcDbSymbolTableRecord
100
AcDbBlockTableRecord
2
DimnDraft3D3
340
0
70
0
0
BLOCK_RECORD
5
1B5
100
AcDbSymbolTableRecord
100
AcDbBlockTableRecord
2
DimnDraft3D4
340
0
70
0
0
BLOCK_RECORD
5
1BF
100
AcDbSymbolTableRecord
100
AcDbBlockTableRecord
2
DimnDraft3D5
340
0
70
0
0
ENDTAB
0
ENDSEC
0
SECTION
2
BLOCKS
0
BLOCK
5
20
100
AcDbEntity
8
0
100
AcDbBlockBegin
2
*Model_Space
70
0
10
0
20
0
30
0
3
*Model_Space
0
ENDBLK
5
21
100
AcDbEntity
8
0
100
AcDbBlockEnd
0
BLOCK
5
1C
100
AcDbEntity
8
0
100
AcDbBlockBegin
2
*Paper_Space
70
0
10
0
20
0
30
0
3
*Paper_Space
0
ENDBLK
5
1D
100
AcDbEntity
8
0
100
AcDbBlockEnd
0
BLOCK
5
24
100
AcDbEntity
8
0
100
AcDbBlockBegin
2
*Paper_Space0
70
0
10
0
20
0
30
0
3
*Paper_Space0
0
ENDBLK
5
25
100
AcDbEntity
8
0
100
AcDbBlockEnd
0
BLOCK
5
19D
100
AcDbEntity
8
0
100
AcDbBlockBegin
2
DimnDraft3D1
70
0
10
0
20
0
30
0
3
DimnDraft3D1
0
MTEXT
5
196
100
AcDbEntity
8
2
62
256
6
ByLayer
370
13
48
1
60
0
100
AcDbMText
10
63.483572
20
-21.249886
30
0
210
0
220
0
230
1
1
\W0.6864;100.0
40
3
41
0
44
1.084337
50
0
71
7
72
5
7
iso_b_vert
0
LINE
5
198
100
AcDbEntity
8
2
62
256
6
ByLayer
370
13
48
1
60
0
100
AcDbLine
10
117
20
-1.5875
30
0
11
117
21
-24
31
0
39
0
210
0
220
0
230
1
0
LINE
5
199
100
AcDbEntity
8
2
62
256
6
ByLayer
370
13
48
1
60
0
100
AcDbLine
10
17
20
-10.5875
30
0
11
17
21
-24
31
0
39
0
210
0
220
0
230
1
0
LINE
5
19A
100
AcDbEntity
8
2
62
256
6
ByLayer
370
13
48
1
60
0
100
AcDbLine
10
117
20
-22
30
0
11
17
21
-22
31
0
39
0
210
0
220
0
230
1
0
SOLID
5
19B
100
AcDbEntity
8
2
62
256
6
ByLayer
370
13
48
1
60
0
100
AcDbTrace
10
117
20
-22
30
0
11
113.500002
21
-22.460784
31
0
12
113.499998
22
-21.539216
32
0
13
117
23
-22
33
0
39
0
210
0
220
0
230
1
0
SOLID
5
19C
100
AcDbEntity
8
2
62
256
6
ByLayer
370
13
48
1
60
0
100
AcDbTrace
10
17
20
-22
30
0
11
20.499998
21
-21.539216
31
0
12
20.500002
22
-22.460784
32
0
13
17
23
-22
33
0
39
0
210
0
220
0
230
1
0
ENDBLK
5
19E
100
AcDbEntity
8
0
100
AcDbBlockEnd
0
BLOCK
5
1A7
100
AcDbEntity
8
0
100
AcDbBlockBegin
2
DimnDraft3D2
70
0
10
0
20
0
30
0
3
DimnDraft3D2
0
MTEXT
5
1A1
100
AcDbEntity
8
2
62
256
6
ByLayer
370
13
48
1
60
0
100
AcDbMText
10
65.301544
20
16.750114
30
0
210
0
220
0
230
1
1
\W0.7457;97.9
40
3
41
0
44
1.084337
50
0
71
7
72
5
7
iso_b_vert
0
LINE
5
1A2
100
AcDbEntity
8
2
62
256
6
ByLayer
370
13
48
1
60
0
100
AcDbLine
10
117
20
1.5875
30
0
11
117
21
18
31
0
39
0
210
0
220
0
230
1
0
LINE
5
1A3
100
AcDbEntity
8
2
62
256
6
ByLayer
370
13
48
1
60
0
100
AcDbLine
10
19.144
20
10.5875
30
0
11
19.144
21
18
31
0
39
0
210
0
220
0
230
1
0
LINE
5
1A4
100
AcDbEntity
8
2
62
256
6
ByLayer
370
13
48
1
60
0
100
AcDbLine
10
117
20
16
30
0
11
19.144
21
16
31
0
39
0
210
0
220
0
230
1
0
SOLID
5
1A5
100
AcDbEntity
8
2
62
256
6
ByLayer
370
13
48
1
60
0
100
AcDbTrace
10
117
20
16
30
0
11
113.500002
21
15.539216
31
0
12
113.499998
22
16.460784
32
0
13
117
23
16
33
0
39
0
210
0
220
0
230
1
0
SOLID
5
1A6
100
AcDbEntity
8
2
62
256
6
ByLayer
370
13
48
1
60
0
100
AcDbTrace
10
19.144
20
16
30
0
11
22.643998
21
16.460784
31
0
12
22.644002
22
15.539216
32
0
13
19.144
23
16
33
0
39
0
210
0
220
0
230
1
0
ENDBLK
5
1A8
100
AcDbEntity
8
0
100
AcDbBlockEnd
0
BLOCK
5
1B2
100
AcDbEntity
8
0
100
AcDbBlockBegin
2
DimnDraft3D3
70
0
10
0
20
0
30
0
3
DimnDraft3D3
0
MTEXT
5
1AB
100
AcDbEntity
8
SK2
62
256
6
ByLayer
370
13
48
1
60
0
100
AcDbMText
10
-27.770456
20
-32.249886
30
0
210
0
220
0
230
1
1
\W0.7346;50.0
40
3
41
0
44
1.084337
50
0
71
7
72
5
7
iso_b_vert
0
LINE
5
1AD
100
AcDbEntity
8
SK2
62
256
6
ByLayer
370
13
48
1
60
0
100
AcDbLine
10
-50
20
-11.5875
30
0
11
-50
21
-35
31
0
39
0
210
0
220
0
230
1
0
LINE
5
1AE
100
AcDbEntity
8
SK2
62
256
6
ByLayer
370
13
48
1
60
0
100
AcDbLine
10
0
20
-14.0875
30
0
11
0
21
-35
31
0
39
0
210
0
220
0
230
1
0
LINE
5
1AF
100
AcDbEntity
8
SK2
62
256
6
ByLayer
370
13
48
1
60
0
100
AcDbLine
10
-50
20
-33
30
0
11
0
21
-33
31
0
39
0
210
0
220
0
230
1
0
SOLID
5
1B0
100
AcDbEntity
8
SK2
62
256
6
ByLayer
370
13
48
1
60
0
100
AcDbTrace
10
-50
20
-33
30
0
11
-46.500002
21
-32.539216
31
0
12
-46.499998
22
-33.460784
32
0
13
-50
23
-33
33
0
39
0
210
0
220
0
230
1
0
SOLID
5
1B1
100
AcDbEntity
8
SK2
62
256
6
ByLayer
370
13
48
1
60
0
100
AcDbTrace
10
0
20
-33
30
0
11
-3.499998
21
-33.460784
31
0
12
-3.500002
22
-32.539216
32
0
13
0
23
-33
33
0
39
0
210
0
220
0
230
1
0
ENDBLK
5
1B3
100
AcDbEntity
8
0
100
AcDbBlockEnd
0
BLOCK
5
1BC
100
AcDbEntity
8
0
100
AcDbBlockBegin
2
DimnDraft3D4
70
0
10
0
20
0
30
0
3
DimnDraft3D4
0
MTEXT
5
1B6
100
AcDbEntity
8
2
62
256
6
ByLayer
370
13
48
1
60
0
100
AcDbMText
10
55.358515
20
-32.249886
30
0
210
0
220
0
230
1
1
\W0.6261;117.0
40
3
41
0
44
1.084337
50
0
71
7
72
5
7
iso_b_vert
0
LINE
5
1B7
100
AcDbEntity
8
2
62
256
6
ByLayer
370
13
48
1
60
0
100
AcDbLine
10
0
20
-14.0875
30
0
11
0
21
-35
31
0
39
0
210
0
220
0
230
1
0
LINE
5
1B8
100
AcDbEntity
8
2
62
256
6
ByLayer
370
13
48
1
60
0
100
AcDbLine
10
117
20
-1.5875
30
0
11
117
21
-35
31
0
39
0
210
0
220
0
230
1
0
LINE
5
1B9
100
AcDbEntity
8
2
62
256
6
ByLayer
370
13
48
1
60
0
100
AcDbLine
10
0
20
-33
30
0
11
117
21
-33
31
0
39
0
210
0
220
0
230
1
0
SOLID
5
1BA
100
AcDbEntity
8
2
62
256
6
ByLayer
370
13
48
1
60
0
100
AcDbTrace
10
0
20
-33
30
0
11
3.499998
21
-32.539216
31
0
12
3.500002
22
-33.460784
32
0
13
0
23
-33
33
0
39
0
210
0
220
0
230
1
0
SOLID
5
1BB
100
AcDbEntity
8
2
62
256
6
ByLayer
370
13
48
1
60
0
100
AcDbTrace
10
117
20
-33
30
0
11
113.500002
21
-33.460784
31
0
12
113.499998
22
-32.539216
32
0
13
117
23
-33
33
0
39
0
210
0
220
0
230
1
0
ENDBLK
5
1BD
100
AcDbEntity
8
0
100
AcDbBlockEnd
0
BLOCK
5
1C7
100
AcDbEntity
8
0
100
AcDbBlockBegin
2
DimnDraft3D5
70
0
10
0
20
0
30
0
3
DimnDraft3D5
0
MTEXT
5
1C0
100
AcDbEntity
8
SK2
62
256
6
ByLayer
370
13
48
1
60
0
100
AcDbMText
10
-57.750114
20
0.229544
30
0
210
0
220
0
230
1
1
\W0.7346;20.0
40
3
41
0
44
1.084337
50
90
71
7
72
5
7
iso_b_vert
0
MTEXT
5
1C1
100
AcDbEntity
8
SK2
62
256
6
ByLayer
370
13
48
1
60
0
100
AcDbMText
10
-57.750114
20
-4.247019
30
0
210
0
220
0
230
1
1
%%c
40
3
41
0
44
1.084337
50
90
71
7
72
5
7
iso_b_vert
0
LINE
5
1C2
100
AcDbEntity
8
SK2
62
256
6
ByLayer
370
13
48
1
60
0
100
AcDbLine
10
-51.5875
20
10
30
0
11
-58.25
21
10
31
0
39
0
210
0
220
0
230
1
0
LINE
5
1C3
100
AcDbEntity
8
SK2
62
256
6
ByLayer
370
13
48
1
60
0
100
AcDbLine
10
-51.5875
20
-10
30
0
11
-58.25
21
-10
31
0
39
0
210
0
220
0
230
1
0
LINE
5
1C4
100
AcDbEntity
8
SK2
62
256
6
ByLayer
370
13
48
1
60
0
100
AcDbLine
10
-56.25
20
10
30
0
11
-56.25
21
-10
31
0
39
0
210
0
220
0
230
1
0
SOLID
5
1C5
100
AcDbEntity
8
SK2
62
256
6
ByLayer
370
13
48
1
60
0
100
AcDbTrace
10
-56.25
20
10
30
0
11
-55.789216
21
6.500002
31
0
12
-56.710784
22
6.499998
32
0
13
-56.25
23
10
33
0
39
0
210
0
220
0
230
1
0
SOLID
5
1C6
100
AcDbEntity
8
SK2
62
256
6
ByLayer
370
13
48
1
60
0
100
AcDbTrace
10
-56.25
20
-10
30
0
11
-56.710784
21
-6.500002
31
0
12
-55.789216
22
-6.499998
32
0
13
-56.25
23
-10
33
0
39
0
210
0
220
0
230
1
0
ENDBLK
5
1C8
100
AcDbEntity
8
0
100
AcDbBlockEnd
0
ENDSEC
0
SECTION
2
ENTITIES
0
ARC
5
E3
100
AcDbEntity
8
SK1
62
256
6
ByLayer
370
18
48
1
60
0
100
AcDbCircle
39
0
10
47.946236
20
-10.49675
30
0
40
0.799999999999998
210
0
220
0
230
-1
100
AcDbArc
50
51
51
130.534532
0
ARC
5
E4
100
AcDbEntity
8
SK1
62
256
6
ByLayer
370
18
48
1
60
0
100
AcDbCircle
39
0
10
47.946236
20
10.49675
30
0
40
0.799999999999998
210
0
220
0
230
-1
100
AcDbArc
50
229.465468
51
309
0
ARC
5
E5
100
AcDbEntity
8
SK1
62
256
6
ByLayer
370
18
48
1
60
0
100
AcDbCircle
39
0
10
0.975195
20
10.14675
30
0
40
0.4
210
0
220
0
230
-1
100
AcDbArc
50
270
51
295
0
ARC
5
E6
100
AcDbEntity
8
SK1
62
256
6
ByLayer
370
18
48
1
60
0
100
AcDbCircle
39
0
10
0.975195
20
-10.14675
30
0
40
0.4
210
0
220
0
230
-1
100
AcDbArc
50
65
51
90
0
ARC
5
E7
100
AcDbEntity
8
1
62
256
6
ByLayer
370
18
48
1
60
0
100
AcDbCircle
39
0
10
-17
20
-16.6
30
0
40
7.99999999999999
210
0
220
0
230
-1
100
AcDbArc
50
66.569681
51
90
0
ARC
5
E8
100
AcDbEntity
8
1
62
256
6
ByLayer
370
18
48
1
60
0
100
AcDbCircle
39
0
10
-17
20
16.6
30
0
40
7.99999999999999
210
0
220
0
230
-1
100
AcDbArc
50
270
51
293.430319
0
ARC
5
E9
100
AcDbEntity
8
SK1
62
256
6
ByLayer
370
18
48
1
60
0
100
AcDbCircle
39
0
10
0.15
20
10.14675
30
0
40
0.4
210
0
220
0
230
-1
100
AcDbArc
50
247.975687
51
270
0
ARC
5
EA
100
AcDbEntity
8
SK1
62
256
6
ByLayer
370
18
48
1
60
0
100
AcDbCircle
39
0
10
0.15
20
-10.14675
30
0
40
0.4
210
0
220
0
230
-1
100
AcDbArc
50
90
51
112.024313
0
ELLIPSE
5
EB
100
AcDbEntity
8
1
62
256
6
ByLayer
370
18
48
1
60
0
100
AcDbEllipse
10
94.3
20
8.989325
30
0
11
-0.193879909121965
21
-5.99686673028832
31
0
210
0
220
0
230
1
40
0.340668
41
1.20533396624358
42
1.20677067959859
0
ELLIPSE
5
EC
100
AcDbEntity
8
1
62
256
6
ByLayer
370
18
48
1
60
0
100
AcDbEllipse
10
96.293662
20
-82.412848
30
0
11
79.5429240106635
21
0.714536741703589
31
0
210
0
220
0
230
1
40
0.935989
41
1.44224405309487
42
1.44386048535936
0
ELLIPSE
5
ED
100
AcDbEntity
8
1
62
256
6
ByLayer
370
18
48
1
60
0
100
AcDbEllipse
10
109.853609
20
-1.193726
30
0
11
1.49645028031417
21
0.375484061070848
31
0
210
0
220
0
230
1
40
0.791274
41
1.92987846904247
42
-1.76861064250786
0
ELLIPSE
5
EE
100
AcDbEntity
8
1
62
256
6
ByLayer
370
18
48
1
60
0
100
AcDbEllipse
10
17.144
20
1.381335
30
0
11
-1.18266396432446
21
-5.88228747576044
31
0
210
0
220
0
230
1
40
0.030515
41
2.53088877632018
42
2.53133883932513
0
ELLIPSE
5
EF
100
AcDbEntity
8
1
62
256
6
ByLayer
370
13
48
1
60
0
100
AcDbEllipse
10
17.144
20
1.381335
30
0
11
0.90776753141408
21
5.93093231363421
31
0
210
0
220
0
230
1
40
0.698775
41
0.702324845318097
42
2.77489575152877
0
ELLIPSE
5
F0
100
AcDbEntity
8
1
62
256
6
ByLayer
370
18
48
1
60
0
100
AcDbEllipse
10
123.712215
20
0
30
0
11
11.9332126377861
21
8.08890873671882
31
0
210
0
220
0
230
1
40
0.290406
41
2.89891466768691
42
-3.1327006876435
0
ELLIPSE
5
F1
100
AcDbEntity
8
1
62
256
6
ByLayer
370
13
48
1
60
0
100
AcDbEllipse
10
94.3
20
8.989325
30
0
11
-0.193879909121965
21
-5.99686673028832
31
0
210
0
220
0
230
1
40
0.340668
41
0.885133480558937
42
1.20533396624358
0
ELLIPSE
5
F2
100
AcDbEntity
8
1
62
256
6
ByLayer
370
13
48
1
60
0
100
AcDbEllipse
10
17.144
20
1.381335
30
0
11
-1.18266396432446
21
-5.88228747576044
31
0
210
0
220
0
230
1
40
0.030515
41
0.350337013271624
42
2.53088877632018
0
ELLIPSE
5
F3
100
AcDbEntity
8
1
62
256
6
ByLayer
370
18
48
1
60
0
100
AcDbEllipse
10
117
20
0
30
0
11
3.14328775945345
21
-8.99717421169566
31
0
210
0
220
0
230
1
40
0.07175
41
2.78352763339427
42
2.87285562178504
0
ELLIPSE
5
F4
100
AcDbEntity
8
1
62
256
6
ByLayer
370
18
48
1
60
0
100
AcDbEllipse
10
95.145285
20
7.880557
30
0
11
2.74269427357691
21
9.17208754498241
31
0
210
0
220
0
230
1
40
0.13253
41
-1.65000190378477
42
-1.59151668634478
0
ELLIPSE
5
F5
100
AcDbEntity
8
1
62
256
6
ByLayer
370
18
48
1
60
0
100
AcDbEllipse
10
105.45
20
2.45
30
0
11
0.065010072091467
21
0.241399441734744
31
0
210
0
220
0
230
1
40
1
41
-1.80266652669079
42
-1.30773240012015
0
ELLIPSE
5
F6
100
AcDbEntity
8
1
62
256
6
ByLayer
370
18
48
1
60
0
100
AcDbEllipse
10
16.626726
20
-1.230681
30
0
11
2.99830997810119
21
13.8135575048515
31
0
210
0
220
0
230
1
40
0.007281
41
-1.82980661689561
42
-1.78266143179438
0
ELLIPSE
5
F7
100
AcDbEntity
8
1
62
256
6
ByLayer
370
18
48
1
60
0
100
AcDbEllipse
10
116.966518
20
0.160806
30
0
11
0.0470796687471475
21
-0.153149516731982
31
0
210
0
220
0
230
1
40
0.055315
41
-2.44405691296814
42
-1.75915903921413
0
ELLIPSE
5
F8
100
AcDbEntity
8
1
62
256
6
ByLayer
370
18
48
1
60
0
100
AcDbEllipse
10
116.966518
20
-0.160806
30
0
11
0.0470796687411941
21
0.153149516715071
31
0
210
0
220
0
230
1
40
0.055315
41
1.75915903914416
42
2.44405691296208
0
ELLIPSE
5
F9
100
AcDbEntity
8
1
62
256
6
ByLayer
370
18
48
1
60
0
100
AcDbEllipse
10
102.16
20
-3.81646
30
0
11
-1.84999999999999
21
2.26552175457139E-16
31
0
210
0
220
0
230
1
40
0.702153
41
1.07157782523577
42
2.06412472094027
0
ELLIPSE
5
FA
100
AcDbEntity
8
1
62
256
6
ByLayer
370
18
48
1
60
0
100
AcDbEllipse
10
17.626339
20
3.513559
30
0
11
2.99792206226587
21
16.7745026978682
31
0
210
0
220
0
230
1
40
0.006611
41
-1.40990716010082
42
-1.38662427904666
0
ELLIPSE
5
FB
100
AcDbEntity
8
1
62
256
6
ByLayer
370
18
48
1
60
0
100
AcDbEllipse
10
110.40786
20
-1.21748
30
0
11
0.369670338942552
21
-1.25984148740018
31
0
210
0
220
0
230
1
40
0.315245
41
0.22440575729097
42
-3.08732334704031
0
ELLIPSE
5
FC
100
AcDbEntity
8
1
62
256
6
ByLayer
370
18
48
1
60
0
100
AcDbEllipse
10
17.144
20
1.381335
30
0
11
-1.18266396432446
21
-5.88228747576044
31
0
210
0
220
0
230
1
40
0.030515
41
0.349954860069075
42
0.350337013271624
0
ELLIPSE
5
FD
100
AcDbEntity
8
1
62
256
6
ByLayer
370
18
48
1
60
0
100
AcDbEllipse
10
117
20
0
30
0
11
3.14328754650203
21
8.99717355562475
31
0
210
0
220
0
230
1
40
0.07175
41
-2.87285561220277
42
-2.78352762043842
0
ELLIPSE
5
FE
100
AcDbEntity
8
1
62
256
6
ByLayer
370
18
48
1
60
0
100
AcDbEllipse
10
110.721258
20
-1.230911
30
0
11
0.00195422022418873
21
-1.25108570435177
31
0
210
0
220
0
230
1
40
0.343317
41
0.14597167972116
42
0.31610813075124
0
POINT
5
6C
100
AcDbEntity
8
80
62
256
6
ByLayer
370
18
48
1
60
0
100
AcDbPoint
10
0
20
0
30
0
39
0
210
0
220
0
230
1
50
360
0
POINT
5
6E
100
AcDbEntity
8
81
62
256
6
ByLayer
370
18
48
1
60
0
100
AcDbPoint
10
105.7
20
0
30
0
39
0
210
0
220
0
230
1
50
360
0
SPLINE
5
FF
100
AcDbEntity
8
1
62
256
6
ByLayer
370
18
48
1
60
0
100
AcDbSpline
70
4
71
3
72
13
73
9
40
0
40
0
40
0
40
0
40
0.191183823326808
40
0.381702132462876
40
0.569291753627384
40
0.713813756568829
40
0.856509350394198
40
1
40
1
40
1
40
1
41
1
10
13.7271777641003
20
9.29940861216025
30
0
41
1
10
13.1835084478477
20
9.54738074116386
30
0
41
1
10
12.1020958350068
20
10.0509734261194
30
0
41
1
10
10.5224075644788
20
10.8690658765942
30
0
41
1
10
9.04453136493947
20
11.5672474888195
30
0
41
1
10
7.65436944475559
20
12.0892186350003
30
0
41
1
10
6.34306419044128
20
12.4204374011066
30
0
41
1
10
5.45293930736619
20
12.4949425771488
30
0
41
1
10
5.00070000000002
20
12.5
30
0
0
SPLINE
5
100
100
AcDbEntity
8
1
62
256
6
ByLayer
370
18
48
1
60
0
100
AcDbSpline
70
4
71
3
72
13
73
9
40
0
40
0
40
0
40
0
40
0.137024397221592
40
0.273177763028261
40
0.410866232735295
40
0.550884600293989
40
0.774695890876714
40
1
40
1
40
1
40
1
41
1
10
5.00070000000002
20
-12.5
30
0
41
1
10
5.43232624601163
20
-12.4956733884427
30
0
41
1
10
6.2822859635684
20
-12.4274470073972
30
0
41
1
10
7.53592223843702
20
-12.1240034127154
30
0
41
1
10
8.7527622916665
20
-11.6827051986261
30
0
41
1
10
10.1835332066993
20
-11.0405101807078
30
0
41
1
10
11.8172943031856
20
-10.1909637750143
30
0
41
1
10
13.0887028343581
20
-9.59631603078884
30
0
41
1
10
13.7271777641003
20
-9.29940861216022
30
0
0
SPLINE
5
101
100
AcDbEntity
8
1
62
256
6
ByLayer
370
18
48
1
60
0
100
AcDbSpline
70
4
71
3
72
45
73
41
40
0
40
0
40
0
40
0
40
0.0132473412647776
40
0.0306965817660207
40
0.0572691107860713
40
0.0837760037561966
40
0.110000791742317
40
0.135976278128304
40
0.182008205511017
40
0.227577739664233
40
0.270041266272057
40
0.306917255254815
40
0.338205681688471
40
0.358872991855453
40
0.376776258441195
40
0.398623806927551
40
0.42613812435977
40
0.457393512414066
40
0.491881296061692
40
0.527600975010078
40
0.55967602918381
40
0.58570355618163
40
0.605620217157182
40
0.629663180275818
40
0.657833118205166
40
0.687334521070252
40
0.71310021125187
40
0.737861949617514
40
0.761361582253559
40
0.780386773694252
40
0.793977353902404
40
0.79873209091944
40
0.805647745657069
40
0.814928374962386
40
0.833281999723162
40
0.856951550886778
40
0.88593173663713
40
0.920215063548819
40
0.959791237293668
40
1
40
1
40
1
40
1
41
1
10
61.1844176104639
20
8.29451081838303
30
0
41
1
10
61.0457071714238
20
8.29295545927073
30
0
41
1
10
60.7079836468499
20
8.28818256635287
30
0
41
1
10
59.9863792243652
20
8.26468370364998
30
0
41
1
10
59.0385824383553
20
8.2564646676679
30
0
41
1
10
57.9818039344754
20
8.24653286166597
30
0
41
1
10
56.9270718747566
20
8.24076086178491
30
0
41
1
10
55.6103379744871
20
8.23865533309669
30
0
41
1
10
54.033161475078
20
8.24541346300609
30
0
41
1
10
52.2464892440413
20
8.26671527678218
30
0
41
1
10
50.5887110800535
20
8.28354770186584
30
0
41
1
10
49.1164782759561
20
8.29139884173665
30
0
41
1
10
47.9327215618922
20
8.29454845690964
30
0
41
1
10
47.000059405168
20
8.2954124994699
30
0
41
1
10
46.19179243277
20
8.29540700724678
30
0
41
1
10
45.2907765294177
20
8.29499878172922
30
0
41
1
10
44.2105699873235
20
8.29436006648669
30
0
41
1
10
42.9605544692066
20
8.29359717748969
30
0
41
1
10
41.6002253902979
20
8.2929877678545
30
0
41
1
10
40.2290930232471
20
8.29267631246086
30
0
41
1
10
38.9713944435698
20
8.29251541215626
30
0
41
1
10
37.9254369626645
20
8.29249485520521
30
0
41
1
10
36.987160070913
20
8.29257079507437
30
0
41
1
10
36.0201616156966
20
8.29273950319845
30
0
41
1
10
34.9246662233975
20
8.29304789859734
30
0
41
1
10
33.8060749383445
20
8.2934853289639
30
0
41
1
10
32.733175155555
20
8.29400459313902
30
0
41
1
10
31.7407376765839
20
8.2945569254311
30
0
41
1
10
30.8386666783988
20
8.29510929186714
30
0
41
1
10
30.0863608325434
20
8.29559700941482
30
0
41
1
10
29.5853565606022
20
8.29593116319501
30
0
41
1
10
29.2466973282245
20
8.29615930972761
30
0
41
1
10
28.9658208389904
20
8.29634941388971
30
0
41
1
10
28.5026347606462
20
8.29666390068519
30
0
41
1
10
27.8148429457982
20
8.29713021789735
30
0
41
1
10
26.86295398849
20
8.29776108038936
30
0
41
1
10
25.6975053619095
20
8.29848544196284
30
0
41
1
10
24.3188039441992
20
8.29922185522611
30
0
41
1
10
22.7895627496161
20
8.29981581483818
30
0
41
1
10
21.7199338272445
20
8.29994915485742
30
0
41
1
10
21.1808781901183
20
8.29995296743647
30
0
0
SPLINE
5
102
100
AcDbEntity
8
1
62
256
6
ByLayer
370
18
48
1
60
0
100
AcDbSpline
70
4
71
1
72
4
73
2
40
0
40
0
40
1
40
1
41
1
10
98.2681184244784
20
4.4738896279664
30
0
41
1
10
98.2681297530416
20
4.47388644558686
30
0
0
SPLINE
5
103
100
AcDbEntity
8
1
62
256
6
ByLayer
370
18
48
1
60
0
100
AcDbSpline
70
4
71
2
72
6
73
3
40
0
40
0
40
0
40
1
40
1
40
1
41
1
10
60.4163349811628
20
-0.875295099674844
30
0
41
1
10
60.4863619953209
20
-0.888107061524664
30
0
41
1
10
60.5563875310782
20
-0.902020681567848
30
0
0
SPLINE
5
104
100
AcDbEntity
8
1
62
256
6
ByLayer
370
18
48
1
60
0
100
AcDbSpline
70
4
71
1
72
4
73
2
40
0
40
0
40
1
40
1
41
1
10
68.6533975777737
20
0.000590143145331
30
0
41
1
10
68.6530945191823
20
0.0006481114919268
30
0
0
SPLINE
5
105
100
AcDbEntity
8
1
62
256
6
ByLayer
370
18
48
1
60
0
100
AcDbSpline
70
4
71
3
72
32
73
28
40
0
40
0
40
0
40
0
40
0.0493108193760106
40
0.0928181839939034
40
0.130506951328453
40
0.162365804492572
40
0.188386505721966
40
0.208563237552465
40
0.247831615279956
40
0.303847226073225
40
0.369738880786097
40
0.432726300596325
40
0.479400363670934
40
0.537922180960495
40
0.601611496156932
40
0.638694613015256
40
0.670597736304927
40
0.695205512235636
40
0.716975263637011
40
0.743081260916568
40
0.773626635122402
40
0.808613898398514
40
0.842871320948828
40
0.879854844165737
40
0.917251439013696
40
0.954965377963875
40
1
40
1
40
1
40
1
41
1
10
20.9939999999896
20
-8.29995176257253
30
0
41
1
10
21.5953485658671
20
-8.29996372887334
30
0
41
1
10
22.7272702828237
20
-8.29984000951367
30
0
41
1
10
24.3188039292625
20
-8.29922185469374
30
0
41
1
10
25.6975054063358
20
-8.29848544354624
30
0
41
1
10
26.8629538608938
20
-8.29776107584172
30
0
41
1
10
27.8148432924272
20
-8.29713023025161
30
0
41
1
10
28.857089098709
20
-8.29642353406479
30
0
41
1
10
30.2651433428005
20
-8.2954667221556
30
0
41
1
10
32.2306836653897
20
-8.29423364828517
30
0
41
1
10
34.4854919532418
20
-8.29314190839528
30
0
41
1
10
36.6263494150082
20
-8.29256304343204
30
0
41
1
10
38.6774159796481
20
-8.2924623570936
30
0
41
1
10
40.736671347059
20
-8.29271057480756
30
0
41
1
10
42.6794798353953
20
-8.29341042288019
30
0
41
1
10
44.2971581662918
20
-8.29441724118777
30
0
41
1
10
45.4378831882882
20
-8.29507894156654
30
0
41
1
10
46.3916289087989
20
-8.29547439349335
30
0
41
1
10
47.2731374684406
20
-8.29528721971153
30
0
41
1
10
48.2249066570187
20
-8.29395280071918
30
0
41
1
10
49.3353283074273
20
-8.29035734436036
30
0
41
1
10
50.5428991205184
20
-8.28329087811193
30
0
41
1
10
51.8268206072786
20
-8.27175811452423
30
0
41
1
10
53.1393976268699
20
-8.25505538877195
30
0
41
1
10
54.5032419008295
20
-8.24333133552236
30
0
41
1
10
55.9681677469382
20
-8.23809117646613
30
0
41
1
10
56.9779981177731
20
-8.24129014180056
30
0
41
1
10
57.5266787124402
20
-8.24444072313457
30
0
0
SPLINE
5
106
100
AcDbEntity
8
1
62
256
6
ByLayer
370
18
48
1
60
0
100
AcDbSpline
70
4
71
3
72
8
73
4
40
0
40
0
40
0
40
0
40
1
40
1
40
1
40
1
41
1
10
60.9116890497262
20
-8.29071259595125
30
0
41
1
10
61.0061834950703
20
-8.29235355895582
30
0
41
1
10
61.0973144702382
20
-8.29354064140222
30
0
41
1
10
61.1855750120941
20
-8.29452960643411
30
0
0
SPLINE
5
107
100
AcDbEntity
8
1
62
256
6
ByLayer
370
18
48
1
60
0
100
AcDbSpline
70
4
71
3
72
14
73
10
40
0
40
0
40
0
40
0
40
0.150152101565412
40
0.272039009028048
40
0.367178161792244
40
0.450162292442815
40
0.606581612166286
40
0.821180634443753
40
1
40
1
40
1
40
1
41
1
10
109.333868495126
20
-8.84998571176976
30
0
41
1
10
109.552494747146
20
-8.84968487696824
30
0
41
1
10
109.95220346048
20
-8.84911256071504
30
0
41
1
10
110.499361461556
20
-8.84710821786149
30
0
41
1
10
110.953886342829
20
-8.84712218231189
30
0
41
1
10
111.446994914123
20
-8.84941748735071
30
0
41
1
10
112.130395050007
20
-8.84959511325843
30
0
41
1
10
112.95634880925
20
-8.84985412449598
30
0
41
1
10
113.548229509372
20
-8.84992753881909
30
0
41
1
10
113.817280908155
20
-8.84994837558781
30
0
0
SPLINE
5
108
100
AcDbEntity
8
1
62
256
6
ByLayer
370
18
48
1
60
0
100
AcDbSpline
70
4
71
3
72
9
73
5
40
0
40
0
40
0
40
0
40
0.939085280852296
40
1
40
1
40
1
40
1
41
1
10
113.828248755159
20
8.85005682170973
30
0
41
1
10
113.555490047569
20
8.85003732879815
30
0
41
1
10
113.265124865111
20
8.84999789276657
30
0
41
1
10
112.975013001523
20
8.84993274339922
30
0
41
1
10
112.957341765495
20
8.84992868279747
30
0
0
SPLINE
5
109
100
AcDbEntity
8
1
62
256
6
ByLayer
370
18
48
1
60
0
100
AcDbSpline
70
4
71
3
72
9
73
5
40
0
40
0
40
0
40
0
40
0.666371871437991
40
1
40
1
40
1
40
1
41
1
10
105.67
20
2.33710160595197
30
0
41
1
10
105.669656798589
20
2.30623778176707
30
0
41
1
10
105.661015599734
20
2.26289337071498
30
0
41
1
10
105.639553320465
20
2.22292872648785
30
0
41
1
10
105.631215107326
20
2.21040134755685
30
0
0
SPLINE
5
10A
100
AcDbEntity
8
1
62
256
6
ByLayer
370
18
48
1
60
0
100
AcDbSpline
70
4
71
3
72
14
73
10
40
0
40
0
40
0
40
0
40
0.5
40
0.5
40
0.75
40
0.75
40
0.875
40
0.875
40
1
40
1
40
1
40
1
41
1
10
116.036621143602
20
-3.33462311121696
30
0
41
1
10
115.855076133254
20
-3.83645143457724
30
0
41
1
10
115.676369933403
20
-4.34134369922032
30
0
41
1
10
115.412863926011
20
-5.10359648568743
30
0
41
1
10
115.325794584635
20
-5.35850748916081
30
0
41
1
10
115.196461595674
20
-5.7422458154756
30
0
41
1
10
115.153510648318
20
-5.87054943436138
30
0
41
1
10
115.068757961979
20
-6.12554947678055
30
0
41
1
10
115.026878115256
20
-6.25247531084975
30
0
41
1
10
114.985517673744
20
-6.37880046430141
30
0
0
SPLINE
5
10B
100
AcDbEntity
8
1
62
256
6
ByLayer
370
18
48
1
60
0
100
AcDbSpline
70
4
71
3
72
66
73
62
40
0
40
0
40
0
40
0
40
0.0624999999999985
40
0.0624999999999985
40
0.124999999999998
40
0.124999999999998
40
0.187499999999997
40
0.187499999999997
40
0.249999999999996
40
0.249999999999996
40
0.312499999999995
40
0.312499999999995
40
0.343749999999995
40
0.343749999999995
40
0.359374999999995
40
0.359374999999995
40
0.374999999999994
40
0.374999999999994
40
0.406249999999994
40
0.406249999999994
40
0.437499999999994
40
0.437499999999994
40
0.453124999999994
40
0.453124999999994
40
0.468749999999994
40
0.468749999999994
40
0.499999999999994
40
0.499999999999994
40
0.507812499999994
40
0.507812499999994
40
0.515624999999994
40
0.515624999999994
40
0.531249999999994
40
0.531249999999994
40
0.546874999999994
40
0.546874999999994
40
0.562499999999994
40
0.562499999999994
40
0.578124999999994
40
0.578124999999994
40
0.593749999999994
40
0.593749999999994
40
0.624999999999994
40
0.624999999999994
40
0.640624999999995
40
0.640624999999995
40
0.656249999999995
40
0.656249999999995
40
0.687499999999995
40
0.687499999999995
40
0.718749999999996
40
0.718749999999996
40
0.749999999999996
40
0.749999999999996
40
0.812499999999997
40
0.812499999999997
40
0.874999999999998
40
0.874999999999998
40
0.937499999999999
40
0.937499999999999
40
1
40
1
40
1
40
1
41
1
10
13.7271777641003
20
-3.77575434596952
30
0
41
1
10
13.3102713658798
20
-3.66503602370307
30
0
41
1
10
12.8981878260434
20
-3.55387042284892
30
0
41
1
10
12.0776683536599
20
-3.32602076154899
30
0
41
1
10
11.6692550491719
20
-3.20937841583057
30
0
41
1
10
10.8511479312681
20
-2.96233493178317
30
0
41
1
10
10.4419102408803
20
-2.83216487141229
30
0
41
1
10
9.62020059251574
20
-2.54501396084231
30
0
41
1
10
9.20764627512847
20
-2.38827095462153
30
0
41
1
10
8.37863727696413
20
-2.02468875389999
30
0
41
1
10
7.96710939027795
20
-1.82018821755855
30
0
41
1
10
7.36550875684907
20
-1.45471748459593
30
0
41
1
10
7.16757049878413
20
-1.32294782923202
30
0
41
1
10
6.87690370587416
20
-1.10515995972426
30
0
41
1
10
6.78126756503087
20
-1.02929866023197
30
0
41
1
10
6.595308419768
20
-0.872104771975017
30
0
41
1
10
6.50467172889515
20
-0.790544503789192
30
0
41
1
10
6.2407934078787
20
-0.535942770757032
30
0
41
1
10
6.07527562971012
20
-0.352839898916528
30
0
41
1
10
5.77355754857098
20
0.0460935154140998
30
0
41
1
10
5.64165685849685
20
0.256272477114464
30
0
41
1
10
5.47679400303934
20
0.590098468146408
30
0
41
1
10
5.42736032379946
20
0.704479466311454
30
0
41
1
10
5.34073903406204
20
0.940119263581778
30
0
41
1
10
5.30433082362302
20
1.05936206996012
30
0
41
1
10
5.21659215045668
20
1.41922641503353
30
0
41
1
10
5.18618182599374
20
1.6629116574033
30
0
41
1
10
5.18596446774006
20
1.97269535186419
30
0
41
1
10
5.18784786606304
20
2.03492250467522
30
0
41
1
10
5.19537497020758
20
2.15799394549899
30
0
41
1
10
5.20101345278187
20
2.2190796454145
30
0
41
1
10
5.22341185785126
20
2.40101570306524
30
0
41
1
10
5.24564279475732
20
2.52054886242817
30
0
41
1
10
5.30426543425796
20
2.75615384822262
30
0
41
1
10
5.3407760332197
20
2.87252818084812
30
0
41
1
10
5.42738815423883
20
3.10045591384113
30
0
41
1
10
5.47687105493878
20
3.21050973399429
30
0
41
1
10
5.58705788292309
20
3.42335647186667
30
0
41
1
10
5.64776649474231
20
3.52614638223008
30
0
41
1
10
5.77960066154654
20
3.72480468971182
30
0
41
1
10
5.85113858816879
20
3.82113589658599
30
0
41
1
10
6.07678983313769
20
4.09576287518954
30
0
41
1
10
6.24168739549478
20
4.26017768080004
30
0
41
1
10
6.50541918978968
20
4.48386915243063
30
0
41
1
10
6.5960866797023
20
4.55458394341949
30
0
41
1
10
6.78228031428765
20
4.68893218936276
30
0
41
1
10
6.878125104231
20
4.75274092795175
30
0
41
1
10
7.16831203250683
20
4.93211690849051
30
0
41
1
10
7.3660442804123
20
5.03641871696024
30
0
41
1
10
7.76690578328115
20
5.22157023909529
30
0
41
1
10
7.9700549619927
20
5.302381593994
30
0
41
1
10
8.37979269742627
20
5.44566622843638
30
0
41
1
10
8.58679933081939
20
5.50822741363896
30
0
41
1
10
9.20819888685722
20
5.67369642455853
30
0
41
1
10
9.62061810437697
20
5.75442283897968
30
0
41
1
10
10.4421700788573
20
5.88401146883527
30
0
41
1
10
10.8514267549543
20
5.93264263808791
30
0
41
1
10
11.6694492631818
20
6.01454490536264
30
0
41
1
10
12.0778229037145
20
6.04768723061471
30
0
41
1
10
12.8982646031352
20
6.1098557493643
30
0
41
1
10
13.310310058267
20
6.13882545762124
30
0
41
1
10
13.7271777641003
20
6.16966654337756
30
0
0
SPLINE
5
10C
100
AcDbEntity
8
1
62
256
6
ByLayer
370
18
48
1
60
0
100
AcDbSpline
70
4
71
3
72
8
73
4
40
0
40
0
40
0
40
0
40
1
40
1
40
1
40
1
41
1
10
105.7
20
2.47590988145907
30
0
41
1
10
105.998141533954
20
2.3139142596965
30
0
41
1
10
106.298170245707
20
2.15923366392127
30
0
41
1
10
106.6
20
2.01153421903987
30
0
0
SPLINE
5
10D
100
AcDbEntity
8
1
62
256
6
ByLayer
370
18
48
1
60
0
100
AcDbSpline
70
4
71
3
72
8
73
4
40
0
40
0
40
0
40
0
40
1
40
1
40
1
40
1
41
1
10
15.9543877794399
20
-4.79872156642233
30
0
41
1
10
15.954928535418
20
-4.79573807856104
30
0
41
1
10
15.9554695784166
20
-4.7927534437863
30
0
41
1
10
15.9560109084104
20
-4.78976766219938
30
0
0
SPLINE
5
10E
100
AcDbEntity
8
1
62
256
6
ByLayer
370
18
48
1
60
0
100
AcDbSpline
70
4
71
3
72
8
73
4
40
0
40
0
40
0
40
0
40
1
40
1
40
1
40
1
41
1
10
109.436395476741
20
0.627861892766731
30
0
41
1
10
109.481247372196
20
0.627410419603649
30
0
41
1
10
109.526099256423
20
0.627132406794203
30
0
41
1
10
109.570951138527
20
0.627027442646437
30
0
0
SPLINE
5
10F
100
AcDbEntity
8
1
62
256
6
ByLayer
370
18
48
1
60
0
100
AcDbSpline
70
4
71
3
72
8
73
4
40
0
40
0
40
0
40
0
40
1
40
1
40
1
40
1
41
1
10
105.7
20
-8.33306666239986
30
0
41
1
10
105.666666666667
20
-8.3649941208765
30
0
41
1
10
105.633333333333
20
-8.39692157935312
30
0
41
1
10
105.6
20
-8.42884903782974
30
0
0
SPLINE
5
110
100
AcDbEntity
8
1
62
256
6
ByLayer
370
18
48
1
60
0
100
AcDbSpline
70
4
71
3
72
8
73
4
40
0
40
0
40
0
40
0
40
1
40
1
40
1
40
1
41
1
10
106.249495483867
20
-8.88260959780138
30
0
41
1
10
106.112253239763
20
-8.82305798766683
30
0
41
1
10
105.97486398905
20
-8.7629332518469
30
0
41
1
10
105.837318327291
20
-8.7022562099699
30
0
0
SPLINE
5
111
100
AcDbEntity
8
1
62
256
6
ByLayer
370
18
48
1
60
0
100
AcDbSpline
70
4
71
1
72
4
73
2
40
0
40
0
40
1
40
1
41
1
10
109.767858349737
20
-0.0881239004851295
30
0
41
1
10
109.633560291219
20
-0.102669686859343
30
0
0
SPLINE
5
112
100
AcDbEntity
8
1
62
256
6
ByLayer
370
18
48
1
60
0
100
AcDbSpline
70
4
71
3
72
18
73
14
40
0
40
0
40
0
40
0
40
0.124999999999996
40
0.124999999999996
40
0.249999999999992
40
0.249999999999992
40
0.500000000000002
40
0.500000000000002
40
0.625000000000007
40
0.625000000000007
40
0.750000000000012
40
0.750000000000012
40
1
40
1
40
1
40
1
41
1
10
112.504905217054
20
1.31542383300919
30
0
41
1
10
112.563080420728
20
1.38265440288063
30
0
41
1
10
112.624484822043
20
1.45168562746005
30
0
41
1
10
112.75375330717
20
1.59324240582495
30
0
41
1
10
112.821704137148
20
1.66584172604024
30
0
41
1
10
113.031797620562
20
1.88501469727666
30
0
41
1
10
113.181196575496
20
2.03415057229393
30
0
41
1
10
113.418891670919
20
2.26115123661063
30
0
41
1
10
113.500387853
20
2.33737081406017
30
0
41
1
10
113.66798758423
20
2.49065158921542
30
0
41
1
10
113.753834835384
20
2.56743112961072
30
0
41
1
10
114.015045976022
20
2.79548083384196
30
0
41
1
10
114.19537235055
20
2.94503106228279
30
0
41
1
10
114.379867456426
20
3.09369156742932
30
0
0
SPLINE
5
113
100
AcDbEntity
8
1
62
256
6
ByLayer
370
18
48
1
60
0
100
AcDbSpline
70
4
71
3
72
14
73
10
40
0
40
0
40
0
40
0
40
0.25
40
0.25
40
0.5
40
0.5
40
0.75
40
0.75
40
1
40
1
40
1
40
1
41
1
10
14.0459634678402
20
-3.86032205757678
30
0
41
1
10
14.0922434125711
20
-3.85531473081085
30
0
41
1
10
14.1429388366584
20
-3.85229312905088
30
0
41
1
10
14.2522703026332
20
-3.85134002394238
30
0
41
1
10
14.3111164439862
20
-3.85338203871109
30
0
41
1
10
14.4381094818505
20
-3.86350736369985
30
0
41
1
10
14.5066056671331
20
-3.87165045709796
30
0
41
1
10
14.6526091119747
20
-3.89476198741517
30
0
41
1
10
14.7295569927052
20
-3.90962269383709
30
0
41
1
10
14.8106799955467
20
-3.92786263020687
30
0
0
SPLINE
5
114
100
AcDbEntity
8
1
62
256
6
ByLayer
370
18
48
1
60
0
100
AcDbSpline
70
4
71
3
72
14
73
10
40
0
40
0
40
0
40
0
40
0.249999999999999
40
0.249999999999999
40
0.5
40
0.5
40
0.75
40
0.75
40
1
40
1
40
1
40
1
41
1
10
116.789758723394
20
-0.848067372405637
30
0
41
1
10
116.758836679705
20
-0.978756233739745
30
0
41
1
10
116.720565943828
20
-1.12755194037862
30
0
41
1
10
116.630858351736
20
-1.45540394263835
30
0
41
1
10
116.579424122189
20
-1.63445052010368
30
0
41
1
10
116.465454420796
20
-2.01561511295336
30
0
41
1
10
116.402922020991
20
-2.21772285409017
30
0
41
1
10
116.269266161121
20
-2.6368960539732
30
0
41
1
10
116.198147576971
20
-2.85394642073626
30
0
41
1
10
116.124158475552
20
-3.07412609122232
30
0
0
SPLINE
5
115
100
AcDbEntity
8
1
62
256
6
ByLayer
370
18
48
1
60
0
100
AcDbSpline
70
4
71
3
72
8
73
4
40
0
40
0
40
0
40
0
40
1
40
1
40
1
40
1
41
1
10
114.192388524609
20
-8.58288293848634
30
0
41
1
10
114.090648502161
20
-8.73528176441457
30
0
41
1
10
114.010677128009
20
-8.82274856519905
30
0
41
1
10
113.952697472392
20
-8.84461796179494
30
0
0
SPLINE
5
116
100
AcDbEntity
8
1
62
256
6
ByLayer
370
18
48
1
60
0
100
AcDbSpline
70
4
71
3
72
10
73
6
40
0
40
0
40
0
40
0
40
0.5
40
0.5
40
1
40
1
40
1
40
1
41
1
10
114.414998374752
20
3.11155081999516
30
0
41
1
10
114.687588269295
20
3.13392448688742
30
0
41
1
10
114.959463808176
20
3.16085791893832
30
0
41
1
10
115.500615942029
20
3.23131396194191
30
0
41
1
10
115.769966509246
20
3.27436440464501
30
0
41
1
10
116.036621143602
20
3.33462311121693
30
0
0
SPLINE
5
117
100
AcDbEntity
8
1
62
256
6
ByLayer
370
13
48
1
60
0
100
AcDbSpline
70
4
71
3
72
18
73
14
40
0
40
0
40
0
40
0
40
0.366351285566422
40
0.366351285566422
40
0.549526928349633
40
0.549526928349633
40
0.641114749741237
40
0.641114749741237
40
0.732702571132841
40
0.732702571132841
40
0.91587821391605
40
0.91587821391605
40
1
40
1
40
1
40
1
41
1
10
114.688909372066
20
-1.72279239942148
30
0
41
1
10
114.449601683545
20
-1.55891244472088
30
0
41
1
10
114.144809228301
20
-1.31711072693903
30
0
41
1
10
113.799561873462
20
-0.994812447772205
30
0
41
1
10
113.64796268786
20
-0.841671511291992
30
0
41
1
10
113.478778138147
20
-0.655287651889068
30
0
41
1
10
113.403422686156
20
-0.568649641892364
30
0
41
1
10
113.292078047264
20
-0.43467746080546
30
0
41
1
10
113.216954691241
20
-0.340107731364242
30
0
41
1
10
113.053052701615
20
-0.123553279358504
30
0
41
1
10
112.906866949894
20
0.0892565447018967
30
0
41
1
10
112.75878779362
20
0.329931145724032
30
0
41
1
10
112.696189385082
20
0.437186200896008
30
0
41
1
10
112.648732006444
20
0.522802904844468
30
0
0
SPLINE
5
118
100
AcDbEntity
8
1
62
256
6
ByLayer
370
18
48
1
60
0
100
AcDbSpline
70
4
71
3
72
10
73
6
40
0
40
0
40
0
40
0
40
0.168085809790937
40
0.168085809790937
40
1
40
1
40
1
40
1
41
1
10
109.398086671608
20
8.999993561482
30
0
41
1
10
109.663783850642
20
8.9999936832829
30
0
41
1
10
109.929461358919
20
8.99747696311985
30
0
41
1
10
111.510090420056
20
8.967477191553
30
0
41
1
10
112.82647806315
20
8.8812451991283
30
0
41
1
10
114.140935582165
20
8.73411960784938
30
0
0
SPLINE
5
119
100
AcDbEntity
8
1
62
256
6
ByLayer
370
13
48
1
60
0
100
AcDbSpline
70
4
71
2
72
6
73
3
40
0
40
0
40
0
40
1
40
1
40
1
41
0.999262608640816
10
114.389098484784
20
3.09597219136192
30
0
41
0.999020019213403
10
114.38448182025
20
3.09483249882066
30
0
41
0.998779006558458
10
114.379867456426
20
3.09369156742933
30
0
0
SPLINE
5
11A
100
AcDbEntity
8
1
62
256
6
ByLayer
370
18
48
1
60
0
100
AcDbSpline
70
4
71
3
72
14
73
10
40
0
40
0
40
0
40
0
40
0.5
40
0.5
40
0.75
40
0.75
40
0.875
40
0.875
40
1
40
1
40
1
40
1
41
1
10
116.036621143602
20
3.33462311121696
30
0
41
1
10
115.855076133254
20
3.83645143457727
30
0
41
1
10
115.676369933403
20
4.34134369922032
30
0
41
1
10
115.412863926011
20
5.10359648568746
30
0
41
1
10
115.325794584635
20
5.35850748916081
30
0
41
1
10
115.196461595674
20
5.7422458154756
30
0
41
1
10
115.153510648318
20
5.87054943436138
30
0
41
1
10
115.068757961979
20
6.12554947678055
30
0
41
1
10
115.026878115256
20
6.25247531084975
30
0
41
1
10
114.985517673744
20
6.37880046430141
30
0
0
SPLINE
5
11B
100
AcDbEntity
8
1
62
256
6
ByLayer
370
13
48
1
60
0
100
AcDbSpline
70
4
71
3
72
8
73
4
40
0
40
0
40
0
40
0
40
1
40
1
40
1
40
1
41
1
10
114.417055177733
20
3.10224933391356
30
0
41
1
10
114.407727548199
20
3.1003600527049
30
0
41
1
10
114.398280017953
20
3.09823878985668
30
0
41
1
10
114.389098484784
20
3.09597219136191
30
0
0
SPLINE
5
11C
100
AcDbEntity
8
1
62
256
6
ByLayer
370
18
48
1
60
0
100
AcDbSpline
70
4
71
3
72
8
73
4
40
0
40
0
40
0
40
0
40
1
40
1
40
1
40
1
41
1
10
114.132071419892
20
-4.38921196254034
30
0
41
1
10
114.146633321068
20
-4.37286134557775
30
0
41
1
10
114.161195989719
20
-4.35649730033529
30
0
41
1
10
114.175759516821
20
-4.34011823497855
30
0
0
SPLINE
5
11D
100
AcDbEntity
8
1
62
256
6
ByLayer
370
18
48
1
60
0
100
AcDbSpline
70
4
71
3
72
8
73
4
40
0
40
0
40
0
40
0
40
1
40
1
40
1
40
1
41
1
10
105.5
20
3.90000000000001
30
0
41
1
10
105.5
20
3.42050864976872
30
0
41
1
10
105.5
20
3.03793679843474
30
0
41
1
10
105.5
20
2.74470585277814
30
0
0
SPLINE
5
11E
100
AcDbEntity
8
1
62
256
6
ByLayer
370
13
48
1
60
0
100
AcDbSpline
70
4
71
3
72
8
73
4
40
0
40
0
40
0
40
0
40
1
40
1
40
1
40
1
41
1
10
115.986138731938
20
0.919200838897382
30
0
41
1
10
115.969624697795
20
0.911350339742341
30
0
41
1
10
115.952471797631
20
0.897063466581471
30
0
41
1
10
115.938388930976
20
0.879429409968111
30
0
0
SPLINE
5
11F
100
AcDbEntity
8
1
62
256
6
ByLayer
370
18
48
1
60
0
100
AcDbSpline
70
4
71
3
72
8
73
4
40
0
40
0
40
0
40
0
40
1
40
1
40
1
40
1
41
1
10
105.5
20
2.744705852777
30
0
41
1
10
104.901374435629
20
2.79121269169426
30
0
41
1
10
104.302646820236
20
2.83455542601638
30
0
41
1
10
103.703848182815
20
2.87471193417946
30
0
0
SPLINE
5
120
100
AcDbEntity
8
1
62
256
6
ByLayer
370
18
48
1
60
0
100
AcDbSpline
70
4
71
4
72
10
73
5
40
0
40
0
40
0
40
0
40
0
40
1
40
1
40
1
40
1
40
1
41
1
10
105.7
20
6.81376923122045
30
0
41
1
10
105.7
20
5.49970774423659
30
0
41
0.989222074093199
10
105.7
20
4.09600877975252
30
0
41
0.998352712452377
10
105.7
20
3.06346745344216
30
0
41
0.999832153465764
10
105.7
20
2.47590355006735
30
0
0
SPLINE
5
121
100
AcDbEntity
8
1
62
256
6
ByLayer
370
18
48
1
60
0
100
AcDbSpline
70
4
71
2
72
6
73
3
40
0
40
0
40
0
40
1
40
1
40
1
41
1
10
109.613642237911
20
-0.102624946528891
30
0
41
0.92
10
109.623601260846
20
-0.102647292408103
30
0
41
1
10
109.63356029132
20
-0.102669638285931
30
0
0
SPLINE
5
122
100
AcDbEntity
8
1
62
256
6
ByLayer
370
13
48
1
60
0
100
AcDbSpline
70
4
71
3
72
8
73
4
40
0
40
0
40
0
40
0
40
1
40
1
40
1
40
1
41
1
10
114.417726116075
20
3.0991990845566
30
0
41
1
10
114.408393911531
20
3.09733029068357
30
0
41
1
10
114.39894180511
20
3.09522950955983
30
0
41
1
10
114.389755886889
20
3.09298255176654
30
0
0
SPLINE
5
123
100
AcDbEntity
8
1
62
256
6
ByLayer
370
18
48
1
60
0
100
AcDbSpline
70
4
71
3
72
8
73
4
40
0
40
0
40
0
40
0
40
1
40
1
40
1
40
1
41
1
10
97.001424485694
20
7.28272469059945
30
0
41
1
10
96.9549429517238
20
7.35622827120653
30
0
41
1
10
96.9020865627372
20
7.42513645554519
30
0
41
1
10
96.8364411656133
20
7.48565314754339
30
0
0
SPLINE
5
124
100
AcDbEntity
8
1
62
256
6
ByLayer
370
18
48
1
60
0
100
AcDbSpline
70
4
71
3
72
8
73
4
40
0
40
0
40
0
40
0
40
1
40
1
40
1
40
1
41
1
10
13.818932198292
20
-3.80002308815222
30
0
41
1
10
13.8942703402963
20
-3.8198691506397
30
0
41
1
10
13.9699445677236
20
-3.83998139976649
30
0
41
1
10
14.0459634678402
20
-3.86032205757695
30
0
0
SPLINE
5
125
100
AcDbEntity
8
1
62
256
6
ByLayer
370
18
48
1
60
0
100
AcDbSpline
70
4
71
3
72
30
73
26
40
0
40
0
40
0
40
0
40
0.0624999999999962
40
0.0624999999999962
40
0.124999999999992
40
0.124999999999992
40
0.249999999999988
40
0.249999999999988
40
0.312499999999985
40
0.312499999999985
40
0.374999999999983
40
0.374999999999983
40
0.499999999999983
40
0.499999999999983
40
0.562499999999985
40
0.562499999999985
40
0.624999999999987
40
0.624999999999987
40
0.749999999999991
40
0.749999999999991
40
0.812499999999993
40
0.812499999999993
40
0.874999999999995
40
0.874999999999995
40
1
40
1
40
1
40
1
41
1
10
111.340670471959
20
1.16269742831665
30
0
41
1
10
111.328040917866
20
1.09446718385078
30
0
41
1
10
111.313700833011
20
1.02942303707121
30
0
41
1
10
111.281891594238
20
0.907041305499575
30
0
41
1
10
111.264383995593
20
0.849488533298995
30
0
41
1
10
111.207045393805
20
0.687760085115457
30
0
41
1
10
111.162421573098
20
0.594462103736419
30
0
41
1
10
111.085469357248
20
0.477248369703631
30
0
41
1
10
111.058030138994
20
0.441861836304355
30
0
41
1
10
111.000195929294
20
0.379579983723488
30
0
41
1
10
110.96996800046
20
0.352814629304646
30
0
41
1
10
110.875467670887
20
0.285258307400937
30
0
41
1
10
110.807395388242
20
0.257151465768374
30
0
41
1
10
110.697817665571
20
0.239923958374305
30
0
41
1
10
110.660042631614
20
0.238351079296621
30
0
41
1
10
110.581966332728
20
0.24363795993753
30
0
41
1
10
110.541901934555
20
0.250506685107894
30
0
41
1
10
110.419861765215
20
0.283099055166048
30
0
41
1
10
110.335594948047
20
0.320776817814618
30
0
41
1
10
110.205087599738
20
0.399829850251678
30
0
41
1
10
110.160898019946
20
0.429951246883348
30
0
41
1
10
110.071157948234
20
0.497661566113408
30
0
41
1
10
110.025553410361
20
0.535319670715552
30
0
41
1
10
109.888404905315
20
0.657875704723267
30
0
41
1
10
109.795989359361
20
0.752680532521708
30
0
41
1
10
109.702651841909
20
0.859770200861789
30
0
0
SPLINE
5
126
100
AcDbEntity
8
1
62
256
6
ByLayer
370
18
48
1
60
0
100
AcDbSpline
70
4
71
3
72
14
73
10
40
0
40
0
40
0
40
0
40
0.479500469006068
40
0.479500469006068
40
0.719250703509106
40
0.719250703509106
40
0.959000938012143
40
0.959000938012143
40
1
40
1
40
1
40
1
41
1
10
20.9939999999891
20
-8.59388730123297
30
0
41
1
10
20.9939999999891
20
-8.55606954190327
30
0
41
1
10
21.0076237072479
20
-8.5136349053256
30
0
41
1
10
21.0488902385764
20
-8.4436569733748
30
0
41
1
10
21.066133339515
20
-8.41927630975729
30
0
41
1
10
21.107864350643
20
-8.36850681152862
30
0
41
1
10
21.1324576193592
20
-8.34201706162233
30
0
41
1
10
21.1654643640449
20
-8.31015560638158
30
0
41
1
10
21.1703823966026
20
-8.30548757582105
30
0
41
1
10
21.1753982697121
20
-8.30080503618316
30
0
0
SPLINE
5
127
100
AcDbEntity
8
1
62
256
6
ByLayer
370
18
48
1
60
0
100
AcDbSpline
70
4
71
3
72
14
73
10
40
0
40
0
40
0
40
0
40
0.25000000000003
40
0.25000000000003
40
0.37500000000003
40
0.37500000000003
40
0.50000000000003
40
0.50000000000003
40
1
40
1
40
1
40
1
41
1
10
18.2160605721836
20
6.18120299962899
30
0
41
1
10
18.1028053151888
20
6.19210037869365
30
0
41
1
10
17.9897528529079
20
6.20667256829651
30
0
41
1
10
17.8204230053601
20
6.23341990226555
30
0
41
1
10
17.7640201932133
20
6.24314377879855
30
0
41
1
10
17.6512762789246
20
6.26403893128381
30
0
41
1
10
17.5948290834694
20
6.27523813409482
30
0
41
1
10
17.3179086683753
20
6.33320592471773
30
0
41
1
10
17.108699980899
20
6.386362977196
30
0
41
1
10
16.9072965306707
20
6.43984309527022
30
0
0
SPLINE
5
128
100
AcDbEntity
8
1
62
256
6
ByLayer
370
13
48
1
60
0
100
AcDbSpline
70
4
71
3
72
8
73
4
40
0
40
0
40
0
40
0
40
1
40
1
40
1
40
1
41
1
10
93.4103823132529
20
-4.76224894212774
30
0
41
1
10
93.4223308673959
20
-4.67432254979019
30
0
41
1
10
93.4343290424554
20
-4.58627676709386
30
0
41
1
10
93.4463746753515
20
-4.49810951361627
30
0
0
SPLINE
5
129
100
AcDbEntity
8
1
62
256
6
ByLayer
370
18
48
1
60
0
100
AcDbSpline
70
4
71
3
72
8
73
4
40
0
40
0
40
0
40
0
40
1
40
1
40
1
40
1
41
1
10
18.8000000000001
20
-5.40151425816927
30
0
41
1
10
18.200117114986
20
-5.23570547968913
30
0
41
1
10
17.6001428684597
20
-5.0690854274346
30
0
41
1
10
17
20
-4.90190937133536
30
0
0
SPLINE
5
12A
100
AcDbEntity
8
1
62
256
6
ByLayer
370
18
48
1
60
0
100
AcDbSpline
70
4
71
3
72
8
73
4
40
0
40
0
40
0
40
0
40
1
40
1
40
1
40
1
41
1
10
114.985517678819
20
-6.37880046525399
30
0
41
1
10
114.754607951241
20
-7.08405664025312
30
0
41
1
10
114.520241080945
20
-7.79294650048828
30
0
41
1
10
114.282309331657
20
-8.50558329148592
30
0
0
SPLINE
5
12B
100
AcDbEntity
8
1
62
256
6
ByLayer
370
18
48
1
60
0
100
AcDbSpline
70
4
71
3
72
8
73
4
40
0
40
0
40
0
40
0
40
1
40
1
40
1
40
1
41
1
10
105.827665800809
20
-8.48431034364134
30
0
41
1
10
105.834057412746
20
-8.50654036532313
30
0
41
1
10
105.837318327292
20
-8.52792329425975
30
0
41
1
10
105.837318327291
20
-8.54842403526848
30
0
0
SPLINE
5
12C
100
AcDbEntity
8
1
62
256
6
ByLayer
370
18
48
1
60
0
100
AcDbSpline
70
4
71
3
72
8
73
4
40
0
40
0
40
0
40
0
40
1
40
1
40
1
40
1
41
1
10
13.8189321982923
20
6.17633905221214
30
0
41
1
10
13.7883513572526
20
6.17415366005247
30
0
41
1
10
13.757766472256
20
6.17192958500493
30
0
41
1
10
13.7271777641003
20
6.16966654337756
30
0
0
SPLINE
5
12D
100
AcDbEntity
8
1
62
256
6
ByLayer
370
18
48
1
60
0
100
AcDbSpline
70
4
71
3
72
8
73
4
40
0
40
0
40
0
40
0
40
1
40
1
40
1
40
1
41
1
10
92.3450761540207
20
5.82563204101086
30
0
41
1
10
92.3431698217186
20
5.82073859527151
30
0
41
1
10
92.3412653639998
20
5.81583881754372
30
0
41
1
10
92.3393627816751
20
5.81093270508833
30
0
0
SPLINE
5
12E
100
AcDbEntity
8
1
62
256
6
ByLayer
370
18
48
1
60
0
100
AcDbSpline
70
4
71
4
72
10
73
5
40
0
40
0
40
0
40
0
40
0
40
1
40
1
40
1
40
1
40
1
41
1
10
105.7
20
8.74908030120938
30
0
41
1
10
105.7
20
8.26525253371213
30
0
41
1
10
105.7
20
7.78142476621491
30
0
41
1
10
105.7
20
7.29759699871769
30
0
41
1
10
105.7
20
6.81376923122045
30
0
0
SPLINE
5
12F
100
AcDbEntity
8
1
62
256
6
ByLayer
370
18
48
1
60
0
100
AcDbSpline
70
4
71
2
72
9
73
6
40
0
40
0
40
0
40
0.25
40
0.5
40
0.75
40
1
40
1
40
1
41
1
10
110.56875041343
20
-2.56189340607685
30
0
41
1
10
110.642228223619
20
-3.21503196192131
30
0
41
1
10
110.862936755662
20
-4.44704210011867
30
0
41
1
10
111.15021403161
20
-5.56431148911881
30
0
41
1
10
111.499221503928
20
-6.54795241015717
30
0
41
1
10
111.69888306468
20
-6.95670139961433
30
0
0
SPLINE
5
130
100
AcDbEntity
8
1
62
256
6
ByLayer
370
18
48
1
60
0
100
AcDbSpline
70
4
71
3
72
18
73
14
40
0
40
0
40
0
40
0
40
0.249999999999997
40
0.249999999999997
40
0.375
40
0.375
40
0.500000000000003
40
0.500000000000003
40
0.625000000000006
40
0.625000000000006
40
0.750000000000009
40
0.750000000000009
40
1
40
1
40
1
40
1
41
1
10
14.0459634678402
20
-3.86032205757678
30
0
41
1
10
14.1436912198816
20
-4.00548342935491
30
0
41
1
10
14.2587727937431
20
-4.1321193347066
30
0
41
1
10
14.4595204265543
20
-4.29754042371511
30
0
41
1
10
14.5316550835167
20
-4.34884919101458
30
0
41
1
10
14.6823425216043
20
-4.4415938810761
30
0
41
1
10
14.7610353369168
20
-4.48325850324306
30
0
41
1
10
14.9250196741618
20
-4.55832554812386
30
0
41
1
10
15.0103107576441
20
-4.59172643151703
30
0
41
1
10
15.1875787098072
20
-4.65107041013303
30
0
41
1
10
15.2798767294869
20
-4.67704321051224
30
0
41
1
10
15.5606727841824
20
-4.74323082132764
30
0
41
1
10
15.754840185259
20
-4.77264997142626
30
0
41
1
10
15.9560109084122
20
-4.78976766218946
30
0
0
SPLINE
5
131
100
AcDbEntity
8
1
62
256
6
ByLayer
370
18
48
1
60
0
100
AcDbSpline
70
4
71
3
72
8
73
4
40
0
40
0
40
0
40
0
40
1
40
1
40
1
40
1
41
1
10
16.9072965306707
20
6.43984309527022
30
0
41
1
10
16.938039474637
20
6.44461071456382
30
0
41
1
10
16.9689401621513
20
6.44919577883223
30
0
41
1
10
16.9999999999996
20
6.4536027794056
30
0
0
SPLINE
5
132
100
AcDbEntity
8
1
62
256
6
ByLayer
370
18
48
1
60
0
100
AcDbSpline
70
4
71
3
72
8
73
4
40
0
40
0
40
0
40
0
40
1
40
1
40
1
40
1
41
1
10
20.9939999999929
20
-5.20626391091963
30
0
41
1
10
20.9939999999928
20
-5.38542309322182
30
0
41
1
10
20.9939999999927
20
-5.56474723685611
30
0
41
1
10
20.9939999999926
20
-5.7442361479703
30
0
0
SPLINE
5
133
100
AcDbEntity
8
1
62
256
6
ByLayer
370
13
48
1
60
0
100
AcDbSpline
70
4
71
2
72
6
73
3
40
0
40
0
40
0
40
1
40
1
40
1
41
0.998206536821769
10
115.938388930976
20
0.879429409968035
30
0
41
0.924787084456079
10
114.954054067858
20
-0.3704192956137
30
0
41
1
10
114.688909372066
20
-1.72279239942148
30
0
0
SPLINE
5
134
100
AcDbEntity
8
1
62
256
6
ByLayer
370
18
48
1
60
0
100
AcDbSpline
70
4
71
3
72
8
73
4
40
0
40
0
40
0
40
0
40
1
40
1
40
1
40
1
41
1
10
106.6
20
-8.21570242445657
30
0
41
1
10
106.34470784654
20
-8.31792254997185
30
0
41
1
10
106.087228265532
20
-8.4072531802712
30
0
41
1
10
105.827665800809
20
-8.48431034364128
30
0
0
SPLINE
5
135
100
AcDbEntity
8
1
62
256
6
ByLayer
370
18
48
1
60
0
100
AcDbSpline
70
4
71
3
72
8
73
4
40
0
40
0
40
0
40
0
40
1
40
1
40
1
40
1
41
1
10
18.2849078603698
20
6.56827878348008
30
0
41
1
10
18.4566221463826
20
6.56130052372549
30
0
41
1
10
18.6283197108635
20
6.55405654484056
30
0
41
1
10
18.8000000000002
20
6.5465457974577
30
0
0
SPLINE
5
136
100
AcDbEntity
8
1
62
256
6
ByLayer
370
18
48
1
60
0
100
AcDbSpline
70
4
71
3
72
8
73
4
40
0
40
0
40
0
40
0
40
1
40
1
40
1
40
1
41
1
10
113.824904067742
20
8.85000413333989
30
0
41
1
10
113.866915642662
20
8.85013517473161
30
0
41
1
10
113.909516131398
20
8.84833095370504
30
0
41
1
10
113.952697472392
20
8.844617961794
30
0
0
SPLINE
5
137
100
AcDbEntity
8
1
62
256
6
ByLayer
370
18
48
1
60
0
100
AcDbSpline
70
4
71
3
72
8
73
4
40
0
40
0
40
0
40
0
40
1
40
1
40
1
40
1
41
1
10
18.8
20
-5.40151425816924
30
0
41
1
10
19.5312694904677
20
-5.51855176533559
30
0
41
1
10
20.2625919433079
20
-5.63281447353973
30
0
41
1
10
20.9939999999926
20
-5.74423614797033
30
0
0
SPLINE
5
138
100
AcDbEntity
8
1
62
256
6
ByLayer
370
18
48
1
60
0
100
AcDbSpline
70
4
71
1
72
4
73
2
40
0
40
0
40
1
40
1
41
1
10
111.698936190862
20
-6.95667680400064
30
0
41
1
10
111.564175630384
20
-7.01903922840751
30
0
0
SPLINE
5
139
100
AcDbEntity
8
1
62
256
6
ByLayer
370
18
48
1
60
0
100
AcDbSpline
70
4
71
1
72
4
73
2
40
0
40
0
40
1
40
1
41
1
10
16.0947798640086
20
-4.15603175187206
30
0
41
1
10
15.9543877794399
20
-4.79872156642233
30
0
0
SPLINE
5
13A
100
AcDbEntity
8
1
62
256
6
ByLayer
370
18
48
1
60
0
100
AcDbSpline
70
4
71
3
72
16
73
12
40
0
40
0
40
0
40
0
40
0.418664167485824
40
0.564747391856775
40
0.640151298132738
40
0.715556573814698
40
0.790969528306173
40
0.830558942388909
40
0.870151700678571
40
0.909748112999616
40
1
40
1
40
1
40
1
41
1.10374900959774
10
68.6783089109637
20
-0.0040328935654528
30
0
41
1.10374900959774
10
72.1473143426358
20
-0.647809605613574
30
0
41
1.10374900959774
10
76.8269057513636
20
-1.51615512628569
30
0
41
1.10374900959774
10
82.1191085558076
20
-2.46560497138285
30
0
41
1.10374900959774
10
84.5705394267313
20
-2.89530819261798
30
0
41
1.10374900959774
10
86.4359183837765
20
-3.22427869626765
30
0
41
1.10374900959774
10
88.0070619374635
20
-3.47371071635774
30
0
41
1.10374900959774
10
89.2743815208411
20
-3.72546783644085
30
0
41
1.10374900959774
10
90.2494053069523
20
-3.90917839882462
30
0
41
1.10374900959774
10
91.6400107131078
20
-4.16996786160308
30
0
41
1.10374900959774
10
92.7057509086788
20
-4.36502547228725
30
0
41
1.10374900959774
10
93.4463746753515
20
-4.49810951361628
30
0
0
SPLINE
5
13B
100
AcDbEntity
8
1
62
256
6
ByLayer
370
18
48
1
60
0
100
AcDbSpline
70
4
71
3
72
8
73
4
40
0
40
0
40
0
40
0
40
1
40
1
40
1
40
1
41
1
10
17
20
-4.90190937133539
30
0
41
1
10
16.6520187100667
20
-4.84489091960933
30
0
41
1
10
16.3033803032561
20
-4.81055652861423
30
0
41
1
10
15.9543877794399
20
-4.79872156642233
30
0
0
SPLINE
5
13C
100
AcDbEntity
8
1
62
256
6
ByLayer
370
18
48
1
60
0
100
AcDbSpline
70
4
71
3
72
10
73
6
40
0
40
0
40
0
40
0
40
0.5
40
0.5
40
1
40
1
40
1
40
1
41
1
10
96.836441165624
20
7.48565314754933
30
0
41
1
10
98.2959770705749
20
7.78721302268497
30
0
41
1
10
99.7534872374099
20
8.03999564173935
30
0
41
1
10
102.673236388768
20
8.44005579820549
30
0
41
1
10
104.137298997552
20
8.587105261061
30
0
41
1
10
105.6
20
8.67989797150651
30
0
0
SPLINE
5
13D
100
AcDbEntity
8
1
62
256
6
ByLayer
370
18
48
1
60
0
100
AcDbSpline
70
4
71
3
72
8
73
4
40
0
40
0
40
0
40
0
40
1
40
1
40
1
40
1
41
1
10
105.5
20
2.2770808527786
30
0
41
1
10
105.5
20
2.41545370113994
30
0
41
1
10
105.5
20
2.57136582380846
30
0
41
1
10
105.5
20
2.74470585277857
30
0
0
SPLINE
5
13E
100
AcDbEntity
8
1
62
256
6
ByLayer
370
18
48
1
60
0
100
AcDbSpline
70
4
71
3
72
8
73
4
40
0
40
0
40
0
40
0
40
1
40
1
40
1
40
1
41
1
10
116.898093908503
20
-0.295776490547723
30
0
41
1
10
116.930271611979
20
-0.172664284510319
30
0
41
1
10
116.958789247266
20
-0.0508669282808398
30
0
41
1
10
116.984115930127
20
0.0697841041737206
30
0
0
SPLINE
5
13F
100
AcDbEntity
8
1
62
256
6
ByLayer
370
18
48
1
60
0
100
AcDbSpline
70
4
71
3
72
8
73
4
40
0
40
0
40
0
40
0
40
1
40
1
40
1
40
1
41
1
10
105.603088344171
20
8.67723248597966
30
0
41
1
10
105.602058887551
20
8.6781211157265
30
0
41
1
10
105.601029439484
20
8.6790096109147
30
0
41
1
10
105.6
20
8.67989797150651
30
0
0
SPLINE
5
140
100
AcDbEntity
8
1
62
256
6
ByLayer
370
18
48
1
60
0
100
AcDbSpline
70
2053
71
3
72
39
73
35
40
0
40
0
40
0
40
0
40
0.0311816450390373
40
0.0622725836649734
40
0.0934464825021631
40
0.124735246928172
40
0.155916888973792
40
0.187324474482636
40
0.2185947866911
40
0.250019034833893
40
0.281425100246428
40
0.312733727033089
40
0.344148616062084
40
0.375345650719923
40
0.406622895938505
40
0.437776508863009
40
0.46897484490669
40
0.500163955738857
40
0.53123322423321
40
0.56235378926376
40
0.593591950522859
40
0.624727033731538
40
0.656082600937168
40
0.687332621468534
40
0.718716685636674
40
0.75012577358021
40
0.781439087702771
40
0.812890498852452
40
0.844143229182226
40
0.875472683127404
40
0.906704384760978
40
0.937811919793662
40
0.969007810488421
40
1
40
1
40
1
40
1
41
1
10
102.16
20
-4.74200855318212
30
0
41
1
10
102.287087140476
20
-4.74200918072606
30
0
41
1
10
102.540898142964
20
-4.763992187112
30
0
41
1
10
102.905987997671
20
-4.8604601712008
30
0
41
1
10
103.241405052355
20
-5.01400033589221
30
0
41
1
10
103.53462443155
20
-5.21538727379399
30
0
41
1
10
103.775583939114
20
-5.45386662841906
30
0
41
1
10
103.954847790789
20
-5.71689712332849
30
0
41
1
10
104.065776872203
20
-5.99264126347137
30
0
41
1
10
104.103331535279
20
-6.26795802639413
30
0
41
1
10
104.065692693818
20
-6.53129952869719
30
0
41
1
10
103.954639787965
20
-6.77276720415824
30
0
41
1
10
103.775129214223
20
-6.98457598730317
30
0
41
1
10
103.534004111396
20
-7.16226215101838
30
0
41
1
10
103.240721004927
20
-7.30249233134353
30
0
41
1
10
102.904968351343
20
-7.40383946704023
30
0
41
1
10
102.539411685618
20
-7.46504159300537
30
0
41
1
10
102.15846128477
20
-7.48536836617586
30
0
41
1
10
101.777920829301
20
-7.46470503858518
30
0
41
1
10
101.412945814853
20
-7.40335887088619
30
0
41
1
10
101.077865669173
20
-7.30193468803478
30
0
41
1
10
100.784510947852
20
-7.16138563112281
30
0
41
1
10
100.544026349517
20
-6.98379419882286
30
0
41
1
10
100.36471352558
20
-6.77169223667198
30
0
41
1
10
100.253993657696
20
-6.53035124980215
30
0
41
1
10
100.216713011745
20
-6.26701963089454
30
0
41
1
10
100.254506184805
20
-5.99148884930949
30
0
41
1
10
100.365632361536
20
-5.71598519836678
30
0
41
1
10
100.545501792227
20
-5.45257507832778
30
0
41
1
10
100.786562029042
20
-5.21436720414644
30
0
41
1
10
101.080127113508
20
-5.01318111961746
30
0
41
1
10
101.415603740795
20
-4.85987622896818
30
0
41
1
10
101.780231212986
20
-4.76382522495794
30
0
41
1
10
102.033685024084
20
-4.74200792945106
30
0
41
1
10
102.16
20
-4.74200855318212
30
0
0
SPLINE
5
141
100
AcDbEntity
8
1
62
256
6
ByLayer
370
18
48
1
60
0
100
AcDbSpline
70
4
71
3
72
12
73
8
40
0
40
0
40
0
40
0
40
0.417135037890661
40
0.417135037890661
40
0.7085673855497
40
0.7085673855497
40
1
40
1
40
1
40
1
41
1
10
105.699999997661
20
8.5754642869079
30
0
41
1
10
105.686536345747
20
8.58961944150539
30
0
41
1
10
105.673067867812
20
8.60377255658912
30
0
41
1
10
105.650181537012
20
8.62781039437328
30
0
41
1
10
105.640766113046
20
8.63769613975543
30
0
41
1
10
105.621930665219
20
8.65746573107162
30
0
41
1
10
105.612510639198
20
8.6673495792665
30
0
41
1
10
105.603088340779
20
8.67723249081391
30
0
0
SPLINE
5
142
100
AcDbEntity
8
1
62
256
6
ByLayer
370
18
48
1
60
0
100
AcDbSpline
70
4
71
3
72
10
73
6
40
0
40
0
40
0
40
0
40
0.5
40
0.5
40
1
40
1
40
1
40
1
41
1
10
97.001424485694
20
7.28272469059945
30
0
41
1
10
97.1194967093676
20
7.28654820104518
30
0
41
1
10
97.2342589980101
20
7.28337152266133
30
0
41
1
10
97.4568535335874
20
7.26134531368788
30
0
41
1
10
97.5653869342443
20
7.24219882494376
30
0
41
1
10
97.6666338913319
20
7.21496250449653
30
0
0
SPLINE
5
143
100
AcDbEntity
8
1
62
256
6
ByLayer
370
13
48
1
60
0
100
AcDbSpline
70
4
71
3
72
16
73
12
40
0
40
0
40
0
40
0
40
0.246999928482215
40
0.370499892723322
40
0.432249874843876
40
0.493999856964429
40
0.740999785446644
40
0.802749767567197
40
0.864499749687751
40
0.987999713928858
40
1
40
1
40
1
40
1
41
1
10
105.7
20
6.81376923122045
30
0
41
1
10
106.464741320939
20
6.84401026151784
30
0
41
1
10
107.611720233778
20
6.86117105255644
30
0
41
1
10
108.949181029778
20
6.83859957131344
30
0
41
1
10
109.713606833774
20
6.81584549026948
30
0
41
1
10
110.860667619579
20
6.77012374190613
30
0
41
1
10
112.007409341909
20
6.6916978305068
30
0
41
1
10
113.153822697765
20
6.58561362784846
30
0
41
1
10
113.918388307686
20
6.50870704559864
30
0
41
1
10
114.528966586222
20
6.43725202601416
30
0
41
1
10
114.948373991975
20
6.38358866842086
30
0
41
1
10
114.98551767247
20
6.37880046819154
30
0
0
SPLINE
5
144
100
AcDbEntity
8
1
62
256
6
ByLayer
370
18
48
1
60
0
100
AcDbSpline
70
4
71
3
72
12
73
8
40
0
40
0
40
0
40
0
40
0.5
40
0.5
40
0.75
40
0.75
40
1
40
1
40
1
40
1
41
1
10
96.1400411593306
20
6.79248639869002
30
0
41
1
10
96.3019693718937
20
6.83386836567368
30
0
41
1
10
96.4546492959742
20
6.89843518893665
30
0
41
1
10
96.6716496220754
20
7.02450969248227
30
0
41
1
10
96.7421927281111
20
7.07165273114452
30
0
41
1
10
96.8762175938181
20
7.17231990476512
30
0
41
1
10
96.94015896293
20
7.22606645312626
30
0
41
1
10
97.0014244856939
20
7.28272469059945
30
0
0
SPLINE
5
145
100
AcDbEntity
8
1
62
256
6
ByLayer
370
18
48
1
60
0
100
AcDbSpline
70
4
71
3
72
12
73
8
40
0
40
0
40
0
40
0
40
0.499999999999989
40
0.499999999999989
40
0.749999999999994
40
0.749999999999994
40
1
40
1
40
1
40
1
41
1
10
15.1596868439036
20
6.31843730330706
30
0
41
1
10
15.4340034219164
20
6.35522499876487
30
0
41
1
10
15.7164561921764
20
6.38181350198582
30
0
41
1
10
16.153176494248
20
6.41113607281755
30
0
41
1
10
16.3009317814683
20
6.419118113184
30
0
41
1
10
16.6010720818484
20
6.43187769404148
30
0
41
1
10
16.7540787713145
20
6.4366630253547
30
0
41
1
10
16.9072965306707
20
6.43984309527019
30
0
0
SPLINE
5
146
100
AcDbEntity
8
1
62
256
6
ByLayer
370
13
48
1
60
0
100
AcDbSpline
70
4
71
3
72
10
73
6
40
0
40
0
40
0
40
0
40
0.0193917445154702
40
0.0193917445154702
40
1
40
1
40
1
40
1
41
1
10
114.389098484784
20
3.09597219136191
30
0
41
1
10
114.389102756551
20
3.09595287114129
30
0
41
1
10
114.389107028714
20
3.09593355103675
30
0
41
1
10
114.389327292632
20
3.09493723538779
30
0
41
1
10
114.389542155098
20
3.0939600077626
30
0
41
1
10
114.389755886889
20
3.09298255176654
30
0
0
SPLINE
5
147
100
AcDbEntity
8
1
62
256
6
ByLayer
370
18
48
1
60
0
100
AcDbSpline
70
4
71
3
72
8
73
4
40
0
40
0
40
0
40
0
40
1
40
1
40
1
40
1
41
1
10
116.984115930127
20
0.0697841041736922
30
0
41
1
10
116.972481805753
20
0.108938074093231
30
0
41
1
10
116.960903567407
20
0.147984915675238
30
0
41
1
10
116.949380840628
20
0.186925346730391
30
0
0
SPLINE
5
148
100
AcDbEntity
8
1
62
256
6
ByLayer
370
18
48
1
60
0
100
AcDbSpline
70
4
71
3
72
41
73
37
40
0
40
0
40
0
40
0
40
0.0624999999999955
40
0.0624999999999955
40
0.124999999999991
40
0.124999999999991
40
0.187499999999987
40
0.187499999999987
40
0.249999999999982
40
0.249999999999982
40
0.312499999999978
40
0.312499999999978
40
0.374999999999973
40
0.374999999999973
40
0.437499999999969
40
0.437499999999969
40
0.468749999999969
40
0.468749999999969
40
0.499999999999969
40
0.531249999999969
40
0.531249999999969
40
0.562499999999969
40
0.562499999999969
40
0.624999999999974
40
0.624999999999974
40
0.687499999999978
40
0.687499999999978
40
0.749999999999982
40
0.749999999999982
40
0.812499999999987
40
0.812499999999987
40
0.874999999999991
40
0.874999999999991
40
0.937499999999995
40
0.937499999999995
40
1
40
1
40
1
40
1
41
1
10
109.613642237912
20
-0.102624946528891
30
0
41
1
10
109.528940993672
20
-0.10243489537973
30
0
41
1
10
109.445606201371
20
-0.110311222514923
30
0
41
1
10
109.281505343305
20
-0.141225538898027
30
0
41
1
10
109.200056622053
20
-0.164549386348
30
0
41
1
10
109.043162645044
20
-0.22581900344278
30
0
41
1
10
108.968491779027
20
-0.263297625807411
30
0
41
1
10
108.826584102611
20
-0.351711184357839
30
0
41
1
10
108.758713743726
20
-0.403323062894344
30
0
41
1
10
108.635616722708
20
-0.516990488117273
30
0
41
1
10
108.580025135986
20
-0.579049953073053
30
0
41
1
10
108.481154259608
20
-0.713928176675012
30
0
41
1
10
108.437813124942
20
-0.787331894465353
30
0
41
1
10
108.368330015095
20
-0.938572477324726
30
0
41
1
10
108.341523942626
20
-1.01712592719008
30
0
41
1
10
108.313939025576
20
-1.13959069252121
30
0
41
1
10
108.306905058445
20
-1.18118697154196
30
0
41
1
10
108.297501024593
20
-1.26380516447779
30
0
41
1
10
108.29262204323
20
-1.34638476433614
30
0
41
1
10
108.296684778109
20
-1.42888531953449
30
0
41
1
10
108.305296144514
20
-1.51134686871171
30
0
41
1
10
108.311941321568
20
-1.55277931253408
30
0
41
1
10
108.338331279224
20
-1.67429932660525
30
0
41
1
10
108.364430330458
20
-1.75225624409526
30
0
41
1
10
108.433013642583
20
-1.90235494392724
30
0
41
1
10
108.475702653652
20
-1.97434541821053
30
0
41
1
10
108.573470253402
20
-2.10657513068162
30
0
41
1
10
108.62917642877
20
-2.16794374823206
30
0
41
1
10
108.752599796223
20
-2.27971493691024
30
0
41
1
10
108.8189568811
20
-2.32899111515974
30
0
41
1
10
108.960494703856
20
-2.41515319275814
30
0
41
1
10
109.036496176709
20
-2.4522766160224
30
0
41
1
10
109.192507084221
20
-2.51160230915929
30
0
41
1
10
109.27267155871
20
-2.53409425010807
30
0
41
1
10
109.437349793294
20
-2.56473516976766
30
0
41
1
10
109.522140930896
20
-2.5727796869343
30
0
41
1
10
109.606858788672
20
-2.57296138290408
30
0
0
SPLINE
5
149
100
AcDbEntity
8
1
62
256
6
ByLayer
370
18
48
1
60
0
100
AcDbSpline
70
4
71
3
72
8
73
4
40
0
40
0
40
0
40
0
40
1
40
1
40
1
40
1
41
1
10
114.41499837474
20
3.11155081999414
30
0
41
1
10
114.405124050042
20
3.11074035395723
30
0
41
1
10
114.395849668559
20
3.10654713325619
30
0
41
1
10
114.388131972075
20
3.1003430545569
30
0
0
SPLINE
5
14A
100
AcDbEntity
8
1
62
256
6
ByLayer
370
13
48
1
60
0
100
AcDbSpline
70
4
71
3
72
8
73
4
40
0
40
0
40
0
40
0
40
1
40
1
40
1
40
1
41
1
10
114.417726116075
20
3.0991990845566
30
0
41
1
10
114.417503603349
20
3.10021606195545
30
0
41
1
10
114.417279957206
20
3.10123281303561
30
0
41
1
10
114.417055177728
20
3.10224933391257
30
0
0
SPLINE
5
14B
100
AcDbEntity
8
1
62
256
6
ByLayer
370
18
48
1
60
0
100
AcDbSpline
70
4
71
3
72
8
73
4
40
0
40
0
40
0
40
0
40
1
40
1
40
1
40
1
41
1
10
105.837318327291
20
-8.7022562099699
30
0
41
1
10
105.837318327291
20
-8.65992443473522
30
0
41
1
10
105.837318327291
20
-8.60864821847537
30
0
41
1
10
105.837318327291
20
-8.54842403526806
30
0
0
SPLINE
5
14C
100
AcDbEntity
8
1
62
256
6
ByLayer
370
18
48
1
60
0
100
AcDbSpline
70
4
71
3
72
14
73
10
40
0
40
0
40
0
40
0
40
0.500000000000003
40
0.500000000000003
40
0.625000000000002
40
0.625000000000002
40
0.750000000000001
40
0.750000000000001
40
1
40
1
40
1
40
1
41
1
10
113.952697472392
20
-8.84461796179494
30
0
41
1
10
113.709895204111
20
-8.86549556395804
30
0
41
1
10
113.487547400168
20
-8.826454779947
30
0
41
1
10
113.236970318494
20
-8.69751346460683
30
0
41
1
10
113.188236846462
20
-8.66767699616889
30
0
41
1
10
113.093640890436
20
-8.59959391629374
30
0
41
1
10
113.047724865889
20
-8.5612732333858
30
0
41
1
10
112.915609102769
20
-8.43429597468909
30
0
41
1
10
112.834643272516
20
-8.33344603924999
30
0
41
1
10
112.761081748264
20
-8.21573035940929
30
0
0
SPLINE
5
14D
100
AcDbEntity
8
1
62
256
6
ByLayer
370
18
48
1
60
0
100
AcDbSpline
70
4
71
3
72
8
73
4
40
0
40
0
40
0
40
0
40
1
40
1
40
1
40
1
41
1
10
116.984115930127
20
-0.0697841041737206
30
0
41
1
10
116.972481805753
20
-0.108938074093231
30
0
41
1
10
116.960903567407
20
-0.147984915675238
30
0
41
1
10
116.949380840628
20
-0.186925346730391
30
0
0
SPLINE
5
14E
100
AcDbEntity
8
1
62
256
6
ByLayer
370
18
48
1
60
0
100
AcDbSpline
70
4
71
3
72
12
73
8
40
0
40
0
40
0
40
0
40
0.5
40
0.5
40
0.75
40
0.75
40
1
40
1
40
1
40
1
41
1
10
93.7550972828419
20
5.6935512532489
30
0
41
1
10
93.5157432922261
20
5.66682131294053
30
0
41
1
10
93.2767517638343
20
5.66495656150275
30
0
41
1
10
92.9187985319784
20
5.69889893827047
30
0
41
1
10
92.7994478191593
20
5.7165368306581
30
0
41
1
10
92.5681418898064
20
5.76286788174954
30
0
41
1
10
92.455248998824
20
5.79161756424333
30
0
41
1
10
92.3450761540486
20
5.82563204100987
30
0
0
SPLINE
5
14F
100
AcDbEntity
8
1
62
256
6
ByLayer
370
18
48
1
60
0
100
AcDbSpline
70
4
71
3
72
12
73
8
40
0
40
0
40
0
40
0
40
0.499999999999984
40
0.499999999999984
40
0.749999999999992
40
0.749999999999992
40
1
40
1
40
1
40
1
41
1
10
17
20
6.45360277940514
30
0
41
1
10
17.2122582223167
20
6.50306419170963
30
0
41
1
10
17.4258130020909
20
6.53675497273832
30
0
41
1
10
17.7479284407932
20
6.5650816467286
30
0
41
1
10
17.8556020829253
20
6.57077623011028
30
0
41
1
10
18.0715827015713
20
6.57434122500223
30
0
41
1
10
18.1788967738063
20
6.57216540246699
30
0
41
1
10
18.2843797244755
20
6.56603384086844
30
0
0
SPLINE
5
150
100
AcDbEntity
8
1
62
256
6
ByLayer
370
18
48
1
60
0
100
AcDbSpline
70
4
71
2
72
6
73
3
40
0
40
0
40
0
40
1
40
1
40
1
41
0.499375419687737
10
110.449247234787
20
-2.57476803727861
30
0
41
0.500624580312264
10
110.028059415217
20
-2.57386473974399
30
0
41
0.499375419687737
10
109.606858788672
20
-2.57296138290367
30
0
0
SPLINE
5
151
100
AcDbEntity
8
1
62
256
6
ByLayer
370
18
48
1
60
0
100
AcDbSpline
70
4
71
3
72
8
73
4
40
0
40
0
40
0
40
0
40
1
40
1
40
1
40
1
41
1
10
107.803317562706
20
-9.00000451541575
30
0
41
1
10
107.285818913755
20
-9.00004608628038
30
0
41
1
10
106.767867079162
20
-8.99058665734637
30
0
41
1
10
106.249495483891
20
-8.97148617164305
30
0
0
SPLINE
5
152
100
AcDbEntity
8
1
62
256
6
ByLayer
370
18
48
1
60
0
100
AcDbSpline
70
4
71
1
72
4
73
2
40
0
40
0
40
1
40
1
41
1
10
110.449230505839
20
-2.57477573957723
30
0
41
1
10
110.568750712558
20
-2.56188463838168
30
0
0
SPLINE
5
153
100
AcDbEntity
8
1
62
256
6
ByLayer
370
18
48
1
60
0
100
AcDbSpline
70
4
71
3
72
48
73
44
40
0
40
0
40
0
40
0
40
0.0156249999999912
40
0.0156249999999912
40
0.0234374999999873
40
0.0234374999999873
40
0.0253906249999868
40
0.0253906249999868
40
0.0273437499999863
40
0.0273437499999863
40
0.0312499999999863
40
0.0312499999999863
40
0.0624999999999895
40
0.0624999999999895
40
0.0937499999999926
40
0.0937499999999926
40
0.109374999999994
40
0.109374999999994
40
0.113281249999994
40
0.113281249999994
40
0.117187499999993
40
0.117187499999993
40
0.124999999999994
40
0.124999999999994
40
0.187499999999994
40
0.187499999999994
40
0.249999999999994
40
0.249999999999994
40
0.374999999999995
40
0.374999999999995
40
0.437499999999996
40
0.437499999999996
40
0.499999999999996
40
0.499999999999996
40
0.562499999999997
40
0.562499999999997
40
0.624999999999998
40
0.624999999999998
40
0.749999999999999
40
0.749999999999999
40
0.874999999999999
40
0.874999999999999
40
1
40
1
40
1
40
1
41
1
10
96.3080252801603
20
-7.31880477288843
30
0
41
1
10
95.9191607500738
20
-7.24216367123503
30
0
41
1
10
95.5303894769538
20
-7.16286111862343
30
0
41
1
10
94.9473294224609
20
-7.04001075750136
30
0
41
1
10
94.7529919925388
20
-6.99841169039661
30
0
41
1
10
94.5100877462315
20
-6.94560672022098
30
0
41
1
10
94.4615078137534
20
-6.93500532753959
30
0
41
1
10
94.3643487503659
20
-6.91372400917666
30
0
41
1
10
94.3158339317652
20
-6.9029003897158
30
0
41
1
10
94.1690587698627
20
-6.87304541062824
30
0
41
1
10
94.0710806134604
20
-6.8532930295886
30
0
41
1
10
93.1881165191018
20
-6.67700029567419
30
0
41
1
10
92.3953330266708
20
-6.53036499932225
30
0
41
1
10
90.7997470825199
20
-6.25151241560098
30
0
41
1
10
89.9968986114913
20
-6.11927053597736
30
0
41
1
10
88.7875118461718
20
-5.92861960858238
30
0
41
1
10
88.3834498680035
20
-5.8663592646013
30
0
41
1
10
87.8778513908337
20
-5.78999013607324
30
0
41
1
10
87.7767011704758
20
-5.77478883265309
30
0
41
1
10
87.5743417755374
20
-5.74452721720294
30
0
41
1
10
87.4730564856311
20
-5.72975700588589
30
0
41
1
10
87.1697345594227
20
-5.6832921014142
30
0
41
1
10
86.9675115997593
20
-5.65217718191911
30
0
41
1
10
85.147535491895
20
-5.37050016393042
30
0
41
1
10
83.5297034917223
20
-5.10954696529794
30
0
41
1
10
80.2931676284048
20
-4.56984736627587
30
0
41
1
10
78.6746352142733
20
-4.29113998038719
30
0
41
1
10
73.8202779463083
20
-3.43381616537118
30
0
41
1
10
70.5845148175191
20
-2.83406231273389
30
0
41
1
10
65.7282404749906
20
-1.90882521767301
30
0
41
1
10
64.1087654023447
20
-1.59608747489361
30
0
41
1
10
60.8714344062324
20
-0.96475874628797
30
0
41
1
10
59.2532726074865
20
-0.64614089002535
30
0
41
1
10
56.0175948411652
20
-0.0048098746749758
30
0
41
1
10
54.4000994598984
20
0.318007470677486
30
0
41
1
10
51.165357730454
20
0.965758552960381
30
0
41
1
10
49.547074986715
20
1.28741143080612
30
0
41
1
10
44.6925367478449
20
2.2394124637529
30
0
41
1
10
41.457238097329
20
2.85649569483647
30
0
41
1
10
34.983690045358
20
4.03224270723339
30
0
41
1
10
31.7446949229923
20
4.59103477375342
30
0
41
1
10
25.2715078877892
20
5.63058026024157
30
0
41
1
10
22.0359624403179
20
6.11182642878706
30
0
41
1
10
18.8
20
6.5465457974577
30
0
0
SPLINE
5
154
100
AcDbEntity
8
1
62
256
6
ByLayer
370
13
48
1
60
0
100
AcDbSpline
70
4
71
3
72
18
73
14
40
0
40
0
40
0
40
0
40
0.250000000000005
40
0.250000000000005
40
0.50000000000001
40
0.50000000000001
40
0.750000000000015
40
0.750000000000015
40
0.875000000000012
40
0.875000000000012
40
0.937500000000006
40
0.937500000000006
40
1
40
1
40
1
40
1
41
1
10
115.986138731938
20
0.919200838897297
30
0
41
1
10
115.811390064789
20
1.03821879012114
30
0
41
1
10
115.643507313759
20
1.17034293130604
30
0
41
1
10
115.324854193492
20
1.4647839614536
30
0
41
1
10
115.173913738624
20
1.62711693262614
30
0
41
1
10
114.894123541384
20
1.99157689792284
30
0
41
1
10
114.768967050442
20
2.1889858891027
30
0
41
1
10
114.610003963323
20
2.51427423627879
30
0
41
1
10
114.562512291394
20
2.6264490701669
30
0
41
1
10
114.500861172209
20
2.79960994449158
30
0
41
1
10
114.481882608353
20
2.85820992595293
30
0
41
1
10
114.447249176666
20
2.97727271887337
30
0
41
1
10
114.431510988819
20
3.038095125366
30
0
41
1
10
114.417726116073
20
3.09919908455572
30
0
0
SPLINE
5
155
100
AcDbEntity
8
1
62
256
6
ByLayer
370
18
48
1
60
0
100
AcDbSpline
70
4
71
3
72
8
73
4
40
0
40
0
40
0
40
0
40
1
40
1
40
1
40
1
41
1
10
93.7550972828419
20
5.6935512532489
30
0
41
1
10
94.8614563488333
20
5.41724005230114
30
0
41
1
10
95.9672245802615
20
5.12301772266309
30
0
41
1
10
97.0736269825773
20
4.81362951342564
30
0
0
SPLINE
5
156
100
AcDbEntity
8
1
62
256
6
ByLayer
370
18
48
1
60
0
100
AcDbSpline
70
4
71
1
72
4
73
2
40
0
40
0
40
1
40
1
41
1
10
111.345590455259
20
1.15752219154092
30
0
41
1
10
111.340672210219
20
1.16269390780761
30
0
0
SPLINE
5
157
100
AcDbEntity
8
1
62
256
6
ByLayer
370
18
48
1
60
0
100
AcDbSpline
70
4
71
3
72
12
73
8
40
0
40
0
40
0
40
0
40
0.417135037890801
40
0.417135037890801
40
0.708567385549881
40
0.708567385549881
40
1
40
1
40
1
40
1
41
1
10
105.699999997661
20
-8.5754642869079
30
0
41
1
10
105.686536345747
20
-8.58961944150539
30
0
41
1
10
105.673067867812
20
-8.60377255658912
30
0
41
1
10
105.650181537012
20
-8.62781039437331
30
0
41
1
10
105.640766113046
20
-8.63769613975543
30
0
41
1
10
105.621930665219
20
-8.65746573107162
30
0
41
1
10
105.612510639198
20
-8.66734957926653
30
0
41
1
10
105.603088340779
20
-8.67723249081391
30
0
0
SPLINE
5
158
100
AcDbEntity
8
1
62
256
6
ByLayer
370
18
48
1
60
0
100
AcDbSpline
70
4
71
3
72
8
73
4
40
0
40
0
40
0
40
0
40
1
40
1
40
1
40
1
41
1
10
105.60502928862
20
8.01130239486957
30
0
41
1
10
105.60438663447
20
8.23404256259249
30
0
41
1
10
105.603739644037
20
8.45602406527053
30
0
41
1
10
105.603088526306
20
8.67723232876492
30
0
0
SPLINE
5
159
100
AcDbEntity
8
1
62
256
6
ByLayer
370
18
48
1
60
0
100
AcDbSpline
70
4
71
3
72
42
73
38
40
0
40
0
40
0
40
0
40
0.151524170160021
40
0.151524170160021
40
0.292936808466658
40
0.292936808466658
40
0.434349446773296
40
0.434349446773296
40
0.717174723386571
40
0.717174723386571
40
0.752527882963229
40
0.752527882963229
40
0.787881042539888
40
0.787881042539888
40
0.858587361693203
40
0.858587361693203
40
0.893940521269861
40
0.893940521269861
40
0.911617101058189
40
0.911617101058189
40
0.929293680846518
40
0.929293680846518
40
0.933712825793601
40
0.933712825793601
40
0.934265218911987
40
0.934265218911987
40
0.934817612030372
40
0.934817612030372
40
0.935922398267146
40
0.935922398267146
40
0.938131970740693
40
0.938131970740693
40
0.946970260634879
40
0.946970260634879
40
0.964646840423253
40
0.964646840423253
40
1
40
1
40
1
40
1
41
1
10
60.9014600373604
20
8.2972373655418
30
0
41
1
10
62.4976961639611
20
8.29413842760678
30
0
41
1
10
64.0943037797689
20
8.2749718344331
30
0
41
1
10
67.1819567495861
20
8.20878560076832
30
0
41
1
10
68.673106018042
20
8.16363512099386
30
0
41
1
10
71.654929931934
20
8.04746816085091
30
0
41
1
10
73.1456860555165
20
7.97643504575444
30
0
41
1
10
77.6176325820932
20
7.72389225412618
30
0
41
1
10
80.5977583986748
20
7.50332433947264
30
0
41
1
10
83.9477870478936
20
7.18946049762943
30
0
41
1
10
84.320009503771
20
7.15364808221048
30
0
41
1
10
85.0642749002744
20
7.08013005783539
30
0
41
1
10
85.4363166356426
20
7.04246775236857
30
0
41
1
10
86.549294303916
20
6.92097661368746
30
0
41
1
10
87.2881904097732
20
6.83090995029485
30
0
41
1
10
88.387448535643
20
6.66848359697229
30
0
41
1
10
88.7523243622047
20
6.60985686605963
30
0
41
1
10
89.2954848171962
20
6.51022652633338
30
0
41
1
10
89.4758430633893
20
6.47503347202314
30
0
41
1
10
89.8344190918653
20
6.3986258992056
30
0
41
1
10
90.012692172037
20
6.35755985243958
30
0
41
1
10
90.2330213867106
20
6.2993427544275
30
0
41
1
10
90.2769734635161
20
6.28738232996557
30
0
41
1
10
90.3261928678883
20
6.27332311597772
30
0
41
1
10
90.3316897830869
20
6.27182794293481
30
0
41
1
10
90.342561172656
20
6.26854060325104
30
0
41
1
10
90.3482825473454
20
6.26758549081086
30
0
41
1
10
90.3651049054247
20
6.26389435055091
30
0
41
1
10
90.3763201711815
20
6.26143246920677
30
0
41
1
10
90.4099612617132
20
6.25402945354696
30
0
41
1
10
90.4323881511477
20
6.24908488862664
30
0
41
1
10
90.5445306230005
20
6.22434154373656
30
0
41
1
10
90.6342544820209
20
6.20444310292785
30
0
41
1
10
90.9034205094233
20
6.14435040837336
30
0
41
1
10
91.0828741050273
20
6.10380001867682
30
0
41
1
10
91.6212870035601
20
5.98073212692955
30
0
41
1
10
91.9802918713368
20
5.89678292256397
30
0
41
1
10
92.3393627816751
20
5.81093270508836
30
0
0
SPLINE
5
15A
100
AcDbEntity
8
1
62
256
6
ByLayer
370
18
48
1
60
0
100
AcDbSpline
70
4
71
3
72
40
73
36
40
0
40
0
40
0
40
0
40
0.125000000000001
40
0.125000000000001
40
0.250000000000001
40
0.250000000000001
40
0.375000000000002
40
0.375000000000002
40
0.500000000000003
40
0.500000000000003
40
0.625000000000004
40
0.625000000000004
40
0.750000000000004
40
0.750000000000004
40
0.812500000000005
40
0.812500000000005
40
0.843750000000005
40
0.843750000000005
40
0.875000000000005
40
0.875000000000005
40
0.890625000000005
40
0.890625000000005
40
0.906250000000005
40
0.906250000000005
40
0.921875000000005
40
0.921875000000005
40
0.929687500000004
40
0.929687500000004
40
0.937500000000004
40
0.937500000000004
40
0.953125000000003
40
0.953125000000003
40
0.968750000000001
40
0.968750000000001
40
1
40
1
40
1
40
1
41
1
10
23.4128521451971
20
7.46560211391022
30
0
41
1
10
26.3309744884407
20
7.16055324301777
30
0
41
1
10
29.2494535883188
20
6.80802582167996
30
0
41
1
10
35.0847604022691
20
6.02088965482088
30
0
41
1
10
38.0018103605161
20
5.58630630843484
30
0
41
1
10
43.8387680022917
20
4.65118978643849
30
0
41
1
10
46.7573115774705
20
4.15103292925889
30
0
41
1
10
52.5928870497219
20
3.10390070571168
30
0
41
1
10
55.5096957355846
20
2.55620152118536
30
0
41
1
10
61.3463349732536
20
1.43651902474846
30
0
41
1
10
64.2638257077132
20
0.864550161099118
30
0
41
1
10
70.0991618686645
20
-0.283811887888106
30
0
41
1
10
73.0178051308932
20
-0.860163084696808
30
0
41
1
10
77.3941121271729
20
-1.71121925132175
30
0
41
1
10
78.8528027960047
20
-1.99277661745259
30
0
41
1
10
81.0411619251668
20
-2.40971944287486
30
0
41
1
10
81.7706921811677
20
-2.54775807911321
30
0
41
1
10
83.2299449528177
20
-2.82133322845542
30
0
41
1
10
83.9595504677609
20
-2.95670124330462
30
0
41
1
10
85.0532770481443
20
-3.16048263167508
30
0
41
1
10
85.4177695133016
20
-3.22838672514226
30
0
41
1
10
86.1471435687407
20
-3.36171138181965
30
0
41
1
10
86.5121538460004
20
-3.42657329744807
30
0
41
1
10
87.2424398487738
20
-3.55443467179521
30
0
41
1
10
87.6075242341685
20
-3.61828159506081
30
0
41
1
10
88.1534897371283
20
-3.72060591270667
30
0
41
1
10
88.3351652868525
20
-3.75595725232847
30
0
41
1
10
88.6978973786411
20
-3.82906610229759
30
0
41
1
10
88.8790089378589
20
-3.86658586590721
30
0
41
1
10
89.4223295473542
20
-3.97881361222667
30
0
41
1
10
89.7848399884714
20
-4.05186440387047
30
0
41
1
10
90.5099727221123
20
-4.19652062369491
30
0
41
1
10
90.8724721542029
20
-4.26863460058786
30
0
41
1
10
91.9600232135092
20
-4.48325918612963
30
0
41
1
10
92.6851423503124
20
-4.62399775689283
30
0
41
1
10
93.410382313253
20
-4.76224894212774
30
0
0
SPLINE
5
15B
100
AcDbEntity
8
1
62
256
6
ByLayer
370
18
48
1
60
0
100
AcDbSpline
70
4
71
3
72
10
73
6
40
0
40
0
40
0
40
0
40
0.5
40
0.5
40
1
40
1
40
1
40
1
41
1
10
15.1596868439036
20
6.31843730330709
30
0
41
1
10
14.9303186031621
20
6.28767748175633
30
0
41
1
10
14.7040808271541
20
6.25997058988088
30
0
41
1
10
14.256954725815
20
6.21205326851782
30
0
41
1
10
14.0358818510232
20
6.19184287924907
30
0
41
1
10
13.8189321982923
20
6.17633905221214
30
0
0
SPLINE
5
15C
100
AcDbEntity
8
1
62
256
6
ByLayer
370
18
48
1
60
0
100
AcDbSpline
70
4
71
3
72
10
73
6
40
0
40
0
40
0
40
0
40
0.409903986142286
40
0.409903986142286
40
1
40
1
40
1
40
1
41
1
10
109.375176986725
20
-8.84998088132528
30
0
41
1
10
108.891952571397
20
-8.8497334499676
30
0
41
1
10
108.408742784435
20
-8.84130995724564
30
0
41
1
10
107.229430514548
20
-8.80088012440976
30
0
41
1
10
106.533324738972
20
-8.76011607848096
30
0
41
1
10
105.837318327293
20
-8.70225620997002
30
0
0
SPLINE
5
15D
100
AcDbEntity
8
1
62
256
6
ByLayer
370
18
48
1
60
0
100
AcDbSpline
70
4
71
3
72
22
73
18
40
0
40
0
40
0
40
0
40
0.257201645192707
40
0.257201645192707
40
0.385802467789069
40
0.385802467789069
40
0.417952673438156
40
0.417952673438156
40
0.434027776262699
40
0.434027776262699
40
0.450102879087243
40
0.450102879087243
40
0.5144032903854
40
0.5144032903854
40
0.771604935578012
40
0.771604935578012
40
1
40
1
40
1
40
1
41
1
10
96.1387339463067
20
6.78447125823894
30
0
41
1
10
95.7457851442414
20
6.71363797561361
30
0
41
1
10
95.352890249547
20
6.64053821164089
30
0
41
1
10
94.7635303465552
20
6.52646016364224
30
0
41
1
10
94.567076015128
20
6.48780457092022
30
0
41
1
10
94.3215600282239
20
6.43949747628741
30
0
41
1
10
94.2724574081762
20
6.42979940567642
30
0
41
1
10
94.1987897399069
20
6.41499006387434
30
0
41
1
10
94.1742307760453
20
6.41002783357922
30
0
41
1
10
94.12510845097
20
6.399950277855
30
0
41
1
10
94.1004606767351
20
6.3966408486128
30
0
41
1
10
93.9773268759337
20
6.37721417431965
30
0
41
1
10
93.8787028237333
20
6.36197247155903
30
0
41
1
10
93.3849172928207
20
6.2851804584952
30
0
41
1
10
92.9878408790823
20
6.22316171812483
30
0
41
1
10
92.235214184547
20
6.10683965526948
30
0
41
1
10
91.8800000475355
20
6.0525405170585
30
0
41
1
10
91.5237867676137
20
5.99875010643581
30
0
0
SPLINE
5
15E
100
AcDbEntity
8
1
62
256
6
ByLayer
370
18
48
1
60
0
100
AcDbSpline
70
4
71
3
72
8
73
4
40
0
40
0
40
0
40
0
40
1
40
1
40
1
40
1
41
1
10
96.3037752752188
20
7.32711061436609
30
0
41
1
10
96.4911997906064
20
7.37108823914849
30
0
41
1
10
96.6687891754928
20
7.4244219467962
30
0
41
1
10
96.8364411656224
20
7.48565314755095
30
0
0
SPLINE
5
15F
100
AcDbEntity
8
1
62
256
6
ByLayer
370
18
48
1
60
0
100
AcDbSpline
70
4
71
3
72
29
73
25
40
0
40
0
40
0
40
0
40
0.0260730970048745
40
0.0519823626332353
40
0.077728082713453
40
0.10331054855666
40
0.128730057087706
40
0.153986910979687
40
0.179081418792162
40
0.20401389511315
40
0.228784660705027
40
0.253394042654425
40
0.380647718855605
40
0.504366429070508
40
0.555446514500042
40
0.60617726071701
40
0.656563112439096
40
0.706608606284467
40
0.756318372063214
40
0.805697134026797
40
0.854749712070177
40
0.903481022881109
40
0.951896081030812
40
1
40
1
40
1
40
1
41
1
10
111.564171671607
20
-7.01912328086428
30
0
41
1
10
111.550750298176
20
-6.99056422997364
30
0
41
1
10
111.523991885066
20
-6.93362558016224
30
0
41
1
10
111.4845660969
20
-6.84613368930502
30
0
41
1
10
111.445823494064
20
-6.75751628048175
30
0
41
1
10
111.407805294713
20
-6.66765411802533
30
0
41
1
10
111.370500556454
20
-6.57664188763277
30
0
41
1
10
111.333912191985
20
-6.48451693600947
30
0
41
1
10
111.298039395378
20
-6.39133110051648
30
0
41
1
10
111.262882501077
20
-6.29713215004699
30
0
41
1
10
111.228440973583
20
-6.20196674833508
30
0
41
1
10
111.147755793096
20
-5.97209658900263
30
0
41
1
10
111.027569797944
20
-5.59584293899343
30
0
41
1
10
110.907227242265
20
-5.15395893917082
30
0
41
1
10
110.82387353541
20
-4.81001276496053
30
0
41
1
10
110.770227129917
20
-4.5725677791377
30
0
41
1
10
110.719574523806
20
-4.33171219990936
30
0
41
1
10
110.671915456412
20
-4.087752779569
30
0
41
1
10
110.627248711662
20
-3.84099903009786
30
0
41
1
10
110.585579431771
20
-3.59174924260489
30
0
41
1
10
110.546888518052
20
-3.34032106378316
30
0
41
1
10
110.5112466507
20
-3.08694207170183
30
0
41
1
10
110.478392670468
20
-2.8321512962307
30
0
41
1
10
110.458930119854
20
-2.66037902016328
30
0
41
1
10
110.449230214348
20
-2.57476974522328
30
0
0
SPLINE
5
160
100
AcDbEntity
8
1
62
256
6
ByLayer
370
18
48
1
60
0
100
AcDbSpline
70
4
71
3
72
8
73
4
40
0
40
0
40
0
40
0
40
1
40
1
40
1
40
1
41
1
10
114.379867456426
20
3.09369156742932
30
0
41
1
10
114.382620776325
20
3.0959101082685
30
0
41
1
10
114.385375612945
20
3.09812728084748
30
0
41
1
10
114.388131972076
20
3.1003430545573
30
0
0
SPLINE
5
161
100
AcDbEntity
8
1
62
256
6
ByLayer
370
18
48
1
60
0
100
AcDbSpline
70
4
71
3
72
8
73
4
40
0
40
0
40
0
40
0
40
1
40
1
40
1
40
1
41
1
10
105.603088344171
20
-8.67723248597966
30
0
41
1
10
105.602058887551
20
-8.67812111572647
30
0
41
1
10
105.601029439484
20
-8.6790096109147
30
0
41
1
10
105.6
20
-8.67989797150651
30
0
0
SPLINE
5
162
100
AcDbEntity
8
1
62
256
6
ByLayer
370
13
48
1
60
0
100
AcDbSpline
70
4
71
3
72
10
73
6
40
0
40
0
40
0
40
0
40
0.0018205335523182
40
0.0018205335523182
40
1
40
1
40
1
40
1
41
1
10
116.008963759661
20
0.903816353286658
30
0
41
1
10
116.008949858918
20
0.903825625901305
30
0
41
1
10
116.008935958102
20
0.903834898550343
30
0
41
1
10
116.001300479342
20
0.908928352670074
30
0
41
1
10
115.993705734009
20
0.914047099540454
30
0
41
1
10
115.986138731939
20
0.919200838896757
30
0
0
SPLINE
5
163
100
AcDbEntity
8
1
62
256
6
ByLayer
370
18
48
1
60
0
100
AcDbSpline
70
4
71
3
72
14
73
10
40
0
40
0
40
0
40
0
40
0.249999999999999
40
0.249999999999999
40
0.5
40
0.5
40
0.75
40
0.75
40
1
40
1
40
1
40
1
41
1
10
116.789758723394
20
0.848067372405637
30
0
41
1
10
116.758836679705
20
0.978756233739745
30
0
41
1
10
116.720565943828
20
1.12755194037862
30
0
41
1
10
116.630858351736
20
1.45540394263835
30
0
41
1
10
116.57942412219
20
1.63445052010368
30
0
41
1
10
116.465454420796
20
2.01561511295336
30
0
41
1
10
116.402922020991
20
2.21772285409017
30
0
41
1
10
116.269266161121
20
2.6368960539732
30
0
41
1
10
116.198147576971
20
2.85394642073626
30
0
41
1
10
116.124158475552
20
3.07412609122232
30
0
0
SPLINE
5
164
100
AcDbEntity
8
1
62
256
6
ByLayer
370
18
48
1
60
0
100
AcDbSpline
70
4
71
3
72
20
73
16
40
0
40
0
40
0
40
0
40
0.0750643018619627
40
0.0750643018619627
40
0.13287278299559
40
0.13287278299559
40
0.190681264129217
40
0.190681264129217
40
0.306298226396471
40
0.306298226396471
40
0.537532150930981
40
0.537532150930981
40
0.76876607546549
40
0.76876607546549
40
1
40
1
40
1
40
1
41
1
10
60.4173520477656
20
-0.875475624611255
30
0
41
1
10
59.3614682460745
20
-0.680413355303727
30
0
41
1
10
58.3057570861762
20
-0.484302191281188
30
0
41
1
10
56.4371530818157
20
-0.136234706368867
30
0
41
1
10
55.6242275155173
20
0.0154939800970908
30
0
41
1
10
53.9983481217775
20
0.318952677320652
30
0
41
1
10
53.1854077056012
20
0.470763436273188
30
0
41
1
10
50.7462700969212
20
0.924672182210628
30
0
41
1
10
49.1194268748731
20
1.22486715693572
30
0
41
1
10
44.2392737059915
20
2.11573795899139
30
0
41
1
10
40.9866460324643
20
2.69706286554629
30
0
41
1
10
34.4799825444511
20
3.81379980837298
30
0
41
1
10
31.2251974169109
20
4.34932570765946
30
0
41
1
10
24.7204390692484
20
5.33784373017383
30
0
41
1
10
21.46927713298
20
5.7911964043449
30
0
41
1
10
18.2158216337189
20
6.17967204311893
30
0
0
SPLINE
5
165
100
AcDbEntity
8
1
62
256
6
ByLayer
370
18
48
1
60
0
100
AcDbSpline
70
2053
71
3
72
39
73
35
40
0
40
0
40
0
40
0
40
0.0303339906505726
40
0.0624383307950745
40
0.0936282141961556
40
0.12489496521689
40
0.15620385056062
40
0.187380634868386
40
0.219465530574169
40
0.249874879577619
40
0.280282868540563
40
0.31239703001799
40
0.343570736034849
40
0.374905326788112
40
0.406074932764148
40
0.437395476620073
40
0.469527167505555
40
0.499835320586744
40
0.53022090772286
40
0.562473869384256
40
0.593709874043345
40
0.625022042565892
40
0.656198485653405
40
0.687536906256631
40
0.719620116595394
40
0.749981049825712
40
0.780321681469653
40
0.812405077073886
40
0.843736108098717
40
0.874897035273844
40
0.906220608216492
40
0.937476872797682
40
0.969668030499831
40
1
40
1
40
1
40
1
41
1
10
102.16
20
-4.7551994113535
30
0
41
1
10
102.042080251754
20
-4.75520084921188
30
0
41
1
10
101.799358398142
20
-4.7756917226051
30
0
41
1
10
101.449632472864
20
-4.86665031881941
30
0
41
1
10
101.125546295501
20
-5.01450143451359
30
0
41
1
10
100.844256717488
20
-5.20669247422586
30
0
41
1
10
100.613232008268
20
-5.43406407514357
30
0
41
1
10
100.439420892071
20
-5.68728680500044
30
0
41
1
10
100.333652114048
20
-5.94963120451933
30
0
41
1
10
100.298631605304
20
-6.20923301340378
30
0
41
1
10
100.333089212837
20
-6.45696427639047
30
0
41
1
10
100.43836633826
20
-6.68607728134481
30
0
41
1
10
100.611817947897
20
-6.88813445125973
30
0
41
1
10
100.842290605773
20
-7.05545787930714
30
0
41
1
10
101.123380436957
20
-7.18758901622141
30
0
41
1
10
101.447435358945
20
-7.28359180254489
30
0
41
1
10
101.797553455867
20
-7.34078296464591
30
0
41
1
10
102.158360161101
20
-7.35909926436236
30
0
41
1
10
102.519720026636
20
-7.34109040016233
30
0
41
1
10
102.870417568805
20
-7.28409048420562
30
0
41
1
10
103.195264839218
20
-7.18811099498822
30
0
41
1
10
103.476286751248
20
-7.05628360383372
30
0
41
1
10
103.707372400124
20
-6.88887034288243
30
0
41
1
10
103.881097098878
20
-6.68700673829395
30
0
41
1
10
103.986647522738
20
-6.45773174867105
30
0
41
1
10
104.021325505638
20
-6.21048406584259
30
0
41
1
10
103.986757315049
20
-5.95123360778035
30
0
41
1
10
103.881365966184
20
-5.68863818591055
30
0
41
1
10
103.707808363968
20
-5.43529580293935
30
0
41
1
10
103.476881305157
20
-5.2076673307119
30
0
41
1
10
103.195919697876
20
-5.01528332927776
30
0
41
1
10
102.871238622345
20
-4.86690837990349
30
0
41
1
10
102.520962708458
20
-4.77570938101564
30
0
41
1
10
102.277911891267
20
-4.75519797359092
30
0
41
1
10
102.16
20
-4.7551994113535
30
0
0
SPLINE
5
166
100
AcDbEntity
8
1
62
256
6
ByLayer
370
13
48
1
60
0
100
AcDbSpline
70
4
71
3
72
8
73
4
40
0
40
0
40
0
40
0
40
1
40
1
40
1
40
1
41
1
10
115.938388930976
20
0.879429409968026
30
0
41
1
10
115.945967480496
20
0.874127102226424
30
0
41
1
10
115.953575407014
20
0.86886143641695
30
0
41
1
10
115.961211757973
20
0.863631997877292
30
0
0
SPLINE
5
167
100
AcDbEntity
8
1
62
256
6
ByLayer
370
18
48
1
60
0
100
AcDbSpline
70
4
71
3
72
18
73
14
40
0
40
0
40
0
40
0
40
0.161852195571003
40
0.161852195571003
40
0.323704391142006
40
0.323704391142006
40
0.647408782284011
40
0.647408782284011
40
0.809260977855015
40
0.809260977855015
40
0.971113173426018
40
0.971113173426018
40
1
40
1
40
1
40
1
41
1
10
97.6666338913328
20
7.2149625044961
30
0
41
1
10
97.6055852375091
20
7.08473132463277
30
0
41
1
10
97.542597657996
20
6.95519188103853
30
0
41
1
10
97.4126741160485
20
6.69751867155912
30
0
41
1
10
97.345824037958
20
6.56960794933789
30
0
41
1
10
97.1430021701815
20
6.19447207056425
30
0
41
1
10
97.0034812786425
20
5.95365495361935
30
0
41
1
10
96.7910274479904
20
5.60512297895366
30
0
41
1
10
96.7197072219496
20
5.49106134152231
30
0
41
1
10
96.577551046217
20
5.26679537067992
30
0
41
1
10
96.5063113424733
20
5.15602519578297
30
0
41
1
10
96.4255598613429
20
5.029120429599
30
0
41
1
10
96.4134211109937
20
5.01000709681384
30
0
41
1
10
96.4013896371899
20
4.99099852349835
30
0
0
SPLINE
5
168
100
AcDbEntity
8
1
62
256
6
ByLayer
370
18
48
1
60
0
100
AcDbSpline
70
4
71
3
72
10
73
6
40
0
40
0
40
0
40
0
40
0.509913323184374
40
0.509913323184374
40
1
40
1
40
1
40
1
41
1
10
114.140935582195
20
-8.73411960780433
30
0
41
1
10
114.149688229496
20
-8.70840986965396
30
0
41
1
10
114.158437265971
20
-8.6827020259862
30
0
41
1
10
114.17558798268
20
-8.63228991227805
30
0
41
1
10
114.183989956348
20
-8.60758544431599
30
0
41
1
10
114.192388524609
20
-8.58288293848634
30
0
0
SPLINE
5
169
100
AcDbEntity
8
1
62
256
6
ByLayer
370
13
48
1
60
0
100
AcDbSpline
70
4
71
3
72
8
73
4
40
0
40
0
40
0
40
0
40
1
40
1
40
1
40
1
41
1
10
116.008963759662
20
0.903816353286174
30
0
41
1
10
115.992439691787
20
0.895930893769105
30
0
41
1
10
115.975268088192
20
0.881480613208481
30
0
41
1
10
115.961211757974
20
0.863631997876922
30
0
0
SPLINE
5
16A
100
AcDbEntity
8
1
62
256
6
ByLayer
370
18
48
1
60
0
100
AcDbSpline
70
4
71
3
72
10
73
6
40
0
40
0
40
0
40
0
40
0.5
40
0.5
40
1
40
1
40
1
40
1
41
1
10
105.605029296834
20
8.01130239480267
30
0
41
1
10
104.279290835092
20
7.96389978354097
30
0
41
1
10
102.953477050695
20
7.87577708113355
30
0
41
1
10
100.308744075751
20
7.60979501930839
30
0
41
1
10
98.9883465219935
20
7.43287727024526
30
0
41
1
10
97.6666338913319
20
7.2149625044965
30
0
0
SPLINE
5
16B
100
AcDbEntity
8
1
62
256
6
ByLayer
370
18
48
1
60
0
100
AcDbSpline
70
4
71
3
72
52
73
48
40
0
40
0
40
0
40
0
40
0.128470716982174
40
0.128470716982174
40
0.256941433964347
40
0.256941433964347
40
0.321176792455434
40
0.321176792455434
40
0.385412150946521
40
0.385412150946521
40
0.417529830192065
40
0.417529830192065
40
0.449647509437608
40
0.449647509437608
40
0.513882867928695
40
0.513882867928695
40
0.642353584910869
40
0.642353584910869
40
0.706588943401956
40
0.706588943401956
40
0.770824301893042
40
0.770824301893042
40
0.899295018875217
40
0.899295018875217
40
0.915353858497988
40
0.915353858497988
40
0.93141269812076
40
0.93141269812076
40
0.963530377366304
40
0.963530377366304
40
0.979589216989077
40
0.979589216989077
40
0.987618636800463
40
0.987618636800463
40
0.995648056611849
40
0.995648056611849
40
0.997655411564695
40
0.997655411564695
40
0.997906330933801
40
0.997906330933801
40
0.998157250302907
40
0.998157250302907
40
0.998659089041117
40
0.998659089041117
40
0.999662766517538
40
0.999662766517538
40
1
40
1
40
1
40
1
41
1
10
20.9939999999929
20
-5.20624947502557
30
0
41
1
10
23.9731057576935
20
-5.64635919538222
30
0
41
1
10
26.9536536219918
20
-6.04072104614662
30
0
41
1
10
32.9165819490573
20
-6.73957867722061
30
0
41
1
10
35.8974571119567
20
-7.04437339094716
30
0
41
1
10
40.3684926084448
20
-7.43456950948737
30
0
41
1
10
41.858779398251
20
-7.55341406999196
30
0
41
1
10
44.8393048723049
20
-7.76756629294132
30
0
41
1
10
46.329489714648
20
-7.86288030641074
30
0
41
1
10
48.5634543701433
20
-7.98650317514017
30
0
41
1
10
49.3079571175478
20
-8.02446536076582
30
0
41
1
10
50.7966069130038
20
-8.09360915826309
30
0
41
1
10
51.540849253932
20
-8.12463974641494
30
0
41
1
10
53.7743278254966
20
-8.20592335679424
30
0
41
1
10
55.2634100082022
20
-8.24465267432237
30
0
41
1
10
59.7310428047089
20
-8.31604056098237
30
0
41
1
10
62.7103457397985
20
-8.30463804728515
30
0
41
1
10
67.1819567495862
20
-8.20878560076832
30
0
41
1
10
68.6731060180421
20
-8.16363512099389
30
0
41
1
10
71.6549299319341
20
-8.04746816085094
30
0
41
1
10
73.1456860555165
20
-7.97643504575447
30
0
41
1
10
77.6176325820931
20
-7.72389225412618
30
0
41
1
10
80.5977583986748
20
-7.50332433947267
30
0
41
1
10
83.9477870478935
20
-7.18946049762943
30
0
41
1
10
84.320009503771
20
-7.15364808221045
30
0
41
1
10
85.0642749002744
20
-7.08013005783542
30
0
41
1
10
85.4363166356426
20
-7.04246775236857
30
0
41
1
10
86.5492943039159
20
-6.92097661368746
30
0
41
1
10
87.2881904097732
20
-6.83090995029485
30
0
41
1
10
88.387448535643
20
-6.66848359697232
30
0
41
1
10
88.7523243622048
20
-6.60985686605963
30
0
41
1
10
89.2954848171962
20
-6.51022652633338
30
0
41
1
10
89.4758430633892
20
-6.47503347202314
30
0
41
1
10
89.8344190918653
20
-6.39862589920563
30
0
41
1
10
90.0126921720369
20
-6.35755985243961
30
0
41
1
10
90.2330213867106
20
-6.2993427544275
30
0
41
1
10
90.2769734635161
20
-6.28738232996562
30
0
41
1
10
90.3261928678882
20
-6.27332311597772
30
0
41
1
10
90.3316897830868
20
-6.27182794293475
30
0
41
1
10
90.342561172656
20
-6.26854060325113
30
0
41
1
10
90.3482825473452
20
-6.26758549081089
30
0
41
1
10
90.3651049054247
20
-6.26389435055094
30
0
41
1
10
90.3763201711814
20
-6.26143246920677
30
0
41
1
10
90.4099612617131
20
-6.25402945354699
30
0
41
1
10
90.4323881511477
20
-6.24908488862664
30
0
41
1
10
90.4623525715908
20
-6.24247347747078
30
0
41
1
10
90.4698885673866
20
-6.24081000313714
30
0
41
1
10
90.4774246259524
20
-6.23914577964192
30
0
0
SPLINE
5
16C
100
AcDbEntity
8
1
62
256
6
ByLayer
370
18
48
1
60
0
100
AcDbSpline
70
4
71
3
72
8
73
4
40
0
40
0
40
0
40
0
40
1
40
1
40
1
40
1
41
1
10
13.7271777641003
20
-3.77575434596952
30
0
41
1
10
13.7577664534539
20
-3.78387782015946
30
0
41
1
10
13.7883513759973
20
-3.79196728940249
30
0
41
1
10
13.8189321982923
20
-3.80002308815247
30
0
0
SPLINE
5
16D
100
AcDbEntity
8
1
62
256
6
ByLayer
370
18
48
1
60
0
100
AcDbSpline
70
4
71
3
72
10
73
6
40
0
40
0
40
0
40
0
40
0.5
40
0.5
40
1
40
1
40
1
40
1
41
1
10
96.8364411656237
20
-7.4856531475493
30
0
41
1
10
98.2960771962012
20
-7.78723370999472
30
0
41
1
10
99.7536871978849
20
-8.04003030997413
30
0
41
1
10
102.67363732152
20
-8.44010346206755
30
0
41
1
10
104.137990718698
20
-8.58714914335815
30
0
41
1
10
105.6
20
-8.67989797150651
30
0
0
SPLINE
5
16E
100
AcDbEntity
8
1
62
256
6
ByLayer
370
18
48
1
60
0
100
AcDbSpline
70
4
71
3
72
30
73
26
40
0
40
0
40
0
40
0
40
0.125000000000013
40
0.125000000000013
40
0.187500000000012
40
0.187500000000012
40
0.250000000000011
40
0.250000000000011
40
0.375000000000008
40
0.375000000000008
40
0.500000000000006
40
0.500000000000006
40
0.562500000000005
40
0.562500000000005
40
0.625000000000004
40
0.625000000000004
40
0.687500000000002
40
0.687500000000002
40
0.750000000000001
40
0.750000000000001
40
0.874999999999999
40
0.874999999999999
40
0.937499999999999
40
0.937499999999999
40
1
40
1
40
1
40
1
41
1
10
93.4103823132529
20
-4.76224894212774
30
0
41
1
10
93.6332267152476
20
-4.80472936829432
30
0
41
1
10
93.8574881978424
20
-4.82508833475234
30
0
41
1
10
94.1959270595128
20
-4.82419320697821
30
0
41
1
10
94.3091649997338
20
-4.81858596701792
30
0
41
1
10
94.5360299813051
20
-4.79633074380314
30
0
41
1
10
94.6476213499176
20
-4.77988954458851
30
0
41
1
10
94.9770747143907
20
-4.71501137904645
30
0
41
1
10
95.1899772040206
20
-4.65113968874422
30
0
41
1
10
95.5999457575588
20
-4.47913209110644
30
0
41
1
10
95.7896962463485
20
-4.37410552069542
30
0
41
1
10
96.0522108334562
20
-4.18701128265417
30
0
41
1
10
96.1361637566292
20
-4.11951958218927
30
0
41
1
10
96.2956190439111
20
-3.97444769140859
30
0
41
1
10
96.369883531262
20
-3.89802817869932
30
0
41
1
10
96.5079104643218
20
-3.73741528417475
30
0
41
1
10
96.5716713842248
20
-3.65322152845255
30
0
41
1
10
96.6887329754527
20
-3.47679502221712
30
0
41
1
10
96.7422068769179
20
-3.38420885516874
30
0
41
1
10
96.8853198729254
20
-3.09592535691778
30
0
41
1
10
96.9557056644307
20
-2.89456615127131
30
0
41
1
10
97.0264992557891
20
-2.57878075321165
30
0
41
1
10
97.0442871983772
20
-2.47078191655086
30
0
41
1
10
97.0678438946601
20
-2.25215716697608
30
0
41
1
10
97.0736269808537
20
-2.14192408471922
30
0
41
1
10
97.073626980865
20
-2.03077199807322
30
0
0
SPLINE
5
16F
100
AcDbEntity
8
1
62
256
6
ByLayer
370
18
48
1
60
0
100
AcDbSpline
70
4
71
3
72
18
73
14
40
0
40
0
40
0
40
0
40
0.250000000000004
40
0.250000000000004
40
0.375000000000003
40
0.375000000000003
40
0.500000000000003
40
0.500000000000003
40
0.750000000000001
40
0.750000000000001
40
0.875000000000001
40
0.875000000000001
40
1
40
1
40
1
40
1
41
1
10
114.132071419892
20
-4.38921196254029
30
0
41
1
10
113.988293545465
20
-3.98615491205749
30
0
41
1
10
113.848737916539
20
-3.58168048771679
30
0
41
1
10
113.643784253646
20
-2.97349859411722
30
0
41
1
10
113.576287173828
20
-2.77049575766921
30
0
41
1
10
113.444324503312
20
-2.36347243825608
30
0
41
1
10
113.380257259729
20
-2.15931023898054
30
0
41
1
10
113.190965112584
20
-1.54589715084461
30
0
41
1
10
113.070740812418
20
-1.13534106385578
30
0
41
1
10
112.902067145016
20
-0.516354069726503
30
0
41
1
10
112.848557999023
20
-0.309291000152143
30
0
41
1
10
112.744667605633
20
0.105680720870396
30
0
41
1
10
112.695390821117
20
0.313887947788089
30
0
41
1
10
112.648732004283
20
0.522802904176245
30
0
0
SPLINE
5
170
100
AcDbEntity
8
1
62
256
6
ByLayer
370
18
48
1
60
0
100
AcDbSpline
70
4
71
3
72
9
73
5
40
0
40
0
40
0
40
0
40
0.494780081376396
40
1
40
1
40
1
40
1
41
1
10
105.700000005196
20
7.84395822638552
30
0
41
1
10
105.684588123989
20
7.87168530869022
30
0
41
1
10
105.65343917158
20
7.92772451347707
30
0
41
1
10
105.621277837971
20
7.98324988171743
30
0
41
1
10
105.605029291622
20
8.01130240374135
30
0
0
SPLINE
5
171
100
AcDbEntity
8
1
62
256
6
ByLayer
370
18
48
1
60
0
100
AcDbSpline
70
4
71
3
72
14
73
10
40
0
40
0
40
0
40
0
40
0.327787174598953
40
0.327787174598953
40
0.495840380949215
40
0.495840380949215
40
0.663893587299477
40
0.663893587299477
40
1
40
1
40
1
40
1
41
1
10
98.2659585881969
20
4.47453435362411
30
0
41
1
10
99.5181452160644
20
4.13560928474936
30
0
41
1
10
100.7695125101
20
3.77511747314597
30
0
41
1
10
102.6629963828
20
3.20148164709525
30
0
41
1
10
103.304879785819
20
3.00208708740297
30
0
41
1
10
104.586835502186
20
2.59479834100009
30
0
41
1
10
105.227189715491
20
2.38679436603539
30
0
41
1
10
107.146867765657
20
1.75099676148906
30
0
41
1
10
108.424776456252
20
1.31130432535616
30
0
41
1
10
109.702651841909
20
0.859770200861732
30
0
0
SPLINE
5
172
100
AcDbEntity
8
1
62
256
6
ByLayer
370
18
48
1
60
0
100
AcDbSpline
70
4
71
3
72
28
73
24
40
0
40
0
40
0
40
0
40
0.125000000000007
40
0.125000000000007
40
0.18750000000001
40
0.18750000000001
40
0.250000000000012
40
0.250000000000012
40
0.375000000000017
40
0.375000000000017
40
0.437500000000018
40
0.437500000000018
40
0.500000000000018
40
0.500000000000018
40
0.625000000000013
40
0.625000000000013
40
0.687500000000011
40
0.687500000000011
40
0.750000000000009
40
0.750000000000009
40
0.875000000000004
40
0.875000000000004
40
1
40
1
40
1
40
1
41
1
10
20.9939999999891
20
8.59388730123297
30
0
41
1
10
20.9939999999891
20
8.55606954190327
30
0
41
1
10
21.0076237072479
20
8.5136349053256
30
0
41
1
10
21.0488902385763
20
8.4436569733748
30
0
41
1
10
21.066133339515
20
8.41927630975729
30
0
41
1
10
21.1078643506431
20
8.36850681152862
30
0
41
1
10
21.1324576193592
20
8.34201706162233
30
0
41
1
10
21.2170174905058
20
8.26039130375523
30
0
41
1
10
21.2867833202204
20
8.20390033613731
30
0
41
1
10
21.4113504818296
20
8.11761819777792
30
0
41
1
10
21.4562085935825
20
8.08860030847021
30
0
41
1
10
21.5527678420678
20
8.03033124174905
30
0
41
1
10
21.6047594296431
20
8.00093088395104
30
0
41
1
10
21.7690526578319
20
7.91409756036592
30
0
41
1
10
21.8891991268259
20
7.8581515791999
30
0
41
1
10
22.0849714095621
20
7.77888512661497
30
0
41
1
10
22.152834970321
20
7.75324034110855
30
0
41
1
10
22.2938841581902
20
7.70383629847467
30
0
41
1
10
22.3673021336633
20
7.68002440831319
30
0
41
1
10
22.591433181864
20
7.61320779423758
30
0
41
1
10
22.747180431908
20
7.57434167714078
30
0
41
1
10
23.0711161139689
20
7.50959527387326
30
0
41
1
10
23.2403377154732
20
7.48363608432336
30
0
41
1
10
23.4128521451971
20
7.46560211391022
30
0
0
SPLINE
5
173
100
AcDbEntity
8
1
62
256
6
ByLayer
370
18
48
1
60
0
100
AcDbSpline
70
4
71
3
72
12
73
8
40
0
40
0
40
0
40
0
40
0.20225347540942
40
0.403373830374661
40
0.6033673936647
40
0.802240601626248
40
1
40
1
40
1
40
1
41
1
10
109.63356028866
20
-0.102669667282754
30
0
41
1
10
109.619657595194
20
-0.0535500907506901
30
0
41
1
10
109.591930097781
20
0.0444138710156494
30
0
41
1
10
109.551485222063
20
0.191233171362342
30
0
41
1
10
109.512050292373
20
0.337384271767007
30
0
41
1
10
109.473620050499
20
0.48284693568317
30
0
41
1
10
109.448780410319
20
0.579614202693932
30
0
41
1
10
109.436395467126
20
0.627861966999376
30
0
0
SPLINE
5
174
100
AcDbEntity
8
1
62
256
6
ByLayer
370
18
48
1
60
0
100
AcDbSpline
70
4
71
3
72
14
73
10
40
0
40
0
40
0
40
0
40
0.25
40
0.25
40
0.5
40
0.5
40
0.75
40
0.75
40
1
40
1
40
1
40
1
41
1
10
114.282309331657
20
8.50558329148598
30
0
41
1
10
113.6113849631
20
8.60695600380086
30
0
41
1
10
112.942235007842
20
8.69330910540987
30
0
41
1
10
111.603675236731
20
8.83399605318925
30
0
41
1
10
110.934757874357
20
8.88872802670033
30
0
41
1
10
109.597903990766
20
8.96693626848457
30
0
41
1
10
108.929745382011
20
8.99022197927809
30
0
41
1
10
107.590747859987
20
9.00478013427593
30
0
41
1
10
106.920473317963
20
8.99620975342077
30
0
41
1
10
106.249495483891
20
8.97148617164305
30
0
0
SPLINE
5
175
100
AcDbEntity
8
1
62
256
6
ByLayer
370
18
48
1
60
0
100
AcDbSpline
70
4
71
1
72
4
73
2
40
0
40
0
40
1
40
1
41
1
10
18.2849078603698
20
6.56827878348008
30
0
41
1
10
18.2158216337188
20
6.17967204311771
30
0
0
SPLINE
5
176
100
AcDbEntity
8
1
62
256
6
ByLayer
370
18
48
1
60
0
100
AcDbSpline
70
4
71
3
72
8
73
4
40
0
40
0
40
0
40
0
40
1
40
1
40
1
40
1
41
1
10
105.7
20
-8.7490803012096
30
0
41
1
10
105.883443343123
20
-8.82431410312191
30
0
41
1
10
106.066602407828
20
-8.8984662213233
30
0
41
1
10
106.249495483891
20
-8.97148617164305
30
0
0
SPLINE
5
177
100
AcDbEntity
8
1
62
256
6
ByLayer
370
18
48
1
60
0
100
AcDbSpline
70
4
71
3
72
14
73
10
40
0
40
0
40
0
40
0
40
0.499999999999997
40
0.499999999999997
40
0.624999999999996
40
0.624999999999996
40
0.749999999999996
40
0.749999999999996
40
1
40
1
40
1
40
1
41
1
10
97.0736269824079
20
4.84258278523424
30
0
41
1
10
99.1315013622772
20
4.21723533927624
30
0
41
1
10
101.18694691857
20
3.53968992617769
30
0
41
1
10
103.763120901033
20
2.65206277752031
30
0
41
1
10
104.278688610866
20
2.47248427124288
30
0
41
1
10
105.310701940104
20
2.10976442332992
30
0
41
1
10
105.827379661275
20
1.92648556663306
30
0
41
1
10
107.375661903292
20
1.37410196826946
30
0
41
1
10
108.406362429532
20
1.00184490436834
30
0
41
1
10
109.436395520391
20
0.627861995964025
30
0
0
SPLINE
5
178
100
AcDbEntity
8
1
62
256
6
ByLayer
370
18
48
1
60
0
100
AcDbSpline
70
4
71
3
72
8
73
4
40
0
40
0
40
0
40
0
40
1
40
1
40
1
40
1
41
1
10
105.7
20
8.74908030120963
30
0
41
1
10
105.883443343123
20
8.82431410312191
30
0
41
1
10
106.066602407828
20
8.8984662213233
30
0
41
1
10
106.249495483891
20
8.97148617164305
30
0
0
SPLINE
5
179
100
AcDbEntity
8
1
62
256
6
ByLayer
370
18
48
1
60
0
100
AcDbSpline
70
4
71
3
72
12
73
8
40
0
40
0
40
0
40
0
40
0.249999999999994
40
0.249999999999994
40
0.499999999999988
40
0.499999999999988
40
1
40
1
40
1
40
1
41
1
10
116.547682009581
20
-1.31282660197294
30
0
41
1
10
116.577618794372
20
-1.22948020827766
30
0
41
1
10
116.60747992701
20
-1.14545082164787
30
0
41
1
10
116.667052469636
20
-0.976040341870885
30
0
41
1
10
116.696872261485
20
-0.890343443761054
30
0
41
1
10
116.785296830325
20
-0.633575418149917
30
0
41
1
10
116.84249081594
20
-0.463965301936668
30
0
41
1
10
116.898093908505
20
-0.295776490547297
30
0
0
SPLINE
5
17A
100
AcDbEntity
8
1
62
256
6
ByLayer
370
18
48
1
60
0
100
AcDbSpline
70
4
71
3
72
8
73
4
40
0
40
0
40
0
40
0
40
1
40
1
40
1
40
1
41
1
10
96.3037752752188
20
-7.32711061436609
30
0
41
1
10
96.4911997906063
20
-7.37108823914846
30
0
41
1
10
96.6687891754926
20
-7.42442194679614
30
0
41
1
10
96.8364411656221
20
-7.48565314755086
30
0
0
SPLINE
5
17B
100
AcDbEntity
8
1
62
256
6
ByLayer
370
18
48
1
60
0
100
AcDbSpline
70
4
71
2
72
6
73
3
40
0
40
0
40
0
40
1
40
1
40
1
41
1
10
109.570951124517
20
0.627027565864239
30
0
41
1
10
109.66391184785
20
0.269843837451134
30
0
41
1
10
109.767858347998
20
-0.0881238896320724
30
0
0
SPLINE
5
17C
100
AcDbEntity
8
1
62
256
6
ByLayer
370
18
48
1
60
0
100
AcDbSpline
70
4
71
2
72
6
73
3
40
0
40
0
40
0
40
1
40
1
40
1
41
0.500000003501746
10
18.2843797244754
20
6.56603384086844
30
0
41
0.499999996498254
10
18.2846438336146
20
6.56715655067062
30
0
41
0.500000003501746
10
18.2849078603699
20
6.56827878348008
30
0
0
SPLINE
5
17D
100
AcDbEntity
8
1
62
256
6
ByLayer
370
18
48
1
60
0
100
AcDbSpline
70
4
71
3
72
10
73
6
40
0
40
0
40
0
40
0
40
0.5
40
0.5
40
1
40
1
40
1
40
1
41
1
10
115.816423407375
20
-2.49492366758904
30
0
41
1
10
115.944134105825
20
-2.35129212408089
30
0
41
1
10
116.07096069002
20
-2.18309261837194
30
0
41
1
10
116.322259859777
20
-1.78128017309342
30
0
41
1
10
116.439606124905
20
-1.55875268478292
30
0
41
1
10
116.54768200958
20
-1.31282660197144
30
0
0
SPLINE
5
17E
100
AcDbEntity
8
1
62
256
6
ByLayer
370
18
48
1
60
0
100
AcDbSpline
70
4
71
3
72
21
73
17
40
0
40
0
40
0
40
0
40
0.0285315591631824
40
0.0569776830495158
40
0.0854079000970992
40
0.113891855228694
40
0.1424988008864
40
0.213542909836161
40
0.284068017859979
40
0.355290472857076
40
0.425561433262512
40
0.566406378689022
40
0.706787191657889
40
0.846834530447609
40
0.986459744748603
40
1
40
1
40
1
40
1
41
1
10
105.600001989267
20
-8.4288490379605
30
0
41
1
10
105.600239506913
20
-8.42404213148177
30
0
41
1
10
105.60071383098
20
-8.41444271238842
30
0
41
1
10
105.604533580834
20
-8.39974700681898
30
0
41
1
10
105.61063272341
20
-8.38488546244858
30
0
41
1
10
105.619230591075
20
-8.36983745947427
30
0
41
1
10
105.635705106524
20
-8.34713331404529
30
0
41
1
10
105.665664493228
20
-8.31670123522369
30
0
41
1
10
105.717514138132
20
-8.2790347685152
30
0
41
1
10
105.782506236489
20
-8.24261954186071
30
0
41
1
10
105.886085306404
20
-8.19693959736253
30
0
41
1
10
106.044830551189
20
-8.14728772283081
30
0
41
1
10
106.271926119513
20
-8.10787787445094
30
0
41
1
10
106.51831540451
20
-8.09540366228131
30
0
41
1
10
106.689760905889
20
-8.10699714860769
30
0
41
1
10
106.774028497289
20
-8.11839495660038
30
0
41
1
10
106.781477987702
20
-8.11940255465743
30
0
0
SPLINE
5
17F
100
AcDbEntity
8
1
62
256
6
ByLayer
370
18
48
1
60
0
100
AcDbSpline
70
4
71
3
72
8
73
4
40
0
40
0
40
0
40
0
40
1
40
1
40
1
40
1
41
1
10
109.702651841909
20
0.859770200861618
30
0
41
1
10
109.659231792548
20
0.781007607527556
30
0
41
1
10
109.615336499725
20
0.703414542042935
30
0
41
1
10
109.570951156592
20
0.627027442620687
30
0
0
SPLINE
5
180
100
AcDbEntity
8
1
62
256
6
ByLayer
370
18
48
1
60
0
100
AcDbSpline
70
4
71
3
72
8
73
4
40
0
40
0
40
0
40
0
40
1
40
1
40
1
40
1
41
1
10
105.5
20
3.90000000000001
30
0
41
1
10
105.566660504691
20
3.90000000000001
30
0
41
1
10
105.633327285346
20
3.90000000000001
30
0
41
1
10
105.7
20
3.90000000000001
30
0
0
SPLINE
5
181
100
AcDbEntity
8
1
62
256
6
ByLayer
370
18
48
1
60
0
100
AcDbSpline
70
4
71
3
72
14
73
10
40
0
40
0
40
0
40
0
40
0.25
40
0.25
40
0.5
40
0.5
40
0.75
40
0.75
40
1
40
1
40
1
40
1
41
1
10
106.6
20
2.01153421903987
30
0
41
1
10
107.091357870696
20
1.94727444551057
30
0
41
1
10
107.58286270628
20
1.88429485734071
30
0
41
1
10
108.566170141744
20
1.76092945359559
30
0
41
1
10
109.057991614303
20
1.70070803459944
30
0
41
1
10
110.042337636219
20
1.58638957533191
30
0
41
1
10
110.534803567621
20
1.53178192432043
30
0
41
1
10
111.519720142678
20
1.42243345341421
30
0
41
1
10
112.012250373483
20
1.36838590323299
30
0
41
1
10
112.504905217054
20
1.31542383300874
30
0
0
SPLINE
5
182
100
AcDbEntity
8
1
62
256
6
ByLayer
370
18
48
1
60
0
100
AcDbSpline
70
4
71
3
72
40
73
36
40
0
40
0
40
0
40
0
40
0.129019772496103
40
0.129019772496103
40
0.258039544992205
40
0.258039544992205
40
0.387059317488308
40
0.387059317488308
40
0.451569203736359
40
0.451569203736359
40
0.483824146860385
40
0.483824146860385
40
0.516079089984411
40
0.516079089984411
40
0.645098862480515
40
0.645098862480515
40
0.709608748728567
40
0.709608748728567
40
0.774118634976618
40
0.774118634976618
40
0.903138407472722
40
0.903138407472722
40
0.919265879034735
40
0.919265879034735
40
0.935393350596748
40
0.935393350596748
40
0.967648293720774
40
0.967648293720774
40
0.983775765282787
40
0.983775765282787
40
0.991839501063793
40
0.991839501063793
40
0.9999032368448
40
0.9999032368448
40
1
40
1
40
1
40
1
41
1
10
16.0947798640078
20
-4.15603175187553
30
0
41
1
10
19.2838396644549
20
-4.64143192106005
30
0
41
1
10
22.4733496863607
20
-5.09636062191808
30
0
41
1
10
28.8529824380824
20
-5.93339445930457
30
0
41
1
10
32.0431089695053
20
-6.31552608807465
30
0
41
1
10
38.4227811650461
20
-6.97918922379031
30
0
41
1
10
41.6132210793468
20
-7.26017309672443
30
0
41
1
10
46.3954631545801
20
-7.57742008456515
30
0
41
1
10
47.9892172059024
20
-7.66578751686239
30
0
41
1
10
50.3799277710676
20
-7.76903018927791
30
0
41
1
10
51.1768421452857
20
-7.79813858912252
30
0
41
1
10
52.7709114401247
20
-7.8513199282047
30
0
41
1
10
53.5680458965415
20
-7.87489022896307
30
0
41
1
10
57.5542710548099
20
-7.97730184913459
30
0
41
1
10
60.7434071165395
20
-8.01065087218652
30
0
41
1
10
65.5262914429677
20
-7.97789643066429
30
0
41
1
10
67.1206057233682
20
-7.95306200196868
30
0
41
1
10
70.3097614057641
20
-7.87310593690202
30
0
41
1
10
71.9048268426094
20
-7.81795812291872
30
0
41
1
10
76.6890698685008
20
-7.60329987312198
30
0
41
1
10
79.8786281558677
20
-7.3940724223794
30
0
41
1
10
83.4659533921972
20
-7.07745910032176
30
0
41
1
10
83.8645367281578
20
-7.04116790719033
30
0
41
1
10
84.6617090565429
20
-6.96630551108882
30
0
41
1
10
85.0604194092696
20
-6.92841635257372
30
0
41
1
10
86.2556363790058
20
-6.80588454025289
30
0
41
1
10
87.0504542463753
20
-6.71432712239596
30
0
41
1
10
88.2345849645556
20
-6.54949275675773
30
0
41
1
10
88.6280172898803
20
-6.48984455478185
30
0
41
1
10
89.215348810279
20
-6.38790463086985
30
0
41
1
10
89.4106458563181
20
-6.35183229742961
30
0
41
1
10
89.7999881926767
20
-6.27353501637776
30
0
41
1
10
89.9940372068691
20
-6.23141680072612
30
0
41
1
10
90.1894252882062
20
-6.18372333331141
30
0
41
1
10
90.1917419641066
20
-6.18315711167702
30
0
41
1
10
90.1940585007048
20
-6.18259018023403
30
0
0
SPLINE
5
183
100
AcDbEntity
8
1
62
256
6
ByLayer
370
13
48
1
60
0
100
AcDbSpline
70
4
71
3
72
16
73
12
40
0
40
0
40
0
40
0
40
0.249999999999996
40
0.249999999999996
40
0.499999999999992
40
0.499999999999992
40
0.749999999999987
40
0.749999999999987
40
0.874999999999994
40
0.874999999999994
40
1
40
1
40
1
40
1
41
1
10
114.389755886887
20
3.09298255177563
30
0
41
1
10
114.443841749507
20
2.84563258712808
30
0
41
1
10
114.525579258195
20
2.61307998984373
30
0
41
1
10
114.732841161268
20
2.17481505568438
30
0
41
1
10
114.855424469442
20
1.97490225334011
30
0
41
1
10
115.130204869572
20
1.60509097128386
30
0
41
1
10
115.2798312148
20
1.43869351726121
30
0
41
1
10
115.518585042671
20
1.21139620071924
30
0
41
1
10
115.600163211128
20
1.13985113403044
30
0
41
1
10
115.766736734013
20
1.00417979948318
30
0
41
1
10
115.851479237481
20
0.940246867437367
30
0
41
1
10
115.938388930977
20
0.879429409968481
30
0
0
SPLINE
5
184
100
AcDbEntity
8
1
62
256
6
ByLayer
370
18
48
1
60
0
100
AcDbSpline
70
4
71
3
72
20
73
16
40
0
40
0
40
0
40
0
40
0.205169886771792
40
0.205169886771792
40
0.307754830157688
40
0.307754830157688
40
0.333401066004169
40
0.333401066004169
40
0.359047301850649
40
0.359047301850649
40
0.410339773543597
40
0.410339773543597
40
0.820679547087127
40
0.820679547087127
40
1
40
1
40
1
40
1
41
1
10
96.3080252801603
20
7.31880477288843
30
0
41
1
10
95.9191607500738
20
7.24216367123503
30
0
41
1
10
95.5303894769539
20
7.16286111862343
30
0
41
1
10
94.9473294224609
20
7.04001075750139
30
0
41
1
10
94.7529919925387
20
6.99841169039664
30
0
41
1
10
94.5100877462315
20
6.94560672022098
30
0
41
1
10
94.4615078137534
20
6.93500532753959
30
0
41
1
10
94.364348750366
20
6.91372400917669
30
0
41
1
10
94.3158339317652
20
6.9029003897158
30
0
41
1
10
94.1690587698627
20
6.87304541062821
30
0
41
1
10
94.0710806134604
20
6.8532930295886
30
0
41
1
10
93.1881165191016
20
6.67700029567422
30
0
41
1
10
92.3953330266708
20
6.53036499932222
30
0
41
1
10
91.2489006920304
20
6.33000874791006
30
0
41
1
10
90.8992958646527
20
6.27045081855351
30
0
41
1
10
90.5488629519294
20
6.2120944057713
30
0
0
SPLINE
5
185
100
AcDbEntity
8
1
62
256
6
ByLayer
370
18
48
1
60
0
100
AcDbSpline
70
4
71
3
72
8
73
4
40
0
40
0
40
0
40
0
40
1
40
1
40
1
40
1
41
1
10
114.985517678819
20
6.37880046525399
30
0
41
1
10
114.754607951241
20
7.08405664025315
30
0
41
1
10
114.520241080945
20
7.79294650048831
30
0
41
1
10
114.282309331657
20
8.50558329148598
30
0
0
SPLINE
5
186
100
AcDbEntity
8
1
62
256
6
ByLayer
370
18
48
1
60
0
100
AcDbSpline
70
4
71
3
72
30
73
26
40
0
40
0
40
0
40
0
40
0.0624999999999967
40
0.0624999999999967
40
0.124999999999993
40
0.124999999999993
40
0.249999999999987
40
0.249999999999987
40
0.312499999999984
40
0.312499999999984
40
0.374999999999981
40
0.374999999999981
40
0.437499999999977
40
0.437499999999977
40
0.499999999999974
40
0.499999999999974
40
0.62499999999998
40
0.62499999999998
40
0.749999999999985
40
0.749999999999985
40
0.812499999999988
40
0.812499999999988
40
0.874999999999991
40
0.874999999999991
40
1
40
1
40
1
40
1
41
1
10
93.4463746753515
20
-4.49810951361627
30
0
41
1
10
93.5574842724993
20
-4.51807500066144
30
0
41
1
10
93.6694926044538
20
-4.53262126197339
30
0
41
1
10
93.8952982161892
20
-4.55105699158733
30
0
41
1
10
94.0088031889204
20
-4.55486851804898
30
0
41
1
10
94.3459909681688
20
-4.55039907649146
30
0
41
1
10
94.5683069397803
20
-4.52664750223619
30
0
41
1
10
94.8979932784343
20
-4.4586023630221
30
0
41
1
10
95.0067546844755
20
-4.43048043854827
30
0
41
1
10
95.2176946011923
20
-4.36445756750393
30
0
41
1
10
95.3205165142716
20
-4.32643419359979
30
0
41
1
10
95.5208989090746
20
-4.24014112821755
30
0
41
1
10
95.6184597692536
20
-4.191872970106
30
0
41
1
10
95.8081528621597
20
-4.08441399777101
30
0
41
1
10
95.8994566596121
20
-4.02561767612735
30
0
41
1
10
96.1588547908086
20
-3.83652633339233
30
0
41
1
10
96.3143781459447
20
-3.69271540837391
30
0
41
1
10
96.5896614312736
20
-3.36570366907452
30
0
41
1
10
96.7043255880108
20
-3.18836024619415
30
0
41
1
10
96.8430201128241
20
-2.90266612452899
30
0
41
1
10
96.8837154106452
20
-2.80405743148344
30
0
41
1
10
96.9538659995727
20
-2.59975140747986
30
0
41
1
10
96.9826796273123
20
-2.49588884407712
30
0
41
1
10
97.0513088230223
20
-2.18026093301898
30
0
41
1
10
97.0736269044465
20
-1.96405481429218
30
0
41
1
10
97.0736269810477
20
-1.74198801955106
30
0
0
SPLINE
5
187
100
AcDbEntity
8
1
62
256
6
ByLayer
370
18
48
1
60
0
100
AcDbSpline
70
4
71
3
72
12
73
8
40
0
40
0
40
0
40
0
40
0.294080502258613
40
0.294080502258613
40
0.588161004517226
40
0.588161004517226
40
1
40
1
40
1
40
1
41
1
10
106.249495483867
20
-8.88260959781013
30
0
41
1
10
106.906723725325
20
-8.93170017853831
30
0
41
1
10
107.564652149127
20
-8.9652804510568
30
0
41
1
10
108.880218245999
20
-9.00192357483286
30
0
41
1
10
109.537668801944
20
-9.00491304505718
30
0
41
1
10
111.115888447379
20
-8.97495900332726
30
0
41
1
10
112.037340202868
20
-8.92744052576103
30
0
41
1
10
112.95834095963
20
-8.85000985203743
30
0
0
SPLINE
5
188
100
AcDbEntity
8
1
62
256
6
ByLayer
370
18
48
1
60
0
100
AcDbSpline
70
4
71
3
72
8
73
4
40
0
40
0
40
0
40
0
40
1
40
1
40
1
40
1
41
1
10
114.072295060749
20
-8.74174691210982
30
0
41
1
10
114.095175807492
20
-8.73922292778181
30
0
41
1
10
114.118055987231
20
-8.73668049234328
30
0
41
1
10
114.140935582195
20
-8.7341196078043
30
0
0
SPLINE
5
189
100
AcDbEntity
8
1
62
256
6
ByLayer
370
18
48
1
60
0
100
AcDbSpline
70
4
71
3
72
8
73
4
40
0
40
0
40
0
40
0
40
1
40
1
40
1
40
1
41
1
10
112.761081748271
20
-8.2157303594087
30
0
41
1
10
110.707387831645
20
-8.21575808215641
30
0
41
1
10
108.653693916248
20
-8.21580137036855
30
0
41
1
10
106.6
20
-8.21570242445657
30
0
0
SPLINE
5
18A
100
AcDbEntity
8
1
62
256
6
ByLayer
370
18
48
1
60
0
100
AcDbSpline
70
4
71
3
72
8
73
4
40
0
40
0
40
0
40
0
40
1
40
1
40
1
40
1
41
1
10
113.952697472392
20
8.844617961794
30
0
41
1
10
113.9850443513
20
8.83241701447997
30
0
41
1
10
114.024236217892
20
8.79979868036344
30
0
41
1
10
114.070234336425
20
8.74687850130945
30
0
0
SPLINE
5
18B
100
AcDbEntity
8
1
62
256
6
ByLayer
370
18
48
1
60
0
100
AcDbSpline
70
4
71
3
72
8
73
4
40
0
40
0
40
0
40
0
40
1
40
1
40
1
40
1
41
1
10
112.648732006444
20
0.522802904844468
30
0
41
1
10
112.590047314477
20
0.785563743878384
30
0
41
1
10
112.54324255673
20
1.04992384998144
30
0
41
1
10
112.504905217054
20
1.31542383300885
30
0
0
SPLINE
5
18C
100
AcDbEntity
8
1
62
256
6
ByLayer
370
18
48
1
60
0
100
AcDbSpline
70
4
71
3
72
12
73
8
40
0
40
0
40
0
40
0
40
0.5
40
0.5
40
0.75
40
0.75
40
1
40
1
40
1
40
1
41
1
10
16.0945603937815
20
-4.15678991750991
30
0
41
1
10
15.8624850666016
20
-4.12397209469032
30
0
41
1
10
15.6372967412239
20
-4.08813921690364
30
0
41
1
10
15.3101618382369
20
-4.02987552340861
30
0
41
1
10
15.2042311400616
20
-4.00991106916777
30
0
41
1
10
15.0014354932345
20
-3.96944803600744
30
0
41
1
10
14.9040659295592
20
-3.94885980036281
30
0
41
1
10
14.8106799955467
20
-3.92786263020687
30
0
0
SPLINE
5
18D
100
AcDbEntity
8
1
62
256
6
ByLayer
370
18
48
1
60
0
100
AcDbSpline
70
4
71
3
72
9
73
5
40
0
40
0
40
0
40
0
40
0.629248346354081
40
1
40
1
40
1
40
1
41
1
10
111.340670637344
20
1.16269740489255
30
0
41
1
10
110.542931598163
20
1.25274771419768
30
0
41
1
10
109.27516658328
20
1.39585545508712
30
0
41
1
10
108.008036712582
20
1.54444460173485
30
0
41
1
10
107.538281585347
20
1.59983950311164
30
0
0
SPLINE
5
18E
100
AcDbEntity
8
1
62
256
6
ByLayer
370
18
48
1
60
0
100
AcDbSpline
70
4
71
2
72
6
73
3
40
0
40
0
40
0
40
1
40
1
40
1
41
0.500000089745972
10
96.3080252801604
20
-7.31880477288843
30
0
41
0.499999910254028
10
96.3059017304024
20
-7.32296299706304
30
0
41
0.500000089745972
10
96.3037752752188
20
-7.3271106143661
30
0
0
SPLINE
5
18F
100
AcDbEntity
8
SK1
62
256
6
ByLayer
370
18
48
1
60
0
100
AcDbSpline
70
4
71
3
72
68
73
64
40
0
40
0
40
0
40
0
40
0.0312499999999982
40
0.0312499999999982
40
0.046874999999998
40
0.046874999999998
40
0.0624999999999977
40
0.0624999999999977
40
0.0937499999999984
40
0.0937499999999984
40
0.109374999999998
40
0.109374999999998
40
0.124999999999998
40
0.124999999999998
40
0.156249999999998
40
0.156249999999998
40
0.187499999999998
40
0.187499999999998
40
0.249999999999999
40
0.249999999999999
40
0.281249999999999
40
0.281249999999999
40
0.312499999999999
40
0.312499999999999
40
0.374999999999999
40
0.374999999999999
40
0.4375
40
0.4375
40
0.46875
40
0.46875
40
0.5
40
0.5
40
0.562500000000001
40
0.562500000000001
40
0.593750000000001
40
0.593750000000001
40
0.625000000000002
40
0.625000000000002
40
0.687500000000002
40
0.687500000000002
40
0.718750000000002
40
0.718750000000002
40
0.750000000000002
40
0.750000000000002
40
0.812500000000003
40
0.812500000000003
40
0.828125000000002
40
0.828125000000002
40
0.843750000000002
40
0.843750000000002
40
0.875000000000001
40
0.875000000000001
40
0.890625000000001
40
0.890625000000001
40
0.90625
40
0.90625
40
0.9375
40
0.9375
40
0.953125
40
0.953125
40
0.96875
40
0.96875
40
1
40
1
40
1
40
1
41
1
10
-6.49999999999997
20
-5.92285193129121
30
0
41
1
10
-6.33154885731426
20
-5.92285193129121
30
0
41
1
10
-6.16649999660115
20
-5.90852604500998
30
0
41
1
10
-5.92366326713301
20
-5.86686260898483
30
0
41
1
10
-5.84351218542494
20
-5.84958640234103
30
0
41
1
10
-5.68479121831058
20
-5.80819694942255
30
0
41
1
10
-5.60578401963124
20
-5.78390949286566
30
0
41
1
10
-5.3755130586502
20
-5.70210438657261
30
0
41
1
10
-5.23040150353978
20
-5.63576008503463
30
0
41
1
10
-5.02388324980436
20
-5.51973068369702
30
0
41
1
10
-4.95691280564995
20
-5.47828589310487
30
0
41
1
10
-4.82656726111881
20
-5.38990512469778
30
0
41
1
10
-4.76344028356681
20
-5.34310223508027
30
0
41
1
10
-4.58224967992157
20
-5.19718203491362
30
0
41
1
10
-4.4712463803283
20
-5.09185813583983
30
0
41
1
10
-4.26572109507714
20
-4.86653318538578
30
0
41
1
10
-4.17106100725223
20
-4.74628556066756
30
0
41
1
10
-3.90966183539743
20
-4.36608870861338
30
0
41
1
10
-3.77014210155204
20
-4.09476951345764
30
0
41
1
10
-3.59557537485898
20
-3.66576223197777
30
0
41
1
10
-3.5432995036517
20
-3.51904778819107
30
0
41
1
10
-3.44875657999086
20
-3.21863479224763
30
0
41
1
10
-3.40657854218807
20
-3.06504134305448
30
0
41
1
10
-3.29445638220415
20
-2.60174839854997
30
0
41
1
10
-3.23788522203446
20
-2.28706820500588
30
0
41
1
10
-3.15042654850248
20
-1.64741181110122
30
0
41
1
10
-3.11961625583052
20
-1.3224279248613
30
0
41
1
10
-3.08903905021938
20
-0.827525561443139
30
0
41
1
10
-3.08151487535059
20
-0.661401493425245
30
0
41
1
10
-3.07158509981957
20
-0.330650499762129
30
0
41
1
10
-3.06914530935046
20
-0.16552511220226
30
0
41
1
10
-3.06912617883177
20
0.329115176337979
30
0
41
1
10
-3.07870960481154
20
0.657899259477574
30
0
41
1
10
-3.10886367144548
20
1.14957645984728
30
0
41
1
10
-3.12157829085984
20
1.31321779556742
30
0
41
1
10
-3.15301382663836
20
1.63997635400699
30
0
41
1
10
-3.17179577364169
20
1.80342210057933
30
0
41
1
10
-3.23780365003569
20
2.28702529223114
30
0
41
1
10
-3.29461555444993
20
2.60220286550486
30
0
41
1
10
-3.40608209976551
20
3.06309107495616
30
0
41
1
10
-3.44765477000672
20
3.21473113100859
30
0
41
1
10
-3.54149844295813
20
3.51371523568545
30
0
41
1
10
-3.59395060131033
20
3.66152013709689
30
0
41
1
10
-3.76989582752731
20
4.0946551835724
30
0
41
1
10
-3.90997479382301
20
4.36619025332939
30
0
41
1
10
-4.12575070768349
20
4.68046987077338
30
0
41
1
10
-4.17097066502382
20
4.74205687033935
30
0
41
1
10
-4.26600396832356
20
4.86254130681425
30
0
41
1
10
-4.31584034796885
20
4.92142662494757
30
0
41
1
10
-4.47077510964746
20
5.09144820130692
30
0
41
1
10
-4.58188757681339
20
5.19679902870035
30
0
41
1
10
-4.76206916652859
20
5.34204312553621
30
0
41
1
10
-4.82438853365235
20
5.38832209237188
30
0
41
1
10
-4.95395839245683
20
5.4763842939077
30
0
41
1
10
-5.02155288993663
20
5.5183478507837
30
0
41
1
10
-5.22922143177559
20
5.63524112422331
30
0
41
1
10
-5.37427976784161
20
5.70150323577644
30
0
41
1
10
-5.60262391278792
20
5.78286634969527
30
0
41
1
10
-5.68053816211989
20
5.80696924836369
30
0
41
1
10
-5.84021859914242
20
5.84884069926673
30
0
41
1
10
-5.92144228459227
20
5.86643352567475
30
0
41
1
10
-6.1660744508427
20
5.90854767474224
30
0
41
1
10
-6.33170271013566
20
5.92285193129121
30
0
41
1
10
-6.49999999999997
20
5.92285193129121
30
0
0
SPLINE
5
190
100
AcDbEntity
8
SK1
62
256
6
ByLayer
370
18
48
1
60
0
100
AcDbSpline
70
4
71
3
72
68
73
64
40
0
40
0
40
0
40
0
40
0.0312500000000002
40
0.0312500000000002
40
0.0468750000000003
40
0.0468750000000003
40
0.0625000000000005
40
0.0625000000000005
40
0.0937500000000007
40
0.0937500000000007
40
0.109375000000001
40
0.109375000000001
40
0.125000000000001
40
0.125000000000001
40
0.156250000000001
40
0.156250000000001
40
0.187500000000001
40
0.187500000000001
40
0.25
40
0.25
40
0.28125
40
0.28125
40
0.3125
40
0.3125
40
0.375
40
0.375
40
0.4375
40
0.4375
40
0.46875
40
0.46875
40
0.5
40
0.5
40
0.5625
40
0.5625
40
0.59375
40
0.59375
40
0.625
40
0.625
40
0.6875
40
0.6875
40
0.71875
40
0.71875
40
0.75
40
0.75
40
0.8125
40
0.8125
40
0.828125
40
0.828125
40
0.84375
40
0.84375
40
0.875
40
0.875
40
0.890625
40
0.890625
40
0.90625
40
0.90625
40
0.9375
40
0.9375
40
0.953125
40
0.953125
40
0.96875
40
0.96875
40
1
40
1
40
1
40
1
41
1
10
-43.5
20
5.92285193129121
30
0
41
1
10
-43.6684511426857
20
5.92285193129121
30
0
41
1
10
-43.8335000033988
20
5.90852604500998
30
0
41
1
10
-44.076336732867
20
5.86686260898486
30
0
41
1
10
-44.156487814575
20
5.84958640234103
30
0
41
1
10
-44.3152087816894
20
5.80819694942255
30
0
41
1
10
-44.3942159803687
20
5.78390949286566
30
0
41
1
10
-44.6244869413498
20
5.70210438657261
30
0
41
1
10
-44.7695984964602
20
5.63576008503463
30
0
41
1
10
-44.9761167501956
20
5.51973068369705
30
0
41
1
10
-45.04308719435
20
5.47828589310487
30
0
41
1
10
-45.1734327388812
20
5.38990512469778
30
0
41
1
10
-45.2365597164332
20
5.34310223508027
30
0
41
1
10
-45.4177503200784
20
5.19718203491362
30
0
41
1
10
-45.5287536196717
20
5.09185813583983
30
0
41
1
10
-45.7342789049228
20
4.86653318538578
30
0
41
1
10
-45.8289389927477
20
4.74628556066759
30
0
41
1
10
-46.0903381646025
20
4.36608870861338
30
0
41
1
10
-46.2298578984479
20
4.09476951345764
30
0
41
1
10
-46.404424625141
20
3.66576223197777
30
0
41
1
10
-46.4567004963483
20
3.51904778819107
30
0
41
1
10
-46.5512434200091
20
3.21863479224763
30
0
41
1
10
-46.5934214578119
20
3.06504134305448
30
0
41
1
10
-46.7055436177958
20
2.60174839855
30
0
41
1
10
-46.7621147779655
20
2.28706820500588
30
0
41
1
10
-46.8495734514975
20
1.64741181110122
30
0
41
1
10
-46.8803837441695
20
1.3224279248613
30
0
41
1
10
-46.9109609497806
20
0.827525561443139
30
0
41
1
10
-46.9184851246494
20
0.661401493425245
30
0
41
1
10
-46.9284149001804
20
0.330650499762129
30
0
41
1
10
-46.9308546906495
20
0.16552511220226
30
0
41
1
10
-46.9308738211682
20
-0.329115176337979
30
0
41
1
10
-46.9212903951884
20
-0.657899259477574
30
0
41
1
10
-46.8911363285545
20
-1.14957645984728
30
0
41
1
10
-46.8784217091401
20
-1.31321779556742
30
0
41
1
10
-46.8469861733616
20
-1.63997635400699
30
0
41
1
10
-46.8282042263583
20
-1.80342210057933
30
0
41
1
10
-46.7621963499643
20
-2.28702529223114
30
0
41
1
10
-46.70538444555
20
-2.60220286550486
30
0
41
1
10
-46.5939179002344
20
-3.06309107495616
30
0
41
1
10
-46.5523452299933
20
-3.21473113100859
30
0
41
1
10
-46.4585015570418
20
-3.51371523568545
30
0
41
1
10
-46.4060493986897
20
-3.66152013709689
30
0
41
1
10
-46.2301041724726
20
-4.0946551835724
30
0
41
1
10
-46.090025206177
20
-4.36619025332939
30
0
41
1
10
-45.8742492923165
20
-4.68046987077341
30
0
41
1
10
-45.8290293349762
20
-4.74205687033935
30
0
41
1
10
-45.7339960316764
20
-4.86254130681425
30
0
41
1
10
-45.6841596520312
20
-4.92142662494757
30
0
41
1
10
-45.5292248903525
20
-5.09144820130692
30
0
41
1
10
-45.4181124231866
20
-5.19679902870035
30
0
41
1
10
-45.2379308334714
20
-5.34204312553621
30
0
41
1
10
-45.1756114663476
20
-5.38832209237188
30
0
41
1
10
-45.0460416075432
20
-5.4763842939077
30
0
41
1
10
-44.9784471100634
20
-5.5183478507837
30
0
41
1
10
-44.7707785682244
20
-5.63524112422331
30
0
41
1
10
-44.6257202321584
20
-5.70150323577644
30
0
41
1
10
-44.397376087212
20
-5.78286634969527
30
0
41
1
10
-44.3194618378801
20
-5.80696924836371
30
0
41
1
10
-44.1597814008576
20
-5.84884069926673
30
0
41
1
10
-44.0785577154077
20
-5.86643352567475
30
0
41
1
10
-43.8339255491573
20
-5.90854767474224
30
0
41
1
10
-43.6682972898643
20
-5.92285193129121
30
0
41
1
10
-43.5
20
-5.92285193129121
30
0
0
LINE
5
70
100
AcDbEntity
8
81
62
256
6
ByLayer
370
18
48
1
60
0
100
AcDbLine
10
105.7
20
0
30
0
11
110.7
21
0
31
0
39
0
210
0
220
0
230
1
0
LINE
5
71
100
AcDbEntity
8
1
62
256
6
ByLayer
370
18
48
1
60
0
100
AcDbLine
10
5.0007
20
12.5
30
0
11
0.2
21
12.5
31
0
39
0
210
0
220
0
230
1
0
LINE
5
73
100
AcDbEntity
8
1
62
256
6
ByLayer
370
18
48
1
60
0
100
AcDbLine
10
0.2
20
-12.5
30
0
11
5.0007
21
-12.5
31
0
39
0
210
0
220
0
230
1
0
LINE
5
74
100
AcDbEntity
8
1
62
256
6
ByLayer
370
18
48
1
60
0
100
AcDbLine
10
0.2
20
12.5
30
0
11
0
21
12.3
31
0
39
0
210
0
220
0
230
1
0
LINE
5
75
100
AcDbEntity
8
1
62
256
6
ByLayer
370
18
48
1
60
0
100
AcDbLine
10
0
20
-12.3
30
0
11
0.2
21
-12.5
31
0
39
0
210
0
220
0
230
1
0
LINE
5
76
100
AcDbEntity
8
SK1
62
256
6
ByLayer
370
18
48
1
60
0
100
AcDbLine
10
-49
20
9.99675
30
0
11
-50
21
8.99675
31
0
39
0
210
0
220
0
230
1
0
LINE
5
78
100
AcDbEntity
8
SK1
62
256
6
ByLayer
370
18
48
1
60
0
100
AcDbLine
10
-50
20
-8.99675
30
0
11
-49
21
-9.99675
31
0
39
0
210
0
220
0
230
1
0
LINE
5
79
100
AcDbEntity
8
SK1
62
256
6
ByLayer
370
18
48
1
60
0
100
AcDbLine
10
-1.6
20
-9.99675
30
0
11
-1.144243
21
-9.784227
31
0
39
0
210
0
220
0
230
1
0
LINE
5
7A
100
AcDbEntity
8
SK1
62
256
6
ByLayer
370
18
48
1
60
0
100
AcDbLine
10
-1.144243
20
9.784227
30
0
11
-1.6
21
9.99675
31
0
39
0
210
0
220
0
230
1
0
LINE
5
7B
100
AcDbEntity
8
SK1
62
256
6
ByLayer
370
18
48
1
60
0
100
AcDbLine
10
-1.6
20
9.99675
30
0
11
-47.3
21
9.99675
31
0
39
0
210
0
220
0
230
1
0
LINE
5
7C
100
AcDbEntity
8
SK1
62
256
6
ByLayer
370
18
48
1
60
0
100
AcDbLine
10
-47.3
20
-9.99675
30
0
11
-1.6
21
-9.99675
31
0
39
0
210
0
220
0
230
1
0
LINE
5
7D
100
AcDbEntity
8
SK1
62
256
6
ByLayer
370
18
48
1
60
0
100
AcDbLine
10
-48.6
20
9.99675
30
0
11
-49
21
9.99675
31
0
39
0
210
0
220
0
230
1
0
LINE
5
7E
100
AcDbEntity
8
SK1
62
256
6
ByLayer
370
18
48
1
60
0
100
AcDbLine
10
-49
20
-9.99675
30
0
11
-48.6
21
-9.99675
31
0
39
0
210
0
220
0
230
1
0
LINE
5
7F
100
AcDbEntity
8
SK1
62
256
6
ByLayer
370
18
48
1
60
0
100
AcDbLine
10
-48.6
20
-9.99675
30
0
11
-48.449692
21
-9.875033
31
0
39
0
210
0
220
0
230
1
0
LINE
5
80
100
AcDbEntity
8
SK1
62
256
6
ByLayer
370
18
48
1
60
0
100
AcDbLine
10
-48.449692
20
9.875033
30
0
11
-48.6
21
9.99675
31
0
39
0
210
0
220
0
230
1
0
LINE
5
81
100
AcDbEntity
8
SK1
62
256
6
ByLayer
370
18
48
1
60
0
100
AcDbLine
10
-47.3
20
9.99675
30
0
11
-47.426311
21
9.888738
31
0
39
0
210
0
220
0
230
1
0
LINE
5
82
100
AcDbEntity
8
SK1
62
256
6
ByLayer
370
18
48
1
60
0
100
AcDbLine
10
-47.426311
20
-9.888738
30
0
11
-47.3
21
-9.99675
31
0
39
0
210
0
220
0
230
1
0
LINE
5
83
100
AcDbEntity
8
SK1
62
256
6
ByLayer
370
18
48
1
60
0
100
AcDbLine
10
-0.975195
20
-9.74675
30
0
11
-0.15
21
-9.74675
31
0
39
0
210
0
220
0
230
1
0
LINE
5
84
100
AcDbEntity
8
SK1
62
256
6
ByLayer
370
18
48
1
60
0
100
AcDbLine
10
-0.15
20
9.74675
30
0
11
-0.975195
21
9.74675
31
0
39
0
210
0
220
0
230
1
0
LINE
5
85
100
AcDbEntity
8
1
62
256
6
ByLayer
370
18
48
1
60
0
100
AcDbLine
10
13.727178
20
-9.299409
30
0
11
13.818932
21
-9.259645
31
0
39
0
210
0
220
0
230
1
0
LINE
5
86
100
AcDbEntity
8
1
62
256
6
ByLayer
370
18
48
1
60
0
100
AcDbLine
10
13.818932
20
9.259645
30
0
11
13.727178
21
9.299409
31
0
39
0
210
0
220
0
230
1
0
LINE
5
87
100
AcDbEntity
8
1
62
256
6
ByLayer
370
18
48
1
60
0
100
AcDbLine
10
109.398068
20
9
30
0
11
107.801216
21
9
31
0
39
0
210
0
220
0
230
1
0
LINE
5
88
100
AcDbEntity
8
1
62
256
6
ByLayer
370
18
48
1
60
0
100
AcDbLine
10
107.801216
20
-9
30
0
11
109.398068
21
-9
31
0
39
0
210
0
220
0
230
1
0
LINE
5
89
100
AcDbEntity
8
1
62
256
6
ByLayer
370
18
48
1
60
0
100
AcDbLine
10
20.994
20
8.8
30
0
11
18.8
21
8.8
31
0
39
0
210
0
220
0
230
1
0
LINE
5
8A
100
AcDbEntity
8
1
62
256
6
ByLayer
370
18
48
1
60
0
100
AcDbLine
10
17
20
-8.6
30
0
11
18.8
21
-8.8
31
0
39
0
210
0
220
0
230
1
0
LINE
5
8B
100
AcDbEntity
8
1
62
256
6
ByLayer
370
18
48
1
60
0
100
AcDbLine
10
18.8
20
-8.8
30
0
11
20.994
21
-8.8
31
0
39
0
210
0
220
0
230
1
0
LINE
5
8C
100
AcDbEntity
8
1
62
256
6
ByLayer
370
18
48
1
60
0
100
AcDbLine
10
18.8
20
8.8
30
0
11
17
21
8.6
31
0
39
0
210
0
220
0
230
1
0
LINE
5
8D
100
AcDbEntity
8
80
62
256
6
ByLayer
370
18
48
1
60
0
100
AcDbLine
10
0
20
0
30
0
11
-5
21
0
31
0
39
0
210
0
220
0
230
1
0
LINE
5
8E
100
AcDbEntity
8
4
62
256
6
ByLayer
370
18
48
0.05
60
0
100
AcDbLine
10
105.7
20
0
30
0
11
0
21
0
31
0
39
0
210
0
220
0
230
1
0
LINE
5
90
100
AcDbEntity
8
SK4
62
256
6
ByLayer
370
18
48
0.05
60
0
100
AcDbLine
10
122
20
0
30
0
11
-55
21
0
31
0
39
0
210
0
220
0
230
1
0
LINE
5
92
100
AcDbEntity
8
1
62
256
6
ByLayer
370
13
48
1
60
0
100
AcDbLine
10
114.417055
20
3.102249
30
0
11
114.414998
21
3.111551
31
0
39
0
210
0
220
0
230
1
0
LINE
5
93
100
AcDbEntity
8
1
62
256
6
ByLayer
370
18
48
1
60
0
100
AcDbLine
10
116.984116
20
0.069784
30
0
11
117
21
0
31
0
39
0
210
0
220
0
230
1
0
LINE
5
94
100
AcDbEntity
8
1
62
256
6
ByLayer
370
18
48
1
60
0
100
AcDbLine
10
105.7
20
-8.74908
30
0
11
105.7
21
-8.500147
31
0
39
0
210
0
220
0
230
1
0
LINE
5
95
100
AcDbEntity
8
1
62
256
6
ByLayer
370
18
48
1
60
0
100
AcDbLine
10
112.365798
20
-2.421407
30
0
11
112.365647
21
-2.4198
31
0
39
0
210
0
220
0
230
1
0
LINE
5
96
100
AcDbEntity
8
1
62
256
6
ByLayer
370
18
48
1
60
0
100
AcDbLine
10
116.924994
20
0.276511
30
0
11
116.789759
21
0.848067
31
0
39
0
210
0
220
0
230
1
0
LINE
5
97
100
AcDbEntity
8
1
62
256
6
ByLayer
370
13
48
1
60
0
100
AcDbLine
10
110.785667
20
-2.468594
30
0
11
109.850833
21
-2.42853
31
0
39
0
210
0
220
0
230
1
0
LINE
5
98
100
AcDbEntity
8
1
62
256
6
ByLayer
370
13
48
1
60
0
100
AcDbLine
10
13.727178
20
-3.775754
30
0
11
13.727178
21
-9.299409
31
0
39
0
210
0
220
0
230
1
0
LINE
5
99
100
AcDbEntity
8
1
62
256
6
ByLayer
370
18
48
1
60
0
100
AcDbLine
10
20.994
20
-8.8
30
0
11
20.994
21
-5.744236
31
0
39
0
210
0
220
0
230
1
0
LINE
5
9A
100
AcDbEntity
8
1
62
256
6
ByLayer
370
13
48
1
60
0
100
AcDbLine
10
13.818932
20
-3.800023
30
0
11
13.818932
21
-9.259645
31
0
39
0
210
0
220
0
230
1
0
LINE
5
9B
100
AcDbEntity
8
1
62
256
6
ByLayer
370
18
48
1
60
0
100
AcDbLine
10
114.17576
20
-4.340118
30
0
11
115.816423
21
-2.494924
31
0
39
0
210
0
220
0
230
1
0
LINE
5
9C
100
AcDbEntity
8
1
62
256
6
ByLayer
370
18
48
1
60
0
100
AcDbLine
10
0.2
20
0
30
0
11
0.2
21
-12.5
31
0
39
0
210
0
220
0
230
1
0
LINE
5
9D
100
AcDbEntity
8
1
62
256
6
ByLayer
370
18
48
1
60
0
100
AcDbLine
10
0.2
20
12.5
30
0
11
0.2
21
0
31
0
39
0
210
0
220
0
230
1
0
LINE
5
9E
100
AcDbEntity
8
1
62
256
6
ByLayer
370
13
48
1
60
0
100
AcDbLine
10
115.816423
20
-2.494924
30
0
11
114.688909
21
-1.722792
31
0
39
0
210
0
220
0
230
1
0
LINE
5
9F
100
AcDbEntity
8
1
62
256
6
ByLayer
370
18
48
1
60
0
100
AcDbLine
10
17
20
8.6
30
0
11
17
21
6.453603
31
0
39
0
210
0
220
0
230
1
0
LINE
5
A0
100
AcDbEntity
8
1
62
256
6
ByLayer
370
18
48
1
60
0
100
AcDbLine
10
105.7
20
-8.333067
30
0
11
105.7
21
-8.365279
31
0
39
0
210
0
220
0
230
1
0
LINE
5
A1
100
AcDbEntity
8
1
62
256
6
ByLayer
370
18
48
1
60
0
100
AcDbLine
10
116.124158
20
-3.074126
30
0
11
116.036621
21
-3.334623
31
0
39
0
210
0
220
0
230
1
0
LINE
5
A2
100
AcDbEntity
8
1
62
256
6
ByLayer
370
13
48
1
60
0
100
AcDbLine
10
5.0007
20
0
30
0
11
5.0007
21
-12.5
31
0
39
0
210
0
220
0
230
1
0
LINE
5
A3
100
AcDbEntity
8
1
62
256
6
ByLayer
370
13
48
1
60
0
100
AcDbLine
10
5.0007
20
12.5
30
0
11
5.0007
21
0
31
0
39
0
210
0
220
0
230
1
0
LINE
5
A4
100
AcDbEntity
8
1
62
256
6
ByLayer
370
18
48
1
60
0
100
AcDbLine
10
18.8
20
-8.8
30
0
11
18.8
21
-5.401514
31
0
39
0
210
0
220
0
230
1
0
LINE
5
A5
100
AcDbEntity
8
1
62
256
6
ByLayer
370
18
48
1
60
0
100
AcDbLine
10
17
20
-8.6
30
0
11
17
21
-4.901909
31
0
39
0
210
0
220
0
230
1
0
LINE
5
A6
100
AcDbEntity
8
1
62
256
6
ByLayer
370
18
48
1
60
0
100
AcDbLine
10
97.073627
20
-2.030772
30
0
11
97.073627
21
4.842583
31
0
39
0
210
0
220
0
230
1
0
LINE
5
A7
100
AcDbEntity
8
1
62
256
6
ByLayer
370
13
48
1
60
0
100
AcDbLine
10
13.727178
20
9.299409
30
0
11
13.727178
21
6.169667
31
0
39
0
210
0
220
0
230
1
0
LINE
5
A8
100
AcDbEntity
8
1
62
256
6
ByLayer
370
18
48
1
60
0
100
AcDbLine
10
116.124158
20
3.074126
30
0
11
116.036621
21
3.334623
31
0
39
0
210
0
220
0
230
1
0
LINE
5
A9
100
AcDbEntity
8
1
62
256
6
ByLayer
370
13
48
1
60
0
100
AcDbLine
10
116.008964
20
0.903816
30
0
11
116.789759
21
0.848067
31
0
39
0
210
0
220
0
230
1
0
LINE
5
AA
100
AcDbEntity
8
1
62
256
6
ByLayer
370
18
48
1
60
0
100
AcDbLine
10
0
20
12.3
30
0
11
0
21
-12.3
31
0
39
0
210
0
220
0
230
1
0
LINE
5
AB
100
AcDbEntity
8
1
62
256
6
ByLayer
370
18
48
1
60
0
100
AcDbLine
10
117
20
0
30
0
11
116.984116
21
-0.069784
31
0
39
0
210
0
220
0
230
1
0
LINE
5
AC
100
AcDbEntity
8
1
62
256
6
ByLayer
370
18
48
1
60
0
100
AcDbLine
10
110.56875
20
-2.561885
30
0
11
110.785667
21
-2.468594
31
0
39
0
210
0
220
0
230
1
0
LINE
5
AD
100
AcDbEntity
8
1
62
256
6
ByLayer
370
18
48
1
60
0
100
AcDbLine
10
106.249495
20
-8.88261
30
0
11
106.249495
21
-8.971486
31
0
39
0
210
0
220
0
230
1
0
LINE
5
AE
100
AcDbEntity
8
1
62
256
6
ByLayer
370
18
48
1
60
0
100
AcDbLine
10
112.761082
20
-8.21573
30
0
11
114.132071
21
-4.389212
31
0
39
0
210
0
220
0
230
1
0
LINE
5
AF
100
AcDbEntity
8
1
62
256
6
ByLayer
370
18
48
1
60
0
100
AcDbLine
10
116.924994
20
-0.276511
30
0
11
116.789759
21
-0.848067
31
0
39
0
210
0
220
0
230
1
0
LINE
5
B0
100
AcDbEntity
8
1
62
256
6
ByLayer
370
18
48
1
60
0
100
AcDbLine
10
105.67
20
2.234429
30
0
11
105.67
21
2.331257
31
0
39
0
210
0
220
0
230
1
0
LINE
5
B1
100
AcDbEntity
8
1
62
256
6
ByLayer
370
18
48
1
60
0
100
AcDbLine
10
116.898094
20
-0.295776
30
0
11
117
21
0
31
0
39
0
210
0
220
0
230
1
0
LINE
5
B2
100
AcDbEntity
8
1
62
256
6
ByLayer
370
18
48
1
60
0
100
AcDbLine
10
106.781485
20
-8.119403
30
0
11
111.800362
21
-8.119403
31
0
39
0
210
0
220
0
230
1
0
LINE
5
B3
100
AcDbEntity
8
1
62
256
6
ByLayer
370
18
48
1
60
0
100
AcDbLine
10
113.952697
20
-8.844618
30
0
11
116.547682
21
-1.312827
31
0
39
0
210
0
220
0
230
1
0
LINE
5
B4
100
AcDbEntity
8
1
62
256
6
ByLayer
370
13
48
1
60
0
100
AcDbLine
10
115.961212
20
0.863632
30
0
11
116.949381
21
0.186925
31
0
39
0
210
0
220
0
230
1
0
LINE
5
B5
100
AcDbEntity
8
1
62
256
6
ByLayer
370
18
48
1
60
0
100
AcDbLine
10
112.365798
20
-7.623616
30
0
11
112.365798
21
-2.421407
31
0
39
0
210
0
220
0
230
1
0
LINE
5
B6
100
AcDbEntity
8
1
62
256
6
ByLayer
370
18
48
1
60
0
100
AcDbLine
10
110.85664
20
-2.4198
30
0
11
112.365647
21
-2.4198
31
0
39
0
210
0
220
0
230
1
0
LINE
5
B7
100
AcDbEntity
8
1
62
256
6
ByLayer
370
18
48
1
60
0
100
AcDbLine
10
106.6
20
-8.215702
30
0
11
106.6
21
-8.1056
31
0
39
0
210
0
220
0
230
1
0
LINE
5
B8
100
AcDbEntity
8
1
62
256
6
ByLayer
370
18
48
1
60
0
100
AcDbLine
10
106.6
20
1.92668
30
0
11
106.6
21
2.011534
31
0
39
0
210
0
220
0
230
1
0
LINE
5
B9
100
AcDbEntity
8
1
62
256
6
ByLayer
370
18
48
1
60
0
100
AcDbLine
10
111.698883
20
-6.956701
30
0
11
112.365798
21
-7.623616
31
0
39
0
210
0
220
0
230
1
0
LINE
5
BA
100
AcDbEntity
8
1
62
256
6
ByLayer
370
18
48
1
60
0
100
AcDbLine
10
112.365647
20
-2.4198
30
0
11
111.345588
21
1.157524
31
0
39
0
210
0
220
0
230
1
0
LINE
5
BB
100
AcDbEntity
8
1
62
256
6
ByLayer
370
13
48
1
60
0
100
AcDbLine
10
114.388132
20
3.100343
30
0
11
114.389098
21
3.095972
31
0
39
0
210
0
220
0
230
1
0
LINE
5
BC
100
AcDbEntity
8
1
62
256
6
ByLayer
370
18
48
1
60
0
100
AcDbLine
10
111.807235
20
-8.11643
30
0
11
112.362286
21
-7.630119
31
0
39
0
210
0
220
0
230
1
0
LINE
5
BD
100
AcDbEntity
8
1
62
256
6
ByLayer
370
13
48
1
60
0
100
AcDbLine
10
105.5
20
2.9
30
0
11
105.706275
21
2.9
31
0
39
0
210
0
220
0
230
1
0
LINE
5
BE
100
AcDbEntity
8
1
62
256
6
ByLayer
370
18
48
1
60
0
100
AcDbLine
10
112.362286
20
-7.630119
30
0
11
112.365798
21
-7.623616
31
0
39
0
210
0
220
0
230
1
0
LINE
5
BF
100
AcDbEntity
8
1
62
256
6
ByLayer
370
13
48
1
60
0
100
AcDbLine
10
13.818932
20
9.259645
30
0
11
13.818932
21
6.176339
31
0
39
0
210
0
220
0
230
1
0
LINE
5
C0
100
AcDbEntity
8
1
62
256
6
ByLayer
370
18
48
1
60
0
100
AcDbLine
10
105.7
20
-8.365279
30
0
11
105.7
21
-8.470124
31
0
39
0
210
0
220
0
230
1
0
LINE
5
C1
100
AcDbEntity
8
1
62
256
6
ByLayer
370
18
48
1
60
0
100
AcDbLine
10
20.994
20
8.8
30
0
11
20.994
21
8.593887
31
0
39
0
210
0
220
0
230
1
0
LINE
5
C2
100
AcDbEntity
8
1
62
256
6
ByLayer
370
13
48
1
60
0
100
AcDbLine
10
109.606859
20
-2.572961
30
0
11
109.850833
21
-2.42853
31
0
39
0
210
0
220
0
230
1
0
LINE
5
C3
100
AcDbEntity
8
1
62
256
6
ByLayer
370
18
48
1
60
0
100
AcDbLine
10
18.8
20
8.8
30
0
11
18.8
21
6.546546
31
0
39
0
210
0
220
0
230
1
0
LINE
5
C4
100
AcDbEntity
8
1
62
256
6
ByLayer
370
13
48
1
60
0
100
AcDbLine
10
114.17576
20
-4.340118
30
0
11
114.688909
21
-1.722792
31
0
39
0
210
0
220
0
230
1
0
LINE
5
C5
100
AcDbEntity
8
1
62
256
6
ByLayer
370
18
48
1
60
0
100
AcDbLine
10
110.017191
20
0.034186
30
0
11
109.767858
21
-0.088124
31
0
39
0
210
0
220
0
230
1
0
LINE
5
C6
100
AcDbEntity
8
1
62
256
6
ByLayer
370
18
48
1
60
0
100
AcDbLine
10
105.7
20
-8.500147
30
0
11
105.7
21
-8.470124
31
0
39
0
210
0
220
0
230
1
0
LINE
5
C7
100
AcDbEntity
8
1
62
256
6
ByLayer
370
13
48
1
60
0
100
AcDbLine
10
105.7
20
-8.500147
30
0
11
105.837318
21
-8.548424
31
0
39
0
210
0
220
0
230
1
0
LINE
5
C8
100
AcDbEntity
8
1
62
256
6
ByLayer
370
18
48
1
60
0
100
AcDbLine
10
111.800362
20
-8.119403
30
0
11
111.807235
21
-8.11643
31
0
39
0
210
0
220
0
230
1
0
LINE
5
C9
100
AcDbEntity
8
1
62
256
6
ByLayer
370
18
48
1
60
0
100
AcDbLine
10
105.7
20
2.475877
30
0
11
105.7
21
2.45
31
0
39
0
210
0
220
0
230
1
0
LINE
5
CA
100
AcDbEntity
8
1
62
256
6
ByLayer
370
13
48
1
60
0
100
AcDbLine
10
114.417726
20
3.099199
30
0
11
116.124158
21
3.074126
31
0
39
0
210
0
220
0
230
1
0
LINE
5
CB
100
AcDbEntity
8
1
62
256
6
ByLayer
370
13
48
1
60
0
100
AcDbLine
10
116.924994
20
0.276511
30
0
11
116.008964
21
0.903816
31
0
39
0
210
0
220
0
230
1
0
LINE
5
CC
100
AcDbEntity
8
1
62
256
6
ByLayer
370
18
48
1
60
0
100
AcDbLine
10
105.6
20
-8.679898
30
0
11
105.6
21
-8.428849
31
0
39
0
210
0
220
0
230
1
0
LINE
5
CD
100
AcDbEntity
8
SK1
62
256
6
ByLayer
370
18
48
1
60
0
100
AcDbLine
10
-6.5
20
5.922852
30
0
11
-43.5
21
5.922852
31
0
39
0
210
0
220
0
230
1
0
LINE
5
CE
100
AcDbEntity
8
SK1
62
256
6
ByLayer
370
18
48
1
60
0
100
AcDbLine
10
-49
20
0
30
0
11
-49
21
-9.99675
31
0
39
0
210
0
220
0
230
1
0
LINE
5
CF
100
AcDbEntity
8
SK1
62
256
6
ByLayer
370
18
48
1
60
0
100
AcDbLine
10
-49
20
9.99675
30
0
11
-49
21
0
31
0
39
0
210
0
220
0
230
1
0
LINE
5
D0
100
AcDbEntity
8
SK1
62
256
6
ByLayer
370
18
48
1
60
0
100
AcDbLine
10
-43.5
20
-5.922852
30
0
11
-6.5
21
-5.922852
31
0
39
0
210
0
220
0
230
1
0
LINE
5
D1
100
AcDbEntity
8
SK1
62
256
6
ByLayer
370
13
48
1
60
0
100
AcDbLine
10
-47.426311
20
-9.888738
30
0
11
-47.426311
21
0
31
0
39
0
210
0
220
0
230
1
0
LINE
5
D2
100
AcDbEntity
8
SK1
62
256
6
ByLayer
370
13
48
1
60
0
100
AcDbLine
10
-47.426311
20
0
30
0
11
-47.426311
21
9.888738
31
0
39
0
210
0
220
0
230
1
0
LINE
5
D3
100
AcDbEntity
8
SK1
62
256
6
ByLayer
370
13
48
1
60
0
100
AcDbLine
10
-48.449692
20
-9.875033
30
0
11
-48.449692
21
0
31
0
39
0
210
0
220
0
230
1
0
LINE
5
D4
100
AcDbEntity
8
SK1
62
256
6
ByLayer
370
13
48
1
60
0
100
AcDbLine
10
-48.449692
20
0
30
0
11
-48.449692
21
9.875033
31
0
39
0
210
0
220
0
230
1
0
LINE
5
D5
100
AcDbEntity
8
SK1
62
256
6
ByLayer
370
13
48
1
60
0
100
AcDbLine
10
-6.5
20
-5.922852
30
0
11
-6.5
21
5.922852
31
0
39
0
210
0
220
0
230
1
0
LINE
5
D6
100
AcDbEntity
8
SK1
62
256
6
ByLayer
370
18
48
1
60
0
100
AcDbLine
10
-50
20
0
30
0
11
-50
21
-8.99675
31
0
39
0
210
0
220
0
230
1
0
LINE
5
D7
100
AcDbEntity
8
SK1
62
256
6
ByLayer
370
18
48
1
60
0
100
AcDbLine
10
-50
20
8.99675
30
0
11
-50
21
0
31
0
39
0
210
0
220
0
230
1
0
LINE
5
D8
100
AcDbEntity
8
SK1
62
256
6
ByLayer
370
13
48
1
60
0
100
AcDbLine
10
-0.15
20
0
30
0
11
-0.15
21
-9.74675
31
0
39
0
210
0
220
0
230
1
0
LINE
5
D9
100
AcDbEntity
8
SK1
62
256
6
ByLayer
370
13
48
1
60
0
100
AcDbLine
10
-0.15
20
9.74675
30
0
11
-0.15
21
0
31
0
39
0
210
0
220
0
230
1
0
LINE
5
DA
100
AcDbEntity
8
SK1
62
256
6
ByLayer
370
18
48
1
60
0
100
AcDbLine
10
-47.3
20
0
30
0
11
-47.3
21
-9.99675
31
0
39
0
210
0
220
0
230
1
0
LINE
5
DB
100
AcDbEntity
8
SK1
62
256
6
ByLayer
370
18
48
1
60
0
100
AcDbLine
10
-47.3
20
9.99675
30
0
11
-47.3
21
0
31
0
39
0
210
0
220
0
230
1
0
LINE
5
DC
100
AcDbEntity
8
SK1
62
256
6
ByLayer
370
13
48
1
60
0
100
AcDbLine
10
-0.975195
20
9.74675
30
0
11
-0.975195
21
-9.74675
31
0
39
0
210
0
220
0
230
1
0
LINE
5
DD
100
AcDbEntity
8
SK1
62
256
6
ByLayer
370
18
48
1
60
0
100
AcDbLine
10
-1.6
20
-9.99675
30
0
11
-1.6
21
0
31
0
39
0
210
0
220
0
230
1
0
LINE
5
DE
100
AcDbEntity
8
SK1
62
256
6
ByLayer
370
18
48
1
60
0
100
AcDbLine
10
-1.6
20
0
30
0
11
-1.6
21
9.99675
31
0
39
0
210
0
220
0
230
1
0
LINE
5
DF
100
AcDbEntity
8
SK1
62
256
6
ByLayer
370
13
48
1
60
0
100
AcDbLine
10
-1.144243
20
0
30
0
11
-1.144243
21
-9.784227
31
0
39
0
210
0
220
0
230
1
0
LINE
5
E0
100
AcDbEntity
8
SK1
62
256
6
ByLayer
370
13
48
1
60
0
100
AcDbLine
10
-1.144243
20
9.784227
30
0
11
-1.144243
21
0
31
0
39
0
210
0
220
0
230
1
0
LINE
5
E1
100
AcDbEntity
8
SK1
62
256
6
ByLayer
370
13
48
1
60
0
100
AcDbLine
10
-43.5
20
5.922852
30
0
11
-43.5
21
-5.922852
31
0
39
0
210
0
220
0
230
1
0
LINE
5
E2
100
AcDbEntity
8
SK1
62
256
6
ByLayer
370
18
48
1
60
0
100
AcDbLine
10
-48.6
20
-9.99675
30
0
11
-48.6
21
9.99675
31
0
39
0
210
0
220
0
230
1
0
MTEXT
5
191
100
AcDbEntity
8
SK6
62
256
6
ByLayer
370
13
48
1
60
0
100
AcDbMText
10
14.851137
20
31.375134
30
0
210
0
220
0
230
1
1
\W0.7057;870-1800-18L20-5
40
3.5
41
0
44
1.084337
50
0
71
7
72
5
7
iso_b_vert
0
DIMENSION
5
19F
100
AcDbEntity
8
2
62
256
6
ByLayer
370
13
48
1
60
0
100
AcDbDimension
2
DimnDraft3D1
10
17
20
-22
30
0
11
67
21
-22
31
0
70
32
71
5
72
1
41
1
210
0
220
0
230
1
3
Standard
100
AcDbAlignedDimension
13
117
23
-1.5875
33
0
14
17
24
-10.5875
34
0
50
0
100
AcDbRotatedDimension
1001
ACAD
1000
DSTYLE
1002
{
1070
   279
1070
     0
1070
   172
1070
     1
1070
   173
1070
     1
1070
   340
1005
192
1070
   271
1070
     1
1070
   272
1070
     2
1070
    77
1070
     1
1070
    73
1070
     0
1070
   171
1070
     3
1070
   274
1070
     4
1070
   177
1070
     7
1070
   176
1070
     7
1070
   178
1070
     7
1070
    48
1040
-0.005
1070
    41
1041
3.5
1070
   147
1041
1.5
1070
    42
1041
1.5875
1070
    44
1041
2.0
1070
   140
1041
3.0
1070
   343
1005
0
1070
   344
1005
0
1002
}
0
DIMENSION
5
1A9
100
AcDbEntity
8
2
62
256
6
ByLayer
370
13
48
1
60
0
100
AcDbDimension
2
DimnDraft3D2
10
19.144
20
16
30
0
11
68.072
21
16
31
0
70
32
71
5
72
1
41
1
210
0
220
0
230
1
3
Standard
100
AcDbAlignedDimension
13
117
23
1.5875
33
0
14
19.144
24
10.5875
34
0
50
0
100
AcDbRotatedDimension
1001
ACAD
1000
DSTYLE
1002
{
1070
   279
1070
     0
1070
   172
1070
     1
1070
   173
1070
     1
1070
   340
1005
192
1070
   271
1070
     1
1070
   272
1070
     2
1070
    77
1070
     1
1070
    73
1070
     0
1070
   171
1070
     3
1070
   274
1070
     4
1070
   177
1070
     7
1070
   176
1070
     7
1070
   178
1070
     7
1070
    48
1040
-0.005
1070
    41
1041
3.5
1070
   147
1041
1.5
1070
    42
1041
1.5875
1070
    44
1041
2.0
1070
   140
1041
3.0
1070
   343
1005
0
1070
   344
1005
0
1002
}
0
DIMENSION
5
1B4
100
AcDbEntity
8
SK2
62
256
6
ByLayer
370
13
48
1
60
0
100
AcDbDimension
2
DimnDraft3D3
10
0
20
-33
30
0
11
-25
21
-33
31
0
70
32
71
5
72
1
41
1
210
0
220
0
230
1
3
Standard
100
AcDbAlignedDimension
13
-50
23
-11.5875
33
0
14
0
24
-14.0875
34
0
50
0
100
AcDbRotatedDimension
1001
ACAD
1000
DSTYLE
1002
{
1070
   279
1070
     0
1070
   172
1070
     1
1070
   173
1070
     1
1070
   340
1005
192
1070
   271
1070
     1
1070
   272
1070
     2
1070
    77
1070
     1
1070
    73
1070
     0
1070
   171
1070
     3
1070
   274
1070
     4
1070
   177
1070
     7
1070
   176
1070
     7
1070
   178
1070
     7
1070
    48
1040
-0.005
1070
    41
1041
3.5
1070
   147
1041
1.5
1070
    42
1041
1.5875
1070
    44
1041
2.0
1070
   140
1041
3.0
1070
   343
1005
0
1070
   344
1005
0
1002
}
0
DIMENSION
5
1BE
100
AcDbEntity
8
2
62
256
6
ByLayer
370
13
48
1
60
0
100
AcDbDimension
2
DimnDraft3D4
10
117
20
-33
30
0
11
58.5
21
-33
31
0
70
32
71
5
72
1
41
1
210
0
220
0
230
1
3
Standard
100
AcDbAlignedDimension
13
0
23
-14.0875
33
0
14
117
24
-1.5875
34
0
50
0
100
AcDbRotatedDimension
1001
ACAD
1000
DSTYLE
1002
{
1070
   279
1070
     0
1070
   172
1070
     1
1070
   173
1070
     1
1070
   340
1005
192
1070
   271
1070
     1
1070
   272
1070
     2
1070
    77
1070
     1
1070
    73
1070
     0
1070
   171
1070
     3
1070
   274
1070
     4
1070
   177
1070
     7
1070
   176
1070
     7
1070
   178
1070
     7
1070
    48
1040
-0.005
1070
    41
1041
3.5
1070
   147
1041
1.5
1070
    42
1041
1.5875
1070
    44
1041
2.0
1070
   140
1041
3.0
1070
   343
1005
0
1070
   344
1005
0
1002
}
0
DIMENSION
5
1C9
100
AcDbEntity
8
SK2
62
256
6
ByLayer
370
13
48
1
60
0
100
AcDbDimension
2
DimnDraft3D5
10
-58.25
20
-10
30
0
11
-58.5
21
-0.520456
31
0
70
33
71
5
72
1
41
1
210
0
220
0
230
1
3
Standard
100
AcDbAlignedDimension
13
-51.5875
23
10
33
0
14
-51.5875
24
-10
34
0
1001
ACAD
1000
DSTYLE
1002
{
1070
   279
1070
     0
1070
    74
1070
     0
1070
   173
1070
     1
1070
   340
1005
192
1070
   271
1070
     1
1070
   272
1070
     2
1070
    77
1070
     1
1070
    73
1070
     0
1070
   171
1070
     3
1070
   274
1070
     4
1070
   177
1070
     7
1070
   176
1070
     7
1070
   178
1070
     7
1070
    48
1040
-0.005
1070
    41
1041
3.5
1070
   147
1041
1.5
1070
    42
1041
1.5875
1070
    44
1041
2.0
1070
   140
1041
3.0
1070
   343
1005
0
1070
   344
1005
0
1002
}
0
ENDSEC
0
SECTION
2
OBJECTS
0
DICTIONARY
5
234
330
0
100
AcDbDictionary
280
0
281
1
3
ACAD_GROUP
350
235
3
ACAD_MLINESTYLE
350
236
0
DICTIONARY
5
235
330
0
100
AcDbDictionary
280
0
281
1
0
DICTIONARY
5
236
330
0
100
AcDbDictionary
280
0
281
1
3
Standard
350
18
0
MLINESTYLE
5
18
330
236
100
AcDbMlineStyle
2
Standard
70
0
3

62
256
51
90
52
90
71
2
49
-0.5
62
256
6
ByLayer
49
0.5
62
256
6
ByLayer
0
RASTERVARIABLES
5
222
330

100
AcDbRasterVariables
90
0
70
1
71
1
72
1
0
ENDSEC
0
EOF
