0
SECTION
2
HEADER
9
$ACADVER
1
AC1015
9
$DWGCODEPAGE
3
ANSI_1252
9
$HANDSEED
5
24c
9
$ANGBASE
50
0
9
$ANGDIR
70
0
9
$ATTMODE
70
1
9
$AUNITS
70
0
9
$AUPREC
70
0
9
$CECOLOR
62
256
9
$CELTSCALE
40
1
9
$CELTYPE
6
ByLayer
9
$CELWEIGHT
370
18
9
$CLAYER
8
0
9
$CMLJUST
70
0
9
$CMLSCALE
40
1
9
$CMLSTYLE
2
Standard
9
$DIMSTYLE
2
Standard
9
$TEXTSIZE
40
0.2
9
$TEXTSTYLE
7
Standard
9
$LUNITS
70
2
9
$LUPREC
70
4
9
$EXTNAMES
290
1
9
$INSUNITS
70
4
9
$LTSCALE
40
1
9
$LWDISPLAY
290
1
9
$PDMODE
70
0
9
$PDSIZE
40
0
9
$PLINEGEN
70
0
0
ENDSEC
0
SECTION
2
CLASSES
0
CLASS
1
RASTERVARIABLES
2
AcDbRasterVariables
3
ISM
90
0
280
0
281
0
0
ENDSEC
0
SECTION
2
TABLES
0
TABLE
2
VPORT
5
242
100
AcDbSymbolTable
0
VPORT
5
1
100
AcDbSymbolTableRecord
100
AcDbViewportTableRecord
2
*Active
70
0
10
0
20
0
11
1
21
1
12
-1
22
1
13
0
23
0
14
0.5
24
0.5
15
10
25
10
16
0
26
0
36
1
17
0
27
0
37
0
0
ENDTAB
0
TABLE
2
LTYPE
5
243
100
AcDbSymbolTable
0
LTYPE
5
14
100
AcDbSymbolTableRecord
100
AcDbLinetypeTableRecord
70
0
2
ByBlock
3

72
65
73
0
40
0
0
LTYPE
5
15
100
AcDbSymbolTableRecord
100
AcDbLinetypeTableRecord
70
0
2
ByLayer
3

72
65
73
0
40
0
0
LTYPE
5
16
100
AcDbSymbolTableRecord
100
AcDbLinetypeTableRecord
70
0
2
CONTINUOUS
3
Solid line
72
65
73
0
40
0
0
LTYPE
5
6A
100
AcDbSymbolTableRecord
100
AcDbLinetypeTableRecord
70
0
2
CENTER
3
____ _ ____ _ ____ _ ____
72
65
73
4
40
47.5
49
22
74
0
49
-8.5
74
0
49
8.5
74
0
49
-8.5
74
0
0
LTYPE
5
6B
100
AcDbSymbolTableRecord
100
AcDbLinetypeTableRecord
70
0
2
DASHED
3
__ __ __ __ __ __ __ __ __
72
65
73
2
40
25.72
49
12.86
74
0
49
-12.86
74
0
0
ENDTAB
0
TABLE
2
LAYER
5
244
100
AcDbSymbolTable
0
LAYER
5
10
100
AcDbSymbolTableRecord
100
AcDbLayerTableRecord
2
0
70
0
62
7
6
CONTINUOUS
290
1
370
-3
390
0
0
LAYER
5
6D
100
AcDbSymbolTableRecord
100
AcDbLayerTableRecord
2
80
70
0
62
-6
6
CONTINUOUS
290
1
370
-3
390
0
0
LAYER
5
6F
100
AcDbSymbolTableRecord
100
AcDbLayerTableRecord
2
81
70
0
62
-3
6
CONTINUOUS
290
1
370
-3
390
0
0
LAYER
5
72
100
AcDbSymbolTableRecord
100
AcDbLayerTableRecord
2
1
70
0
62
4
6
CONTINUOUS
290
1
370
-3
390
0
0
LAYER
5
8F
100
AcDbSymbolTableRecord
100
AcDbLayerTableRecord
2
4
70
0
62
-2
6
CENTER
290
1
370
-3
390
0
0
LAYER
5
1A2
100
AcDbSymbolTableRecord
100
AcDbLayerTableRecord
2
2
70
0
62
7
6
CONTINUOUS
290
1
370
-3
390
0
0
LAYER
5
22e
100
AcDbSymbolTableRecord
100
AcDbLayerTableRecord
2
SK1
70
0
62
4
6
CONTINUOUS
290
1
370
-3
390
0
0
LAYER
5
22f
100
AcDbSymbolTableRecord
100
AcDbLayerTableRecord
2
SK4
70
0
62
2
6
CENTER
290
1
370
-3
390
0
0
LAYER
5
230
100
AcDbSymbolTableRecord
100
AcDbLayerTableRecord
2
SK6
70
0
62
5
6
CONTINUOUS
290
1
370
-3
390
0
0
LAYER
5
231
100
AcDbSymbolTableRecord
100
AcDbLayerTableRecord
2
SK2
70
0
62
7
6
CONTINUOUS
290
1
370
-3
390
0
0
ENDTAB
0
TABLE
2
STYLE
5
245
100
AcDbSymbolTable
0
STYLE
5
11
100
AcDbSymbolTableRecord
100
AcDbTextStyleTableRecord
2
Standard
3
txt
70
0
71
0
40
0
41
1
42
0
50
0
0
STYLE
5
19D
100
AcDbSymbolTableRecord
100
AcDbTextStyleTableRecord
2
iso_b_vert
3
simplex.shx
70
0
71
0
40
0
41
1
42
0
50
0
0
STYLE
5
19E
100
AcDbSymbolTableRecord
100
AcDbTextStyleTableRecord
2
DWGDirectTextStyle
3
simplex
70
0
71
0
40
0
41
1
42
0
50
0
0
ENDTAB
0
TABLE
2
DIMSTYLE
5
246
100
AcDbSymbolTable
100
AcDbDimStyleTable
0
DIMSTYLE
105
27
100
AcDbSymbolTableRecord
100
AcDbDimStyleTableRecord
2
Standard
70
0
3
<>
41
0.18
42
0.0625
44
0.18
140
0.18
147
0.09
73
0
74
0
77
1
271
2
275
0
278
52
280
0
340
11
0
ENDTAB
0
TABLE
2
VIEW
5
247
100
AcDbSymbolTable
0
ENDTAB
0
TABLE
2
UCS
5
248
100
AcDbSymbolTable
0
ENDTAB
0
TABLE
2
APPID
5
249
100
AcDbSymbolTable
0
APPID
5
12
100
AcDbSymbolTableRecord
100
AcDbRegAppTableRecord
2
ACAD
70
0
0
ENDTAB
0
TABLE
2
BLOCK_RECORD
5
24a
100
AcDbSymbolTable
0
BLOCK_RECORD
5
1F
100
AcDbSymbolTableRecord
100
AcDbBlockTableRecord
2
*Model_Space
340
0
70
0
0
BLOCK_RECORD
5
1B
100
AcDbSymbolTableRecord
100
AcDbBlockTableRecord
2
*Paper_Space
340
0
70
0
0
BLOCK_RECORD
5
23
100
AcDbSymbolTableRecord
100
AcDbBlockTableRecord
2
*Paper_Space0
340
0
70
0
0
BLOCK_RECORD
5
1A0
100
AcDbSymbolTableRecord
100
AcDbBlockTableRecord
2
DimnDraft3D1
340
0
70
0
0
BLOCK_RECORD
5
1AB
100
AcDbSymbolTableRecord
100
AcDbBlockTableRecord
2
DimnDraft3D2
340
0
70
0
0
BLOCK_RECORD
5
1B5
100
AcDbSymbolTableRecord
100
AcDbBlockTableRecord
2
DimnDraft3D3
340
0
70
0
0
BLOCK_RECORD
5
1C0
100
AcDbSymbolTableRecord
100
AcDbBlockTableRecord
2
DimnDraft3D4
340
0
70
0
0
BLOCK_RECORD
5
1CA
100
AcDbSymbolTableRecord
100
AcDbBlockTableRecord
2
DimnDraft3D5
340
0
70
0
0
ENDTAB
0
ENDSEC
0
SECTION
2
BLOCKS
0
BLOCK
5
20
100
AcDbEntity
8
0
100
AcDbBlockBegin
2
*Model_Space
70
0
10
0
20
0
30
0
3
*Model_Space
0
ENDBLK
5
21
100
AcDbEntity
8
0
100
AcDbBlockEnd
0
BLOCK
5
1C
100
AcDbEntity
8
0
100
AcDbBlockBegin
2
*Paper_Space
70
0
10
0
20
0
30
0
3
*Paper_Space
0
ENDBLK
5
1D
100
AcDbEntity
8
0
100
AcDbBlockEnd
0
BLOCK
5
24
100
AcDbEntity
8
0
100
AcDbBlockBegin
2
*Paper_Space0
70
0
10
0
20
0
30
0
3
*Paper_Space0
0
ENDBLK
5
25
100
AcDbEntity
8
0
100
AcDbBlockEnd
0
BLOCK
5
1A8
100
AcDbEntity
8
0
100
AcDbBlockBegin
2
DimnDraft3D1
70
0
10
0
20
0
30
0
3
DimnDraft3D1
0
MTEXT
5
1A1
100
AcDbEntity
8
2
62
256
6
ByLayer
370
13
48
1
60
0
100
AcDbMText
10
110.983572
20
-21.249886
30
0
210
0
220
0
230
1
1
\W0.6864;195.0
40
3
41
0
44
1.084337
50
0
71
7
72
5
7
iso_b_vert
0
LINE
5
1A3
100
AcDbEntity
8
2
62
256
6
ByLayer
370
13
48
1
60
0
100
AcDbLine
10
212
20
-1.5875
30
0
11
212
21
-24
31
0
39
0
210
0
220
0
230
1
0
LINE
5
1A4
100
AcDbEntity
8
2
62
256
6
ByLayer
370
13
48
1
60
0
100
AcDbLine
10
17
20
-10.5875
30
0
11
17
21
-24
31
0
39
0
210
0
220
0
230
1
0
LINE
5
1A5
100
AcDbEntity
8
2
62
256
6
ByLayer
370
13
48
1
60
0
100
AcDbLine
10
212
20
-22
30
0
11
17
21
-22
31
0
39
0
210
0
220
0
230
1
0
SOLID
5
1A6
100
AcDbEntity
8
2
62
256
6
ByLayer
370
13
48
1
60
0
100
AcDbTrace
10
212
20
-22
30
0
11
208.500002
21
-22.460784
31
0
12
208.499998
22
-21.539216
32
0
13
212
23
-22
33
0
39
0
210
0
220
0
230
1
0
SOLID
5
1A7
100
AcDbEntity
8
2
62
256
6
ByLayer
370
13
48
1
60
0
100
AcDbTrace
10
17
20
-22
30
0
11
20.499998
21
-21.539216
31
0
12
20.500002
22
-22.460784
32
0
13
17
23
-22
33
0
39
0
210
0
220
0
230
1
0
ENDBLK
5
1A9
100
AcDbEntity
8
0
100
AcDbBlockEnd
0
BLOCK
5
1B2
100
AcDbEntity
8
0
100
AcDbBlockBegin
2
DimnDraft3D2
70
0
10
0
20
0
30
0
3
DimnDraft3D2
0
MTEXT
5
1AC
100
AcDbEntity
8
2
62
256
6
ByLayer
370
13
48
1
60
0
100
AcDbMText
10
112.055572
20
16.750114
30
0
210
0
220
0
230
1
1
\W0.6944;192.9
40
3
41
0
44
1.084337
50
0
71
7
72
5
7
iso_b_vert
0
LINE
5
1AD
100
AcDbEntity
8
2
62
256
6
ByLayer
370
13
48
1
60
0
100
AcDbLine
10
212
20
1.5875
30
0
11
212
21
18
31
0
39
0
210
0
220
0
230
1
0
LINE
5
1AE
100
AcDbEntity
8
2
62
256
6
ByLayer
370
13
48
1
60
0
100
AcDbLine
10
19.144
20
10.5875
30
0
11
19.144
21
18
31
0
39
0
210
0
220
0
230
1
0
LINE
5
1AF
100
AcDbEntity
8
2
62
256
6
ByLayer
370
13
48
1
60
0
100
AcDbLine
10
212
20
16
30
0
11
19.144
21
16
31
0
39
0
210
0
220
0
230
1
0
SOLID
5
1B0
100
AcDbEntity
8
2
62
256
6
ByLayer
370
13
48
1
60
0
100
AcDbTrace
10
212
20
16
30
0
11
208.500002
21
15.539216
31
0
12
208.499998
22
16.460784
32
0
13
212
23
16
33
0
39
0
210
0
220
0
230
1
0
SOLID
5
1B1
100
AcDbEntity
8
2
62
256
6
ByLayer
370
13
48
1
60
0
100
AcDbTrace
10
19.144
20
16
30
0
11
22.643998
21
16.460784
31
0
12
22.644002
22
15.539216
32
0
13
19.144
23
16
33
0
39
0
210
0
220
0
230
1
0
ENDBLK
5
1B3
100
AcDbEntity
8
0
100
AcDbBlockEnd
0
BLOCK
5
1BD
100
AcDbEntity
8
0
100
AcDbBlockBegin
2
DimnDraft3D3
70
0
10
0
20
0
30
0
3
DimnDraft3D3
0
MTEXT
5
1B6
100
AcDbEntity
8
SK2
62
256
6
ByLayer
370
13
48
1
60
0
100
AcDbMText
10
-27.770456
20
-32.249886
30
0
210
0
220
0
230
1
1
\W0.7346;50.0
40
3
41
0
44
1.084337
50
0
71
7
72
5
7
iso_b_vert
0
LINE
5
1B8
100
AcDbEntity
8
SK2
62
256
6
ByLayer
370
13
48
1
60
0
100
AcDbLine
10
-50
20
-11.5875
30
0
11
-50
21
-35
31
0
39
0
210
0
220
0
230
1
0
LINE
5
1B9
100
AcDbEntity
8
SK2
62
256
6
ByLayer
370
13
48
1
60
0
100
AcDbLine
10
0
20
-14.0875
30
0
11
0
21
-35
31
0
39
0
210
0
220
0
230
1
0
LINE
5
1BA
100
AcDbEntity
8
SK2
62
256
6
ByLayer
370
13
48
1
60
0
100
AcDbLine
10
-50
20
-33
30
0
11
0
21
-33
31
0
39
0
210
0
220
0
230
1
0
SOLID
5
1BB
100
AcDbEntity
8
SK2
62
256
6
ByLayer
370
13
48
1
60
0
100
AcDbTrace
10
-50
20
-33
30
0
11
-46.500002
21
-32.539216
31
0
12
-46.499998
22
-33.460784
32
0
13
-50
23
-33
33
0
39
0
210
0
220
0
230
1
0
SOLID
5
1BC
100
AcDbEntity
8
SK2
62
256
6
ByLayer
370
13
48
1
60
0
100
AcDbTrace
10
0
20
-33
30
0
11
-3.499998
21
-33.460784
31
0
12
-3.500002
22
-32.539216
32
0
13
0
23
-33
33
0
39
0
210
0
220
0
230
1
0
ENDBLK
5
1BE
100
AcDbEntity
8
0
100
AcDbBlockEnd
0
BLOCK
5
1C7
100
AcDbEntity
8
0
100
AcDbBlockBegin
2
DimnDraft3D4
70
0
10
0
20
0
30
0
3
DimnDraft3D4
0
MTEXT
5
1C1
100
AcDbEntity
8
2
62
256
6
ByLayer
370
13
48
1
60
0
100
AcDbMText
10
102.483572
20
-32.249886
30
0
210
0
220
0
230
1
1
\W0.6864;212.0
40
3
41
0
44
1.084337
50
0
71
7
72
5
7
iso_b_vert
0
LINE
5
1C2
100
AcDbEntity
8
2
62
256
6
ByLayer
370
13
48
1
60
0
100
AcDbLine
10
0
20
-14.0875
30
0
11
0
21
-35
31
0
39
0
210
0
220
0
230
1
0
LINE
5
1C3
100
AcDbEntity
8
2
62
256
6
ByLayer
370
13
48
1
60
0
100
AcDbLine
10
212
20
-1.5875
30
0
11
212
21
-35
31
0
39
0
210
0
220
0
230
1
0
LINE
5
1C4
100
AcDbEntity
8
2
62
256
6
ByLayer
370
13
48
1
60
0
100
AcDbLine
10
0
20
-33
30
0
11
212
21
-33
31
0
39
0
210
0
220
0
230
1
0
SOLID
5
1C5
100
AcDbEntity
8
2
62
256
6
ByLayer
370
13
48
1
60
0
100
AcDbTrace
10
0
20
-33
30
0
11
3.499998
21
-32.539216
31
0
12
3.500002
22
-33.460784
32
0
13
0
23
-33
33
0
39
0
210
0
220
0
230
1
0
SOLID
5
1C6
100
AcDbEntity
8
2
62
256
6
ByLayer
370
13
48
1
60
0
100
AcDbTrace
10
212
20
-33
30
0
11
208.500002
21
-33.460784
31
0
12
208.499998
22
-32.539216
32
0
13
212
23
-33
33
0
39
0
210
0
220
0
230
1
0
ENDBLK
5
1C8
100
AcDbEntity
8
0
100
AcDbBlockEnd
0
BLOCK
5
1D2
100
AcDbEntity
8
0
100
AcDbBlockBegin
2
DimnDraft3D5
70
0
10
0
20
0
30
0
3
DimnDraft3D5
0
MTEXT
5
1CB
100
AcDbEntity
8
SK2
62
256
6
ByLayer
370
13
48
1
60
0
100
AcDbMText
10
-57.750114
20
0.229544
30
0
210
0
220
0
230
1
1
\W0.7346;20.0
40
3
41
0
44
1.084337
50
90
71
7
72
5
7
iso_b_vert
0
MTEXT
5
1CC
100
AcDbEntity
8
SK2
62
256
6
ByLayer
370
13
48
1
60
0
100
AcDbMText
10
-57.750114
20
-4.247019
30
0
210
0
220
0
230
1
1
%%c
40
3
41
0
44
1.084337
50
90
71
7
72
5
7
iso_b_vert
0
LINE
5
1CD
100
AcDbEntity
8
SK2
62
256
6
ByLayer
370
13
48
1
60
0
100
AcDbLine
10
-51.5875
20
10
30
0
11
-58.25
21
10
31
0
39
0
210
0
220
0
230
1
0
LINE
5
1CE
100
AcDbEntity
8
SK2
62
256
6
ByLayer
370
13
48
1
60
0
100
AcDbLine
10
-51.5875
20
-10
30
0
11
-58.25
21
-10
31
0
39
0
210
0
220
0
230
1
0
LINE
5
1CF
100
AcDbEntity
8
SK2
62
256
6
ByLayer
370
13
48
1
60
0
100
AcDbLine
10
-56.25
20
10
30
0
11
-56.25
21
-10
31
0
39
0
210
0
220
0
230
1
0
SOLID
5
1D0
100
AcDbEntity
8
SK2
62
256
6
ByLayer
370
13
48
1
60
0
100
AcDbTrace
10
-56.25
20
10
30
0
11
-55.789216
21
6.500002
31
0
12
-56.710784
22
6.499998
32
0
13
-56.25
23
10
33
0
39
0
210
0
220
0
230
1
0
SOLID
5
1D1
100
AcDbEntity
8
SK2
62
256
6
ByLayer
370
13
48
1
60
0
100
AcDbTrace
10
-56.25
20
-10
30
0
11
-56.710784
21
-6.500002
31
0
12
-55.789216
22
-6.499998
32
0
13
-56.25
23
-10
33
0
39
0
210
0
220
0
230
1
0
ENDBLK
5
1D3
100
AcDbEntity
8
0
100
AcDbBlockEnd
0
ENDSEC
0
SECTION
2
ENTITIES
0
ARC
5
E0
100
AcDbEntity
8
SK1
62
256
6
ByLayer
370
18
48
1
60
0
100
AcDbCircle
39
0
10
47.946236
20
-10.49675
30
0
40
0.799999999999998
210
0
220
0
230
-1
100
AcDbArc
50
51
51
130.534532
0
ARC
5
E1
100
AcDbEntity
8
SK1
62
256
6
ByLayer
370
18
48
1
60
0
100
AcDbCircle
39
0
10
0.15
20
-10.14675
30
0
40
0.4
210
0
220
0
230
-1
100
AcDbArc
50
90
51
112.024313
0
ARC
5
E2
100
AcDbEntity
8
SK1
62
256
6
ByLayer
370
18
48
1
60
0
100
AcDbCircle
39
0
10
0.975195
20
10.14675
30
0
40
0.4
210
0
220
0
230
-1
100
AcDbArc
50
270
51
295
0
ARC
5
E3
100
AcDbEntity
8
SK1
62
256
6
ByLayer
370
18
48
1
60
0
100
AcDbCircle
39
0
10
0.975195
20
-10.14675
30
0
40
0.4
210
0
220
0
230
-1
100
AcDbArc
50
65
51
90
0
ARC
5
E4
100
AcDbEntity
8
SK1
62
256
6
ByLayer
370
18
48
1
60
0
100
AcDbCircle
39
0
10
0.15
20
10.14675
30
0
40
0.4
210
0
220
0
230
-1
100
AcDbArc
50
247.975687
51
270
0
ARC
5
E5
100
AcDbEntity
8
SK1
62
256
6
ByLayer
370
18
48
1
60
0
100
AcDbCircle
39
0
10
47.946236
20
10.49675
30
0
40
0.799999999999998
210
0
220
0
230
-1
100
AcDbArc
50
229.465468
51
309
0
ARC
5
E6
100
AcDbEntity
8
1
62
256
6
ByLayer
370
18
48
1
60
0
100
AcDbCircle
39
0
10
200.45
20
2.45
30
0
40
0.25000000000407
210
0
220
0
230
1
100
AcDbArc
50
331.642363
51
0
0
ELLIPSE
5
E7
100
AcDbEntity
8
1
62
256
6
ByLayer
370
13
48
1
60
0
100
AcDbEllipse
10
189.19
20
8.995091
30
0
11
4.43697061305833
21
-4.03897162392237
31
0
210
0
220
0
230
1
40
0.160243
41
0.812792857360416
42
0.967412903650799
0
ELLIPSE
5
E8
100
AcDbEntity
8
1
62
256
6
ByLayer
370
18
48
1
60
0
100
AcDbEllipse
10
211.966518
20
-0.160806
30
0
11
0.0470796689863801
21
0.15314951741018
31
0
210
0
220
0
230
1
40
0.055315
41
1.75915904213008
42
2.44405691337846
0
ELLIPSE
5
E9
100
AcDbEntity
8
1
62
256
6
ByLayer
370
18
48
1
60
0
100
AcDbEllipse
10
205.721258
20
-1.230911
30
0
11
0.00195422088827206
21
-1.25108571203649
31
0
210
0
220
0
230
1
40
0.343317
41
0.145971679102722
42
0.31610812959767
0
ELLIPSE
5
EA
100
AcDbEntity
8
1
62
256
6
ByLayer
370
18
48
1
60
0
100
AcDbEllipse
10
204.853609
20
-1.193726
30
0
11
1.49645028031421
21
0.37548406107083
31
0
210
0
220
0
230
1
40
0.791274
41
1.92987846904253
42
-1.76861064250782
0
ELLIPSE
5
EB
100
AcDbEntity
8
1
62
256
6
ByLayer
370
18
48
1
60
0
100
AcDbEllipse
10
16.941207
20
-7.540135
30
0
11
-2.69627863634937
21
5.36004491727127
31
0
210
0
220
0
230
1
40
0.668407
41
0.322674435762728
42
1.58440016193108
0
ELLIPSE
5
EC
100
AcDbEntity
8
1
62
256
6
ByLayer
370
18
48
1
60
0
100
AcDbEllipse
10
197.16
20
-3.81646
30
0
11
-1.84999999999999
21
2.26552175457139E-16
31
0
210
0
220
0
230
1
40
0.702153
41
1.07157782523576
42
2.06412472094025
0
ELLIPSE
5
ED
100
AcDbEntity
8
1
62
256
6
ByLayer
370
18
48
1
60
0
100
AcDbEllipse
10
218.712215
20
0
30
0
11
11.9332126447208
21
8.08890874103825
31
0
210
0
220
0
230
1
40
0.290406
41
2.89891466776234
42
-3.13270068763992
0
ELLIPSE
5
EE
100
AcDbEntity
8
1
62
256
6
ByLayer
370
18
48
1
60
0
100
AcDbEllipse
10
212
20
-1E-06
30
0
11
3.14328796979092
21
-8.99717485914307
31
0
210
0
220
0
230
1
40
0.07175
41
2.78352764619238
42
2.87285563123722
0
ELLIPSE
5
EF
100
AcDbEntity
8
1
62
256
6
ByLayer
370
18
48
1
60
0
100
AcDbEllipse
10
191.308512
20
-82.297113
30
0
11
79.4806100068324
21
0.596300782767197
31
0
210
0
220
0
230
1
40
0.935279
41
1.44372732078585
42
1.44534501970588
0
ELLIPSE
5
F0
100
AcDbEntity
8
1
62
256
6
ByLayer
370
18
48
1
60
0
100
AcDbEllipse
10
205.40786
20
-1.21748
30
0
11
0.369670338942567
21
-1.25984148740017
31
0
210
0
220
0
230
1
40
0.315245
41
0.224405757290866
42
-3.08732334704038
0
ELLIPSE
5
F1
100
AcDbEntity
8
1
62
256
6
ByLayer
370
18
48
1
60
0
100
AcDbEllipse
10
182.47837
20
2E-06
30
0
11
35.2870887855979
21
-8.20124851652053
31
0
210
0
220
0
230
1
40
0.090417
41
-1.4237624204667
42
-1.38482548793381
0
ELLIPSE
5
F2
100
AcDbEntity
8
1
62
256
6
ByLayer
370
18
48
1
60
0
100
AcDbEllipse
10
212
20
1E-06
30
0
11
3.14328795399456
21
8.99717480941344
31
0
210
0
220
0
230
1
40
0.07175
41
-2.87285563052217
42
-2.78352764523376
0
ELLIPSE
5
F3
100
AcDbEntity
8
1
62
256
6
ByLayer
370
18
48
1
60
0
100
AcDbEllipse
10
211.966518
20
0.160806
30
0
11
0.0470796690646989
21
-0.153149517632605
31
0
210
0
220
0
230
1
40
0.055315
41
-2.44405691365553
42
-1.75915904317957
0
ELLIPSE
5
F4
100
AcDbEntity
8
1
62
256
6
ByLayer
370
18
48
1
60
0
100
AcDbEllipse
10
19.405374
20
5E-06
30
0
11
18.8715430061636
21
-8.79855363987949
31
0
210
0
220
0
230
1
40
0.008495
41
1.32976969979403
42
1.374887613008
0
POINT
5
6C
100
AcDbEntity
8
80
62
256
6
ByLayer
370
18
48
1
60
0
100
AcDbPoint
10
0
20
0
30
0
39
0
210
0
220
0
230
1
50
360
0
POINT
5
6E
100
AcDbEntity
8
81
62
256
6
ByLayer
370
18
48
1
60
0
100
AcDbPoint
10
200.7
20
0
30
0
39
0
210
0
220
0
230
1
50
360
0
SPLINE
5
F5
100
AcDbEntity
8
1
62
256
6
ByLayer
370
18
48
1
60
0
100
AcDbSpline
70
4
71
3
72
13
73
9
40
0
40
0
40
0
40
0
40
0.191183823326808
40
0.381702132462876
40
0.569291753627384
40
0.713813756568829
40
0.856509350394198
40
1
40
1
40
1
40
1
41
1
10
13.7271777641003
20
9.29940861216025
30
0
41
1
10
13.1835084478477
20
9.54738074116386
30
0
41
1
10
12.1020958350068
20
10.0509734261194
30
0
41
1
10
10.5224075644788
20
10.8690658765942
30
0
41
1
10
9.04453136493946
20
11.5672474888195
30
0
41
1
10
7.65436944475557
20
12.0892186350003
30
0
41
1
10
6.34306419044124
20
12.4204374011066
30
0
41
1
10
5.45293930736621
20
12.4949425771488
30
0
41
1
10
5.00070000000001
20
12.5
30
0
0
SPLINE
5
F6
100
AcDbEntity
8
1
62
256
6
ByLayer
370
18
48
1
60
0
100
AcDbSpline
70
4
71
3
72
32
73
28
40
0
40
0
40
0
40
0
40
0.0367992843547749
40
0.0853174347393139
40
0.128993724224056
40
0.17456115999029
40
0.218166324737366
40
0.253707226811341
40
0.281153405077732
40
0.300554651471265
40
0.321511457936574
40
0.348187463782357
40
0.380594352536616
40
0.436266304841901
40
0.495074219408787
40
0.55446804064035
40
0.614460294152839
40
0.670807034722281
40
0.71327571404778
40
0.750346863366798
40
0.786566813057427
40
0.823499198841158
40
0.861690312919605
40
0.901394120480044
40
0.945209899066522
40
0.997336875049749
40
1
40
1
40
1
40
1
41
1
10
168.485879823708
20
8.29394865625039
30
0
41
1
10
168.203163961462
20
8.29132372431431
30
0
41
1
10
167.535956873328
20
8.28488750427391
30
0
41
1
10
166.46983712557
20
8.26561184449457
30
0
41
1
10
165.316591693017
20
8.26048487866802
30
0
41
1
10
164.210353095947
20
8.26982671572446
30
0
41
1
10
163.186666657046
20
8.28096177084592
30
0
41
1
10
162.307034260184
20
8.28589333106927
30
0
41
1
10
161.626498870781
20
8.28813609979733
30
0
41
1
10
161.064473558357
20
8.28886610863992
30
0
41
1
10
160.505737513864
20
8.28882595227435
30
0
41
1
10
159.837813036808
20
8.28837418915506
30
0
41
1
10
158.879498244701
20
8.28714968694615
30
0
41
1
10
157.652488289211
20
8.28574777048229
30
0
41
1
10
156.200001275554
20
8.28530562259976
30
0
41
1
10
154.711383987629
20
8.28631999223185
30
0
41
1
10
153.24337176952
20
8.28904295123209
30
0
41
1
10
151.916786995934
20
8.29215304779083
30
0
41
1
10
150.781627035147
20
8.29446721026244
30
0
41
1
10
149.814591498484
20
8.29566736908976
30
0
41
1
10
148.893802977166
20
8.29554540945972
30
0
41
1
10
147.963659231936
20
8.29420019780741
30
0
41
1
10
147.00441145153
20
8.29267790362883
30
0
41
1
10
145.987670468727
20
8.291150461021
30
0
41
1
10
144.854507994474
20
8.28984691260308
30
0
41
1
10
144.030770907203
20
8.2895193648848
30
0
41
1
10
143.573061898117
20
8.28957950563762
30
0
41
1
10
143.550814515114
20
8.28958298336607
30
0
0
SPLINE
5
F7
100
AcDbEntity
8
1
62
256
6
ByLayer
370
18
48
1
60
0
100
AcDbSpline
70
4
71
3
72
13
73
9
40
0
40
0
40
0
40
0
40
0.137024397221592
40
0.273177763028261
40
0.410866232735295
40
0.550884600293989
40
0.774695890876714
40
1
40
1
40
1
40
1
41
1
10
5.00070000000001
20
-12.5
30
0
41
1
10
5.43232624601161
20
-12.4956733884427
30
0
41
1
10
6.28228596356838
20
-12.4274470073972
30
0
41
1
10
7.53592223843701
20
-12.1240034127154
30
0
41
1
10
8.75276229166649
20
-11.6827051986261
30
0
41
1
10
10.1835332066993
20
-11.0405101807078
30
0
41
1
10
11.8172943031856
20
-10.1909637750143
30
0
41
1
10
13.0887028343581
20
-9.59631603078884
30
0
41
1
10
13.7271777641003
20
-9.29940861216022
30
0
0
SPLINE
5
F8
100
AcDbEntity
8
1
62
256
6
ByLayer
370
18
48
1
60
0
100
AcDbSpline
70
4
71
3
72
9
73
5
40
0
40
0
40
0
40
0
40
0.921568987294267
40
1
40
1
40
1
40
1
41
1
10
200.67
20
2.337101605952
30
0
41
1
10
200.669656798589
20
2.30623778176709
30
0
41
1
10
200.663408485189
20
2.27489612779718
30
0
41
1
10
200.650456662208
20
2.24532158693776
30
0
41
1
10
200.649400825965
20
2.24301500689268
30
0
0
SPLINE
5
F9
100
AcDbEntity
8
1
62
256
6
ByLayer
370
18
48
1
60
0
100
AcDbSpline
70
4
71
3
72
9
73
5
40
0
40
0
40
0
40
0
40
0.939085280852169
40
1
40
1
40
1
40
1
41
1
10
208.828248755159
20
8.85005682170973
30
0
41
1
10
208.555490047569
20
8.85003732879815
30
0
41
1
10
208.265124865111
20
8.84999789276654
30
0
41
1
10
207.975013001523
20
8.84993274339925
30
0
41
1
10
207.957341765495
20
8.8499286827975
30
0
0
SPLINE
5
FA
100
AcDbEntity
8
1
62
256
6
ByLayer
370
18
48
1
60
0
100
AcDbSpline
70
4
71
3
72
31
73
27
40
0
40
0
40
0
40
0
40
0.030273790673043
40
0.0709387179392562
40
0.106877862393072
40
0.140756668858343
40
0.174303841361968
40
0.207571223455004
40
0.240227468932907
40
0.283985689846372
40
0.324520840166081
40
0.35842500233984
40
0.388076904682367
40
0.43021341123827
40
0.480466557094666
40
0.532413437716192
40
0.58417559184224
40
0.635652998083863
40
0.68546926081463
40
0.732018127425711
40
0.776742786322278
40
0.820164660420242
40
0.862355063607675
40
0.906653639602834
40
0.956849054607532
40
1
40
1
40
1
40
1
41
1
10
90.5537113942142
20
8.29158873013003
30
0
41
1
10
90.3081935728624
20
8.29130188777654
30
0
41
1
10
89.7306263745347
20
8.29095305599526
30
0
41
1
10
88.8459543832276
20
8.2894126011096
30
0
41
1
10
87.9352240966729
20
8.29329333309494
30
0
41
1
10
87.0899556361617
20
8.29586882991063
30
0
41
1
10
86.2589144485272
20
8.29650087987451
30
0
41
1
10
85.4371920790776
20
8.29661518375963
30
0
41
1
10
84.5311363108299
20
8.29590927496326
30
0
41
1
10
83.5650167234146
20
8.29443371691778
30
0
41
1
10
82.5885920563088
20
8.29283190853894
30
0
41
1
10
81.7287038648291
20
8.29144687630293
30
0
41
1
10
80.8555715025854
20
8.29018767980733
30
0
41
1
10
79.8475640092482
20
8.2890232804711
30
0
41
1
10
78.6559557130658
20
8.28814173087417
30
0
41
1
10
77.3841652836272
20
8.28784927777943
30
0
41
1
10
76.1020400318396
20
8.28800949303911
30
0
41
1
10
74.8381704941007
20
8.28794471474026
30
0
41
1
10
73.617076979752
20
8.28613153552388
30
0
41
1
10
72.4515353466226
20
8.2843022099203
30
0
41
1
10
71.3388285141323
20
8.28332504293547
30
0
41
1
10
70.2621181477362
20
8.28319279996356
30
0
41
1
10
69.1889305508576
20
8.2840441010581
30
0
41
1
10
68.0597915427196
20
8.28611101207261
30
0
41
1
10
66.9227155187493
20
8.28897593055902
30
0
41
1
10
66.1515893510833
20
8.29101413034749
30
0
41
1
10
65.7951232313404
20
8.29186348020141
30
0
0
SPLINE
5
FB
100
AcDbEntity
8
1
62
256
6
ByLayer
370
18
48
1
60
0
100
AcDbSpline
70
4
71
2
72
6
73
3
40
0
40
0
40
0
40
1
40
1
40
1
41
1
10
96.0295641163559
20
-2.19793166839347
30
0
41
1
10
96.2317668505278
20
-2.26036072595568
30
0
41
1
10
96.4338583366563
20
-2.32980925251641
30
0
0
SPLINE
5
FC
100
AcDbEntity
8
1
62
256
6
ByLayer
370
18
48
1
60
0
100
AcDbSpline
70
4
71
1
72
4
73
2
40
0
40
0
40
1
40
1
41
1
10
117.705517123572
20
3.7469612070152
30
0
41
1
10
117.336026864253
20
3.85300868442496
30
0
0
SPLINE
5
FD
100
AcDbEntity
8
1
62
256
6
ByLayer
370
18
48
1
60
0
100
AcDbSpline
70
4
71
1
72
4
73
2
40
0
40
0
40
1
40
1
41
1
10
39.8863810041335
20
3.74714769245537
30
0
41
1
10
39.5152056557495
20
3.85315242275362
30
0
0
SPLINE
5
FE
100
AcDbEntity
8
1
62
256
6
ByLayer
370
18
48
1
60
0
100
AcDbSpline
70
4
71
3
72
41
73
37
40
0
40
0
40
0
40
0
40
0.0401451858346319
40
0.0744802635312579
40
0.103182629451905
40
0.127433157029884
40
0.148469039568203
40
0.166449150623752
40
0.1872514418987
40
0.217519327215335
40
0.250994441352462
40
0.282566629782249
40
0.311185053488847
40
0.336477550640367
40
0.370149143845224
40
0.402425345794221
40
0.433526783699779
40
0.46388906212364
40
0.494873566104312
40
0.530295917067314
40
0.566304278572288
40
0.60534219354267
40
0.644088628361077
40
0.682522253878755
40
0.720648791036277
40
0.75713383158089
40
0.787756071550877
40
0.812214129981301
40
0.827352727919389
40
0.841790205905925
40
0.861466498780344
40
0.88651725280157
40
0.916945704126545
40
0.958747409957556
40
0.998631458595482
40
1
40
1
40
1
40
1
41
1
10
135.200666440295
20
-8.28795350918389
30
0
41
1
10
135.617378397005
20
-8.28808217321443
30
0
41
1
10
136.39177223463
20
-8.28863248972769
30
0
41
1
10
137.469500438602
20
-8.28928513634924
30
0
41
1
10
138.381052261668
20
-8.29182505618965
30
0
41
1
10
139.146601620954
20
-8.2928579260294
30
0
41
1
10
139.80676693904
20
-8.29241526264846
30
0
41
1
10
140.431622422689
20
-8.29201618338936
30
0
41
1
10
141.152340911743
20
-8.2913539571264
30
0
41
1
10
142.035325207168
20
-8.29043225347255
30
0
41
1
10
143.030673387631
20
-8.28965991610329
30
0
41
1
10
144.008845035279
20
-8.28946612066946
30
0
41
1
10
144.901553723921
20
-8.28996424351371
30
0
41
1
10
145.816185068154
20
-8.29093053547655
30
0
41
1
10
146.769005651966
20
-8.29230812456453
30
0
41
1
10
147.782500532723
20
-8.29390736001955
30
0
41
1
10
148.761436231834
20
-8.29541759844605
30
0
41
1
10
149.726883289132
20
-8.29574691530294
30
0
41
1
10
150.7374522937
20
-8.29455378931314
30
0
41
1
10
151.806972752636
20
-8.2923811818923
30
0
41
1
10
152.960559444525
20
-8.28971803640025
30
0
41
1
10
154.148864319572
20
-8.28727381109911
30
0
41
1
10
155.362542421886
20
-8.28576372987422
30
0
41
1
10
156.566706413865
20
-8.28537337423734
30
0
41
1
10
157.747223922245
20
-8.28589052177506
30
0
41
1
10
158.846127906103
20
-8.28708730325434
30
0
41
1
10
159.802073646657
20
-8.28835989497915
30
0
41
1
10
160.534633232792
20
-8.28884907108622
30
0
41
1
10
161.097438180807
20
-8.28883269498135
30
0
41
1
10
161.607708523178
20
-8.2881397633673
30
0
41
1
10
162.218827068215
20
-8.28624576823739
30
0
41
1
10
162.994055835594
20
-8.28206777036067
30
0
41
1
10
163.994144872276
20
-8.27312097949965
30
0
41
1
10
165.155547220848
20
-8.26013343462444
30
0
41
1
10
166.026417238871
20
-8.26328731626552
30
0
41
1
10
166.45558143321
20
-8.26806711472355
30
0
41
1
10
166.469814682089
20
-8.26822900549752
30
0
0
SPLINE
5
FF
100
AcDbEntity
8
1
62
256
6
ByLayer
370
18
48
1
60
0
100
AcDbSpline
70
4
71
3
72
9
73
5
40
0
40
0
40
0
40
0
40
0.296744796086053
40
1
40
1
40
1
40
1
41
1
10
167.243908676278
20
-8.27913335804618
30
0
41
1
10
167.37050074946
20
-8.28105641019803
30
0
41
1
10
167.7939138593
20
-8.28737351724249
30
0
41
1
10
168.203163961463
20
-8.29132372431434
30
0
41
1
10
168.485879823708
20
-8.29394865625039
30
0
0
SPLINE
5
100
100
AcDbEntity
8
1
62
256
6
ByLayer
370
18
48
1
60
0
100
AcDbSpline
70
4
71
1
72
4
73
2
40
0
40
0
40
1
40
1
41
1
10
193.268129974794
20
4.4738865042448
30
0
41
1
10
193.268140913837
20
4.47388294534491
30
0
0
SPLINE
5
101
100
AcDbEntity
8
1
62
256
6
ByLayer
370
18
48
1
60
0
100
AcDbSpline
70
4
71
2
72
6
73
3
40
0
40
0
40
0
40
1
40
1
40
1
41
1
10
173.842029840774
20
-2.198416537479
30
0
41
1
10
174.04397781369
20
-2.26084884336495
30
0
41
1
10
174.245548581994
20
-2.33018716049031
30
0
0
SPLINE
5
102
100
AcDbEntity
8
1
62
256
6
ByLayer
370
18
48
1
60
0
100
AcDbSpline
70
4
71
3
72
14
73
10
40
0
40
0
40
0
40
0
40
0.150152101565412
40
0.272039009028043
40
0.367178161792234
40
0.450162292442816
40
0.606581612166281
40
0.821180634443744
40
1
40
1
40
1
40
1
41
1
10
204.333868495126
20
-8.84998571176976
30
0
41
1
10
204.552494747146
20
-8.84968487696824
30
0
41
1
10
204.95220346048
20
-8.84911256071504
30
0
41
1
10
205.499361461556
20
-8.84710821786149
30
0
41
1
10
205.953886342828
20
-8.84712218231189
30
0
41
1
10
206.446994914123
20
-8.84941748735071
30
0
41
1
10
207.130395050007
20
-8.84959511325843
30
0
41
1
10
207.95634880925
20
-8.84985412449598
30
0
41
1
10
208.548229509372
20
-8.84992753881909
30
0
41
1
10
208.817280908155
20
-8.84994837558781
30
0
0
SPLINE
5
103
100
AcDbEntity
8
1
62
256
6
ByLayer
370
18
48
1
60
0
100
AcDbSpline
70
4
71
3
72
44
73
40
40
0
40
0
40
0
40
0
40
0.016807470123563
40
0.0332945171994872
40
0.0561622476424349
40
0.0796101294843239
40
0.102172136909722
40
0.123785492625788
40
0.139521271426723
40
0.154050238544793
40
0.170060149122779
40
0.189720081002389
40
0.205893519189395
40
0.215661183050927
40
0.226987310860067
40
0.241408625453688
40
0.258924556374853
40
0.278107494033483
40
0.29640283108139
40
0.338036871239282
40
0.374664824609257
40
0.411598008180823
40
0.449778472566778
40
0.489682662783299
40
0.543020096357336
40
0.597893552657326
40
0.653043385216423
40
0.683728418618762
40
0.709887165538451
40
0.732026053243159
40
0.757012396344408
40
0.786963970386056
40
0.819495669713226
40
0.853013793855131
40
0.887222803661662
40
0.914394021434279
40
0.942740005481768
40
0.974964925335476
40
1
40
1
40
1
40
1
41
1
10
57.3862698916871
20
-8.29246812706481
30
0
41
1
10
57.5457422781354
20
-8.29116296311295
30
0
41
1
10
57.8748712439747
20
-8.28884167695449
30
0
41
1
10
58.4931541269426
20
-8.28144385284213
30
0
41
1
10
59.1924784742898
20
-8.28598902735348
30
0
41
1
10
59.9401638104499
20
-8.29039386441423
30
0
41
1
10
60.685295141958
20
-8.29207501597389
30
0
41
1
10
61.3471177074696
20
-8.29290681611971
30
0
41
1
10
61.9224343773077
20
-8.29344644314307
30
0
41
1
10
62.4358894859243
20
-8.29401090029592
30
0
41
1
10
62.9925728256556
20
-8.29458024328682
30
0
41
1
10
63.5678047401121
20
-8.29492713156026
30
0
41
1
10
64.0737020271934
20
-8.29477526853776
30
0
41
1
10
64.4871563973266
20
-8.29436502279933
30
0
41
1
10
64.8811720917312
20
-8.29379577074232
30
0
41
1
10
65.361147025738
20
-8.29288070680556
30
0
41
1
10
65.9282863948252
20
-8.29156641975993
30
0
41
1
10
66.538405699529
20
-8.28999666912608
30
0
41
1
10
67.4160981061785
20
-8.28771461069385
30
0
41
1
10
68.4873326647152
20
-8.28514624274212
30
0
41
1
10
69.7653351317338
20
-8.28338826930519
30
0
41
1
10
71.0050410121643
20
-8.2831463254721
30
0
41
1
10
72.2810578271613
20
-8.28403922535912
30
0
41
1
10
73.7391745268208
20
-8.28639076258281
30
0
41
1
10
75.3817685140863
20
-8.28837314859481
30
0
41
1
10
77.1941442626826
20
-8.28772310185195
30
0
41
1
10
78.7551327062835
20
-8.28817410200358
30
0
41
1
10
79.9968930667831
20
-8.28919030576472
30
0
41
1
10
80.8730118923106
20
-8.29021867736324
30
0
41
1
10
81.6860526071414
20
-8.29138098244883
30
0
41
1
10
82.541164978161
20
-8.2927543769471
30
0
41
1
10
83.5115660978191
20
-8.29434309975011
30
0
41
1
10
84.5766936603508
20
-8.29600816107521
30
0
41
1
10
85.6887535157446
20
-8.29673593903738
30
0
41
1
10
86.7423341289674
20
-8.29630160408368
30
0
41
1
10
87.7310945449612
20
-8.2943919711598
30
0
41
1
10
88.6980361892107
20
-8.28949746980862
30
0
41
1
10
89.6519354023076
20
-8.29078910909962
30
0
41
1
10
90.2780915457224
20
-8.29118833793154
30
0
41
1
10
90.5508610290438
20
-8.29157012855364
30
0
0
SPLINE
5
104
100
AcDbEntity
8
1
62
256
6
ByLayer
370
18
48
1
60
0
100
AcDbSpline
70
4
71
3
72
8
73
4
40
0
40
0
40
0
40
0
40
1
40
1
40
1
40
1
41
1
10
202.803317562681
20
-9.00000451541578
30
0
41
1
10
202.285818913738
20
-9.00004608628007
30
0
41
1
10
201.767867079153
20
-8.99058665734603
30
0
41
1
10
201.249495483891
20
-8.97148617164305
30
0
0
SPLINE
5
105
100
AcDbEntity
8
1
62
256
6
ByLayer
370
13
48
1
60
0
100
AcDbSpline
70
4
71
2
72
6
73
3
40
0
40
0
40
0
40
1
40
1
40
1
41
0.999262608640816
10
209.389098484784
20
3.09597219136192
30
0
41
0.999020019213403
10
209.38448182025
20
3.09483249882066
30
0
41
0.998779006558458
10
209.379867456426
20
3.09369156742933
30
0
0
SPLINE
5
106
100
AcDbEntity
8
1
62
256
6
ByLayer
370
18
48
1
60
0
100
AcDbSpline
70
4
71
3
72
8
73
4
40
0
40
0
40
0
40
0
40
1
40
1
40
1
40
1
41
1
10
200.60502928862
20
8.01130239486955
30
0
41
1
10
200.60438663447
20
8.23404256259246
30
0
41
1
10
200.603739644037
20
8.45602406527053
30
0
41
1
10
200.603088526306
20
8.67723232876492
30
0
0
SPLINE
5
107
100
AcDbEntity
8
1
62
256
6
ByLayer
370
18
48
1
60
0
100
AcDbSpline
70
4
71
3
72
22
73
18
40
0
40
0
40
0
40
0
40
0.0580515095550898
40
0.126663738002455
40
0.229582080673503
40
0.263888194897186
40
0.332500423344551
40
0.401112651791916
40
0.504030994462964
40
0.538337108686647
40
0.606949337134013
40
0.675561565581378
40
0.778479908252427
40
0.812786022476108
40
0.881398250923474
40
0.950010479370839
40
1
40
1
40
1
40
1
41
1
10
96.2833857282377
20
-0.0126444357019011
30
0
41
1
10
97.036420386037
20
-0.263851188241119
30
0
41
1
10
98.680095361673
20
-0.811898091427594
30
0
41
1
10
101.659624559892
20
-1.79696476544177
30
0
41
1
10
104.32982437123
20
-2.65648745431602
30
0
41
1
10
107.00066079442
20
-3.48080376179021
30
0
41
1
10
109.22700301202
20
-4.14472760081543
30
0
41
1
10
112.342331486811
20
-5.02295360878389
30
0
41
1
10
115.0104213233
20
-5.70868016231728
30
0
41
1
10
117.679303767656
20
-6.32090546783581
30
0
41
1
10
119.905065183477
20
-6.78130327669888
30
0
41
1
10
123.02148435575
20
-7.33483642440973
30
0
41
1
10
125.691555832741
20
-7.70931877165657
30
0
41
1
10
128.362301629151
20
-7.99144285225546
30
0
41
1
10
130.588611563532
20
-8.16366415372892
30
0
41
1
10
133.017329763849
20
-8.26670831868179
30
0
41
1
10
134.555096845759
20
-8.28741414572352
30
0
41
1
10
135.203209133641
20
-8.28795567572746
30
0
0
SPLINE
5
108
100
AcDbEntity
8
1
62
256
6
ByLayer
370
13
48
1
60
0
100
AcDbSpline
70
4
71
3
72
8
73
4
40
0
40
0
40
0
40
0
40
1
40
1
40
1
40
1
41
1
10
210.938388930976
20
0.879429409968026
30
0
41
1
10
210.945967480496
20
0.874127102226424
30
0
41
1
10
210.953575407014
20
0.86886143641695
30
0
41
1
10
210.961211757973
20
0.863631997877292
30
0
0
SPLINE
5
109
100
AcDbEntity
8
1
62
256
6
ByLayer
370
18
48
1
60
0
100
AcDbSpline
70
4
71
3
72
18
73
14
40
0
40
0
40
0
40
0
40
0.250000000000002
40
0.250000000000002
40
0.375000000000003
40
0.375000000000003
40
0.500000000000004
40
0.500000000000004
40
0.750000000000006
40
0.750000000000006
40
0.875000000000003
40
0.875000000000003
40
1
40
1
40
1
40
1
41
1
10
209.132071419892
20
-4.38921196254029
30
0
41
1
10
208.988293545465
20
-3.98615491205751
30
0
41
1
10
208.848737916539
20
-3.58168048771682
30
0
41
1
10
208.643784253646
20
-2.97349859411719
30
0
41
1
10
208.576287173828
20
-2.77049575766924
30
0
41
1
10
208.444324503312
20
-2.36347243825608
30
0
41
1
10
208.380257259729
20
-2.15931023898057
30
0
41
1
10
208.190965112584
20
-1.54589715084461
30
0
41
1
10
208.070740812418
20
-1.13534106385572
30
0
41
1
10
207.902067145016
20
-0.516354069726503
30
0
41
1
10
207.848557999023
20
-0.309291000152143
30
0
41
1
10
207.744667605633
20
0.105680720870367
30
0
41
1
10
207.695390821117
20
0.313887947788032
30
0
41
1
10
207.648732004283
20
0.522802904176245
30
0
0
SPLINE
5
10A
100
AcDbEntity
8
1
62
256
6
ByLayer
370
18
48
1
60
0
100
AcDbSpline
70
4
71
3
72
52
73
48
40
0
40
0
40
0
40
0
40
0.0094236915404542
40
0.0094236915404542
40
0.051306745225636
40
0.051306745225636
40
0.0931897989108177
40
0.0931897989108177
40
0.135072852595999
40
0.135072852595999
40
0.176955906281181
40
0.176955906281181
40
0.218838959966363
40
0.218838959966363
40
0.260722013651545
40
0.260722013651545
40
0.302605067336726
40
0.302605067336726
40
0.38637117470709
40
0.38637117470709
40
0.428254228392272
40
0.428254228392272
40
0.470137282077454
40
0.470137282077454
40
0.512020335762636
40
0.512020335762636
40
0.553903389447818
40
0.553903389447818
40
0.595786443133
40
0.595786443133
40
0.637669496818182
40
0.637669496818182
40
0.721435604188546
40
0.721435604188546
40
0.763318657873729
40
0.763318657873729
40
0.805201711558911
40
0.805201711558911
40
0.847084765244093
40
0.847084765244093
40
0.888967818929275
40
0.888967818929275
40
0.930850872614457
40
0.930850872614457
40
0.972733926299639
40
0.972733926299639
40
1
40
1
40
1
40
1
41
1
10
31.8781924996829
20
5.89557136157813
30
0
41
1
10
32.0795693494093
20
5.93889800738401
30
0
41
1
10
32.2809640420046
20
5.98168679194663
30
0
41
1
10
33.3775618410929
20
6.21160208149701
30
0
41
1
10
34.2735990537768
20
6.38828699751818
30
0
41
1
10
36.065121295663
20
6.71522380511678
30
0
41
1
10
36.96049779239
20
6.8653800646357
30
0
41
1
10
38.7513343083371
20
7.13801271111356
30
0
41
1
10
39.6468236152497
20
7.26015738445531
30
0
41
1
10
41.4384963708739
20
7.47787014857596
30
0
41
1
10
42.3350200078254
20
7.57394219443532
30
0
41
1
10
44.1265329336952
20
7.73614425097767
30
0
41
1
10
45.0217461685615
20
7.80229286343632
30
0
41
1
10
46.8122466447112
20
7.90196942310158
30
0
41
1
10
47.7075553089268
20
7.93542840338552
30
0
41
1
10
49.4993439818022
20
7.97033285758152
30
0
41
1
10
50.39603061554
20
7.9714365188556
30
0
41
1
10
53.0835335199383
20
7.93137243535372
30
0
41
1
10
54.8732214862703
20
7.84790788239835
30
0
41
1
10
57.5613603541457
20
7.62534760852225
30
0
41
1
10
58.457845576063
20
7.53508286089624
30
0
41
1
10
60.2492921445377
20
7.32498089469027
30
0
41
1
10
61.1447568611292
20
7.20485044909481
30
0
41
1
10
62.935907448059
20
6.93879839472351
30
0
41
1
10
63.8315237339671
20
6.79319675068191
30
0
41
1
10
65.6238830193624
20
6.47561065453016
30
0
41
1
10
66.5198594328454
20
6.30375091486525
30
0
41
1
10
68.3107302386339
20
5.93495836909023
30
0
41
1
10
69.2059240887979
20
5.73796993963774
30
0
41
1
10
70.9969053184331
20
5.3219832448446
30
0
41
1
10
71.8927871632299
20
5.10282020123788
30
0
41
1
10
74.5819733981715
20
4.41813866822596
30
0
41
1
10
76.3717993914488
20
3.92635105242781
30
0
41
1
10
79.0583859608543
20
3.14504550134151
30
0
41
1
10
79.9546524293148
20
2.87744706591073
30
0
41
1
10
81.7472274349236
20
2.33221394472412
30
0
41
1
10
82.6429723143966
20
2.05475606209464
30
0
41
1
10
84.4341841456189
20
1.49333575072552
30
0
41
1
10
85.3295888223684
20
1.20927892390753
30
0
41
1
10
87.1209842720621
20
0.636901517551991
30
0
41
1
10
88.0174771294872
20
0.348444380131042
30
0
41
1
10
89.809465313813
20
-0.228209949228955
30
0
41
1
10
90.7049215282094
20
-0.516315967636046
30
0
41
1
10
92.4958566288166
20
-1.08879754941606
30
0
41
1
10
93.391364618212
20
-1.37304728108217
30
0
41
1
10
94.8704774033339
20
-1.83768264961296
30
0
41
1
10
95.4539949680278
20
-2.01987371169932
30
0
41
1
10
96.0373943150474
20
-2.20036432765036
30
0
0
SPLINE
5
10B
100
AcDbEntity
8
1
62
256
6
ByLayer
370
18
48
1
60
0
100
AcDbSpline
70
4
71
3
72
8
73
4
40
0
40
0
40
0
40
0
40
1
40
1
40
1
40
1
41
1
10
187.406384786396
20
5.93101120407852
30
0
41
1
10
188.614907153238
20
6.20682346889427
30
0
41
1
10
189.824065227356
20
6.4612534574953
30
0
41
1
10
191.035002572328
20
6.69273181511937
30
0
0
SPLINE
5
10C
100
AcDbEntity
8
1
62
256
6
ByLayer
370
18
48
1
60
0
100
AcDbSpline
70
4
71
3
72
16
73
12
40
0
40
0
40
0
40
0
40
0.25
40
0.25
40
0.5
40
0.5
40
0.625
40
0.625
40
0.75
40
0.75
40
1
40
1
40
1
40
1
41
1
10
191.017676666984
20
7.12978825975347
30
0
41
1
10
191.147030783366
20
7.15186206197316
30
0
41
1
10
191.275163760005
20
7.17935422238241
30
0
41
1
10
191.520305128666
20
7.24257575258596
30
0
41
1
10
191.638314756085
20
7.27843558061269
30
0
41
1
10
191.808549792362
20
7.33788397687601
30
0
41
1
10
191.864161229037
20
7.35864534569316
30
0
41
1
10
191.973083851071
20
7.40196043702957
30
0
41
1
10
192.026597324092
20
7.42460803664207
30
0
41
1
10
192.181868616602
20
7.49431554894531
30
0
41
1
10
192.278277920392
20
7.54303015973071
30
0
41
1
10
192.367931354919
20
7.59332005855072
30
0
0
SPLINE
5
10D
100
AcDbEntity
8
1
62
256
6
ByLayer
370
13
48
1
60
0
100
AcDbSpline
70
4
71
3
72
10
73
6
40
0
40
0
40
0
40
0
40
0.0193917445135914
40
0.0193917445135914
40
1
40
1
40
1
40
1
41
1
10
209.389098484784
20
3.09597219136191
30
0
41
1
10
209.389102756551
20
3.09595287114129
30
0
41
1
10
209.389107028714
20
3.09593355103675
30
0
41
1
10
209.389327292631
20
3.09493723538779
30
0
41
1
10
209.389542155098
20
3.0939600077626
30
0
41
1
10
209.389755886889
20
3.09298255176654
30
0
0
SPLINE
5
10E
100
AcDbEntity
8
1
62
256
6
ByLayer
370
18
48
1
60
0
100
AcDbSpline
70
4
71
3
72
8
73
4
40
0
40
0
40
0
40
0
40
1
40
1
40
1
40
1
41
1
10
18.8
20
-2.39910515810561
30
0
41
1
10
18.9489726418726
20
-2.43444876876339
30
0
41
1
10
19.0930673886396
20
-2.48052528282255
30
0
41
1
10
19.2324753012413
20
-2.53675500228582
30
0
0
SPLINE
5
10F
100
AcDbEntity
8
1
62
256
6
ByLayer
370
13
48
1
60
0
100
AcDbSpline
70
4
71
3
72
8
73
4
40
0
40
0
40
0
40
0
40
1
40
1
40
1
40
1
41
1
10
209.417055177733
20
3.10224933391356
30
0
41
1
10
209.407727548199
20
3.1003600527049
30
0
41
1
10
209.398280017954
20
3.09823878985668
30
0
41
1
10
209.389098484784
20
3.09597219136191
30
0
0
SPLINE
5
110
100
AcDbEntity
8
1
62
256
6
ByLayer
370
18
48
1
60
0
100
AcDbSpline
70
4
71
3
72
14
73
10
40
0
40
0
40
0
40
0
40
0.499999999999982
40
0.499999999999982
40
0.624999999999982
40
0.624999999999982
40
0.749999999999988
40
0.749999999999988
40
1
40
1
40
1
40
1
41
1
10
192
20
4.86493442000634
30
0
41
1
10
194.07019606445
20
4.23708914993867
30
0
41
1
10
196.13785403898
20
3.55622907652938
30
0
41
1
10
198.729309993753
20
2.6638022516575
30
0
41
1
10
199.247935533867
20
2.4832327386234
30
0
41
1
10
200.286071207629
20
2.11847847312828
30
0
41
1
10
200.805828551183
20
1.93414702936593
30
0
41
1
10
202.363369619575
20
1.37854081141381
30
0
41
1
10
203.400220387555
20
1.00407494798745
30
0
41
1
10
204.436395520391
20
0.627861995964025
30
0
0
SPLINE
5
111
100
AcDbEntity
8
1
62
256
6
ByLayer
370
18
48
1
60
0
100
AcDbSpline
70
4
71
3
72
8
73
4
40
0
40
0
40
0
40
0
40
1
40
1
40
1
40
1
41
1
10
13.7271777641003
20
-2.89163581674683
30
0
41
1
10
13.7577565630492
20
-2.88194286863916
30
0
41
1
10
13.7883414297656
20
-2.87229480820596
30
0
41
1
10
13.8189321982923
20
-2.86269154691726
30
0
0
SPLINE
5
112
100
AcDbEntity
8
1
62
256
6
ByLayer
370
18
48
1
60
0
100
AcDbSpline
70
4
71
3
72
50
73
46
40
0
40
0
40
0
40
0
40
0.01897816201819
40
0.01897816201819
40
0.0581892349773634
40
0.0581892349773634
40
0.0974003079365368
40
0.0974003079365368
40
0.175822453854884
40
0.175822453854884
40
0.215033526814056
40
0.215033526814056
40
0.254244599773229
40
0.254244599773229
40
0.293455672732402
40
0.293455672732402
40
0.332666745691575
40
0.332666745691575
40
0.411088891609921
40
0.411088891609921
40
0.489511037528267
40
0.489511037528267
40
0.52872211048744
40
0.52872211048744
40
0.567933183446613
40
0.567933183446613
40
0.607144256405787
40
0.607144256405787
40
0.64635532936496
40
0.64635532936496
40
0.724777475283306
40
0.724777475283306
40
0.763988548242479
40
0.763988548242479
40
0.803199621201653
40
0.803199621201653
40
0.842410694160826
40
0.842410694160826
40
0.881621767119999
40
0.881621767119999
40
0.960043913038346
40
0.960043913038346
40
0.99925498599752
40
0.99925498599752
40
1
40
1
40
1
40
1
41
1
10
108.35146247972
20
-6.00049110227616
30
0
41
1
10
107.918332080136
20
-6.08737419356476
30
0
41
1
10
107.485254169605
20
-6.17148743039883
30
0
41
1
10
106.157376344371
20
-6.42051860199371
30
0
41
1
10
105.262557302966
20
-6.57591941401174
30
0
41
1
10
103.471925718205
20
-6.86052736639803
30
0
41
1
10
102.575930546444
20
-6.98973827491872
30
0
41
1
10
99.8904194857291
20
-7.33580009223908
30
0
41
1
10
98.1017567731246
20
-7.51096753004103
30
0
41
1
10
95.4154461013359
20
-7.6832492063273
30
0
41
1
10
94.519642584059
20
-7.7255461135056
30
0
41
1
10
92.7295200383392
20
-7.77973248026481
30
0
41
1
10
91.8347651257508
20
-7.79165059108942
30
0
41
1
10
90.0449985557075
20
-7.78536229025846
30
0
41
1
10
89.1499991926468
20
-7.76715424828848
30
0
41
1
10
87.358788318791
20
-7.70005043582219
30
0
41
1
10
86.4633304022751
20
-7.65131179760212
30
0
41
1
10
83.7785279495935
20
-7.46027203504798
30
0
41
1
10
81.9894893754553
20
-7.27286767191424
30
0
41
1
10
78.4064869221728
20
-6.78817877968822
30
0
41
1
10
76.6177253666442
20
-6.49108387218283
30
0
41
1
10
73.9328849890647
20
-5.9720914808849
30
0
41
1
10
73.0373050210135
20
-5.78681392737855
30
0
41
1
10
71.246171713744
20
-5.39444379507944
30
0
41
1
10
70.3511773223214
20
-5.18748813813429
30
0
41
1
10
68.5614565090333
20
-4.75433989601694
30
0
41
1
10
67.6667429984099
20
-4.52812091627254
30
0
41
1
10
65.8766411672762
20
-4.05843132296499
30
0
41
1
10
64.980808134575
20
-3.81490644979564
30
0
41
1
10
62.2946893255003
20
-3.0636247618844
30
0
41
1
10
60.5059682791979
20
-2.53536743426125
30
0
41
1
10
57.8204206116983
20
-1.71904770856926
30
0
41
1
10
56.9244639687865
20
-1.44275925003214
30
0
41
1
10
55.1340291139761
20
-0.885918144972919
30
0
41
1
10
54.2392867576559
20
-0.605303808976402
30
0
41
1
10
52.4497635856274
20
-0.0428257410372055
30
0
41
1
10
51.5549751153222
20
0.23901659274236
30
0
41
1
10
49.7643931136423
20
0.800850360568631
30
0
41
1
10
48.8684402054566
20
1.08088496303529
30
0
41
1
10
46.1830564972256
20
1.91245542371607
30
0
41
1
10
44.3944572848903
20
2.45610061000471
30
0
41
1
10
41.708210117745
20
3.23717223349848
30
0
41
1
10
40.8124582913613
20
3.49166838906203
30
0
41
1
10
39.9004313914195
20
3.74327060313121
30
0
41
1
10
39.8834260106411
20
3.74795923985818
30
0
41
1
10
39.8664207354342
20
3.75264517621153
30
0
0
SPLINE
5
113
100
AcDbEntity
8
1
62
256
6
ByLayer
370
18
48
1
60
0
100
AcDbSpline
70
4
71
3
72
8
73
4
40
0
40
0
40
0
40
0
40
1
40
1
40
1
40
1
41
1
10
191.017676666984
20
7.12978825975344
30
0
41
1
10
189.540994287065
20
6.82536062968717
30
0
41
1
10
188.06669679812
20
6.48355793044922
30
0
41
1
10
186.592956376162
20
6.10704661909969
30
0
0
SPLINE
5
114
100
AcDbEntity
8
1
62
256
6
ByLayer
370
18
48
1
60
0
100
AcDbSpline
70
4
71
3
72
64
73
60
40
0
40
0
40
0
40
0
40
0.0215546241790063
40
0.0215546241790063
40
0.0490128188119484
40
0.0490128188119484
40
0.0627419161284194
40
0.0627419161284194
40
0.0764710134448904
40
0.0764710134448904
40
0.131387402710777
40
0.131387402710777
40
0.186303791976663
40
0.186303791976663
40
0.213761986609606
40
0.213761986609606
40
0.24122018124255
40
0.24122018124255
40
0.296136570508437
40
0.296136570508437
40
0.323594765141381
40
0.323594765141381
40
0.351052959774324
40
0.351052959774324
40
0.40596934904021
40
0.40596934904021
40
0.433427543673153
40
0.433427543673153
40
0.460885738306096
40
0.460885738306096
40
0.515802127571982
40
0.515802127571982
40
0.570718516837867
40
0.570718516837867
40
0.584447614154338
40
0.584447614154338
40
0.59817671147081
40
0.59817671147081
40
0.625634906103752
40
0.625634906103752
40
0.680551295369636
40
0.680551295369636
40
0.694280392686107
40
0.694280392686107
40
0.708009490002579
40
0.708009490002579
40
0.735467684635521
40
0.735467684635521
40
0.790384073901406
40
0.790384073901406
40
0.817842268534348
40
0.817842268534348
40
0.845300463167291
40
0.845300463167291
40
0.900216852433175
40
0.900216852433175
40
0.95513324169906
40
0.95513324169906
40
1
40
1
40
1
40
1
41
1
10
128.688222569895
20
-8.7999143183105
30
0
41
1
10
127.98671043251
20
-8.79975631946709
30
0
41
1
10
127.285224175697
20
-8.78901192850927
30
0
41
1
10
125.689312990069
20
-8.74054795101122
30
0
41
1
10
124.794792803641
20
-8.69635655443665
30
0
41
1
10
123.451876440735
20
-8.60459491140935
30
0
41
1
10
123.004036783859
20
-8.56976351937703
30
0
41
1
10
122.107829995879
20
-8.49163645297861
30
0
41
1
10
121.659268385511
20
-8.44831689752513
30
0
41
1
10
119.418824947223
20
-8.21109021562813
30
0
41
1
10
117.631909822592
20
-7.95476333559299
30
0
41
1
10
114.056293245933
20
-7.32526878726355
30
0
41
1
10
112.268328577219
20
-6.95155984506633
30
0
41
1
10
109.580868712456
20
-6.31020793686915
30
0
41
1
10
108.683819448487
20
-6.08296412878948
30
0
41
1
10
106.893368010553
20
-5.60653106901606
30
0
41
1
10
105.999071007256
20
-5.35718029812386
30
0
41
1
10
103.316548300234
20
-4.58151191950529
30
0
41
1
10
101.529440651295
20
-4.02594728496192
30
0
41
1
10
98.8454040608644
20
-3.14746206546334
30
0
41
1
10
97.9500198360929
20
-2.84724344853618
30
0
41
1
10
96.1567691864124
20
-2.2361262135293
30
0
41
1
10
95.2614307981247
20
-1.92614682652584
30
0
41
1
10
92.5768409466329
20
-0.989841539665747
30
0
41
1
10
90.7897438870366
20
-0.355100349016396
30
0
41
1
10
88.1078377245171
20
0.598070042491571
30
0
41
1
10
87.2135912298852
20
0.915779269034374
30
0
41
1
10
85.423030265216
20
1.54685885462575
30
0
41
1
10
84.5258553206187
20
1.86047204209848
30
0
41
1
10
81.8379057777644
20
2.78472504226141
30
0
41
1
10
80.049963062912
20
3.38139593620275
30
0
41
1
10
76.4752245987885
20
4.51732625552108
30
0
41
1
10
74.6882243681394
20
5.05580721633652
30
0
41
1
10
72.4470404841745
20
5.67295122503234
30
0
41
1
10
71.998372230709
20
5.79363819975637
30
0
41
1
10
71.1020699081947
20
6.02901321297341
30
0
41
1
10
70.6542155997121
20
6.14375053071555
30
0
41
1
10
69.3113658528311
20
6.47876091334365
30
0
41
1
10
68.4170861817273
20
6.68983599610831
30
0
41
1
10
65.7356013809131
20
7.28328994691862
30
0
41
1
10
63.9497259972649
20
7.62545800835497
30
0
41
1
10
61.7117090961319
20
7.97443865129779
30
0
41
1
10
61.2638314683627
20
8.04033803503671
30
0
41
1
10
60.3675188488948
20
8.16432589815977
30
0
41
1
10
59.9188657396095
20
8.22243129789405
30
0
41
1
10
58.5741188070585
20
8.38449510004335
30
0
41
1
10
57.6789245705206
20
8.47626205325
30
0
41
1
10
54.9957517817277
20
8.70146536526232
30
0
41
1
10
53.2101708674366
20
8.7843106450274
30
0
41
1
10
50.5270963980942
20
8.80479032232719
30
0
41
1
10
49.6320445500744
20
8.7944696281169
30
0
41
1
10
47.8400040690141
20
8.73943580030493
30
0
41
1
10
46.9426195156249
20
8.69465115861902
30
0
41
1
10
44.2564734063524
20
8.50941391622607
30
0
41
1
10
42.4703220957024
20
8.31758490275158
30
0
41
1
10
38.89457294623
20
7.80946269719655
30
0
41
1
10
37.1056012750702
20
7.49301226667495
30
0
41
1
10
33.8468250117246
20
6.81173152752385
30
0
41
1
10
32.3864206725328
20
6.46795503943738
30
0
41
1
10
30.9276793824812
20
6.09397741490494
30
0
0
SPLINE
5
115
100
AcDbEntity
8
1
62
256
6
ByLayer
370
18
48
1
60
0
100
AcDbSpline
70
4
71
3
72
29
73
25
40
0
40
0
40
0
40
0
40
0.0260730971788123
40
0.0519823629424629
40
0.0777280831193199
40
0.10331054902052
40
0.128730057570912
40
0.153986911443599
40
0.179081419198143
40
0.204013895422573
40
0.228784660879269
40
0.253394042654877
40
0.380647719693886
40
0.504366429071172
40
0.555446514630505
40
0.606177260948525
40
0.656563112742857
40
0.706608606631625
40
0.75631837242488
40
0.805697134374049
40
0.854749712374067
40
0.903481023112674
40
0.95189608116108
40
1
40
1
40
1
40
1
41
1
10
206.564171671607
20
-7.01912328086431
30
0
41
1
10
206.550750298087
20
-6.99056422978211
30
0
41
1
10
206.523991884816
20
-6.93362557962993
30
0
41
1
10
206.48456609644
20
-6.84613368829969
30
0
41
1
10
206.445823493455
20
-6.75751627912103
30
0
41
1
10
206.407805294014
20
-6.66765411643331
30
0
41
1
10
206.370500555724
20
-6.57664188594163
30
0
41
1
10
206.333912191284
20
-6.48451693435882
30
0
41
1
10
206.298039394766
20
-6.39133109905316
30
0
41
1
10
206.262882500616
20
-6.29713214892462
30
0
41
1
10
206.228440973329
20
-6.20196674771441
30
0
41
1
10
206.14775579269
20
-5.97209658766607
30
0
41
1
10
206.027569797599
20
-5.59584293780193
30
0
41
1
10
205.907227241853
20
-5.15395893771219
30
0
41
1
10
205.823873535349
20
-4.81001276439611
30
0
41
1
10
205.770227129791
20
-4.57256777807669
30
0
41
1
10
205.719574523638
20
-4.33171219847432
30
0
41
1
10
205.671915456218
20
-4.08775277789292
30
0
41
1
10
205.627248711458
20
-3.84099902832139
30
0
41
1
10
205.585579431576
20
-3.59174924087591
30
0
41
1
10
205.546888517882
20
-3.34032106225567
30
0
41
1
10
205.511246650571
20
-3.08694207053526
30
0
41
1
10
205.478392670397
20
-2.83215129558795
30
0
41
1
10
205.458930119829
20
-2.66037901993181
30
0
41
1
10
205.449230214348
20
-2.57476974522319
30
0
0
SPLINE
5
116
100
AcDbEntity
8
1
62
256
6
ByLayer
370
13
48
1
60
0
100
AcDbSpline
70
4
71
2
72
6
73
3
40
0
40
0
40
0
40
1
40
1
40
1
41
0.998206536821769
10
210.938388930976
20
0.879429409968035
30
0
41
0.924787084456079
10
209.954054067858
20
-0.3704192956137
30
0
41
1
10
209.688909372066
20
-1.72279239942148
30
0
0
SPLINE
5
117
100
AcDbEntity
8
1
62
256
6
ByLayer
370
18
48
1
60
0
100
AcDbSpline
70
4
71
3
72
8
73
4
40
0
40
0
40
0
40
0
40
1
40
1
40
1
40
1
41
1
10
200.603088344171
20
-8.67723248597966
30
0
41
1
10
200.602058887551
20
-8.6781211157265
30
0
41
1
10
200.601029439484
20
-8.67900961091473
30
0
41
1
10
200.6
20
-8.67989797150651
30
0
0
SPLINE
5
118
100
AcDbEntity
8
1
62
256
6
ByLayer
370
18
48
1
60
0
100
AcDbSpline
70
4
71
3
72
8
73
4
40
0
40
0
40
0
40
0
40
1
40
1
40
1
40
1
41
1
10
15.5088668389778
20
-7.83713387244936
30
0
41
1
10
15.5897034664616
20
-7.82829145293206
30
0
41
1
10
15.6702276761206
20
-7.82549769471242
30
0
41
1
10
15.7504106917589
20
-7.82840654329462
30
0
0
SPLINE
5
119
100
AcDbEntity
8
1
62
256
6
ByLayer
370
18
48
1
60
0
100
AcDbSpline
70
4
71
3
72
54
73
50
40
0
40
0
40
0
40
0
40
0.058288980949591
40
0.058288980949591
40
0.0974616523679004
40
0.0974616523679004
40
0.117047988077055
40
0.117047988077055
40
0.13663432378621
40
0.13663432378621
40
0.156220659495365
40
0.156220659495365
40
0.175806995204519
40
0.175806995204519
40
0.214979666622828
40
0.214979666622828
40
0.293325009459443
40
0.293325009459443
40
0.332497680877751
40
0.332497680877751
40
0.371670352296058
40
0.371670352296058
40
0.410843023714366
40
0.410843023714366
40
0.450015695132674
40
0.450015695132674
40
0.528361037969291
40
0.528361037969291
40
0.567533709387599
40
0.567533709387599
40
0.606706380805906
40
0.606706380805906
40
0.645879052224214
40
0.645879052224214
40
0.685051723642522
40
0.685051723642522
40
0.763397066479136
40
0.763397066479136
40
0.841742409315751
40
0.841742409315751
40
0.880915080734058
40
0.880915080734058
40
0.920087752152366
40
0.920087752152366
40
0.959260423570674
40
0.959260423570674
40
0.998433094988982
40
0.998433094988982
40
1
40
1
40
1
40
1
41
1
10
186.224979456539
20
-6.0165242310984
30
0
41
1
10
184.895454543114
20
-6.28512916057551
30
0
41
1
10
183.566755750402
20
-6.52602155009762
30
0
41
1
10
181.343587812241
20
-6.87728337685104
30
0
41
1
10
180.449282759708
20
-7.00441965873318
30
0
41
1
10
179.10742036187
20
-7.17325031606634
30
0
41
1
10
178.660232677803
20
-7.22587317507208
30
0
41
1
10
177.765927299484
20
-7.32385806855666
30
0
41
1
10
177.31879729633
20
-7.36883401668544
30
0
41
1
10
176.424548726746
20
-7.45343662885779
30
0
41
1
10
175.977447492567
20
-7.4931451868093
30
0
41
1
10
175.083104454617
20
-7.56440253216945
30
0
41
1
10
174.63587499314
20
-7.5963901861715
30
0
41
1
10
173.293854296126
20
-7.68133277290858
30
0
41
1
10
172.398308370425
20
-7.72329078696586
30
0
41
1
10
169.712532290951
20
-7.80373950261449
30
0
41
1
10
167.923601621941
20
-7.79707224018753
30
0
41
1
10
165.237927686459
20
-7.69815600342113
30
0
41
1
10
164.341925967166
20
-7.6501320813874
30
0
41
1
10
162.551334862655
20
-7.5240999272217
30
0
41
1
10
161.656522820375
20
-7.44622920916802
30
0
41
1
10
159.866876968201
20
-7.26146734640793
30
0
41
1
10
158.972036037246
20
-7.1545382047986
30
0
41
1
10
157.181373264352
20
-6.91309868850382
30
0
41
1
10
156.285346671616
20
-6.77853428046669
30
0
41
1
10
153.599735307201
20
-6.33663170513867
30
0
41
1
10
151.811024260057
20
-5.990314092012
30
0
41
1
10
149.124662936855
20
-5.4035298252054
30
0
41
1
10
148.228811390907
20
-5.19676760632251
30
0
41
1
10
146.438611871194
20
-4.76421401419086
30
0
41
1
10
145.543822705587
20
-4.53832687261502
30
0
41
1
10
143.754000224598
20
-4.06975622287467
30
0
41
1
10
142.858977076738
20
-3.82702926165601
30
0
41
1
10
141.067728797653
20
-3.32698247552975
30
0
41
1
10
140.172209317778
20
-3.06991332972527
30
0
41
1
10
137.48729000663
20
-2.2826153075161
30
0
41
1
10
135.698248483131
20
-1.7361035492232
30
0
41
1
10
132.115070693347
20
-0.623097670466393
30
0
41
1
10
130.326239469858
20
-0.0578594230573799
30
0
41
1
10
127.641317462874
20
0.78453714968137
30
0
41
1
10
126.7457300227
20
1.06447839544535
30
0
41
1
10
124.954502571009
20
1.61899512194179
30
0
41
1
10
124.059465480607
20
1.89337760425218
30
0
41
1
10
122.269672046295
20
2.43378994773246
30
0
41
1
10
121.374927018279
20
2.69984914600877
30
0
41
1
10
119.584772514664
20
3.22054748170251
30
0
41
1
10
118.688921110178
20
3.47536635014802
30
0
41
1
10
117.757685543229
20
3.73257345819795
30
0
41
1
10
117.721869648187
20
3.74245384971337
30
0
41
1
10
117.686054540853
20
3.75232199314863
30
0
0
SPLINE
5
11A
100
AcDbEntity
8
1
62
256
6
ByLayer
370
18
48
1
60
0
100
AcDbSpline
70
4
71
3
72
12
73
8
40
0
40
0
40
0
40
0
40
0.27523229492285
40
0.27523229492285
40
0.637616147461425
40
0.637616147461425
40
1
40
1
40
1
40
1
41
1
10
30.5699809826123
20
-5.99548520571014
30
0
41
1
10
29.2105268398018
20
-6.26911874886298
30
0
41
1
10
27.8509390150996
20
-6.51610363964875
30
0
41
1
10
24.6979232652192
20
-7.02305652601677
30
0
41
1
10
22.9089268087327
20
-7.26237001995773
30
0
41
1
10
19.3312780250752
20
-7.63193544939577
30
0
41
1
10
17.5425425142218
20
-7.76089283002173
30
0
41
1
10
15.7504106917526
20
-7.82840654329488
30
0
0
SPLINE
5
11B
100
AcDbEntity
8
1
62
256
6
ByLayer
370
18
48
1
60
0
100
AcDbSpline
70
4
71
3
72
14
73
10
40
0
40
0
40
0
40
0
40
0.499999999999992
40
0.499999999999992
40
0.749999999999996
40
0.749999999999996
40
0.874999999999998
40
0.874999999999998
40
1
40
1
40
1
40
1
41
1
10
211.036621143602
20
-3.33462311121696
30
0
41
1
10
210.855076133254
20
-3.83645143457724
30
0
41
1
10
210.676369933403
20
-4.34134369922035
30
0
41
1
10
210.412863926011
20
-5.10359648568749
30
0
41
1
10
210.325794584636
20
-5.35850748916084
30
0
41
1
10
210.196461595674
20
-5.7422458154756
30
0
41
1
10
210.153510648318
20
-5.87054943436138
30
0
41
1
10
210.068757961979
20
-6.12554947678055
30
0
41
1
10
210.026878115256
20
-6.25247531084975
30
0
41
1
10
209.985517673744
20
-6.37880046430141
30
0
0
SPLINE
5
11C
100
AcDbEntity
8
1
62
256
6
ByLayer
370
18
48
1
60
0
100
AcDbSpline
70
4
71
3
72
8
73
4
40
0
40
0
40
0
40
0
40
1
40
1
40
1
40
1
41
1
10
17
20
-2.36128451317379
30
0
41
1
10
17.1255461397235
20
-2.37292418537058
30
0
41
1
10
17.250616591163
20
-2.38718315320162
30
0
41
1
10
17.3752119406272
20
-2.40406792220222
30
0
0
SPLINE
5
11D
100
AcDbEntity
8
1
62
256
6
ByLayer
370
13
48
1
60
0
100
AcDbSpline
70
4
71
3
72
8
73
4
40
0
40
0
40
0
40
0
40
1
40
1
40
1
40
1
41
1
10
211.008963759662
20
0.903816353286174
30
0
41
1
10
210.992439691787
20
0.895930893769105
30
0
41
1
10
210.975268088192
20
0.881480613208481
30
0
41
1
10
210.961211757974
20
0.863631997876894
30
0
0
SPLINE
5
11E
100
AcDbEntity
8
1
62
256
6
ByLayer
370
13
48
1
60
0
100
AcDbSpline
70
4
71
3
72
8
73
4
40
0
40
0
40
0
40
0
40
1
40
1
40
1
40
1
41
1
10
210.986138731938
20
0.91920083889741
30
0
41
1
10
210.969624697795
20
0.91135033974237
30
0
41
1
10
210.952471797631
20
0.8970634665815
30
0
41
1
10
210.938388930976
20
0.879429409968139
30
0
0
SPLINE
5
11F
100
AcDbEntity
8
1
62
256
6
ByLayer
370
18
48
1
60
0
100
AcDbSpline
70
4
71
3
72
8
73
4
40
0
40
0
40
0
40
0
40
1
40
1
40
1
40
1
41
1
10
209.985517678819
20
-6.37880046525399
30
0
41
1
10
209.754607951241
20
-7.08405664025312
30
0
41
1
10
209.520241080946
20
-7.79294650048828
30
0
41
1
10
209.282309331657
20
-8.50558329148595
30
0
0
SPLINE
5
120
100
AcDbEntity
8
1
62
256
6
ByLayer
370
18
48
1
60
0
100
AcDbSpline
70
4
71
3
72
12
73
8
40
0
40
0
40
0
40
0
40
0.5
40
0.5
40
0.75
40
0.75
40
1
40
1
40
1
40
1
41
1
10
191.160393684495
20
6.71661887371781
30
0
41
1
10
191.362978868276
20
6.75564622082328
30
0
41
1
10
191.555129147204
20
6.82424204033896
30
0
41
1
10
191.828179367031
20
6.97005409361148
30
0
41
1
10
191.916847902173
20
7.02609646717431
30
0
41
1
10
192.084764390091
20
7.14907047274332
30
0
41
1
10
192.164614223564
20
7.21626514898639
30
0
41
1
10
192.240610723306
20
7.28869894506735
30
0
0
SPLINE
5
121
100
AcDbEntity
8
1
62
256
6
ByLayer
370
18
48
1
60
0
100
AcDbSpline
70
4
71
3
72
8
73
4
40
0
40
0
40
0
40
0
40
1
40
1
40
1
40
1
41
1
10
211.984115930127
20
0.0697841041737206
30
0
41
1
10
211.972481805753
20
0.108938074093231
30
0
41
1
10
211.960903567407
20
0.147984915675238
30
0
41
1
10
211.949380840628
20
0.186925346730391
30
0
0
SPLINE
5
122
100
AcDbEntity
8
1
62
256
6
ByLayer
370
13
48
1
60
0
100
AcDbSpline
70
4
71
3
72
10
73
6
40
0
40
0
40
0
40
0
40
0.001820533551735
40
0.001820533551735
40
1
40
1
40
1
40
1
41
1
10
211.008963759661
20
0.903816353286658
30
0
41
1
10
211.008949858918
20
0.903825625901305
30
0
41
1
10
211.008935958102
20
0.903834898550343
30
0
41
1
10
211.001300479342
20
0.908928352670074
30
0
41
1
10
210.993705734009
20
0.914047099540454
30
0
41
1
10
210.986138731939
20
0.919200838896757
30
0
0
SPLINE
5
123
100
AcDbEntity
8
1
62
256
6
ByLayer
370
18
48
1
60
0
100
AcDbSpline
70
4
71
3
72
8
73
4
40
0
40
0
40
0
40
0
40
1
40
1
40
1
40
1
41
1
10
200.7
20
-8.7490803012096
30
0
41
1
10
200.883443343123
20
-8.82431410312191
30
0
41
1
10
201.066602407828
20
-8.8984662213233
30
0
41
1
10
201.249495483891
20
-8.97148617164305
30
0
0
SPLINE
5
124
100
AcDbEntity
8
1
62
256
6
ByLayer
370
18
48
1
60
0
100
AcDbSpline
70
4
71
3
72
12
73
8
40
0
40
0
40
0
40
0
40
0.294080502258813
40
0.294080502258813
40
0.588161004517626
40
0.588161004517626
40
1
40
1
40
1
40
1
41
1
10
201.249495483866
20
-8.8826095978101
30
0
41
1
10
201.906723725325
20
-8.93170017853831
30
0
41
1
10
202.564652149127
20
-8.9652804510568
30
0
41
1
10
203.880218245999
20
-9.00192357483286
30
0
41
1
10
204.537668801944
20
-9.00491304505718
30
0
41
1
10
206.115888447378
20
-8.97495900332729
30
0
41
1
10
207.037340202865
20
-8.92744052576123
30
0
41
1
10
207.958340959625
20
-8.85000985203786
30
0
0
SPLINE
5
125
100
AcDbEntity
8
1
62
256
6
ByLayer
370
18
48
1
60
0
100
AcDbSpline
70
4
71
3
72
8
73
4
40
0
40
0
40
0
40
0
40
1
40
1
40
1
40
1
41
1
10
209.072295060764
20
-8.74174691210828
30
0
41
1
10
209.095175807501
20
-8.73922292778079
30
0
41
1
10
209.118055987236
20
-8.73668049234277
30
0
41
1
10
209.140935582196
20
-8.7341196078043
30
0
0
SPLINE
5
126
100
AcDbEntity
8
1
62
256
6
ByLayer
370
18
48
1
60
0
100
AcDbSpline
70
4
71
3
72
8
73
4
40
0
40
0
40
0
40
0
40
1
40
1
40
1
40
1
41
1
10
207.761081748271
20
-8.2157303594087
30
0
41
1
10
205.707387831645
20
-8.21575808215641
30
0
41
1
10
203.653693916248
20
-8.21580137036855
30
0
41
1
10
201.6
20
-8.21570242445657
30
0
0
SPLINE
5
127
100
AcDbEntity
8
1
62
256
6
ByLayer
370
18
48
1
60
0
100
AcDbSpline
70
4
71
3
72
12
73
8
40
0
40
0
40
0
40
0
40
0.25
40
0.25
40
0.5
40
0.5
40
1
40
1
40
1
40
1
41
1
10
200.605029296834
20
8.0113023948027
30
0
41
1
10
199.971146394389
20
7.9886375135481
30
0
41
1
10
199.337089134622
20
7.95674237363252
30
0
41
1
10
198.070054800159
20
7.87330330591192
30
0
41
1
10
197.437306347888
20
7.82175637358225
30
0
41
1
10
195.540448653448
20
7.63655135547967
30
0
41
1
10
194.27763822554
20
7.47277159651114
30
0
41
1
10
193.0136905098
20
7.27124190825529
30
0
0
SPLINE
5
128
100
AcDbEntity
8
1
62
256
6
ByLayer
370
18
48
1
60
0
100
AcDbSpline
70
4
71
2
72
6
73
3
40
0
40
0
40
0
40
1
40
1
40
1
41
1
10
204.570951124518
20
0.627027565858441
30
0
41
1
10
204.663911847851
20
0.269843837447723
30
0
41
1
10
204.767858347998
20
-0.0881238896320724
30
0
0
SPLINE
5
129
100
AcDbEntity
8
1
62
256
6
ByLayer
370
18
48
1
60
0
100
AcDbSpline
70
4
71
3
72
24
73
20
40
0
40
0
40
0
40
0
40
0.249999999999997
40
0.249999999999997
40
0.3125
40
0.3125
40
0.375000000000003
40
0.375000000000003
40
0.500000000000002
40
0.500000000000002
40
0.562500000000002
40
0.562500000000002
40
0.625000000000002
40
0.625000000000002
40
0.750000000000001
40
0.750000000000001
40
0.875000000000001
40
0.875000000000001
40
1
40
1
40
1
40
1
41
1
10
23.15218128243
20
-1.55546102284475
30
0
41
1
10
22.8456509586743
20
-1.41191660938699
30
0
41
1
10
22.5668075784273
20
-1.22895836116274
30
0
41
1
10
22.2513144807795
20
-0.95191828884478
30
0
41
1
10
22.1896808354112
20
-0.893813995273547
30
0
41
1
10
22.0710230798348
20
-0.773667546560688
30
0
41
1
10
22.0141359384987
20
-0.711801930925901
30
0
41
1
10
21.8506187703125
20
-0.520944040989519
30
0
41
1
10
21.7510966872405
20
-0.386717355599501
30
0
41
1
10
21.6160112525216
20
-0.174858269466597
30
0
41
1
10
21.5733581489013
20
-0.102478746495081
30
0
41
1
10
21.4929106168142
20
0.0458899546200939
30
0
41
1
10
21.45500346237
20
0.122170877492039
30
0
41
1
10
21.3504781070188
20
0.352819541962674
30
0
41
1
10
21.2924572553403
20
0.509820215180497
30
0
41
1
10
21.1989984994119
20
0.829986956630222
30
0
41
1
10
21.1635609163927
20
0.993153479919954
30
0
41
1
10
21.1158751071564
20
1.325745950791
30
0
41
1
10
21.1039999998996
20
1.49310176736998
30
0
41
1
10
21.1039999998999
20
1.65989996650853
30
0
0
SPLINE
5
12A
100
AcDbEntity
8
1
62
256
6
ByLayer
370
18
48
1
60
0
100
AcDbSpline
70
4
71
3
72
8
73
4
40
0
40
0
40
0
40
0
40
1
40
1
40
1
40
1
41
1
10
191.035002572327
20
6.69273181511923
30
0
41
1
10
191.029021454756
20
6.83962145673644
30
0
41
1
10
191.023207842556
20
6.98529886010914
30
0
41
1
10
191.017676666984
20
7.12978825975347
30
0
0
SPLINE
5
12B
100
AcDbEntity
8
1
62
256
6
ByLayer
370
13
48
1
60
0
100
AcDbSpline
70
4
71
3
72
8
73
4
40
0
40
0
40
0
40
0
40
1
40
1
40
1
40
1
41
1
10
209.417726116075
20
3.0991990845566
30
0
41
1
10
209.417503603349
20
3.10021606195545
30
0
41
1
10
209.417279957206
20
3.10123281303561
30
0
41
1
10
209.417055177728
20
3.10224933391257
30
0
0
SPLINE
5
12C
100
AcDbEntity
8
1
62
256
6
ByLayer
370
18
48
1
60
0
100
AcDbSpline
70
4
71
3
72
8
73
4
40
0
40
0
40
0
40
0
40
1
40
1
40
1
40
1
41
1
10
208.952697472392
20
8.844617961794
30
0
41
1
10
208.9850443513
20
8.83241701447997
30
0
41
1
10
209.024236217892
20
8.79979868036349
30
0
41
1
10
209.070234336425
20
8.74687850130957
30
0
0
SPLINE
5
12D
100
AcDbEntity
8
1
62
256
6
ByLayer
370
18
48
1
60
0
100
AcDbSpline
70
4
71
3
72
8
73
4
40
0
40
0
40
0
40
0
40
1
40
1
40
1
40
1
41
1
10
200.7
20
-8.33306666239986
30
0
41
1
10
200.666666666667
20
-8.3649941208765
30
0
41
1
10
200.633333333333
20
-8.39692157935312
30
0
41
1
10
200.6
20
-8.42884903782974
30
0
0
SPLINE
5
12E
100
AcDbEntity
8
1
62
256
6
ByLayer
370
18
48
1
60
0
100
AcDbSpline
70
4
71
3
72
10
73
6
40
0
40
0
40
0
40
0
40
0.5
40
0.5
40
1
40
1
40
1
40
1
41
1
10
210.816423407375
20
-2.49492366758904
30
0
41
1
10
210.944134105825
20
-2.35129212408086
30
0
41
1
10
211.07096069002
20
-2.183092618372
30
0
41
1
10
211.322259859777
20
-1.78128017309348
30
0
41
1
10
211.439606124905
20
-1.55875268478286
30
0
41
1
10
211.54768200958
20
-1.31282660197138
30
0
0
SPLINE
5
12F
100
AcDbEntity
8
1
62
256
6
ByLayer
370
18
48
1
60
0
100
AcDbSpline
70
4
71
3
72
8
73
4
40
0
40
0
40
0
40
0
40
1
40
1
40
1
40
1
41
1
10
18.8
20
8.45316245027479
30
0
41
1
10
18.2007624996658
20
8.45769871669629
30
0
41
1
10
17.6008813746773
20
8.45085566218009
30
0
41
1
10
17
20
8.43291956548185
30
0
0
SPLINE
5
130
100
AcDbEntity
8
1
62
256
6
ByLayer
370
13
48
1
60
0
100
AcDbSpline
70
4
71
3
72
8
73
4
40
0
40
0
40
0
40
0
40
1
40
1
40
1
40
1
41
1
10
209.417726116075
20
3.0991990845566
30
0
41
1
10
209.408393911531
20
3.09733029068357
30
0
41
1
10
209.39894180511
20
3.09522950955983
30
0
41
1
10
209.389755886889
20
3.09298255176654
30
0
0
SPLINE
5
131
100
AcDbEntity
8
1
62
256
6
ByLayer
370
18
48
1
60
0
100
AcDbSpline
70
4
71
3
72
8
73
4
40
0
40
0
40
0
40
0
40
1
40
1
40
1
40
1
41
1
10
209.41499837474
20
3.11155081999414
30
0
41
1
10
209.405124050042
20
3.11074035395723
30
0
41
1
10
209.395849668559
20
3.10654713325619
30
0
41
1
10
209.388131972075
20
3.1003430545569
30
0
0
SPLINE
5
132
100
AcDbEntity
8
1
62
256
6
ByLayer
370
18
48
1
60
0
100
AcDbSpline
70
4
71
3
72
41
73
37
40
0
40
0
40
0
40
0
40
0.0625000000000085
40
0.0625000000000085
40
0.125000000000017
40
0.125000000000017
40
0.187500000000025
40
0.187500000000025
40
0.250000000000034
40
0.250000000000034
40
0.312500000000042
40
0.312500000000042
40
0.375000000000051
40
0.375000000000051
40
0.437500000000059
40
0.437500000000059
40
0.468750000000059
40
0.468750000000059
40
0.500000000000059
40
0.531250000000059
40
0.531250000000059
40
0.562500000000059
40
0.562500000000059
40
0.62500000000005
40
0.62500000000005
40
0.687500000000042
40
0.687500000000042
40
0.750000000000034
40
0.750000000000034
40
0.812500000000025
40
0.812500000000025
40
0.875000000000017
40
0.875000000000017
40
0.937500000000008
40
0.937500000000008
40
1
40
1
40
1
40
1
41
1
10
204.613642237912
20
-0.102624946528891
30
0
41
1
10
204.528940993672
20
-0.10243489537973
30
0
41
1
10
204.445606201371
20
-0.110311222514923
30
0
41
1
10
204.281505343305
20
-0.141225538898027
30
0
41
1
10
204.200056622053
20
-0.164549386348
30
0
41
1
10
204.043162645044
20
-0.225819003442808
30
0
41
1
10
203.968491779027
20
-0.263297625807411
30
0
41
1
10
203.826584102611
20
-0.351711184357839
30
0
41
1
10
203.758713743726
20
-0.403323062894344
30
0
41
1
10
203.635616722708
20
-0.516990488117273
30
0
41
1
10
203.580025135986
20
-0.579049953073053
30
0
41
1
10
203.481154259608
20
-0.713928176675012
30
0
41
1
10
203.437813124942
20
-0.787331894465382
30
0
41
1
10
203.368330015095
20
-0.938572477324755
30
0
41
1
10
203.341523942626
20
-1.01712592719011
30
0
41
1
10
203.313939025576
20
-1.13959069252124
30
0
41
1
10
203.306905058445
20
-1.18118697154199
30
0
41
1
10
203.297501024593
20
-1.26380516447782
30
0
41
1
10
203.292621987625
20
-1.34638476427475
30
0
41
1
10
203.296684778109
20
-1.42888531953454
30
0
41
1
10
203.305296144514
20
-1.51134686871174
30
0
41
1
10
203.311941321568
20
-1.55277931253411
30
0
41
1
10
203.338331279224
20
-1.67429932660531
30
0
41
1
10
203.364430330458
20
-1.75225624409529
30
0
41
1
10
203.433013642583
20
-1.90235494392729
30
0
41
1
10
203.475702653652
20
-1.97434541821059
30
0
41
1
10
203.573470253402
20
-2.10657513068168
30
0
41
1
10
203.62917642877
20
-2.16794374823215
30
0
41
1
10
203.752599796223
20
-2.27971493691029
30
0
41
1
10
203.8189568811
20
-2.32899111515977
30
0
41
1
10
203.960494703856
20
-2.41515319275814
30
0
41
1
10
204.036496176709
20
-2.45227661602243
30
0
41
1
10
204.192507084221
20
-2.51160230915929
30
0
41
1
10
204.27267155871
20
-2.53409425010807
30
0
41
1
10
204.437349793294
20
-2.56473516976766
30
0
41
1
10
204.522140930896
20
-2.5727796869343
30
0
41
1
10
204.606858788672
20
-2.57296138290408
30
0
0
SPLINE
5
133
100
AcDbEntity
8
1
62
256
6
ByLayer
370
18
48
1
60
0
100
AcDbSpline
70
4
71
1
72
4
73
2
40
0
40
0
40
1
40
1
41
1
10
204.767858349737
20
-0.0881239004851295
30
0
41
1
10
204.633560291219
20
-0.102669686859343
30
0
0
SPLINE
5
134
100
AcDbEntity
8
1
62
256
6
ByLayer
370
18
48
1
60
0
100
AcDbSpline
70
4
71
3
72
8
73
4
40
0
40
0
40
0
40
0
40
1
40
1
40
1
40
1
41
1
10
200.827665800809
20
-8.48431034364134
30
0
41
1
10
200.834057412746
20
-8.5065403653231
30
0
41
1
10
200.837318327292
20
-8.52792329425975
30
0
41
1
10
200.837318327291
20
-8.54842403526848
30
0
0
SPLINE
5
135
100
AcDbEntity
8
1
62
256
6
ByLayer
370
18
48
1
60
0
100
AcDbSpline
70
4
71
3
72
18
73
14
40
0
40
0
40
0
40
0
40
0.124999999999995
40
0.124999999999995
40
0.249999999999989
40
0.249999999999989
40
0.499999999999978
40
0.499999999999978
40
0.624999999999973
40
0.624999999999973
40
0.749999999999967
40
0.749999999999967
40
1
40
1
40
1
40
1
41
1
10
207.504905217053
20
1.31542383300922
30
0
41
1
10
207.563080420728
20
1.38265440288066
30
0
41
1
10
207.624484822043
20
1.45168562746002
30
0
41
1
10
207.75375330717
20
1.59324240582495
30
0
41
1
10
207.821704137148
20
1.66584172604024
30
0
41
1
10
208.031797620562
20
1.88501469727666
30
0
41
1
10
208.181196575496
20
2.03415057229393
30
0
41
1
10
208.418891670919
20
2.26115123661063
30
0
41
1
10
208.500387853
20
2.33737081406017
30
0
41
1
10
208.66798758423
20
2.49065158921542
30
0
41
1
10
208.753834835384
20
2.56743112961067
30
0
41
1
10
209.015045976021
20
2.79548083384191
30
0
41
1
10
209.195372350549
20
2.94503106228279
30
0
41
1
10
209.379867456426
20
3.09369156742932
30
0
0
SPLINE
5
136
100
AcDbEntity
8
1
62
256
6
ByLayer
370
18
48
1
60
0
100
AcDbSpline
70
4
71
3
72
14
73
10
40
0
40
0
40
0
40
0
40
0.249999999999999
40
0.249999999999999
40
0.5
40
0.5
40
0.75
40
0.75
40
1
40
1
40
1
40
1
41
1
10
211.789758723394
20
-0.848067372405637
30
0
41
1
10
211.758836679705
20
-0.978756233739745
30
0
41
1
10
211.720565943828
20
-1.12755194037862
30
0
41
1
10
211.630858351736
20
-1.45540394263835
30
0
41
1
10
211.579424122189
20
-1.63445052010368
30
0
41
1
10
211.465454420796
20
-2.01561511295336
30
0
41
1
10
211.402922020991
20
-2.21772285409017
30
0
41
1
10
211.269266161121
20
-2.6368960539732
30
0
41
1
10
211.198147576971
20
-2.85394642073626
30
0
41
1
10
211.124158475552
20
-3.07412609122232
30
0
0
SPLINE
5
137
100
AcDbEntity
8
1
62
256
6
ByLayer
370
18
48
1
60
0
100
AcDbSpline
70
4
71
3
72
8
73
4
40
0
40
0
40
0
40
0
40
1
40
1
40
1
40
1
41
1
10
18.8
20
-8.45316245027479
30
0
41
1
10
19.5685754312583
20
-8.37730291550844
30
0
41
1
10
20.3364349826766
20
-8.28921646774947
30
0
41
1
10
21.104000000043
20
-8.18926915368914
30
0
0
SPLINE
5
138
100
AcDbEntity
8
1
62
256
6
ByLayer
370
18
48
1
60
0
100
AcDbSpline
70
4
71
3
72
42
73
38
40
0
40
0
40
0
40
0
40
0.0491908100820915
40
0.0491908100820915
40
0.098381620164183
40
0.098381620164183
40
0.147572430246274
40
0.147572430246274
40
0.196763240328366
40
0.196763240328366
40
0.29514486049255
40
0.29514486049255
40
0.344335670574642
40
0.344335670574642
40
0.393526480656733
40
0.393526480656733
40
0.442717290738825
40
0.442717290738825
40
0.491908100820916
40
0.491908100820916
40
0.541098910903008
40
0.541098910903008
40
0.590289720985099
40
0.590289720985099
40
0.639480531067191
40
0.639480531067191
40
0.688671341149282
40
0.688671341149282
40
0.787052961313463
40
0.787052961313463
40
0.836243771395555
40
0.836243771395555
40
0.885434581477646
40
0.885434581477646
40
0.983816201641829
40
0.983816201641829
40
1
40
1
40
1
40
1
41
1
10
186.914565355411
20
-4.35763601756503
30
0
41
1
10
186.064090428441
20
-4.09547384340982
30
0
41
1
10
185.213782315184
20
-3.82552165772387
30
0
41
1
10
183.512177683273
20
-3.27338051782641
30
0
41
1
10
182.661920764148
20
-2.99153806246511
30
0
41
1
10
180.965182549609
20
-2.42001881402837
30
0
41
1
10
180.118213858758
20
-2.13001321295229
30
0
41
1
10
178.427102151551
20
-1.54143598857036
30
0
41
1
10
177.582831164361
20
-1.24323157288541
30
0
41
1
10
175.051642724661
20
-0.343287943877272
30
0
41
1
10
173.366164798129
20
0.263253291077945
30
0
41
1
10
170.832316032906
20
1.15807791374178
30
0
41
1
10
169.986740421505
20
1.45379276713717
30
0
41
1
10
168.293752032105
20
2.04033621883033
30
0
41
1
10
167.446364368852
20
2.33123825015773
30
0
41
1
10
165.748796889213
20
2.90539777476593
30
0
41
1
10
164.897703534168
20
3.18894412410666
30
0
41
1
10
163.196902289887
20
3.74323458685075
30
0
41
1
10
162.347228163681
20
4.01391648774319
30
0
41
1
10
160.648323216972
20
4.5398732827345
30
0
41
1
10
159.799067595921
20
4.79510550540399
30
0
41
1
10
158.100669569928
20
5.28930675801541
30
0
41
1
10
157.251660921657
20
5.52855830948243
30
0
41
1
10
155.552625948375
20
5.98786031435077
30
0
41
1
10
154.702379735588
20
6.20790650224535
30
0
41
1
10
153.00417891993
20
6.62395172437783
30
0
41
1
10
152.155593448851
20
6.82008062637993
30
0
41
1
10
149.609090531852
20
7.36921393844855
30
0
41
1
10
147.91003595112
20
7.68270796437344
30
0
41
1
10
145.357284126922
20
8.07180529890957
30
0
41
1
10
144.506857501648
20
8.18757479257903
30
0
41
1
10
142.808378641797
20
8.38974105315734
30
0
41
1
10
141.959914682775
20
8.47617942537818
30
0
41
1
10
139.41512343813
20
8.69041507059239
30
0
41
1
10
137.719219055037
20
8.77338383560479
30
0
41
1
10
135.743062477806
20
8.79807659704204
30
0
41
1
10
135.463863072683
20
8.79987972610485
30
0
41
1
10
135.184593321763
20
8.79998949806031
30
0
0
SPLINE
5
139
100
AcDbEntity
8
1
62
256
6
ByLayer
370
18
48
1
60
0
100
AcDbSpline
70
4
71
3
72
34
73
30
40
0
40
0
40
0
40
0
40
0.0258163435643958
40
0.0258163435643958
40
0.0867028220916212
40
0.0867028220916212
40
0.147589300618846
40
0.147589300618846
40
0.208475779146071
40
0.208475779146071
40
0.269362257673296
40
0.269362257673296
40
0.330248736200521
40
0.330248736200521
40
0.391135214727746
40
0.391135214727746
40
0.452021693254971
40
0.452021693254971
40
0.512908171782196
40
0.512908171782196
40
0.634681128836646
40
0.634681128836646
40
0.695567607363871
40
0.695567607363871
40
0.756454085891097
40
0.756454085891097
40
0.878227042945548
40
0.878227042945548
40
1
40
1
40
1
40
1
41
1
10
65.8023575052329
20
-8.29576081025255
30
0
41
1
10
65.4429652705103
20
-8.33848606528991
30
0
41
1
10
65.0835205772634
20
-8.37851932117474
30
0
41
1
10
63.875978316492
20
-8.50377012072983
30
0
41
1
10
63.0273678151516
20
-8.57664019345333
30
0
41
1
10
61.3290497588412
20
-8.69252108513581
30
0
41
1
10
60.4793284946029
20
-8.73547059296035
30
0
41
1
10
58.777733554707
20
-8.79063829178023
30
0
41
1
10
57.9273123775394
20
-8.80278276775593
30
0
41
1
10
56.2287752903003
20
-8.79614746853451
30
0
41
1
10
55.3802050227915
20
-8.77739601126444
30
0
41
1
10
53.6835092015585
20
-8.70939247596337
30
0
41
1
10
52.8353538282004
20
-8.66018659204494
30
0
41
1
10
51.1392431257234
20
-8.53123553746565
30
0
41
1
10
50.2913847365188
20
-8.45137300548612
30
0
41
1
10
48.5946354700918
20
-8.26128439701193
30
0
41
1
10
47.7455234381327
20
-8.15102074742907
30
0
41
1
10
46.0455130773999
20
-7.90164313401996
30
0
41
1
10
45.1965778842731
20
-7.76286707935265
30
0
41
1
10
42.6507578555777
20
-7.30797035389517
30
0
41
1
10
40.9545434172906
20
-6.95412488903216
30
0
41
1
10
38.4095243839006
20
-6.35227256840156
30
0
41
1
10
37.5609685508802
20
-6.13991367568977
30
0
41
1
10
35.8622602617003
20
-5.6938904196723
30
0
41
1
10
35.0113686086961
20
-5.46006113767152
30
0
41
1
10
32.4599197144569
20
-4.73200530157197
30
0
41
1
10
30.7629591166707
20
-4.21241366445653
30
0
41
1
10
27.3730682450213
20
-3.11434028668913
30
0
41
1
10
25.6800760703058
20
-2.53568338458103
30
0
41
1
10
23.9825863804726
20
-1.94453223648964
30
0
0
SPLINE
5
13A
100
AcDbEntity
8
1
62
256
6
ByLayer
370
18
48
1
60
0
100
AcDbSpline
70
4
71
3
72
10
73
6
40
0
40
0
40
0
40
0
40
0.5
40
0.5
40
1
40
1
40
1
40
1
41
1
10
193.0136905098
20
7.27124190825529
30
0
41
1
10
192.917354574979
20
7.31202092787441
30
0
41
1
10
192.813916983652
20
7.34321257702115
30
0
41
1
10
192.595713691108
20
7.39029977426711
30
0
41
1
10
192.480481650157
20
7.4062046275871
30
0
41
1
10
192.361818590856
20
7.41578489589446
30
0
0
SPLINE
5
13B
100
AcDbEntity
8
1
62
256
6
ByLayer
370
18
48
1
60
0
100
AcDbSpline
70
4
71
3
72
62
73
58
40
0
40
0
40
0
40
0
40
0.0454324182129543
40
0.0454324182129543
40
0.0724916527011139
40
0.0724916527011139
40
0.0995508871892734
40
0.0995508871892734
40
0.113080504433353
40
0.113080504433353
40
0.126610121677433
40
0.126610121677433
40
0.153669356165593
40
0.153669356165593
40
0.207787825141913
40
0.207787825141913
40
0.261906294118233
40
0.261906294118233
40
0.316024763094553
40
0.316024763094553
40
0.343083997582713
40
0.343083997582713
40
0.370143232070872
40
0.370143232070872
40
0.424261701047191
40
0.424261701047191
40
0.47838017002351
40
0.47838017002351
40
0.532498638999829
40
0.532498638999829
40
0.586617107976149
40
0.586617107976149
40
0.613676342464308
40
0.613676342464308
40
0.640735576952467
40
0.640735576952467
40
0.694854045928785
40
0.694854045928785
40
0.721913280416944
40
0.721913280416944
40
0.748972514905104
40
0.748972514905104
40
0.803090983881422
40
0.803090983881422
40
0.830150218369581
40
0.830150218369581
40
0.85720945285774
40
0.85720945285774
40
0.884268687345899
40
0.884268687345899
40
0.911327921834058
40
0.911327921834058
40
0.965446390810378
40
0.965446390810378
40
0.992505625298537
40
0.992505625298537
40
1
40
1
40
1
40
1
41
1
10
186.599486688705
20
-6.1106759759414
30
0
41
1
10
185.142942089427
20
-6.44084127847918
30
0
41
1
10
183.687714986861
20
-6.73884552303414
30
0
41
1
10
181.364326029342
20
-7.1558408737466
30
0
41
1
10
180.496499393936
20
-7.29817511075967
30
0
41
1
10
178.759982033512
20
-7.55593247644572
30
0
41
1
10
177.892633670124
20
-7.67121201558973
30
0
41
1
10
176.592512806983
20
-7.82326574528526
30
0
41
1
10
176.159581282785
20
-7.87076207130221
30
0
41
1
10
175.293824327988
20
-7.95843786964983
30
0
41
1
10
174.861048389499
20
-7.99867823164647
30
0
41
1
10
173.562890757576
20
-8.10832156021618
30
0
41
1
10
172.697687124996
20
-8.16664720752129
30
0
41
1
10
170.101421849362
20
-8.29476401593001
30
0
41
1
10
168.369256878265
20
-8.31645334827019
30
0
41
1
10
164.896638600886
20
-8.23864547049354
30
0
41
1
10
163.164923860012
20
-8.13937424986437
30
0
41
1
10
159.702893713488
20
-7.82478980818209
30
0
41
1
10
157.972514833811
20
-7.60908253785362
30
0
41
1
10
155.372393497082
20
-7.20764562702652
30
0
41
1
10
154.50494577428
20
-7.060647637362
30
0
41
1
10
152.767995056173
20
-6.74083972048317
30
0
41
1
10
151.90073411734
20
-6.56842956416162
30
0
41
1
10
149.301481716086
20
-6.01462578324779
30
0
41
1
10
147.572090067962
20
-5.5953422457996
30
0
41
1
10
144.110918137414
20
-4.68141509122114
30
0
41
1
10
142.378892481743
20
-4.18658734725832
30
0
41
1
10
138.906709864057
20
-3.14172718297829
30
0
41
1
10
137.175049340342
20
-2.59399083770182
30
0
41
1
10
133.712517942236
20
-1.47246394699204
30
0
41
1
10
131.981955155619
20
-0.89780701348721
30
0
41
1
10
129.382124781009
20
-0.028936213178838
30
0
41
1
10
128.514481920282
20
0.261973637288577
30
0
41
1
10
126.778355810263
20
0.842532178863138
30
0
41
1
10
125.911528408514
20
1.13147072113543
30
0
41
1
10
123.312915471783
20
1.98941758340152
30
0
41
1
10
121.583117190644
20
2.54990298731343
30
0
41
1
10
118.986534841657
20
3.35690571205561
30
0
41
1
10
118.120709940753
20
3.6203161719246
30
0
41
1
10
116.387461344377
20
4.13308786347616
30
0
41
1
10
115.519569602392
20
4.38255282012366
30
0
41
1
10
112.915100974746
20
5.10591784976714
30
0
41
1
10
111.182933185965
20
5.55388822671608
30
0
41
1
10
108.586301388656
20
6.16073043140474
30
0
41
1
10
107.721030739299
20
6.35209485445631
30
0
41
1
10
105.990070811765
20
6.71005744484583
30
0
41
1
10
105.124363283155
20
6.87654313248945
30
0
41
1
10
103.391286951149
20
7.18366230456047
30
0
41
1
10
102.523369825141
20
7.3243494488031
30
0
41
1
10
100.787610292968
20
7.5783965603147
30
0
41
1
10
99.9208295361664
20
7.69165521185201
30
0
41
1
10
97.3221873578535
20
7.9884074084643
30
0
41
1
10
95.5922082506828
20
8.12824002663677
30
0
41
1
10
92.994755958642
20
8.24942291589136
30
0
41
1
10
92.1285386568023
20
8.27525742952406
30
0
41
1
10
91.0214278702473
20
8.28935730355627
30
0
41
1
10
90.7811991485734
20
8.29128002381086
30
0
41
1
10
90.5409010931775
20
8.29205595868439
30
0
0
SPLINE
5
13C
100
AcDbEntity
8
1
62
256
6
ByLayer
370
18
48
1
60
0
100
AcDbSpline
70
4
71
3
72
10
73
6
40
0
40
0
40
0
40
0
40
0.472156479195496
40
0.472156479195496
40
1
40
1
40
1
40
1
41
1
10
30.9378560726228
20
-6.1164150561093
30
0
41
1
10
29.3922970868505
20
-6.46556402571119
30
0
41
1
10
27.8473726056391
20
-6.77873761808016
30
0
41
1
10
24.5716172566364
20
-7.35826501363743
30
0
41
1
10
22.8406598618528
20
-7.61488042266214
30
0
41
1
10
21.1040000000341
20
-7.81195776522489
30
0
0
SPLINE
5
13D
100
AcDbEntity
8
1
62
256
6
ByLayer
370
18
48
1
60
0
100
AcDbSpline
70
4
71
3
72
8
73
4
40
0
40
0
40
0
40
0
40
1
40
1
40
1
40
1
41
1
10
17
20
8.43291956548185
30
0
41
1
10
16.6284880181038
20
8.45815883439519
30
0
41
1
10
16.2556705251362
20
8.50338228975875
30
0
41
1
10
15.8825563040205
20
8.571552076014
30
0
0
SPLINE
5
13E
100
AcDbEntity
8
1
62
256
6
ByLayer
370
18
48
1
60
0
100
AcDbSpline
70
4
71
3
72
14
73
10
40
0
40
0
40
0
40
0
40
0.351756851358308
40
0.351756851358308
40
0.703513702716616
40
0.703513702716616
40
0.87939212839577
40
0.87939212839577
40
1
40
1
40
1
40
1
41
1
10
192.710313685219
20
6.73473969808711
30
0
41
1
10
192.605280537447
20
6.49603106062779
30
0
41
1
10
192.496942875486
20
6.26505580776552
30
0
41
1
10
192.275543090201
20
5.81769265658906
30
0
41
1
10
192.162442717265
20
5.60130853759819
30
0
41
1
10
191.991623430743
20
5.2875283789939
30
0
41
1
10
191.934449448608
20
5.18466194217615
30
0
41
1
10
191.840144415183
20
5.01753369911023
30
0
41
1
10
191.802234369772
20
4.95106167606664
30
0
41
1
10
191.764899549989
20
4.88608329184549
30
0
0
SPLINE
5
13F
100
AcDbEntity
8
1
62
256
6
ByLayer
370
18
48
1
60
0
100
AcDbSpline
70
4
71
1
72
4
73
2
40
0
40
0
40
1
40
1
41
1
10
206.345590455259
20
1.15752219154061
30
0
41
1
10
206.340672210219
20
1.16269390780747
30
0
0
SPLINE
5
140
100
AcDbEntity
8
1
62
256
6
ByLayer
370
18
48
1
60
0
100
AcDbSpline
70
4
71
3
72
30
73
26
40
0
40
0
40
0
40
0
40
0.0624999999999925
40
0.0624999999999925
40
0.124999999999985
40
0.124999999999985
40
0.249999999999976
40
0.249999999999976
40
0.312499999999971
40
0.312499999999971
40
0.374999999999966
40
0.374999999999966
40
0.499999999999966
40
0.499999999999966
40
0.56249999999997
40
0.56249999999997
40
0.624999999999974
40
0.624999999999974
40
0.749999999999983
40
0.749999999999983
40
0.812499999999987
40
0.812499999999987
40
0.874999999999991
40
0.874999999999991
40
1
40
1
40
1
40
1
41
1
10
206.34067047196
20
1.16269742832205
30
0
41
1
10
206.328040989738
20
1.09446757213152
30
0
41
1
10
206.313700750289
20
1.02942265587689
30
0
41
1
10
206.281891371055
20
0.907040509766517
30
0
41
1
10
206.264383710737
20
0.84948763694976
30
0
41
1
10
206.207044986819
20
0.687759122960955
30
0
41
1
10
206.162421166923
20
0.594461414298792
30
0
41
1
10
206.085469239385
20
0.477248225550056
30
0
41
1
10
206.058030323343
20
0.441862041708248
30
0
41
1
10
206.00019584791
20
0.379579889203171
30
0
41
1
10
205.969967810336
20
0.352814464335921
30
0
41
1
10
205.87546725341
20
0.285258067061591
30
0
41
1
10
205.807394950584
20
0.257151355889107
30
0
41
1
10
205.697817498284
20
0.239923952610042
30
0
41
1
10
205.6600426046
20
0.238351093352236
30
0
41
1
10
205.581966705981
20
0.243637922436676
30
0
41
1
10
205.541901972784
20
0.250506671648452
30
0
41
1
10
205.419861532681
20
0.283099123767045
30
0
41
1
10
205.335594692518
20
0.320776962628088
30
0
41
1
10
205.205087582195
20
0.399829865863268
30
0
41
1
10
205.160898127181
20
0.429951179433232
30
0
41
1
10
205.07115840303
20
0.497661209502013
30
0
41
1
10
205.025553830796
20
0.535319309718972
30
0
41
1
10
204.888405049794
20
0.657875546207009
30
0
41
1
10
204.795989394334
20
0.752680492395115
30
0
41
1
10
204.702651841909
20
0.859770200861703
30
0
0
SPLINE
5
141
100
AcDbEntity
8
1
62
256
6
ByLayer
370
18
48
1
60
0
100
AcDbSpline
70
4
71
3
72
60
73
56
40
0
40
0
40
0
40
0
40
0.0285317589631631
40
0.0285317589631631
40
0.0876037289163648
40
0.0876037289163648
40
0.117139713892966
40
0.117139713892966
40
0.146675698869567
40
0.146675698869567
40
0.176211683846169
40
0.176211683846169
40
0.20574766882277
40
0.20574766882277
40
0.235283653799371
40
0.235283653799371
40
0.264819638775972
40
0.264819638775972
40
0.294355623752574
40
0.294355623752574
40
0.323891608729175
40
0.323891608729175
40
0.382963578682378
40
0.382963578682378
40
0.41249956365898
40
0.41249956365898
40
0.442035548635582
40
0.442035548635582
40
0.501107518588785
40
0.501107518588785
40
0.530643503565386
40
0.530643503565386
40
0.560179488541987
40
0.560179488541987
40
0.619251458495191
40
0.619251458495191
40
0.678323428448394
40
0.678323428448394
40
0.707859413424996
40
0.707859413424996
40
0.737395398401597
40
0.737395398401597
40
0.7964673683548
40
0.7964673683548
40
0.826003353331401
40
0.826003353331401
40
0.855539338308003
40
0.855539338308003
40
0.914611308261205
40
0.914611308261205
40
0.944147293237807
40
0.944147293237807
40
0.973683278214409
40
0.973683278214409
40
1
40
1
40
1
40
1
41
1
10
143.570998098868
20
-8.29891762479457
30
0
41
1
10
142.750683179001
20
-8.3956015065329
30
0
41
1
10
141.931073642838
20
-8.47860743546059
30
0
41
1
10
139.415123438128
20
-8.69041507059254
30
0
41
1
10
137.719219055034
20
-8.77338383560488
30
0
41
1
10
135.173719440836
20
-8.80519073564307
30
0
41
1
10
134.324826275072
20
-8.80022566468926
30
0
41
1
10
132.624693456489
20
-8.75869324794473
30
0
41
1
10
131.77565286434
20
-8.72217519792454
30
0
41
1
10
130.078716350772
20
-8.61863377056747
30
0
41
1
10
129.230683374495
20
-8.55164062405572
30
0
41
1
10
127.534355890968
20
-8.38856016017377
30
0
41
1
10
126.686047040045
20
-8.2925418721847
30
0
41
1
10
124.989291559133
20
-8.07153959964344
30
0
41
1
10
124.140756872578
20
-7.94659195470973
30
0
41
1
10
122.44230326188
20
-7.66881048810129
30
0
41
1
10
121.59190614413
20
-7.51588333176522
30
0
41
1
10
119.890590173501
20
-7.18412465907267
30
0
41
1
10
119.041008532938
20
-7.00562468395438
30
0
41
1
10
117.343120276985
20
-6.62506940882884
30
0
41
1
10
116.494784558644
20
-6.4230938362368
30
0
41
1
10
113.951516187909
20
-5.78198461696687
30
0
41
1
10
112.25830351459
20
-5.30721444464504
30
0
41
1
10
109.712426601355
20
-4.54377718614893
30
0
41
1
10
108.86196782695
20
-4.28068959108083
30
0
41
1
10
107.161802863036
20
-3.74271200900193
30
0
41
1
10
106.312338566672
20
-3.46812474595248
30
0
41
1
10
103.765343444302
20
-2.62902312184309
30
0
41
1
10
102.069988650822
20
-2.04701138442181
30
0
41
1
10
99.524550015091
20
-1.15747102172136
30
0
41
1
10
98.6756198156108
20
-0.858352299783661
30
0
41
1
10
96.9757969078482
20
-0.257927305991814
30
0
41
1
10
96.1241644119297
20
0.0436099793805909
30
0
41
1
10
93.5739366366426
20
0.946472716096793
30
0
41
1
10
91.8794764664382
20
1.54946491487104
30
0
41
1
10
88.4907705573747
20
2.7254932831369
30
0
41
1
10
86.7959328181095
20
3.29692209427105
30
0
41
1
10
84.2453135747428
20
4.10919661772371
30
0
41
1
10
83.3935937958806
20
4.37319587914456
30
0
41
1
10
81.6938528683172
20
4.88493118155179
30
0
41
1
10
80.8450004570537
20
5.13267796054572
30
0
41
1
10
78.299846051528
20
5.8476480920562
30
0
41
1
10
76.6046820976622
20
6.28595180903366
30
0
41
1
10
74.0583718402853
20
6.87360438976731
30
0
41
1
10
73.209108154206
20
7.05808444644308
30
0
41
1
10
71.5093290295485
20
7.4033248622458
30
0
41
1
10
70.6590911706652
20
7.56375531007973
30
0
41
1
10
68.1134941256604
20
8.00304728487939
30
0
41
1
10
66.4199438123402
20
8.23990050494336
30
0
41
1
10
63.8759783164949
20
8.50377012072957
30
0
41
1
10
63.0273678151545
20
8.5766401934531
30
0
41
1
10
61.3290497588442
20
8.69252108513561
30
0
41
1
10
60.479328494606
20
8.73547059296021
30
0
41
1
10
58.870465893929
20
8.78763180084573
30
0
41
1
10
58.1126994985021
20
8.79995198583023
30
0
41
1
10
57.3557809914088
20
8.79999890334301
30
0
0
SPLINE
5
142
100
AcDbEntity
8
1
62
256
6
ByLayer
370
18
48
1
60
0
100
AcDbSpline
70
4
71
3
72
8
73
4
40
0
40
0
40
0
40
0
40
1
40
1
40
1
40
1
41
1
10
15.7504106917589
20
-7.82840654329462
30
0
41
1
10
15.7957023628062
20
-8.0789540154328
30
0
41
1
10
15.8399112889704
20
-8.32663962128996
30
0
41
1
10
15.8825563040205
20
-8.571552076014
30
0
0
SPLINE
5
143
100
AcDbEntity
8
1
62
256
6
ByLayer
370
18
48
1
60
0
100
AcDbSpline
70
4
71
3
72
14
73
10
40
0
40
0
40
0
40
0
40
0.25
40
0.25
40
0.5
40
0.5
40
0.75
40
0.75
40
1
40
1
40
1
40
1
41
1
10
15.5088668389778
20
-7.83713387244933
30
0
41
1
10
15.6047493704018
20
-7.40600259190478
30
0
41
1
10
15.7138241648482
20
-6.97175436848809
30
0
41
1
10
15.9530059690557
20
-6.11833263830229
30
0
41
1
10
16.0831032601902
20
-5.69919380844811
30
0
41
1
10
16.3579267338412
20
-4.89662740220328
30
0
41
1
10
16.5026417495104
20
-4.51323243633331
30
0
41
1
10
16.7995771586974
20
-3.80103220721583
30
0
41
1
10
16.9517854868981
20
-3.47225588265815
30
0
41
1
10
17.1040000000007
20
-3.17886989115007
30
0
0
SPLINE
5
144
100
AcDbEntity
8
1
62
256
6
ByLayer
370
18
48
1
60
0
100
AcDbSpline
70
4
71
3
72
63
73
59
40
0
40
0
40
0
40
0
40
0.062500000000001
40
0.062500000000001
40
0.125000000000001
40
0.125000000000001
40
0.187500000000001
40
0.187500000000001
40
0.250000000000002
40
0.250000000000002
40
0.281250000000002
40
0.281250000000002
40
0.312500000000002
40
0.312500000000002
40
0.328125000000002
40
0.328125000000002
40
0.343750000000002
40
0.343750000000002
40
0.375000000000002
40
0.375000000000002
40
0.406250000000002
40
0.406250000000002
40
0.414062500000002
40
0.414062500000002
40
0.421875000000002
40
0.421875000000002
40
0.437500000000002
40
0.453125000000002
40
0.453125000000002
40
0.468750000000002
40
0.468750000000002
40
0.500000000000002
40
0.500000000000002
40
0.515625000000002
40
0.515625000000002
40
0.531250000000002
40
0.531250000000002
40
0.562500000000002
40
0.562500000000002
40
0.593750000000002
40
0.593750000000002
40
0.609375000000002
40
0.609375000000002
40
0.625000000000002
40
0.625000000000002
40
0.687500000000002
40
0.687500000000002
40
0.718750000000002
40
0.718750000000002
40
0.750000000000001
40
0.750000000000001
40
0.812500000000001
40
0.812500000000001
40
0.875000000000001
40
0.875000000000001
40
0.9375
40
0.9375
40
1
40
1
40
1
40
1
41
1
10
13.7271777641003
20
-2.89163581674683
30
0
41
1
10
13.2847475717672
20
-3.03187850262606
30
0
41
1
10
12.8502650426987
20
-3.18381949902948
30
0
41
1
10
11.9887416877701
20
-3.50437226829206
30
0
41
1
10
11.5617356635441
20
-3.67299826469829
30
0
41
1
10
10.7082808069975
20
-4.02686998372579
30
0
41
1
10
10.2827302477506
20
-4.21165196539692
30
0
41
1
10
9.43077073210308
20
-4.60327493524804
30
0
41
1
10
9.0041790467459
20
-4.80980409736207
30
0
41
1
10
8.36290848094312
20
-5.15082472999339
30
0
41
1
10
8.14907346462742
20
-5.26985096328772
30
0
41
1
10
7.72933707020049
20
-5.51886608107793
30
0
41
1
10
7.52260487542718
20
-5.6492383504856
30
0
41
1
10
7.21956023725308
20
-5.85769353448677
30
0
41
1
10
7.11936665116885
20
-5.92963842202667
30
0
41
1
10
6.92467466610283
20
-6.07672222674091
30
0
41
1
10
6.82998876843941
20
-6.15196485212846
30
0
41
1
10
6.5549472173423
20
-6.3837281788054
30
0
41
1
10
6.38321853458642
20
-6.54647359979953
30
0
41
1
10
6.07233837035194
20
-6.89352048822593
30
0
41
1
10
5.93863443191647
20
-7.07180979645912
30
0
41
1
10
5.80158304248089
20
-7.30261490406664
30
0
41
1
10
5.77568613833274
20
-7.34917439343326
30
0
41
1
10
5.72703676428706
20
-7.44314668269098
30
0
41
1
10
5.70425938706934
20
-7.49064605040417
30
0
41
1
10
5.6417051771373
20
-7.63241328240971
30
0
41
1
10
5.57295542506672
20
-7.82078734066943
30
0
41
1
10
5.53274093081957
20
-8.0081506371358
30
0
41
1
10
5.50677687686381
20
-8.1950396713134
30
0
41
1
10
5.50100501009599
20
-8.28865688964314
30
0
41
1
10
5.50501851648083
20
-8.56162688822369
30
0
41
1
10
5.53539810246654
20
-8.73535842016281
30
0
41
1
10
5.61803191403477
20
-8.98366710395311
30
0
41
1
10
5.65162408452785
20
-9.06370363834276
30
0
41
1
10
5.72897736669547
20
-9.21676787119759
30
0
41
1
10
5.77283851385805
20
-9.29009139533756
30
0
41
1
10
5.91853554568688
20
-9.50073895235928
30
0
41
1
10
6.03548266875138
20
-9.62942156970311
30
0
41
1
10
6.29299123672446
20
-9.8557283684622
30
0
41
1
10
6.43398941846958
20
-9.95439185980686
30
0
41
1
10
6.65947031214101
20
-10.0830252422737
30
0
41
1
10
6.73697986721369
20
-10.1226633148229
30
0
41
1
10
6.8961384039671
20
-10.1957509728966
30
0
41
1
10
6.97803910915944
20
-10.2292849308951
30
0
41
1
10
7.3930301608262
20
-10.3808554498171
30
0
41
1
10
7.74149173022626
20
-10.4515835644392
30
0
41
1
10
8.2738748655898
20
-10.5043199328742
30
0
41
1
10
8.45308087599041
20
-10.5128866806535
30
0
41
1
10
8.81360354854048
20
-10.5147329588065
30
0
41
1
10
8.99521451427292
20
-10.5079689855236
30
0
41
1
10
9.53769068641829
20
-10.4686540132134
30
0
41
1
10
9.89733867098987
20
-10.4173960479454
30
0
41
1
10
10.6114176165109
20
-10.2812895752507
30
0
41
1
10
10.9661219306573
20
-10.196296325043
30
0
41
1
10
11.6698580763131
20
-10.0037237194948
30
0
41
1
10
12.0184555913684
20
-9.89625922384772
30
0
41
1
10
12.7105512993285
20
-9.66610164656908
30
0
41
1
10
13.0540585826288
20
-9.54338005902073
30
0
41
1
10
13.395524728244
20
-9.41509495643294
30
0
0
SPLINE
5
145
100
AcDbEntity
8
1
62
256
6
ByLayer
370
18
48
1
60
0
100
AcDbSpline
70
4
71
3
72
32
73
28
40
0
40
0
40
0
40
0
40
0.0625000000000094
40
0.0625000000000094
40
0.125000000000019
40
0.125000000000019
40
0.250000000000022
40
0.250000000000022
40
0.312500000000024
40
0.312500000000024
40
0.375000000000026
40
0.375000000000026
40
0.437500000000028
40
0.437500000000028
40
0.50000000000003
40
0.50000000000003
40
0.625000000000022
40
0.625000000000022
40
0.687500000000018
40
0.687500000000018
40
0.750000000000013
40
0.750000000000013
40
0.812500000000009
40
0.812500000000009
40
0.875000000000005
40
0.875000000000005
40
1
40
1
40
1
40
1
41
1
10
188.274234313201
20
-4.45237505511571
30
0
41
1
10
188.385433873829
20
-4.47621704906612
30
0
41
1
10
188.497672634056
20
-4.49445766941258
30
0
41
1
10
188.724216508175
20
-4.51996399858442
30
0
41
1
10
188.839057464525
20
-4.52720542099019
30
0
41
1
10
189.180559726937
20
-4.53214809933775
30
0
41
1
10
189.405449871492
20
-4.5136656557076
30
0
41
1
10
189.738667705646
20
-4.45313180535226
30
0
41
1
10
189.849652098892
20
-4.42720313948064
30
0
41
1
10
190.065060170317
20
-4.36515548008748
30
0
41
1
10
190.16995543931
20
-4.32901580999098
30
0
41
1
10
190.374285926197
20
-4.24650448914369
30
0
41
1
10
190.473721039929
20
-4.2001332942688
30
0
41
1
10
190.667074937393
20
-4.09670352021894
30
0
41
1
10
190.761388299573
20
-4.03930408364889
30
0
41
1
10
191.029418286694
20
-3.85434966530181
30
0
41
1
10
191.19039027626
20
-3.71341452134001
30
0
41
1
10
191.405185261665
20
-3.47328669654672
30
0
41
1
10
191.472248526537
20
-3.38828599382762
30
0
41
1
10
191.593935965833
20
-3.21255802210254
30
0
41
1
10
191.649047902845
20
-3.12132954997765
30
0
41
1
10
191.747928834819
20
-2.93196383693896
30
0
41
1
10
191.791698468618
20
-2.83382756409654
30
0
41
1
10
191.867574976011
20
-2.63023089085735
30
0
41
1
10
191.899299424216
20
-2.52556870760196
30
0
41
1
10
191.974812635291
20
-2.20847741423773
30
0
41
1
10
192
20
-1.99083018308187
30
0
41
1
10
192
20
-1.76665194341717
30
0
0
SPLINE
5
146
100
AcDbEntity
8
1
62
256
6
ByLayer
370
18
48
1
60
0
100
AcDbSpline
70
4
71
3
72
8
73
4
40
0
40
0
40
0
40
0
40
1
40
1
40
1
40
1
41
1
10
192.710313685218
20
6.73473969808782
30
0
41
1
10
192.79364571008
20
6.92412823431133
30
0
41
1
10
192.895368374823
20
7.10262646988085
30
0
41
1
10
193.0136905098
20
7.27124190825526
30
0
0
SPLINE
5
147
100
AcDbEntity
8
1
62
256
6
ByLayer
370
18
48
1
60
0
100
AcDbSpline
70
4
71
3
72
8
73
4
40
0
40
0
40
0
40
0
40
1
40
1
40
1
40
1
41
1
10
200.5
20
2.2785718527785
30
0
41
1
10
200.5
20
2.41657324446874
30
0
41
1
10
200.5
20
2.571987927533
30
0
41
1
10
200.5
20
2.74470585277851
30
0
0
SPLINE
5
148
100
AcDbEntity
8
1
62
256
6
ByLayer
370
18
48
1
60
0
100
AcDbSpline
70
4
71
3
72
8
73
4
40
0
40
0
40
0
40
0
40
1
40
1
40
1
40
1
41
1
10
13.7271777641003
20
-9.29888103891233
30
0
41
1
10
13.7554722042456
20
-9.28728158802068
30
0
41
1
10
13.7860070819485
20
-9.27407288702727
30
0
41
1
10
13.8189321982923
20
-9.25927153633504
30
0
0
SPLINE
5
149
100
AcDbEntity
8
1
62
256
6
ByLayer
370
13
48
1
60
0
100
AcDbSpline
70
4
71
3
72
18
73
14
40
0
40
0
40
0
40
0
40
0.366351285566421
40
0.366351285566421
40
0.54952692834963
40
0.54952692834963
40
0.641114749741235
40
0.641114749741235
40
0.732702571132838
40
0.732702571132838
40
0.915878213916047
40
0.915878213916047
40
1
40
1
40
1
40
1
41
1
10
209.688909372066
20
-1.72279239942148
30
0
41
1
10
209.449601683545
20
-1.55891244472088
30
0
41
1
10
209.144809228301
20
-1.31711072693903
30
0
41
1
10
208.799561873462
20
-0.994812447772205
30
0
41
1
10
208.647962687861
20
-0.841671511291992
30
0
41
1
10
208.478778138147
20
-0.655287651889068
30
0
41
1
10
208.403422686156
20
-0.568649641892364
30
0
41
1
10
208.292078047264
20
-0.43467746080546
30
0
41
1
10
208.216954691241
20
-0.340107731364242
30
0
41
1
10
208.053052701615
20
-0.123553279358504
30
0
41
1
10
207.906866949894
20
0.0892565447018967
30
0
41
1
10
207.758787793619
20
0.329931145724032
30
0
41
1
10
207.696189385082
20
0.437186200896008
30
0
41
1
10
207.648732006444
20
0.522802904844497
30
0
0
SPLINE
5
14A
100
AcDbEntity
8
1
62
256
6
ByLayer
370
18
48
1
60
0
100
AcDbSpline
70
4
71
3
72
14
73
10
40
0
40
0
40
0
40
0
40
0.30489122373182
40
0.30489122373182
40
0.478668417798862
40
0.478668417798862
40
0.652445611865903
40
0.652445611865903
40
1
40
1
40
1
40
1
41
1
10
193.26548067859
20
4.47468641269026
30
0
41
1
10
194.430252859794
20
4.15940888958551
30
0
41
1
10
195.594482528801
20
3.82542186227295
30
0
41
1
10
197.422930699602
20
3.27532972069989
30
0
41
1
10
198.086657712953
20
3.07031440957905
30
0
41
1
10
199.412267324039
20
2.65107948008915
30
0
41
1
10
200.074433003928
20
2.43676232108552
30
0
41
1
10
202.059524626789
20
1.781006175595
30
0
41
1
10
203.381063517198
20
1.32675018485563
30
0
41
1
10
204.702651841909
20
0.859770200861732
30
0
0
SPLINE
5
14B
100
AcDbEntity
8
1
62
256
6
ByLayer
370
18
48
1
60
0
100
AcDbSpline
70
4
71
3
72
8
73
4
40
0
40
0
40
0
40
0
40
1
40
1
40
1
40
1
41
1
10
200.5
20
2.744705852777
30
0
41
1
10
199.895751053314
20
2.79164956868556
30
0
41
1
10
199.291396173619
20
2.83536914942386
30
0
41
1
10
198.686970978455
20
2.87584211504759
30
0
0
SPLINE
5
14C
100
AcDbEntity
8
1
62
256
6
ByLayer
370
18
48
1
60
0
100
AcDbSpline
70
4
71
2
72
6
73
3
40
0
40
0
40
0
40
1
40
1
40
1
41
1
10
204.613642237911
20
-0.102624946528891
30
0
41
0.92
10
204.623601260846
20
-0.102647292408103
30
0
41
1
10
204.63356029132
20
-0.102669638285931
30
0
0
SPLINE
5
14D
100
AcDbEntity
8
1
62
256
6
ByLayer
370
18
48
1
60
0
100
AcDbSpline
70
4
71
3
72
20
73
16
40
0
40
0
40
0
40
0
40
0.0798695774186613
40
0.159739154837315
40
0.239608732255975
40
0.319478309674633
40
0.399347887093293
40
0.479217464511949
40
0.559087041930609
40
0.638956619349266
40
0.718826196767924
40
0.798695774186585
40
0.878565351605244
40
0.958434929023902
40
1
40
1
40
1
40
1
41
1
10
17.1040000000007
20
-3.17886989115007
30
0
41
1
10
17.1173748916588
20
-3.15324761722374
30
0
41
1
10
17.1441246749751
20
-3.10200306937102
30
0
41
1
10
17.184234035853
20
-3.02723649859129
30
0
41
1
10
17.224312774383
20
-2.95404381475271
30
0
41
1
10
17.2643455940007
20
-2.88260163770161
30
0
41
1
10
17.3043172156676
20
-2.81289739425611
30
0
41
1
10
17.3442123837019
20
-2.74496836303095
30
0
41
1
10
17.3840158716017
20
-2.67883760962781
30
0
41
1
10
17.4237124878554
20
-2.61453114013372
30
0
41
1
10
17.463287081741
20
-2.55207329257055
30
0
41
1
10
17.5027245491075
20
-2.491487959804
30
0
41
1
10
17.5420098381399
20
-2.43279825025809
30
0
41
1
10
17.5748744260732
20
-2.38510224383384
30
0
41
1
10
17.5946294822751
20
-2.35707744769377
30
0
41
1
10
17.6013827423493
20
-2.34757306927744
30
0
0
SPLINE
5
14E
100
AcDbEntity
8
1
62
256
6
ByLayer
370
18
48
1
60
0
100
AcDbSpline
70
4
71
3
72
8
73
4
40
0
40
0
40
0
40
0
40
1
40
1
40
1
40
1
41
1
10
192.361818590856
20
7.41578489589449
30
0
41
1
10
192.323434036129
20
7.3716845964359
30
0
41
1
10
192.28313727319
20
7.3292318571458
30
0
41
1
10
192.240610723306
20
7.2886989450663
30
0
0
SPLINE
5
14F
100
AcDbEntity
8
1
62
256
6
ByLayer
370
18
48
1
60
0
100
AcDbSpline
70
4
71
3
72
8
73
4
40
0
40
0
40
0
40
0
40
1
40
1
40
1
40
1
41
1
10
18.8
20
8.45316245027479
30
0
41
1
10
19.5685754312584
20
8.37730291550844
30
0
41
1
10
20.3364349826766
20
8.28921646774947
30
0
41
1
10
21.104000000043
20
8.18926915368914
30
0
0
SPLINE
5
150
100
AcDbEntity
8
1
62
256
6
ByLayer
370
13
48
1
60
0
100
AcDbSpline
70
4
71
3
72
16
73
12
40
0
40
0
40
0
40
0
40
0.246999928482215
40
0.370499892723322
40
0.432249874843876
40
0.493999856964429
40
0.740999785446644
40
0.802749767567197
40
0.864499749687751
40
0.987999713928858
40
1
40
1
40
1
40
1
41
1
10
200.7
20
6.81376923122045
30
0
41
1
10
201.464741320939
20
6.84401026151784
30
0
41
1
10
202.611720233778
20
6.86117105255644
30
0
41
1
10
203.949181029777
20
6.83859957131344
30
0
41
1
10
204.713606833774
20
6.81584549026948
30
0
41
1
10
205.860667619579
20
6.77012374190613
30
0
41
1
10
207.007409341909
20
6.6916978305068
30
0
41
1
10
208.153822697765
20
6.58561362784846
30
0
41
1
10
208.918388307686
20
6.50870704559864
30
0
41
1
10
209.528966586222
20
6.43725202601416
30
0
41
1
10
209.948373991975
20
6.38358866842086
30
0
41
1
10
209.98551767247
20
6.37880046819154
30
0
0
SPLINE
5
151
100
AcDbEntity
8
1
62
256
6
ByLayer
370
18
48
1
60
0
100
AcDbSpline
70
4
71
3
72
14
73
10
40
0
40
0
40
0
40
0
40
0.25
40
0.25
40
0.5
40
0.5
40
0.75
40
0.75
40
1
40
1
40
1
40
1
41
1
10
209.282309331657
20
8.50558329148598
30
0
41
1
10
208.6113849631
20
8.60695600380089
30
0
41
1
10
207.942235007842
20
8.69330910540987
30
0
41
1
10
206.603675236731
20
8.83399605318922
30
0
41
1
10
205.934757874357
20
8.88872802670036
30
0
41
1
10
204.597903990766
20
8.96693626848457
30
0
41
1
10
203.929745382011
20
8.99022197927812
30
0
41
1
10
202.590747859987
20
9.00478013427593
30
0
41
1
10
201.920473317963
20
8.99620975342077
30
0
41
1
10
201.249495483891
20
8.97148617164305
30
0
0
SPLINE
5
152
100
AcDbEntity
8
1
62
256
6
ByLayer
370
18
48
1
60
0
100
AcDbSpline
70
4
71
3
72
8
73
4
40
0
40
0
40
0
40
0
40
1
40
1
40
1
40
1
41
1
10
192
20
4.8341960233023
30
0
41
1
10
190.833971894279
20
5.15948294504949
30
0
41
1
10
189.668793422953
20
5.46750065274031
30
0
41
1
10
188.502845876645
20
5.75525379631435
30
0
0
SPLINE
5
153
100
AcDbEntity
8
1
62
256
6
ByLayer
370
13
48
1
60
0
100
AcDbSpline
70
4
71
3
72
16
73
12
40
0
40
0
40
0
40
0
40
0.249999999999992
40
0.249999999999992
40
0.499999999999983
40
0.499999999999983
40
0.749999999999974
40
0.749999999999974
40
0.874999999999987
40
0.874999999999987
40
1
40
1
40
1
40
1
41
1
10
209.389755886887
20
3.09298255177561
30
0
41
1
10
209.443841749507
20
2.84563258712802
30
0
41
1
10
209.525579258195
20
2.61307998984381
30
0
41
1
10
209.732841161267
20
2.17481505568432
30
0
41
1
10
209.855424469442
20
1.97490225334005
30
0
41
1
10
210.130204869572
20
1.60509097128389
30
0
41
1
10
210.2798312148
20
1.43869351726113
30
0
41
1
10
210.518585042671
20
1.21139620071921
30
0
41
1
10
210.600163211128
20
1.13985113403044
30
0
41
1
10
210.766736734013
20
1.00417979948318
30
0
41
1
10
210.851479237481
20
0.940246867437395
30
0
41
1
10
210.938388930977
20
0.879429409968481
30
0
0
SPLINE
5
154
100
AcDbEntity
8
1
62
256
6
ByLayer
370
18
48
1
60
0
100
AcDbSpline
70
4
71
3
72
8
73
4
40
0
40
0
40
0
40
0
40
1
40
1
40
1
40
1
41
1
10
200.7
20
2.47590988145907
30
0
41
1
10
200.998141533954
20
2.3139142596965
30
0
41
1
10
201.298170245707
20
2.15923366392127
30
0
41
1
10
201.6
20
2.01153421903987
30
0
0
SPLINE
5
155
100
AcDbEntity
8
1
62
256
6
ByLayer
370
18
48
1
60
0
100
AcDbSpline
70
4
71
3
72
12
73
8
40
0
40
0
40
0
40
0
40
0.417135037890319
40
0.417135037890319
40
0.708567385549571
40
0.708567385549571
40
1
40
1
40
1
40
1
41
1
10
200.699999997661
20
-8.57546428690787
30
0
41
1
10
200.686536345747
20
-8.58961944150536
30
0
41
1
10
200.673067867812
20
-8.60377255658909
30
0
41
1
10
200.650181537012
20
-8.62781039437328
30
0
41
1
10
200.640766113046
20
-8.63769613975543
30
0
41
1
10
200.621930665219
20
-8.65746573107162
30
0
41
1
10
200.612510639198
20
-8.6673495792665
30
0
41
1
10
200.603088340779
20
-8.67723249081391
30
0
0
SPLINE
5
156
100
AcDbEntity
8
1
62
256
6
ByLayer
370
18
48
1
60
0
100
AcDbSpline
70
4
71
3
72
10
73
6
40
0
40
0
40
0
40
0
40
0.5
40
0.5
40
1
40
1
40
1
40
1
41
1
10
192.367931354919
20
-7.59332005855069
30
0
41
1
10
193.73848729426
20
-7.86540305802487
30
0
41
1
10
195.107679291375
20
-8.09399556526421
30
0
41
1
10
197.850792495651
20
-8.45774215471693
30
0
41
1
10
199.226085834193
20
-8.59273783477906
30
0
41
1
10
200.6
20
-8.67989797150651
30
0
0
SPLINE
5
157
100
AcDbEntity
8
1
62
256
6
ByLayer
370
18
48
1
60
0
100
AcDbSpline
70
4
71
3
72
10
73
6
40
0
40
0
40
0
40
0
40
0.871546778531514
40
0.871546778531514
40
1
40
1
40
1
40
1
41
1
10
191.160393684939
20
6.71661887380347
30
0
41
1
10
191.108413950529
20
6.21386315849262
30
0
41
1
10
191.031999152165
20
5.7394141729215
30
0
41
1
10
190.919492590741
20
5.2474294842161
30
0
41
1
10
190.904571075454
20
5.18522603394251
30
0
41
1
10
190.889193890281
20
5.12406100971657
30
0
0
SPLINE
5
158
100
AcDbEntity
8
1
62
256
6
ByLayer
370
18
48
1
60
0
100
AcDbSpline
70
4
71
1
72
4
73
2
40
0
40
0
40
1
40
1
41
1
10
205.449230505839
20
-2.57477573957723
30
0
41
1
10
205.568750712558
20
-2.56188463838168
30
0
0
SPLINE
5
159
100
AcDbEntity
8
1
62
256
6
ByLayer
370
18
48
1
60
0
100
AcDbSpline
70
4
71
3
72
12
73
8
40
0
40
0
40
0
40
0
40
0.5
40
0.5
40
0.75
40
0.75
40
1
40
1
40
1
40
1
41
1
10
13.8189321982923
20
-2.86269154691726
30
0
41
1
10
14.3178108000237
20
-2.7060801966791
30
0
41
1
10
14.8316002652586
20
-2.57318483544208
30
0
41
1
10
15.6284652373583
20
-2.43580169280924
30
0
41
1
10
15.8990650910526
20
-2.40041584311527
30
0
41
1
10
16.4481498253266
20
-2.35775759496994
30
0
41
1
10
16.7235998770078
20
-2.35069865358472
30
0
41
1
10
17
20
-2.36128451317367
30
0
0
SPLINE
5
15A
100
AcDbEntity
8
1
62
256
6
ByLayer
370
18
48
1
60
0
100
AcDbSpline
70
4
71
3
72
12
73
8
40
0
40
0
40
0
40
0
40
0.25
40
0.25
40
0.5
40
0.5
40
1
40
1
40
1
40
1
41
1
10
211.547682009581
20
-1.31282660197297
30
0
41
1
10
211.577618794373
20
-1.22948020827766
30
0
41
1
10
211.60747992701
20
-1.14545082164787
30
0
41
1
10
211.667052469636
20
-0.976040341870885
30
0
41
1
10
211.696872261485
20
-0.890343443761054
30
0
41
1
10
211.785296830325
20
-0.633575418149917
30
0
41
1
10
211.84249081594
20
-0.463965301936668
30
0
41
1
10
211.898093908505
20
-0.295776490547297
30
0
0
SPLINE
5
15B
100
AcDbEntity
8
1
62
256
6
ByLayer
370
18
48
1
60
0
100
AcDbSpline
70
4
71
3
72
20
73
16
40
0
40
0
40
0
40
0
40
0.274275660280621
40
0.274275660280621
40
0.411413490420932
40
0.411413490420932
40
0.548551320561243
40
0.548551320561243
40
0.617120235631398
40
0.617120235631398
40
0.685689150701553
40
0.685689150701553
40
0.822826980841864
40
0.822826980841864
40
1
40
1
40
1
40
1
41
1
10
187.435060289095
20
5.91781162893079
30
0
41
1
10
185.699347771987
20
6.32555260122356
30
0
41
1
10
183.966106686816
20
6.68888055949128
30
0
41
1
10
181.364326029343
20
7.15584087374663
30
0
41
1
10
180.496499393936
20
7.29817511075967
30
0
41
1
10
178.759982033512
20
7.55593247644575
30
0
41
1
10
177.892633670124
20
7.6712120155897
30
0
41
1
10
176.592512806983
20
7.82326574528523
30
0
41
1
10
176.159581282785
20
7.87076207130221
30
0
41
1
10
175.293824327988
20
7.95843786964983
30
0
41
1
10
174.861048389499
20
7.99867823164647
30
0
41
1
10
173.562890757576
20
8.10832156021618
30
0
41
1
10
172.697687124996
20
8.16664720752129
30
0
41
1
10
170.714197611918
20
8.26452562861815
30
0
41
1
10
169.595578449864
20
8.29310900831163
30
0
41
1
10
168.475647032533
20
8.29594624779983
30
0
0
SPLINE
5
15C
100
AcDbEntity
8
1
62
256
6
ByLayer
370
18
48
1
60
0
100
AcDbSpline
70
4
71
3
72
56
73
52
40
0
40
0
40
0
40
0
40
0.022106317950636
40
0.022106317950636
40
0.0517394598309196
40
0.0517394598309196
40
0.0813726017112031
40
0.0813726017112031
40
0.111005743591487
40
0.111005743591487
40
0.170272027352054
40
0.170272027352054
40
0.199905169232338
40
0.199905169232338
40
0.229538311112622
40
0.229538311112622
40
0.259171452992906
40
0.259171452992906
40
0.28880459487319
40
0.28880459487319
40
0.348070878633758
40
0.348070878633758
40
0.377704020514042
40
0.377704020514042
40
0.407337162394325
40
0.407337162394325
40
0.466603446154894
40
0.466603446154894
40
0.496236588035177
40
0.496236588035177
40
0.511053158975319
40
0.511053158975319
40
0.525869729915461
40
0.525869729915461
40
0.644402297436595
40
0.644402297436595
40
0.674035439316879
40
0.674035439316879
40
0.703668581197163
40
0.703668581197163
40
0.76293486495773
40
0.76293486495773
40
0.792568006838014
40
0.792568006838014
40
0.822201148718298
40
0.822201148718298
40
0.881467432478865
40
0.881467432478865
40
0.940733716239432
40
0.940733716239432
40
1
40
1
40
1
40
1
41
1
10
108.792345313381
20
-6.1104508666628
30
0
41
1
10
108.146730050544
20
-6.25714472328659
30
0
41
1
10
107.501198656416
20
-6.39755613902321
30
0
41
1
10
105.990070811765
20
-6.71005744484586
30
0
41
1
10
105.124363283155
20
-6.87654313248945
30
0
41
1
10
103.391286951149
20
-7.18366230456047
30
0
41
1
10
102.523369825141
20
-7.3243494488031
30
0
41
1
10
100.787610292968
20
-7.57839656031473
30
0
41
1
10
99.9208295361663
20
-7.69165521185201
30
0
41
1
10
97.3221873578535
20
-7.9884074084643
30
0
41
1
10
95.5922082506829
20
-8.12824002663677
30
0
41
1
10
92.994755958642
20
-8.24942291589136
30
0
41
1
10
92.1285386568023
20
-8.27525742952406
30
0
41
1
10
90.3945623179854
20
-8.29734089962395
30
0
41
1
10
89.5261909194655
20
-8.29358077578985
30
0
41
1
10
87.7901432367851
20
-8.25538676318811
30
0
41
1
10
86.9232848414457
20
-8.22097608853966
30
0
41
1
10
85.1910865032628
20
-8.12074752380585
30
0
41
1
10
84.3257614455517
20
-8.05466267025793
30
0
41
1
10
81.7301237586497
20
-7.8119337052043
30
0
41
1
10
80.0001523179949
20
-7.59128131970371
30
0
41
1
10
77.4002621239988
20
-7.18030463951564
30
0
41
1
10
76.532090838128
20
-7.02979340905804
30
0
41
1
10
74.7967079246481
20
-6.70374249890284
30
0
41
1
10
73.9300616393803
20
-6.52821057196763
30
0
41
1
10
71.3315222826227
20
-5.96857441217929
30
0
41
1
10
69.6010199961588
20
-5.55197323484862
30
0
41
1
10
67.0036646085147
20
-4.86965838580542
30
0
41
1
10
66.137570869113
20
-4.63266976278203
30
0
41
1
10
64.8373177146344
20
-4.26374687610397
30
0
41
1
10
64.4037119374377
20
-4.13853866925166
30
0
41
1
10
63.5359850200382
20
-3.88388790098125
30
0
41
1
10
63.1017334910567
20
-3.75439515155347
30
0
41
1
10
59.197515153213
20
-2.57474566679491
30
0
41
1
10
55.7440088688076
20
-1.42391229302407
30
0
41
1
10
51.4093210871169
20
0.0267396821718364
30
0
41
1
10
50.5407045952461
20
0.317514934297009
30
0
41
1
10
48.8050845880211
20
0.896018017491201
30
0
41
1
10
47.9382159595528
20
1.18370361038418
30
0
41
1
10
45.3394975357814
20
2.03900192962283
30
0
41
1
10
43.6094997008613
20
2.59862719603868
30
0
41
1
10
41.0127254363403
20
3.40422908266237
30
0
41
1
10
40.1467406113395
20
3.66698575778417
30
0
41
1
10
38.4129514136801
20
4.17838262796781
30
0
41
1
10
37.5442682472905
20
4.4272489634771
30
0
41
1
10
34.9422749998175
20
5.1472674135151
30
0
41
1
10
33.2127945353074
20
5.59162212049441
30
0
41
1
10
29.7566955370787
20
6.39114134000005
30
0
41
1
10
28.0297897300598
20
6.74646545189023
30
0
41
1
10
24.5716172566363
20
7.35826501363746
30
0
41
1
10
22.8406598618528
20
7.61488042266214
30
0
41
1
10
21.1040000000342
20
7.81195776522489
30
0
0
SPLINE
5
15D
100
AcDbEntity
8
1
62
256
6
ByLayer
370
18
48
1
60
0
100
AcDbSpline
70
4
71
3
72
8
73
4
40
0
40
0
40
0
40
0
40
1
40
1
40
1
40
1
41
1
10
209.132071419892
20
-4.38921196254037
30
0
41
1
10
209.146633321068
20
-4.37286134557777
30
0
41
1
10
209.161195989718
20
-4.35649730033529
30
0
41
1
10
209.175759516821
20
-4.34011823497855
30
0
0
SPLINE
5
15E
100
AcDbEntity
8
1
62
256
6
ByLayer
370
18
48
1
60
0
100
AcDbSpline
70
4
71
3
72
8
73
4
40
0
40
0
40
0
40
0
40
1
40
1
40
1
40
1
41
1
10
200.837318327291
20
-8.7022562099699
30
0
41
1
10
200.837318327291
20
-8.65992443473522
30
0
41
1
10
200.837318327291
20
-8.60864821847537
30
0
41
1
10
200.837318327291
20
-8.54842403526806
30
0
0
SPLINE
5
15F
100
AcDbEntity
8
1
62
256
6
ByLayer
370
18
48
1
60
0
100
AcDbSpline
70
4
71
3
72
52
73
48
40
0
40
0
40
0
40
0
40
0.0104794271813979
40
0.0104794271813979
40
0.0523975783512495
40
0.0523975783512495
40
0.0943157295211009
40
0.0943157295211009
40
0.136233880690952
40
0.136233880690952
40
0.178152031860804
40
0.178152031860804
40
0.220070183030655
40
0.220070183030655
40
0.261988334200507
40
0.261988334200507
40
0.345824636540209
40
0.345824636540209
40
0.387742787710061
40
0.387742787710061
40
0.429660938879914
40
0.429660938879914
40
0.471579090049765
40
0.471579090049765
40
0.513497241219617
40
0.513497241219617
40
0.555415392389469
40
0.555415392389469
40
0.597333543559321
40
0.597333543559321
40
0.639251694729174
40
0.639251694729174
40
0.681169845899026
40
0.681169845899026
40
0.723087997068877
40
0.723087997068877
40
0.765006148238729
40
0.765006148238729
40
0.848842450578435
40
0.848842450578435
40
0.890760601748287
40
0.890760601748287
40
0.93267875291814
40
0.93267875291814
40
0.974596904087992
40
0.974596904087992
40
1
40
1
40
1
40
1
41
1
10
109.738798064972
20
5.8949987328127
30
0
41
1
10
109.962758717562
20
5.94359243859694
30
0
41
1
10
110.186749014472
20
5.99143722431455
30
0
41
1
10
111.30690088663
20
6.22675369843478
30
0
41
1
10
112.20338382682
20
6.4023473049464
30
0
41
1
10
113.994886160846
20
6.7265246416197
30
0
41
1
10
114.890390883741
20
6.87490177293969
30
0
41
1
10
116.68165211726
20
7.14622651109082
30
0
41
1
10
117.577335790726
20
7.26973380108646
30
0
41
1
10
119.369848997004
20
7.48828986875435
30
0
41
1
10
120.26579870631
20
7.58317610897234
30
0
41
1
10
122.056736776007
20
7.74101051874854
30
0
41
1
10
122.951977725414
20
7.8038855053918
30
0
41
1
10
124.74308003773
20
7.89798731680091
30
0
41
1
10
125.639091118355
20
7.92889996388789
30
0
41
1
10
128.328358229946
20
7.97813722474927
30
0
41
1
10
130.118290429941
20
7.95439177840183
30
0
41
1
10
132.805097343717
20
7.81973337817965
30
0
41
1
10
133.70148086514
20
7.75841486436679
30
0
41
1
10
135.494104955937
20
7.6049288258657
30
0
41
1
10
136.389886614286
20
7.51255356666653
30
0
41
1
10
138.181200879743
20
7.30079111372493
30
0
41
1
10
139.07666907325
20
7.18182881459458
30
0
41
1
10
140.868211420769
20
6.91614156819759
30
0
41
1
10
141.764788249018
20
6.76929957891403
30
0
41
1
10
143.556823557052
20
6.44843617648809
30
0
41
1
10
144.452316257291
20
6.27439627638862
30
0
41
1
10
146.243349899704
20
5.90213330999057
30
0
41
1
10
147.138919259868
20
5.70373931861857
30
0
41
1
10
148.930845596921
20
5.2866151377159
30
0
41
1
10
149.827478554118
20
5.06801725597967
30
0
41
1
10
151.619101185423
20
4.61197627461488
30
0
41
1
10
152.514395319626
20
4.37446882273883
30
0
41
1
10
154.305104766545
20
3.88245937872318
30
0
41
1
10
155.200543349786
20
3.62796846267898
30
0
41
1
10
156.992642973667
20
3.10552638132262
30
0
41
1
10
157.889393329443
20
2.83750708254775
30
0
41
1
10
160.577100968062
20
2.01998973966005
30
0
41
1
10
162.367025043452
20
1.45573697695883
30
0
41
1
10
165.055635694712
20
0.596691614877102
30
0
41
1
10
165.95211396319
20
0.308574685888232
30
0
41
1
10
167.743681481494
20
-0.266790915298515
30
0
41
1
10
168.639232113413
20
-0.554087753406151
30
0
41
1
10
170.430616762522
20
-1.12581670698273
30
0
41
1
10
171.326384977214
20
-1.41048903863847
30
0
41
1
10
172.765863404146
20
-1.86340301769525
30
0
41
1
10
173.308891215754
20
-2.03323657518953
30
0
41
1
10
173.851786128523
20
-2.20145190850457
30
0
0
SPLINE
5
160
100
AcDbEntity
8
1
62
256
6
ByLayer
370
18
48
1
60
0
100
AcDbSpline
70
4
71
3
72
32
73
28
40
0
40
0
40
0
40
0
40
0.124999999999992
40
0.124999999999992
40
0.187499999999989
40
0.187499999999989
40
0.249999999999985
40
0.249999999999985
40
0.312499999999981
40
0.312499999999981
40
0.374999999999977
40
0.374999999999977
40
0.49999999999997
40
0.49999999999997
40
0.562499999999972
40
0.562499999999972
40
0.624999999999974
40
0.624999999999974
40
0.687499999999976
40
0.687499999999976
40
0.749999999999978
40
0.749999999999978
40
0.874999999999996
40
0.874999999999996
40
0.937499999999998
40
0.937499999999998
40
1
40
1
40
1
40
1
41
1
10
192
20
-1.96055611570114
30
0
41
1
10
192
20
-2.18415451440109
30
0
41
1
10
191.974740870787
20
-2.40131600687349
30
0
41
1
10
191.899181547224
20
-2.7178353756801
30
0
41
1
10
191.867470925066
20
-2.82228600691923
30
0
41
1
10
191.791559885675
20
-3.02578911039302
30
0
41
1
10
191.747779378914
20
-3.12391973440177
30
0
41
1
10
191.648902060852
20
-3.31334730871771
30
0
41
1
10
191.593804528167
20
-3.40464329844551
30
0
41
1
10
191.472184608743
20
-3.58057094666492
30
0
41
1
10
191.405181776985
20
-3.66570753641784
30
0
41
1
10
191.190273111091
20
-3.90667472334383
30
0
41
1
10
191.029268549638
20
-4.04820816639543
30
0
41
1
10
190.761364178837
20
-4.23405607286898
30
0
41
1
10
190.66703918939
20
-4.29181332809847
30
0
41
1
10
190.473482585911
20
-4.39602038985257
30
0
41
1
10
190.373979710972
20
-4.44274537638
30
0
41
1
10
190.169599907043
20
-4.52590199677326
30
0
41
1
10
190.064722987286
20
-4.56233304137712
30
0
41
1
10
189.849460558586
20
-4.6249102507449
30
0
41
1
10
189.73846379281
20
-4.651117869811
30
0
41
1
10
189.40498303854
20
-4.71240687403244
30
0
41
1
10
189.180117047522
20
-4.73120086590998
30
0
41
1
10
188.838979681688
20
-4.7265927048619
30
0
41
1
10
188.724197141992
20
-4.71943966306179
30
0
41
1
10
188.497631331442
20
-4.69402354554802
30
0
41
1
10
188.38540298053
20
-4.67579536737793
30
0
41
1
10
188.274234313201
20
-4.65194354457276
30
0
0
SPLINE
5
161
100
AcDbEntity
8
1
62
256
6
ByLayer
370
18
48
1
60
0
100
AcDbSpline
70
4
71
3
72
14
73
10
40
0
40
0
40
0
40
0
40
0.500000000000026
40
0.500000000000026
40
0.625000000000022
40
0.625000000000022
40
0.750000000000019
40
0.750000000000019
40
1
40
1
40
1
40
1
41
1
10
208.952697472392
20
-8.84461796179494
30
0
41
1
10
208.709895204111
20
-8.86549556395806
30
0
41
1
10
208.487547400168
20
-8.826454779947
30
0
41
1
10
208.236970318494
20
-8.69751346460683
30
0
41
1
10
208.188236846462
20
-8.66767699616889
30
0
41
1
10
208.093640890436
20
-8.59959391629374
30
0
41
1
10
208.047724865889
20
-8.56127323338583
30
0
41
1
10
207.915609102769
20
-8.43429597468909
30
0
41
1
10
207.834643272516
20
-8.33344603924999
30
0
41
1
10
207.761081748264
20
-8.21573035940929
30
0
0
SPLINE
5
162
100
AcDbEntity
8
1
62
256
6
ByLayer
370
18
48
1
60
0
100
AcDbSpline
70
4
71
3
72
8
73
4
40
0
40
0
40
0
40
0
40
1
40
1
40
1
40
1
41
1
10
200.5
20
3.90000000000001
30
0
41
1
10
200.566660504691
20
3.90000000000001
30
0
41
1
10
200.633327285346
20
3.90000000000001
30
0
41
1
10
200.7
20
3.90000000000001
30
0
0
SPLINE
5
163
100
AcDbEntity
8
1
62
256
6
ByLayer
370
18
48
1
60
0
100
AcDbSpline
70
4
71
3
72
8
73
4
40
0
40
0
40
0
40
0
40
1
40
1
40
1
40
1
41
1
10
21.1040000000341
20
-7.81195708838223
30
0
41
1
10
21.1040000000371
20
-7.93874134672066
30
0
41
1
10
21.10400000004
20
-8.06451165684385
30
0
41
1
10
21.104000000043
20
-8.18926915368914
30
0
0
SPLINE
5
164
100
AcDbEntity
8
1
62
256
6
ByLayer
370
18
48
1
60
0
100
AcDbSpline
70
4
71
3
72
10
73
6
40
0
40
0
40
0
40
0
40
0.168085809786467
40
0.168085809786467
40
1
40
1
40
1
40
1
41
1
10
204.398086671634
20
8.99999356148203
30
0
41
1
10
204.663783850659
20
8.99999368328275
30
0
41
1
10
204.929461358927
20
8.99747696311968
30
0
41
1
10
206.510090420056
20
8.967477191553
30
0
41
1
10
207.82647806315
20
8.8812451991283
30
0
41
1
10
209.140935582165
20
8.73411960784938
30
0
0
SPLINE
5
165
100
AcDbEntity
8
1
62
256
6
ByLayer
370
18
48
1
60
0
100
AcDbSpline
70
4
71
3
72
9
73
5
40
0
40
0
40
0
40
0
40
0.628148269846165
40
1
40
1
40
1
40
1
41
1
10
206.340670637344
20
1.16269740489241
30
0
41
1
10
205.542931598164
20
1.25274771419748
30
0
41
1
10
204.272946345517
20
1.39610607977431
30
0
41
1
10
203.003598463661
20
1.54496506710078
30
0
41
1
10
202.531624712598
20
1.60062452171914
30
0
0
SPLINE
5
166
100
AcDbEntity
8
1
62
256
6
ByLayer
370
18
48
1
60
0
100
AcDbSpline
70
4
71
3
72
54
73
50
40
0
40
0
40
0
40
0
40
0.0652995939540253
40
0.0652995939540253
40
0.097949390931038
40
0.097949390931038
40
0.114274289419545
40
0.114274289419545
40
0.130599187908052
40
0.130599187908052
40
0.195898781862078
40
0.195898781862078
40
0.228548578839091
40
0.228548578839091
40
0.261198375816105
40
0.261198375816105
40
0.326497969770133
40
0.326497969770133
40
0.359147766747147
40
0.359147766747147
40
0.391797563724161
40
0.391797563724161
40
0.457097157678189
40
0.457097157678189
40
0.522396751632217
40
0.522396751632217
40
0.555046548609231
40
0.555046548609231
40
0.587696345586246
40
0.587696345586246
40
0.652995939540275
40
0.652995939540275
40
0.685645736517289
40
0.685645736517289
40
0.718295533494304
40
0.718295533494304
40
0.783595127448334
40
0.783595127448334
40
0.816244924425349
40
0.816244924425349
40
0.832569822913857
40
0.832569822913857
40
0.848894721402365
40
0.848894721402365
40
0.914194315356394
40
0.914194315356394
40
0.979493909310423
40
0.979493909310423
40
1
40
1
40
1
40
1
41
1
10
191.017676666984
20
-7.12978825975344
30
0
41
1
10
189.222320501245
20
-6.75966396620666
30
0
41
1
10
187.430489631437
20
-6.3342926275775
30
0
41
1
10
184.743103888921
20
-5.62055319036153
30
0
41
1
10
183.846566876206
20
-5.36993978105036
30
0
41
1
10
182.503380430142
20
-4.9787641922004
30
0
41
1
10
182.05597811472
20
-4.84585198215566
30
0
41
1
10
181.161640201275
20
-4.57543918308212
30
0
41
1
10
180.71496937735
20
-4.43726731930502
30
0
41
1
10
178.476988129503
20
-3.74950503307187
30
0
41
1
10
176.690080784419
20
-3.16396696649053
30
0
41
1
10
174.007810398135
20
-2.25016031171114
30
0
41
1
10
173.113333322024
20
-1.93982870045946
30
0
41
1
10
171.321772805138
20
-1.31273569146091
30
0
41
1
10
170.424716244167
20
-0.99598211177539
30
0
41
1
10
167.738315464793
20
-0.0459274571374522
30
0
41
1
10
165.950902851235
20
0.590628163609438
30
0
41
1
10
163.269710653172
20
1.53495937141636
30
0
41
1
10
162.375896125236
20
1.84777985358946
30
0
41
1
10
160.586590093914
20
2.46525654679329
30
0
41
1
10
159.690783041717
20
2.76993568547189
30
0
41
1
10
157.000261826111
20
3.6644594403048
30
0
41
1
10
155.211502724839
20
4.23425657028028
30
0
41
1
10
151.636720302151
20
5.3027310756691
30
0
41
1
10
149.850470934658
20
5.8005521860263
30
0
41
1
10
147.163377783614
20
6.47179299653089
30
0
41
1
10
146.265745905866
20
6.68347809646917
30
0
41
1
10
144.473913897722
20
7.07964139542898
30
0
41
1
10
143.579165917685
20
7.26418353253999
30
0
41
1
10
140.89690318221
20
7.77458062510607
30
0
41
1
10
139.111305370707
20
8.05668004165005
30
0
41
1
10
136.427309164008
20
8.38121957024202
30
0
41
1
10
135.531842842723
20
8.4732200956669
30
0
41
1
10
133.738682583074
20
8.62414721596238
30
0
41
1
10
132.842094626379
20
8.68290168050777
30
0
41
1
10
130.15734713802
20
8.8076972342954
30
0
41
1
10
128.371519870681
20
8.82200011143073
30
0
41
1
10
125.689312990069
20
8.74054795101125
30
0
41
1
10
124.794792803641
20
8.69635655443665
30
0
41
1
10
123.451876440735
20
8.60459491140935
30
0
41
1
10
123.004036783859
20
8.56976351937701
30
0
41
1
10
122.107829995879
20
8.49163645297861
30
0
41
1
10
121.659268385511
20
8.4483168975251
30
0
41
1
10
119.418824947223
20
8.2110902156281
30
0
41
1
10
117.631909822592
20
7.95476333559299
30
0
41
1
10
114.056293245933
20
7.32526878726352
30
0
41
1
10
112.268328577219
20
6.9515598450663
30
0
41
1
10
109.9140583622
20
6.38972235881704
30
0
41
1
10
109.350943141758
20
6.25014342130993
30
0
41
1
10
108.788099339328
20
6.1058712677339
30
0
0
SPLINE
5
167
100
AcDbEntity
8
1
62
256
6
ByLayer
370
18
48
1
60
0
100
AcDbSpline
70
4
71
3
72
20
73
16
40
0
40
0
40
0
40
0
40
0.0673221835260715
40
0.0673221835260715
40
0.152111075932792
40
0.152111075932792
40
0.321688860746234
40
0.321688860746234
40
0.491266645559675
40
0.491266645559675
40
0.660844430373117
40
0.660844430373117
40
0.830422215186558
40
0.830422215186558
40
1
40
1
40
1
40
1
41
1
10
50.8686442625894
20
-8.79999916449665
30
0
41
1
10
50.1582897809726
20
-8.79980839309917
30
0
41
1
10
49.4474622982218
20
-8.7888010799044
30
0
41
1
10
47.840004069014
20
-8.73943580030493
30
0
41
1
10
46.9426195156249
20
-8.69465115861902
30
0
41
1
10
44.2564734063523
20
-8.50941391622607
30
0
41
1
10
42.4703220957022
20
-8.31758490275155
30
0
41
1
10
38.8945729462299
20
-7.80946269719652
30
0
41
1
10
37.1056012750701
20
-7.49301226667492
30
0
41
1
10
33.5186182990427
20
-6.74311653412113
30
0
41
1
10
31.7324384240859
20
-6.31207261043883
30
0
41
1
10
28.1629023584002
20
-5.36435393279584
30
0
41
1
10
26.3790111666186
20
-4.84910129161438
30
0
41
1
10
22.8098410585199
20
-3.74298959014752
30
0
41
1
10
21.0244388047248
20
-3.15195982271297
30
0
41
1
10
19.2324753012412
20
-2.53675500228579
30
0
0
SPLINE
5
168
100
AcDbEntity
8
1
62
256
6
ByLayer
370
18
48
1
60
0
100
AcDbSpline
70
4
71
2
72
9
73
6
40
0
40
0
40
0
40
0.25
40
0.5
40
0.75
40
1
40
1
40
1
41
1
10
205.56875041343
20
-2.56189340607685
30
0
41
1
10
205.642228223618
20
-3.21503196191253
30
0
41
1
10
205.862936755657
20
-4.44704210009508
30
0
41
1
10
206.150214031598
20
-5.56431148907637
30
0
41
1
10
206.499221503918
20
-6.54795241013551
30
0
41
1
10
206.69888306468
20
-6.9567013996143
30
0
0
SPLINE
5
169
100
AcDbEntity
8
1
62
256
6
ByLayer
370
18
48
1
60
0
100
AcDbSpline
70
4
71
3
72
9
73
5
40
0
40
0
40
0
40
0
40
0.494780081398412
40
1
40
1
40
1
40
1
41
1
10
200.700000005195
20
7.84395822638763
30
0
41
1
10
200.684588123987
20
7.87168530869323
30
0
41
1
10
200.653439171578
20
7.9277245134794
30
0
41
1
10
200.62127783797
20
7.98324988171902
30
0
41
1
10
200.605029291622
20
8.01130240374135
30
0
0
SPLINE
5
16A
100
AcDbEntity
8
1
62
256
6
ByLayer
370
18
48
1
60
0
100
AcDbSpline
70
4
71
3
72
8
73
4
40
0
40
0
40
0
40
0
40
1
40
1
40
1
40
1
41
1
10
209.192388524609
20
-8.58288293848634
30
0
41
1
10
209.090648502161
20
-8.73528176441457
30
0
41
1
10
209.010677128009
20
-8.82274856519905
30
0
41
1
10
208.952697472392
20
-8.84461796179494
30
0
0
SPLINE
5
16B
100
AcDbEntity
8
1
62
256
6
ByLayer
370
18
48
1
60
0
100
AcDbSpline
70
4
71
3
72
8
73
4
40
0
40
0
40
0
40
0
40
1
40
1
40
1
40
1
41
1
10
200.7
20
8.74908030120963
30
0
41
1
10
200.883443343123
20
8.82431410312191
30
0
41
1
10
201.066602407828
20
8.8984662213233
30
0
41
1
10
201.249495483891
20
8.97148617164305
30
0
0
SPLINE
5
16C
100
AcDbEntity
8
1
62
256
6
ByLayer
370
18
48
1
60
0
100
AcDbSpline
70
4
71
3
72
8
73
4
40
0
40
0
40
0
40
0
40
1
40
1
40
1
40
1
41
1
10
13.3955247282373
20
-9.41509495643541
30
0
41
1
10
13.4461659265556
20
-9.39639290158047
30
0
41
1
10
13.4975998072005
20
-9.37704357506593
30
0
41
1
10
13.5498562539297
20
-9.35710773600923
30
0
0
SPLINE
5
16D
100
AcDbEntity
8
1
62
256
6
ByLayer
370
18
48
1
60
0
100
AcDbSpline
70
4
71
3
72
8
73
4
40
0
40
0
40
0
40
0
40
1
40
1
40
1
40
1
41
1
10
209.379867456426
20
3.09369156742932
30
0
41
1
10
209.382620776325
20
3.0959101082685
30
0
41
1
10
209.385375612945
20
3.09812728084748
30
0
41
1
10
209.388131972076
20
3.1003430545573
30
0
0
SPLINE
5
16E
100
AcDbEntity
8
1
62
256
6
ByLayer
370
18
48
1
60
0
100
AcDbSpline
70
4
71
3
72
8
73
4
40
0
40
0
40
0
40
0
40
1
40
1
40
1
40
1
41
1
10
211.898093908503
20
-0.295776490547723
30
0
41
1
10
211.930271611979
20
-0.172664284510319
30
0
41
1
10
211.958789247266
20
-0.0508669282808683
30
0
41
1
10
211.984115930127
20
0.0697841041736922
30
0
0
SPLINE
5
16F
100
AcDbEntity
8
1
62
256
6
ByLayer
370
18
48
1
60
0
100
AcDbSpline
70
4
71
3
72
12
73
8
40
0
40
0
40
0
40
0
40
0.417135037890598
40
0.417135037890598
40
0.708567385549631
40
0.708567385549631
40
1
40
1
40
1
40
1
41
1
10
200.699999997661
20
8.5754642869079
30
0
41
1
10
200.686536345747
20
8.58961944150539
30
0
41
1
10
200.673067867812
20
8.60377255658915
30
0
41
1
10
200.650181537012
20
8.62781039437334
30
0
41
1
10
200.640766113046
20
8.63769613975549
30
0
41
1
10
200.621930665219
20
8.65746573107168
30
0
41
1
10
200.612510639198
20
8.66734957926656
30
0
41
1
10
200.603088340779
20
8.67723249081396
30
0
0
SPLINE
5
170
100
AcDbEntity
8
1
62
256
6
ByLayer
370
18
48
1
60
0
100
AcDbSpline
70
4
71
3
72
14
73
10
40
0
40
0
40
0
40
0
40
0.249999999999999
40
0.249999999999999
40
0.5
40
0.5
40
0.75
40
0.75
40
1
40
1
40
1
40
1
41
1
10
211.789758723394
20
0.848067372405637
30
0
41
1
10
211.758836679705
20
0.978756233739745
30
0
41
1
10
211.720565943828
20
1.12755194037862
30
0
41
1
10
211.630858351736
20
1.45540394263835
30
0
41
1
10
211.579424122189
20
1.63445052010368
30
0
41
1
10
211.465454420796
20
2.01561511295336
30
0
41
1
10
211.402922020991
20
2.21772285409017
30
0
41
1
10
211.269266161121
20
2.6368960539732
30
0
41
1
10
211.198147576971
20
2.85394642073626
30
0
41
1
10
211.124158475552
20
3.07412609122232
30
0
0
SPLINE
5
171
100
AcDbEntity
8
1
62
256
6
ByLayer
370
18
48
1
60
0
100
AcDbSpline
70
4
71
3
72
12
73
8
40
0
40
0
40
0
40
0
40
0.202253475409802
40
0.403373830375224
40
0.603367393665269
40
0.802240601626619
40
1
40
1
40
1
40
1
41
1
10
204.63356028866
20
-0.102669667282754
30
0
41
1
10
204.619657595194
20
-0.0535500907506048
30
0
41
1
10
204.591930097781
20
0.0444138710158768
30
0
41
1
10
204.551485222063
20
0.191233171362711
30
0
41
1
10
204.512050292373
20
0.337384271767377
30
0
41
1
10
204.473620050499
20
0.482846935683426
30
0
41
1
10
204.448780410319
20
0.579614202694046
30
0
41
1
10
204.436395467126
20
0.627861966999404
30
0
0
SPLINE
5
172
100
AcDbEntity
8
1
62
256
6
ByLayer
370
18
48
1
60
0
100
AcDbSpline
70
4
71
3
72
8
73
4
40
0
40
0
40
0
40
0
40
1
40
1
40
1
40
1
41
1
10
200.5
20
3.90000000000001
30
0
41
1
10
200.5
20
3.42050871521045
30
0
41
1
10
200.5
20
3.03793683738428
30
0
41
1
10
200.5
20
2.74470585277811
30
0
0
SPLINE
5
173
100
AcDbEntity
8
1
62
256
6
ByLayer
370
18
48
1
60
0
100
AcDbSpline
70
4
71
3
72
10
73
6
40
0
40
0
40
0
40
0
40
0.5
40
0.5
40
1
40
1
40
1
40
1
41
1
10
209.414998374752
20
3.11155081999519
30
0
41
1
10
209.687588269295
20
3.13392448688745
30
0
41
1
10
209.959463808176
20
3.16085791893829
30
0
41
1
10
210.500615942029
20
3.23131396194188
30
0
41
1
10
210.769966509246
20
3.27436440464501
30
0
41
1
10
211.036621143602
20
3.3346231112169
30
0
0
SPLINE
5
174
100
AcDbEntity
8
1
62
256
6
ByLayer
370
18
48
1
60
0
100
AcDbSpline
70
4
71
3
72
12
73
8
40
0
40
0
40
0
40
0
40
0.500000000000037
40
0.500000000000037
40
0.750000000000019
40
0.750000000000019
40
1
40
1
40
1
40
1
41
1
10
187.435060288089
20
5.91781162924195
30
0
41
1
10
187.604059762016
20
5.8655399584525
30
0
41
1
10
187.777714101948
20
5.82549380635732
30
0
41
1
10
188.044983632751
20
5.78439729738665
30
0
41
1
10
188.135212492495
20
5.77387365852496
30
0
41
1
10
188.318015047319
20
5.75946787874454
30
0
41
1
10
188.410530376455
20
5.75562353931619
30
0
41
1
10
188.502845876645
20
5.75525379631435
30
0
0
SPLINE
5
175
100
AcDbEntity
8
1
62
256
6
ByLayer
370
18
48
1
60
0
100
AcDbSpline
70
4
71
3
72
8
73
4
40
0
40
0
40
0
40
0
40
1
40
1
40
1
40
1
41
1
10
186.914565355411
20
-4.35763601756506
30
0
41
1
10
187.15933276802
20
-4.33371590076567
30
0
41
1
10
187.426142477855
20
-4.32605692967036
30
0
41
1
10
187.710059642637
20
-4.33101854545575
30
0
0
SPLINE
5
176
100
AcDbEntity
8
1
62
256
6
ByLayer
370
18
48
1
60
0
100
AcDbSpline
70
4
71
3
72
8
73
4
40
0
40
0
40
0
40
0
40
1
40
1
40
1
40
1
41
1
10
204.436395476741
20
0.627861892766731
30
0
41
1
10
204.481247372196
20
0.627410419603649
30
0
41
1
10
204.526099256424
20
0.627132406794232
30
0
41
1
10
204.570951138528
20
0.627027442646465
30
0
0
SPLINE
5
177
100
AcDbEntity
8
1
62
256
6
ByLayer
370
18
48
1
60
0
100
AcDbSpline
70
4
71
3
72
21
73
17
40
0
40
0
40
0
40
0
40
0.0285315591243418
40
0.0569776829913154
40
0.0854079000389203
40
0.113891855189689
40
0.14249880088534
40
0.213542909885012
40
0.28406801786161
40
0.355290472937547
40
0.425561433262046
40
0.566406378688636
40
0.706787191657665
40
0.846834530447503
40
0.986459744748568
40
1
40
1
40
1
40
1
41
1
10
200.600001989267
20
-8.4288490379605
30
0
41
1
10
200.600239506913
20
-8.42404213148836
30
0
41
1
10
200.60071383098
20
-8.41444271240488
30
0
41
1
10
200.604533580836
20
-8.39974700684601
30
0
41
1
10
200.610632723412
20
-8.38488546247626
30
0
41
1
10
200.619230591078
20
-8.36983745949215
30
0
41
1
10
200.635705106517
20
-8.34713331404302
30
0
41
1
10
200.665664493185
20
-8.31670123520829
30
0
41
1
10
200.717514138169
20
-8.27903476849272
30
0
41
1
10
200.782506236555
20
-8.24261954185698
30
0
41
1
10
200.886085306419
20
-8.19693959734519
30
0
41
1
10
201.044830551196
20
-8.14728772283291
30
0
41
1
10
201.271926119511
20
-8.10787787445
30
0
41
1
10
201.518315404509
20
-8.09540366228291
30
0
41
1
10
201.689760905892
20
-8.10699714860434
30
0
41
1
10
201.774028497288
20
-8.11839495660104
30
0
41
1
10
201.781477987701
20
-8.11940255465845
30
0
0
SPLINE
5
178
100
AcDbEntity
8
1
62
256
6
ByLayer
370
18
48
1
60
0
100
AcDbSpline
70
4
71
3
72
10
73
6
40
0
40
0
40
0
40
0
40
0.40990398614189
40
0.40990398614189
40
1
40
1
40
1
40
1
41
1
10
204.375176986722
20
-8.84998088132534
30
0
41
1
10
203.891952571396
20
-8.84973344996763
30
0
41
1
10
203.408742784434
20
-8.84130995724561
30
0
41
1
10
202.229430514548
20
-8.80088012440976
30
0
41
1
10
201.533324738972
20
-8.76011607848096
30
0
41
1
10
200.837318327293
20
-8.70225620997002
30
0
0
SPLINE
5
179
100
AcDbEntity
8
1
62
256
6
ByLayer
370
18
48
1
60
0
100
AcDbSpline
70
4
71
3
72
14
73
10
40
0
40
0
40
0
40
0
40
0.239821703765407
40
0.239821703765407
40
0.572628132766889
40
0.572628132766889
40
0.905434563884749
40
0.905434563884749
40
1
40
1
40
1
40
1
41
1
10
192.361818590856
20
7.41578489589443
30
0
41
1
10
192.362251639104
20
7.42999824780441
30
0
41
1
10
192.362697847288
20
7.44420639562273
30
0
41
1
10
192.363794996425
20
7.47811934993996
30
0
41
1
10
192.364458239397
20
7.49781944618275
30
0
41
1
10
192.365836578031
20
7.53720055190902
30
0
41
1
10
192.366551674313
20
7.55688157860791
30
0
41
1
10
192.367503681823
20
7.58214299822762
30
0
41
1
10
192.367716454566
20
7.58773189834119
30
0
41
1
10
192.367931354919
20
7.59332005855069
30
0
0
SPLINE
5
17A
100
AcDbEntity
8
1
62
256
6
ByLayer
370
18
48
1
60
0
100
AcDbSpline
70
4
71
3
72
12
73
8
40
0
40
0
40
0
40
0
40
0.499999999999986
40
0.499999999999986
40
0.749999999999993
40
0.749999999999993
40
1
40
1
40
1
40
1
41
1
10
18.8
20
-2.39910515810561
30
0
41
1
10
18.5632299008399
20
-2.34263625544773
30
0
41
1
10
18.3252344456917
20
-2.31560334297225
30
0
41
1
10
17.96640328762
20
-2.31698381103979
30
0
41
1
10
17.8457767789919
20
-2.3246148347304
30
0
41
1
10
17.6075510442231
20
-2.35405814710933
30
0
41
1
10
17.4904103851754
20
-2.37571330536105
30
0
41
1
10
17.3752119406276
20
-2.40406792220205
30
0
0
SPLINE
5
17B
100
AcDbEntity
8
1
62
256
6
ByLayer
370
18
48
1
60
0
100
AcDbSpline
70
4
71
3
72
18
73
14
40
0
40
0
40
0
40
0
40
0.250000000000008
40
0.250000000000008
40
0.375000000000007
40
0.375000000000007
40
0.500000000000005
40
0.500000000000005
40
0.625000000000004
40
0.625000000000004
40
0.750000000000003
40
0.750000000000003
40
1
40
1
40
1
40
1
41
1
10
13.8189321982923
20
-9.25927153633504
30
0
41
1
10
13.9236102105081
20
-9.21221396629056
30
0
41
1
10
14.0483458697648
20
-9.15355048412638
30
0
41
1
10
14.2663323820434
20
-9.05725968067296
30
0
41
1
10
14.3447766140173
20
-9.02352382717868
30
0
41
1
10
14.5088903671667
20
-8.95616848820742
30
0
41
1
10
14.5944966907594
20
-8.92255462800159
30
0
41
1
10
14.7726260393399
20
-8.85674758710937
30
0
41
1
10
14.8651491491858
20
-8.8245507339382
30
0
41
1
10
15.0571831469169
20
-8.76271437466335
30
0
41
1
10
15.1566570695229
20
-8.73312689621758
30
0
41
1
10
15.4586828988277
20
-8.65155413567928
30
0
41
1
10
15.6670261664156
20
-8.60601083484772
30
0
41
1
10
15.8825563040205
20
-8.571552076014
30
0
0
SPLINE
5
17C
100
AcDbEntity
8
1
62
256
6
ByLayer
370
18
48
1
60
0
100
AcDbSpline
70
4
71
3
72
18
73
14
40
0
40
0
40
0
40
0
40
0.250000000000007
40
0.250000000000007
40
0.375000000000006
40
0.375000000000006
40
0.500000000000005
40
0.500000000000005
40
0.625000000000004
40
0.625000000000004
40
0.750000000000002
40
0.750000000000002
40
1
40
1
40
1
40
1
41
1
10
13.8189321982923
20
9.25927153633504
30
0
41
1
10
13.9236102105081
20
9.21221396629056
30
0
41
1
10
14.0483458697648
20
9.15355048412636
30
0
41
1
10
14.2663323820433
20
9.05725968067296
30
0
41
1
10
14.3447766140173
20
9.02352382717868
30
0
41
1
10
14.5088903671667
20
8.95616848820745
30
0
41
1
10
14.5944966907594
20
8.92255462800162
30
0
41
1
10
14.7726260393399
20
8.85674758710937
30
0
41
1
10
14.8651491491857
20
8.8245507339382
30
0
41
1
10
15.0571831469169
20
8.76271437466335
30
0
41
1
10
15.1566570695229
20
8.73312689621758
30
0
41
1
10
15.4586828988277
20
8.65155413567928
30
0
41
1
10
15.6670261664156
20
8.60601083484772
30
0
41
1
10
15.8825563040205
20
8.571552076014
30
0
0
SPLINE
5
17D
100
AcDbEntity
8
1
62
256
6
ByLayer
370
18
48
1
60
0
100
AcDbSpline
70
4
71
3
72
8
73
4
40
0
40
0
40
0
40
0
40
1
40
1
40
1
40
1
41
1
10
211.984115930127
20
-0.0697841041736922
30
0
41
1
10
211.972481805753
20
-0.108938074093231
30
0
41
1
10
211.960903567407
20
-0.147984915675209
30
0
41
1
10
211.949380840628
20
-0.186925346730391
30
0
0
SPLINE
5
17E
100
AcDbEntity
8
1
62
256
6
ByLayer
370
18
48
1
60
0
100
AcDbSpline
70
4
71
3
72
14
73
10
40
0
40
0
40
0
40
0
40
0.25
40
0.25
40
0.5
40
0.5
40
0.75
40
0.75
40
1
40
1
40
1
40
1
41
1
10
201.6
20
2.01153421903987
30
0
41
1
10
202.091357870696
20
1.94727444551057
30
0
41
1
10
202.58286270628
20
1.88429485734071
30
0
41
1
10
203.566170141744
20
1.76092945359559
30
0
41
1
10
204.057991614303
20
1.70070803459947
30
0
41
1
10
205.042337636219
20
1.58638957533194
30
0
41
1
10
205.534803567621
20
1.53178192432043
30
0
41
1
10
206.519720142678
20
1.42243345341421
30
0
41
1
10
207.012250373483
20
1.36838590323302
30
0
41
1
10
207.504905217054
20
1.31542383300877
30
0
0
SPLINE
5
17F
100
AcDbEntity
8
1
62
256
6
ByLayer
370
18
48
1
60
0
100
AcDbSpline
70
4
71
3
72
8
73
4
40
0
40
0
40
0
40
0
40
1
40
1
40
1
40
1
41
1
10
13.7753233046916
20
9.27854385977543
30
0
41
1
10
13.7893710413573
20
9.27245266925547
30
0
41
1
10
13.803902589649
20
9.26602803511162
30
0
41
1
10
13.8189321982923
20
9.25927153633504
30
0
0
SPLINE
5
180
100
AcDbEntity
8
1
62
256
6
ByLayer
370
18
48
1
60
0
100
AcDbSpline
70
4
71
3
72
10
73
6
40
0
40
0
40
0
40
0
40
0.509913323184345
40
0.509913323184345
40
1
40
1
40
1
40
1
41
1
10
209.140935582196
20
-8.7341196078043
30
0
41
1
10
209.149688229496
20
-8.70840986965396
30
0
41
1
10
209.158437265971
20
-8.68270202598617
30
0
41
1
10
209.17558798268
20
-8.63228991227805
30
0
41
1
10
209.183989956348
20
-8.60758544431599
30
0
41
1
10
209.192388524609
20
-8.58288293848634
30
0
0
SPLINE
5
181
100
AcDbEntity
8
1
62
256
6
ByLayer
370
18
48
1
60
0
100
AcDbSpline
70
4
71
3
72
8
73
4
40
0
40
0
40
0
40
0
40
1
40
1
40
1
40
1
41
1
10
207.648732006444
20
0.522802904844468
30
0
41
1
10
207.590047314477
20
0.785563743878413
30
0
41
1
10
207.54324255673
20
1.04992384998147
30
0
41
1
10
207.504905217054
20
1.31542383300888
30
0
0
SPLINE
5
182
100
AcDbEntity
8
1
62
256
6
ByLayer
370
18
48
1
60
0
100
AcDbSpline
70
4
71
3
72
8
73
4
40
0
40
0
40
0
40
0
40
1
40
1
40
1
40
1
41
1
10
201.249495483867
20
-8.88260959780138
30
0
41
1
10
201.112253239763
20
-8.82305798766683
30
0
41
1
10
200.97486398905
20
-8.7629332518469
30
0
41
1
10
200.837318327291
20
-8.70225620996987
30
0
0
SPLINE
5
183
100
AcDbEntity
8
1
62
256
6
ByLayer
370
18
48
1
60
0
100
AcDbSpline
70
2053
71
3
72
39
73
35
40
0
40
0
40
0
40
0
40
0.0311816450390397
40
0.0622725836649781
40
0.093446482502161
40
0.124735246928173
40
0.155916888973795
40
0.187324474482639
40
0.218594786691102
40
0.250019034833894
40
0.28142510024643
40
0.312733727033091
40
0.344148616062086
40
0.375345650719924
40
0.406622895938507
40
0.437776508863008
40
0.468974844906692
40
0.500163955738857
40
0.53123322423321
40
0.562353789263759
40
0.59359195052286
40
0.624727033731538
40
0.656082600937168
40
0.687332621468534
40
0.718716685636675
40
0.750125773580211
40
0.781439087702773
40
0.812890498852454
40
0.844143229182225
40
0.875472683127404
40
0.906704384760981
40
0.937811919793662
40
0.969007810488425
40
1
40
1
40
1
40
1
41
1
10
197.16
20
-4.74200855318212
30
0
41
1
10
197.287087140476
20
-4.74200918072606
30
0
41
1
10
197.540898142964
20
-4.76399218711202
30
0
41
1
10
197.905987997671
20
-4.8604601712008
30
0
41
1
10
198.241405052355
20
-5.01400033589221
30
0
41
1
10
198.53462443155
20
-5.21538727379399
30
0
41
1
10
198.775583939113
20
-5.45386662841906
30
0
41
1
10
198.954847790789
20
-5.71689712332849
30
0
41
1
10
199.065776872202
20
-5.99264126347137
30
0
41
1
10
199.10333153528
20
-6.26795802639413
30
0
41
1
10
199.065692693818
20
-6.53129952869719
30
0
41
1
10
198.954639787965
20
-6.77276720415824
30
0
41
1
10
198.775129214223
20
-6.98457598730317
30
0
41
1
10
198.534004111396
20
-7.16226215101838
30
0
41
1
10
198.240721004927
20
-7.30249233134353
30
0
41
1
10
197.904968351343
20
-7.40383946704023
30
0
41
1
10
197.539411685618
20
-7.46504159300537
30
0
41
1
10
197.15846128477
20
-7.48536836617589
30
0
41
1
10
196.777920829301
20
-7.46470503858518
30
0
41
1
10
196.412945814853
20
-7.40335887088619
30
0
41
1
10
196.077865669173
20
-7.30193468803475
30
0
41
1
10
195.784510947852
20
-7.16138563112281
30
0
41
1
10
195.544026349517
20
-6.98379419882286
30
0
41
1
10
195.36471352558
20
-6.77169223667198
30
0
41
1
10
195.253993657696
20
-6.53035124980218
30
0
41
1
10
195.216713011745
20
-6.26701963089454
30
0
41
1
10
195.254506184805
20
-5.99148884930949
30
0
41
1
10
195.365632361536
20
-5.71598519836678
30
0
41
1
10
195.545501792227
20
-5.45257507832778
30
0
41
1
10
195.786562029042
20
-5.21436720414644
30
0
41
1
10
196.080127113508
20
-5.01318111961746
30
0
41
1
10
196.415603740795
20
-4.85987622896818
30
0
41
1
10
196.780231212986
20
-4.76382522495794
30
0
41
1
10
197.033685024084
20
-4.74200792945106
30
0
41
1
10
197.16
20
-4.74200855318212
30
0
0
SPLINE
5
184
100
AcDbEntity
8
1
62
256
6
ByLayer
370
18
48
1
60
0
100
AcDbSpline
70
4
71
3
72
14
73
10
40
0
40
0
40
0
40
0
40
0.500000000000008
40
0.500000000000008
40
0.750000000000004
40
0.750000000000004
40
0.875000000000002
40
0.875000000000002
40
1
40
1
40
1
40
1
41
1
10
211.036621143602
20
3.33462311121699
30
0
41
1
10
210.855076133254
20
3.83645143457727
30
0
41
1
10
210.676369933403
20
4.34134369922035
30
0
41
1
10
210.412863926011
20
5.10359648568746
30
0
41
1
10
210.325794584636
20
5.35850748916084
30
0
41
1
10
210.196461595674
20
5.7422458154756
30
0
41
1
10
210.153510648318
20
5.87054943436141
30
0
41
1
10
210.068757961979
20
6.12554947678058
30
0
41
1
10
210.026878115256
20
6.25247531084975
30
0
41
1
10
209.985517673744
20
6.37880046430141
30
0
0
SPLINE
5
185
100
AcDbEntity
8
1
62
256
6
ByLayer
370
18
48
1
60
0
100
AcDbSpline
70
4
71
3
72
8
73
4
40
0
40
0
40
0
40
0
40
1
40
1
40
1
40
1
41
1
10
17
20
-8.43291956548185
30
0
41
1
10
16.6284880181038
20
-8.45815883439522
30
0
41
1
10
16.2556705251362
20
-8.50338228975875
30
0
41
1
10
15.8825563040205
20
-8.571552076014
30
0
0
SPLINE
5
186
100
AcDbEntity
8
1
62
256
6
ByLayer
370
18
48
1
60
0
100
AcDbSpline
70
4
71
3
72
8
73
4
40
0
40
0
40
0
40
0
40
1
40
1
40
1
40
1
41
1
10
191.160393684939
20
6.71661887380347
30
0
41
1
10
191.118473797562
20
6.70659225447187
30
0
41
1
10
191.076674617426
20
6.69865338460051
30
0
41
1
10
191.035002572328
20
6.69273181511934
30
0
0
SPLINE
5
187
100
AcDbEntity
8
1
62
256
6
ByLayer
370
18
48
1
60
0
100
AcDbSpline
70
4
71
3
72
8
73
4
40
0
40
0
40
0
40
0
40
1
40
1
40
1
40
1
41
1
10
208.824904067743
20
8.85000413333987
30
0
41
1
10
208.866915642663
20
8.85013517473158
30
0
41
1
10
208.909516131398
20
8.84833095370499
30
0
41
1
10
208.952697472392
20
8.844617961794
30
0
0
SPLINE
5
188
100
AcDbEntity
8
1
62
256
6
ByLayer
370
18
48
1
60
0
100
AcDbSpline
70
4
71
3
72
8
73
4
40
0
40
0
40
0
40
0
40
1
40
1
40
1
40
1
41
1
10
201.6
20
-8.21570242445657
30
0
41
1
10
201.34470784654
20
-8.31792254997185
30
0
41
1
10
201.087228265532
20
-8.4072531802712
30
0
41
1
10
200.827665800809
20
-8.48431034364128
30
0
0
SPLINE
5
189
100
AcDbEntity
8
1
62
256
6
ByLayer
370
18
48
1
60
0
100
AcDbSpline
70
4
71
3
72
16
73
12
40
0
40
0
40
0
40
0
40
0.250000000000022
40
0.250000000000022
40
0.500000000000044
40
0.500000000000044
40
0.625000000000033
40
0.625000000000033
40
0.750000000000022
40
0.750000000000022
40
1
40
1
40
1
40
1
41
1
10
191.017676666984
20
-7.12978825975344
30
0
41
1
10
191.147030783366
20
-7.15186206197316
30
0
41
1
10
191.275163760005
20
-7.17935422238239
30
0
41
1
10
191.520305128666
20
-7.24257575258596
30
0
41
1
10
191.638314756085
20
-7.27843558061266
30
0
41
1
10
191.808549792362
20
-7.33788397687599
30
0
41
1
10
191.864161229037
20
-7.35864534569316
30
0
41
1
10
191.973083851071
20
-7.40196043702954
30
0
41
1
10
192.026597324092
20
-7.42460803664204
30
0
41
1
10
192.181868616602
20
-7.49431554894531
30
0
41
1
10
192.278277920392
20
-7.54303015973068
30
0
41
1
10
192.367931354919
20
-7.59332005855069
30
0
0
SPLINE
5
18A
100
AcDbEntity
8
1
62
256
6
ByLayer
370
18
48
1
60
0
100
AcDbSpline
70
4
71
3
72
22
73
18
40
0
40
0
40
0
40
0
40
0.249999999999973
40
0.249999999999973
40
0.312499999999976
40
0.312499999999976
40
0.374999999999978
40
0.374999999999978
40
0.499999999999982
40
0.499999999999982
40
0.624999999999987
40
0.624999999999987
40
0.749999999999991
40
0.749999999999991
40
0.874999999999996
40
0.874999999999996
40
1
40
1
40
1
40
1
41
1
10
15.5088668389778
20
-7.83713387244933
30
0
41
1
10
15.2756827524373
20
-7.87256985567183
30
0
41
1
10
15.0554136739451
20
-7.93565227421112
30
0
41
1
10
14.7959455898211
20
-8.04813512973118
30
0
41
1
10
14.7446831913781
20
-8.07242748578176
30
0
41
1
10
14.6450706710085
20
-8.1237705407284
30
0
41
1
10
14.5966272454227
20
-8.15084578145226
30
0
41
1
10
14.4552423238923
20
-8.23609817230937
30
0
41
1
10
14.3662322645446
20
-8.29828860295461
30
0
41
1
10
14.1983109783833
20
-8.43275136444734
30
0
41
1
10
14.1190588597723
20
-8.50539242286413
30
0
41
1
10
13.9723009390571
20
-8.65883837666746
30
0
41
1
10
13.905302351583
20
-8.73899892380166
30
0
41
1
10
13.7832753333274
20
-8.90555697759515
30
0
41
1
10
13.728250499546
20
-8.9919568705366
30
0
41
1
10
13.6299441283811
20
-9.17068771146913
30
0
41
1
10
13.5865690032328
20
-9.26341054601136
30
0
41
1
10
13.5498562539297
20
-9.35710773600925
30
0
0
SPLINE
5
18B
100
AcDbEntity
8
1
62
256
6
ByLayer
370
18
48
1
60
0
100
AcDbSpline
70
4
71
3
72
8
73
4
40
0
40
0
40
0
40
0
40
1
40
1
40
1
40
1
41
1
10
204.702651841909
20
0.859770200861732
30
0
41
1
10
204.659231818832
20
0.781007655206253
30
0
41
1
10
204.61533652687
20
0.703414588758932
30
0
41
1
10
204.570951156592
20
0.627027442620658
30
0
0
SPLINE
5
18C
100
AcDbEntity
8
1
62
256
6
ByLayer
370
18
48
1
60
0
100
AcDbSpline
70
4
71
3
72
8
73
4
40
0
40
0
40
0
40
0
40
1
40
1
40
1
40
1
41
1
10
18.8
20
-8.45316245027479
30
0
41
1
10
18.2007624996658
20
-8.45769871669629
30
0
41
1
10
17.6008813746773
20
-8.45085566218009
30
0
41
1
10
17
20
-8.43291956548185
30
0
0
SPLINE
5
18D
100
AcDbEntity
8
1
62
256
6
ByLayer
370
18
48
1
60
0
100
AcDbSpline
70
4
71
3
72
8
73
4
40
0
40
0
40
0
40
0
40
1
40
1
40
1
40
1
41
1
10
13.7271777641003
20
-9.29888103891233
30
0
41
1
10
13.6516452254431
20
-9.32984599062624
30
0
41
1
10
13.5939668212571
20
-9.34903334874565
30
0
41
1
10
13.5498562539298
20
-9.35710773600923
30
0
0
SPLINE
5
18E
100
AcDbEntity
8
1
62
256
6
ByLayer
370
13
48
1
60
0
100
AcDbSpline
70
4
71
3
72
18
73
14
40
0
40
0
40
0
40
0
40
0.25
40
0.25
40
0.5
40
0.5
40
0.75
40
0.75
40
0.875
40
0.875
40
0.9375
40
0.9375
40
1
40
1
40
1
40
1
41
1
10
210.986138731938
20
0.919200838897268
30
0
41
1
10
210.811390064789
20
1.03821879012114
30
0
41
1
10
210.643507313759
20
1.17034293130604
30
0
41
1
10
210.324854193493
20
1.46478396145358
30
0
41
1
10
210.173913738624
20
1.62711693262625
30
0
41
1
10
209.894123541384
20
1.99157689792281
30
0
41
1
10
209.768967050442
20
2.1889858891027
30
0
41
1
10
209.610003963323
20
2.51427423627871
30
0
41
1
10
209.562512291393
20
2.62644907016687
30
0
41
1
10
209.500861172209
20
2.79960994449158
30
0
41
1
10
209.481882608353
20
2.85820992595293
30
0
41
1
10
209.447249176666
20
2.97727271887337
30
0
41
1
10
209.431510988847
20
3.03809512537171
30
0
41
1
10
209.417726116073
20
3.09919908455572
30
0
0
SPLINE
5
18F
100
AcDbEntity
8
1
62
256
6
ByLayer
370
18
48
1
60
0
100
AcDbSpline
70
4
71
3
72
8
73
4
40
0
40
0
40
0
40
0
40
1
40
1
40
1
40
1
41
1
10
187.710059643182
20
-4.33101854378921
30
0
41
1
10
187.898130375801
20
-4.37160321142466
30
0
41
1
10
188.086189309765
20
-4.41205683974692
30
0
41
1
10
188.274234313201
20
-4.45237505511574
30
0
0
SPLINE
5
190
100
AcDbEntity
8
1
62
256
6
ByLayer
370
18
48
1
60
0
100
AcDbSpline
70
4
71
3
72
8
73
4
40
0
40
0
40
0
40
0
40
1
40
1
40
1
40
1
41
1
10
200.603088344171
20
8.67723248597969
30
0
41
1
10
200.60205888755
20
8.67812111572653
30
0
41
1
10
200.601029439484
20
8.67900961091473
30
0
41
1
10
200.6
20
8.67989797150651
30
0
0
SPLINE
5
191
100
AcDbEntity
8
1
62
256
6
ByLayer
370
18
48
1
60
0
100
AcDbSpline
70
4
71
4
72
10
73
5
40
0
40
0
40
0
40
0
40
0
40
1
40
1
40
1
40
1
40
1
41
1
10
200.7
20
6.81376923122045
30
0
41
1
10
200.7
20
5.49970774423659
30
0
41
0.989222074093199
10
200.7
20
4.09600877975252
30
0
41
0.998352712452377
10
200.7
20
3.06346745344216
30
0
41
0.999832153465764
10
200.7
20
2.47590355006735
30
0
0
SPLINE
5
192
100
AcDbEntity
8
1
62
256
6
ByLayer
370
18
48
1
60
0
100
AcDbSpline
70
4
71
3
72
20
73
16
40
0
40
0
40
0
40
0
40
0.0956734061492178
40
0.212734025496443
40
0.251754231945518
40
0.329794644843668
40
0.407835057741818
40
0.524895677089043
40
0.563915883538119
40
0.641956296436269
40
0.71999670933442
40
0.837057328681644
40
0.876077535130719
40
0.954117948028869
40
1
40
1
40
1
40
1
41
1
10
23.1748316707251
20
-1.56627642153072
30
0
41
1
10
24.2675239615104
20
-1.92567071597219
30
0
41
1
10
26.6951467301928
20
-2.71709890017647
30
0
41
1
10
29.5624907528354
20
-3.61143648530035
30
0
41
1
10
32.2316152013944
20
-4.39161334875783
30
0
41
1
10
34.4574926678844
20
-5.00752527814637
30
0
41
1
10
37.5739849856167
20
-5.80289045956019
30
0
41
1
10
40.2440248522977
20
-6.40578151155893
30
0
41
1
10
42.9146656214285
20
-6.93047301658484
30
0
41
1
10
45.1408819236888
20
-7.31486914473612
30
0
41
1
10
48.2561403916633
20
-7.75694987057506
30
0
41
1
10
50.9242566779179
20
-8.03148927205046
30
0
41
1
10
53.5932156731578
20
-8.21031792188879
30
0
41
1
10
55.4521809855042
20
-8.28022826732288
30
0
41
1
10
56.8661108693854
20
-8.29306874662501
30
0
41
1
10
57.3895921754002
20
-8.29246436328117
30
0
0
SPLINE
5
193
100
AcDbEntity
8
1
62
256
6
ByLayer
370
18
48
1
60
0
100
AcDbSpline
70
4
71
3
72
13
73
9
40
0
40
0
40
0
40
0
40
0.138063188349577
40
0.432440767744446
40
0.530566627542736
40
0.628692487341026
40
0.923070066735894
40
1
40
1
40
1
40
1
41
1
10
174.104490549572
20
-0.0031501098915783
30
0
41
1
10
174.730745775738
20
-0.213756960006322
30
0
41
1
10
176.691930916871
20
-0.874138659439438
30
0
41
1
10
179.096397610657
20
-1.67657215143098
30
0
41
1
10
181.319649028425
20
-2.39464568489484
30
0
41
1
10
183.54625545689
20
-3.09861508653472
30
0
41
1
10
185.677387758256
20
-3.74538356780323
30
0
41
1
10
187.361251735229
20
-4.2314941202545
30
0
41
1
10
187.710059587178
20
-4.33101853170399
30
0
0
SPLINE
5
194
100
AcDbEntity
8
1
62
256
6
ByLayer
370
18
48
1
60
0
100
AcDbSpline
70
4
71
3
72
8
73
4
40
0
40
0
40
0
40
0
40
1
40
1
40
1
40
1
41
1
10
209.985517678819
20
6.37880046525399
30
0
41
1
10
209.754607951241
20
7.08405664025315
30
0
41
1
10
209.520241080946
20
7.79294650048831
30
0
41
1
10
209.282309331657
20
8.50558329148598
30
0
0
SPLINE
5
195
100
AcDbEntity
8
1
62
256
6
ByLayer
370
18
48
1
60
0
100
AcDbSpline
70
2053
71
3
72
39
73
35
40
0
40
0
40
0
40
0
40
0.0303339906590765
40
0.0624383307950974
40
0.0936282141961776
40
0.124894965216916
40
0.156203850560648
40
0.187380634868414
40
0.219465530578857
40
0.249874879577554
40
0.280282868518821
40
0.312397030017965
40
0.343570736034825
40
0.374905326788091
40
0.40607493276413
40
0.437395476620056
40
0.469527167504249
40
0.499835320586687
40
0.530220907714847
40
0.562473869384226
40
0.593709874043315
40
0.625022042565866
40
0.656198485653383
40
0.687536906256607
40
0.719620116581174
40
0.749981049825682
40
0.780321681444016
40
0.812405077073842
40
0.843736108098675
40
0.874897035273804
40
0.906220608216456
40
0.937476872797645
40
0.969668030485812
40
1
40
1
40
1
40
1
41
1
10
197.16
20
-4.75519941135348
30
0
41
1
10
197.04208025172
20
-4.7552008492124
30
0
41
1
10
196.799358398108
20
-4.77569172260502
30
0
41
1
10
196.449632472835
20
-4.8666503188343
30
0
41
1
10
196.125546295501
20
-5.01450143451302
30
0
41
1
10
195.844256717488
20
-5.20669247422654
30
0
41
1
10
195.613232008267
20
-5.43406407514146
30
0
41
1
10
195.439420892063
20
-5.68728680502085
30
0
41
1
10
195.333652114044
20
-5.94963120450268
30
0
41
1
10
195.298631605314
20
-6.20923301336001
30
0
41
1
10
195.33308921282
20
-6.45696427634783
30
0
41
1
10
195.43836633822
20
-6.68607728129479
30
0
41
1
10
195.611817947897
20
-6.88813445126075
30
0
41
1
10
195.842290605772
20
-7.05545787930663
30
0
41
1
10
196.123380436957
20
-7.18758901622246
30
0
41
1
10
196.44743535894
20
-7.28359180253992
30
0
41
1
10
196.797553455862
20
-7.34078296465904
30
0
41
1
10
197.158360161065
20
-7.35909926435988
30
0
41
1
10
197.519720026606
20
-7.34109040015665
30
0
41
1
10
197.870417568777
20
-7.28409048421611
30
0
41
1
10
198.195264839218
20
-7.18811099498757
30
0
41
1
10
198.476286751248
20
-7.056283603834
30
0
41
1
10
198.707372400125
20
-6.88887034288197
30
0
41
1
10
198.881097098851
20
-6.68700673832583
30
0
41
1
10
198.986647522727
20
-6.457731748702
30
0
41
1
10
199.021325505633
20
-6.21048406595196
30
0
41
1
10
198.986757315069
20
-5.95123360785357
30
0
41
1
10
198.881365966231
20
-5.68863818597913
30
0
41
1
10
198.707808363968
20
-5.43529580293935
30
0
41
1
10
198.476881305157
20
-5.20766733071207
30
0
41
1
10
198.195919697876
20
-5.01528332927714
30
0
41
1
10
197.871238622392
20
-4.86690837992785
30
0
41
1
10
197.520962708514
20
-4.77570938101601
30
0
41
1
10
197.277911891322
20
-4.75519797359037
30
0
41
1
10
197.16
20
-4.75519941135348
30
0
0
SPLINE
5
196
100
AcDbEntity
8
1
62
256
6
ByLayer
370
18
48
1
60
0
100
AcDbSpline
70
4
71
2
72
6
73
3
40
0
40
0
40
0
40
1
40
1
40
1
41
0.499840813714105
10
205.449247234783
20
-2.57476803727861
30
0
41
0.500159186285895
10
205.028059422525
20
-2.57386473975967
30
0
41
0.499840813714105
10
204.606858788672
20
-2.57296138290367
30
0
0
SPLINE
5
197
100
AcDbEntity
8
1
62
256
6
ByLayer
370
18
48
1
60
0
100
AcDbSpline
70
4
71
1
72
4
73
2
40
0
40
0
40
1
40
1
41
1
10
206.698936190864
20
-6.95667680399998
30
0
41
1
10
206.564175630384
20
-7.01903922840756
30
0
0
SPLINE
5
198
100
AcDbEntity
8
1
62
256
6
ByLayer
370
18
48
1
60
0
100
AcDbSpline
70
4
71
4
72
10
73
5
40
0
40
0
40
0
40
0
40
0
40
1
40
1
40
1
40
1
40
1
41
1
10
200.7
20
8.74908030120938
30
0
41
1
10
200.7
20
8.26525253371213
30
0
41
1
10
200.7
20
7.78142476621491
30
0
41
1
10
200.7
20
7.29759699871769
30
0
41
1
10
200.7
20
6.81376923122045
30
0
0
SPLINE
5
199
100
AcDbEntity
8
1
62
256
6
ByLayer
370
18
48
1
60
0
100
AcDbSpline
70
4
71
3
72
10
73
6
40
0
40
0
40
0
40
0
40
0.5
40
0.5
40
1
40
1
40
1
40
1
41
1
10
192.367931354919
20
7.59332005855072
30
0
41
1
10
193.73848729426
20
7.86540305802487
30
0
41
1
10
195.107679291375
20
8.09399556526421
30
0
41
1
10
197.850792495651
20
8.45774215471693
30
0
41
1
10
199.226085834193
20
8.59273783477906
30
0
41
1
10
200.6
20
8.67989797150651
30
0
0
SPLINE
5
19A
100
AcDbEntity
8
SK1
62
256
6
ByLayer
370
18
48
1
60
0
100
AcDbSpline
70
4
71
3
72
68
73
64
40
0
40
0
40
0
40
0
40
0.0312499999999982
40
0.0312499999999982
40
0.046874999999998
40
0.046874999999998
40
0.0624999999999977
40
0.0624999999999977
40
0.0937499999999984
40
0.0937499999999984
40
0.109374999999998
40
0.109374999999998
40
0.124999999999998
40
0.124999999999998
40
0.156249999999998
40
0.156249999999998
40
0.187499999999998
40
0.187499999999998
40
0.249999999999999
40
0.249999999999999
40
0.281249999999999
40
0.281249999999999
40
0.312499999999999
40
0.312499999999999
40
0.374999999999999
40
0.374999999999999
40
0.4375
40
0.4375
40
0.46875
40
0.46875
40
0.5
40
0.5
40
0.562500000000001
40
0.562500000000001
40
0.593750000000001
40
0.593750000000001
40
0.625000000000002
40
0.625000000000002
40
0.687500000000002
40
0.687500000000002
40
0.718750000000002
40
0.718750000000002
40
0.750000000000002
40
0.750000000000002
40
0.812500000000003
40
0.812500000000003
40
0.828125000000002
40
0.828125000000002
40
0.843750000000002
40
0.843750000000002
40
0.875000000000001
40
0.875000000000001
40
0.890625000000001
40
0.890625000000001
40
0.90625
40
0.90625
40
0.9375
40
0.9375
40
0.953125
40
0.953125
40
0.96875
40
0.96875
40
1
40
1
40
1
40
1
41
1
10
-6.49999999999999
20
-5.92285193129121
30
0
41
1
10
-6.33154885731429
20
-5.92285193129121
30
0
41
1
10
-6.16649999660116
20
-5.90852604500998
30
0
41
1
10
-5.92366326713301
20
-5.86686260898483
30
0
41
1
10
-5.84351218542496
20
-5.84958640234103
30
0
41
1
10
-5.68479121831059
20
-5.80819694942255
30
0
41
1
10
-5.60578401963126
20
-5.78390949286566
30
0
41
1
10
-5.37551305865021
20
-5.70210438657261
30
0
41
1
10
-5.23040150353978
20
-5.63576008503463
30
0
41
1
10
-5.02388324980437
20
-5.51973068369702
30
0
41
1
10
-4.95691280564996
20
-5.47828589310487
30
0
41
1
10
-4.82656726111883
20
-5.38990512469778
30
0
41
1
10
-4.76344028356682
20
-5.34310223508027
30
0
41
1
10
-4.5822496799216
20
-5.19718203491362
30
0
41
1
10
-4.47124638032831
20
-5.09185813583983
30
0
41
1
10
-4.26572109507715
20
-4.86653318538578
30
0
41
1
10
-4.17106100725225
20
-4.74628556066756
30
0
41
1
10
-3.90966183539744
20
-4.36608870861338
30
0
41
1
10
-3.77014210155204
20
-4.09476951345764
30
0
41
1
10
-3.595575374859
20
-3.66576223197777
30
0
41
1
10
-3.54329950365171
20
-3.51904778819107
30
0
41
1
10
-3.44875657999089
20
-3.21863479224763
30
0
41
1
10
-3.40657854218809
20
-3.06504134305448
30
0
41
1
10
-3.29445638220416
20
-2.60174839854997
30
0
41
1
10
-3.23788522203448
20
-2.28706820500588
30
0
41
1
10
-3.15042654850249
20
-1.64741181110122
30
0
41
1
10
-3.11961625583054
20
-1.3224279248613
30
0
41
1
10
-3.0890390502194
20
-0.827525561443139
30
0
41
1
10
-3.08151487535061
20
-0.661401493425245
30
0
41
1
10
-3.07158509981959
20
-0.330650499762129
30
0
41
1
10
-3.06914530935046
20
-0.16552511220226
30
0
41
1
10
-3.06912617883178
20
0.329115176337979
30
0
41
1
10
-3.07870960481155
20
0.657899259477574
30
0
41
1
10
-3.10886367144549
20
1.14957645984728
30
0
41
1
10
-3.12157829085986
20
1.31321779556742
30
0
41
1
10
-3.15301382663837
20
1.63997635400699
30
0
41
1
10
-3.17179577364169
20
1.80342210057933
30
0
41
1
10
-3.2378036500357
20
2.28702529223114
30
0
41
1
10
-3.29461555444996
20
2.60220286550486
30
0
41
1
10
-3.40608209976554
20
3.06309107495616
30
0
41
1
10
-3.44765477000674
20
3.21473113100859
30
0
41
1
10
-3.54149844295814
20
3.51371523568545
30
0
41
1
10
-3.59395060131034
20
3.66152013709689
30
0
41
1
10
-3.76989582752732
20
4.0946551835724
30
0
41
1
10
-3.90997479382303
20
4.36619025332939
30
0
41
1
10
-4.12575070768351
20
4.68046987077338
30
0
41
1
10
-4.17097066502383
20
4.74205687033935
30
0
41
1
10
-4.26600396832356
20
4.86254130681425
30
0
41
1
10
-4.31584034796886
20
4.92142662494757
30
0
41
1
10
-4.47077510964748
20
5.09144820130692
30
0
41
1
10
-4.5818875768134
20
5.19679902870035
30
0
41
1
10
-4.76206916652862
20
5.34204312553621
30
0
41
1
10
-4.82438853365237
20
5.38832209237188
30
0
41
1
10
-4.95395839245684
20
5.4763842939077
30
0
41
1
10
-5.02155288993664
20
5.5183478507837
30
0
41
1
10
-5.2292214317756
20
5.63524112422331
30
0
41
1
10
-5.37427976784163
20
5.70150323577644
30
0
41
1
10
-5.60262391278793
20
5.78286634969527
30
0
41
1
10
-5.68053816211992
20
5.80696924836369
30
0
41
1
10
-5.84021859914243
20
5.84884069926673
30
0
41
1
10
-5.92144228459229
20
5.86643352567475
30
0
41
1
10
-6.1660744508427
20
5.90854767474224
30
0
41
1
10
-6.33170271013567
20
5.92285193129121
30
0
41
1
10
-6.49999999999999
20
5.92285193129121
30
0
0
SPLINE
5
19B
100
AcDbEntity
8
SK1
62
256
6
ByLayer
370
18
48
1
60
0
100
AcDbSpline
70
4
71
3
72
68
73
64
40
0
40
0
40
0
40
0
40
0.0312500000000002
40
0.0312500000000002
40
0.0468750000000003
40
0.0468750000000003
40
0.0625000000000005
40
0.0625000000000005
40
0.0937500000000007
40
0.0937500000000007
40
0.109375000000001
40
0.109375000000001
40
0.125000000000001
40
0.125000000000001
40
0.156250000000001
40
0.156250000000001
40
0.187500000000001
40
0.187500000000001
40
0.25
40
0.25
40
0.28125
40
0.28125
40
0.3125
40
0.3125
40
0.375
40
0.375
40
0.4375
40
0.4375
40
0.46875
40
0.46875
40
0.5
40
0.5
40
0.5625
40
0.5625
40
0.59375
40
0.59375
40
0.625
40
0.625
40
0.6875
40
0.6875
40
0.71875
40
0.71875
40
0.75
40
0.75
40
0.8125
40
0.8125
40
0.828125
40
0.828125
40
0.84375
40
0.84375
40
0.875
40
0.875
40
0.890625
40
0.890625
40
0.90625
40
0.90625
40
0.9375
40
0.9375
40
0.953125
40
0.953125
40
0.96875
40
0.96875
40
1
40
1
40
1
40
1
41
1
10
-43.5
20
5.92285193129121
30
0
41
1
10
-43.6684511426857
20
5.92285193129121
30
0
41
1
10
-43.8335000033988
20
5.90852604500998
30
0
41
1
10
-44.076336732867
20
5.86686260898486
30
0
41
1
10
-44.156487814575
20
5.84958640234103
30
0
41
1
10
-44.3152087816894
20
5.80819694942255
30
0
41
1
10
-44.3942159803687
20
5.78390949286566
30
0
41
1
10
-44.6244869413498
20
5.70210438657261
30
0
41
1
10
-44.7695984964602
20
5.63576008503463
30
0
41
1
10
-44.9761167501956
20
5.51973068369705
30
0
41
1
10
-45.04308719435
20
5.47828589310487
30
0
41
1
10
-45.1734327388812
20
5.38990512469778
30
0
41
1
10
-45.2365597164332
20
5.34310223508027
30
0
41
1
10
-45.4177503200784
20
5.19718203491362
30
0
41
1
10
-45.5287536196717
20
5.09185813583983
30
0
41
1
10
-45.7342789049228
20
4.86653318538578
30
0
41
1
10
-45.8289389927477
20
4.74628556066759
30
0
41
1
10
-46.0903381646025
20
4.36608870861338
30
0
41
1
10
-46.229857898448
20
4.09476951345764
30
0
41
1
10
-46.404424625141
20
3.66576223197777
30
0
41
1
10
-46.4567004963483
20
3.51904778819107
30
0
41
1
10
-46.5512434200091
20
3.21863479224763
30
0
41
1
10
-46.5934214578119
20
3.06504134305448
30
0
41
1
10
-46.7055436177958
20
2.60174839855
30
0
41
1
10
-46.7621147779655
20
2.28706820500588
30
0
41
1
10
-46.8495734514975
20
1.64741181110122
30
0
41
1
10
-46.8803837441695
20
1.3224279248613
30
0
41
1
10
-46.9109609497806
20
0.827525561443139
30
0
41
1
10
-46.9184851246494
20
0.661401493425245
30
0
41
1
10
-46.9284149001804
20
0.330650499762129
30
0
41
1
10
-46.9308546906495
20
0.16552511220226
30
0
41
1
10
-46.9308738211682
20
-0.329115176337979
30
0
41
1
10
-46.9212903951885
20
-0.657899259477574
30
0
41
1
10
-46.8911363285545
20
-1.14957645984728
30
0
41
1
10
-46.8784217091401
20
-1.31321779556742
30
0
41
1
10
-46.8469861733616
20
-1.63997635400699
30
0
41
1
10
-46.8282042263583
20
-1.80342210057933
30
0
41
1
10
-46.7621963499643
20
-2.28702529223114
30
0
41
1
10
-46.70538444555
20
-2.60220286550486
30
0
41
1
10
-46.5939179002344
20
-3.06309107495616
30
0
41
1
10
-46.5523452299933
20
-3.21473113100859
30
0
41
1
10
-46.4585015570419
20
-3.51371523568545
30
0
41
1
10
-46.4060493986897
20
-3.66152013709689
30
0
41
1
10
-46.2301041724727
20
-4.0946551835724
30
0
41
1
10
-46.090025206177
20
-4.36619025332939
30
0
41
1
10
-45.8742492923165
20
-4.68046987077341
30
0
41
1
10
-45.8290293349762
20
-4.74205687033935
30
0
41
1
10
-45.7339960316764
20
-4.86254130681425
30
0
41
1
10
-45.6841596520312
20
-4.92142662494757
30
0
41
1
10
-45.5292248903525
20
-5.09144820130692
30
0
41
1
10
-45.4181124231866
20
-5.19679902870035
30
0
41
1
10
-45.2379308334714
20
-5.34204312553621
30
0
41
1
10
-45.1756114663476
20
-5.38832209237188
30
0
41
1
10
-45.0460416075432
20
-5.4763842939077
30
0
41
1
10
-44.9784471100634
20
-5.5183478507837
30
0
41
1
10
-44.7707785682244
20
-5.63524112422331
30
0
41
1
10
-44.6257202321584
20
-5.70150323577644
30
0
41
1
10
-44.3973760872121
20
-5.78286634969527
30
0
41
1
10
-44.3194618378801
20
-5.80696924836371
30
0
41
1
10
-44.1597814008576
20
-5.84884069926673
30
0
41
1
10
-44.0785577154077
20
-5.86643352567475
30
0
41
1
10
-43.8339255491573
20
-5.90854767474224
30
0
41
1
10
-43.6682972898643
20
-5.92285193129121
30
0
41
1
10
-43.5
20
-5.92285193129121
30
0
0
LINE
5
70
100
AcDbEntity
8
81
62
256
6
ByLayer
370
18
48
1
60
0
100
AcDbLine
10
200.7
20
0
30
0
11
205.7
21
0
31
0
39
0
210
0
220
0
230
1
0
LINE
5
71
100
AcDbEntity
8
1
62
256
6
ByLayer
370
18
48
1
60
0
100
AcDbLine
10
0.2
20
12.5
30
0
11
0
21
12.3
31
0
39
0
210
0
220
0
230
1
0
LINE
5
73
100
AcDbEntity
8
1
62
256
6
ByLayer
370
18
48
1
60
0
100
AcDbLine
10
0
20
-12.3
30
0
11
0.2
21
-12.5
31
0
39
0
210
0
220
0
230
1
0
LINE
5
74
100
AcDbEntity
8
1
62
256
6
ByLayer
370
18
48
1
60
0
100
AcDbLine
10
5.0007
20
12.5
30
0
11
0.2
21
12.5
31
0
39
0
210
0
220
0
230
1
0
LINE
5
75
100
AcDbEntity
8
1
62
256
6
ByLayer
370
18
48
1
60
0
100
AcDbLine
10
0.2
20
-12.5
30
0
11
5.0007
21
-12.5
31
0
39
0
210
0
220
0
230
1
0
LINE
5
76
100
AcDbEntity
8
SK1
62
256
6
ByLayer
370
18
48
1
60
0
100
AcDbLine
10
-49
20
9.99675
30
0
11
-50
21
8.99675
31
0
39
0
210
0
220
0
230
1
0
LINE
5
78
100
AcDbEntity
8
SK1
62
256
6
ByLayer
370
18
48
1
60
0
100
AcDbLine
10
-50
20
-8.99675
30
0
11
-49
21
-9.99675
31
0
39
0
210
0
220
0
230
1
0
LINE
5
79
100
AcDbEntity
8
SK1
62
256
6
ByLayer
370
18
48
1
60
0
100
AcDbLine
10
-48.6
20
-9.99675
30
0
11
-48.449692
21
-9.875033
31
0
39
0
210
0
220
0
230
1
0
LINE
5
7A
100
AcDbEntity
8
SK1
62
256
6
ByLayer
370
18
48
1
60
0
100
AcDbLine
10
-48.449692
20
9.875033
30
0
11
-48.6
21
9.99675
31
0
39
0
210
0
220
0
230
1
0
LINE
5
7B
100
AcDbEntity
8
SK1
62
256
6
ByLayer
370
18
48
1
60
0
100
AcDbLine
10
-1.6
20
9.99675
30
0
11
-47.3
21
9.99675
31
0
39
0
210
0
220
0
230
1
0
LINE
5
7C
100
AcDbEntity
8
SK1
62
256
6
ByLayer
370
18
48
1
60
0
100
AcDbLine
10
-47.3
20
-9.99675
30
0
11
-1.6
21
-9.99675
31
0
39
0
210
0
220
0
230
1
0
LINE
5
7D
100
AcDbEntity
8
SK1
62
256
6
ByLayer
370
18
48
1
60
0
100
AcDbLine
10
-48.6
20
9.99675
30
0
11
-49
21
9.99675
31
0
39
0
210
0
220
0
230
1
0
LINE
5
7E
100
AcDbEntity
8
SK1
62
256
6
ByLayer
370
18
48
1
60
0
100
AcDbLine
10
-49
20
-9.99675
30
0
11
-48.6
21
-9.99675
31
0
39
0
210
0
220
0
230
1
0
LINE
5
7F
100
AcDbEntity
8
SK1
62
256
6
ByLayer
370
18
48
1
60
0
100
AcDbLine
10
-1.6
20
-9.99675
30
0
11
-1.144243
21
-9.784227
31
0
39
0
210
0
220
0
230
1
0
LINE
5
80
100
AcDbEntity
8
SK1
62
256
6
ByLayer
370
18
48
1
60
0
100
AcDbLine
10
-1.144243
20
9.784227
30
0
11
-1.6
21
9.99675
31
0
39
0
210
0
220
0
230
1
0
LINE
5
81
100
AcDbEntity
8
SK1
62
256
6
ByLayer
370
18
48
1
60
0
100
AcDbLine
10
-47.3
20
9.99675
30
0
11
-47.426311
21
9.888738
31
0
39
0
210
0
220
0
230
1
0
LINE
5
82
100
AcDbEntity
8
SK1
62
256
6
ByLayer
370
18
48
1
60
0
100
AcDbLine
10
-47.426311
20
-9.888738
30
0
11
-47.3
21
-9.99675
31
0
39
0
210
0
220
0
230
1
0
LINE
5
83
100
AcDbEntity
8
SK1
62
256
6
ByLayer
370
18
48
1
60
0
100
AcDbLine
10
-0.975195
20
-9.74675
30
0
11
-0.15
21
-9.74675
31
0
39
0
210
0
220
0
230
1
0
LINE
5
84
100
AcDbEntity
8
SK1
62
256
6
ByLayer
370
18
48
1
60
0
100
AcDbLine
10
-0.15
20
9.74675
30
0
11
-0.975195
21
9.74675
31
0
39
0
210
0
220
0
230
1
0
LINE
5
85
100
AcDbEntity
8
1
62
256
6
ByLayer
370
18
48
1
60
0
100
AcDbLine
10
50.887273
20
-8.8
30
0
11
57.3515
21
-8.8
31
0
39
0
210
0
220
0
230
1
0
LINE
5
86
100
AcDbEntity
8
1
62
256
6
ByLayer
370
18
48
1
60
0
100
AcDbLine
10
135.159333
20
8.8
30
0
11
128.705079
21
8.8
31
0
39
0
210
0
220
0
230
1
0
LINE
5
87
100
AcDbEntity
8
1
62
256
6
ByLayer
370
18
48
1
60
0
100
AcDbLine
10
128.705079
20
-8.8
30
0
11
135.159333
21
-8.8
31
0
39
0
210
0
220
0
230
1
0
LINE
5
88
100
AcDbEntity
8
1
62
256
6
ByLayer
370
18
48
1
60
0
100
AcDbLine
10
57.3515
20
8.8
30
0
11
50.887273
21
8.8
31
0
39
0
210
0
220
0
230
1
0
LINE
5
89
100
AcDbEntity
8
1
62
256
6
ByLayer
370
18
48
1
60
0
100
AcDbLine
10
204.398068
20
9
30
0
11
202.801216
21
9
31
0
39
0
210
0
220
0
230
1
0
LINE
5
8A
100
AcDbEntity
8
1
62
256
6
ByLayer
370
18
48
1
60
0
100
AcDbLine
10
202.801216
20
-9
30
0
11
204.398068
21
-9
31
0
39
0
210
0
220
0
230
1
0
LINE
5
8B
100
AcDbEntity
8
1
62
256
6
ByLayer
370
18
48
1
60
0
100
AcDbLine
10
13.77721
20
9.277726
30
0
11
13.727178
21
9.299409
31
0
39
0
210
0
220
0
230
1
0
LINE
5
8C
100
AcDbEntity
8
1
62
256
6
ByLayer
370
18
48
1
60
0
100
AcDbLine
10
13.727178
20
-9.299409
30
0
11
13.77721
21
-9.277726
31
0
39
0
210
0
220
0
230
1
0
LINE
5
8D
100
AcDbEntity
8
80
62
256
6
ByLayer
370
18
48
1
60
0
100
AcDbLine
10
0
20
0
30
0
11
-5
21
0
31
0
39
0
210
0
220
0
230
1
0
LINE
5
8E
100
AcDbEntity
8
4
62
256
6
ByLayer
370
18
48
0.05
60
0
100
AcDbLine
10
200.7
20
0
30
0
11
0
21
0
31
0
39
0
210
0
220
0
230
1
0
LINE
5
90
100
AcDbEntity
8
SK4
62
256
6
ByLayer
370
18
48
0.05
60
0
100
AcDbLine
10
217
20
0
30
0
11
-55
21
0
31
0
39
0
210
0
220
0
230
1
0
LINE
5
92
100
AcDbEntity
8
1
62
256
6
ByLayer
370
13
48
1
60
0
100
AcDbLine
10
209.388132
20
3.100343
30
0
11
209.389098
21
3.095972
31
0
39
0
210
0
220
0
230
1
0
LINE
5
93
100
AcDbEntity
8
1
62
256
6
ByLayer
370
18
48
1
60
0
100
AcDbLine
10
206.698883
20
-6.956701
30
0
11
207.365798
21
-7.623616
31
0
39
0
210
0
220
0
230
1
0
LINE
5
94
100
AcDbEntity
8
1
62
256
6
ByLayer
370
18
48
1
60
0
100
AcDbLine
10
200.7
20
-8.500147
30
0
11
200.7
21
-8.470124
31
0
39
0
210
0
220
0
230
1
0
LINE
5
95
100
AcDbEntity
8
1
62
256
6
ByLayer
370
18
48
1
60
0
100
AcDbLine
10
207.761082
20
-8.21573
30
0
11
209.132071
21
-4.389212
31
0
39
0
210
0
220
0
230
1
0
LINE
5
96
100
AcDbEntity
8
1
62
256
6
ByLayer
370
18
48
1
60
0
100
AcDbLine
10
207.365798
20
-2.421407
30
0
11
207.365647
21
-2.4198
31
0
39
0
210
0
220
0
230
1
0
LINE
5
97
100
AcDbEntity
8
1
62
256
6
ByLayer
370
18
48
1
60
0
100
AcDbLine
10
205.56875
20
-2.561885
30
0
11
205.785667
21
-2.468594
31
0
39
0
210
0
220
0
230
1
0
LINE
5
98
100
AcDbEntity
8
1
62
256
6
ByLayer
370
18
48
1
60
0
100
AcDbLine
10
206.807235
20
-8.11643
30
0
11
207.362286
21
-7.630119
31
0
39
0
210
0
220
0
230
1
0
LINE
5
99
100
AcDbEntity
8
1
62
256
6
ByLayer
370
18
48
1
60
0
100
AcDbLine
10
211.898094
20
-0.295776
30
0
11
212
21
0
31
0
39
0
210
0
220
0
230
1
0
LINE
5
9A
100
AcDbEntity
8
1
62
256
6
ByLayer
370
18
48
1
60
0
100
AcDbLine
10
208.952697
20
-8.844618
30
0
11
211.547682
21
-1.312827
31
0
39
0
210
0
220
0
230
1
0
LINE
5
9B
100
AcDbEntity
8
1
62
256
6
ByLayer
370
18
48
1
60
0
100
AcDbLine
10
200.67
20
2.236487
30
0
11
200.67
21
2.331257
31
0
39
0
210
0
220
0
230
1
0
LINE
5
9C
100
AcDbEntity
8
1
62
256
6
ByLayer
370
18
48
1
60
0
100
AcDbLine
10
209.17576
20
-4.340118
30
0
11
210.816423
21
-2.494924
31
0
39
0
210
0
220
0
230
1
0
LINE
5
9D
100
AcDbEntity
8
1
62
256
6
ByLayer
370
18
48
1
60
0
100
AcDbLine
10
18.8
20
-2.399105
30
0
11
18.8
21
8.453162
31
0
39
0
210
0
220
0
230
1
0
LINE
5
9E
100
AcDbEntity
8
1
62
256
6
ByLayer
370
13
48
1
60
0
100
AcDbLine
10
13.727178
20
-9.299409
30
0
11
13.727178
21
-9.298881
31
0
39
0
210
0
220
0
230
1
0
LINE
5
9F
100
AcDbEntity
8
1
62
256
6
ByLayer
370
13
48
1
60
0
100
AcDbLine
10
5.0007
20
0
30
0
11
5.0007
21
-12.5
31
0
39
0
210
0
220
0
230
1
0
LINE
5
A0
100
AcDbEntity
8
1
62
256
6
ByLayer
370
13
48
1
60
0
100
AcDbLine
10
5.0007
20
12.5
30
0
11
5.0007
21
0
31
0
39
0
210
0
220
0
230
1
0
LINE
5
A1
100
AcDbEntity
8
1
62
256
6
ByLayer
370
18
48
1
60
0
100
AcDbLine
10
205.85664
20
-2.4198
30
0
11
207.365647
21
-2.4198
31
0
39
0
210
0
220
0
230
1
0
LINE
5
A2
100
AcDbEntity
8
1
62
256
6
ByLayer
370
18
48
1
60
0
100
AcDbLine
10
0
20
12.3
30
0
11
0
21
-12.3
31
0
39
0
210
0
220
0
230
1
0
LINE
5
A3
100
AcDbEntity
8
1
62
256
6
ByLayer
370
18
48
1
60
0
100
AcDbLine
10
17
20
-2.361285
30
0
11
17
21
8.43292
31
0
39
0
210
0
220
0
230
1
0
LINE
5
A4
100
AcDbEntity
8
1
62
256
6
ByLayer
370
18
48
1
60
0
100
AcDbLine
10
211.124158
20
3.074126
30
0
11
211.036621
21
3.334623
31
0
39
0
210
0
220
0
230
1
0
LINE
5
A5
100
AcDbEntity
8
1
62
256
6
ByLayer
370
18
48
1
60
0
100
AcDbLine
10
205.017191
20
0.034186
30
0
11
204.767858
21
-0.088124
31
0
39
0
210
0
220
0
230
1
0
LINE
5
A6
100
AcDbEntity
8
1
62
256
6
ByLayer
370
18
48
1
60
0
100
AcDbLine
10
211.124158
20
-3.074126
30
0
11
211.036621
21
-3.334623
31
0
39
0
210
0
220
0
230
1
0
LINE
5
A7
100
AcDbEntity
8
1
62
256
6
ByLayer
370
18
48
1
60
0
100
AcDbLine
10
200.7
20
-8.74908
30
0
11
200.7
21
-8.500147
31
0
39
0
210
0
220
0
230
1
0
LINE
5
A8
100
AcDbEntity
8
1
62
256
6
ByLayer
370
18
48
1
60
0
100
AcDbLine
10
207.365647
20
-2.4198
30
0
11
206.345588
21
1.157524
31
0
39
0
210
0
220
0
230
1
0
LINE
5
A9
100
AcDbEntity
8
1
62
256
6
ByLayer
370
13
48
1
60
0
100
AcDbLine
10
210.816423
20
-2.494924
30
0
11
209.688909
21
-1.722792
31
0
39
0
210
0
220
0
230
1
0
LINE
5
AA
100
AcDbEntity
8
1
62
256
6
ByLayer
370
13
48
1
60
0
100
AcDbLine
10
209.17576
20
-4.340118
30
0
11
209.688909
21
-1.722792
31
0
39
0
210
0
220
0
230
1
0
LINE
5
AB
100
AcDbEntity
8
1
62
256
6
ByLayer
370
18
48
1
60
0
100
AcDbLine
10
21.104
20
1.6599
30
0
11
21.104
21
8.189269
31
0
39
0
210
0
220
0
230
1
0
LINE
5
AC
100
AcDbEntity
8
1
62
256
6
ByLayer
370
18
48
1
60
0
100
AcDbLine
10
211.924994
20
-0.276511
30
0
11
211.789759
21
-0.848067
31
0
39
0
210
0
220
0
230
1
0
LINE
5
AD
100
AcDbEntity
8
1
62
256
6
ByLayer
370
18
48
1
60
0
100
AcDbLine
10
0.2
20
0
30
0
11
0.2
21
-12.5
31
0
39
0
210
0
220
0
230
1
0
LINE
5
AE
100
AcDbEntity
8
1
62
256
6
ByLayer
370
18
48
1
60
0
100
AcDbLine
10
0.2
20
12.5
30
0
11
0.2
21
0
31
0
39
0
210
0
220
0
230
1
0
LINE
5
AF
100
AcDbEntity
8
1
62
256
6
ByLayer
370
18
48
1
60
0
100
AcDbLine
10
192
20
-1.960556
30
0
11
192
21
4.864934
31
0
39
0
210
0
220
0
230
1
0
LINE
5
B0
100
AcDbEntity
8
1
62
256
6
ByLayer
370
18
48
1
60
0
100
AcDbLine
10
212
20
0
30
0
11
211.984116
21
-0.069784
31
0
39
0
210
0
220
0
230
1
0
LINE
5
B1
100
AcDbEntity
8
1
62
256
6
ByLayer
370
13
48
1
60
0
100
AcDbLine
10
13.727178
20
9.299409
30
0
11
13.727178
21
-2.891636
31
0
39
0
210
0
220
0
230
1
0
LINE
5
B2
100
AcDbEntity
8
1
62
256
6
ByLayer
370
13
48
1
60
0
100
AcDbLine
10
200.5
20
2.9
30
0
11
200.706275
21
2.9
31
0
39
0
210
0
220
0
230
1
0
LINE
5
B3
100
AcDbEntity
8
1
62
256
6
ByLayer
370
13
48
1
60
0
100
AcDbLine
10
200.7
20
-8.500147
30
0
11
200.837318
21
-8.548424
31
0
39
0
210
0
220
0
230
1
0
LINE
5
B4
100
AcDbEntity
8
1
62
256
6
ByLayer
370
18
48
1
60
0
100
AcDbLine
10
211.924994
20
0.276511
30
0
11
211.789759
21
0.848067
31
0
39
0
210
0
220
0
230
1
0
LINE
5
B5
100
AcDbEntity
8
1
62
256
6
ByLayer
370
13
48
1
60
0
100
AcDbLine
10
204.606859
20
-2.572961
30
0
11
204.850833
21
-2.42853
31
0
39
0
210
0
220
0
230
1
0
LINE
5
B6
100
AcDbEntity
8
1
62
256
6
ByLayer
370
13
48
1
60
0
100
AcDbLine
10
211.924994
20
0.276511
30
0
11
211.008964
21
0.903816
31
0
39
0
210
0
220
0
230
1
0
LINE
5
B7
100
AcDbEntity
8
1
62
256
6
ByLayer
370
13
48
1
60
0
100
AcDbLine
10
209.417726
20
3.099199
30
0
11
211.124158
21
3.074126
31
0
39
0
210
0
220
0
230
1
0
LINE
5
B8
100
AcDbEntity
8
1
62
256
6
ByLayer
370
18
48
1
60
0
100
AcDbLine
10
207.362286
20
-7.630119
30
0
11
207.365798
21
-7.623616
31
0
39
0
210
0
220
0
230
1
0
LINE
5
B9
100
AcDbEntity
8
1
62
256
6
ByLayer
370
18
48
1
60
0
100
AcDbLine
10
200.6
20
-8.679898
30
0
11
200.6
21
-8.428849
31
0
39
0
210
0
220
0
230
1
0
LINE
5
BA
100
AcDbEntity
8
1
62
256
6
ByLayer
370
13
48
1
60
0
100
AcDbLine
10
209.417055
20
3.102249
30
0
11
209.414998
21
3.111551
31
0
39
0
210
0
220
0
230
1
0
LINE
5
BB
100
AcDbEntity
8
1
62
256
6
ByLayer
370
18
48
1
60
0
100
AcDbLine
10
206.800362
20
-8.119403
30
0
11
206.807235
21
-8.11643
31
0
39
0
210
0
220
0
230
1
0
LINE
5
BC
100
AcDbEntity
8
1
62
256
6
ByLayer
370
18
48
1
60
0
100
AcDbLine
10
201.6
20
-8.215702
30
0
11
201.6
21
-8.1056
31
0
39
0
210
0
220
0
230
1
0
LINE
5
BD
100
AcDbEntity
8
1
62
256
6
ByLayer
370
18
48
1
60
0
100
AcDbLine
10
201.6
20
1.924283
30
0
11
201.6
21
2.011534
31
0
39
0
210
0
220
0
230
1
0
LINE
5
BE
100
AcDbEntity
8
1
62
256
6
ByLayer
370
18
48
1
60
0
100
AcDbLine
10
200.7
20
2.475877
30
0
11
200.7
21
2.45
31
0
39
0
210
0
220
0
230
1
0
LINE
5
BF
100
AcDbEntity
8
1
62
256
6
ByLayer
370
18
48
1
60
0
100
AcDbLine
10
201.781485
20
-8.119403
30
0
11
206.800362
21
-8.119403
31
0
39
0
210
0
220
0
230
1
0
LINE
5
C0
100
AcDbEntity
8
1
62
256
6
ByLayer
370
13
48
1
60
0
100
AcDbLine
10
210.961212
20
0.863632
30
0
11
211.949381
21
0.186925
31
0
39
0
210
0
220
0
230
1
0
LINE
5
C1
100
AcDbEntity
8
1
62
256
6
ByLayer
370
13
48
1
60
0
100
AcDbLine
10
13.818932
20
9.259272
30
0
11
13.818932
21
-2.862692
31
0
39
0
210
0
220
0
230
1
0
LINE
5
C2
100
AcDbEntity
8
1
62
256
6
ByLayer
370
18
48
1
60
0
100
AcDbLine
10
200.7
20
-8.365279
30
0
11
200.7
21
-8.470124
31
0
39
0
210
0
220
0
230
1
0
LINE
5
C3
100
AcDbEntity
8
1
62
256
6
ByLayer
370
18
48
1
60
0
100
AcDbLine
10
201.249495
20
-8.88261
30
0
11
201.249495
21
-8.971486
31
0
39
0
210
0
220
0
230
1
0
LINE
5
C4
100
AcDbEntity
8
1
62
256
6
ByLayer
370
13
48
1
60
0
100
AcDbLine
10
188.274234
20
-4.452375
30
0
11
188.274234
21
-4.651944
31
0
39
0
210
0
220
0
230
1
0
LINE
5
C5
100
AcDbEntity
8
1
62
256
6
ByLayer
370
18
48
1
60
0
100
AcDbLine
10
200.7
20
-8.333067
30
0
11
200.7
21
-8.365279
31
0
39
0
210
0
220
0
230
1
0
LINE
5
C6
100
AcDbEntity
8
1
62
256
6
ByLayer
370
18
48
1
60
0
100
AcDbLine
10
207.365798
20
-7.623616
30
0
11
207.365798
21
-2.421407
31
0
39
0
210
0
220
0
230
1
0
LINE
5
C7
100
AcDbEntity
8
1
62
256
6
ByLayer
370
13
48
1
60
0
100
AcDbLine
10
205.785667
20
-2.468594
30
0
11
204.850833
21
-2.42853
31
0
39
0
210
0
220
0
230
1
0
LINE
5
C8
100
AcDbEntity
8
1
62
256
6
ByLayer
370
13
48
1
60
0
100
AcDbLine
10
211.008964
20
0.903816
30
0
11
211.789759
21
0.848067
31
0
39
0
210
0
220
0
230
1
0
LINE
5
C9
100
AcDbEntity
8
1
62
256
6
ByLayer
370
18
48
1
60
0
100
AcDbLine
10
211.984116
20
0.069784
30
0
11
212
21
0
31
0
39
0
210
0
220
0
230
1
0
LINE
5
CA
100
AcDbEntity
8
SK1
62
256
6
ByLayer
370
18
48
1
60
0
100
AcDbLine
10
-50
20
0
30
0
11
-50
21
-8.99675
31
0
39
0
210
0
220
0
230
1
0
LINE
5
CB
100
AcDbEntity
8
SK1
62
256
6
ByLayer
370
18
48
1
60
0
100
AcDbLine
10
-50
20
8.99675
30
0
11
-50
21
0
31
0
39
0
210
0
220
0
230
1
0
LINE
5
CC
100
AcDbEntity
8
SK1
62
256
6
ByLayer
370
13
48
1
60
0
100
AcDbLine
10
-0.15
20
0
30
0
11
-0.15
21
-9.74675
31
0
39
0
210
0
220
0
230
1
0
LINE
5
CD
100
AcDbEntity
8
SK1
62
256
6
ByLayer
370
13
48
1
60
0
100
AcDbLine
10
-0.15
20
9.74675
30
0
11
-0.15
21
0
31
0
39
0
210
0
220
0
230
1
0
LINE
5
CE
100
AcDbEntity
8
SK1
62
256
6
ByLayer
370
13
48
1
60
0
100
AcDbLine
10
-48.449692
20
-9.875033
30
0
11
-48.449692
21
0
31
0
39
0
210
0
220
0
230
1
0
LINE
5
CF
100
AcDbEntity
8
SK1
62
256
6
ByLayer
370
13
48
1
60
0
100
AcDbLine
10
-48.449692
20
0
30
0
11
-48.449692
21
9.875033
31
0
39
0
210
0
220
0
230
1
0
LINE
5
D0
100
AcDbEntity
8
SK1
62
256
6
ByLayer
370
18
48
1
60
0
100
AcDbLine
10
-49
20
0
30
0
11
-49
21
-9.99675
31
0
39
0
210
0
220
0
230
1
0
LINE
5
D1
100
AcDbEntity
8
SK1
62
256
6
ByLayer
370
18
48
1
60
0
100
AcDbLine
10
-49
20
9.99675
30
0
11
-49
21
0
31
0
39
0
210
0
220
0
230
1
0
LINE
5
D2
100
AcDbEntity
8
SK1
62
256
6
ByLayer
370
18
48
1
60
0
100
AcDbLine
10
-47.3
20
0
30
0
11
-47.3
21
-9.99675
31
0
39
0
210
0
220
0
230
1
0
LINE
5
D3
100
AcDbEntity
8
SK1
62
256
6
ByLayer
370
18
48
1
60
0
100
AcDbLine
10
-47.3
20
9.99675
30
0
11
-47.3
21
0
31
0
39
0
210
0
220
0
230
1
0
LINE
5
D4
100
AcDbEntity
8
SK1
62
256
6
ByLayer
370
18
48
1
60
0
100
AcDbLine
10
-6.5
20
5.922852
30
0
11
-43.5
21
5.922852
31
0
39
0
210
0
220
0
230
1
0
LINE
5
D5
100
AcDbEntity
8
SK1
62
256
6
ByLayer
370
18
48
1
60
0
100
AcDbLine
10
-48.6
20
-9.99675
30
0
11
-48.6
21
9.99675
31
0
39
0
210
0
220
0
230
1
0
LINE
5
D6
100
AcDbEntity
8
SK1
62
256
6
ByLayer
370
13
48
1
60
0
100
AcDbLine
10
-1.144243
20
0
30
0
11
-1.144243
21
-9.784227
31
0
39
0
210
0
220
0
230
1
0
LINE
5
D7
100
AcDbEntity
8
SK1
62
256
6
ByLayer
370
13
48
1
60
0
100
AcDbLine
10
-1.144243
20
9.784227
30
0
11
-1.144243
21
0
31
0
39
0
210
0
220
0
230
1
0
LINE
5
D8
100
AcDbEntity
8
SK1
62
256
6
ByLayer
370
18
48
1
60
0
100
AcDbLine
10
-1.6
20
-9.99675
30
0
11
-1.6
21
0
31
0
39
0
210
0
220
0
230
1
0
LINE
5
D9
100
AcDbEntity
8
SK1
62
256
6
ByLayer
370
18
48
1
60
0
100
AcDbLine
10
-1.6
20
0
30
0
11
-1.6
21
9.99675
31
0
39
0
210
0
220
0
230
1
0
LINE
5
DA
100
AcDbEntity
8
SK1
62
256
6
ByLayer
370
13
48
1
60
0
100
AcDbLine
10
-47.426311
20
-9.888738
30
0
11
-47.426311
21
0
31
0
39
0
210
0
220
0
230
1
0
LINE
5
DB
100
AcDbEntity
8
SK1
62
256
6
ByLayer
370
13
48
1
60
0
100
AcDbLine
10
-47.426311
20
0
30
0
11
-47.426311
21
9.888738
31
0
39
0
210
0
220
0
230
1
0
LINE
5
DC
100
AcDbEntity
8
SK1
62
256
6
ByLayer
370
18
48
1
60
0
100
AcDbLine
10
-43.5
20
-5.922852
30
0
11
-6.5
21
-5.922852
31
0
39
0
210
0
220
0
230
1
0
LINE
5
DD
100
AcDbEntity
8
SK1
62
256
6
ByLayer
370
13
48
1
60
0
100
AcDbLine
10
-6.5
20
-5.922852
30
0
11
-6.5
21
5.922852
31
0
39
0
210
0
220
0
230
1
0
LINE
5
DE
100
AcDbEntity
8
SK1
62
256
6
ByLayer
370
13
48
1
60
0
100
AcDbLine
10
-0.975195
20
9.74675
30
0
11
-0.975195
21
-9.74675
31
0
39
0
210
0
220
0
230
1
0
LINE
5
DF
100
AcDbEntity
8
SK1
62
256
6
ByLayer
370
13
48
1
60
0
100
AcDbLine
10
-43.5
20
5.922852
30
0
11
-43.5
21
-5.922852
31
0
39
0
210
0
220
0
230
1
0
MTEXT
5
19C
100
AcDbEntity
8
SK6
62
256
6
ByLayer
370
13
48
1
60
0
100
AcDbMText
10
61.480837
20
31.375134
30
0
210
0
220
0
230
1
1
\W0.6945;870-1800-18L20-10
40
3.5
41
0
44
1.084337
50
0
71
7
72
5
7
iso_b_vert
0
DIMENSION
5
1AA
100
AcDbEntity
8
2
62
256
6
ByLayer
370
13
48
1
60
0
100
AcDbDimension
2
DimnDraft3D1
10
17
20
-22
30
0
11
114.5
21
-22
31
0
70
32
71
5
72
1
41
1
210
0
220
0
230
1
3
Standard
100
AcDbAlignedDimension
13
212
23
-1.5875
33
0
14
17
24
-10.5875
34
0
50
0
100
AcDbRotatedDimension
1001
ACAD
1000
DSTYLE
1002
{
1070
   279
1070
     0
1070
   172
1070
     1
1070
   173
1070
     1
1070
   340
1005
19D
1070
   271
1070
     1
1070
   272
1070
     2
1070
    77
1070
     1
1070
    73
1070
     0
1070
   171
1070
     3
1070
   274
1070
     4
1070
   177
1070
     7
1070
   176
1070
     7
1070
   178
1070
     7
1070
    48
1040
-0.005
1070
    41
1041
3.5
1070
   147
1041
1.5
1070
    42
1041
1.5875
1070
    44
1041
2.0
1070
   140
1041
3.0
1070
   343
1005
0
1070
   344
1005
0
1002
}
0
DIMENSION
5
1B4
100
AcDbEntity
8
2
62
256
6
ByLayer
370
13
48
1
60
0
100
AcDbDimension
2
DimnDraft3D2
10
19.144
20
16
30
0
11
115.572
21
16
31
0
70
32
71
5
72
1
41
1
210
0
220
0
230
1
3
Standard
100
AcDbAlignedDimension
13
212
23
1.5875
33
0
14
19.144
24
10.5875
34
0
50
0
100
AcDbRotatedDimension
1001
ACAD
1000
DSTYLE
1002
{
1070
   279
1070
     0
1070
   172
1070
     1
1070
   173
1070
     1
1070
   340
1005
19D
1070
   271
1070
     1
1070
   272
1070
     2
1070
    77
1070
     1
1070
    73
1070
     0
1070
   171
1070
     3
1070
   274
1070
     4
1070
   177
1070
     7
1070
   176
1070
     7
1070
   178
1070
     7
1070
    48
1040
-0.005
1070
    41
1041
3.5
1070
   147
1041
1.5
1070
    42
1041
1.5875
1070
    44
1041
2.0
1070
   140
1041
3.0
1070
   343
1005
0
1070
   344
1005
0
1002
}
0
DIMENSION
5
1BF
100
AcDbEntity
8
SK2
62
256
6
ByLayer
370
13
48
1
60
0
100
AcDbDimension
2
DimnDraft3D3
10
0
20
-33
30
0
11
-25
21
-33
31
0
70
32
71
5
72
1
41
1
210
0
220
0
230
1
3
Standard
100
AcDbAlignedDimension
13
-50
23
-11.5875
33
0
14
0
24
-14.0875
34
0
50
0
100
AcDbRotatedDimension
1001
ACAD
1000
DSTYLE
1002
{
1070
   279
1070
     0
1070
   172
1070
     1
1070
   173
1070
     1
1070
   340
1005
19D
1070
   271
1070
     1
1070
   272
1070
     2
1070
    77
1070
     1
1070
    73
1070
     0
1070
   171
1070
     3
1070
   274
1070
     4
1070
   177
1070
     7
1070
   176
1070
     7
1070
   178
1070
     7
1070
    48
1040
-0.005
1070
    41
1041
3.5
1070
   147
1041
1.5
1070
    42
1041
1.5875
1070
    44
1041
2.0
1070
   140
1041
3.0
1070
   343
1005
0
1070
   344
1005
0
1002
}
0
DIMENSION
5
1C9
100
AcDbEntity
8
2
62
256
6
ByLayer
370
13
48
1
60
0
100
AcDbDimension
2
DimnDraft3D4
10
212
20
-33
30
0
11
106
21
-33
31
0
70
32
71
5
72
1
41
1
210
0
220
0
230
1
3
Standard
100
AcDbAlignedDimension
13
0
23
-14.0875
33
0
14
212
24
-1.5875
34
0
50
0
100
AcDbRotatedDimension
1001
ACAD
1000
DSTYLE
1002
{
1070
   279
1070
     0
1070
   172
1070
     1
1070
   173
1070
     1
1070
   340
1005
19D
1070
   271
1070
     1
1070
   272
1070
     2
1070
    77
1070
     1
1070
    73
1070
     0
1070
   171
1070
     3
1070
   274
1070
     4
1070
   177
1070
     7
1070
   176
1070
     7
1070
   178
1070
     7
1070
    48
1040
-0.005
1070
    41
1041
3.5
1070
   147
1041
1.5
1070
    42
1041
1.5875
1070
    44
1041
2.0
1070
   140
1041
3.0
1070
   343
1005
0
1070
   344
1005
0
1002
}
0
DIMENSION
5
1D4
100
AcDbEntity
8
SK2
62
256
6
ByLayer
370
13
48
1
60
0
100
AcDbDimension
2
DimnDraft3D5
10
-58.25
20
-10
30
0
11
-58.5
21
-0.520456
31
0
70
33
71
5
72
1
41
1
210
0
220
0
230
1
3
Standard
100
AcDbAlignedDimension
13
-51.5875
23
10
33
0
14
-51.5875
24
-10
34
0
1001
ACAD
1000
DSTYLE
1002
{
1070
   279
1070
     0
1070
    74
1070
     0
1070
   173
1070
     1
1070
   340
1005
19D
1070
   271
1070
     1
1070
   272
1070
     2
1070
    77
1070
     1
1070
    73
1070
     0
1070
   171
1070
     3
1070
   274
1070
     4
1070
   177
1070
     7
1070
   176
1070
     7
1070
   178
1070
     7
1070
    48
1040
-0.005
1070
    41
1041
3.5
1070
   147
1041
1.5
1070
    42
1041
1.5875
1070
    44
1041
2.0
1070
   140
1041
3.0
1070
   343
1005
0
1070
   344
1005
0
1002
}
0
ENDSEC
0
SECTION
2
OBJECTS
0
DICTIONARY
5
23f
330
0
100
AcDbDictionary
280
0
281
1
3
ACAD_GROUP
350
240
3
ACAD_MLINESTYLE
350
241
0
DICTIONARY
5
240
330
0
100
AcDbDictionary
280
0
281
1
0
DICTIONARY
5
241
330
0
100
AcDbDictionary
280
0
281
1
3
Standard
350
18
0
MLINESTYLE
5
18
330
241
100
AcDbMlineStyle
2
Standard
70
0
3

62
256
51
90
52
90
71
2
49
-0.5
62
256
6
ByLayer
49
0.5
62
256
6
ByLayer
0
RASTERVARIABLES
5
22d
330

100
AcDbRasterVariables
90
0
70
1
71
1
72
1
0
ENDSEC
0
EOF
