0
SECTION
2
HEADER
9
$ACADVER
1
AC1015
9
$DWGCODEPAGE
3
ANSI_1252
9
$HANDSEED
5
23f
9
$ANGBASE
50
0
9
$ANGDIR
70
0
9
$ATTMODE
70
1
9
$AUNITS
70
0
9
$AUPREC
70
0
9
$CECOLOR
62
256
9
$CELTSCALE
40
1
9
$CELTYPE
6
ByLayer
9
$CELWEIGHT
370
18
9
$CLAYER
8
0
9
$CMLJUST
70
0
9
$CMLSCALE
40
1
9
$CMLSTYLE
2
Standard
9
$DIMSTYLE
2
Standard
9
$TEXTSIZE
40
0.2
9
$TEXTSTYLE
7
Standard
9
$LUNITS
70
2
9
$LUPREC
70
4
9
$EXTNAMES
290
1
9
$INSUNITS
70
4
9
$LTSCALE
40
1
9
$LWDISPLAY
290
1
9
$PDMODE
70
0
9
$PDSIZE
40
0
9
$PLINEGEN
70
0
0
ENDSEC
0
SECTION
2
CLASSES
0
CLASS
1
RASTERVARIABLES
2
AcDbRasterVariables
3
ISM
90
0
280
0
281
0
0
ENDSEC
0
SECTION
2
TABLES
0
TABLE
2
VPORT
5
235
100
AcDbSymbolTable
0
VPORT
5
1
100
AcDbSymbolTableRecord
100
AcDbViewportTableRecord
2
*Active
70
0
10
0
20
0
11
1
21
1
12
-1
22
1
13
0
23
0
14
0.5
24
0.5
15
10
25
10
16
0
26
0
36
1
17
0
27
0
37
0
0
ENDTAB
0
TABLE
2
LTYPE
5
236
100
AcDbSymbolTable
0
LTYPE
5
14
100
AcDbSymbolTableRecord
100
AcDbLinetypeTableRecord
70
0
2
ByBlock
3

72
65
73
0
40
0
0
LTYPE
5
15
100
AcDbSymbolTableRecord
100
AcDbLinetypeTableRecord
70
0
2
ByLayer
3

72
65
73
0
40
0
0
LTYPE
5
16
100
AcDbSymbolTableRecord
100
AcDbLinetypeTableRecord
70
0
2
CONTINUOUS
3
Solid line
72
65
73
0
40
0
0
LTYPE
5
6A
100
AcDbSymbolTableRecord
100
AcDbLinetypeTableRecord
70
0
2
CENTER
3
____ _ ____ _ ____ _ ____
72
65
73
4
40
47.5
49
22
74
0
49
-8.5
74
0
49
8.5
74
0
49
-8.5
74
0
0
LTYPE
5
6B
100
AcDbSymbolTableRecord
100
AcDbLinetypeTableRecord
70
0
2
DASHED
3
__ __ __ __ __ __ __ __ __
72
65
73
2
40
25.72
49
12.86
74
0
49
-12.86
74
0
0
ENDTAB
0
TABLE
2
LAYER
5
237
100
AcDbSymbolTable
0
LAYER
5
10
100
AcDbSymbolTableRecord
100
AcDbLayerTableRecord
2
0
70
0
62
7
6
CONTINUOUS
290
1
370
-3
390
0
0
LAYER
5
6D
100
AcDbSymbolTableRecord
100
AcDbLayerTableRecord
2
80
70
0
62
-6
6
CONTINUOUS
290
1
370
-3
390
0
0
LAYER
5
6F
100
AcDbSymbolTableRecord
100
AcDbLayerTableRecord
2
81
70
0
62
-3
6
CONTINUOUS
290
1
370
-3
390
0
0
LAYER
5
72
100
AcDbSymbolTableRecord
100
AcDbLayerTableRecord
2
1
70
0
62
4
6
CONTINUOUS
290
1
370
-3
390
0
0
LAYER
5
8F
100
AcDbSymbolTableRecord
100
AcDbLayerTableRecord
2
4
70
0
62
-2
6
CENTER
290
1
370
-3
390
0
0
LAYER
5
195
100
AcDbSymbolTableRecord
100
AcDbLayerTableRecord
2
2
70
0
62
7
6
CONTINUOUS
290
1
370
-3
390
0
0
LAYER
5
221
100
AcDbSymbolTableRecord
100
AcDbLayerTableRecord
2
SK1
70
0
62
4
6
CONTINUOUS
290
1
370
-3
390
0
0
LAYER
5
222
100
AcDbSymbolTableRecord
100
AcDbLayerTableRecord
2
SK4
70
0
62
2
6
CENTER
290
1
370
-3
390
0
0
LAYER
5
223
100
AcDbSymbolTableRecord
100
AcDbLayerTableRecord
2
SK6
70
0
62
5
6
CONTINUOUS
290
1
370
-3
390
0
0
LAYER
5
224
100
AcDbSymbolTableRecord
100
AcDbLayerTableRecord
2
SK2
70
0
62
7
6
CONTINUOUS
290
1
370
-3
390
0
0
ENDTAB
0
TABLE
2
STYLE
5
238
100
AcDbSymbolTable
0
STYLE
5
11
100
AcDbSymbolTableRecord
100
AcDbTextStyleTableRecord
2
Standard
3
txt
70
0
71
0
40
0
41
1
42
0
50
0
0
STYLE
5
190
100
AcDbSymbolTableRecord
100
AcDbTextStyleTableRecord
2
iso_b_vert
3
simplex.shx
70
0
71
0
40
0
41
1
42
0
50
0
0
STYLE
5
191
100
AcDbSymbolTableRecord
100
AcDbTextStyleTableRecord
2
DWGDirectTextStyle
3
simplex
70
0
71
0
40
0
41
1
42
0
50
0
0
ENDTAB
0
TABLE
2
DIMSTYLE
5
239
100
AcDbSymbolTable
100
AcDbDimStyleTable
0
DIMSTYLE
105
27
100
AcDbSymbolTableRecord
100
AcDbDimStyleTableRecord
2
Standard
70
0
3
<>
41
0.18
42
0.0625
44
0.18
140
0.18
147
0.09
73
0
74
0
77
1
271
2
275
0
278
52
280
0
340
11
0
ENDTAB
0
TABLE
2
VIEW
5
23a
100
AcDbSymbolTable
0
ENDTAB
0
TABLE
2
UCS
5
23b
100
AcDbSymbolTable
0
ENDTAB
0
TABLE
2
APPID
5
23c
100
AcDbSymbolTable
0
APPID
5
12
100
AcDbSymbolTableRecord
100
AcDbRegAppTableRecord
2
ACAD
70
0
0
ENDTAB
0
TABLE
2
BLOCK_RECORD
5
23d
100
AcDbSymbolTable
0
BLOCK_RECORD
5
1F
100
AcDbSymbolTableRecord
100
AcDbBlockTableRecord
2
*Model_Space
340
0
70
0
0
BLOCK_RECORD
5
1B
100
AcDbSymbolTableRecord
100
AcDbBlockTableRecord
2
*Paper_Space
340
0
70
0
0
BLOCK_RECORD
5
23
100
AcDbSymbolTableRecord
100
AcDbBlockTableRecord
2
*Paper_Space0
340
0
70
0
0
BLOCK_RECORD
5
193
100
AcDbSymbolTableRecord
100
AcDbBlockTableRecord
2
DimnDraft3D1
340
0
70
0
0
BLOCK_RECORD
5
19E
100
AcDbSymbolTableRecord
100
AcDbBlockTableRecord
2
DimnDraft3D2
340
0
70
0
0
BLOCK_RECORD
5
1A8
100
AcDbSymbolTableRecord
100
AcDbBlockTableRecord
2
DimnDraft3D3
340
0
70
0
0
BLOCK_RECORD
5
1B3
100
AcDbSymbolTableRecord
100
AcDbBlockTableRecord
2
DimnDraft3D4
340
0
70
0
0
BLOCK_RECORD
5
1BD
100
AcDbSymbolTableRecord
100
AcDbBlockTableRecord
2
DimnDraft3D5
340
0
70
0
0
ENDTAB
0
ENDSEC
0
SECTION
2
BLOCKS
0
BLOCK
5
20
100
AcDbEntity
8
0
100
AcDbBlockBegin
2
*Model_Space
70
0
10
0
20
0
30
0
3
*Model_Space
0
ENDBLK
5
21
100
AcDbEntity
8
0
100
AcDbBlockEnd
0
BLOCK
5
1C
100
AcDbEntity
8
0
100
AcDbBlockBegin
2
*Paper_Space
70
0
10
0
20
0
30
0
3
*Paper_Space
0
ENDBLK
5
1D
100
AcDbEntity
8
0
100
AcDbBlockEnd
0
BLOCK
5
24
100
AcDbEntity
8
0
100
AcDbBlockBegin
2
*Paper_Space0
70
0
10
0
20
0
30
0
3
*Paper_Space0
0
ENDBLK
5
25
100
AcDbEntity
8
0
100
AcDbBlockEnd
0
BLOCK
5
19B
100
AcDbEntity
8
0
100
AcDbBlockBegin
2
DimnDraft3D1
70
0
10
0
20
0
30
0
3
DimnDraft3D1
0
MTEXT
5
194
100
AcDbEntity
8
2
62
256
6
ByLayer
370
13
48
1
60
0
100
AcDbMText
10
61.729544
20
-20.749886
30
0
210
0
220
0
230
1
1
\W0.7346;95.0
40
3
41
0
44
1.084337
50
0
71
7
72
5
7
iso_b_vert
0
LINE
5
196
100
AcDbEntity
8
2
62
256
6
ByLayer
370
13
48
1
60
0
100
AcDbLine
10
112
20
-1.5875
30
0
11
112
21
-23.5
31
0
39
0
210
0
220
0
230
1
0
LINE
5
197
100
AcDbEntity
8
2
62
256
6
ByLayer
370
13
48
1
60
0
100
AcDbLine
10
17
20
-10.0875
30
0
11
17
21
-23.5
31
0
39
0
210
0
220
0
230
1
0
LINE
5
198
100
AcDbEntity
8
2
62
256
6
ByLayer
370
13
48
1
60
0
100
AcDbLine
10
112
20
-21.5
30
0
11
17
21
-21.5
31
0
39
0
210
0
220
0
230
1
0
SOLID
5
199
100
AcDbEntity
8
2
62
256
6
ByLayer
370
13
48
1
60
0
100
AcDbTrace
10
112
20
-21.5
30
0
11
108.500002
21
-21.960784
31
0
12
108.499998
22
-21.039216
32
0
13
112
23
-21.5
33
0
39
0
210
0
220
0
230
1
0
SOLID
5
19A
100
AcDbEntity
8
2
62
256
6
ByLayer
370
13
48
1
60
0
100
AcDbTrace
10
17
20
-21.5
30
0
11
20.499998
21
-21.039216
31
0
12
20.500002
22
-21.960784
32
0
13
17
23
-21.5
33
0
39
0
210
0
220
0
230
1
0
ENDBLK
5
19C
100
AcDbEntity
8
0
100
AcDbBlockEnd
0
BLOCK
5
1A5
100
AcDbEntity
8
0
100
AcDbBlockBegin
2
DimnDraft3D2
70
0
10
0
20
0
30
0
3
DimnDraft3D2
0
MTEXT
5
19F
100
AcDbEntity
8
2
62
256
6
ByLayer
370
13
48
1
60
0
100
AcDbMText
10
62.872044
20
16.250114
30
0
210
0
220
0
230
1
1
\W0.7346;92.7
40
3
41
0
44
1.084337
50
0
71
7
72
5
7
iso_b_vert
0
LINE
5
1A0
100
AcDbEntity
8
2
62
256
6
ByLayer
370
13
48
1
60
0
100
AcDbLine
10
112
20
1.5875
30
0
11
112
21
17.5
31
0
39
0
210
0
220
0
230
1
0
LINE
5
1A1
100
AcDbEntity
8
2
62
256
6
ByLayer
370
13
48
1
60
0
100
AcDbLine
10
19.285
20
10.0875
30
0
11
19.285
21
17.5
31
0
39
0
210
0
220
0
230
1
0
LINE
5
1A2
100
AcDbEntity
8
2
62
256
6
ByLayer
370
13
48
1
60
0
100
AcDbLine
10
112
20
15.5
30
0
11
19.285
21
15.5
31
0
39
0
210
0
220
0
230
1
0
SOLID
5
1A3
100
AcDbEntity
8
2
62
256
6
ByLayer
370
13
48
1
60
0
100
AcDbTrace
10
112
20
15.5
30
0
11
108.500002
21
15.039216
31
0
12
108.499998
22
15.960784
32
0
13
112
23
15.5
33
0
39
0
210
0
220
0
230
1
0
SOLID
5
1A4
100
AcDbEntity
8
2
62
256
6
ByLayer
370
13
48
1
60
0
100
AcDbTrace
10
19.285
20
15.5
30
0
11
22.784998
21
15.960784
31
0
12
22.785002
22
15.039216
32
0
13
19.285
23
15.5
33
0
39
0
210
0
220
0
230
1
0
ENDBLK
5
1A6
100
AcDbEntity
8
0
100
AcDbBlockEnd
0
BLOCK
5
1B0
100
AcDbEntity
8
0
100
AcDbBlockBegin
2
DimnDraft3D3
70
0
10
0
20
0
30
0
3
DimnDraft3D3
0
MTEXT
5
1A9
100
AcDbEntity
8
SK2
62
256
6
ByLayer
370
13
48
1
60
0
100
AcDbMText
10
-27.770456
20
-32.249886
30
0
210
0
220
0
230
1
1
\W0.7346;50.0
40
3
41
0
44
1.084337
50
0
71
7
72
5
7
iso_b_vert
0
LINE
5
1AB
100
AcDbEntity
8
SK2
62
256
6
ByLayer
370
13
48
1
60
0
100
AcDbLine
10
-50
20
-11.5875
30
0
11
-50
21
-35
31
0
39
0
210
0
220
0
230
1
0
LINE
5
1AC
100
AcDbEntity
8
SK2
62
256
6
ByLayer
370
13
48
1
60
0
100
AcDbLine
10
0
20
-14.0875
30
0
11
0
21
-35
31
0
39
0
210
0
220
0
230
1
0
LINE
5
1AD
100
AcDbEntity
8
SK2
62
256
6
ByLayer
370
13
48
1
60
0
100
AcDbLine
10
-50
20
-33
30
0
11
0
21
-33
31
0
39
0
210
0
220
0
230
1
0
SOLID
5
1AE
100
AcDbEntity
8
SK2
62
256
6
ByLayer
370
13
48
1
60
0
100
AcDbTrace
10
-50
20
-33
30
0
11
-46.500002
21
-32.539216
31
0
12
-46.499998
22
-33.460784
32
0
13
-50
23
-33
33
0
39
0
210
0
220
0
230
1
0
SOLID
5
1AF
100
AcDbEntity
8
SK2
62
256
6
ByLayer
370
13
48
1
60
0
100
AcDbTrace
10
0
20
-33
30
0
11
-3.499998
21
-33.460784
31
0
12
-3.500002
22
-32.539216
32
0
13
0
23
-33
33
0
39
0
210
0
220
0
230
1
0
ENDBLK
5
1B1
100
AcDbEntity
8
0
100
AcDbBlockEnd
0
BLOCK
5
1BA
100
AcDbEntity
8
0
100
AcDbBlockBegin
2
DimnDraft3D4
70
0
10
0
20
0
30
0
3
DimnDraft3D4
0
MTEXT
5
1B4
100
AcDbEntity
8
2
62
256
6
ByLayer
370
13
48
1
60
0
100
AcDbMText
10
52.858515
20
-32.249886
30
0
210
0
220
0
230
1
1
\W0.6261;112.0
40
3
41
0
44
1.084337
50
0
71
7
72
5
7
iso_b_vert
0
LINE
5
1B5
100
AcDbEntity
8
2
62
256
6
ByLayer
370
13
48
1
60
0
100
AcDbLine
10
0
20
-14.0875
30
0
11
0
21
-35
31
0
39
0
210
0
220
0
230
1
0
LINE
5
1B6
100
AcDbEntity
8
2
62
256
6
ByLayer
370
13
48
1
60
0
100
AcDbLine
10
112
20
-1.5875
30
0
11
112
21
-35
31
0
39
0
210
0
220
0
230
1
0
LINE
5
1B7
100
AcDbEntity
8
2
62
256
6
ByLayer
370
13
48
1
60
0
100
AcDbLine
10
0
20
-33
30
0
11
112
21
-33
31
0
39
0
210
0
220
0
230
1
0
SOLID
5
1B8
100
AcDbEntity
8
2
62
256
6
ByLayer
370
13
48
1
60
0
100
AcDbTrace
10
0
20
-33
30
0
11
3.499998
21
-32.539216
31
0
12
3.500002
22
-33.460784
32
0
13
0
23
-33
33
0
39
0
210
0
220
0
230
1
0
SOLID
5
1B9
100
AcDbEntity
8
2
62
256
6
ByLayer
370
13
48
1
60
0
100
AcDbTrace
10
112
20
-33
30
0
11
108.500002
21
-33.460784
31
0
12
108.499998
22
-32.539216
32
0
13
112
23
-33
33
0
39
0
210
0
220
0
230
1
0
ENDBLK
5
1BB
100
AcDbEntity
8
0
100
AcDbBlockEnd
0
BLOCK
5
1C5
100
AcDbEntity
8
0
100
AcDbBlockBegin
2
DimnDraft3D5
70
0
10
0
20
0
30
0
3
DimnDraft3D5
0
MTEXT
5
1BE
100
AcDbEntity
8
SK2
62
256
6
ByLayer
370
13
48
1
60
0
100
AcDbMText
10
-57.750114
20
0.229544
30
0
210
0
220
0
230
1
1
\W0.7346;20.0
40
3
41
0
44
1.084337
50
90
71
7
72
5
7
iso_b_vert
0
MTEXT
5
1BF
100
AcDbEntity
8
SK2
62
256
6
ByLayer
370
13
48
1
60
0
100
AcDbMText
10
-57.750114
20
-4.247019
30
0
210
0
220
0
230
1
1
%%c
40
3
41
0
44
1.084337
50
90
71
7
72
5
7
iso_b_vert
0
LINE
5
1C0
100
AcDbEntity
8
SK2
62
256
6
ByLayer
370
13
48
1
60
0
100
AcDbLine
10
-51.5875
20
10
30
0
11
-58.25
21
10
31
0
39
0
210
0
220
0
230
1
0
LINE
5
1C1
100
AcDbEntity
8
SK2
62
256
6
ByLayer
370
13
48
1
60
0
100
AcDbLine
10
-51.5875
20
-10
30
0
11
-58.25
21
-10
31
0
39
0
210
0
220
0
230
1
0
LINE
5
1C2
100
AcDbEntity
8
SK2
62
256
6
ByLayer
370
13
48
1
60
0
100
AcDbLine
10
-56.25
20
10
30
0
11
-56.25
21
-10
31
0
39
0
210
0
220
0
230
1
0
SOLID
5
1C3
100
AcDbEntity
8
SK2
62
256
6
ByLayer
370
13
48
1
60
0
100
AcDbTrace
10
-56.25
20
10
30
0
11
-55.789216
21
6.500002
31
0
12
-56.710784
22
6.499998
32
0
13
-56.25
23
10
33
0
39
0
210
0
220
0
230
1
0
SOLID
5
1C4
100
AcDbEntity
8
SK2
62
256
6
ByLayer
370
13
48
1
60
0
100
AcDbTrace
10
-56.25
20
-10
30
0
11
-56.710784
21
-6.500002
31
0
12
-55.789216
22
-6.499998
32
0
13
-56.25
23
-10
33
0
39
0
210
0
220
0
230
1
0
ENDBLK
5
1C6
100
AcDbEntity
8
0
100
AcDbBlockEnd
0
ENDSEC
0
SECTION
2
ENTITIES
0
ARC
5
E0
100
AcDbEntity
8
SK1
62
256
6
ByLayer
370
18
48
1
60
0
100
AcDbCircle
39
0
10
47.946236
20
-10.49675
30
0
40
0.799999999999998
210
0
220
0
230
-1
100
AcDbArc
50
51
51
130.534532
0
ARC
5
E1
100
AcDbEntity
8
SK1
62
256
6
ByLayer
370
18
48
1
60
0
100
AcDbCircle
39
0
10
47.946236
20
10.49675
30
0
40
0.799999999999998
210
0
220
0
230
-1
100
AcDbArc
50
229.465468
51
309
0
ARC
5
E2
100
AcDbEntity
8
SK1
62
256
6
ByLayer
370
18
48
1
60
0
100
AcDbCircle
39
0
10
0.975195
20
10.14675
30
0
40
0.4
210
0
220
0
230
-1
100
AcDbArc
50
270
51
295
0
ARC
5
E3
100
AcDbEntity
8
SK1
62
256
6
ByLayer
370
18
48
1
60
0
100
AcDbCircle
39
0
10
0.975195
20
-10.14675
30
0
40
0.4
210
0
220
0
230
-1
100
AcDbArc
50
65
51
90
0
ARC
5
E4
100
AcDbEntity
8
1
62
256
6
ByLayer
370
18
48
1
60
0
100
AcDbCircle
39
0
10
-17
20
-16.1
30
0
40
8
210
0
220
0
230
-1
100
AcDbArc
50
63.944746
51
90
0
ARC
5
E5
100
AcDbEntity
8
1
62
256
6
ByLayer
370
18
48
1
60
0
100
AcDbCircle
39
0
10
-17
20
16.1
30
0
40
8
210
0
220
0
230
-1
100
AcDbArc
50
270
51
296.055254
0
ARC
5
E6
100
AcDbEntity
8
SK1
62
256
6
ByLayer
370
18
48
1
60
0
100
AcDbCircle
39
0
10
0.15
20
10.14675
30
0
40
0.4
210
0
220
0
230
-1
100
AcDbArc
50
247.975687
51
270
0
ARC
5
E7
100
AcDbEntity
8
SK1
62
256
6
ByLayer
370
18
48
1
60
0
100
AcDbCircle
39
0
10
0.15
20
-10.14675
30
0
40
0.4
210
0
220
0
230
-1
100
AcDbArc
50
90
51
112.024313
0
ARC
5
E8
100
AcDbEntity
8
1
62
256
6
ByLayer
370
18
48
1
60
0
100
AcDbCircle
39
0
10
101.15
20
2.35
30
0
40
0.250000000039954
210
0
220
0
230
1
100
AcDbArc
50
331.642363
51
0
0
ELLIPSE
5
E9
100
AcDbEntity
8
1
62
256
6
ByLayer
370
18
48
1
60
0
100
AcDbEllipse
10
91.218254
20
7.47091
30
0
11
2.74357247194332
21
9.2233626753727
31
0
210
0
220
0
230
1
40
0.131578
41
-1.66162598171132
42
-1.60355956572643
0
ELLIPSE
5
EA
100
AcDbEntity
8
1
62
256
6
ByLayer
370
18
48
1
60
0
100
AcDbEllipse
10
17.455
20
0.796478
30
0
11
-1.19155574296283
21
-5.88049274392988
31
0
210
0
220
0
230
1
40
0.017922
41
0.477372410837776
42
0.477785488637096
0
ELLIPSE
5
EB
100
AcDbEntity
8
1
62
256
6
ByLayer
370
18
48
1
60
0
100
AcDbEllipse
10
17.924824
20
2.952711
30
0
11
2.99906636672933
21
15.9791145726235
31
0
210
0
220
0
230
1
40
0.00427
41
-1.40377656212431
42
-1.37850761377432
0
ELLIPSE
5
EC
100
AcDbEntity
8
1
62
256
6
ByLayer
370
18
48
1
60
0
100
AcDbEllipse
10
102.410125
20
-1.234206
30
0
11
1.49786306919334
21
0.400858051410246
31
0
210
0
220
0
230
1
40
0.78355
41
1.95893730803067
42
-1.77950883410326
0
ELLIPSE
5
ED
100
AcDbEntity
8
1
62
256
6
ByLayer
370
18
48
1
60
0
100
AcDbEllipse
10
111.967885
20
-0.15503
30
0
11
0.047079669021111
21
0.15314951750962
31
0
210
0
220
0
230
1
40
0.055315
41
1.75915904254814
42
2.44405691342446
0
ELLIPSE
5
EE
100
AcDbEntity
8
1
62
256
6
ByLayer
370
13
48
1
60
0
100
AcDbEllipse
10
90.4
20
8.824977
30
0
11
-0.193879909121965
21
-5.99686673028832
31
0
210
0
220
0
230
1
40
0.340668
41
0.836984631389481
42
1.14081981823944
0
ELLIPSE
5
EF
100
AcDbEntity
8
1
62
256
6
ByLayer
370
18
48
1
60
0
100
AcDbEllipse
10
92.133607
20
-81.022444
30
0
11
79.0404555812321
21
-0.144014460161733
31
0
210
0
220
0
230
1
40
0.930398
41
1.45334368921078
42
1.45498539823447
0
ELLIPSE
5
F0
100
AcDbEntity
8
1
62
256
6
ByLayer
370
13
48
1
60
0
100
AcDbEllipse
10
17.455
20
0.796478
30
0
11
-1.19155574296283
21
-5.88049274392988
31
0
210
0
220
0
230
1
40
0.017922
41
0.477785488637096
42
2.52877740636707
0
ELLIPSE
5
F1
100
AcDbEntity
8
1
62
256
6
ByLayer
370
18
48
1
60
0
100
AcDbEllipse
10
16.960524
20
-1.710121
30
0
11
2.999459398649
21
14.2367513543493
31
0
210
0
220
0
230
1
40
0.004038
41
-1.80684360191812
42
-1.76263277331391
0
ELLIPSE
5
F2
100
AcDbEntity
8
1
62
256
6
ByLayer
370
18
48
1
60
0
100
AcDbEllipse
10
111.967885
20
0.15503
30
0
11
0.0470796688534034
21
-0.153149517034373
31
0
210
0
220
0
230
1
40
0.055315
41
-2.44405691302592
42
-1.75915904043207
0
ELLIPSE
5
F3
100
AcDbEntity
8
1
62
256
6
ByLayer
370
18
48
1
60
0
100
AcDbEllipse
10
105.807763
20
-1.399234
30
0
11
0.00210581850380126
21
-1.25138990199264
31
0
210
0
220
0
230
1
40
0.343086
41
0.239624166187051
42
0.643651028160434
0
ELLIPSE
5
F4
100
AcDbEntity
8
1
62
256
6
ByLayer
370
18
48
1
60
0
100
AcDbEllipse
10
17.455
20
0.796478
30
0
11
-1.19155574296283
21
-5.88049274392988
31
0
210
0
220
0
230
1
40
0.017922
41
2.52877740636707
42
2.52933474816211
0
ELLIPSE
5
F5
100
AcDbEntity
8
1
62
256
6
ByLayer
370
13
48
1
60
0
100
AcDbEllipse
10
17.455
20
0.796478
30
0
11
0.537209372705115
21
5.97590211515197
31
0
210
0
220
0
230
1
40
0.704244
41
0.692475912138957
42
2.64025782485342
0
ELLIPSE
5
F6
100
AcDbEntity
8
1
62
256
6
ByLayer
370
18
48
1
60
0
100
AcDbEllipse
10
90.4
20
8.824977
30
0
11
-0.193879909121965
21
-5.99686673028832
31
0
210
0
220
0
230
1
40
0.340668
41
1.14081981823944
42
1.14259837193148
0
ELLIPSE
5
F7
100
AcDbEntity
8
1
62
256
6
ByLayer
370
18
48
1
60
0
100
AcDbEllipse
10
118.248843
20
0
30
0
11
11.2551891957477
21
7.62931165145613
31
0
210
0
220
0
230
1
40
0.290406
41
2.88949272461533
42
-3.13827803697938
0
ELLIPSE
5
F8
100
AcDbEntity
8
1
62
256
6
ByLayer
370
18
48
1
60
0
100
AcDbEllipse
10
98.45
20
-3.723896
30
0
11
-1.84999999999999
21
2.26552175457139E-16
31
0
210
0
220
0
230
1
40
0.702153
41
0.901146355040956
42
2.24054492395745
0
ELLIPSE
5
F9
100
AcDbEntity
8
1
62
256
6
ByLayer
370
18
48
1
60
0
100
AcDbEllipse
10
98.25
20
-3.723896
30
0
11
1.25
21
0
31
0
210
0
220
0
230
1
40
0.702153
41
-1.99019872256064
42
-1.00128429695102
0
ELLIPSE
5
FA
100
AcDbEntity
8
1
62
256
6
ByLayer
370
18
48
1
60
0
100
AcDbEllipse
10
112
20
0
30
0
11
2.96866061299444
21
-8.49733104932459
31
0
210
0
220
0
230
1
40
0.07175
41
2.78973957110951
42
2.87921627624175
0
ELLIPSE
5
FB
100
AcDbEntity
8
1
62
256
6
ByLayer
370
18
48
1
60
0
100
AcDbEllipse
10
112
20
0
30
0
11
2.96866059404992
21
8.49733099078345
31
0
210
0
220
0
230
1
40
0.07175
41
-2.8792162753466
42
-2.78973956991036
0
ELLIPSE
5
FC
100
AcDbEntity
8
1
62
256
6
ByLayer
370
18
48
1
60
0
100
AcDbEllipse
10
105.544041
20
-1.386425
30
0
11
0.369693578400899
21
-1.26206180334512
31
0
210
0
220
0
230
1
40
0.31463
41
0.552323960383573
42
-3.07075986180396
0
POINT
5
6C
100
AcDbEntity
8
80
62
256
6
ByLayer
370
18
48
1
60
0
100
AcDbPoint
10
0
20
0
30
0
39
0
210
0
220
0
230
1
50
360
0
POINT
5
6E
100
AcDbEntity
8
81
62
256
6
ByLayer
370
18
48
1
60
0
100
AcDbPoint
10
101.4
20
0
30
0
39
0
210
0
220
0
230
1
50
360
0
SPLINE
5
FD
100
AcDbEntity
8
1
62
256
6
ByLayer
370
18
48
1
60
0
100
AcDbSpline
70
4
71
3
72
13
73
9
40
0
40
0
40
0
40
0
40
0.192513173685617
40
0.384158586151853
40
0.572057766169293
40
0.715966620022933
40
0.8574694005399
40
1
40
1
40
1
40
1
41
1
10
13.3962612758562
20
8.95695672642913
30
0
41
1
10
12.8708504803935
20
9.2281783110565
30
0
41
1
10
11.8287223102236
20
9.78097962895512
30
0
41
1
10
10.3223107722078
20
10.6841651774869
30
0
41
1
10
8.91259448572453
20
11.4591117689659
30
0
41
1
10
7.57940778480091
20
12.0410515624867
30
0
41
1
10
6.31002440449123
20
12.4115444971989
30
0
41
1
10
5.44326327410485
20
12.4944219152805
30
0
41
1
10
5.00070000000002
20
12.5
30
0
0
SPLINE
5
FE
100
AcDbEntity
8
1
62
256
6
ByLayer
370
18
48
1
60
0
100
AcDbSpline
70
4
71
3
72
13
73
9
40
0
40
0
40
0
40
0
40
0.136125683021675
40
0.271121963017118
40
0.408143734465516
40
0.548198580162174
40
0.773140695719159
40
1
40
1
40
1
40
1
41
1
10
5.00070000000002
20
-12.5
30
0
41
1
10
5.42307605552341
20
-12.4952551450725
30
0
41
1
10
6.25080426793443
20
-12.4193552670857
30
0
41
1
10
7.46499600297432
20
-12.0799906320237
30
0
41
1
10
8.63216701426489
20
-11.5881737537445
30
0
41
1
10
9.9996129521964
20
-10.8741968297199
30
0
41
1
10
11.5557309065642
20
-9.93464979174809
30
0
41
1
10
12.7799054126833
20
-9.28172649437377
30
0
41
1
10
13.3962612758562
20
-8.95695672642913
30
0
0
SPLINE
5
FF
100
AcDbEntity
8
1
62
256
6
ByLayer
370
18
48
1
60
0
100
AcDbSpline
70
4
71
3
72
42
73
38
40
0
40
0
40
0
40
0
40
0.0213347797738377
40
0.0472449980706072
40
0.0706647138375774
40
0.095559393532142
40
0.122161092848258
40
0.150191008198211
40
0.179653684798631
40
0.22040748485533
40
0.263625232280478
40
0.309227678310744
40
0.337528759601233
40
0.361467124279019
40
0.381041369622213
40
0.396250731892704
40
0.407095193190498
40
0.415693763185747
40
0.428129221072815
40
0.444782079314883
40
0.469470116294005
40
0.499870689157339
40
0.533985022861235
40
0.567293478244508
40
0.599623434306324
40
0.660279590887432
40
0.717161423929923
40
0.756445529865012
40
0.790093333066221
40
0.818074949728205
40
0.827958563529264
40
0.841456492276493
40
0.85896135181649
40
0.880470592451178
40
0.915372440790758
40
0.957375387499379
40
1
40
1
40
1
40
1
41
1
10
56.9210708652618
20
7.79549486107859
30
0
41
1
10
56.7182517384576
20
7.79227333700686
30
0
41
1
10
56.2450954086651
20
7.78286059429684
30
0
41
1
10
55.4355418672795
20
7.74823382864963
30
0
41
1
10
54.542511583859
20
7.72958244435179
30
0
41
1
10
53.6308633804769
20
7.73429777298551
30
0
41
1
10
52.6724757346563
20
7.74705944699252
30
0
41
1
10
51.6561652220306
20
7.75654512729881
30
0
41
1
10
50.4695877679306
20
7.76687897865392
30
0
41
1
10
49.0991552265154
20
7.77642799514166
30
0
41
1
10
47.5336681196366
20
7.78477354524387
30
0
41
1
10
46.1185111456434
20
7.78996349322432
30
0
41
1
10
44.9361626869321
20
7.79276156910819
30
0
41
1
10
44.0681792637184
20
7.79404290260783
30
0
41
1
10
43.358263532293
20
7.79460245602954
30
0
41
1
10
42.8064313627001
20
7.79475563575866
30
0
41
1
10
42.3871449575663
20
7.79473117240931
30
0
41
1
10
42.0008784966881
20
7.79461410434328
30
0
41
1
10
41.5440179495342
20
7.79444270799507
30
0
41
1
10
40.8920295277499
20
7.79419098588755
30
0
41
1
10
40.0221445478898
20
7.7938726743219
30
0
41
1
10
38.940486140797
20
7.79353891654617
30
0
41
1
10
37.7542529278061
20
7.7932745807035
30
0
41
1
10
36.5445454755777
20
7.79316960749668
30
0
41
1
10
35.012911949797
20
7.79327287088717
30
0
41
1
10
33.1953307178719
20
7.79382445251554
30
0
41
1
10
31.2935864307735
20
7.79493649423668
30
0
41
1
10
29.7195918473392
20
7.79595414170095
30
0
41
1
10
28.4958461176321
20
7.79670388860325
30
0
41
1
10
27.6285714380426
20
7.79723442814105
30
0
41
1
10
27.0056572914117
20
7.79761164685783
30
0
41
1
10
26.5098037858935
20
7.79790791438504
30
0
41
1
10
25.8729611991942
20
7.79827749129885
30
0
41
1
10
24.9765425826502
20
7.79876900049319
30
0
41
1
10
23.7830221148104
20
7.79934255455541
30
0
41
1
10
22.3334206928657
20
7.79985296197469
30
0
41
1
10
21.3070912202581
20
7.79997110547626
30
0
41
1
10
20.7901561446895
20
7.79997573106382
30
0
0
SPLINE
5
100
100
AcDbEntity
8
1
62
256
6
ByLayer
370
18
48
1
60
0
100
AcDbSpline
70
4
71
2
72
6
73
3
40
0
40
0
40
0
40
1
40
1
40
1
41
1
10
57.1229570698387
20
-0.63350322766351
30
0
41
1
10
57.1935417941153
20
-0.645896055863716
30
0
41
1
10
57.2641249440475
20
-0.659428528188528
30
0
0
SPLINE
5
101
100
AcDbEntity
8
1
62
256
6
ByLayer
370
18
48
1
60
0
100
AcDbSpline
70
4
71
1
72
4
73
2
40
0
40
0
40
1
40
1
41
1
10
93.9766791750372
20
4.18815598929177
30
0
41
1
10
93.9766830916049
20
4.18822336105703
30
0
0
SPLINE
5
102
100
AcDbEntity
8
1
62
256
6
ByLayer
370
18
48
1
60
0
100
AcDbSpline
70
4
71
3
72
40
73
36
40
0
40
0
40
0
40
0
40
0.0568279700945811
40
0.105453759501505
40
0.145858780107464
40
0.172941565080799
40
0.194439134212407
40
0.210347766224617
40
0.222425508108145
40
0.235359833854434
40
0.249405000584074
40
0.264561439289994
40
0.280829545294523
40
0.318521334613834
40
0.360218979951018
40
0.403865902148059
40
0.438529080927059
40
0.474284962903565
40
0.511133625580483
40
0.549074964666515
40
0.587841411455919
40
0.622232966562792
40
0.650245345712306
40
0.669011495367719
40
0.683186645182671
40
0.692983789228204
40
0.704638077684575
40
0.721043821622648
40
0.742201140544528
40
0.773235645661041
40
0.810866943207662
40
0.851430473638508
40
0.890337110714917
40
0.972547947939625
40
1
40
1
40
1
40
1
41
1
10
20.5549999999535
20
-7.79997407346059
30
0
41
1
10
21.1503206792016
20
-7.79998773298604
30
0
41
1
10
22.2550356363413
20
-7.7998805600709
30
0
41
1
10
23.7830221167026
20
-7.7993425584913
30
0
41
1
10
24.9994013394162
20
-7.79875800524363
30
0
41
1
10
25.9315913495387
20
-7.79824480542638
30
0
41
1
10
26.6071639371522
20
-7.79785047014505
30
0
41
1
10
27.1255488782708
20
-7.79753935723116
30
0
41
1
10
27.5542284288535
20
-7.79727909973286
30
0
41
1
10
27.963382216064
20
-7.79702969513718
30
0
41
1
10
28.4047775537599
20
-7.79675968455408
30
0
41
1
10
28.8810818860997
20
-7.7964670737029
30
0
41
1
10
29.6050666574695
20
-7.79601974706767
30
0
41
1
10
30.6069997062557
20
-7.79539128977927
30
0
41
1
10
31.8956651460556
20
-7.79456342463948
30
0
41
1
10
33.1528046700326
20
-7.79391236666984
30
0
41
1
10
34.3477337641676
20
-7.79347492797945
30
0
41
1
10
35.4714587051739
20
-7.79323550725593
30
0
41
1
10
36.6295037453052
20
-7.79317212394923
30
0
41
1
10
37.8190432365992
20
-7.79328615531256
30
0
41
1
10
38.9827694911025
20
-7.79355109942932
30
0
41
1
10
40.0424557734274
20
-7.79387999638843
30
0
41
1
10
40.892613500549
20
-7.79419124112977
30
0
41
1
10
41.5309711376404
20
-7.79443782570351
30
0
41
1
10
41.9785002034601
20
-7.79460545550688
30
0
41
1
10
42.3514202408672
20
-7.79472284777813
30
0
41
1
10
42.74713766962
20
-7.79475752748635
30
0
41
1
10
43.2613372935846
20
-7.79464367592516
30
0
41
1
10
43.9777301368728
20
-7.79414899675876
30
0
41
1
10
44.9155371237392
20
-7.79284200322999
30
0
41
1
10
46.0556991788657
20
-7.79010053103613
30
0
41
1
10
47.277940096237
20
-7.78570833552828
30
0
41
1
10
48.9651916592496
20
-7.7774649402686
30
0
41
1
10
50.5164877823963
20
-7.7670297758587
30
0
41
1
10
51.6593801462464
20
-7.75630268860598
30
0
41
1
10
51.9455704448135
20
-7.75348611214102
30
0
0
SPLINE
5
103
100
AcDbEntity
8
1
62
256
6
ByLayer
370
18
48
1
60
0
100
AcDbSpline
70
4
71
3
72
9
73
5
40
0
40
0
40
0
40
0
40
0.400328361924022
40
1
40
1
40
1
40
1
41
1
10
55.8027910577137
20
-7.76425341084195
30
0
41
1
10
55.9657013721003
20
-7.77025685260173
30
0
41
1
10
56.3622865130458
20
-7.78520466314282
30
0
41
1
10
56.7201990746521
20
-7.79232636814984
30
0
41
1
10
56.9238719574376
20
-7.79555803050937
30
0
0
SPLINE
5
104
100
AcDbEntity
8
1
62
256
6
ByLayer
370
18
48
1
60
0
100
AcDbSpline
70
4
71
3
72
12
73
8
40
0
40
0
40
0
40
0
40
0.269951717591904
40
0.489306959540261
40
0.667716649079001
40
0.864024438047548
40
1
40
1
40
1
40
1
41
1
10
104.854248766045
20
-8.35000213333683
30
0
41
1
10
105.226402059864
20
-8.34969919443631
30
0
41
1
10
105.901380578055
20
-8.34940850666791
30
0
41
1
10
106.83118798628
20
-8.34916487010463
30
0
41
1
10
107.646825822793
20
-8.35019468175713
30
0
41
1
10
108.35702201017
20
-8.34995541977418
30
0
41
1
10
108.816767837085
20
-8.34999910397858
30
0
41
1
10
109.00498043731
20
-8.34999761584228
30
0
0
SPLINE
5
105
100
AcDbEntity
8
1
62
256
6
ByLayer
370
18
48
1
60
0
100
AcDbSpline
70
4
71
3
72
9
73
5
40
0
40
0
40
0
40
0
40
0.89084937208262
40
1
40
1
40
1
40
1
41
1
10
109.015099226862
20
8.35005895248023
30
0
41
1
10
108.823355722566
20
8.35001358299149
30
0
41
1
10
108.608335452107
20
8.34995313943477
30
0
41
1
10
108.393126480299
20
8.3499678601778
30
0
41
1
10
108.369635236521
20
8.34997012405785
30
0
0
SPLINE
5
106
100
AcDbEntity
8
1
62
256
6
ByLayer
370
18
48
1
60
0
100
AcDbSpline
70
4
71
3
72
11
73
7
40
0
40
0
40
0
40
0
40
0.437745001524153
40
0.674088912579929
40
0.917086822808848
40
1
40
1
40
1
40
1
41
1
10
101.37
20
2.23719193074373
30
0
41
1
10
101.36965013451
20
2.20630108645466
30
0
41
1
10
101.360783714517
20
2.16179935136807
30
0
41
1
10
101.330372106136
20
2.10614572118712
30
0
41
1
10
101.305242991717
20
2.07673693390697
30
0
41
1
10
101.288317615413
20
2.06185407202588
30
0
41
1
10
101.283877822697
20
2.0582159554348
30
0
0
SPLINE
5
107
100
AcDbEntity
8
1
62
256
6
ByLayer
370
18
48
1
60
0
100
AcDbSpline
70
4
71
3
72
14
73
10
40
0
40
0
40
0
40
0
40
0.249999999999999
40
0.249999999999999
40
0.5
40
0.5
40
0.75
40
0.75
40
1
40
1
40
1
40
1
41
1
10
111.799647108457
20
0.806275121931918
30
0
41
1
10
111.770353397804
20
0.930081999897794
30
0
41
1
10
111.734097971767
20
1.07104223002659
30
0
41
1
10
111.649114318315
20
1.38162977667665
30
0
41
1
10
111.600388578845
20
1.55124788826345
30
0
41
1
10
111.49242044168
20
1.91234062203222
30
0
41
1
10
111.433180953736
20
2.1038055127411
30
0
41
1
10
111.306563317336
20
2.5009053470734
30
0
41
1
10
111.239189787464
20
2.7065259952428
30
0
41
1
10
111.169096899996
20
2.91511115939957
30
0
0
SPLINE
5
108
100
AcDbEntity
8
1
62
256
6
ByLayer
370
18
48
1
60
0
100
AcDbSpline
70
4
71
3
72
8
73
4
40
0
40
0
40
0
40
0
40
1
40
1
40
1
40
1
41
1
10
101.949495483876
20
-8.3903714891494
30
0
41
1
10
101.812280637293
20
-8.33091768940284
30
0
41
1
10
101.67490627646
20
-8.27086160045593
30
0
41
1
10
101.537360923689
20
-8.21022728739604
30
0
0
SPLINE
5
109
100
AcDbEntity
8
1
62
256
6
ByLayer
370
18
48
1
60
0
100
AcDbSpline
70
4
71
3
72
37
73
33
40
0
40
0
40
0
40
0
40
0.195255497530757
40
0.195255497530757
40
0.463503665020477
40
0.463503665020477
40
0.597627748765336
40
0.597627748765336
40
0.731751832510196
40
0.731751832510196
40
0.765282853446412
40
0.765282853446412
40
0.798813874382628
40
0.798813874382628
40
0.86587591625506
40
0.86587591625506
40
0.899406937191277
40
0.899406937191277
40
0.916172447659385
40
0.916172447659385
40
0.932937958127493
40
0.932937958127493
40
0.935033646936007
40
0.935033646936007
40
0.935557569138136
40
0.935557569138136
40
0.936081491340265
40
0.937129335744523
40
0.941320713361553
40
0.949703468595617
40
0.966468979063744
40
1
40
1
40
1
40
1
41
1
10
56.9157894056982
20
7.79828367649006
30
0
41
1
10
58.9810126772071
20
7.79241871172607
30
0
41
1
10
61.0472918419352
20
7.75980106443322
30
0
41
1
10
65.9517544363691
20
7.6240309219173
30
0
41
1
10
68.7898815851089
20
7.49930093123641
30
0
41
1
10
73.0471658525828
20
7.2435437873788
30
0
41
1
10
74.466577806957
20
7.14671621031101
30
0
41
1
10
77.3034858452964
20
6.92916839466216
30
0
41
1
10
78.7210450024789
20
6.80844599441505
30
0
41
1
10
80.4918947863193
20
6.64176064127548
30
0
41
1
10
80.8460143264108
20
6.6076388029841
30
0
41
1
10
81.5541385257255
20
6.53771544238313
30
0
41
1
10
81.9078188762885
20
6.50113536111405
30
0
41
1
10
82.9668011014519
20
6.38391200877717
30
0
41
1
10
83.6704603518218
20
6.2972459350099
30
0
41
1
10
84.7189341676036
20
6.14127411095564
30
0
41
1
10
85.0672675663951
20
6.08490336496342
30
0
41
1
10
85.5865568897054
20
5.98884042440059
30
0
41
1
10
85.7591103505468
20
5.95488671719215
30
0
41
1
10
86.1024998421262
20
5.88100120135115
30
0
41
1
10
86.2733873611389
20
5.84123957183925
30
0
41
1
10
86.4637525716878
20
5.79003827626624
30
0
41
1
10
86.4848316540946
20
5.78411832112272
30
0
41
1
10
86.5112520653404
20
5.77691942979018
30
0
41
1
10
86.5166980633923
20
5.77596901981184
30
0
41
1
10
86.5274527985192
20
5.77365198273688
30
0
41
1
10
86.5435849613136
20
5.77017516406636
30
0
41
1
10
86.6027368869853
20
5.75741293822915
30
0
41
1
10
86.7425557643413
20
5.72713828994097
30
0
41
1
10
87.0437313367265
20
5.66136683797163
30
0
41
1
10
87.6461918559513
20
5.5275786802261
30
0
41
1
10
88.1627615857003
20
5.40912888307275
30
0
41
1
10
88.5072291692988
20
5.32849459331271
30
0
0
SPLINE
5
10A
100
AcDbEntity
8
1
62
256
6
ByLayer
370
18
48
1
60
0
100
AcDbSpline
70
4
71
3
72
8
73
4
40
0
40
0
40
0
40
0
40
1
40
1
40
1
40
1
41
1
10
16.3135186353568
20
-5.05897975419518
30
0
41
1
10
16.3139994304478
20
-5.05642868287219
30
0
41
1
10
16.3144804865068
20
-5.05387645997064
30
0
41
1
10
16.314961803508
20
-5.05132308560479
30
0
0
SPLINE
5
10B
100
AcDbEntity
8
1
62
256
6
ByLayer
370
18
48
1
60
0
100
AcDbSpline
70
4
71
3
72
14
73
10
40
0
40
0
40
0
40
0
40
0.499999999999996
40
0.499999999999996
40
0.749999999999998
40
0.749999999999998
40
0.874999999999999
40
0.874999999999999
40
1
40
1
40
1
40
1
41
1
10
111.104988783745
20
3.10588660164635
30
0
41
1
10
110.928588726582
20
3.59181442785541
30
0
41
1
10
110.754880777061
20
4.08113524801678
30
0
41
1
10
110.498617964276
20
4.82053485718529
30
0
41
1
10
110.413920538982
20
5.06791327125057
30
0
41
1
10
110.288075706041
20
5.44049495536024
30
0
41
1
10
110.246278281399
20
5.56509598334566
30
0
41
1
10
110.163806398124
20
5.81275152185759
30
0
41
1
10
110.123053204625
20
5.93603683737177
30
0
41
1
10
110.082805489764
20
6.05875415224855
30
0
0
SPLINE
5
10C
100
AcDbEntity
8
1
62
256
6
ByLayer
370
18
48
1
60
0
100
AcDbSpline
70
4
71
3
72
24
73
20
40
0
40
0
40
0
40
0
40
0.251319442778519
40
0.251319442778519
40
0.37697916416777
40
0.37697916416777
40
0.439809024862387
40
0.439809024862387
40
0.447662757449212
40
0.447662757449212
40
0.455516490036037
40
0.455516490036037
40
0.471223955209687
40
0.471223955209687
40
0.502638885556987
40
0.502638885556987
40
0.753958328335333
40
0.753958328335333
40
1
40
1
40
1
40
1
41
1
10
92.1761652651876
20
6.26515016828458
30
0
41
1
10
91.8036054097556
20
6.19867373449409
30
0
41
1
10
91.4310808113318
20
6.13004369541994
30
0
41
1
10
90.872313251835
20
6.02394951986659
30
0
41
1
10
90.6860600303157
20
5.9880444835824
30
0
41
1
10
90.4066829864328
20
5.93344727073395
30
0
41
1
10
90.3135593846451
20
5.91515223478615
30
0
41
1
10
90.2087855041345
20
5.89424596060644
30
0
41
1
10
90.1971436416144
20
5.89191508530732
30
0
41
1
10
90.1738588033398
20
5.88722895366772
30
0
41
1
10
90.1621942351683
20
5.88550149608432
30
0
41
1
10
90.1272063991252
20
5.88005276750769
30
0
41
1
10
90.1038751242929
20
5.87645864741509
30
0
41
1
10
90.0338618989454
20
5.86568968101636
30
0
41
1
10
89.9871605776143
20
5.85856840455259
30
0
41
1
10
89.5665863228122
20
5.79423098567742
30
0
41
1
10
89.1909087382318
20
5.7358671519014
30
0
41
1
10
88.4447530352163
20
5.62171467343134
30
0
41
1
10
88.0743238425618
20
5.56573216244817
30
0
41
1
10
87.7028525529862
20
5.51038116855929
30
0
0
SPLINE
5
10D
100
AcDbEntity
8
1
62
256
6
ByLayer
370
18
48
1
60
0
100
AcDbSpline
70
4
71
3
72
10
73
6
40
0
40
0
40
0
40
0
40
0.420615931164349
40
0.420615931164349
40
1
40
1
40
1
40
1
41
1
10
104.904947140942
20
-8.349994982407
30
0
41
1
10
104.432730742092
20
-8.34987165751267
30
0
41
1
10
103.960311683404
20
-8.341528116738
30
0
41
1
10
102.837556697314
20
-8.30232544991853
30
0
41
1
10
102.187311855125
20
-8.26412755839851
30
0
41
1
10
101.537360923689
20
-8.21022728739604
30
0
0
SPLINE
5
10E
100
AcDbEntity
8
1
62
256
6
ByLayer
370
18
48
1
60
0
100
AcDbSpline
70
4
71
3
72
10
73
6
40
0
40
0
40
0
40
0
40
0.5
40
0.5
40
1
40
1
40
1
40
1
41
1
10
101.304632931634
20
7.48100401824721
30
0
41
1
10
100.114706019855
20
7.43798346867666
30
0
41
1
10
98.9248848036702
20
7.36386256997278
30
0
41
1
10
96.5499010349932
20
7.1446533564382
30
0
41
1
10
95.3638315436128
20
6.99972240124637
30
0
41
1
10
94.1768373875405
20
6.82251781072785
30
0
0
SPLINE
5
10F
100
AcDbEntity
8
1
62
256
6
ByLayer
370
18
48
1
60
0
100
AcDbSpline
70
4
71
3
72
10
73
6
40
0
40
0
40
0
40
0
40
0.466416473197579
40
0.466416473197579
40
1
40
1
40
1
40
1
41
1
10
107.991622353806
20
-7.73711093942165
30
0
41
1
10
107.106733545506
20
-7.73710211766652
30
0
41
1
10
106.221844737118
20
-7.73710789866732
30
0
41
1
10
104.324637285849
20
-7.73710904935731
30
0
41
1
10
103.312318642777
20
-7.73712699391544
30
0
41
1
10
102.3
20
-7.7371096767834
30
0
0
SPLINE
5
110
100
AcDbEntity
8
1
62
256
6
ByLayer
370
18
48
1
60
0
100
AcDbSpline
70
4
71
3
72
8
73
4
40
0
40
0
40
0
40
0
40
1
40
1
40
1
40
1
41
1
10
110.082805484637
20
-6.05875415123867
30
0
41
1
10
109.866160595418
20
-6.71931535765506
30
0
41
1
10
109.646368154583
20
-7.38308312100241
30
0
41
1
10
109.423331701032
20
-8.05015569817266
30
0
0
SPLINE
5
111
100
AcDbEntity
8
1
62
256
6
ByLayer
370
18
48
1
60
0
100
AcDbSpline
70
4
71
3
72
8
73
4
40
0
40
0
40
0
40
0
40
1
40
1
40
1
40
1
41
1
10
101.4
20
2.35307099494852
30
0
41
1
10
101.698023285608
20
2.19007076391998
30
0
41
1
10
101.998056099687
20
2.03483100388615
30
0
41
1
10
102.3
20
1.88697154699992
30
0
0
SPLINE
5
112
100
AcDbEntity
8
1
62
256
6
ByLayer
370
18
48
1
60
0
100
AcDbSpline
70
4
71
3
72
8
73
4
40
0
40
0
40
0
40
0
40
1
40
1
40
1
40
1
41
1
10
101.2
20
2.06542821007332
30
0
41
1
10
101.2
20
2.26942436134701
30
0
41
1
10
101.2
20
2.51387254025735
30
0
41
1
10
101.2
20
2.79816883001135
30
0
0
SPLINE
5
113
100
AcDbEntity
8
1
62
256
6
ByLayer
370
18
48
1
60
0
100
AcDbSpline
70
4
71
3
72
14
73
10
40
0
40
0
40
0
40
0
40
0.499999999999997
40
0.499999999999997
40
0.624999999999996
40
0.624999999999996
40
0.749999999999995
40
0.749999999999995
40
1
40
1
40
1
40
1
41
1
10
109.124864328822
20
-8.34491369646108
30
0
41
1
10
108.893280571832
20
-8.36482014211742
30
0
41
1
10
108.68141964217
20
-8.3269865869766
30
0
41
1
10
108.443014800364
20
-8.202344320598
30
0
41
1
10
108.396668778516
20
-8.17350771503413
30
0
41
1
10
108.30675237128
20
-8.10770862779842
30
0
41
1
10
108.263152274288
20
-8.07069025575737
30
0
41
1
10
108.1378217505
20
-7.94808361472286
30
0
41
1
10
108.061141215121
20
-7.85073195399232
30
0
41
1
10
107.991622353803
20
-7.737110939422
30
0
0
SPLINE
5
114
100
AcDbEntity
8
1
62
256
6
ByLayer
370
18
48
1
60
0
100
AcDbSpline
70
4
71
3
72
12
73
8
40
0
40
0
40
0
40
0
40
0.0488035420066742
40
0.36654511446594
40
0.576846509460112
40
0.78765245558571
40
1
40
1
40
1
40
1
41
1
10
101.422445740156
20
1.89768353875778
30
0
41
1
10
101.420209046559
20
1.90009581171233
30
0
41
1
10
101.403739674869
20
1.91828654788637
30
0
41
1
10
101.381749342038
20
1.94777047993497
30
0
41
1
10
101.360927337336
20
1.98695737426559
30
0
41
1
10
101.347701254045
20
2.02141467546221
30
0
41
1
10
101.343083382712
20
2.04512941715134
30
0
41
1
10
101.34076603532
20
2.05702998580242
30
0
0
SPLINE
5
115
100
AcDbEntity
8
1
62
256
6
ByLayer
370
18
48
1
60
0
100
AcDbSpline
70
4
71
3
72
12
73
8
40
0
40
0
40
0
40
0
40
0.25
40
0.25
40
0.5
40
0.5
40
1
40
1
40
1
40
1
41
1
10
111.53543062608
20
-1.3483855284594
30
0
41
1
10
111.567312401595
20
-1.25986363889638
30
0
41
1
10
111.599115155386
20
-1.17054741024853
30
0
41
1
10
111.662564393596
20
-0.990344108082809
30
0
41
1
10
111.694344772587
20
-0.899066382226522
30
0
41
1
10
111.788395429293
20
-0.625941230271053
30
0
41
1
10
111.849110372144
20
-0.445632907717027
30
0
41
1
10
111.908033931191
20
-0.26692615409695
30
0
0
SPLINE
5
116
100
AcDbEntity
8
1
62
256
6
ByLayer
370
18
48
1
60
0
100
AcDbSpline
70
4
71
2
72
6
73
3
40
0
40
0
40
0
40
1
40
1
40
1
41
0.500002757239047
10
105.791859443154
20
-2.63271814191567
30
0
41
0.499997242760953
10
103.976226662351
20
-2.62842499939106
30
0
41
0.500002757239047
10
102.160297025755
20
-2.62413029309629
30
0
0
SPLINE
5
117
100
AcDbEntity
8
1
62
256
6
ByLayer
370
13
48
1
60
0
100
AcDbSpline
70
4
71
3
72
8
73
4
40
0
40
0
40
0
40
0
40
1
40
1
40
1
40
1
41
1
10
111.068053416479
20
0.858511118116354
30
0
41
1
10
111.051529348604
20
0.850625658599284
30
0
41
1
10
111.034357745009
20
0.836175378038803
30
0
41
1
10
111.020301414791
20
0.818326762707301
30
0
0
SPLINE
5
118
100
AcDbEntity
8
1
62
256
6
ByLayer
370
18
48
1
60
0
100
AcDbSpline
70
4
71
3
72
8
73
4
40
0
40
0
40
0
40
0
40
1
40
1
40
1
40
1
41
1
10
18.7
20
-5.58859666114779
30
0
41
1
10
18.1334553457713
20
-5.43674770741515
30
0
41
1
10
17.5668110729014
20
-5.28402467541366
30
0
41
1
10
17
20
-5.13065055195565
30
0
0
SPLINE
5
119
100
AcDbEntity
8
1
62
256
6
ByLayer
370
18
48
1
60
0
100
AcDbSpline
70
4
71
1
72
4
73
2
40
0
40
0
40
1
40
1
41
1
10
16.4453410556359
20
-4.43530936833514
30
0
41
1
10
16.3135186353568
20
-5.05897975419518
30
0
0
SPLINE
5
11A
100
AcDbEntity
8
1
62
256
6
ByLayer
370
18
48
1
60
0
100
AcDbSpline
70
4
71
3
72
8
73
4
40
0
40
0
40
0
40
0
40
1
40
1
40
1
40
1
41
1
10
111.985260617013
20
0.0647551065981986
30
0
41
1
10
111.973700888317
20
0.10365972544659
30
0
41
1
10
111.962196640581
20
0.142457553279712
30
0
41
1
10
111.950747495983
20
0.181149317340726
30
0
0
SPLINE
5
11B
100
AcDbEntity
8
1
62
256
6
ByLayer
370
13
48
1
60
0
100
AcDbSpline
70
4
71
3
72
15
73
11
40
0
40
0
40
0
40
0
40
0.250235507690683
40
0.375353261536025
40
0.437912138458695
40
0.500471015381366
40
0.750706523072049
40
0.81326539999472
40
0.875824276917391
40
1
40
1
40
1
40
1
41
1
10
101.4
20
6.45449311187582
30
0
41
1
10
102.124470814562
20
6.48329284601468
30
0
41
1
10
103.211050800666
20
6.49977621806883
30
0
41
1
10
104.478081551992
20
6.47865554554329
30
0
41
1
10
105.202253176522
20
6.45725032769934
30
0
41
1
10
106.288910804076
20
6.41416264496348
30
0
41
1
10
107.375265918417
20
6.34008896372927
30
0
41
1
10
108.461309699087
20
6.23980955839605
30
0
41
1
10
109.182887181807
20
6.16737235165988
30
0
41
1
10
109.723395918272
20
6.10426895094537
30
0
41
1
10
110.082805491063
20
6.05875414828748
30
0
0
SPLINE
5
11C
100
AcDbEntity
8
1
62
256
6
ByLayer
370
18
48
1
60
0
100
AcDbSpline
70
4
71
3
72
8
73
4
40
0
40
0
40
0
40
0
40
1
40
1
40
1
40
1
41
1
10
103.400212281596
20
-8.50000388134484
30
0
41
1
10
102.917051917898
20
-8.50004369086602
30
0
41
1
10
102.433469781257
20
-8.49136828030413
30
0
41
1
10
101.949495483891
20
-8.47385175143438
30
0
0
SPLINE
5
11D
100
AcDbEntity
8
1
62
256
6
ByLayer
370
18
48
1
60
0
100
AcDbSpline
70
4
71
3
72
20
73
16
40
0
40
0
40
0
40
0
40
0.0446620345066006
40
0.0446620345066006
40
0.164079280193276
40
0.164079280193276
40
0.28349652587995
40
0.28349652587995
40
0.5223310172533
40
0.5223310172533
40
0.641748262939975
40
0.641748262939975
40
0.76116550862665
40
0.76116550862665
40
1
40
1
40
1
40
1
41
1
10
57.1268497142585
20
-0.634148122457219
30
0
41
1
10
56.55173253606
20
-0.532158286849182
30
0
41
1
10
55.9765879515246
20
-0.429908925577905
30
0
41
1
10
53.863465120763
20
-0.053577639661313
30
0
41
1
10
52.324837684425
20
0.22162645459494
30
0
41
1
10
49.2489801888934
20
0.769383270975226
30
0
41
1
10
47.7111338502137
20
1.04127923219178
30
0
41
1
10
43.0976191786297
20
1.84940491013705
30
0
41
1
10
40.0220097051921
20
2.37841597098367
30
0
41
1
10
35.4066686755256
20
3.14374985180922
30
0
41
1
10
33.8679895268567
20
3.39407599384663
30
0
41
1
10
30.7919474644559
20
3.8813849671767
30
0
41
1
10
29.2542902414062
20
4.11845863461269
30
0
41
1
10
24.6416893330826
20
4.80378948534823
30
0
41
1
10
21.5672122175394
20
5.22682591463271
30
0
41
1
10
18.490349546141
20
5.59462626767709
30
0
0
SPLINE
5
11E
100
AcDbEntity
8
1
62
256
6
ByLayer
370
18
48
1
60
0
100
AcDbSpline
70
4
71
3
72
8
73
4
40
0
40
0
40
0
40
0
40
1
40
1
40
1
40
1
41
1
10
105.80890450346
20
-2.63067804491138
30
0
41
1
10
105.843177113607
20
-2.62657644627191
30
0
41
1
10
105.877452802595
20
-2.62124285019215
30
0
41
1
10
105.911706570987
20
-2.61469702127562
30
0
0
SPLINE
5
11F
100
AcDbEntity
8
1
62
256
6
ByLayer
370
18
48
1
60
0
100
AcDbSpline
70
4
71
3
72
8
73
4
40
0
40
0
40
0
40
0
40
1
40
1
40
1
40
1
41
1
10
13.4860983639064
20
-4.00834184077954
30
0
41
1
10
13.8166686666731
20
-4.08660978003988
30
0
41
1
10
14.1530212959619
20
-4.17355869471584
30
0
41
1
10
14.4959003610357
20
-4.2656399809174
30
0
0
SPLINE
5
120
100
AcDbEntity
8
1
62
256
6
ByLayer
370
18
48
1
60
0
100
AcDbSpline
70
4
71
3
72
8
73
4
40
0
40
0
40
0
40
0
40
1
40
1
40
1
40
1
41
1
10
109.226950156687
20
-4.28923335016793
30
0
41
1
10
109.238389765027
20
-4.27638502327511
30
0
41
1
10
109.249829882828
20
-4.26352784083468
30
0
41
1
10
109.261270560305
20
-4.25066093003807
30
0
0
SPLINE
5
121
100
AcDbEntity
8
1
62
256
6
ByLayer
370
18
48
1
60
0
100
AcDbSpline
70
4
71
3
72
16
73
12
40
0
40
0
40
0
40
0
40
0.403828150316289
40
0.552783356696965
40
0.629668248362517
40
0.706553445298948
40
0.78344492188106
40
0.824668256553259
40
0.865896019003567
40
0.907128586227576
40
1
40
1
40
1
40
1
41
1.10374900959774
10
67.1097303756763
20
-0.0038571801201685
30
0
41
1.10374900959774
10
70.2757123389712
20
-0.564972240155678
30
0
41
1.10374900959774
10
74.6091158423317
20
-1.3329841909657
30
0
41
1.10374900959774
10
79.5351200406549
20
-2.18083278899064
30
0
41
1.10374900959774
10
81.9007287093123
20
-2.57922208879368
30
0
41
1.10374900959774
10
83.7009239075541
20
-2.88470913343031
30
0
41
1.10374900959774
10
85.2238793589961
20
-3.11730971266932
30
0
41
1.10374900959774
10
86.4605495763737
20
-3.35508936217508
30
0
41
1.10374900959774
10
87.4217059587898
20
-3.53025446056762
30
0
41
1.10374900959774
10
88.7839103812679
20
-3.77756940436828
30
0
41
1.10374900959774
10
89.8258291298936
20
-3.96240545965402
30
0
41
1.10374900959774
10
90.5472644235295
20
-4.08817572551057
30
0
0
SPLINE
5
122
100
AcDbEntity
8
1
62
256
6
ByLayer
370
18
48
1
60
0
100
AcDbSpline
70
4
71
2
72
6
73
3
40
0
40
0
40
0
40
1
40
1
40
1
41
0.500000005800315
10
18.5649368145476
20
5.99384447866458
30
0
41
0.499999994199685
10
18.5652177126402
20
5.99511487972286
30
0
41
0.500000005800315
10
18.5654985057807
20
5.99638471208053
30
0
0
SPLINE
5
123
100
AcDbEntity
8
1
62
256
6
ByLayer
370
18
48
1
60
0
100
AcDbSpline
70
4
71
3
72
14
73
10
40
0
40
0
40
0
40
0
40
0.25
40
0.25
40
0.5
40
0.5
40
0.75
40
0.75
40
1
40
1
40
1
40
1
41
1
10
102.3
20
1.88697154699992
30
0
41
1
10
102.746152880076
20
1.82777806890127
30
0
41
1
10
103.192433384192
20
1.76966839071909
30
0
41
1
10
104.085248950121
20
1.65561077138096
30
0
41
1
10
104.531796747156
20
1.59977097937855
30
0
41
1
10
105.425497420544
20
1.49322980751714
30
0
41
1
10
105.872630298921
20
1.44235860225248
30
0
41
1
10
106.766859573339
20
1.34030637898187
30
0
41
1
10
107.21402523492
20
1.2897135729371
30
0
41
1
10
107.661279331148
20
1.23987176539896
30
0
0
SPLINE
5
124
100
AcDbEntity
8
1
62
256
6
ByLayer
370
13
48
1
60
0
100
AcDbSpline
70
4
71
3
72
18
73
14
40
0
40
0
40
0
40
0
40
0.378106583743768
40
0.378106583743768
40
0.567159875615653
40
0.567159875615653
40
0.661686521551594
40
0.661686521551594
40
0.756213167487535
40
0.756213167487535
40
0.945266459359415
40
0.945266459359415
40
1
40
1
40
1
40
1
41
1
10
109.74799902888
20
-1.76809763458937
30
0
41
1
10
109.517834857053
20
-1.61047923843157
30
0
41
1
10
109.221811052236
20
-1.37563404363996
30
0
41
1
10
108.889055836953
20
-1.06499734736033
30
0
41
1
10
108.741509168179
20
-0.91595002159184
30
0
41
1
10
108.578215610787
20
-0.736055773333447
30
0
41
1
10
108.504792292445
20
-0.651639041788144
30
0
41
1
10
108.397244397284
20
-0.522234910816735
30
0
41
1
10
108.323989748032
20
-0.430017350829388
30
0
41
1
10
108.1655500398
20
-0.220679390345992
30
0
41
1
10
108.022811761936
20
-0.012887884982888
30
0
41
1
10
107.896121492613
20
0.193023514121819
30
0
41
1
10
107.861302283655
20
0.251757672179991
30
0
41
1
10
107.827908048741
20
0.309678702897855
30
0
0
SPLINE
5
125
100
AcDbEntity
8
1
62
256
6
ByLayer
370
18
48
1
60
0
100
AcDbSpline
70
4
71
3
72
10
73
6
40
0
40
0
40
0
40
0
40
0.424130312202055
40
0.737013095800264
40
1
40
1
40
1
40
1
41
1
10
106.564470791472
20
1.10156399654005
30
0
41
1
10
105.992727441128
20
1.16559844108483
30
0
41
1
10
104.999206524284
20
1.27687137502528
30
0
41
1
10
103.651414282965
20
1.43002926709963
30
0
41
1
10
102.875512257474
20
1.52039184441401
30
0
41
1
10
102.521184771599
20
1.56174255536897
30
0
0
SPLINE
5
126
100
AcDbEntity
8
1
62
256
6
ByLayer
370
18
48
1
60
0
100
AcDbSpline
70
4
71
3
72
8
73
4
40
0
40
0
40
0
40
0
40
1
40
1
40
1
40
1
41
1
10
109.124864328821
20
8.34491369646136
30
0
41
1
10
109.151702030553
20
8.33479143806522
30
0
41
1
10
109.18354195151
20
8.30976083856314
30
0
41
1
10
109.220358748742
20
8.26989742870362
30
0
0
SPLINE
5
127
100
AcDbEntity
8
1
62
256
6
ByLayer
370
18
48
1
60
0
100
AcDbSpline
70
4
71
1
72
4
73
2
40
0
40
0
40
1
40
1
41
1
10
101.4
20
6.45449311187582
30
0
41
1
10
101.4
20
8.25161758110301
30
0
0
SPLINE
5
128
100
AcDbEntity
8
1
62
256
6
ByLayer
370
18
48
1
60
0
100
AcDbSpline
70
4
71
3
72
8
73
4
40
0
40
0
40
0
40
0
40
1
40
1
40
1
40
1
41
1
10
109.342612723876
20
-8.11048186092614
30
0
41
1
10
109.250592901227
20
-8.24655485224247
30
0
41
1
10
109.17794474425
20
-8.32489358869876
30
0
41
1
10
109.124864328822
20
-8.34491369646108
30
0
0
SPLINE
5
129
100
AcDbEntity
8
1
62
256
6
ByLayer
370
18
48
1
60
0
100
AcDbSpline
70
4
71
2
72
12
73
9
40
0
40
0
40
0
40
0.25
40
0.25
40
0.5
40
0.5
40
0.75
40
0.75
40
1
40
1
40
1
41
1
10
101.4
20
2.35303836146446
30
0
41
1
10
101.4
20
2.64095757634834
30
0
41
1
10
101.4
20
3.06221829445079
30
0
41
1
10
101.4
20
3.49439062567171
30
0
41
1
10
101.4
20
4.0413147665129
30
0
41
1
10
101.4
20
4.58395729110561
30
0
41
1
10
101.4
20
5.20647617090532
30
0
41
1
10
101.4
20
5.80955751796614
30
0
41
1
10
101.4
20
6.45449311187582
30
0
0
SPLINE
5
12A
100
AcDbEntity
8
1
62
256
6
ByLayer
370
18
48
1
60
0
100
AcDbSpline
70
4
71
3
72
24
73
20
40
0
40
0
40
0
40
0
40
0.250000000000006
40
0.250000000000006
40
0.312500000000007
40
0.312500000000007
40
0.375000000000009
40
0.375000000000009
40
0.500000000000007
40
0.500000000000007
40
0.562500000000006
40
0.562500000000006
40
0.625000000000005
40
0.625000000000005
40
0.750000000000004
40
0.750000000000004
40
0.875000000000002
40
0.875000000000002
40
1
40
1
40
1
40
1
41
1
10
106.564470644219
20
1.10156401772093
30
0
41
1
10
106.514983319246
20
0.85943396622315
30
0
41
1
10
106.444325314537
20
0.663130117046393
30
0
41
1
10
106.327312113822
20
0.479854385483492
30
0
41
1
10
106.302390409496
20
0.446321937668358
30
0
41
1
10
106.250470886398
20
0.386821193223852
30
0
41
1
10
106.22337956768
20
0.360681253291858
30
0
41
1
10
106.138776183861
20
0.292884558396679
30
0
41
1
10
106.077947063514
20
0.261811451957669
30
0
41
1
10
105.980092202476
20
0.236295927230685
30
0
41
1
10
105.946368951267
20
0.231316335049172
30
0
41
1
10
105.87667903527
20
0.228515156524367
30
0
41
1
10
105.840810956413
20
0.230727863902871
30
0
41
1
10
105.731571426265
20
0.247809288420001
30
0
41
1
10
105.656065211159
20
0.273042084950106
30
0
41
1
10
105.499981497209
20
0.349707850125156
30
0
41
1
10
105.41922109119
20
0.401289965193399
30
0
41
1
10
105.253449627045
20
0.529809690464788
30
0
41
1
10
105.169367871604
20
0.605972511896965
30
0
41
1
10
105.084157805765
20
0.693364405051597
30
0
0
SPLINE
5
12B
100
AcDbEntity
8
1
62
256
6
ByLayer
370
18
48
1
60
0
100
AcDbSpline
70
4
71
3
72
14
73
10
40
0
40
0
40
0
40
0
40
0.499999999999996
40
0.499999999999996
40
0.749999999999998
40
0.749999999999998
40
0.874999999999999
40
0.874999999999999
40
1
40
1
40
1
40
1
41
1
10
111.104988783745
20
-3.10588660164635
30
0
41
1
10
110.928588726582
20
-3.59181442785541
30
0
41
1
10
110.754880777061
20
-4.08113524801678
30
0
41
1
10
110.498617964276
20
-4.82053485718529
30
0
41
1
10
110.413920538982
20
-5.06791327125057
30
0
41
1
10
110.288075706041
20
-5.44049495536026
30
0
41
1
10
110.246278281399
20
-5.56509598334566
30
0
41
1
10
110.163806398124
20
-5.81275152185759
30
0
41
1
10
110.123053204625
20
-5.93603683737177
30
0
41
1
10
110.082805489764
20
-6.05875415224855
30
0
0
SPLINE
5
12C
100
AcDbEntity
8
1
62
256
6
ByLayer
370
18
48
1
60
0
100
AcDbSpline
70
2053
71
3
72
39
73
35
40
0
40
0
40
0
40
0
40
0.0311709913293397
40
0.0622716931255064
40
0.0934284848704062
40
0.124724023169408
40
0.155904447145926
40
0.187312071147981
40
0.218597087975416
40
0.250014392295188
40
0.281440172235747
40
0.312744740610439
40
0.344165168251408
40
0.375373666802935
40
0.406637115188644
40
0.437808764344493
40
0.468978289833932
40
0.500156513702742
40
0.531226747861743
40
0.562335224027282
40
0.593574336931421
40
0.624709370896333
40
0.656063722526417
40
0.687324652645507
40
0.718704539890172
40
0.750126971623385
40
0.781441005634384
40
0.812899197882988
40
0.844163240099118
40
0.875486644062725
40
0.906730450798372
40
0.937822246351636
40
0.969016469211002
40
1
40
1
40
1
40
1
41
1
10
98.45
20
-4.37657431998098
30
0
41
1
10
98.5770529656465
20
-4.37657495030977
30
0
41
1
10
98.83087869639
20
-4.39884131790089
30
0
41
1
10
99.1958050913917
20
-4.49647179224945
30
0
41
1
10
99.5309797138719
20
-4.65165662385465
30
0
41
1
10
99.8238774229601
20
-4.85482516841424
30
0
41
1
10
100.064618001946
20
-5.09504422537228
30
0
41
1
10
100.24379517532
20
-5.35955693800346
30
0
41
1
10
100.354704327087
20
-5.63632418921878
30
0
41
1
10
100.392269221485
20
-5.91210338049868
30
0
41
1
10
100.354617457952
20
-6.17512240622688
30
0
41
1
10
100.243551398625
20
-6.41555885493659
30
0
41
1
10
100.064125863942
20
-6.62573442491123
30
0
41
1
10
99.823204893855
20
-6.80144709364663
30
0
41
1
10
99.5301518037467
20
-6.93973913218727
30
0
41
1
10
99.1947046490831
20
-7.03941438018305
30
0
41
1
10
98.8293237939999
20
-7.09951567129804
30
0
41
1
10
98.4485047448507
20
-7.11946978439809
30
0
41
1
10
98.0680238371291
20
-7.09919324538575
30
0
41
1
10
97.7031813773502
20
-7.0389353446119
30
0
41
1
10
97.368368335996
20
-6.93916328787668
30
0
41
1
10
97.0752969121482
20
-6.80057353974775
30
0
41
1
10
96.8350083491914
20
-6.62493633773619
30
0
41
1
10
96.6557943182373
20
-6.41448196232633
30
0
41
1
10
96.5450693923363
20
-6.17416931648751
30
0
41
1
10
96.5077747554191
20
-5.91115435294347
30
0
41
1
10
96.5455766659011
20
-5.63517706429465
30
0
41
1
10
96.6566958027927
20
-5.35861785946187
30
0
41
1
10
96.8364801416116
20
-5.09372495248834
30
0
41
1
10
97.0773601522138
20
-4.85375330496785
30
0
41
1
10
97.3706183469954
20
-4.65078795297995
30
0
41
1
10
97.7058468012737
20
-4.49586277201902
30
0
41
1
10
98.0702808419928
20
-4.39867025752625
30
0
41
1
10
98.323711123546
20
-4.37657369344295
30
0
41
1
10
98.45
20
-4.37657431998098
30
0
0
SPLINE
5
12D
100
AcDbEntity
8
1
62
256
6
ByLayer
370
18
48
1
60
0
100
AcDbSpline
70
4
71
3
72
64
73
60
40
0
40
0
40
0
40
0
40
0.0625000000000009
40
0.0625000000000009
40
0.125000000000001
40
0.125000000000001
40
0.187500000000001
40
0.187500000000001
40
0.250000000000002
40
0.250000000000002
40
0.281250000000002
40
0.281250000000002
40
0.312500000000002
40
0.312500000000002
40
0.343750000000002
40
0.343750000000002
40
0.375000000000002
40
0.375000000000002
40
0.390625000000002
40
0.390625000000002
40
0.406250000000001
40
0.406250000000001
40
0.437500000000001
40
0.437500000000001
40
0.453125
40
0.453125
40
0.46875
40
0.46875
40
0.5
40
0.5
40
0.531249999999999
40
0.531249999999999
40
0.546874999999999
40
0.546874999999999
40
0.562499999999998
40
0.562499999999998
40
0.578124999999998
40
0.578124999999998
40
0.593749999999998
40
0.593749999999998
40
0.624999999999998
40
0.624999999999998
40
0.640624999999998
40
0.640624999999998
40
0.656249999999998
40
0.656249999999998
40
0.687499999999998
40
0.687499999999998
40
0.718749999999998
40
0.718749999999998
40
0.749999999999998
40
0.749999999999998
40
0.812499999999998
40
0.812499999999998
40
0.874999999999999
40
0.874999999999999
40
0.937499999999999
40
0.937499999999999
40
1
40
1
40
1
40
1
41
1
10
13.3962612758562
20
-3.98696899947092
30
0
41
1
10
13.0056507745167
20
-3.89359330136284
30
0
41
1
10
12.6200437870197
20
-3.8028894703202
30
0
41
1
10
11.8529715832502
20
-3.62078908718925
30
0
41
1
10
11.4715253243171
20
-3.52943623176429
30
0
41
1
10
10.7074348503288
20
-3.33632620832475
30
0
41
1
10
10.324978579545
20
-3.23470776571674
30
0
41
1
10
9.55570677549497
20
-3.00624142806603
30
0
41
1
10
9.16876575490318
20
-2.8796262690187
30
0
41
1
10
8.58338698400277
20
-2.65196774580451
30
0
41
1
10
8.38723901709312
20
-2.56954199498586
30
0
41
1
10
7.99828138204589
20
-2.38924468019553
30
0
41
1
10
7.80497362165193
20
-2.29121678154141
30
0
41
1
10
7.42253583457426
20
-2.07420695030677
30
0
41
1
10
7.23338489982854
20
-1.95526626204167
30
0
41
1
10
6.86225044365412
20
-1.6892101286372
30
0
41
1
10
6.68336043435551
20
-1.54416834788415
30
0
41
1
10
6.43058056684623
20
-1.30600718914357
30
0
41
1
10
6.34882401599555
20
-1.22310543850082
30
0
41
1
10
6.19112634049802
20
-1.04942114726728
30
0
41
1
10
6.11491437172992
20
-0.958284461222121
30
0
41
1
10
5.89836051596271
20
-0.673875177907576
30
0
41
1
10
5.772195415108
20
-0.472785328780873
30
0
41
1
10
5.61461019573758
20
-0.151643526186291
30
0
41
1
10
5.567247068791
20
-0.0409557840995092
30
0
41
1
10
5.48486488140713
20
0.18598836846283
30
0
41
1
10
5.45039570368635
20
0.300612976648296
30
0
41
1
10
5.36716314237304
20
0.647968610065618
30
0
41
1
10
5.33835239979177
20
0.884261099403119
30
0
41
1
10
5.33874962250661
20
1.36645525873365
30
0
41
1
10
5.36792875451533
20
1.60163124040165
30
0
41
1
10
5.4522996449596
20
1.94594573152995
30
0
41
1
10
5.48751346486642
20
2.05996674146175
30
0
41
1
10
5.57030618655665
20
2.28158164958887
30
0
41
1
10
5.61763927646217
20
2.38881309543078
30
0
41
1
10
5.72320888028599
20
2.59656586747357
30
0
41
1
10
5.78144955588209
20
2.69708466810243
30
0
41
1
10
5.90816354568014
20
2.89165985719023
30
0
41
1
10
5.97695549210505
20
2.98602707200601
30
0
41
1
10
6.19320413351559
20
3.25420437617677
30
0
41
1
10
6.35147370725167
20
3.41508691344117
30
0
41
1
10
6.60498515641197
20
3.63413335167405
30
0
41
1
10
6.6921968408451
20
3.70341229941315
30
0
41
1
10
6.87140048872226
20
3.83506490123966
30
0
41
1
10
6.96294858957231
20
3.89708451345496
30
0
41
1
10
7.23972810955939
20
4.071325965592
30
0
41
1
10
7.4281933126808
20
4.17264866129278
30
0
41
1
10
7.80991984716184
20
4.352593271827
30
0
41
1
10
8.00320031048446
20
4.43118042289905
30
0
41
1
10
8.39265487717481
20
4.57077706139779
30
0
41
1
10
8.58879480276596
20
4.63170292634942
30
0
41
1
10
9.17293993514241
20
4.79271352809232
30
0
41
1
10
9.55930667669813
20
4.87246770606023
30
0
41
1
10
10.3276872649473
20
5.00435140362893
30
0
41
1
10
10.7098800751276
20
5.05625733384861
30
0
41
1
10
11.4732649605861
20
5.14912393345094
30
0
41
1
10
11.8543658599448
20
5.18998805526687
30
0
41
1
10
12.6207459310879
20
5.27216024408276
30
0
41
1
10
13.0060062203815
20
5.3134180547714
30
0
41
1
10
13.3962612758562
20
5.35874221828297
30
0
0
SPLINE
5
12E
100
AcDbEntity
8
1
62
256
6
ByLayer
370
18
48
1
60
0
100
AcDbSpline
70
4
71
3
72
16
73
12
40
0
40
0
40
0
40
0
40
0.125000000000019
40
0.125000000000019
40
0.250000000000038
40
0.250000000000038
40
0.500000000000025
40
0.500000000000025
40
0.750000000000013
40
0.750000000000013
40
1
40
1
40
1
40
1
41
1
10
92.1779905079689
20
6.27480014949236
30
0
41
1
10
92.2347223655351
20
6.28992235495275
30
0
41
1
10
92.2910722538202
20
6.30865774748989
30
0
41
1
10
92.4003988330458
20
6.35200442332439
30
0
41
1
10
92.4537588369344
20
6.37670442528517
30
0
41
1
10
92.6102731315202
20
6.45897409828123
30
0
41
1
10
92.7105596294276
20
6.52531502123804
30
0
41
1
10
92.8974478819954
20
6.67096582799593
30
0
41
1
10
92.9847664496984
20
6.75047722589582
30
0
41
1
10
93.1498121911718
20
6.9197132393968
30
0
41
1
10
93.2276733784618
20
7.00967296863004
30
0
41
1
10
93.3010444473585
20
7.10350922522196
30
0
0
SPLINE
5
12F
100
AcDbEntity
8
1
62
256
6
ByLayer
370
18
48
1
60
0
100
AcDbSpline
70
4
71
3
72
8
73
4
40
0
40
0
40
0
40
0
40
1
40
1
40
1
40
1
41
1
10
101.399999999994
20
8.25161758109869
30
0
41
1
10
101.583458715926
20
8.32685106176007
30
0
41
1
10
101.766617057809
20
8.4009479210317
30
0
41
1
10
101.949495483891
20
8.47385175143438
30
0
0
SPLINE
5
130
100
AcDbEntity
8
1
62
256
6
ByLayer
370
18
48
1
60
0
100
AcDbSpline
70
4
71
3
72
17
73
13
40
0
40
0
40
0
40
0
40
0.199480971699383
40
0.199480971699383
40
0.299221457549082
40
0.349091700473931
40
0.349091700473931
40
0.39896194339878
40
0.39896194339878
40
0.797923886797655
40
0.797923886797655
40
1
40
1
40
1
40
1
41
1
10
92.3454565990413
20
6.79948368293407
30
0
41
1
10
91.9746869549235
20
6.72697236753262
30
0
41
1
10
91.603999846137
20
6.65212857553377
30
0
41
1
10
91.048056400608
20
6.536450741381
30
0
41
1
10
90.7701066637132
20
6.47775835282863
30
0
41
1
10
90.4921833463731
20
6.41780097184181
30
0
41
1
10
90.306906276757
20
6.37754994188006
30
0
41
1
10
90.2134920226736
20
6.35913092775252
30
0
41
1
10
89.3733864455006
20
6.19093652955661
30
0
41
1
10
88.6194924445519
20
6.05156074444653
30
0
41
1
10
87.4769795475717
20
5.85235311218224
30
0
41
1
10
87.091689951236
20
5.78720546571481
30
0
41
1
10
86.7054297070078
20
5.7236184623863
30
0
0
SPLINE
5
131
100
AcDbEntity
8
1
62
256
6
ByLayer
370
18
48
1
60
0
100
AcDbSpline
70
4
71
3
72
8
73
4
40
0
40
0
40
0
40
0
40
1
40
1
40
1
40
1
41
1
10
101.2
20
3.69999999999999
30
0
41
1
10
101.2
20
3.35142884785552
30
0
41
1
10
101.2
20
3.05115143875025
30
0
41
1
10
101.2
20
2.79816883001135
30
0
0
SPLINE
5
132
100
AcDbEntity
8
1
62
256
6
ByLayer
370
18
48
1
60
0
100
AcDbSpline
70
4
71
2
72
9
73
6
40
0
40
0
40
0
40
0.25
40
0.5
40
0.75
40
1
40
1
40
1
41
1
10
105.911706629037
20
-2.61470100032761
30
0
41
1
10
105.982533725956
20
-3.19116168424409
30
0
41
1
10
106.185643324309
20
-4.27783493862313
30
0
41
1
10
106.444311785644
20
-5.26637099128857
30
0
41
1
10
106.754661490157
20
-6.14187345970478
30
0
41
1
10
106.931147720243
20
-6.51017760638606
30
0
0
SPLINE
5
133
100
AcDbEntity
8
1
62
256
6
ByLayer
370
18
48
1
60
0
100
AcDbSpline
70
4
71
3
72
12
73
8
40
0
40
0
40
0
40
0
40
0.5
40
0.5
40
0.75
40
0.75
40
1
40
1
40
1
40
1
41
1
10
92.3413248585501
20
-6.80797603159809
30
0
41
1
10
92.5166668466663
20
-6.84880689414658
30
0
41
1
10
92.6840212438263
20
-6.89815434371351
30
0
41
1
10
92.9228745560177
20
-6.9832497018609
30
0
41
1
10
93.0007793613008
20
-7.01362728176056
30
0
41
1
10
93.149287514932
20
-7.07652310126826
30
0
41
1
10
93.220214607303
20
-7.10913339157563
30
0
41
1
10
93.2878962623578
20
-7.14267716873704
30
0
0
SPLINE
5
134
100
AcDbEntity
8
1
62
256
6
ByLayer
370
18
48
1
60
0
100
AcDbSpline
70
4
71
3
72
8
73
4
40
0
40
0
40
0
40
0
40
1
40
1
40
1
40
1
41
1
10
18.5654985057808
20
5.99638471208058
30
0
41
1
10
18.6103335922862
20
5.99454884959633
30
0
41
1
10
18.6551674272422
20
5.99269387410581
30
0
41
1
10
18.7
20
5.99081976558219
30
0
0
SPLINE
5
135
100
AcDbEntity
8
1
62
256
6
ByLayer
370
18
48
1
60
0
100
AcDbSpline
70
4
71
3
72
8
73
4
40
0
40
0
40
0
40
0
40
1
40
1
40
1
40
1
41
1
10
18.7
20
-5.58859666114779
30
0
41
1
10
19.3182962357789
20
-5.67752694055685
30
0
41
1
10
19.9366233825453
20
-5.76440041213019
30
0
41
1
10
20.5549999999499
20
-5.84918431761147
30
0
0
SPLINE
5
136
100
AcDbEntity
8
1
62
256
6
ByLayer
370
18
48
1
60
0
100
AcDbSpline
70
4
71
3
72
13
73
9
40
0
40
0
40
0
40
0
40
0.25
40
0.25
40
0.5
40
0.75
40
0.75
40
1
40
1
40
1
40
1
41
1
10
93.3010444473585
20
7.10350922522193
30
0
41
1
10
93.3863514486717
20
7.09895542414174
30
0
41
1
10
93.4700529390997
20
7.08991490329967
30
0
41
1
10
93.6325367310523
20
7.06198880075235
30
0
41
1
10
93.7871712017731
20
7.02476655734654
30
0
41
1
10
93.9263731336053
20
6.96880401360329
30
0
41
1
10
94.0576818858444
20
6.90310956139001
30
0
41
1
10
94.1196550641196
20
6.86519737178679
30
0
41
1
10
94.1768373875403
20
6.82251781072762
30
0
0
SPLINE
5
137
100
AcDbEntity
8
1
62
256
6
ByLayer
370
18
48
1
60
0
100
AcDbSpline
70
4
71
3
72
8
73
4
40
0
40
0
40
0
40
0
40
1
40
1
40
1
40
1
41
1
10
101.2
20
2.06542821007332
30
0
41
1
10
101.246921379066
20
2.06260779215589
30
0
41
1
10
101.293844019864
20
2.05980828648205
30
0
41
1
10
101.340767898579
20
2.05702976582029
30
0
0
SPLINE
5
138
100
AcDbEntity
8
1
62
256
6
ByLayer
370
18
48
1
60
0
100
AcDbSpline
70
4
71
3
72
8
73
4
40
0
40
0
40
0
40
0
40
1
40
1
40
1
40
1
41
1
10
13.4860983639064
20
5.36906042954809
30
0
41
1
10
13.4561591941327
20
5.36566017118554
30
0
41
1
10
13.4262133692657
20
5.36222084991161
30
0
41
1
10
13.3962612758562
20
5.35874221828297
30
0
0
SPLINE
5
139
100
AcDbEntity
8
1
62
256
6
ByLayer
370
18
48
1
60
0
100
AcDbSpline
70
4
71
1
72
4
73
2
40
0
40
0
40
1
40
1
41
1
10
18.5654985057808
20
5.99638471208056
30
0
41
1
10
18.4903495461409
20
5.5946262676766
30
0
0
SPLINE
5
13A
100
AcDbEntity
8
1
62
256
6
ByLayer
370
18
48
1
60
0
100
AcDbSpline
70
4
71
3
72
8
73
4
40
0
40
0
40
0
40
0
40
1
40
1
40
1
40
1
41
1
10
109.563386236905
20
2.91794781495511
30
0
41
1
10
109.63840970092
20
2.92336086545916
30
0
41
1
10
109.713403110234
20
2.92915062222664
30
0
41
1
10
109.788352546814
20
2.93539874581936
30
0
0
SPLINE
5
13B
100
AcDbEntity
8
1
62
256
6
ByLayer
370
18
48
1
60
0
100
AcDbSpline
70
4
71
3
72
8
73
4
40
0
40
0
40
0
40
0
40
1
40
1
40
1
40
1
41
1
10
101.528854246306
20
-8.00693165223225
30
0
41
1
10
101.534487442871
20
-8.02720519218437
30
0
41
1
10
101.537360923689
20
-8.04673025560032
30
0
41
1
10
101.537360923689
20
-8.06547609766463
30
0
0
SPLINE
5
13C
100
AcDbEntity
8
1
62
256
6
ByLayer
370
18
48
1
60
0
100
AcDbSpline
70
4
71
3
72
37
73
33
40
0
40
0
40
0
40
0
40
0.0156249999999968
40
0.0156249999999968
40
0.0234374999999952
40
0.0273437499999944
40
0.0273437499999944
40
0.0312499999999935
40
0.0312499999999935
40
0.0624999999999924
40
0.0624999999999924
40
0.0937499999999913
40
0.0937499999999913
40
0.109374999999991
40
0.109374999999991
40
0.124999999999991
40
0.124999999999991
40
0.249999999999992
40
0.249999999999992
40
0.374999999999993
40
0.374999999999993
40
0.499999999999995
40
0.499999999999995
40
0.562499999999995
40
0.562499999999995
40
0.624999999999996
40
0.624999999999996
40
0.749999999999997
40
0.749999999999997
40
0.874999999999999
40
0.874999999999999
40
1
40
1
40
1
40
1
41
1
10
92.3454565990413
20
-6.79948368293407
30
0
41
1
10
91.9746869549235
20
-6.72697236753262
30
0
41
1
10
91.603999846137
20
-6.65212857553377
30
0
41
1
10
91.0480564006081
20
-6.536450741381
30
0
41
1
10
90.7701066637131
20
-6.47775835282863
30
0
41
1
10
90.4921833463731
20
-6.41780097184181
30
0
41
1
10
90.3069062767569
20
-6.37754994188003
30
0
41
1
10
90.2134920226736
20
-6.35913092775255
30
0
41
1
10
89.3733864455007
20
-6.19093652955658
30
0
41
1
10
88.6194924445518
20
-6.05156074444653
30
0
41
1
10
87.1027193859038
20
-5.7870974106022
30
0
41
1
10
86.3397986836175
20
-5.66199238537354
30
0
41
1
10
85.1908394435654
20
-5.48193487227701
30
0
41
1
10
84.8070204169843
20
-5.42318875896612
30
0
41
1
10
84.0383259815122
20
-5.30793495157243
30
0
41
1
10
83.6533907280019
20
-5.25220278628186
30
0
41
1
10
80.192527093985
20
-4.73155413974655
30
0
41
1
10
77.1172525457538
20
-4.2320682148866
30
0
41
1
10
70.9641561428385
20
-3.18247950535425
30
0
41
1
10
67.885088987365
20
-2.63231161296849
30
0
41
1
10
61.7300804552434
20
-1.50333305335587
30
0
41
1
10
58.6534140546652
20
-0.924533951148305
30
0
41
1
10
54.037518794428
20
-0.0458894089574926
30
0
41
1
10
52.4982989987735
20
0.248953606382116
30
0
41
1
10
49.4230232907114
20
0.839610465487908
30
0
41
1
10
47.8862118848409
20
1.13291989365752
30
0
41
1
10
43.2773733337691
20
2.0022271907398
30
0
41
1
10
40.2068989898698
20
2.56735024089431
30
0
41
1
10
34.0659050970552
20
3.6481461328799
30
0
41
1
10
30.9953687043188
20
4.16379438138804
30
0
41
1
10
24.8508828899136
20
5.12968440053822
30
0
41
1
10
21.7769426649735
20
5.58005000640696
30
0
41
1
10
18.7
20
5.99081976558222
30
0
0
SPLINE
5
13D
100
AcDbEntity
8
1
62
256
6
ByLayer
370
18
48
1
60
0
100
AcDbSpline
70
4
71
3
72
18
73
14
40
0
40
0
40
0
40
0
40
0.251627612941783
40
0.251627612941783
40
0.377441419412674
40
0.377441419412674
40
0.503255225883565
40
0.503255225883565
40
0.754882838825349
40
0.754882838825349
40
0.880696645296246
40
0.880696645296246
40
1
40
1
40
1
40
1
41
1
10
94.1768373875401
20
6.8225178107277
30
0
41
1
10
94.0887339018681
20
6.59829885148483
30
0
41
1
10
93.996506123157
20
6.37731885630217
30
0
41
1
10
93.8523870079504
20
6.05070850568535
30
0
41
1
10
93.8036032091862
20
5.94316449501682
30
0
41
1
10
93.7057783503085
20
5.73293683318468
30
0
41
1
10
93.6565836517229
20
5.6299035517097
30
0
41
1
10
93.5084908642721
20
5.32692048140981
30
0
41
1
10
93.4090611879838
20
5.13305560093244
30
0
41
1
10
93.260565345224
20
4.85449824544182
30
0
41
1
10
93.2111803325954
20
4.76369334372797
30
0
41
1
10
93.1155318011462
20
4.59088510212686
30
0
41
1
10
93.0697417829931
20
4.5095777595248
30
0
41
1
10
93.0250549762328
20
4.43136940671789
30
0
0
SPLINE
5
13E
100
AcDbEntity
8
1
62
256
6
ByLayer
370
18
48
1
60
0
100
AcDbSpline
70
4
71
3
72
14
73
10
40
0
40
0
40
0
40
0
40
0.285903207815515
40
0.285903207815515
40
0.571806415631031
40
0.571806415631031
40
0.857709623446546
40
0.857709623446546
40
1
40
1
40
1
40
1
41
1
10
101.949495483876
20
-8.39037148915463
30
0
41
1
10
102.560984495263
20
-8.43562984497603
30
0
41
1
10
103.172962088489
20
-8.46680673697952
30
0
41
1
10
104.396901493375
20
-8.50129331923728
30
0
41
1
10
105.008621968048
20
-8.50458002410272
30
0
41
1
10
106.231880031594
20
-8.48297234030463
30
0
41
1
10
106.843783798437
20
-8.45814320207924
30
0
41
1
10
107.760377639371
20
-8.40023476518158
30
0
41
1
10
108.065014419706
20
-8.37757963881208
30
0
41
1
10
108.369479389862
20
-8.35144852972115
30
0
0
SPLINE
5
13F
100
AcDbEntity
8
1
62
256
6
ByLayer
370
18
48
1
60
0
100
AcDbSpline
70
4
71
3
72
8
73
4
40
0
40
0
40
0
40
0
40
1
40
1
40
1
40
1
41
1
10
109.220883057064
20
-8.26932177115529
30
0
41
1
10
109.244278961687
20
-8.26682333441505
30
0
41
1
10
109.267676128287
20
-8.26430545383886
30
0
41
1
10
109.291074792216
20
-8.26176825420026
30
0
0
SPLINE
5
140
100
AcDbEntity
8
1
62
256
6
ByLayer
370
18
48
1
60
0
100
AcDbSpline
70
4
71
3
72
8
73
4
40
0
40
0
40
0
40
0
40
1
40
1
40
1
40
1
41
1
10
101.4
20
-7.85604862510411
30
0
41
1
10
101.366666666667
20
-7.88798378211672
30
0
41
1
10
101.333333333333
20
-7.91991893912933
30
0
41
1
10
101.3
20
-7.95185409614194
30
0
0
SPLINE
5
141
100
AcDbEntity
8
1
62
256
6
ByLayer
370
18
48
1
60
0
100
AcDbSpline
70
4
71
3
72
8
73
4
40
0
40
0
40
0
40
0
40
1
40
1
40
1
40
1
41
1
10
88.5127343092362
20
5.34327959879101
30
0
41
1
10
88.5108972750073
20
5.33835764430847
30
0
41
1
10
88.5090622280589
20
5.33342931012044
30
0
41
1
10
88.5072291692989
20
5.32849459331271
30
0
0
SPLINE
5
142
100
AcDbEntity
8
1
62
256
6
ByLayer
370
13
48
1
60
0
100
AcDbSpline
70
4
71
3
72
10
73
6
40
0
40
0
40
0
40
0
40
0.819257848770307
40
0.819257848770307
40
1
40
1
40
1
40
1
41
1
10
90.5103921447064
20
-4.34342222517839
30
0
41
1
10
90.5204211889521
20
-4.27382259134282
30
0
41
1
10
90.5304837462712
20
-4.20413770937745
30
0
41
1
10
90.5428055822829
20
-4.11897378790141
30
0
41
1
10
90.5450342264451
20
-4.10357686347919
30
0
41
1
10
90.5472644235296
20
-4.08817572551058
30
0
0
SPLINE
5
143
100
AcDbEntity
8
1
62
256
6
ByLayer
370
18
48
1
60
0
100
AcDbSpline
70
4
71
3
72
10
73
6
40
0
40
0
40
0
40
0
40
0.5
40
0.5
40
1
40
1
40
1
40
1
41
1
10
15.1815828895315
20
5.63747707117156
30
0
41
1
10
14.8896969286817
20
5.58152794728133
30
0
41
1
10
14.6025552431943
20
5.53005143156932
30
0
41
1
10
14.0360704642039
20
5.43914474907538
30
0
41
1
10
13.7581926945163
20
5.39996279023637
30
0
41
1
10
13.4860983639064
20
5.36906042954806
30
0
0
SPLINE
5
144
100
AcDbEntity
8
1
62
256
6
ByLayer
370
13
48
1
60
0
100
AcDbSpline
70
4
71
3
72
20
73
16
40
0
40
0
40
0
40
0
40
0.124999999999993
40
0.124999999999993
40
0.249999999999986
40
0.249999999999986
40
0.499999999999984
40
0.499999999999984
40
0.749999999999982
40
0.749999999999982
40
0.874999999999982
40
0.874999999999982
40
0.937499999999991
40
0.937499999999991
40
1
40
1
40
1
40
1
41
1
10
109.53627055199
20
2.90728770462704
30
0
41
1
10
109.562627553348
20
2.79159387128698
30
0
41
1
10
109.59533401146
20
2.67944069488243
30
0
41
1
10
109.672184264846
20
2.46147594001167
30
0
41
1
10
109.716440428108
20
2.3553039708851
30
0
41
1
10
109.863922711139
20
2.04788522887426
30
0
41
1
10
109.97981332084
20
1.8605855248378
30
0
41
1
10
110.238861611963
20
1.51421106164617
30
0
41
1
10
110.380684961367
20
1.35725275099162
30
0
41
1
10
110.60395530856
20
1.14526046267659
30
0
41
1
10
110.680315167773
20
1.07837228420357
30
0
41
1
10
110.797376206427
20
0.983069915980792
30
0
41
1
10
110.836820973001
20
0.952145646270765
30
0
41
1
10
110.916535121693
20
0.891925231059332
30
0
41
1
10
110.95705380787
20
0.862455045587097
30
0
41
1
10
110.99748323537
20
0.834130076002225
30
0
0
SPLINE
5
145
100
AcDbEntity
8
1
62
256
6
ByLayer
370
18
48
1
60
0
100
AcDbSpline
70
4
71
3
72
12
73
8
40
0
40
0
40
0
40
0
40
0.202041256702631
40
0.403056985724916
40
0.603052048869873
40
0.802031382758556
40
1
40
1
40
1
40
1
41
1
10
104.985424433246
20
-0.167409448654979
30
0
41
1
10
104.973676799041
20
-0.126335685500209
30
0
41
1
10
104.950241159661
20
-0.0443966427535543
30
0
41
1
10
104.915932975472
20
0.0784344823649121
30
0
41
1
10
104.882373283032
20
0.200778781497917
30
0
41
1
10
104.849558596405
20
0.322622609487212
30
0
41
1
10
104.828256429974
20
0.403718718235012
30
0
41
1
10
104.817632466755
20
0.444163528358757
30
0
0
SPLINE
5
146
100
AcDbEntity
8
1
62
256
6
ByLayer
370
13
48
1
60
0
100
AcDbSpline
70
4
71
2
72
6
73
3
40
0
40
0
40
0
40
1
40
1
40
1
41
0.998206910996405
10
110.997483235369
20
0.834130076001498
30
0
41
0.924786892799156
10
110.013144455263
20
-0.41572080440426
30
0
41
1
10
109.74799902888
20
-1.76809763458937
30
0
0
SPLINE
5
147
100
AcDbEntity
8
1
62
256
6
ByLayer
370
18
48
1
60
0
100
AcDbSpline
70
4
71
3
72
12
73
8
40
0
40
0
40
0
40
0
40
0.5
40
0.5
40
0.75
40
0.75
40
1
40
1
40
1
40
1
41
1
10
110.817458903203
20
-2.50047291609871
30
0
41
1
10
110.942561970437
20
-2.35977407988162
30
0
41
1
10
111.066815753317
20
-2.19547514246429
30
0
41
1
10
111.251513572082
20
-1.90226317451706
30
0
41
1
10
111.311377604482
20
-1.79880862323242
30
0
41
1
10
111.426602166278
20
-1.5817479052308
30
0
41
1
10
111.482124266544
20
-1.46789033108124
30
0
41
1
10
111.53543062608
20
-1.3483855284573
30
0
0
SPLINE
5
148
100
AcDbEntity
8
1
62
256
6
ByLayer
370
18
48
1
60
0
100
AcDbSpline
70
4
71
3
72
8
73
4
40
0
40
0
40
0
40
0
40
1
40
1
40
1
40
1
41
1
10
104.817632472497
20
0.444163481644068
30
0
41
1
10
104.862543526753
20
0.444112183699474
30
0
41
1
10
104.907454646193
20
0.444245623477485
30
0
41
1
10
104.952365896724
20
0.444564189136855
30
0
0
SPLINE
5
149
100
AcDbEntity
8
1
62
256
6
ByLayer
370
18
48
1
60
0
100
AcDbSpline
70
4
71
2
72
6
73
3
40
0
40
0
40
0
40
1
40
1
40
1
41
0.499975008266392
10
102.168436269848
20
-0.160382498188564
30
0
41
0.500024991733608
10
103.576837961088
20
-0.163895993753561
30
0
41
0.499975008266392
10
104.985424435264
20
-0.167409430552296
30
0
0
SPLINE
5
14A
100
AcDbEntity
8
1
62
256
6
ByLayer
370
18
48
1
60
0
100
AcDbSpline
70
4
71
3
72
12
73
8
40
0
40
0
40
0
40
0
40
0.500000000000015
40
0.500000000000015
40
0.750000000000008
40
0.750000000000008
40
1
40
1
40
1
40
1
41
1
10
17.25435842167
20
5.86902797670103
30
0
41
1
10
17.4680141158232
20
5.92262542294836
30
0
41
1
10
17.6853336957279
20
5.95993356330698
30
0
41
1
10
18.0168053063128
20
5.99169404384944
30
0
41
1
10
18.1280228396206
20
5.99812400994998
30
0
41
1
10
18.3476916165773
20
6.00239217012708
30
0
41
1
10
18.456716821455
20
6.0002956467938
30
0
41
1
10
18.5649368145477
20
5.99384447866458
30
0
0
SPLINE
5
14B
100
AcDbEntity
8
1
62
256
6
ByLayer
370
18
48
1
60
0
100
AcDbSpline
70
4
71
3
72
8
73
4
40
0
40
0
40
0
40
0
40
1
40
1
40
1
40
1
41
1
10
101.2
20
2.79816883001135
30
0
41
1
10
100.168802393685
20
2.86798638839321
30
0
41
1
10
99.1376520921526
20
2.9281002637463
30
0
41
1
10
98.1065381151371
20
2.97740930095674
30
0
0
SPLINE
5
14C
100
AcDbEntity
8
1
62
256
6
ByLayer
370
18
48
1
60
0
100
AcDbSpline
70
4
71
2
72
6
73
3
40
0
40
0
40
0
40
1
40
1
40
1
41
0.50000009985706
10
92.3454565990411
20
-6.79948368293426
30
0
41
0.499999900142939
10
92.3433922792629
20
-6.80373528538742
30
0
41
0.50000009985706
10
92.3413248585501
20
-6.80797603159807
30
0
0
SPLINE
5
14D
100
AcDbEntity
8
1
62
256
6
ByLayer
370
18
48
1
60
0
100
AcDbSpline
70
4
71
3
72
10
73
6
40
0
40
0
40
0
40
0
40
0.5
40
0.5
40
1
40
1
40
1
40
1
41
1
10
93.2878962623645
20
-7.14267716873371
30
0
41
1
10
94.6219061332288
20
-7.39825450893861
30
0
41
1
10
95.9546422615025
20
-7.61381645147469
30
0
41
1
10
98.6243998431848
20
-7.95883721566
30
0
41
1
10
99.9630692022065
20
-8.0882636452578
30
0
41
1
10
101.3
20
-8.17385239095779
30
0
0
SPLINE
5
14E
100
AcDbEntity
8
1
62
256
6
ByLayer
370
18
48
1
60
0
100
AcDbSpline
70
4
71
3
72
12
73
8
40
0
40
0
40
0
40
0
40
0.416491467395012
40
0.416491467395012
40
0.708245596353209
40
0.708245596353209
40
1
40
1
40
1
40
1
41
1
10
101.399999997288
20
-8.06860938633793
30
0
41
1
10
101.386483351913
20
-8.08292177034059
30
0
41
1
10
101.372961112374
20
-8.09723161356516
30
0
41
1
10
101.349957121638
20
-8.12156135179109
30
0
41
1
10
101.34047817129
20
-8.13158251203805
30
0
41
1
10
101.321514914426
20
-8.1516224566092
30
0
41
1
10
101.312030605673
20
-8.16164124328986
30
0
41
1
10
101.302543651141
20
-8.17165886012336
30
0
0
SPLINE
5
14F
100
AcDbEntity
8
1
62
256
6
ByLayer
370
18
48
1
60
0
100
AcDbSpline
70
4
71
3
72
8
73
4
40
0
40
0
40
0
40
0
40
1
40
1
40
1
40
1
41
1
10
17
20
5.84260698312485
30
0
41
1
10
17.0849638851486
20
5.85273920411896
30
0
41
1
10
17.1697492948144
20
5.86153821750207
30
0
41
1
10
17.25435842167
20
5.86902797670103
30
0
0
SPLINE
5
150
100
AcDbEntity
8
1
62
256
6
ByLayer
370
18
48
1
60
0
100
AcDbSpline
70
4
71
3
72
48
73
44
40
0
40
0
40
0
40
0
40
0.128689777636165
40
0.128689777636165
40
0.25737955527233
40
0.25737955527233
40
0.321724444090413
40
0.321724444090413
40
0.386069332908496
40
0.386069332908496
40
0.418241777317537
40
0.418241777317537
40
0.450414221726578
40
0.450414221726578
40
0.51475911054466
40
0.51475911054466
40
0.643448888180823
40
0.643448888180823
40
0.772138665816986
40
0.772138665816986
40
0.836483554635068
40
0.836483554635068
40
0.90082844345315
40
0.90082844345315
40
0.916914665657671
40
0.916914665657671
40
0.933000887862192
40
0.933000887862192
40
0.965173332271234
40
0.965173332271234
40
0.981259554475755
40
0.981259554475755
40
0.989302665578015
40
0.989302665578015
40
0.997345776680276
40
0.997345776680276
40
0.998351165568059
40
0.998351165568059
40
0.998602512790004
40
0.998602512790004
40
0.998853860011949
40
0.99935655445584
40
1
40
1
40
1
40
1
41
1
10
20.554999999966
20
-5.30984772084841
30
0
41
1
10
23.3916644180102
20
-5.68722600250675
30
0
41
1
10
26.229303801315
20
-6.02215968965592
30
0
41
1
10
31.9066552222448
20
-6.60890556694582
30
0
41
1
10
34.7447121367676
20
-6.86091638484086
30
0
41
1
10
39.0014674649646
20
-7.17699793342933
30
0
41
1
10
40.4203234971404
20
-7.27198378099541
30
0
41
1
10
43.2579628870059
20
-7.44036248381087
30
0
41
1
10
44.6769906126601
20
-7.51376626404803
30
0
41
1
10
46.8041624619875
20
-7.60632970406203
30
0
41
1
10
47.5130308476004
20
-7.63424620071458
30
0
41
1
10
48.930368023818
20
-7.68393769640434
30
0
41
1
10
49.6388504703904
20
-7.70566767002501
30
0
41
1
10
51.7647041880753
20
-7.76053456384307
30
0
41
1
10
53.1821929141622
20
-7.78361164669201
30
0
41
1
10
57.4361003301803
20
-7.81337110637142
30
0
41
1
10
60.2749358790848
20
-7.78118217951567
30
0
41
1
10
65.9517544363691
20
-7.62403092191727
30
0
41
1
10
68.7898815851089
20
-7.49930093123641
30
0
41
1
10
73.0471658525828
20
-7.2435437873788
30
0
41
1
10
74.4665778069571
20
-7.14671621031101
30
0
41
1
10
77.3034858452965
20
-6.92916839466216
30
0
41
1
10
78.7210450024789
20
-6.80844599441508
30
0
41
1
10
80.4918947863192
20
-6.64176064127551
30
0
41
1
10
80.8460143264106
20
-6.6076388029841
30
0
41
1
10
81.5541385257254
20
-6.53771544238313
30
0
41
1
10
81.9078188762885
20
-6.50113536111405
30
0
41
1
10
82.9668011014519
20
-6.38391200877717
30
0
41
1
10
83.6704603518217
20
-6.29724593500993
30
0
41
1
10
84.7189341676035
20
-6.14127411095564
30
0
41
1
10
85.067267566395
20
-6.08490336496342
30
0
41
1
10
85.5865568897053
20
-5.98884042440059
30
0
41
1
10
85.7591103505467
20
-5.95488671719215
30
0
41
1
10
86.1024998421261
20
-5.88100120135115
30
0
41
1
10
86.2733873611389
20
-5.84123957183931
30
0
41
1
10
86.4637525716878
20
-5.79003827626624
30
0
41
1
10
86.4848316540946
20
-5.78411832112283
30
0
41
1
10
86.5112520653404
20
-5.77691942979015
30
0
41
1
10
86.5166980633921
20
-5.77596901981184
30
0
41
1
10
86.5274527985192
20
-5.77365198273688
30
0
41
1
10
86.5435849613134
20
-5.77017516406636
30
0
41
1
10
86.573483499473
20
-5.76372445444261
30
0
41
1
10
86.5980050085017
20
-5.75842519893388
30
0
41
1
10
86.6117715705319
20
-5.75544742932831
30
0
0
SPLINE
5
151
100
AcDbEntity
8
1
62
256
6
ByLayer
370
18
48
1
60
0
100
AcDbSpline
70
4
71
3
72
12
73
8
40
0
40
0
40
0
40
0
40
0.5
40
0.5
40
0.75
40
0.75
40
1
40
1
40
1
40
1
41
1
10
15.1815828895315
20
5.63747707117156
30
0
41
1
10
15.4624452882776
20
5.69131318270564
30
0
41
1
10
15.7539809972976
20
5.73319484042614
30
0
41
1
10
16.2089850263752
20
5.78334816398123
30
0
41
1
10
16.3636163599627
20
5.79792344526103
30
0
41
1
10
16.6793070942249
20
5.82324481088256
30
0
41
1
10
16.839390168541
20
5.83390029177087
30
0
41
1
10
17
20
5.84260698312485
30
0
0
SPLINE
5
152
100
AcDbEntity
8
1
62
256
6
ByLayer
370
18
48
1
60
0
100
AcDbSpline
70
4
71
3
72
8
73
4
40
0
40
0
40
0
40
0
40
1
40
1
40
1
40
1
41
1
10
13.3962612758562
20
-3.98696899947092
30
0
41
1
10
13.4262133692657
20
-3.99412906716577
30
0
41
1
10
13.4561591941327
20
-4.0012532514485
30
0
41
1
10
13.4860983639064
20
-4.00834184077956
30
0
0
SPLINE
5
153
100
AcDbEntity
8
1
62
256
6
ByLayer
370
18
48
1
60
0
100
AcDbSpline
70
4
71
3
72
12
73
8
40
0
40
0
40
0
40
0
40
0.416491467394977
40
0.416491467394977
40
0.708245596353181
40
0.708245596353181
40
1
40
1
40
1
40
1
41
1
10
101.399999997288
20
8.06860938633795
30
0
41
1
10
101.386483351913
20
8.08292177034062
30
0
41
1
10
101.372961112374
20
8.09723161356516
30
0
41
1
10
101.349957121638
20
8.12156135179109
30
0
41
1
10
101.34047817129
20
8.13158251203805
30
0
41
1
10
101.321514914426
20
8.1516224566092
30
0
41
1
10
101.312030605673
20
8.16164124328986
30
0
41
1
10
101.302543651141
20
8.17165886012336
30
0
0
SPLINE
5
154
100
AcDbEntity
8
1
62
256
6
ByLayer
370
18
48
1
60
0
100
AcDbSpline
70
4
71
3
72
16
73
12
40
0
40
0
40
0
40
0
40
0.125000000000003
40
0.125000000000003
40
0.250000000000007
40
0.250000000000007
40
0.500000000000005
40
0.500000000000005
40
0.750000000000002
40
0.750000000000002
40
1
40
1
40
1
40
1
41
1
10
109.423331701032
20
8.05015569817272
30
0
41
1
10
109.111314039133
20
8.09633015469674
30
0
41
1
10
108.799760713359
20
8.13914019691586
30
0
41
1
10
108.176855353958
20
8.21754746425643
30
0
41
1
10
107.865408440641
20
8.25310502901277
30
0
41
1
10
106.931387847462
20
8.34914087169045
30
0
41
1
10
106.30902742603
20
8.39895045639526
30
0
41
1
10
105.0651798202
20
8.47007769200619
30
0
41
1
10
104.443436964872
20
8.49121450822156
30
0
41
1
10
103.197508705488
20
8.50433204426332
30
0
41
1
10
102.573828398367
20
8.49644829340008
30
0
41
1
10
101.949495483891
20
8.47385175143438
30
0
0
SPLINE
5
155
100
AcDbEntity
8
1
62
256
6
ByLayer
370
18
48
1
60
0
100
AcDbSpline
70
4
71
3
72
8
73
4
40
0
40
0
40
0
40
0
40
1
40
1
40
1
40
1
41
1
10
17
20
-5.13065055195565
30
0
41
1
10
16.7716054697996
20
-5.09689834067197
30
0
41
1
10
16.5427517655886
20
-5.07301271308785
30
0
41
1
10
16.3135186353568
20
-5.05897975419518
30
0
0
SPLINE
5
156
100
AcDbEntity
8
1
62
256
6
ByLayer
370
18
48
1
60
0
100
AcDbSpline
70
2053
71
3
72
39
73
35
40
0
40
0
40
0
40
0
40
0.0303256137222154
40
0.0624390060944242
40
0.0936170346716081
40
0.12489789356546
40
0.15620021497984
40
0.187385020192294
40
0.219465596214494
40
0.249873724468653
40
0.280278112713338
40
0.312391962445977
40
0.343573267173143
40
0.374906108696725
40
0.406077625660567
40
0.437403056026914
40
0.46954377033248
40
0.499842765839245
40
0.53020671106374
40
0.56245254470431
40
0.593710573430545
40
0.625010914717371
40
0.656198302955763
40
0.68753896119252
40
0.719628666515022
40
0.749985682560588
40
0.780329226785937
40
0.812404419697982
40
0.843732195223701
40
0.874891368276871
40
0.906223692481933
40
0.937466720837906
40
0.969669640933656
40
1
40
1
40
1
40
1
41
1
10
98.45
20
-4.39051309948358
30
0
41
1
10
98.3320620253606
20
-4.39051414689223
30
0
41
1
10
98.0892330854688
20
-4.41127944928215
30
0
41
1
10
97.7394958785361
20
-4.50334372119741
30
0
41
1
10
97.4154551387675
20
-4.65282588550596
30
0
41
1
10
97.1343050501097
20
-4.84678589940415
30
0
41
1
10
96.9033241557129
20
-5.07591697127691
30
0
41
1
10
96.7295056657175
20
-5.33062947716877
30
0
41
1
10
96.6236741985103
20
-5.59403059322847
30
0
41
1
10
96.5886226436204
20
-5.85408062101243
30
0
41
1
10
96.6231042444002
20
-6.10155041201313
30
0
41
1
10
96.7284398198187
20
-6.32970960572851
30
0
41
1
10
96.9019128286283
20
-6.53017911796491
30
0
41
1
10
97.1323261043389
20
-6.69560694398356
30
0
41
1
10
97.4132991655923
20
-6.82583282225028
30
0
41
1
10
97.7373256303186
20
-6.92022075971354
30
0
41
1
10
98.0875198454457
20
-6.97636478419952
30
0
41
1
10
98.4483985568829
20
-6.99428498292843
30
0
41
1
10
98.8097646387932
20
-6.97665689469773
30
0
41
1
10
99.160497001643
20
-6.92071786363036
30
0
41
1
10
99.485281566419
20
-6.82637151064046
30
0
41
1
10
99.7662377601574
20
-6.69642950624106
30
0
41
1
10
99.9972565407251
20
-6.53093037614613
30
0
41
1
10
100.171028252411
20
-6.33062694681024
30
0
41
1
10
100.276638081996
20
-6.1023075395498
30
0
41
1
10
100.311335866219
20
-5.85529169259783
30
0
41
1
10
100.276724433386
20
-5.59559202574184
30
0
41
1
10
100.171270196413
20
-5.33197906674775
30
0
41
1
10
99.9977287517902
20
-5.07717531944422
30
0
41
1
10
99.7668826364832
20
-4.84781063310993
30
0
41
1
10
99.4860748693301
20
-4.65365550022818
30
0
41
1
10
99.161463775972
20
-4.50363572282947
30
0
41
1
10
98.8111515593708
20
-4.41130764091307
30
0
41
1
10
98.5679564295429
20
-4.39051205191104
30
0
41
1
10
98.45
20
-4.39051309948358
30
0
0
SPLINE
5
157
100
AcDbEntity
8
1
62
256
6
ByLayer
370
18
48
1
60
0
100
AcDbSpline
70
4
71
3
72
10
73
6
40
0
40
0
40
0
40
0
40
0.5
40
0.5
40
1
40
1
40
1
40
1
41
1
10
14.4959003610388
20
-4.26563998092288
30
0
41
1
10
14.5602233886316
20
-4.25504538791458
30
0
41
1
10
14.6312477059491
20
-4.24871255983982
30
0
41
1
10
14.7858507239624
20
-4.2469074945385
30
0
41
1
10
14.8697490928616
20
-4.25137958643205
30
0
41
1
10
14.9613118961211
20
-4.26221810510961
30
0
0
SPLINE
5
158
100
AcDbEntity
8
1
62
256
6
ByLayer
370
18
48
1
60
0
100
AcDbSpline
70
4
71
3
72
9
73
5
40
0
40
0
40
0
40
0
40
0.494965084041449
40
1
40
1
40
1
40
1
41
1
10
101.400000007193
20
7.28553929979762
30
0
41
1
10
101.384638835931
20
7.3179373137784
30
0
41
1
10
101.353603977601
20
7.3833924641018
30
0
41
1
10
101.321065828477
20
7.44824914093235
30
0
41
1
10
101.304632927068
20
7.48100402726485
30
0
0
SPLINE
5
159
100
AcDbEntity
8
1
62
256
6
ByLayer
370
18
48
1
60
0
100
AcDbSpline
70
4
71
3
72
12
73
8
40
0
40
0
40
0
40
0
40
0.5
40
0.5
40
0.75
40
0.75
40
1
40
1
40
1
40
1
41
1
10
94.1488894352769
20
4.1341224606964
30
0
41
1
10
95.923963569337
20
3.57401004275815
30
0
41
1
10
97.6975800794275
20
2.9765336208626
30
0
41
1
10
100.364310702281
20
2.04578776496217
30
0
41
1
10
101.254315030112
20
1.72961750162966
30
0
41
1
10
103.037607308816
20
1.09016099149389
30
0
41
1
10
103.927963731128
20
0.7676944910244
30
0
41
1
10
104.8176324986
20
0.444163545780555
30
0
0
SPLINE
5
15A
100
AcDbEntity
8
1
62
256
6
ByLayer
370
18
48
1
60
0
100
AcDbSpline
70
4
71
3
72
10
73
6
40
0
40
0
40
0
40
0
40
0.509698983431184
40
0.509698983431184
40
1
40
1
40
1
40
1
41
1
10
109.291074792216
20
-8.26176825420029
30
0
41
1
10
109.299838452029
20
-8.23606105120811
30
0
41
1
10
109.3085983787
20
-8.21035564224027
30
0
41
1
10
109.325777423173
20
-8.15992693919779
30
0
41
1
10
109.334196839781
20
-8.13520345200718
30
0
41
1
10
109.342612723876
20
-8.11048186092614
30
0
0
SPLINE
5
15B
100
AcDbEntity
8
1
62
256
6
ByLayer
370
18
48
1
60
0
100
AcDbSpline
70
4
71
1
72
4
73
2
40
0
40
0
40
1
40
1
41
1
10
106.931185266387
20
-6.51016010310585
30
0
41
1
10
106.796760939993
20
-6.57278773311194
30
0
0
SPLINE
5
15C
100
AcDbEntity
8
1
62
256
6
ByLayer
370
18
48
1
60
0
100
AcDbSpline
70
4
71
3
72
14
73
10
40
0
40
0
40
0
40
0
40
0.161061079596421
40
0.161061079596421
40
0.580530539798218
40
0.580530539798218
40
0.790265269899109
40
0.790265269899109
40
1
40
1
40
1
40
1
41
1
10
104.915671439016
20
8.49999658606106
30
0
41
1
10
105.150550728365
20
8.49999540642824
30
0
41
1
10
105.385407604713
20
8.49792446618102
30
0
41
1
10
106.231880031568
20
8.48297234030963
30
0
41
1
10
106.843783798405
20
8.45814320208626
30
0
41
1
10
107.761793066718
20
8.40014534152681
30
0
41
1
10
108.067845732
20
8.37736900714341
30
0
41
1
10
108.679602168701
20
8.32479900999365
30
0
41
1
10
108.985210553417
20
8.29493419219241
30
0
41
1
10
109.291074792191
20
8.2617682542363
30
0
0
SPLINE
5
15D
100
AcDbEntity
8
1
62
256
6
ByLayer
370
18
48
1
60
0
100
AcDbSpline
70
4
71
3
72
14
73
10
40
0
40
0
40
0
40
0
40
0.32784349270101
40
0.32784349270101
40
0.495882619525758
40
0.495882619525758
40
0.663921746350505
40
0.663921746350505
40
1
40
1
40
1
40
1
41
1
10
94.1486066542454
20
4.14083289678493
30
0
41
1
10
95.3447701694417
20
3.81046679687697
30
0
41
1
10
96.5404447501047
20
3.46157821653415
30
0
41
1
10
98.3499680313006
20
2.91028718057936
30
0
41
1
10
98.9635473654793
20
2.71927608895018
30
0
41
1
10
100.18933886684
20
2.33038788568348
30
0
41
1
10
100.801742322188
20
2.13244990731613
30
0
41
1
10
102.6380000284
20
1.52961450417948
30
0
41
1
10
103.860856794474
20
1.11543508344465
30
0
41
1
10
105.084157805765
20
0.693364405051597
30
0
0
SPLINE
5
15E
100
AcDbEntity
8
1
62
256
6
ByLayer
370
13
48
1
60
0
100
AcDbSpline
70
4
71
3
72
8
73
4
40
0
40
0
40
0
40
0
40
1
40
1
40
1
40
1
41
1
10
111.045232917407
20
0.873879153777665
30
0
41
1
10
111.028719419323
20
0.866030623506873
30
0
41
1
10
111.011567518948
20
0.851752576138267
30
0
41
1
10
110.997483235369
20
0.834130076001514
30
0
0
SPLINE
5
15F
100
AcDbEntity
8
1
62
256
6
ByLayer
370
18
48
1
60
0
100
AcDbSpline
70
4
71
3
72
14
73
10
40
0
40
0
40
0
40
0
40
0.249999999999994
40
0.249999999999994
40
0.374999999999995
40
0.374999999999995
40
0.499999999999995
40
0.499999999999995
40
1
40
1
40
1
40
1
41
1
10
109.226950156687
20
-4.28923335016793
30
0
41
1
10
109.092175529792
20
-3.91169385727724
30
0
41
1
10
108.961359878687
20
-3.53282268817154
30
0
41
1
10
108.769034188481
20
-2.96320484048698
30
0
41
1
10
108.705665977789
20
-2.77308319298726
30
0
41
1
10
108.581515886886
20
-2.39196993692565
30
0
41
1
10
108.521180591674
20
-2.20082220853684
30
0
41
1
10
108.224426468411
20
-1.24348920010607
30
0
41
1
10
108.007097189704
20
-0.472126581472935
30
0
41
1
10
107.827908046882
20
0.309678702320326
30
0
0
SPLINE
5
160
100
AcDbEntity
8
1
62
256
6
ByLayer
370
18
48
1
60
0
100
AcDbSpline
70
4
71
2
72
6
73
3
40
0
40
0
40
0
40
1
40
1
40
1
41
1
10
104.952365887994
20
0.444564265756696
30
0
41
1
10
105.031838730486
20
0.146812997240289
30
0
41
1
10
105.119315689768
20
-0.151222802730899
30
0
0
SPLINE
5
161
100
AcDbEntity
8
1
62
256
6
ByLayer
370
18
48
1
60
0
100
AcDbSpline
70
4
71
3
72
8
73
4
40
0
40
0
40
0
40
0
40
1
40
1
40
1
40
1
41
1
10
109.563386236899
20
2.91794781495446
30
0
41
1
10
109.553507482629
20
2.91723504866903
30
0
41
1
10
109.544145935441
20
2.91328709163429
30
0
41
1
10
109.536270552983
20
2.907287704704
30
0
0
SPLINE
5
162
100
AcDbEntity
8
1
62
256
6
ByLayer
370
18
48
1
60
0
100
AcDbSpline
70
4
71
3
72
10
73
6
40
0
40
0
40
0
40
0
40
0.5
40
0.5
40
1
40
1
40
1
40
1
41
1
10
93.2878962623645
20
7.14267716873371
30
0
41
1
10
94.6218468942045
20
7.3982431595831
30
0
41
1
10
95.9545239016111
20
7.61379731677511
30
0
41
1
10
98.6241625374408
20
7.95881038611344
30
0
41
1
10
99.9626242644255
20
8.08823516086156
30
0
41
1
10
101.3
20
8.17385239095779
30
0
0
SPLINE
5
163
100
AcDbEntity
8
1
62
256
6
ByLayer
370
18
48
1
60
0
100
AcDbSpline
70
4
71
3
72
30
73
26
40
0
40
0
40
0
40
0
40
0.0624999999999962
40
0.0624999999999962
40
0.124999999999992
40
0.124999999999992
40
0.25
40
0.25
40
0.312500000000004
40
0.312500000000004
40
0.375000000000008
40
0.375000000000008
40
0.437500000000011
40
0.437500000000011
40
0.500000000000015
40
0.500000000000015
40
0.625000000000011
40
0.625000000000011
40
0.750000000000006
40
0.750000000000006
40
0.812500000000004
40
0.812500000000004
40
0.875000000000001
40
0.875000000000001
40
1
40
1
40
1
40
1
41
1
10
90.5472644235296
20
-4.08817572551058
30
0
41
1
10
90.6582258710206
20
-4.10752001164948
30
0
41
1
10
90.7700322664797
20
-4.12140571641137
30
0
41
1
10
90.9953275271176
20
-4.13843364920305
30
0
41
1
10
91.1084621636393
20
-4.14149767880053
30
0
41
1
10
91.444492387942
20
-4.13470125095813
30
0
41
1
10
91.6658977062352
20
-4.10926441243819
30
0
41
1
10
91.9940019199436
20
-4.03840784562675
30
0
41
1
10
92.1021523959989
20
-4.00931789395005
30
0
41
1
10
92.3118774793893
20
-3.94129487535673
30
0
41
1
10
92.4140762965407
20
-3.90223652334458
30
0
41
1
10
92.6131782327171
20
-3.81379126121922
30
0
41
1
10
92.7100817385997
20
-3.7644059223548
30
0
41
1
10
92.8984229378802
20
-3.65461723466146
30
0
41
1
10
92.9889826518832
20
-3.59465397581298
30
0
41
1
10
93.2462294975818
20
-3.40195687092583
30
0
41
1
10
93.4003188887629
20
-3.25562940315143
30
0
41
1
10
93.672734374273
20
-2.92335872241955
30
0
41
1
10
93.7858572730063
20
-2.74360981255737
30
0
41
1
10
93.9225490201828
20
-2.45433141322573
30
0
41
1
10
93.9626088980571
20
-2.35455532528897
30
0
41
1
10
94.0315877303311
20
-2.14799670148213
30
0
41
1
10
94.059859040477
20
-2.04313149813609
30
0
41
1
10
94.127142430556
20
-1.72464300316517
30
0
41
1
10
94.1488890641017
20
-1.50682987290787
30
0
41
1
10
94.1488894350702
20
-1.28352183958577
30
0
0
SPLINE
5
164
100
AcDbEntity
8
1
62
256
6
ByLayer
370
18
48
1
60
0
100
AcDbSpline
70
4
71
3
72
9
73
5
40
0
40
0
40
0
40
0
40
0.479965736500133
40
1
40
1
40
1
40
1
41
1
10
101.412366753533
20
-7.80710656850229
30
0
41
1
10
101.408363869107
20
-7.81512257844494
30
0
41
1
10
101.401913711575
20
-7.8316686328302
30
0
41
1
10
101.400654719182
20
-7.84770646742999
30
0
41
1
10
101.4
20
-7.85604669093422
30
0
0
SPLINE
5
165
100
AcDbEntity
8
1
62
256
6
ByLayer
370
18
48
1
60
0
100
AcDbSpline
70
4
71
3
72
34
73
30
40
0
40
0
40
0
40
0
40
0.0295116469113513
40
0.0588444269701303
40
0.0879987248387304
40
0.116974932288708
40
0.145773448360838
40
0.174394679529136
40
0.20283903986896
40
0.231106951229266
40
0.259198843409141
40
0.287115154338701
40
0.314856330264446
40
0.342422825939205
40
0.369815104816725
40
0.397033639251061
40
0.424078910700838
40
0.450951409938497
40
0.47765163726464
40
0.504180102727575
40
0.560898687861176
40
0.61719750448642
40
0.673081897383589
40
0.728557331126415
40
0.783629392037138
40
0.838303790091642
40
0.89258636076667
40
0.94648306682075
40
1
40
1
40
1
40
1
41
1
10
106.796758848672
20
-6.57284834653967
30
0
41
1
10
106.783337048135
20
-6.5436797576061
30
0
41
1
10
106.756574795121
20
-6.48551936735475
30
0
41
1
10
106.717197420865
20
-6.39602230060731
30
0
41
1
10
106.678537344307
20
-6.30527336351972
30
0
41
1
10
106.640639941735
20
-6.21314512328718
30
0
41
1
10
106.603493165461
20
-6.11973967126625
30
0
41
1
10
106.567100213919
20
-6.02509759250336
30
0
41
1
10
106.531460237837
20
-5.92927520545132
30
0
41
1
10
106.496573462548
20
-5.8323240283575
30
0
41
1
10
106.462439828103
20
-5.73429620442187
30
0
41
1
10
106.429059350341
20
-5.63524303675769
30
0
41
1
10
106.396432024829
20
-5.53521535337569
30
0
41
1
10
106.364557853132
20
-5.43426338861639
30
0
41
1
10
106.333436832996
20
-5.33243679011761
30
0
41
1
10
106.303068971483
20
-5.22978460829191
30
0
41
1
10
106.273454242544
20
-5.12635523723532
30
0
41
1
10
106.244592742246
20
-5.02219657044981
30
0
41
1
10
106.216484115425
20
-4.91735535831603
30
0
41
1
10
106.178694184461
20
-4.7716413729315
30
0
41
1
10
106.132322047137
20
-4.58315833924786
30
0
41
1
10
106.078872729786
20
-4.3494681409837
30
0
41
1
10
106.028520454174
20
-4.11225793629154
30
0
41
1
10
105.981263740114
20
-3.87187061163127
30
0
41
1
10
105.937107946852
20
-3.62863534018084
30
0
41
1
10
105.896033401757
20
-3.38290336408281
30
0
41
1
10
105.858112793614
20
-3.13492434657616
30
0
41
1
10
105.823077814191
20
-2.88529825778446
30
0
41
1
10
105.802232570836
20
-2.71671373945239
30
0
41
1
10
105.791846799497
20
-2.63271950494897
30
0
0
SPLINE
5
166
100
AcDbEntity
8
1
62
256
6
ByLayer
370
18
48
1
60
0
100
AcDbSpline
70
4
71
3
72
8
73
4
40
0
40
0
40
0
40
0
40
1
40
1
40
1
40
1
41
1
10
102.3
20
-7.73710967678338
30
0
41
1
10
102.045243159365
20
-7.84049489360078
30
0
41
1
10
101.788156133652
20
-7.93021003637185
30
0
41
1
10
101.528854246306
20
-8.0069316522322
30
0
0
SPLINE
5
167
100
AcDbEntity
8
1
62
256
6
ByLayer
370
18
48
1
60
0
100
AcDbSpline
70
4
71
1
72
4
73
2
40
0
40
0
40
1
40
1
41
1
10
105.791847040429
20
-2.63272455826663
30
0
41
1
10
105.80890450346
20
-2.63067804491135
30
0
0
SPLINE
5
168
100
AcDbEntity
8
1
62
256
6
ByLayer
370
18
48
1
60
0
100
AcDbSpline
70
4
71
3
72
8
73
4
40
0
40
0
40
0
40
0
40
1
40
1
40
1
40
1
41
1
10
105.084157805764
20
0.693364405051597
30
0
41
1
10
105.040758925409
20
0.609142174949994
30
0
41
1
10
104.996834495617
20
0.526193736096616
30
0
41
1
10
104.95236590842
20
0.444564189231414
30
0
0
SPLINE
5
169
100
AcDbEntity
8
1
62
256
6
ByLayer
370
18
48
1
60
0
100
AcDbSpline
70
4
71
3
72
42
73
38
40
0
40
0
40
0
40
0
40
0.129297088190132
40
0.129297088190132
40
0.258594176380263
40
0.258594176380263
40
0.323242720475329
40
0.323242720475329
40
0.387891264570395
40
0.387891264570395
40
0.452539808665461
40
0.452539808665461
40
0.484864080712993
40
0.484864080712993
40
0.517188352760526
40
0.517188352760526
40
0.64648544095066
40
0.64648544095066
40
0.775782529140793
40
0.775782529140793
40
0.84043107323586
40
0.84043107323586
40
0.905079617330925
40
0.905079617330925
40
0.921241753354691
40
0.921241753354691
40
0.937403889378457
40
0.937403889378457
40
0.953566025402223
40
0.953566025402223
40
0.96972816142599
40
0.96972816142599
40
0.985890297449756
40
0.985890297449756
40
0.993971365461638
40
0.993971365461638
40
1
40
1
40
1
40
1
41
1
10
16.445341055636
20
-4.43530936833514
30
0
41
1
10
19.459739973254
20
-4.84595532489257
30
0
41
1
10
22.4745024857093
20
-5.22823620589199
30
0
41
1
10
28.5040101334178
20
-5.92526540922887
30
0
41
1
10
31.5177301163148
20
-6.23991148625711
30
0
41
1
10
36.0388001078842
20
-6.64293503115087
30
0
41
1
10
37.5459234189013
20
-6.7656136528017
30
0
41
1
10
40.5609140896943
20
-6.98386832173
30
0
41
1
10
42.06858777646
20
-7.07934348113392
30
0
41
1
10
45.0825981730614
20
-7.23913145098143
30
0
41
1
10
46.5892379691054
20
-7.30342053422649
30
0
41
1
10
48.8491052968537
20
-7.37382500991498
30
0
41
1
10
49.6023813235702
20
-7.39275238490288
30
0
41
1
10
51.1090816320026
20
-7.42652750727379
30
0
41
1
10
51.8624868896364
20
-7.44078814810302
30
0
41
1
10
55.6298387889051
20
-7.49884340661265
30
0
41
1
10
58.64491411407
20
-7.50337821030692
30
0
41
1
10
64.6724482466381
20
-7.41619866094453
30
0
41
1
10
67.6856717746211
20
-7.3241822099117
30
0
41
1
10
72.2074038326604
20
-7.10068861624964
30
0
41
1
10
73.7150258772369
20
-7.01193666200385
30
0
41
1
10
76.7294468802348
20
-6.80448289910805
30
0
41
1
10
78.2364962047321
20
-6.68582748518662
30
0
41
1
10
80.1205020197447
20
-6.51822413693634
30
0
41
1
10
80.4973272254575
20
-6.48379918957488
30
0
41
1
10
81.2509261264617
20
-6.41275216370806
30
0
41
1
10
81.6277695542464
20
-6.3765934828397
30
0
41
1
10
82.3800630589113
20
-6.29795310550895
30
0
41
1
10
82.7556469473341
20
-6.25604171238675
30
0
41
1
10
83.5052635507388
20
-6.16591422171231
30
0
41
1
10
83.8792915128703
20
-6.11778221104902
30
0
41
1
10
84.6252041960625
20
-6.01238709070191
30
0
41
1
10
84.9971240723581
20
-5.95517382174654
30
0
41
1
10
85.5527184501485
20
-5.85727132239163
30
0
41
1
10
85.737525284134
20
-5.82261257422886
30
0
41
1
10
86.0593219534882
20
-5.75680422083971
30
0
41
1
10
86.1965360534517
20
-5.7270697466578
30
0
41
1
10
86.3333412031343
20
-5.69483934404633
30
0
0
SPLINE
5
16A
100
AcDbEntity
8
1
62
256
6
ByLayer
370
18
48
1
60
0
100
AcDbSpline
70
4
71
3
72
14
73
10
40
0
40
0
40
0
40
0
40
0.250000000000007
40
0.250000000000007
40
0.374999999999999
40
0.374999999999999
40
0.49999999999999
40
0.49999999999999
40
1
40
1
40
1
40
1
41
1
10
16.4450761590715
20
-4.43641802245634
30
0
41
1
10
16.3072824881948
20
-4.41978016804396
30
0
41
1
10
16.172092567412
20
-4.40359493014432
30
0
41
1
10
15.9731689486481
20
-4.38003276188704
30
0
41
1
10
15.907506965181
20
-4.37229688465234
30
0
41
1
10
15.7774960451165
20
-4.35705425520058
30
0
41
1
10
15.7128726289903
20
-4.34951568503206
30
0
41
1
10
15.3969070761489
20
-4.31279138294647
30
0
41
1
10
15.1678436283305
20
-4.28666578426945
30
0
41
1
10
14.9613118961211
20
-4.26221810510961
30
0
0
SPLINE
5
16B
100
AcDbEntity
8
1
62
256
6
ByLayer
370
18
48
1
60
0
100
AcDbSpline
70
4
71
3
72
8
73
4
40
0
40
0
40
0
40
0
40
1
40
1
40
1
40
1
41
1
10
109.011861022384
20
8.34999519199201
30
0
41
1
10
109.049042543934
20
8.34989371680709
30
0
41
1
10
109.086712367005
20
8.34819315769974
30
0
41
1
10
109.124864328818
20
8.34491369646133
30
0
0
SPLINE
5
16C
100
AcDbEntity
8
1
62
256
6
ByLayer
370
18
48
1
60
0
100
AcDbSpline
70
4
71
3
72
8
73
4
40
0
40
0
40
0
40
0
40
1
40
1
40
1
40
1
41
1
10
101.4
20
-8.25161758110323
30
0
41
1
10
101.58345871593
20
-8.3268510617637
30
0
41
1
10
101.766617057811
20
-8.40094792103255
30
0
41
1
10
101.949495483891
20
-8.47385175143438
30
0
0
SPLINE
5
16D
100
AcDbEntity
8
1
62
256
6
ByLayer
370
13
48
1
60
0
100
AcDbSpline
70
4
71
3
72
8
73
4
40
0
40
0
40
0
40
0
40
1
40
1
40
1
40
1
41
1
10
110.997483235369
20
0.834130076001514
30
0
41
1
10
111.005058643784
20
0.828823823914092
30
0
41
1
10
111.012665056447
20
0.823556206304005
30
0
41
1
10
111.02030141479
20
0.818326762707727
30
0
0
SPLINE
5
16E
100
AcDbEntity
8
1
62
256
6
ByLayer
370
18
48
1
60
0
100
AcDbSpline
70
4
71
3
72
30
73
26
40
0
40
0
40
0
40
0
40
0.124999999999984
40
0.124999999999984
40
0.187499999999976
40
0.187499999999976
40
0.249999999999968
40
0.249999999999968
40
0.374999999999968
40
0.374999999999968
40
0.499999999999967
40
0.499999999999967
40
0.562499999999973
40
0.562499999999973
40
0.624999999999978
40
0.624999999999978
40
0.687499999999984
40
0.687499999999984
40
0.74999999999999
40
0.74999999999999
40
0.874999999999995
40
0.874999999999995
40
0.937499999999997
40
0.937499999999997
40
1
40
1
40
1
40
1
41
1
10
90.5103921447064
20
-4.34342222517839
30
0
41
1
10
90.7329232246232
20
-4.38472778987409
30
0
41
1
10
90.9566430867887
20
-4.40376718283159
30
0
41
1
10
91.2939395626939
20
-4.40065776817599
30
0
41
1
10
91.4066994875032
20
-4.39427693857519
30
0
41
1
10
91.6326630124083
20
-4.3703750546168
30
0
41
1
10
91.7437615530092
20
-4.35307970203684
30
0
41
1
10
92.0716162316048
20
-4.28554400886247
30
0
41
1
10
92.2831417459737
20
-4.21983582883362
30
0
41
1
10
92.6906633919158
20
-4.04363480169323
30
0
41
1
10
92.8790802184691
20
-3.93642066183571
30
0
41
1
10
93.1394657163758
20
-3.74594393136735
30
0
41
1
10
93.2226056736607
20
-3.67738147820023
30
0
41
1
10
93.3807520582105
20
-3.52983235046125
30
0
41
1
10
93.4543446909669
20
-3.45218061412095
30
0
41
1
10
93.5910129707931
20
-3.28913573916856
30
0
41
1
10
93.6540869677697
20
-3.20374213125137
30
0
41
1
10
93.7697849212566
20
-3.02497375559281
30
0
41
1
10
93.8225351975291
20
-2.93133671193081
30
0
41
1
10
93.963878952909
20
-2.63938733741725
30
0
41
1
10
94.0331576977887
20
-2.43583210072117
30
0
41
1
10
94.1027030760043
20
-2.11726672435492
30
0
41
1
10
94.1201415566625
20
-2.00846588731298
30
0
41
1
10
94.1432365277379
20
-1.78817707851638
30
0
41
1
10
94.14888943503
20
-1.67719467607293
30
0
41
1
10
94.1488894350322
20
-1.56537918964293
30
0
0
SPLINE
5
16F
100
AcDbEntity
8
1
62
256
6
ByLayer
370
18
48
1
60
0
100
AcDbSpline
70
4
71
3
72
8
73
4
40
0
40
0
40
0
40
0
40
1
40
1
40
1
40
1
41
1
10
101.304632922602
20
7.48100401824857
30
0
41
1
10
101.303941396249
20
7.71202311256476
30
0
41
1
10
101.303244965368
20
7.94224689112303
30
0
41
1
10
101.302543815452
20
8.17165871617556
30
0
0
SPLINE
5
170
100
AcDbEntity
8
1
62
256
6
ByLayer
370
18
48
1
60
0
100
AcDbSpline
70
4
71
3
72
8
73
4
40
0
40
0
40
0
40
0
40
1
40
1
40
1
40
1
41
1
10
111.908033931189
20
-0.266926154097291
30
0
41
1
10
111.936639744375
20
-0.155337005779501
30
0
41
1
10
111.962267150533
20
-0.0448178349242312
30
0
41
1
10
111.985260617013
20
0.0647551065981986
30
0
0
SPLINE
5
171
100
AcDbEntity
8
1
62
256
6
ByLayer
370
18
48
1
60
0
100
AcDbSpline
70
4
71
3
72
10
73
6
40
0
40
0
40
0
40
0
40
0.5
40
0.5
40
1
40
1
40
1
40
1
41
1
10
109.788352546814
20
2.93539874581936
30
0
41
1
10
110.009304729607
20
2.95381831785099
30
0
41
1
10
110.229750889463
20
2.97558116172743
30
0
41
1
10
110.668956941077
20
3.03024795049274
30
0
41
1
10
110.88774409059
20
3.06297180456281
30
0
41
1
10
111.104988783745
20
3.10588660164635
30
0
0
SPLINE
5
172
100
AcDbEntity
8
1
62
256
6
ByLayer
370
18
48
1
60
0
100
AcDbSpline
70
4
71
3
72
8
73
4
40
0
40
0
40
0
40
0
40
1
40
1
40
1
40
1
41
1
10
101.302543654792
20
8.17165885473287
30
0
41
1
10
101.301695763638
20
8.1723901222793
30
0
41
1
10
101.300847878702
20
8.17312130102837
30
0
41
1
10
101.3
20
8.17385239095779
30
0
0
SPLINE
5
173
100
AcDbEntity
8
1
62
256
6
ByLayer
370
18
48
1
60
0
100
AcDbSpline
70
4
71
3
72
8
73
4
40
0
40
0
40
0
40
0
40
1
40
1
40
1
40
1
41
1
10
93.3010444473587
20
7.10350922522196
30
0
41
1
10
93.2967399932306
20
7.1166167743558
30
0
41
1
10
93.2923587799792
20
7.1296735221465
30
0
41
1
10
93.287896262344
20
7.14267716872536
30
0
0
SPLINE
5
174
100
AcDbEntity
8
1
62
256
6
ByLayer
370
18
48
1
60
0
100
AcDbSpline
70
4
71
3
72
14
73
10
40
0
40
0
40
0
40
0
40
0.500000000000026
40
0.500000000000026
40
0.625000000000006
40
0.625000000000006
40
0.749999999999987
40
0.749999999999987
40
1
40
1
40
1
40
1
41
1
10
90.0891767268274
20
5.24384135006579
30
0
41
1
10
89.8253592828049
20
5.19937259673066
30
0
41
1
10
89.5588496822517
20
5.18551156930687
30
0
41
1
10
89.2223472439128
20
5.20718869306657
30
0
41
1
10
89.1550893764834
20
5.21350845998126
30
0
41
1
10
89.0226488846172
20
5.22981424971553
30
0
41
1
10
88.9571770464948
20
5.23981619778317
30
0
41
1
10
88.7629549047928
20
5.27516170233196
30
0
41
1
10
88.6363874212869
20
5.30582834003573
30
0
41
1
10
88.5127343092388
20
5.34327959879784
30
0
0
SPLINE
5
175
100
AcDbEntity
8
1
62
256
6
ByLayer
370
18
48
1
60
0
100
AcDbSpline
70
4
71
3
72
8
73
4
40
0
40
0
40
0
40
0
40
1
40
1
40
1
40
1
41
1
10
110.082805484637
20
6.05875415123867
30
0
41
1
10
109.866160595418
20
6.71931535765509
30
0
41
1
10
109.646368154583
20
7.38308312100244
30
0
41
1
10
109.423331701032
20
8.05015569817272
30
0
0
SPLINE
5
176
100
AcDbEntity
8
1
62
256
6
ByLayer
370
18
48
1
60
0
100
AcDbSpline
70
4
71
3
72
8
73
4
40
0
40
0
40
0
40
0
40
1
40
1
40
1
40
1
41
1
10
107.827908048741
20
0.309678702897855
30
0
41
1
10
107.757308147592
20
0.617707274696045
30
0
41
1
10
107.703428142679
20
0.927996461532103
30
0
41
1
10
107.661279331148
20
1.23987176539896
30
0
0
SPLINE
5
177
100
AcDbEntity
8
1
62
256
6
ByLayer
370
18
48
1
60
0
100
AcDbSpline
70
4
71
3
72
12
73
8
40
0
40
0
40
0
40
0
40
0.500000000000031
40
0.500000000000031
40
0.750000000000016
40
0.750000000000016
40
1
40
1
40
1
40
1
41
1
10
92.3413248585501
20
6.80797603159809
30
0
41
1
10
92.5166668466663
20
6.84880689414658
30
0
41
1
10
92.6840212438263
20
6.89815434371351
30
0
41
1
10
92.9228745560177
20
6.9832497018609
30
0
41
1
10
93.0007793613008
20
7.01362728176059
30
0
41
1
10
93.149287514932
20
7.07652310126829
30
0
41
1
10
93.220214607303
20
7.10913339157563
30
0
41
1
10
93.2878962623578
20
7.14267716873707
30
0
0
SPLINE
5
178
100
AcDbEntity
8
1
62
256
6
ByLayer
370
18
48
1
60
0
100
AcDbSpline
70
4
71
3
72
8
73
4
40
0
40
0
40
0
40
0
40
1
40
1
40
1
40
1
41
1
10
90.089176726828
20
5.24384135006588
30
0
41
1
10
91.4427492206688
20
4.90111504248119
30
0
41
1
10
92.7952184930522
20
4.53085282874505
30
0
41
1
10
94.1488894353139
20
4.13842024458498
30
0
0
SPLINE
5
179
100
AcDbEntity
8
1
62
256
6
ByLayer
370
13
48
1
60
0
100
AcDbSpline
70
4
71
3
72
10
73
6
40
0
40
0
40
0
40
0
40
0.0018220477214672
40
0.0018220477214672
40
1
40
1
40
1
40
1
41
1
10
111.068053416477
20
0.858511118116894
30
0
41
1
10
111.068039504322
20
0.858520385093357
30
0
41
1
10
111.068025592088
20
0.858529652106
30
0
41
1
10
111.060390197602
20
0.863615784637403
30
0
41
1
10
111.05279693952
20
0.868729037733971
30
0
41
1
10
111.045232917408
20
0.873879153777068
30
0
0
SPLINE
5
17A
100
AcDbEntity
8
1
62
256
6
ByLayer
370
18
48
1
60
0
100
AcDbSpline
70
4
71
3
72
8
73
4
40
0
40
0
40
0
40
0
40
1
40
1
40
1
40
1
41
1
10
20.554999999966
20
-5.3098508210943
30
0
41
1
10
20.5549999999656
20
-5.48948471040398
30
0
41
1
10
20.5549999999652
20
-5.66926259843896
30
0
41
1
10
20.5549999999647
20
-5.84918431761224
30
0
0
SPLINE
5
17B
100
AcDbEntity
8
1
62
256
6
ByLayer
370
18
48
1
60
0
100
AcDbSpline
70
4
71
3
72
8
73
4
40
0
40
0
40
0
40
0
40
1
40
1
40
1
40
1
41
1
10
111.985260617013
20
-0.064755106598227
30
0
41
1
10
111.973700888317
20
-0.10365972544659
30
0
41
1
10
111.962196640581
20
-0.142457553279712
30
0
41
1
10
111.950747495982
20
-0.181149317340726
30
0
0
SPLINE
5
17C
100
AcDbEntity
8
1
62
256
6
ByLayer
370
18
48
1
60
0
100
AcDbSpline
70
4
71
3
72
14
73
10
40
0
40
0
40
0
40
0
40
0.25
40
0.25
40
0.5
40
0.5
40
0.75
40
0.75
40
1
40
1
40
1
40
1
41
1
10
18.4906833088559
20
5.59652035535342
30
0
41
1
10
18.3824010764074
20
5.6064057439423
30
0
41
1
10
18.274370791247
20
5.62093920830259
30
0
41
1
10
18.0587178500775
20
5.65819178609399
30
0
41
1
10
17.9504468467155
20
5.68108880613761
30
0
41
1
10
17.7424717072744
20
5.73059976390672
30
0
41
1
10
17.6416080766153
20
5.75734886988403
30
0
41
1
10
17.4444228095588
20
5.81248651323941
30
0
41
1
10
17.3476305350251
20
5.84102835310702
30
0
41
1
10
17.2543584216701
20
5.86902797670106
30
0
0
SPLINE
5
17D
100
AcDbEntity
8
1
62
256
6
ByLayer
370
18
48
1
60
0
100
AcDbSpline
70
4
71
3
72
8
73
4
40
0
40
0
40
0
40
0
40
1
40
1
40
1
40
1
41
1
10
101.537360923689
20
-8.21022728739604
30
0
41
1
10
101.537360923689
20
-8.17036202709335
30
0
41
1
10
101.537360923689
20
-8.12211273849809
30
0
41
1
10
101.537360923689
20
-8.0654760976642
30
0
0
SPLINE
5
17E
100
AcDbEntity
8
1
62
256
6
ByLayer
370
18
48
1
60
0
100
AcDbSpline
70
4
71
2
72
6
73
3
40
0
40
0
40
0
40
1
40
1
40
1
41
1
10
101.340766280105
20
2.05703169963809
30
0
41
1
10
101.374263549962
20
2.01700780193713
30
0
41
1
10
101.40627706734
20
1.97799420243368
30
0
0
SPLINE
5
17F
100
AcDbEntity
8
1
62
256
6
ByLayer
370
18
48
1
60
0
100
AcDbSpline
70
4
71
1
72
4
73
2
40
0
40
0
40
1
40
1
41
1
10
105.119315691098
20
-0.15122281075719
30
0
41
1
10
104.985424435188
20
-0.167409464259947
30
0
0
SPLINE
5
180
100
AcDbEntity
8
1
62
256
6
ByLayer
370
18
48
1
60
0
100
AcDbSpline
70
4
71
3
72
21
73
17
40
0
40
0
40
0
40
0
40
0.028514730753709
40
0.0569456543622907
40
0.0853622445808627
40
0.113834080089048
40
0.142430336310992
40
0.213441039488609
40
0.283938192244678
40
0.355123548708504
40
0.425358901036751
40
0.566098009240594
40
0.706347546288032
40
0.846245048579359
40
0.985715513285892
40
1
40
1
40
1
40
1
41
1
10
101.30000299055
20
-7.95185409634047
30
0
41
1
10
101.300241036996
20
-7.94705218730715
30
0
41
1
10
101.30071643025
20
-7.93746248244719
30
0
41
1
10
101.304541867282
20
-7.92275933008261
30
0
41
1
10
101.310649667058
20
-7.90787400638945
30
0
41
1
10
101.319259382598
20
-7.89278460764595
30
0
41
1
10
101.335755706399
20
-7.86999502971017
30
0
41
1
10
101.365747629355
20
-7.83939527925162
30
0
41
1
10
101.417634395962
20
-7.80143783125578
30
0
41
1
10
101.482663296353
20
-7.76466738361739
30
0
41
1
10
101.586274399498
20
-7.71846233831866
30
0
41
1
10
101.745060669854
20
-7.66811280034412
30
0
41
1
10
101.972305286318
20
-7.62805254103989
30
0
41
1
10
102.218936800279
20
-7.61540596691481
30
0
41
1
10
102.390947619117
20
-7.6272986513145
30
0
41
1
10
102.475610072664
20
-7.63901433274515
30
0
41
1
10
102.48347557346
20
-7.64010276920976
30
0
0
SPLINE
5
181
100
AcDbEntity
8
1
62
256
6
ByLayer
370
18
48
1
60
0
100
AcDbSpline
70
4
71
3
72
14
73
10
40
0
40
0
40
0
40
0
40
0.249999999999999
40
0.249999999999999
40
0.5
40
0.5
40
0.75
40
0.75
40
1
40
1
40
1
40
1
41
1
10
111.799647108457
20
-0.806275121931918
30
0
41
1
10
111.770353397804
20
-0.930081999897794
30
0
41
1
10
111.734097971767
20
-1.07104223002659
30
0
41
1
10
111.649114318315
20
-1.38162977667665
30
0
41
1
10
111.600388578845
20
-1.55124788826345
30
0
41
1
10
111.49242044168
20
-1.91234062203222
30
0
41
1
10
111.433180953736
20
-2.1038055127411
30
0
41
1
10
111.306563317336
20
-2.5009053470734
30
0
41
1
10
111.239189787464
20
-2.7065259952428
30
0
41
1
10
111.169096899996
20
-2.91511115939957
30
0
0
SPLINE
5
182
100
AcDbEntity
8
1
62
256
6
ByLayer
370
18
48
1
60
0
100
AcDbSpline
70
4
71
3
72
8
73
4
40
0
40
0
40
0
40
0
40
1
40
1
40
1
40
1
41
1
10
101.302543654792
20
-8.17165885473287
30
0
41
1
10
101.301695763638
20
-8.1723901222793
30
0
41
1
10
101.300847878702
20
-8.17312130102835
30
0
41
1
10
101.3
20
-8.17385239095779
30
0
0
SPLINE
5
183
100
AcDbEntity
8
1
62
256
6
ByLayer
370
18
48
1
60
0
100
AcDbSpline
70
4
71
3
72
41
73
37
40
0
40
0
40
0
40
0
40
0.0624999999999975
40
0.0624999999999975
40
0.124999999999995
40
0.124999999999995
40
0.187499999999993
40
0.187499999999993
40
0.24999999999999
40
0.24999999999999
40
0.312499999999988
40
0.312499999999988
40
0.374999999999985
40
0.374999999999985
40
0.437499999999983
40
0.437499999999983
40
0.468749999999984
40
0.468749999999984
40
0.499999999999985
40
0.531249999999985
40
0.531249999999985
40
0.562499999999986
40
0.562499999999986
40
0.624999999999988
40
0.624999999999988
40
0.68749999999999
40
0.68749999999999
40
0.749999999999992
40
0.749999999999992
40
0.812499999999994
40
0.812499999999994
40
0.874999999999996
40
0.874999999999996
40
0.937499999999998
40
0.937499999999998
40
1
40
1
40
1
40
1
41
1
10
102.168436269846
20
-0.16038249818854
30
0
41
1
10
102.083605415616
20
-0.160170873314797
30
0
41
1
10
102.000142871657
20
-0.168038792657711
30
0
41
1
10
101.835784648385
20
-0.198928293002155
30
0
41
1
10
101.754215921486
20
-0.222230731192838
30
0
41
1
10
101.597012669482
20
-0.283444214655447
30
0
41
1
10
101.522178874775
20
-0.320881923467908
30
0
41
1
10
101.379921271983
20
-0.409168350145365
30
0
41
1
10
101.311856873721
20
-0.460692552968993
30
0
41
1
10
101.18829695934
20
-0.574199141736443
30
0
41
1
10
101.132464838254
20
-0.636162909455919
30
0
41
1
10
101.03310306659
20
-0.770816030373084
30
0
41
1
10
100.989473970648
20
-0.844144463395992
30
0
41
1
10
100.919473934434
20
-0.995242620199349
30
0
41
1
10
100.892442042945
20
-1.07370548142805
30
0
41
1
10
100.86457820231
20
-1.19600020501369
30
0
41
1
10
100.857451663293
20
-1.23758809482689
30
0
41
1
10
100.847905470803
20
-1.32016270141435
30
0
41
1
10
100.84292086911
20
-1.40267359862128
30
0
41
1
10
100.846943439219
20
-1.48505540774346
30
0
41
1
10
100.855544355841
20
-1.56737300281702
30
0
41
1
10
100.862200567579
20
-1.60873246481756
30
0
41
1
10
100.888681631045
20
-1.73004753317875
30
0
41
1
10
100.914899359238
20
-1.80780231896682
30
0
41
1
10
100.983784446862
20
-1.9573993427922
30
0
41
1
10
101.026657094281
20
-2.02908930396652
30
0
41
1
10
101.124805398443
20
-2.16068778657774
30
0
41
1
10
101.180732495316
20
-2.22173935631491
30
0
41
1
10
101.30449143972
20
-2.33280302586604
30
0
41
1
10
101.371014019105
20
-2.38175300040336
30
0
41
1
10
101.512878671513
20
-2.46733885113463
30
0
41
1
10
101.58903278163
20
-2.50420351699961
30
0
41
1
10
101.745287009662
20
-2.56311220838032
30
0
41
1
10
101.825577608497
20
-2.58545768208953
30
0
41
1
10
101.990525236951
20
-2.61591913291403
30
0
41
1
10
102.075447151506
20
-2.62392962161604
30
0
41
1
10
102.160297025756
20
-2.62413029309675
30
0
0
SPLINE
5
184
100
AcDbEntity
8
1
62
256
6
ByLayer
370
18
48
1
60
0
100
AcDbSpline
70
4
71
1
72
4
73
2
40
0
40
0
40
1
40
1
41
1
10
106.568466382686
20
1.0972999617899
30
0
41
1
10
106.564471911683
20
1.10156140614848
30
0
0
SPLINE
5
185
100
AcDbEntity
8
1
62
256
6
ByLayer
370
18
48
1
60
0
100
AcDbSpline
70
4
71
3
72
28
73
24
40
0
40
0
40
0
40
0
40
0.125000000000002
40
0.125000000000002
40
0.187500000000004
40
0.187500000000004
40
0.250000000000005
40
0.250000000000005
40
0.375000000000008
40
0.375000000000008
40
0.437500000000007
40
0.437500000000007
40
0.500000000000007
40
0.500000000000007
40
0.625000000000005
40
0.625000000000005
40
0.687500000000004
40
0.687500000000004
40
0.750000000000004
40
0.750000000000004
40
0.875000000000002
40
0.875000000000002
40
1
40
1
40
1
40
1
41
1
10
20.554999999951
20
8.12671141728089
30
0
41
1
10
20.554999999951
20
8.0907197391839
30
0
41
1
10
20.5686029123275
20
8.04968089647289
30
0
41
1
10
20.6099875250198
20
7.98119789756936
30
0
41
1
10
20.6272946572394
20
7.95721557872841
30
0
41
1
10
20.669233874691
20
7.9070490905242
30
0
41
1
10
20.6939880579104
20
7.88074988472576
30
0
41
1
10
20.779058011707
20
7.7995391139701
30
0
41
1
10
20.8493283733993
20
7.74297330412949
30
0
41
1
10
20.9750027407408
20
7.65619371492198
30
0
41
1
10
21.0202883687783
20
7.62694561339174
30
0
41
1
10
21.1178399747044
20
7.56811035321209
30
0
41
1
10
21.170409174897
20
7.53836944069633
30
0
41
1
10
21.3362723744501
20
7.4505941509351
30
0
41
1
10
21.4576514319032
20
7.39390227003912
30
0
41
1
10
21.655603417853
20
7.31350849598357
30
0
41
1
10
21.7242489810616
20
7.28748636976775
30
0
41
1
10
21.8669872334381
20
7.23735299706632
30
0
41
1
10
21.9411356285893
20
7.21324948425416
30
0
41
1
10
22.1674076540526
20
7.14567758769272
30
0
41
1
10
22.3247231863895
20
7.10641025675852
30
0
41
1
10
22.6521390340633
20
7.04125283002693
30
0
41
1
10
22.823225612431
20
7.01531126967851
30
0
41
1
10
22.9972899528923
20
6.99760039198475
30
0
0
SPLINE
5
186
100
AcDbEntity
8
1
62
256
6
ByLayer
370
18
48
1
60
0
100
AcDbSpline
70
4
71
3
72
38
73
34
40
0
40
0
40
0
40
0
40
0.124999999999999
40
0.124999999999999
40
0.249999999999998
40
0.249999999999998
40
0.374999999999997
40
0.374999999999997
40
0.499999999999996
40
0.499999999999996
40
0.624999999999995
40
0.624999999999995
40
0.749999999999994
40
0.749999999999994
40
0.812499999999993
40
0.812499999999993
40
0.843749999999993
40
0.843749999999993
40
0.874999999999994
40
0.874999999999994
40
0.890624999999994
40
0.890624999999994
40
0.906249999999995
40
0.906249999999995
40
0.921874999999996
40
0.921874999999996
40
0.937499999999996
40
0.937499999999996
40
0.953124999999997
40
0.953124999999997
40
0.968749999999997
40
0.968749999999997
40
1
40
1
40
1
40
1
41
1
10
22.9972899528923
20
6.99760039198475
30
0
41
1
10
25.8117980444985
20
6.71122692544697
30
0
41
1
10
28.6266103026397
20
6.38209880598737
30
0
41
1
10
34.2548045807676
20
5.64988856385327
30
0
41
1
10
37.0682794117501
20
5.24684358593336
30
0
41
1
10
42.6975527408588
20
4.38123780736407
30
0
41
1
10
45.5115314524081
20
3.91910247678746
30
0
41
1
10
51.1395026452029
20
2.95200675683699
30
0
41
1
10
53.9541710316902
20
2.44627307277412
30
0
41
1
10
59.5834002641367
20
1.41271688598846
30
0
41
1
10
62.3982574434835
20
0.884429777584359
30
0
41
1
10
68.0275215433618
20
-0.17694610583132
30
0
41
1
10
70.8408851259647
20
-0.709661419160085
30
0
41
1
10
75.0616184712885
20
-1.49800130004476
30
0
41
1
10
76.4686592009081
20
-1.75907675574197
30
0
41
1
10
78.5796657748203
20
-2.14607685404346
30
0
41
1
10
79.283302211216
20
-2.27424252926002
30
0
41
1
10
80.6906204038473
20
-2.52835200941399
30
0
41
1
10
81.3943062122485
20
-2.65428566387277
30
0
41
1
10
82.4493687224375
20
-2.84400814427897
30
0
41
1
10
82.8010213247704
20
-2.90716621137852
30
0
41
1
10
83.5047241584943
20
-3.03100464620678
30
0
41
1
10
83.8569082295199
20
-3.09102735014633
30
0
41
1
10
84.5613610675523
20
-3.21019367645735
30
0
41
1
10
84.913470871109
20
-3.27006245385644
30
0
41
1
10
85.615401458443
20
-3.39876971050936
30
0
41
1
10
85.9648509070892
20
-3.46920543758259
30
0
41
1
10
86.6637003360576
20
-3.60923373927571
30
0
41
1
10
87.0134480691831
20
-3.67738623366796
30
0
41
1
10
87.7129204625705
20
-3.81284443884536
30
0
41
1
10
88.0625792798427
20
-3.88041722617709
30
0
41
1
10
89.1115838508196
20
-4.08156693444707
30
0
41
1
10
89.8109546151773
20
-4.21359468766144
30
0
41
1
10
90.5103921447064
20
-4.34342222517839
30
0
0
SPLINE
5
187
100
AcDbEntity
8
1
62
256
6
ByLayer
370
18
48
1
60
0
100
AcDbSpline
70
4
71
3
72
16
73
12
40
0
40
0
40
0
40
0
40
0.125
40
0.125
40
0.25
40
0.25
40
0.5
40
0.5
40
0.75
40
0.75
40
1
40
1
40
1
40
1
41
1
10
14.4959003610416
20
-4.2656399809118
30
0
41
1
10
14.5464521209725
20
-4.32463585418415
30
0
41
1
10
14.6008079965224
20
-4.38014043299466
30
0
41
1
10
14.717483651492
20
-4.48454996465713
30
0
41
1
10
14.780122892237
20
-4.53366930675671
30
0
41
1
10
14.9784488780173
20
-4.67010888516367
30
0
41
1
10
15.12242598321
20
-4.74549079951191
30
0
41
1
10
15.4334489409227
20
-4.87201966373212
30
0
41
1
10
15.6019937106539
20
-4.92328997463488
30
0
41
1
10
15.9491097582315
20
-5.00270841667614
30
0
41
1
10
16.1288906443185
20
-5.03156066655342
30
0
41
1
10
16.314961803508
20
-5.05132308560479
30
0
0
SPLINE
5
188
100
AcDbEntity
8
1
62
256
6
ByLayer
370
18
48
1
60
0
100
AcDbSpline
70
4
71
3
72
14
73
10
40
0
40
0
40
0
40
0
40
0.431679279085603
40
0.431679279085603
40
0.647518918628405
40
0.647518918628405
40
0.863358558171206
40
0.863358558171206
40
1
40
1
40
1
40
1
41
1
10
20.554999999951
20
-8.12671141728089
30
0
41
1
10
20.554999999951
20
-8.0907197391839
30
0
41
1
10
20.5686029123275
20
-8.04968089647289
30
0
41
1
10
20.6099875250199
20
-7.98119789756936
30
0
41
1
10
20.6272946572394
20
-7.95721557872841
30
0
41
1
10
20.6692338746911
20
-7.9070490905242
30
0
41
1
10
20.6939880579104
20
-7.88074988472576
30
0
41
1
10
20.7402964335328
20
-7.83654228017329
30
0
41
1
10
20.7596064962257
20
-7.81916193201107
30
0
41
1
10
20.7802734856458
20
-7.8015746763769
30
0
0
SPLINE
5
189
100
AcDbEntity
8
1
62
256
6
ByLayer
370
18
48
1
60
0
100
AcDbSpline
70
4
71
3
72
8
73
4
40
0
40
0
40
0
40
0
40
1
40
1
40
1
40
1
41
1
10
94.1488894353139
20
4.13842026525569
30
0
41
1
10
94.1488894353016
20
4.13698763770125
30
0
41
1
10
94.1488894352892
20
4.13555503618147
30
0
41
1
10
94.1488894352768
20
4.1341224606964
30
0
0
SPLINE
5
18A
100
AcDbEntity
8
1
62
256
6
ByLayer
370
18
48
1
60
0
100
AcDbSpline
70
4
71
3
72
8
73
4
40
0
40
0
40
0
40
0
40
1
40
1
40
1
40
1
41
1
10
101.2
20
3.69999999999999
30
0
41
1
10
101.266661335269
20
3.69999999999999
30
0
41
1
10
101.333328105293
20
3.69999999999999
30
0
41
1
10
101.4
20
3.69999999999999
30
0
0
SPLINE
5
18B
100
AcDbEntity
8
1
62
256
6
ByLayer
370
13
48
1
60
0
100
AcDbSpline
70
4
71
3
72
16
73
12
40
0
40
0
40
0
40
0
40
0.250000000000003
40
0.250000000000003
40
0.500000000000006
40
0.500000000000006
40
0.750000000000009
40
0.750000000000009
40
0.875000000000005
40
0.875000000000005
40
1
40
1
40
1
40
1
41
1
10
111.045232917407
20
0.873879153777665
30
0
41
1
10
110.880861675401
20
0.985794607999111
30
0
41
1
10
110.722901941422
20
1.10992862487771
30
0
41
1
10
110.42290855481
20
1.38631351895759
30
0
41
1
10
110.280723882045
20
1.53858356414094
30
0
41
1
10
110.016880287713
20
1.88007202485784
30
0
41
1
10
109.898448655887
20
2.06520765322992
30
0
41
1
10
109.747667053466
20
2.36975373568251
30
0
41
1
10
109.702368519548
20
2.47501329955927
30
0
41
1
10
109.623781369475
20
2.69138767560943
30
0
41
1
10
109.590289972251
20
2.80282310002724
30
0
41
1
10
109.563386236899
20
2.917947814949
30
0
0
SPLINE
5
18C
100
AcDbEntity
8
1
62
256
6
ByLayer
370
18
48
1
60
0
100
AcDbSpline
70
4
71
3
72
16
73
12
40
0
40
0
40
0
40
0
40
0.125000000000007
40
0.125000000000007
40
0.250000000000014
40
0.250000000000014
40
0.500000000000009
40
0.500000000000009
40
0.750000000000005
40
0.750000000000005
40
1
40
1
40
1
40
1
41
1
10
107.661279331148
20
1.23987176539896
30
0
41
1
10
107.720975062127
20
1.30200660224881
30
0
41
1
10
107.783676210234
20
1.36605761305617
30
0
41
1
10
107.915166594543
20
1.49783729280526
30
0
41
1
10
107.983769667513
20
1.56536322709567
30
0
41
1
10
108.19534702735
20
1.76980145811154
30
0
41
1
10
108.34505912776
20
1.90954926562526
30
0
41
1
10
108.661614533825
20
2.19418836631803
30
0
41
1
10
108.829461592774
20
2.34005513541604
30
0
41
1
10
109.174742030305
20
2.62670888501739
30
0
41
1
10
109.353165892599
20
2.76780041606833
30
0
41
1
10
109.536270553033
20
2.90728770474243
30
0
0
SPLINE
5
18D
100
AcDbEntity
8
SK1
62
256
6
ByLayer
370
18
48
1
60
0
100
AcDbSpline
70
4
71
3
72
68
73
64
40
0
40
0
40
0
40
0
40
0.0312499999999982
40
0.0312499999999982
40
0.046874999999998
40
0.046874999999998
40
0.0624999999999977
40
0.0624999999999977
40
0.0937499999999984
40
0.0937499999999984
40
0.109374999999998
40
0.109374999999998
40
0.124999999999998
40
0.124999999999998
40
0.156249999999998
40
0.156249999999998
40
0.187499999999998
40
0.187499999999998
40
0.249999999999999
40
0.249999999999999
40
0.281249999999999
40
0.281249999999999
40
0.312499999999999
40
0.312499999999999
40
0.374999999999999
40
0.374999999999999
40
0.4375
40
0.4375
40
0.46875
40
0.46875
40
0.5
40
0.5
40
0.562500000000001
40
0.562500000000001
40
0.593750000000001
40
0.593750000000001
40
0.625000000000002
40
0.625000000000002
40
0.687500000000002
40
0.687500000000002
40
0.718750000000002
40
0.718750000000002
40
0.750000000000002
40
0.750000000000002
40
0.812500000000003
40
0.812500000000003
40
0.828125000000002
40
0.828125000000002
40
0.843750000000002
40
0.843750000000002
40
0.875000000000001
40
0.875000000000001
40
0.890625000000001
40
0.890625000000001
40
0.90625
40
0.90625
40
0.9375
40
0.9375
40
0.953125
40
0.953125
40
0.96875
40
0.96875
40
1
40
1
40
1
40
1
41
1
10
-6.49999999999997
20
-5.92285193129121
30
0
41
1
10
-6.33154885731426
20
-5.92285193129121
30
0
41
1
10
-6.16649999660115
20
-5.90852604500998
30
0
41
1
10
-5.92366326713301
20
-5.86686260898483
30
0
41
1
10
-5.84351218542494
20
-5.84958640234103
30
0
41
1
10
-5.68479121831058
20
-5.80819694942255
30
0
41
1
10
-5.60578401963124
20
-5.78390949286566
30
0
41
1
10
-5.3755130586502
20
-5.70210438657261
30
0
41
1
10
-5.23040150353978
20
-5.63576008503463
30
0
41
1
10
-5.02388324980436
20
-5.51973068369702
30
0
41
1
10
-4.95691280564995
20
-5.47828589310487
30
0
41
1
10
-4.82656726111881
20
-5.38990512469778
30
0
41
1
10
-4.76344028356681
20
-5.34310223508027
30
0
41
1
10
-4.58224967992157
20
-5.19718203491362
30
0
41
1
10
-4.4712463803283
20
-5.09185813583983
30
0
41
1
10
-4.26572109507714
20
-4.86653318538578
30
0
41
1
10
-4.17106100725223
20
-4.74628556066756
30
0
41
1
10
-3.90966183539743
20
-4.36608870861338
30
0
41
1
10
-3.77014210155204
20
-4.09476951345764
30
0
41
1
10
-3.59557537485898
20
-3.66576223197777
30
0
41
1
10
-3.5432995036517
20
-3.51904778819107
30
0
41
1
10
-3.44875657999086
20
-3.21863479224763
30
0
41
1
10
-3.40657854218807
20
-3.06504134305448
30
0
41
1
10
-3.29445638220415
20
-2.60174839854997
30
0
41
1
10
-3.23788522203446
20
-2.28706820500588
30
0
41
1
10
-3.15042654850248
20
-1.64741181110122
30
0
41
1
10
-3.11961625583052
20
-1.3224279248613
30
0
41
1
10
-3.08903905021938
20
-0.827525561443139
30
0
41
1
10
-3.08151487535059
20
-0.661401493425245
30
0
41
1
10
-3.07158509981957
20
-0.330650499762129
30
0
41
1
10
-3.06914530935046
20
-0.16552511220226
30
0
41
1
10
-3.06912617883177
20
0.329115176337979
30
0
41
1
10
-3.07870960481154
20
0.657899259477574
30
0
41
1
10
-3.10886367144548
20
1.14957645984728
30
0
41
1
10
-3.12157829085984
20
1.31321779556742
30
0
41
1
10
-3.15301382663836
20
1.63997635400699
30
0
41
1
10
-3.17179577364169
20
1.80342210057933
30
0
41
1
10
-3.23780365003569
20
2.28702529223114
30
0
41
1
10
-3.29461555444993
20
2.60220286550486
30
0
41
1
10
-3.40608209976551
20
3.06309107495616
30
0
41
1
10
-3.44765477000672
20
3.21473113100859
30
0
41
1
10
-3.54149844295813
20
3.51371523568545
30
0
41
1
10
-3.59395060131033
20
3.66152013709689
30
0
41
1
10
-3.76989582752731
20
4.0946551835724
30
0
41
1
10
-3.90997479382301
20
4.36619025332939
30
0
41
1
10
-4.12575070768349
20
4.68046987077338
30
0
41
1
10
-4.17097066502382
20
4.74205687033935
30
0
41
1
10
-4.26600396832356
20
4.86254130681425
30
0
41
1
10
-4.31584034796885
20
4.92142662494757
30
0
41
1
10
-4.47077510964746
20
5.09144820130692
30
0
41
1
10
-4.58188757681339
20
5.19679902870035
30
0
41
1
10
-4.76206916652859
20
5.34204312553621
30
0
41
1
10
-4.82438853365235
20
5.38832209237188
30
0
41
1
10
-4.95395839245683
20
5.4763842939077
30
0
41
1
10
-5.02155288993663
20
5.5183478507837
30
0
41
1
10
-5.22922143177559
20
5.63524112422331
30
0
41
1
10
-5.37427976784161
20
5.70150323577644
30
0
41
1
10
-5.60262391278792
20
5.78286634969527
30
0
41
1
10
-5.68053816211989
20
5.80696924836369
30
0
41
1
10
-5.84021859914242
20
5.84884069926673
30
0
41
1
10
-5.92144228459227
20
5.86643352567475
30
0
41
1
10
-6.1660744508427
20
5.90854767474224
30
0
41
1
10
-6.33170271013566
20
5.92285193129121
30
0
41
1
10
-6.49999999999997
20
5.92285193129121
30
0
0
SPLINE
5
18E
100
AcDbEntity
8
SK1
62
256
6
ByLayer
370
18
48
1
60
0
100
AcDbSpline
70
4
71
3
72
68
73
64
40
0
40
0
40
0
40
0
40
0.0312500000000002
40
0.0312500000000002
40
0.0468750000000003
40
0.0468750000000003
40
0.0625000000000005
40
0.0625000000000005
40
0.0937500000000007
40
0.0937500000000007
40
0.109375000000001
40
0.109375000000001
40
0.125000000000001
40
0.125000000000001
40
0.156250000000001
40
0.156250000000001
40
0.187500000000001
40
0.187500000000001
40
0.25
40
0.25
40
0.28125
40
0.28125
40
0.3125
40
0.3125
40
0.375
40
0.375
40
0.4375
40
0.4375
40
0.46875
40
0.46875
40
0.5
40
0.5
40
0.5625
40
0.5625
40
0.59375
40
0.59375
40
0.625
40
0.625
40
0.6875
40
0.6875
40
0.71875
40
0.71875
40
0.75
40
0.75
40
0.8125
40
0.8125
40
0.828125
40
0.828125
40
0.84375
40
0.84375
40
0.875
40
0.875
40
0.890625
40
0.890625
40
0.90625
40
0.90625
40
0.9375
40
0.9375
40
0.953125
40
0.953125
40
0.96875
40
0.96875
40
1
40
1
40
1
40
1
41
1
10
-43.5
20
5.92285193129121
30
0
41
1
10
-43.6684511426857
20
5.92285193129121
30
0
41
1
10
-43.8335000033988
20
5.90852604500998
30
0
41
1
10
-44.076336732867
20
5.86686260898486
30
0
41
1
10
-44.156487814575
20
5.84958640234103
30
0
41
1
10
-44.3152087816894
20
5.80819694942255
30
0
41
1
10
-44.3942159803687
20
5.78390949286566
30
0
41
1
10
-44.6244869413498
20
5.70210438657261
30
0
41
1
10
-44.7695984964602
20
5.63576008503463
30
0
41
1
10
-44.9761167501956
20
5.51973068369705
30
0
41
1
10
-45.04308719435
20
5.47828589310487
30
0
41
1
10
-45.1734327388812
20
5.38990512469778
30
0
41
1
10
-45.2365597164332
20
5.34310223508027
30
0
41
1
10
-45.4177503200784
20
5.19718203491362
30
0
41
1
10
-45.5287536196717
20
5.09185813583983
30
0
41
1
10
-45.7342789049228
20
4.86653318538578
30
0
41
1
10
-45.8289389927477
20
4.74628556066759
30
0
41
1
10
-46.0903381646025
20
4.36608870861338
30
0
41
1
10
-46.2298578984479
20
4.09476951345764
30
0
41
1
10
-46.404424625141
20
3.66576223197777
30
0
41
1
10
-46.4567004963483
20
3.51904778819107
30
0
41
1
10
-46.5512434200091
20
3.21863479224763
30
0
41
1
10
-46.5934214578119
20
3.06504134305448
30
0
41
1
10
-46.7055436177958
20
2.60174839855
30
0
41
1
10
-46.7621147779655
20
2.28706820500588
30
0
41
1
10
-46.8495734514975
20
1.64741181110122
30
0
41
1
10
-46.8803837441695
20
1.3224279248613
30
0
41
1
10
-46.9109609497806
20
0.827525561443139
30
0
41
1
10
-46.9184851246494
20
0.661401493425245
30
0
41
1
10
-46.9284149001804
20
0.330650499762129
30
0
41
1
10
-46.9308546906495
20
0.16552511220226
30
0
41
1
10
-46.9308738211682
20
-0.329115176337979
30
0
41
1
10
-46.9212903951884
20
-0.657899259477574
30
0
41
1
10
-46.8911363285545
20
-1.14957645984728
30
0
41
1
10
-46.8784217091401
20
-1.31321779556742
30
0
41
1
10
-46.8469861733616
20
-1.63997635400699
30
0
41
1
10
-46.8282042263583
20
-1.80342210057933
30
0
41
1
10
-46.7621963499643
20
-2.28702529223114
30
0
41
1
10
-46.70538444555
20
-2.60220286550486
30
0
41
1
10
-46.5939179002344
20
-3.06309107495616
30
0
41
1
10
-46.5523452299933
20
-3.21473113100859
30
0
41
1
10
-46.4585015570418
20
-3.51371523568545
30
0
41
1
10
-46.4060493986897
20
-3.66152013709689
30
0
41
1
10
-46.2301041724726
20
-4.0946551835724
30
0
41
1
10
-46.090025206177
20
-4.36619025332939
30
0
41
1
10
-45.8742492923164
20
-4.68046987077341
30
0
41
1
10
-45.8290293349762
20
-4.74205687033935
30
0
41
1
10
-45.7339960316764
20
-4.86254130681425
30
0
41
1
10
-45.6841596520312
20
-4.92142662494757
30
0
41
1
10
-45.5292248903525
20
-5.09144820130692
30
0
41
1
10
-45.4181124231866
20
-5.19679902870035
30
0
41
1
10
-45.2379308334714
20
-5.34204312553621
30
0
41
1
10
-45.1756114663476
20
-5.38832209237188
30
0
41
1
10
-45.0460416075432
20
-5.4763842939077
30
0
41
1
10
-44.9784471100634
20
-5.5183478507837
30
0
41
1
10
-44.7707785682244
20
-5.63524112422331
30
0
41
1
10
-44.6257202321584
20
-5.70150323577644
30
0
41
1
10
-44.3973760872121
20
-5.78286634969527
30
0
41
1
10
-44.3194618378801
20
-5.80696924836371
30
0
41
1
10
-44.1597814008575
20
-5.84884069926673
30
0
41
1
10
-44.0785577154077
20
-5.86643352567475
30
0
41
1
10
-43.8339255491573
20
-5.90854767474224
30
0
41
1
10
-43.6682972898643
20
-5.92285193129121
30
0
41
1
10
-43.5
20
-5.92285193129121
30
0
0
LINE
5
70
100
AcDbEntity
8
81
62
256
6
ByLayer
370
18
48
1
60
0
100
AcDbLine
10
101.4
20
0
30
0
11
106.4
21
0
31
0
39
0
210
0
220
0
230
1
0
LINE
5
71
100
AcDbEntity
8
1
62
256
6
ByLayer
370
18
48
1
60
0
100
AcDbLine
10
0.2
20
12.5
30
0
11
0
21
12.3
31
0
39
0
210
0
220
0
230
1
0
LINE
5
73
100
AcDbEntity
8
1
62
256
6
ByLayer
370
18
48
1
60
0
100
AcDbLine
10
0
20
-12.3
30
0
11
0.2
21
-12.5
31
0
39
0
210
0
220
0
230
1
0
LINE
5
74
100
AcDbEntity
8
1
62
256
6
ByLayer
370
18
48
1
60
0
100
AcDbLine
10
5.0007
20
12.5
30
0
11
0.2
21
12.5
31
0
39
0
210
0
220
0
230
1
0
LINE
5
75
100
AcDbEntity
8
1
62
256
6
ByLayer
370
18
48
1
60
0
100
AcDbLine
10
0.2
20
-12.5
30
0
11
5.0007
21
-12.5
31
0
39
0
210
0
220
0
230
1
0
LINE
5
76
100
AcDbEntity
8
SK1
62
256
6
ByLayer
370
18
48
1
60
0
100
AcDbLine
10
-48.6
20
-9.99675
30
0
11
-48.449692
21
-9.875033
31
0
39
0
210
0
220
0
230
1
0
LINE
5
78
100
AcDbEntity
8
SK1
62
256
6
ByLayer
370
18
48
1
60
0
100
AcDbLine
10
-48.449692
20
9.875033
30
0
11
-48.6
21
9.99675
31
0
39
0
210
0
220
0
230
1
0
LINE
5
79
100
AcDbEntity
8
SK1
62
256
6
ByLayer
370
18
48
1
60
0
100
AcDbLine
10
-48.6
20
9.99675
30
0
11
-49
21
9.99675
31
0
39
0
210
0
220
0
230
1
0
LINE
5
7A
100
AcDbEntity
8
SK1
62
256
6
ByLayer
370
18
48
1
60
0
100
AcDbLine
10
-49
20
-9.99675
30
0
11
-48.6
21
-9.99675
31
0
39
0
210
0
220
0
230
1
0
LINE
5
7B
100
AcDbEntity
8
SK1
62
256
6
ByLayer
370
18
48
1
60
0
100
AcDbLine
10
-1.6
20
-9.99675
30
0
11
-1.144243
21
-9.784227
31
0
39
0
210
0
220
0
230
1
0
LINE
5
7C
100
AcDbEntity
8
SK1
62
256
6
ByLayer
370
18
48
1
60
0
100
AcDbLine
10
-1.144243
20
9.784227
30
0
11
-1.6
21
9.99675
31
0
39
0
210
0
220
0
230
1
0
LINE
5
7D
100
AcDbEntity
8
SK1
62
256
6
ByLayer
370
18
48
1
60
0
100
AcDbLine
10
-47.3
20
9.99675
30
0
11
-47.426311
21
9.888738
31
0
39
0
210
0
220
0
230
1
0
LINE
5
7E
100
AcDbEntity
8
SK1
62
256
6
ByLayer
370
18
48
1
60
0
100
AcDbLine
10
-47.426311
20
-9.888738
30
0
11
-47.3
21
-9.99675
31
0
39
0
210
0
220
0
230
1
0
LINE
5
7F
100
AcDbEntity
8
SK1
62
256
6
ByLayer
370
18
48
1
60
0
100
AcDbLine
10
-1.6
20
9.99675
30
0
11
-47.3
21
9.99675
31
0
39
0
210
0
220
0
230
1
0
LINE
5
80
100
AcDbEntity
8
SK1
62
256
6
ByLayer
370
18
48
1
60
0
100
AcDbLine
10
-47.3
20
-9.99675
30
0
11
-1.6
21
-9.99675
31
0
39
0
210
0
220
0
230
1
0
LINE
5
81
100
AcDbEntity
8
SK1
62
256
6
ByLayer
370
18
48
1
60
0
100
AcDbLine
10
-49
20
9.99675
30
0
11
-50
21
8.99675
31
0
39
0
210
0
220
0
230
1
0
LINE
5
82
100
AcDbEntity
8
SK1
62
256
6
ByLayer
370
18
48
1
60
0
100
AcDbLine
10
-50
20
-8.99675
30
0
11
-49
21
-9.99675
31
0
39
0
210
0
220
0
230
1
0
LINE
5
83
100
AcDbEntity
8
SK1
62
256
6
ByLayer
370
18
48
1
60
0
100
AcDbLine
10
-0.975195
20
-9.74675
30
0
11
-0.15
21
-9.74675
31
0
39
0
210
0
220
0
230
1
0
LINE
5
84
100
AcDbEntity
8
SK1
62
256
6
ByLayer
370
18
48
1
60
0
100
AcDbLine
10
-0.15
20
9.74675
30
0
11
-0.975195
21
9.74675
31
0
39
0
210
0
220
0
230
1
0
LINE
5
85
100
AcDbEntity
8
1
62
256
6
ByLayer
370
18
48
1
60
0
100
AcDbLine
10
13.396261
20
-8.956957
30
0
11
13.486098
21
-8.913033
31
0
39
0
210
0
220
0
230
1
0
LINE
5
86
100
AcDbEntity
8
1
62
256
6
ByLayer
370
18
48
1
60
0
100
AcDbLine
10
13.486098
20
8.913033
30
0
11
13.396261
21
8.956957
31
0
39
0
210
0
220
0
230
1
0
LINE
5
87
100
AcDbEntity
8
1
62
256
6
ByLayer
370
18
48
1
60
0
100
AcDbLine
10
17
20
-8.1
30
0
11
18.7
21
-8.3
31
0
39
0
210
0
220
0
230
1
0
LINE
5
88
100
AcDbEntity
8
1
62
256
6
ByLayer
370
18
48
1
60
0
100
AcDbLine
10
18.7
20
8.3
30
0
11
17
21
8.1
31
0
39
0
210
0
220
0
230
1
0
LINE
5
89
100
AcDbEntity
8
1
62
256
6
ByLayer
370
18
48
1
60
0
100
AcDbLine
10
104.915629
20
8.5
30
0
11
103.398061
21
8.5
31
0
39
0
210
0
220
0
230
1
0
LINE
5
8A
100
AcDbEntity
8
1
62
256
6
ByLayer
370
18
48
1
60
0
100
AcDbLine
10
103.398061
20
-8.5
30
0
11
104.915629
21
-8.5
31
0
39
0
210
0
220
0
230
1
0
LINE
5
8B
100
AcDbEntity
8
1
62
256
6
ByLayer
370
18
48
1
60
0
100
AcDbLine
10
20.555
20
8.3
30
0
11
18.7
21
8.3
31
0
39
0
210
0
220
0
230
1
0
LINE
5
8C
100
AcDbEntity
8
1
62
256
6
ByLayer
370
18
48
1
60
0
100
AcDbLine
10
18.7
20
-8.3
30
0
11
20.555
21
-8.3
31
0
39
0
210
0
220
0
230
1
0
LINE
5
8D
100
AcDbEntity
8
80
62
256
6
ByLayer
370
18
48
1
60
0
100
AcDbLine
10
0
20
0
30
0
11
-5
21
0
31
0
39
0
210
0
220
0
230
1
0
LINE
5
8E
100
AcDbEntity
8
4
62
256
6
ByLayer
370
18
48
0.05
60
0
100
AcDbLine
10
101.4
20
0
30
0
11
0
21
0
31
0
39
0
210
0
220
0
230
1
0
LINE
5
90
100
AcDbEntity
8
SK4
62
256
6
ByLayer
370
18
48
0.05
60
0
100
AcDbLine
10
117
20
0
30
0
11
-55
21
0
31
0
39
0
210
0
220
0
230
1
0
LINE
5
92
100
AcDbEntity
8
1
62
256
6
ByLayer
370
18
48
1
60
0
100
AcDbLine
10
109.261271
20
-4.250661
30
0
11
110.817459
21
-2.500473
31
0
39
0
210
0
220
0
230
1
0
LINE
5
93
100
AcDbEntity
8
1
62
256
6
ByLayer
370
13
48
1
60
0
100
AcDbLine
10
110.817459
20
-2.500473
30
0
11
109.747999
21
-1.768098
31
0
39
0
210
0
220
0
230
1
0
LINE
5
94
100
AcDbEntity
8
1
62
256
6
ByLayer
370
18
48
1
60
0
100
AcDbLine
10
111.92636
20
-0.270735
30
0
11
111.799647
21
-0.806275
31
0
39
0
210
0
220
0
230
1
0
LINE
5
95
100
AcDbEntity
8
1
62
256
6
ByLayer
370
13
48
1
60
0
100
AcDbLine
10
13.486098
20
-4.008342
30
0
11
13.486098
21
-8.913033
31
0
39
0
210
0
220
0
230
1
0
LINE
5
96
100
AcDbEntity
8
1
62
256
6
ByLayer
370
18
48
1
60
0
100
AcDbLine
10
109.124864
20
-8.344914
30
0
11
111.535431
21
-1.348386
31
0
39
0
210
0
220
0
230
1
0
LINE
5
97
100
AcDbEntity
8
1
62
256
6
ByLayer
370
18
48
1
60
0
100
AcDbLine
10
101.3
20
-8.173852
30
0
11
101.3
21
-7.951854
31
0
39
0
210
0
220
0
230
1
0
LINE
5
98
100
AcDbEntity
8
1
62
256
6
ByLayer
370
18
48
1
60
0
100
AcDbLine
10
101.4
20
2.35
30
0
11
101.4
21
2.353055
31
0
39
0
210
0
220
0
230
1
0
LINE
5
99
100
AcDbEntity
8
1
62
256
6
ByLayer
370
18
48
1
60
0
100
AcDbLine
10
107.565647
20
-2.3998
30
0
11
106.568463
21
1.097304
31
0
39
0
210
0
220
0
230
1
0
LINE
5
9A
100
AcDbEntity
8
1
62
256
6
ByLayer
370
13
48
1
60
0
100
AcDbLine
10
109.261271
20
-4.250661
30
0
11
109.747999
21
-1.768098
31
0
39
0
210
0
220
0
230
1
0
LINE
5
9B
100
AcDbEntity
8
1
62
256
6
ByLayer
370
13
48
1
60
0
100
AcDbLine
10
13.396261
20
-3.986969
30
0
11
13.396261
21
-8.956957
31
0
39
0
210
0
220
0
230
1
0
LINE
5
9C
100
AcDbEntity
8
1
62
256
6
ByLayer
370
13
48
1
60
0
100
AcDbLine
10
13.486098
20
8.913033
30
0
11
13.486098
21
5.36906
31
0
39
0
210
0
220
0
230
1
0
LINE
5
9D
100
AcDbEntity
8
1
62
256
6
ByLayer
370
18
48
1
60
0
100
AcDbLine
10
111.169097
20
-2.915111
30
0
11
111.104989
21
-3.105887
31
0
39
0
210
0
220
0
230
1
0
LINE
5
9E
100
AcDbEntity
8
1
62
256
6
ByLayer
370
13
48
1
60
0
100
AcDbLine
10
109.788353
20
2.935399
30
0
11
111.169097
21
2.915111
31
0
39
0
210
0
220
0
230
1
0
LINE
5
9F
100
AcDbEntity
8
1
62
256
6
ByLayer
370
18
48
1
60
0
100
AcDbLine
10
101.37
20
2.231257
30
0
11
101.37
21
2.021735
31
0
39
0
210
0
220
0
230
1
0
LINE
5
A0
100
AcDbEntity
8
1
62
256
6
ByLayer
370
18
48
1
60
0
100
AcDbLine
10
105.147171
20
-0.13576
30
0
11
105.119316
21
-0.151223
31
0
39
0
210
0
220
0
230
1
0
LINE
5
A1
100
AcDbEntity
8
1
62
256
6
ByLayer
370
18
48
1
60
0
100
AcDbLine
10
20.555
20
-8.3
30
0
11
20.555
21
-5.849184
31
0
39
0
210
0
220
0
230
1
0
LINE
5
A2
100
AcDbEntity
8
1
62
256
6
ByLayer
370
18
48
1
60
0
100
AcDbLine
10
94.148889
20
-1.565379
30
0
11
94.148889
21
4.134122
31
0
39
0
210
0
220
0
230
1
0
LINE
5
A3
100
AcDbEntity
8
1
62
256
6
ByLayer
370
13
48
1
60
0
100
AcDbLine
10
13.396261
20
8.956957
30
0
11
13.396261
21
5.358742
31
0
39
0
210
0
220
0
230
1
0
LINE
5
A4
100
AcDbEntity
8
1
62
256
6
ByLayer
370
18
48
1
60
0
100
AcDbLine
10
0
20
12.3
30
0
11
0
21
-12.3
31
0
39
0
210
0
220
0
230
1
0
LINE
5
A5
100
AcDbEntity
8
1
62
256
6
ByLayer
370
18
48
1
60
0
100
AcDbLine
10
17
20
8.1
30
0
11
17
21
5.842607
31
0
39
0
210
0
220
0
230
1
0
LINE
5
A6
100
AcDbEntity
8
1
62
256
6
ByLayer
370
18
48
1
60
0
100
AcDbLine
10
111.985261
20
0.064755
30
0
11
112
21
0
31
0
39
0
210
0
220
0
230
1
0
LINE
5
A7
100
AcDbEntity
8
1
62
256
6
ByLayer
370
13
48
1
60
0
100
AcDbLine
10
101.4
20
-8.017184
30
0
11
101.537361
21
-8.065476
31
0
39
0
210
0
220
0
230
1
0
LINE
5
A8
100
AcDbEntity
8
1
62
256
6
ByLayer
370
13
48
1
60
0
100
AcDbLine
10
111.92636
20
0.270735
30
0
11
111.068053
21
0.858511
31
0
39
0
210
0
220
0
230
1
0
LINE
5
A9
100
AcDbEntity
8
1
62
256
6
ByLayer
370
13
48
1
60
0
100
AcDbLine
10
5.0007
20
0
30
0
11
5.0007
21
-12.5
31
0
39
0
210
0
220
0
230
1
0
LINE
5
AA
100
AcDbEntity
8
1
62
256
6
ByLayer
370
13
48
1
60
0
100
AcDbLine
10
5.0007
20
12.5
30
0
11
5.0007
21
0
31
0
39
0
210
0
220
0
230
1
0
LINE
5
AB
100
AcDbEntity
8
1
62
256
6
ByLayer
370
18
48
1
60
0
100
AcDbLine
10
102.483483
20
-7.640104
30
0
11
107.001059
21
-7.640104
31
0
39
0
210
0
220
0
230
1
0
LINE
5
AC
100
AcDbEntity
8
1
62
256
6
ByLayer
370
18
48
1
60
0
100
AcDbLine
10
101.4
20
-7.992648
30
0
11
101.4
21
-7.888118
31
0
39
0
210
0
220
0
230
1
0
LINE
5
AD
100
AcDbEntity
8
1
62
256
6
ByLayer
370
18
48
1
60
0
100
AcDbLine
10
107.562286
20
-7.151331
30
0
11
107.565798
21
-7.144828
31
0
39
0
210
0
220
0
230
1
0
LINE
5
AE
100
AcDbEntity
8
1
62
256
6
ByLayer
370
13
48
1
60
0
100
AcDbLine
10
105.808905
20
-2.630678
30
0
11
102.407043
21
-2.465445
31
0
39
0
210
0
220
0
230
1
0
LINE
5
AF
100
AcDbEntity
8
1
62
256
6
ByLayer
370
18
48
1
60
0
100
AcDbLine
10
101.4
20
-7.856049
30
0
11
101.4
21
-7.888118
31
0
39
0
210
0
220
0
230
1
0
LINE
5
B0
100
AcDbEntity
8
1
62
256
6
ByLayer
370
18
48
1
60
0
100
AcDbLine
10
112
20
0
30
0
11
111.985261
21
-0.064755
31
0
39
0
210
0
220
0
230
1
0
LINE
5
B1
100
AcDbEntity
8
1
62
256
6
ByLayer
370
13
48
1
60
0
100
AcDbLine
10
101.2
20
2.7
30
0
11
101.406275
21
2.7
31
0
39
0
210
0
220
0
230
1
0
LINE
5
B2
100
AcDbEntity
8
1
62
256
6
ByLayer
370
18
48
1
60
0
100
AcDbLine
10
101.4
20
-8.251618
30
0
11
101.4
21
-8.017184
31
0
39
0
210
0
220
0
230
1
0
LINE
5
B3
100
AcDbEntity
8
1
62
256
6
ByLayer
370
18
48
1
60
0
100
AcDbLine
10
101.4
20
-8.017184
30
0
11
101.4
21
-7.992648
31
0
39
0
210
0
220
0
230
1
0
LINE
5
B4
100
AcDbEntity
8
1
62
256
6
ByLayer
370
13
48
1
60
0
100
AcDbLine
10
102.160297
20
-2.62413
30
0
11
102.407043
21
-2.465445
31
0
39
0
210
0
220
0
230
1
0
LINE
5
B5
100
AcDbEntity
8
1
62
256
6
ByLayer
370
13
48
1
60
0
100
AcDbLine
10
111.068053
20
0.858511
30
0
11
111.799647
21
0.806275
31
0
39
0
210
0
220
0
230
1
0
LINE
5
B6
100
AcDbEntity
8
1
62
256
6
ByLayer
370
18
48
1
60
0
100
AcDbLine
10
106.0671
20
-2.3998
30
0
11
107.565647
21
-2.3998
31
0
39
0
210
0
220
0
230
1
0
LINE
5
B7
100
AcDbEntity
8
1
62
256
6
ByLayer
370
18
48
1
60
0
100
AcDbLine
10
111.169097
20
2.915111
30
0
11
111.104989
21
3.105887
31
0
39
0
210
0
220
0
230
1
0
LINE
5
B8
100
AcDbEntity
8
1
62
256
6
ByLayer
370
18
48
1
60
0
100
AcDbLine
10
17
20
-8.1
30
0
11
17
21
-5.130651
31
0
39
0
210
0
220
0
230
1
0
LINE
5
B9
100
AcDbEntity
8
1
62
256
6
ByLayer
370
18
48
1
60
0
100
AcDbLine
10
18.7
20
-8.3
30
0
11
18.7
21
-5.588597
31
0
39
0
210
0
220
0
230
1
0
LINE
5
BA
100
AcDbEntity
8
1
62
256
6
ByLayer
370
18
48
1
60
0
100
AcDbLine
10
20.555
20
8.3
30
0
11
20.555
21
8.126711
31
0
39
0
210
0
220
0
230
1
0
LINE
5
BB
100
AcDbEntity
8
1
62
256
6
ByLayer
370
13
48
1
60
0
100
AcDbLine
10
111.020301
20
0.818327
30
0
11
111.950747
21
0.181149
31
0
39
0
210
0
220
0
230
1
0
LINE
5
BC
100
AcDbEntity
8
1
62
256
6
ByLayer
370
18
48
1
60
0
100
AcDbLine
10
18.7
20
8.3
30
0
11
18.7
21
5.99082
31
0
39
0
210
0
220
0
230
1
0
LINE
5
BD
100
AcDbEntity
8
1
62
256
6
ByLayer
370
18
48
1
60
0
100
AcDbLine
10
107.001059
20
-7.640104
30
0
11
107.007688
21
-7.637245
31
0
39
0
210
0
220
0
230
1
0
LINE
5
BE
100
AcDbEntity
8
1
62
256
6
ByLayer
370
18
48
1
60
0
100
AcDbLine
10
107.565798
20
-2.401407
30
0
11
107.565647
21
-2.3998
31
0
39
0
210
0
220
0
230
1
0
LINE
5
BF
100
AcDbEntity
8
1
62
256
6
ByLayer
370
18
48
1
60
0
100
AcDbLine
10
0.2
20
0
30
0
11
0.2
21
-12.5
31
0
39
0
210
0
220
0
230
1
0
LINE
5
C0
100
AcDbEntity
8
1
62
256
6
ByLayer
370
18
48
1
60
0
100
AcDbLine
10
0.2
20
12.5
30
0
11
0.2
21
0
31
0
39
0
210
0
220
0
230
1
0
LINE
5
C1
100
AcDbEntity
8
1
62
256
6
ByLayer
370
18
48
1
60
0
100
AcDbLine
10
111.908034
20
-0.266926
30
0
11
112
21
0
31
0
39
0
210
0
220
0
230
1
0
LINE
5
C2
100
AcDbEntity
8
1
62
256
6
ByLayer
370
18
48
1
60
0
100
AcDbLine
10
101.949495
20
-8.390371
30
0
11
101.949495
21
-8.473852
31
0
39
0
210
0
220
0
230
1
0
LINE
5
C3
100
AcDbEntity
8
1
62
256
6
ByLayer
370
18
48
1
60
0
100
AcDbLine
10
107.565798
20
-7.144828
30
0
11
107.565798
21
-2.401407
31
0
39
0
210
0
220
0
230
1
0
LINE
5
C4
100
AcDbEntity
8
1
62
256
6
ByLayer
370
18
48
1
60
0
100
AcDbLine
10
107.991622
20
-7.737111
30
0
11
109.22695
21
-4.289233
31
0
39
0
210
0
220
0
230
1
0
LINE
5
C5
100
AcDbEntity
8
1
62
256
6
ByLayer
370
18
48
1
60
0
100
AcDbLine
10
106.931148
20
-6.510178
30
0
11
107.565798
21
-7.144828
31
0
39
0
210
0
220
0
230
1
0
LINE
5
C6
100
AcDbEntity
8
1
62
256
6
ByLayer
370
18
48
1
60
0
100
AcDbLine
10
102.3
20
-7.73711
30
0
11
102.3
21
-7.625831
31
0
39
0
210
0
220
0
230
1
0
LINE
5
C7
100
AcDbEntity
8
1
62
256
6
ByLayer
370
18
48
1
60
0
100
AcDbLine
10
102.3
20
1.635693
30
0
11
102.3
21
1.886972
31
0
39
0
210
0
220
0
230
1
0
LINE
5
C8
100
AcDbEntity
8
1
62
256
6
ByLayer
370
18
48
1
60
0
100
AcDbLine
10
107.007688
20
-7.637245
30
0
11
107.562286
21
-7.151331
31
0
39
0
210
0
220
0
230
1
0
LINE
5
C9
100
AcDbEntity
8
1
62
256
6
ByLayer
370
18
48
1
60
0
100
AcDbLine
10
111.92636
20
0.270735
30
0
11
111.799647
21
0.806275
31
0
39
0
210
0
220
0
230
1
0
LINE
5
CA
100
AcDbEntity
8
SK1
62
256
6
ByLayer
370
13
48
1
60
0
100
AcDbLine
10
-0.15
20
0
30
0
11
-0.15
21
-9.74675
31
0
39
0
210
0
220
0
230
1
0
LINE
5
CB
100
AcDbEntity
8
SK1
62
256
6
ByLayer
370
13
48
1
60
0
100
AcDbLine
10
-0.15
20
9.74675
30
0
11
-0.15
21
0
31
0
39
0
210
0
220
0
230
1
0
LINE
5
CC
100
AcDbEntity
8
SK1
62
256
6
ByLayer
370
18
48
1
60
0
100
AcDbLine
10
-1.6
20
-9.99675
30
0
11
-1.6
21
0
31
0
39
0
210
0
220
0
230
1
0
LINE
5
CD
100
AcDbEntity
8
SK1
62
256
6
ByLayer
370
18
48
1
60
0
100
AcDbLine
10
-1.6
20
0
30
0
11
-1.6
21
9.99675
31
0
39
0
210
0
220
0
230
1
0
LINE
5
CE
100
AcDbEntity
8
SK1
62
256
6
ByLayer
370
13
48
1
60
0
100
AcDbLine
10
-48.449692
20
-9.875033
30
0
11
-48.449692
21
0
31
0
39
0
210
0
220
0
230
1
0
LINE
5
CF
100
AcDbEntity
8
SK1
62
256
6
ByLayer
370
13
48
1
60
0
100
AcDbLine
10
-48.449692
20
0
30
0
11
-48.449692
21
9.875033
31
0
39
0
210
0
220
0
230
1
0
LINE
5
D0
100
AcDbEntity
8
SK1
62
256
6
ByLayer
370
13
48
1
60
0
100
AcDbLine
10
-6.5
20
-5.922852
30
0
11
-6.5
21
5.922852
31
0
39
0
210
0
220
0
230
1
0
LINE
5
D1
100
AcDbEntity
8
SK1
62
256
6
ByLayer
370
13
48
1
60
0
100
AcDbLine
10
-47.426311
20
-9.888738
30
0
11
-47.426311
21
0
31
0
39
0
210
0
220
0
230
1
0
LINE
5
D2
100
AcDbEntity
8
SK1
62
256
6
ByLayer
370
13
48
1
60
0
100
AcDbLine
10
-47.426311
20
0
30
0
11
-47.426311
21
9.888738
31
0
39
0
210
0
220
0
230
1
0
LINE
5
D3
100
AcDbEntity
8
SK1
62
256
6
ByLayer
370
18
48
1
60
0
100
AcDbLine
10
-43.5
20
-5.922852
30
0
11
-6.5
21
-5.922852
31
0
39
0
210
0
220
0
230
1
0
LINE
5
D4
100
AcDbEntity
8
SK1
62
256
6
ByLayer
370
18
48
1
60
0
100
AcDbLine
10
-47.3
20
0
30
0
11
-47.3
21
-9.99675
31
0
39
0
210
0
220
0
230
1
0
LINE
5
D5
100
AcDbEntity
8
SK1
62
256
6
ByLayer
370
18
48
1
60
0
100
AcDbLine
10
-47.3
20
9.99675
30
0
11
-47.3
21
0
31
0
39
0
210
0
220
0
230
1
0
LINE
5
D6
100
AcDbEntity
8
SK1
62
256
6
ByLayer
370
18
48
1
60
0
100
AcDbLine
10
-49
20
0
30
0
11
-49
21
-9.99675
31
0
39
0
210
0
220
0
230
1
0
LINE
5
D7
100
AcDbEntity
8
SK1
62
256
6
ByLayer
370
18
48
1
60
0
100
AcDbLine
10
-49
20
9.99675
30
0
11
-49
21
0
31
0
39
0
210
0
220
0
230
1
0
LINE
5
D8
100
AcDbEntity
8
SK1
62
256
6
ByLayer
370
13
48
1
60
0
100
AcDbLine
10
-43.5
20
5.922852
30
0
11
-43.5
21
-5.922852
31
0
39
0
210
0
220
0
230
1
0
LINE
5
D9
100
AcDbEntity
8
SK1
62
256
6
ByLayer
370
13
48
1
60
0
100
AcDbLine
10
-0.975195
20
9.74675
30
0
11
-0.975195
21
-9.74675
31
0
39
0
210
0
220
0
230
1
0
LINE
5
DA
100
AcDbEntity
8
SK1
62
256
6
ByLayer
370
13
48
1
60
0
100
AcDbLine
10
-1.144243
20
0
30
0
11
-1.144243
21
-9.784227
31
0
39
0
210
0
220
0
230
1
0
LINE
5
DB
100
AcDbEntity
8
SK1
62
256
6
ByLayer
370
13
48
1
60
0
100
AcDbLine
10
-1.144243
20
9.784227
30
0
11
-1.144243
21
0
31
0
39
0
210
0
220
0
230
1
0
LINE
5
DC
100
AcDbEntity
8
SK1
62
256
6
ByLayer
370
18
48
1
60
0
100
AcDbLine
10
-48.6
20
-9.99675
30
0
11
-48.6
21
9.99675
31
0
39
0
210
0
220
0
230
1
0
LINE
5
DD
100
AcDbEntity
8
SK1
62
256
6
ByLayer
370
18
48
1
60
0
100
AcDbLine
10
-50
20
0
30
0
11
-50
21
-8.99675
31
0
39
0
210
0
220
0
230
1
0
LINE
5
DE
100
AcDbEntity
8
SK1
62
256
6
ByLayer
370
18
48
1
60
0
100
AcDbLine
10
-50
20
8.99675
30
0
11
-50
21
0
31
0
39
0
210
0
220
0
230
1
0
LINE
5
DF
100
AcDbEntity
8
SK1
62
256
6
ByLayer
370
18
48
1
60
0
100
AcDbLine
10
-6.5
20
5.922852
30
0
11
-43.5
21
5.922852
31
0
39
0
210
0
220
0
230
1
0
MTEXT
5
18F
100
AcDbEntity
8
SK6
62
256
6
ByLayer
370
13
48
1
60
0
100
AcDbMText
10
12.351137
20
30.875134
30
0
210
0
220
0
230
1
1
\W0.7057;870-1700-17L20-5
40
3.5
41
0
44
1.084337
50
0
71
7
72
5
7
iso_b_vert
0
DIMENSION
5
19D
100
AcDbEntity
8
2
62
256
6
ByLayer
370
13
48
1
60
0
100
AcDbDimension
2
DimnDraft3D1
10
17
20
-21.5
30
0
11
64.5
21
-21.5
31
0
70
32
71
5
72
1
41
1
210
0
220
0
230
1
3
Standard
100
AcDbAlignedDimension
13
112
23
-1.5875
33
0
14
17
24
-10.0875
34
0
50
0
100
AcDbRotatedDimension
1001
ACAD
1000
DSTYLE
1002
{
1070
   279
1070
     0
1070
   172
1070
     1
1070
   173
1070
     1
1070
   340
1005
190
1070
   271
1070
     1
1070
   272
1070
     2
1070
    77
1070
     1
1070
    73
1070
     0
1070
   171
1070
     3
1070
   274
1070
     4
1070
   177
1070
     7
1070
   176
1070
     7
1070
   178
1070
     7
1070
    48
1040
-0.005
1070
    41
1041
3.5
1070
   147
1041
1.5
1070
    42
1041
1.5875
1070
    44
1041
2.0
1070
   140
1041
3.0
1070
   343
1005
0
1070
   344
1005
0
1002
}
0
DIMENSION
5
1A7
100
AcDbEntity
8
2
62
256
6
ByLayer
370
13
48
1
60
0
100
AcDbDimension
2
DimnDraft3D2
10
19.285
20
15.5
30
0
11
65.6425
21
15.5
31
0
70
32
71
5
72
1
41
1
210
0
220
0
230
1
3
Standard
100
AcDbAlignedDimension
13
112
23
1.5875
33
0
14
19.285
24
10.0875
34
0
50
0
100
AcDbRotatedDimension
1001
ACAD
1000
DSTYLE
1002
{
1070
   279
1070
     0
1070
   172
1070
     1
1070
   173
1070
     1
1070
   340
1005
190
1070
   271
1070
     1
1070
   272
1070
     2
1070
    77
1070
     1
1070
    73
1070
     0
1070
   171
1070
     3
1070
   274
1070
     4
1070
   177
1070
     7
1070
   176
1070
     7
1070
   178
1070
     7
1070
    48
1040
-0.005
1070
    41
1041
3.5
1070
   147
1041
1.5
1070
    42
1041
1.5875
1070
    44
1041
2.0
1070
   140
1041
3.0
1070
   343
1005
0
1070
   344
1005
0
1002
}
0
DIMENSION
5
1B2
100
AcDbEntity
8
SK2
62
256
6
ByLayer
370
13
48
1
60
0
100
AcDbDimension
2
DimnDraft3D3
10
0
20
-33
30
0
11
-25
21
-33
31
0
70
32
71
5
72
1
41
1
210
0
220
0
230
1
3
Standard
100
AcDbAlignedDimension
13
-50
23
-11.5875
33
0
14
0
24
-14.0875
34
0
50
0
100
AcDbRotatedDimension
1001
ACAD
1000
DSTYLE
1002
{
1070
   279
1070
     0
1070
   172
1070
     1
1070
   173
1070
     1
1070
   340
1005
190
1070
   271
1070
     1
1070
   272
1070
     2
1070
    77
1070
     1
1070
    73
1070
     0
1070
   171
1070
     3
1070
   274
1070
     4
1070
   177
1070
     7
1070
   176
1070
     7
1070
   178
1070
     7
1070
    48
1040
-0.005
1070
    41
1041
3.5
1070
   147
1041
1.5
1070
    42
1041
1.5875
1070
    44
1041
2.0
1070
   140
1041
3.0
1070
   343
1005
0
1070
   344
1005
0
1002
}
0
DIMENSION
5
1BC
100
AcDbEntity
8
2
62
256
6
ByLayer
370
13
48
1
60
0
100
AcDbDimension
2
DimnDraft3D4
10
112
20
-33
30
0
11
56
21
-33
31
0
70
32
71
5
72
1
41
1
210
0
220
0
230
1
3
Standard
100
AcDbAlignedDimension
13
0
23
-14.0875
33
0
14
112
24
-1.5875
34
0
50
0
100
AcDbRotatedDimension
1001
ACAD
1000
DSTYLE
1002
{
1070
   279
1070
     0
1070
   172
1070
     1
1070
   173
1070
     1
1070
   340
1005
190
1070
   271
1070
     1
1070
   272
1070
     2
1070
    77
1070
     1
1070
    73
1070
     0
1070
   171
1070
     3
1070
   274
1070
     4
1070
   177
1070
     7
1070
   176
1070
     7
1070
   178
1070
     7
1070
    48
1040
-0.005
1070
    41
1041
3.5
1070
   147
1041
1.5
1070
    42
1041
1.5875
1070
    44
1041
2.0
1070
   140
1041
3.0
1070
   343
1005
0
1070
   344
1005
0
1002
}
0
DIMENSION
5
1C7
100
AcDbEntity
8
SK2
62
256
6
ByLayer
370
13
48
1
60
0
100
AcDbDimension
2
DimnDraft3D5
10
-58.25
20
-10
30
0
11
-58.5
21
-0.520456
31
0
70
33
71
5
72
1
41
1
210
0
220
0
230
1
3
Standard
100
AcDbAlignedDimension
13
-51.5875
23
10
33
0
14
-51.5875
24
-10
34
0
1001
ACAD
1000
DSTYLE
1002
{
1070
   279
1070
     0
1070
    74
1070
     0
1070
   173
1070
     1
1070
   340
1005
190
1070
   271
1070
     1
1070
   272
1070
     2
1070
    77
1070
     1
1070
    73
1070
     0
1070
   171
1070
     3
1070
   274
1070
     4
1070
   177
1070
     7
1070
   176
1070
     7
1070
   178
1070
     7
1070
    48
1040
-0.005
1070
    41
1041
3.5
1070
   147
1041
1.5
1070
    42
1041
1.5875
1070
    44
1041
2.0
1070
   140
1041
3.0
1070
   343
1005
0
1070
   344
1005
0
1002
}
0
ENDSEC
0
SECTION
2
OBJECTS
0
DICTIONARY
5
232
330
0
100
AcDbDictionary
280
0
281
1
3
ACAD_GROUP
350
233
3
ACAD_MLINESTYLE
350
234
0
DICTIONARY
5
233
330
0
100
AcDbDictionary
280
0
281
1
0
DICTIONARY
5
234
330
0
100
AcDbDictionary
280
0
281
1
3
Standard
350
18
0
MLINESTYLE
5
18
330
234
100
AcDbMlineStyle
2
Standard
70
0
3

62
256
51
90
52
90
71
2
49
-0.5
62
256
6
ByLayer
49
0.5
62
256
6
ByLayer
0
RASTERVARIABLES
5
220
330

100
AcDbRasterVariables
90
0
70
1
71
1
72
1
0
ENDSEC
0
EOF
