0
SECTION
2
HEADER
9
$ACADVER
1
AC1015
9
$DWGCODEPAGE
3
ANSI_1252
9
$HANDSEED
5
245
9
$ANGBASE
50
0
9
$ANGDIR
70
0
9
$ATTMODE
70
1
9
$AUNITS
70
0
9
$AUPREC
70
0
9
$CECOLOR
62
256
9
$CELTSCALE
40
1
9
$CELTYPE
6
ByLayer
9
$CELWEIGHT
370
18
9
$CLAYER
8
0
9
$CMLJUST
70
0
9
$CMLSCALE
40
1
9
$CMLSTYLE
2
Standard
9
$DIMSTYLE
2
Standard
9
$TEXTSIZE
40
0.2
9
$TEXTSTYLE
7
Standard
9
$LUNITS
70
2
9
$LUPREC
70
4
9
$EXTNAMES
290
1
9
$INSUNITS
70
4
9
$LTSCALE
40
1
9
$LWDISPLAY
290
1
9
$PDMODE
70
0
9
$PDSIZE
40
0
9
$PLINEGEN
70
0
0
ENDSEC
0
SECTION
2
CLASSES
0
CLASS
1
RASTERVARIABLES
2
AcDbRasterVariables
3
ISM
90
0
280
0
281
0
0
ENDSEC
0
SECTION
2
TABLES
0
TABLE
2
VPORT
5
23b
100
AcDbSymbolTable
0
VPORT
5
1
100
AcDbSymbolTableRecord
100
AcDbViewportTableRecord
2
*Active
70
0
10
0
20
0
11
1
21
1
12
-1
22
1
13
0
23
0
14
0.5
24
0.5
15
10
25
10
16
0
26
0
36
1
17
0
27
0
37
0
0
ENDTAB
0
TABLE
2
LTYPE
5
23c
100
AcDbSymbolTable
0
LTYPE
5
14
100
AcDbSymbolTableRecord
100
AcDbLinetypeTableRecord
70
0
2
ByBlock
3

72
65
73
0
40
0
0
LTYPE
5
15
100
AcDbSymbolTableRecord
100
AcDbLinetypeTableRecord
70
0
2
ByLayer
3

72
65
73
0
40
0
0
LTYPE
5
16
100
AcDbSymbolTableRecord
100
AcDbLinetypeTableRecord
70
0
2
CONTINUOUS
3
Solid line
72
65
73
0
40
0
0
LTYPE
5
6A
100
AcDbSymbolTableRecord
100
AcDbLinetypeTableRecord
70
0
2
CENTER
3
____ _ ____ _ ____ _ ____
72
65
73
4
40
47.5
49
22
74
0
49
-8.5
74
0
49
8.5
74
0
49
-8.5
74
0
0
LTYPE
5
6B
100
AcDbSymbolTableRecord
100
AcDbLinetypeTableRecord
70
0
2
DASHED
3
__ __ __ __ __ __ __ __ __
72
65
73
2
40
25.72
49
12.86
74
0
49
-12.86
74
0
0
ENDTAB
0
TABLE
2
LAYER
5
23d
100
AcDbSymbolTable
0
LAYER
5
10
100
AcDbSymbolTableRecord
100
AcDbLayerTableRecord
2
0
70
0
62
7
6
CONTINUOUS
290
1
370
-3
390
0
0
LAYER
5
6D
100
AcDbSymbolTableRecord
100
AcDbLayerTableRecord
2
80
70
0
62
-6
6
CONTINUOUS
290
1
370
-3
390
0
0
LAYER
5
6F
100
AcDbSymbolTableRecord
100
AcDbLayerTableRecord
2
81
70
0
62
-3
6
CONTINUOUS
290
1
370
-3
390
0
0
LAYER
5
72
100
AcDbSymbolTableRecord
100
AcDbLayerTableRecord
2
1
70
0
62
4
6
CONTINUOUS
290
1
370
-3
390
0
0
LAYER
5
8D
100
AcDbSymbolTableRecord
100
AcDbLayerTableRecord
2
4
70
0
62
-2
6
CENTER
290
1
370
-3
390
0
0
LAYER
5
19B
100
AcDbSymbolTableRecord
100
AcDbLayerTableRecord
2
2
70
0
62
7
6
CONTINUOUS
290
1
370
-3
390
0
0
LAYER
5
227
100
AcDbSymbolTableRecord
100
AcDbLayerTableRecord
2
SK1
70
0
62
4
6
CONTINUOUS
290
1
370
-3
390
0
0
LAYER
5
228
100
AcDbSymbolTableRecord
100
AcDbLayerTableRecord
2
SK4
70
0
62
2
6
CENTER
290
1
370
-3
390
0
0
LAYER
5
229
100
AcDbSymbolTableRecord
100
AcDbLayerTableRecord
2
SK6
70
0
62
5
6
CONTINUOUS
290
1
370
-3
390
0
0
LAYER
5
22a
100
AcDbSymbolTableRecord
100
AcDbLayerTableRecord
2
SK2
70
0
62
7
6
CONTINUOUS
290
1
370
-3
390
0
0
ENDTAB
0
TABLE
2
STYLE
5
23e
100
AcDbSymbolTable
0
STYLE
5
11
100
AcDbSymbolTableRecord
100
AcDbTextStyleTableRecord
2
Standard
3
txt
70
0
71
0
40
0
41
1
42
0
50
0
0
STYLE
5
196
100
AcDbSymbolTableRecord
100
AcDbTextStyleTableRecord
2
iso_b_vert
3
simplex.shx
70
0
71
0
40
0
41
1
42
0
50
0
0
STYLE
5
197
100
AcDbSymbolTableRecord
100
AcDbTextStyleTableRecord
2
DWGDirectTextStyle
3
simplex
70
0
71
0
40
0
41
1
42
0
50
0
0
ENDTAB
0
TABLE
2
DIMSTYLE
5
23f
100
AcDbSymbolTable
100
AcDbDimStyleTable
0
DIMSTYLE
105
27
100
AcDbSymbolTableRecord
100
AcDbDimStyleTableRecord
2
Standard
70
0
3
<>
41
0.18
42
0.0625
44
0.18
140
0.18
147
0.09
73
0
74
0
77
1
271
2
275
0
278
52
280
0
340
11
0
ENDTAB
0
TABLE
2
VIEW
5
240
100
AcDbSymbolTable
0
ENDTAB
0
TABLE
2
UCS
5
241
100
AcDbSymbolTable
0
ENDTAB
0
TABLE
2
APPID
5
242
100
AcDbSymbolTable
0
APPID
5
12
100
AcDbSymbolTableRecord
100
AcDbRegAppTableRecord
2
ACAD
70
0
0
ENDTAB
0
TABLE
2
BLOCK_RECORD
5
243
100
AcDbSymbolTable
0
BLOCK_RECORD
5
1F
100
AcDbSymbolTableRecord
100
AcDbBlockTableRecord
2
*Model_Space
340
0
70
0
0
BLOCK_RECORD
5
1B
100
AcDbSymbolTableRecord
100
AcDbBlockTableRecord
2
*Paper_Space
340
0
70
0
0
BLOCK_RECORD
5
23
100
AcDbSymbolTableRecord
100
AcDbBlockTableRecord
2
*Paper_Space0
340
0
70
0
0
BLOCK_RECORD
5
199
100
AcDbSymbolTableRecord
100
AcDbBlockTableRecord
2
DimnDraft3D1
340
0
70
0
0
BLOCK_RECORD
5
1A4
100
AcDbSymbolTableRecord
100
AcDbBlockTableRecord
2
DimnDraft3D2
340
0
70
0
0
BLOCK_RECORD
5
1AE
100
AcDbSymbolTableRecord
100
AcDbBlockTableRecord
2
DimnDraft3D3
340
0
70
0
0
BLOCK_RECORD
5
1B9
100
AcDbSymbolTableRecord
100
AcDbBlockTableRecord
2
DimnDraft3D4
340
0
70
0
0
BLOCK_RECORD
5
1C3
100
AcDbSymbolTableRecord
100
AcDbBlockTableRecord
2
DimnDraft3D5
340
0
70
0
0
ENDTAB
0
ENDSEC
0
SECTION
2
BLOCKS
0
BLOCK
5
20
100
AcDbEntity
8
0
100
AcDbBlockBegin
2
*Model_Space
70
0
10
0
20
0
30
0
3
*Model_Space
0
ENDBLK
5
21
100
AcDbEntity
8
0
100
AcDbBlockEnd
0
BLOCK
5
1C
100
AcDbEntity
8
0
100
AcDbBlockBegin
2
*Paper_Space
70
0
10
0
20
0
30
0
3
*Paper_Space
0
ENDBLK
5
1D
100
AcDbEntity
8
0
100
AcDbBlockEnd
0
BLOCK
5
24
100
AcDbEntity
8
0
100
AcDbBlockBegin
2
*Paper_Space0
70
0
10
0
20
0
30
0
3
*Paper_Space0
0
ENDBLK
5
25
100
AcDbEntity
8
0
100
AcDbBlockEnd
0
BLOCK
5
1A1
100
AcDbEntity
8
0
100
AcDbBlockBegin
2
DimnDraft3D1
70
0
10
0
20
0
30
0
3
DimnDraft3D1
0
MTEXT
5
19A
100
AcDbEntity
8
2
62
256
6
ByLayer
370
13
48
1
60
0
100
AcDbMText
10
83.200572
20
-20.249886
30
0
210
0
220
0
230
1
1
\W0.6487;141.0
40
3
41
0
44
1.084337
50
0
71
7
72
5
7
iso_b_vert
0
LINE
5
19C
100
AcDbEntity
8
2
62
256
6
ByLayer
370
13
48
1
60
0
100
AcDbLine
10
157
20
-1.5875
30
0
11
157
21
-23
31
0
39
0
210
0
220
0
230
1
0
LINE
5
19D
100
AcDbEntity
8
2
62
256
6
ByLayer
370
13
48
1
60
0
100
AcDbLine
10
16
20
-9.5875
30
0
11
16
21
-23
31
0
39
0
210
0
220
0
230
1
0
LINE
5
19E
100
AcDbEntity
8
2
62
256
6
ByLayer
370
13
48
1
60
0
100
AcDbLine
10
157
20
-21
30
0
11
16
21
-21
31
0
39
0
210
0
220
0
230
1
0
SOLID
5
19F
100
AcDbEntity
8
2
62
256
6
ByLayer
370
13
48
1
60
0
100
AcDbTrace
10
157
20
-21
30
0
11
153.500002
21
-21.460784
31
0
12
153.499998
22
-20.539216
32
0
13
157
23
-21
33
0
39
0
210
0
220
0
230
1
0
SOLID
5
1A0
100
AcDbEntity
8
2
62
256
6
ByLayer
370
13
48
1
60
0
100
AcDbTrace
10
16
20
-21
30
0
11
19.499998
21
-20.539216
31
0
12
19.500002
22
-21.460784
32
0
13
16
23
-21
33
0
39
0
210
0
220
0
230
1
0
ENDBLK
5
1A2
100
AcDbEntity
8
0
100
AcDbBlockEnd
0
BLOCK
5
1AB
100
AcDbEntity
8
0
100
AcDbBlockBegin
2
DimnDraft3D2
70
0
10
0
20
0
30
0
3
DimnDraft3D2
0
MTEXT
5
1A5
100
AcDbEntity
8
2
62
256
6
ByLayer
370
13
48
1
60
0
100
AcDbMText
10
84.202072
20
15.750114
30
0
210
0
220
0
230
1
1
\W0.6864;138.6
40
3
41
0
44
1.084337
50
0
71
7
72
5
7
iso_b_vert
0
LINE
5
1A6
100
AcDbEntity
8
2
62
256
6
ByLayer
370
13
48
1
60
0
100
AcDbLine
10
157
20
1.5875
30
0
11
157
21
17
31
0
39
0
210
0
220
0
230
1
0
LINE
5
1A7
100
AcDbEntity
8
2
62
256
6
ByLayer
370
13
48
1
60
0
100
AcDbLine
10
18.437
20
9.5875
30
0
11
18.437
21
17
31
0
39
0
210
0
220
0
230
1
0
LINE
5
1A8
100
AcDbEntity
8
2
62
256
6
ByLayer
370
13
48
1
60
0
100
AcDbLine
10
157
20
15
30
0
11
18.437
21
15
31
0
39
0
210
0
220
0
230
1
0
SOLID
5
1A9
100
AcDbEntity
8
2
62
256
6
ByLayer
370
13
48
1
60
0
100
AcDbTrace
10
157
20
15
30
0
11
153.500002
21
14.539216
31
0
12
153.499998
22
15.460784
32
0
13
157
23
15
33
0
39
0
210
0
220
0
230
1
0
SOLID
5
1AA
100
AcDbEntity
8
2
62
256
6
ByLayer
370
13
48
1
60
0
100
AcDbTrace
10
18.437
20
15
30
0
11
21.936998
21
15.460784
31
0
12
21.937002
22
14.539216
32
0
13
18.437
23
15
33
0
39
0
210
0
220
0
230
1
0
ENDBLK
5
1AC
100
AcDbEntity
8
0
100
AcDbBlockEnd
0
BLOCK
5
1B6
100
AcDbEntity
8
0
100
AcDbBlockBegin
2
DimnDraft3D3
70
0
10
0
20
0
30
0
3
DimnDraft3D3
0
MTEXT
5
1AF
100
AcDbEntity
8
SK2
62
256
6
ByLayer
370
13
48
1
60
0
100
AcDbMText
10
-27.770456
20
-32.249886
30
0
210
0
220
0
230
1
1
\W0.7346;50.0
40
3
41
0
44
1.084337
50
0
71
7
72
5
7
iso_b_vert
0
LINE
5
1B1
100
AcDbEntity
8
SK2
62
256
6
ByLayer
370
13
48
1
60
0
100
AcDbLine
10
-50
20
-11.5875
30
0
11
-50
21
-35
31
0
39
0
210
0
220
0
230
1
0
LINE
5
1B2
100
AcDbEntity
8
SK2
62
256
6
ByLayer
370
13
48
1
60
0
100
AcDbLine
10
0
20
-14.0875
30
0
11
0
21
-35
31
0
39
0
210
0
220
0
230
1
0
LINE
5
1B3
100
AcDbEntity
8
SK2
62
256
6
ByLayer
370
13
48
1
60
0
100
AcDbLine
10
-50
20
-33
30
0
11
0
21
-33
31
0
39
0
210
0
220
0
230
1
0
SOLID
5
1B4
100
AcDbEntity
8
SK2
62
256
6
ByLayer
370
13
48
1
60
0
100
AcDbTrace
10
-50
20
-33
30
0
11
-46.500002
21
-32.539216
31
0
12
-46.499998
22
-33.460784
32
0
13
-50
23
-33
33
0
39
0
210
0
220
0
230
1
0
SOLID
5
1B5
100
AcDbEntity
8
SK2
62
256
6
ByLayer
370
13
48
1
60
0
100
AcDbTrace
10
0
20
-33
30
0
11
-3.499998
21
-33.460784
31
0
12
-3.500002
22
-32.539216
32
0
13
0
23
-33
33
0
39
0
210
0
220
0
230
1
0
ENDBLK
5
1B7
100
AcDbEntity
8
0
100
AcDbBlockEnd
0
BLOCK
5
1C0
100
AcDbEntity
8
0
100
AcDbBlockBegin
2
DimnDraft3D4
70
0
10
0
20
0
30
0
3
DimnDraft3D4
0
MTEXT
5
1BA
100
AcDbEntity
8
2
62
256
6
ByLayer
370
13
48
1
60
0
100
AcDbMText
10
74.983572
20
-32.249886
30
0
210
0
220
0
230
1
1
\W0.6864;157.0
40
3
41
0
44
1.084337
50
0
71
7
72
5
7
iso_b_vert
0
LINE
5
1BB
100
AcDbEntity
8
2
62
256
6
ByLayer
370
13
48
1
60
0
100
AcDbLine
10
0
20
-14.0875
30
0
11
0
21
-35
31
0
39
0
210
0
220
0
230
1
0
LINE
5
1BC
100
AcDbEntity
8
2
62
256
6
ByLayer
370
13
48
1
60
0
100
AcDbLine
10
157
20
-1.5875
30
0
11
157
21
-35
31
0
39
0
210
0
220
0
230
1
0
LINE
5
1BD
100
AcDbEntity
8
2
62
256
6
ByLayer
370
13
48
1
60
0
100
AcDbLine
10
0
20
-33
30
0
11
157
21
-33
31
0
39
0
210
0
220
0
230
1
0
SOLID
5
1BE
100
AcDbEntity
8
2
62
256
6
ByLayer
370
13
48
1
60
0
100
AcDbTrace
10
0
20
-33
30
0
11
3.499998
21
-32.539216
31
0
12
3.500002
22
-33.460784
32
0
13
0
23
-33
33
0
39
0
210
0
220
0
230
1
0
SOLID
5
1BF
100
AcDbEntity
8
2
62
256
6
ByLayer
370
13
48
1
60
0
100
AcDbTrace
10
157
20
-33
30
0
11
153.500002
21
-33.460784
31
0
12
153.499998
22
-32.539216
32
0
13
157
23
-33
33
0
39
0
210
0
220
0
230
1
0
ENDBLK
5
1C1
100
AcDbEntity
8
0
100
AcDbBlockEnd
0
BLOCK
5
1CB
100
AcDbEntity
8
0
100
AcDbBlockBegin
2
DimnDraft3D5
70
0
10
0
20
0
30
0
3
DimnDraft3D5
0
MTEXT
5
1C4
100
AcDbEntity
8
SK2
62
256
6
ByLayer
370
13
48
1
60
0
100
AcDbMText
10
-57.750114
20
0.229544
30
0
210
0
220
0
230
1
1
\W0.7346;20.0
40
3
41
0
44
1.084337
50
90
71
7
72
5
7
iso_b_vert
0
MTEXT
5
1C5
100
AcDbEntity
8
SK2
62
256
6
ByLayer
370
13
48
1
60
0
100
AcDbMText
10
-57.750114
20
-4.247019
30
0
210
0
220
0
230
1
1
%%c
40
3
41
0
44
1.084337
50
90
71
7
72
5
7
iso_b_vert
0
LINE
5
1C6
100
AcDbEntity
8
SK2
62
256
6
ByLayer
370
13
48
1
60
0
100
AcDbLine
10
-51.5875
20
10
30
0
11
-58.25
21
10
31
0
39
0
210
0
220
0
230
1
0
LINE
5
1C7
100
AcDbEntity
8
SK2
62
256
6
ByLayer
370
13
48
1
60
0
100
AcDbLine
10
-51.5875
20
-10
30
0
11
-58.25
21
-10
31
0
39
0
210
0
220
0
230
1
0
LINE
5
1C8
100
AcDbEntity
8
SK2
62
256
6
ByLayer
370
13
48
1
60
0
100
AcDbLine
10
-56.25
20
10
30
0
11
-56.25
21
-10
31
0
39
0
210
0
220
0
230
1
0
SOLID
5
1C9
100
AcDbEntity
8
SK2
62
256
6
ByLayer
370
13
48
1
60
0
100
AcDbTrace
10
-56.25
20
10
30
0
11
-55.789216
21
6.500002
31
0
12
-56.710784
22
6.499998
32
0
13
-56.25
23
10
33
0
39
0
210
0
220
0
230
1
0
SOLID
5
1CA
100
AcDbEntity
8
SK2
62
256
6
ByLayer
370
13
48
1
60
0
100
AcDbTrace
10
-56.25
20
-10
30
0
11
-56.710784
21
-6.500002
31
0
12
-55.789216
22
-6.499998
32
0
13
-56.25
23
-10
33
0
39
0
210
0
220
0
230
1
0
ENDBLK
5
1CC
100
AcDbEntity
8
0
100
AcDbBlockEnd
0
ENDSEC
0
SECTION
2
ENTITIES
0
ARC
5
D8
100
AcDbEntity
8
SK1
62
256
6
ByLayer
370
18
48
1
60
0
100
AcDbCircle
39
0
10
47.946236
20
-10.49675
30
0
40
0.799999999999998
210
0
220
0
230
-1
100
AcDbArc
50
51
51
130.534532
0
ARC
5
D9
100
AcDbEntity
8
SK1
62
256
6
ByLayer
370
18
48
1
60
0
100
AcDbCircle
39
0
10
0.975195
20
10.14675
30
0
40
0.4
210
0
220
0
230
-1
100
AcDbArc
50
270
51
295
0
ARC
5
DA
100
AcDbEntity
8
SK1
62
256
6
ByLayer
370
18
48
1
60
0
100
AcDbCircle
39
0
10
0.15
20
-10.14675
30
0
40
0.4
210
0
220
0
230
-1
100
AcDbArc
50
90
51
112.024313
0
ARC
5
DB
100
AcDbEntity
8
SK1
62
256
6
ByLayer
370
18
48
1
60
0
100
AcDbCircle
39
0
10
47.946236
20
10.49675
30
0
40
0.799999999999998
210
0
220
0
230
-1
100
AcDbArc
50
229.465468
51
309
0
ARC
5
DC
100
AcDbEntity
8
SK1
62
256
6
ByLayer
370
18
48
1
60
0
100
AcDbCircle
39
0
10
0.975195
20
-10.14675
30
0
40
0.4
210
0
220
0
230
-1
100
AcDbArc
50
65
51
90
0
ARC
5
DD
100
AcDbEntity
8
SK1
62
256
6
ByLayer
370
18
48
1
60
0
100
AcDbCircle
39
0
10
0.15
20
10.14675
30
0
40
0.4
210
0
220
0
230
-1
100
AcDbArc
50
247.975687
51
270
0
ELLIPSE
5
DE
100
AcDbEntity
8
1
62
256
6
ByLayer
370
18
48
1
60
0
100
AcDbEllipse
10
136.77607
20
0.023898
30
0
11
1.25721258671969
21
7.86392761339053
31
0
210
0
220
0
230
1
40
0.327116
41
-2.40910348761411
42
-2.40424501226013
0
ELLIPSE
5
DF
100
AcDbEntity
8
1
62
256
6
ByLayer
370
18
48
1
60
0
100
AcDbEllipse
10
150.951923
20
-1.319195
30
0
11
0.290144988034833
21
-1.01409499121981
31
0
210
0
220
0
230
1
40
0.313216
41
0.0812707445877267
42
-3.06032190900192
0
ELLIPSE
5
E0
100
AcDbEntity
8
1
62
256
6
ByLayer
370
18
48
1
60
0
100
AcDbEllipse
10
162.846983
20
0
30
0
11
10.6449680959289
21
7.21567427345796
31
0
210
0
220
0
230
1
40
0.290406
41
2.88047503037752
42
3.14133805130624
0
ELLIPSE
5
E1
100
AcDbEntity
8
1
62
256
6
ByLayer
370
18
48
1
60
0
100
AcDbEllipse
10
16.598384
20
6.589533
30
0
11
3.73587926189965
21
3.32313197759405
31
0
210
0
220
0
230
1
40
0.022171
41
1.37529506835221
42
-2.52462882929956
0
ELLIPSE
5
E2
100
AcDbEntity
8
1
62
256
6
ByLayer
370
18
48
1
60
0
100
AcDbEllipse
10
131.273382
20
-3E-06
30
0
11
31.4777734851081
21
-7.32569347467013
31
0
210
0
220
0
230
1
40
0.089611
41
-1.42177641465133
42
-1.39043420935532
0
ELLIPSE
5
E3
100
AcDbEntity
8
1
62
256
6
ByLayer
370
18
48
1
60
0
100
AcDbEllipse
10
144.05
20
-3.595732
30
0
11
-1.84999999999999
21
2.26552175457139E-16
31
0
210
0
220
0
230
1
40
0.702153
41
0.794135441577466
42
2.34902745531854
0
ELLIPSE
5
E4
100
AcDbEntity
8
1
62
256
6
ByLayer
370
18
48
1
60
0
100
AcDbEllipse
10
137.72487
20
-80.703096
30
0
11
79.1258678586826
21
-5.96811312551797E-06
31
0
210
0
220
0
230
1
40
0.931411
41
1.44197252714263
42
1.4533063342079
0
ELLIPSE
5
E5
100
AcDbEntity
8
1
62
256
6
ByLayer
370
18
48
1
60
0
100
AcDbEllipse
10
150.006865
20
-1.259691
30
0
11
1.24385062279195
21
0.278562755836922
31
0
210
0
220
0
230
1
40
0.763485
41
1.93501221740184
42
-1.74281074557492
0
ELLIPSE
5
E6
100
AcDbEntity
8
1
62
256
6
ByLayer
370
13
48
1
60
0
100
AcDbEllipse
10
136.4
20
7.584864
30
0
11
3.71882582859684
21
-3.34220502910294
31
0
210
0
220
0
230
1
40
0.108935
41
0.772929693721843
42
0.952656578405906
0
ELLIPSE
5
E7
100
AcDbEntity
8
1
62
256
6
ByLayer
370
18
48
1
60
0
100
AcDbEllipse
10
157
20
0
30
0
11
2.92526845981885
21
8.34774803445791
31
0
210
0
220
0
230
1
40
0.066283
41
-2.86895319308874
42
-2.78209471360951
0
ELLIPSE
5
E8
100
AcDbEntity
8
1
62
256
6
ByLayer
370
18
48
1
60
0
100
AcDbEllipse
10
136.775727
20
-0.026545
30
0
11
1.25701398394529
21
-7.86666703770836
31
0
210
0
220
0
230
1
40
0.327109
41
2.40437904792013
42
2.409236471506
0
ELLIPSE
5
E9
100
AcDbEntity
8
1
62
256
6
ByLayer
370
18
48
1
60
0
100
AcDbEllipse
10
156.969037
20
-0.145538
30
0
11
0.0471810661849724
21
0.151780716588682
31
0
210
0
220
0
230
1
40
0.051964
41
1.76869974246453
42
2.45645363688953
0
ELLIPSE
5
EA
100
AcDbEntity
8
1
62
256
6
ByLayer
370
18
48
1
60
0
100
AcDbEllipse
10
156.969037
20
0.145538
30
0
11
0.047181066027275
21
-0.151780716142907
31
0
210
0
220
0
230
1
40
0.051964
41
-2.45645363648261
42
-1.7686997404483
0
ELLIPSE
5
EB
100
AcDbEntity
8
1
62
256
6
ByLayer
370
18
48
1
60
0
100
AcDbEllipse
10
157
20
-1E-06
30
0
11
2.92526883330046
21
-8.34774917478698
31
0
210
0
220
0
230
1
40
0.066283
41
2.78209473796577
42
2.86895321127624
0
ELLIPSE
5
EC
100
AcDbEntity
8
1
62
256
6
ByLayer
370
18
48
1
60
0
100
AcDbEllipse
10
143.85
20
-3.595732
30
0
11
1.25
21
0
31
0
210
0
220
0
230
1
40
0.702153
41
-2.21619723518148
42
-0.744950439938518
0
POINT
5
6C
100
AcDbEntity
8
80
62
256
6
ByLayer
370
18
48
1
60
0
100
AcDbPoint
10
0
20
0
30
0
39
0
210
0
220
0
230
1
50
360
0
POINT
5
6E
100
AcDbEntity
8
81
62
256
6
ByLayer
370
18
48
1
60
0
100
AcDbPoint
10
147
20
0
30
0
39
0
210
0
220
0
230
1
50
360
0
SPLINE
5
ED
100
AcDbEntity
8
1
62
256
6
ByLayer
370
18
48
1
60
0
100
AcDbSpline
70
4
71
3
72
8
73
4
40
0
40
0
40
0
40
0
40
1
40
1
40
1
40
1
41
1
10
8.99049240799076
20
11.1275515209101
30
0
41
1
10
8.8683409599399
20
11.2111784124761
30
0
41
1
10
8.74435076663204
20
11.2915170095
30
0
41
1
10
8.61819290018013
20
11.3683007833487
30
0
0
SPLINE
5
EE
100
AcDbEntity
8
1
62
256
6
ByLayer
370
18
48
1
60
0
100
AcDbSpline
70
4
71
3
72
11
73
7
40
0
40
0
40
0
40
0
40
0.0650424889120513
40
0.376562157589693
40
0.685726433073863
40
1
40
1
40
1
40
1
41
1
10
7.88633546958849
20
11.7646498769805
30
0
41
1
10
7.82768831140871
20
11.7929898882267
30
0
41
1
10
7.48652713318276
20
11.9537279778043
30
0
41
1
10
6.85050030119177
20
12.2131801819098
30
0
41
1
10
5.93886941432311
20
12.446020123695
30
0
41
1
10
5.31835364418765
20
12.498097750811
30
0
41
1
10
5.00090000000003
20
12.5
30
0
0
SPLINE
5
EF
100
AcDbEntity
8
1
62
256
6
ByLayer
370
18
48
1
60
0
100
AcDbSpline
70
4
71
3
72
34
73
30
40
0
40
0
40
0
40
0
40
0.0148693359370536
40
0.0300883731123595
40
0.0462457827621523
40
0.0639049411684391
40
0.104679291031792
40
0.146752951560498
40
0.189551446398413
40
0.2340632521965
40
0.265999017204496
40
0.301693558057669
40
0.33603737254193
40
0.367476669367047
40
0.396786638031465
40
0.445088518184316
40
0.487670680379261
40
0.531653417744241
40
0.584987811009624
40
0.637204191066715
40
0.706134182044826
40
0.77157239673413
40
0.827494433000636
40
0.855180530202714
40
0.888790435625284
40
0.925122189669162
40
0.957066177979957
40
0.985285318534542
40
1
40
1
40
1
40
1
41
1
10
121.58351565419
20
7.32549854539869
30
0
41
1
10
121.499222011885
20
7.31907836013232
30
0
41
1
10
121.317636652052
20
7.30714455022067
30
0
41
1
10
120.996550697804
20
7.29017760183993
30
0
41
1
10
120.635109311253
20
7.28000768220474
30
0
41
1
10
120.073710937805
20
7.27741456263524
30
0
41
1
10
119.328977743112
20
7.29546778987503
30
0
41
1
10
118.409215081117
20
7.31528569385489
30
0
41
1
10
117.476374148209
20
7.33529153463218
30
0
41
1
10
116.635191521301
20
7.34386521192201
30
0
41
1
10
115.796126995998
20
7.34309570490561
30
0
41
1
10
115.031923231956
20
7.34318956239659
30
0
41
1
10
114.271518400869
20
7.34349529094104
30
0
41
1
10
113.558946884983
20
7.34417997016649
30
0
41
1
10
112.741776212058
20
7.34528504277873
30
0
41
1
10
111.841123820661
20
7.34639359718389
30
0
41
1
10
110.830512236864
20
7.34583724762282
30
0
41
1
10
109.782183861309
20
7.34425655117263
30
0
41
1
10
108.661690745557
20
7.34266118044042
30
0
41
1
10
107.354234728747
20
7.34145347819504
30
0
41
1
10
105.956066302621
20
7.3415588139099
30
0
41
1
10
104.530134449902
20
7.34341012325032
30
0
41
1
10
103.413297760187
20
7.34129292083136
30
0
41
1
10
102.534926950745
20
7.33900621435259
30
0
41
1
10
101.803366445969
20
7.33749747767308
30
0
41
1
10
101.039890612137
20
7.33660022881782
30
0
41
1
10
100.316815349151
20
7.3363919398862
30
0
41
1
10
99.7557051611878
20
7.33669359472793
30
0
41
1
10
99.4340208285852
20
7.33704579548063
30
0
41
1
10
99.3237685744085
20
7.33718855206703
30
0
0
SPLINE
5
F0
100
AcDbEntity
8
1
62
256
6
ByLayer
370
18
48
1
60
0
100
AcDbSpline
70
4
71
3
72
14
73
10
40
0
40
0
40
0
40
0
40
0.116297199110054
40
0.224347627173959
40
0.327229232445763
40
0.430544348511433
40
0.604253242614444
40
0.827972338128702
40
1
40
1
40
1
40
1
41
1
10
149.925657445315
20
-8.1999924869383
30
0
41
1
10
150.073723364107
20
-8.19956659017396
30
0
41
1
10
150.365068969055
20
-8.19875825245936
30
0
41
1
10
150.809577042301
20
-8.19634178496531
30
0
41
1
10
151.244438829385
20
-8.19644462924498
30
0
41
1
10
151.754549392047
20
-8.19930304334494
30
0
41
1
10
152.439635347937
20
-8.19978957837913
30
0
41
1
10
153.221050427631
20
-8.19993343028929
30
0
41
1
10
153.764289563098
20
-8.20000055089625
30
0
41
1
10
154.000563392138
20
-8.20000642639474
30
0
0
SPLINE
5
F1
100
AcDbEntity
8
1
62
256
6
ByLayer
370
18
48
1
60
0
100
AcDbSpline
70
4
71
1
72
4
73
2
40
0
40
0
40
1
40
1
41
1
10
77.5626786399765
20
3.298788794084
30
0
41
1
10
77.2144012121456
20
3.40420041351359
30
0
0
SPLINE
5
F2
100
AcDbEntity
8
1
62
256
6
ByLayer
370
18
48
1
60
0
100
AcDbSpline
70
4
71
2
72
6
73
3
40
0
40
0
40
0
40
1
40
1
40
1
41
1
10
59.5661235562655
20
-2.2437464314512
30
0
41
1
10
59.7501798547794
20
-2.30324239500962
30
0
41
1
10
59.9341253519511
20
-2.36960474078742
30
0
0
SPLINE
5
F3
100
AcDbEntity
8
1
62
256
6
ByLayer
370
18
48
1
60
0
100
AcDbSpline
70
4
71
3
72
35
73
31
40
0
40
0
40
0
40
0
40
0.0082048068263418
40
0.0405530915564766
40
0.0659377988436155
40
0.0892435637590392
40
0.140195406551344
40
0.190149189019938
40
0.219148027867152
40
0.243901509523409
40
0.266949501496593
40
0.288710349615109
40
0.315165445082353
40
0.358713947968581
40
0.408765224827918
40
0.457187093457983
40
0.503808408198169
40
0.548615672554487
40
0.588857805185284
40
0.62245469273586
40
0.649385873403598
40
0.672227969594614
40
0.706224980064577
40
0.748690145278195
40
0.795911669994068
40
0.844558800051445
40
0.891082172435226
40
0.934387258623859
40
0.973000187850915
40
1
40
1
40
1
40
1
41
1
10
54.8810565355044
20
7.3445620957832
30
0
41
1
10
54.8235737375464
20
7.34448997824978
30
0
41
1
10
54.5394207087995
20
7.3442139581083
30
0
41
1
10
54.0751557655151
20
7.34420927269025
30
0
41
1
10
53.5082665488717
20
7.3457780556482
30
0
41
1
10
52.8150327244145
20
7.34729462155812
30
0
41
1
10
51.9410898175465
20
7.34786604682392
30
0
41
1
10
51.0291636641042
20
7.3480819713308
30
0
41
1
10
50.3007141360298
20
7.34762464625661
30
0
41
1
10
49.7613188857197
20
7.34712247981133
30
0
41
1
10
49.2727452492473
20
7.3465880317807
30
0
41
1
10
48.7722226686371
20
7.34600984497999
30
0
41
1
10
48.1277235753548
20
7.34526684397502
30
0
41
1
10
47.2845693121287
20
7.34440331685511
30
0
41
1
10
46.2871575143944
20
7.34374954499683
30
0
41
1
10
45.2680995672745
20
7.34388817276803
30
0
41
1
10
44.2858485591168
20
7.34405677991745
30
0
41
1
10
43.3610810787057
20
7.34271556228688
30
0
41
1
10
42.5278516907197
20
7.34077340310276
30
0
41
1
10
41.8201267981155
20
7.33937951174201
30
0
41
1
10
41.234585249857
20
7.33858493588124
30
0
41
1
10
40.6462211974316
20
7.3380832657582
30
0
41
1
10
39.948761051416
20
7.33792946570335
30
0
41
1
10
39.0800698430606
20
7.33849154661115
30
0
41
1
10
38.1084811490079
20
7.34025046446118
30
0
41
1
10
37.1083928459953
20
7.34279235071932
30
0
41
1
10
36.1358059358693
20
7.34337477694228
30
0
41
1
10
35.2337507774682
20
7.34194783324222
30
0
41
1
10
34.4692088954297
20
7.3404857457142
30
0
41
1
10
34.008062712232
20
7.34001585289801
30
0
41
1
10
33.8187113424967
20
7.33985785625231
30
0
0
SPLINE
5
F4
100
AcDbEntity
8
1
62
256
6
ByLayer
370
18
48
1
60
0
100
AcDbSpline
70
4
71
3
72
35
73
31
40
0
40
0
40
0
40
0
40
0.0162925033787268
40
0.0343652932091397
40
0.0626426590271984
40
0.0946362468493297
40
0.122111448237735
40
0.144084900972761
40
0.162565442091894
40
0.183395304619857
40
0.206743564648287
40
0.241269580501404
40
0.276741788720963
40
0.308152778895071
40
0.342130195422088
40
0.397034167746218
40
0.438767970491878
40
0.481974455447054
40
0.531136452069604
40
0.581616820196537
40
0.642942730455795
40
0.699138886862665
40
0.748709746794215
40
0.8072081343912
40
0.87717623635816
40
0.91162703542724
40
0.94133911131353
40
0.969488612007705
40
0.997219840065348
40
1
40
1
40
1
40
1
41
1
10
91.8107707005491
20
-7.33995340837305
30
0
41
1
10
91.9400395741044
20
-7.339138139553
30
0
41
1
10
92.2214056431019
20
-7.33747194130859
30
0
41
1
10
92.7823456344958
20
-7.33250611495467
30
0
41
1
10
93.4935284148432
20
-7.33348685134877
30
0
41
1
10
94.2722884881885
20
-7.33858531789346
30
0
41
1
10
94.9998997198781
20
-7.34049894629555
30
0
41
1
10
95.6085873455752
20
-7.34144468594724
30
0
41
1
10
96.1610400608033
20
-7.34183898575139
30
0
41
1
10
96.7266045090556
20
-7.34214984129949
30
0
41
1
10
97.4349028946842
20
-7.34138568434426
30
0
41
1
10
98.2773109115528
20
-7.33908697199473
30
0
41
1
10
99.1920038263771
20
-7.33720094251802
30
0
41
1
10
100.101881854438
20
-7.33638321385124
30
0
41
1
10
101.187045947981
20
-7.33654488183666
30
0
41
1
10
102.365318016401
20
-7.33840214546822
30
0
41
1
10
103.626879081936
20
-7.34200661501959
30
0
41
1
10
104.836540436363
20
-7.34311589492671
30
0
41
1
10
106.125214334076
20
-7.34145199781534
30
0
41
1
10
107.577312692791
20
-7.34154221686686
30
0
41
1
10
109.092868070125
20
-7.34312177088228
30
0
41
1
10
110.600236572562
20
-7.34570518135939
30
0
41
1
10
112.081908514449
20
-7.34650961616211
30
0
41
1
10
113.688759769567
20
-7.34380888372533
30
0
41
1
10
115.15556425465
20
-7.3426339851033
30
0
41
1
10
116.371414582219
20
-7.34400972116831
30
0
41
1
10
117.168644961641
20
-7.339624952619
30
0
41
1
10
117.901333334527
20
-7.32628132016961
30
0
41
1
10
118.413728225496
20
-7.31518738785317
30
0
41
1
10
118.681801187282
20
-7.30927671339737
30
0
41
1
10
118.706240345178
20
-7.30873727673733
30
0
0
SPLINE
5
F5
100
AcDbEntity
8
1
62
256
6
ByLayer
370
18
48
1
60
0
100
AcDbSpline
70
4
71
3
72
9
73
5
40
0
40
0
40
0
40
0
40
0.174520121371941
40
1
40
1
40
1
40
1
41
1
10
121.251066563776
20
-7.30393614762161
30
0
41
1
10
121.272011811867
20
-7.30510940946155
30
0
41
1
10
121.390512690109
20
-7.31193599300329
30
0
41
1
10
121.499222011885
20
-7.31907836013235
30
0
41
1
10
121.583515654191
20
-7.32549854539869
30
0
0
SPLINE
5
F6
100
AcDbEntity
8
1
62
256
6
ByLayer
370
18
48
1
60
0
100
AcDbSpline
70
4
71
3
72
11
73
7
40
0
40
0
40
0
40
0
40
0.279608184784432
40
0.555993135672774
40
0.837836493036175
40
1
40
1
40
1
40
1
41
1
10
5.0009
20
-12.5
30
0
41
1
10
5.4051721356341
20
-12.4952849332261
30
0
41
1
10
6.1921804537761
20
-12.4133989192603
30
0
41
1
10
7.33693058797857
20
-12.0414223197733
30
0
41
1
10
8.2613058631398
20
-11.5883870145954
30
0
41
1
10
8.80094572690899
20
-11.2582381257595
30
0
41
1
10
8.99406062603023
20
-11.1301212608568
30
0
0
SPLINE
5
F7
100
AcDbEntity
8
1
62
256
6
ByLayer
370
18
48
1
60
0
100
AcDbSpline
70
4
71
2
72
6
73
3
40
0
40
0
40
0
40
1
40
1
40
1
41
1
10
125.040281354956
20
-2.2421661155737
30
0
41
1
10
125.223966753453
20
-2.30130037021428
30
0
41
1
10
125.408387185207
20
-2.36762135015476
30
0
0
SPLINE
5
F8
100
AcDbEntity
8
1
62
256
6
ByLayer
370
18
48
1
60
0
100
AcDbSpline
70
4
71
1
72
4
73
2
40
0
40
0
40
1
40
1
41
1
10
142.289968306345
20
3.92862505679409
30
0
41
1
10
142.28998682554
20
3.92862946656837
30
0
0
SPLINE
5
F9
100
AcDbEntity
8
1
62
256
6
ByLayer
370
18
48
1
60
0
100
AcDbSpline
70
4
71
3
72
46
73
42
40
0
40
0
40
0
40
0
40
0.028488215924841
40
0.0424497355376832
40
0.0567359534275116
40
0.0795166928160896
40
0.104784460216668
40
0.1326133212579
40
0.163051640839258
40
0.194551099389541
40
0.221672982252956
40
0.247440524436039
40
0.266529710576118
40
0.285306048084868
40
0.309364770711776
40
0.341627901802759
40
0.37645056695561
40
0.41298358811785
40
0.448802359673668
40
0.480981300273547
40
0.506709566400457
40
0.523797385480206
40
0.544067252203958
40
0.56941104929707
40
0.59977871663834
40
0.632773884045905
40
0.659633378140484
40
0.687310191899904
40
0.715798609192624
40
0.744445633530947
40
0.768885388877046
40
0.792737831954378
40
0.813369438915017
40
0.835955628869601
40
0.862818372810583
40
0.896317156526517
40
0.919290335238589
40
0.940446553746829
40
0.960450441397662
40
0.985661307423767
40
1
40
1
40
1
40
1
41
1
10
26.3325474940794
20
-7.33843717143407
30
0
41
1
10
26.5554090710203
20
-7.33595636864462
30
0
41
1
10
26.9104650421058
20
-7.33225685091554
30
0
41
1
10
27.4389574313526
20
-7.32382526950514
30
0
41
1
10
27.9267660184335
20
-7.32257320477578
30
0
41
1
10
28.5228911192016
20
-7.3227512418834
30
0
41
1
10
29.2486775783212
20
-7.32516346840058
30
0
41
1
10
30.0452085690672
20
-7.32854177746316
30
0
41
1
10
30.8976737406149
20
-7.33275598623271
30
0
41
1
10
31.7394857097981
20
-7.33675187408426
30
0
41
1
10
32.5393425193458
20
-7.33866964836596
30
0
41
1
10
33.2229353149667
20
-7.33947117660463
30
0
41
1
10
33.8293828552926
20
-7.33982052179579
30
0
41
1
10
34.4220799933894
20
-7.34044220091408
30
0
41
1
10
35.1400878808764
20
-7.34174901770362
30
0
41
1
10
36.0117997806943
20
-7.34326396272917
30
0
41
1
10
37.0029801679522
20
-7.34301762540886
30
0
41
1
10
38.0281452332674
20
-7.34044769483029
30
0
41
1
10
39.0280306611569
20
-7.3385405057505
30
0
41
1
10
39.9245604505729
20
-7.33792853555249
30
0
41
1
10
40.6419179058043
20
-7.33807750269634
30
0
41
1
10
41.2453670153971
20
-7.33859519585258
30
0
41
1
10
41.8451251808036
20
-7.33941764801574
30
0
41
1
10
42.571884026426
20
-7.34087275746674
30
0
41
1
10
43.4203168873151
20
-7.34284652084784
30
0
41
1
10
44.2833202269882
20
-7.34399020068014
30
0
41
1
10
45.1206047350507
20
-7.34393833625811
30
0
41
1
10
45.9147663118856
20
-7.34375273062196
30
0
41
1
10
46.7260025228881
20
-7.34400915716583
30
0
41
1
10
47.5062365497815
20
-7.34462457562813
30
0
41
1
10
48.2421583184788
20
-7.3453946104112
30
0
41
1
10
48.9014402786228
20
-7.34616130493544
30
0
41
1
10
49.5429979032631
20
-7.34689442684979
30
0
41
1
10
50.2133515077588
20
-7.34757108074314
30
0
41
1
10
51.0067771698543
20
-7.34807469834084
30
0
41
1
10
51.803945511651
20
-7.34795464155761
30
0
41
1
10
52.5463962883448
20
-7.3473448848963
30
0
41
1
10
53.1586723086947
20
-7.34677484315253
30
0
41
1
10
53.7858582364447
20
-7.34474699174535
30
0
41
1
10
54.357722453881
20
-7.34413622453275
30
0
41
1
10
54.735160137244
20
-7.34443479877513
30
0
41
1
10
54.8720830029859
20
-7.3446355039639
30
0
0
SPLINE
5
FA
100
AcDbEntity
8
1
62
256
6
ByLayer
370
18
48
1
60
0
100
AcDbSpline
70
4
71
3
72
9
73
5
40
0
40
0
40
0
40
0
40
0.967885919217622
40
1
40
1
40
1
40
1
41
1
10
154.006943441652
20
8.20006208214431
30
0
41
1
10
153.768421413842
20
8.20006198032121
30
0
41
1
10
153.52226493266
20
8.20002088321692
30
0
41
1
10
153.276241128804
20
8.19997078879484
30
0
41
1
10
153.26834044882
20
8.19996916832497
30
0
0
SPLINE
5
FB
100
AcDbEntity
8
1
62
256
6
ByLayer
370
13
48
1
60
0
100
AcDbSpline
70
4
71
3
72
20
73
16
40
0
40
0
40
0
40
0
40
0.124999999999996
40
0.124999999999996
40
0.249999999999991
40
0.249999999999991
40
0.374999999999987
40
0.374999999999987
40
0.499999999999983
40
0.499999999999983
40
0.749999999999991
40
0.749999999999991
40
0.874999999999996
40
0.874999999999996
40
1
40
1
40
1
40
1
41
1
10
154.679698052715
20
2.70490167632224
30
0
41
1
10
154.704865983507
20
2.59635231311756
30
0
41
1
10
154.736086965403
20
2.49157926697586
30
0
41
1
10
154.80838861641
20
2.2883709225427
30
0
41
1
10
154.849581506765
20
2.18997916263112
30
0
41
1
10
154.941821046259
20
1.9992987595337
30
0
41
1
10
154.992763155547
20
1.9068838067401
30
0
41
1
10
155.101329731391
20
1.7307702785061
30
0
41
1
10
155.159194293322
20
1.64653317589324
30
0
41
1
10
155.342130884143
20
1.40457629059139
30
0
41
1
10
155.474722867452
20
1.25950025298189
30
0
41
1
10
155.686052965408
20
1.06161970580311
30
0
41
1
10
155.758254898392
20
0.999345849017601
30
0
41
1
10
155.905686484782
20
0.881300224121276
30
0
41
1
10
155.980698585767
20
0.825692693377789
30
0
41
1
10
156.0575988436
20
0.7728504156822
30
0
0
SPLINE
5
FC
100
AcDbEntity
8
1
62
256
6
ByLayer
370
18
48
1
60
0
100
AcDbSpline
70
4
71
3
72
8
73
4
40
0
40
0
40
0
40
0
40
1
40
1
40
1
40
1
41
1
10
148.511112580689
20
-8.34989235019827
30
0
41
1
10
148.009792097279
20
-8.16622264547809
30
0
41
1
10
147.506260455545
20
-7.97170405511437
30
0
41
1
10
147
20
-7.76771017285236
30
0
0
SPLINE
5
FD
100
AcDbEntity
8
1
62
256
6
ByLayer
370
13
48
1
60
0
100
AcDbSpline
70
4
71
3
72
8
73
4
40
0
40
0
40
0
40
0
40
1
40
1
40
1
40
1
41
1
10
156.105523311848
20
0.812367772083974
30
0
41
1
10
156.088941965576
20
0.804723761219009
30
0
41
1
10
156.071717922267
20
0.790521232051049
30
0
41
1
10
156.0575988436
20
0.772850415682171
30
0
0
SPLINE
5
FE
100
AcDbEntity
8
1
62
256
6
ByLayer
370
18
48
1
60
0
100
AcDbSpline
70
4
71
3
72
8
73
4
40
0
40
0
40
0
40
0
40
1
40
1
40
1
40
1
41
1
10
147.89
20
-7.61512014616562
30
0
41
1
10
147.908009017115
20
-7.62188457860998
30
0
41
1
10
147.926018015362
20
-7.62864906128561
30
0
41
1
10
147.944026994725
20
-7.63541359423402
30
0
0
SPLINE
5
FF
100
AcDbEntity
8
1
62
256
6
ByLayer
370
18
48
1
60
0
100
AcDbSpline
70
4
71
1
72
4
73
2
40
0
40
0
40
1
40
1
41
1
10
134.864851220723
20
-5.55469300677009
30
0
41
1
10
134.963258124576
20
-5.4230134874137
30
0
0
SPLINE
5
100
100
AcDbEntity
8
1
62
256
6
ByLayer
370
18
48
1
60
0
100
AcDbSpline
70
4
71
3
72
46
73
42
40
0
40
0
40
0
40
0
40
0.0041433871406192
40
0.0041433871406192
40
0.038386473993322
40
0.038386473993322
40
0.0726295608460248
40
0.0726295608460248
40
0.14111573455143
40
0.14111573455143
40
0.175358821404133
40
0.175358821404133
40
0.209601908256836
40
0.209601908256836
40
0.278088081962244
40
0.278088081962244
40
0.312331168814947
40
0.312331168814947
40
0.346574255667651
40
0.346574255667651
40
0.415060429373059
40
0.415060429373059
40
0.449303516225762
40
0.449303516225762
40
0.483546603078465
40
0.483546603078465
40
0.552032776783871
40
0.552032776783871
40
0.620518950489277
40
0.620518950489277
40
0.689005124194684
40
0.689005124194684
40
0.75749129790009
40
0.75749129790009
40
0.825977471605496
40
0.825977471605496
40
0.894463645310902
40
0.894463645310902
40
0.962949819016308
40
0.962949819016308
40
1
40
1
40
1
40
1
41
1
10
70.5051163395002
20
5.30908814667472
30
0
41
1
10
70.5804910462675
20
5.32602793936829
30
0
41
1
10
70.6558695486127
20
5.34287328008224
30
0
41
1
10
71.3542529964314
20
5.49806342359
30
0
41
1
10
71.9777237925131
20
5.6306304299568
30
0
41
1
10
73.2233717234272
20
5.88062346679547
30
0
41
1
10
73.8457505356568
20
5.99807990892367
30
0
41
1
10
75.7125821267398
20
6.32441882356787
30
0
41
1
10
76.9568852025691
20
6.50646172242836
30
0
41
1
10
78.8259986041938
20
6.72678272882837
30
0
41
1
10
79.44973790059
20
6.79198381034774
30
0
41
1
10
80.6961274684074
20
6.90362184665614
30
0
41
1
10
81.3188870275164
20
6.95006416870163
30
0
41
1
10
83.1866748447083
20
7.05956238527421
30
0
41
1
10
84.4313679142541
20
7.09203173516454
30
0
41
1
10
86.2998707356577
20
7.08778128107051
30
0
41
1
10
86.9231928177386
20
7.07804732306329
30
0
41
1
10
88.1689428987813
20
7.0400499818758
30
0
41
1
10
88.7913300151675
20
7.01178278461791
30
0
41
1
10
90.6580445022014
20
6.89771182270982
30
0
41
1
10
91.9020770674704
20
6.78207734548542
30
0
41
1
10
93.770514038994
20
6.55653592516322
30
0
41
1
10
94.3939676333742
20
6.47302164070166
30
0
41
1
10
95.6403759115161
20
6.28869545540212
30
0
41
1
10
96.2631031621594
20
6.18791745540915
30
0
41
1
10
98.130665923372
20
5.85993151533901
30
0
41
1
10
99.3750348474229
20
5.60673709809291
30
0
41
1
10
101.86545648711
20
5.04569054010378
30
0
41
1
10
103.111777619211
20
4.73825898658026
30
0
41
1
10
105.600470622768
20
4.07487493510391
30
0
41
1
10
106.844219489368
20
3.71906461732914
30
0
41
1
10
109.334647250454
20
2.97305827028947
30
0
41
1
10
110.581860566573
20
2.58246640223504
30
0
41
1
10
113.071849723311
20
1.77765258740843
30
0
41
1
10
114.315998847025
20
1.36368805268609
30
0
41
1
10
116.805672841017
20
0.523992185702099
30
0
41
1
10
118.051856271915
20
0.0971050545355467
30
0
41
1
10
120.540363866018
20
-0.75110546314724
30
0
41
1
10
121.783827144123
20
-1.17203288823109
30
0
41
1
10
123.701972984847
20
-1.80709872517815
30
0
41
1
10
124.375951764826
20
-2.02796170156128
30
0
41
1
10
125.049980129255
20
-2.24532341595869
30
0
0
SPLINE
5
101
100
AcDbEntity
8
1
62
256
6
ByLayer
370
18
48
1
60
0
100
AcDbSpline
70
4
71
3
72
10
73
6
40
0
40
0
40
0
40
0
40
0.172596851582454
40
0.598671322666463
40
1
40
1
40
1
40
1
41
1
10
147.00979232515
20
-7.38820307385856
30
0
41
1
10
147.008670485006
20
-7.39073754711569
30
0
41
1
10
147.005096485888
20
-7.39949867268544
30
0
41
1
10
147.00094111369
20
-7.413923347176
30
0
41
1
10
147.000307386775
20
-7.42554506093879
30
0
41
1
10
147
20
-7.43118212797398
30
0
0
SPLINE
5
102
100
AcDbEntity
8
1
62
256
6
ByLayer
370
18
48
1
60
0
100
AcDbSpline
70
4
71
3
72
10
73
6
40
0
40
0
40
0
40
0
40
0.5
40
0.5
40
1
40
1
40
1
40
1
41
1
10
146.904761184426
20
6.66229904719651
30
0
41
1
10
145.677830339257
20
6.62038890169634
30
0
41
1
10
144.450932555825
20
6.53914790673639
30
0
41
1
10
142.004167815314
20
6.28662554095175
30
0
41
1
10
140.783107957792
20
6.11501725689575
30
0
41
1
10
139.560531636853
20
5.90182912949732
30
0
0
SPLINE
5
103
100
AcDbEntity
8
1
62
256
6
ByLayer
370
18
48
1
60
0
100
AcDbSpline
70
4
71
3
72
8
73
4
40
0
40
0
40
0
40
0
40
1
40
1
40
1
40
1
41
1
10
17.6
20
1.29968925417097
30
0
41
1
10
18.2830882750986
20
1.04528017731892
30
0
41
1
10
18.9652203570676
20
0.788502770514043
30
0
41
1
10
19.6469999999943
20
0.530969148814165
30
0
0
SPLINE
5
104
100
AcDbEntity
8
1
62
256
6
ByLayer
370
18
48
1
60
0
100
AcDbSpline
70
4
71
3
72
8
73
4
40
0
40
0
40
0
40
0
40
1
40
1
40
1
40
1
41
1
10
146.8
20
2.53072612928454
30
0
41
1
10
146.655766673503
20
2.54183312627535
30
0
41
1
10
146.511529729965
20
2.55269701951377
30
0
41
1
10
146.367289671509
20
2.56331516302862
30
0
0
SPLINE
5
105
100
AcDbEntity
8
1
62
256
6
ByLayer
370
18
48
1
60
0
100
AcDbSpline
70
4
71
3
72
36
73
32
40
0
40
0
40
0
40
0
40
0.090772931569605
40
0.090772931569605
40
0.18154586313921
40
0.18154586313921
40
0.272318794708815
40
0.272318794708815
40
0.36309172627842
40
0.36309172627842
40
0.453864657848025
40
0.453864657848025
40
0.54463758941763
40
0.54463758941763
40
0.590024055202432
40
0.590024055202432
40
0.635410520987235
40
0.635410520987235
40
0.72618345255684
40
0.72618345255684
40
0.771569918341642
40
0.771569918341642
40
0.816956384126444
40
0.816956384126444
40
0.907729315696047
40
0.907729315696047
40
0.953115781480849
40
0.953115781480849
40
0.99850224726565
40
0.99850224726565
40
1
40
1
40
1
40
1
41
1
10
18.4285110164701
20
7.1688820922221
30
0
41
1
10
19.6720394418761
20
7.19647359440543
30
0
41
1
10
20.9137562989998
20
7.18153316632865
30
0
41
1
10
23.3989838567998
20
7.06744949884865
30
0
41
1
10
24.6427862693358
20
6.96853068555788
30
0
41
1
10
27.1339636381381
20
6.71683083300792
30
0
41
1
10
28.3785018644865
20
6.56251118851168
30
0
41
1
10
30.8676491378132
20
6.18652145027613
30
0
41
1
10
32.112699516703
20
5.96484241618091
30
0
41
1
10
34.6069534442079
20
5.4614680831757
30
0
41
1
10
35.8529802176782
20
5.18093889421729
30
0
41
1
10
38.3435047402731
20
4.56426224340066
30
0
41
1
10
39.5887598285559
20
4.22835527113958
30
0
41
1
10
41.4587367361322
20
3.69373019878913
30
0
41
1
10
42.0821016918663
20
3.51055277410808
30
0
41
1
10
43.3275322693335
20
3.1355116703881
30
0
41
1
10
43.9498769796856
20
2.94357727940457
30
0
41
1
10
45.8168518204133
20
2.35661257568694
30
0
41
1
10
47.0615833262819
20
1.9506255623904
30
0
41
1
10
48.931789743149
20
1.32986255986702
30
0
41
1
10
49.5555661696923
20
1.12090914888825
30
0
41
1
10
50.8017358122766
20
0.700960899292681
30
0
41
1
10
51.4244642462788
20
0.489868623510716
30
0
41
1
10
53.2924087814032
20
-0.144320936108215
30
0
41
1
10
54.5375458727706
20
-0.567856861391164
30
0
41
1
10
56.4071379531119
20
-1.19792832912159
30
0
41
1
10
57.0306520169874
20
-1.40737683685393
30
0
41
1
10
58.2762446755669
20
-1.82195082645475
30
0
41
1
10
58.8986296886299
20
-2.02716391348901
30
0
41
1
10
59.5414859556032
20
-2.23575354877502
30
0
41
1
10
59.5620224696997
20
-2.24241334572326
30
0
41
1
10
59.5825589646799
20
-2.24906936280297
30
0
0
SPLINE
5
106
100
AcDbEntity
8
1
62
256
6
ByLayer
370
18
48
1
60
0
100
AcDbSpline
70
4
71
3
72
8
73
4
40
0
40
0
40
0
40
0
40
1
40
1
40
1
40
1
41
1
10
136.323869758582
20
5.43284088519326
30
0
41
1
10
136.872832409876
20
5.55877208175943
30
0
41
1
10
137.422022981249
20
5.67885085156016
30
0
41
1
10
137.971631051812
20
5.79271628855375
30
0
0
SPLINE
5
107
100
AcDbEntity
8
1
62
256
6
ByLayer
370
18
48
1
60
0
100
AcDbSpline
70
4
71
3
72
26
73
22
40
0
40
0
40
0
40
0
40
0.124999999999995
40
0.124999999999995
40
0.249999999999991
40
0.249999999999991
40
0.312499999999992
40
0.312499999999992
40
0.374999999999992
40
0.374999999999992
40
0.499999999999994
40
0.499999999999994
40
0.562499999999995
40
0.562499999999995
40
0.624999999999996
40
0.624999999999996
40
0.749999999999997
40
0.749999999999997
40
0.874999999999999
40
0.874999999999999
40
1
40
1
40
1
40
1
41
1
10
13.4554166633648
20
4.15137306133545
30
0
41
1
10
13.4895829487496
20
4.03047781702125
30
0
41
1
10
13.5319540328036
20
3.90740770157083
30
0
41
1
10
13.6321750703928
20
3.66774862793517
30
0
41
1
10
13.6902611662127
20
3.55006837266049
30
0
41
1
10
13.7905483353586
20
3.37776780552676
30
0
41
1
10
13.8261723130101
20
3.32103924914699
30
0
41
1
10
13.9020434441174
20
3.20918431003415
30
0
41
1
10
13.9424238628475
20
3.15392283888295
30
0
41
1
10
14.0684165578761
20
2.99381470913005
30
0
41
1
10
14.1594740483606
20
2.89363059265449
30
0
41
1
10
14.3065044297294
20
2.75322461160317
30
0
41
1
10
14.3572591463407
20
2.70807111726677
30
0
41
1
10
14.4622842827743
20
2.62111438239529
30
0
41
1
10
14.5167424268552
20
2.57918959836309
30
0
41
1
10
14.6832604699665
20
2.46009242559538
30
0
41
1
10
14.7988557811531
20
2.38914387340932
30
0
41
1
10
15.0388525774307
20
2.26336220702115
30
0
41
1
10
15.1633689427196
20
2.20848823552853
30
0
41
1
10
15.4208743963891
20
2.11517464678781
30
0
41
1
10
15.5517376537298
20
2.07748529839515
30
0
41
1
10
15.6846250069778
20
2.04841107240801
30
0
0
SPLINE
5
108
100
AcDbEntity
8
1
62
256
6
ByLayer
370
18
48
1
60
0
100
AcDbSpline
70
4
71
3
72
8
73
4
40
0
40
0
40
0
40
0
40
1
40
1
40
1
40
1
41
1
10
155.187713660396
20
-5.68582285260388
30
0
41
1
10
154.948052455285
20
-6.41324635899096
30
0
41
1
10
154.70432840437
20
-7.14535442418028
30
0
41
1
10
154.456391493336
20
-7.88232000621963
30
0
0
SPLINE
5
109
100
AcDbEntity
8
1
62
256
6
ByLayer
370
18
48
1
60
0
100
AcDbSpline
70
4
71
3
72
14
73
10
40
0
40
0
40
0
40
0
40
0.25
40
0.25
40
0.5
40
0.5
40
0.75
40
0.75
40
1
40
1
40
1
40
1
41
1
10
154.456391493336
20
7.88232000621966
30
0
41
1
10
153.959681412432
20
7.96095729891758
30
0
41
1
10
153.464077390167
20
8.03001569367686
30
0
41
1
10
152.472760058009
20
8.14779329097988
30
0
41
1
10
151.977385079345
20
8.19676248731926
30
0
41
1
10
150.987296106616
20
8.27493843084653
30
0
41
1
10
150.492836867133
20
8.3041630500164
30
0
41
1
10
149.502802270863
20
8.34220794745409
30
0
41
1
10
149.007154439737
20
8.351097864194
30
0
41
1
10
148.511112580685
20
8.34989235020217
30
0
0
SPLINE
5
10A
100
AcDbEntity
8
1
62
256
6
ByLayer
370
18
48
1
60
0
100
AcDbSpline
70
4
71
3
72
8
73
4
40
0
40
0
40
0
40
0
40
1
40
1
40
1
40
1
41
1
10
156.697521673998
20
-0.877256944580267
30
0
41
1
10
156.765076927174
20
-0.686804853604059
30
0
41
1
10
156.832481479582
20
-0.491163268936447
30
0
41
1
10
156.896558457332
20
-0.300004343659936
30
0
0
SPLINE
5
10B
100
AcDbEntity
8
1
62
256
6
ByLayer
370
18
48
1
60
0
100
AcDbSpline
70
4
71
3
72
8
73
4
40
0
40
0
40
0
40
0
40
1
40
1
40
1
40
1
41
1
10
137.561549586676
20
6.09804216312253
30
0
41
1
10
137.527399294162
20
5.98382219116931
30
0
41
1
10
137.493318910978
20
5.86941235341757
30
0
41
1
10
137.459310232284
20
5.75480877015769
30
0
0
SPLINE
5
10C
100
AcDbEntity
8
1
62
256
6
ByLayer
370
18
48
1
60
0
100
AcDbSpline
70
4
71
3
72
8
73
4
40
0
40
0
40
0
40
0
40
1
40
1
40
1
40
1
41
1
10
16
20
7.59346334013307
30
0
41
1
10
16.1951271813509
20
7.61861096513996
30
0
41
1
10
16.3890138540659
20
7.6445743823908
30
0
41
1
10
16.5816675455674
20
7.67121762296364
30
0
0
SPLINE
5
10D
100
AcDbEntity
8
1
62
256
6
ByLayer
370
18
48
1
60
0
100
AcDbSpline
70
4
71
3
72
8
73
4
40
0
40
0
40
0
40
0
40
1
40
1
40
1
40
1
41
1
10
140
20
4.64868804920408
30
0
41
1
10
138.971367754323
20
4.95758665842038
30
0
41
1
10
137.943840866875
20
5.24557781199513
30
0
41
1
10
136.915303109876
20
5.50920350868066
30
0
0
SPLINE
5
10E
100
AcDbEntity
8
1
62
256
6
ByLayer
370
18
48
1
60
0
100
AcDbSpline
70
4
71
3
72
12
73
8
40
0
40
0
40
0
40
0
40
0.5
40
0.5
40
0.75
40
0.75
40
1
40
1
40
1
40
1
41
1
10
146.8
20
3.55000000000001
30
0
41
1
10
146.8
20
3.3369810148746
30
0
41
1
10
146.8
20
3.146112930302
30
0
41
1
10
146.8
20
2.89118192171361
30
0
41
1
10
146.8
20
2.811479626943
30
0
41
1
10
146.8
20
2.66285561398473
30
0
41
1
10
146.8
20
2.59382600538683
30
0
41
1
10
146.8
20
2.53072612928454
30
0
0
SPLINE
5
10F
100
AcDbEntity
8
1
62
256
6
ByLayer
370
18
48
1
60
0
100
AcDbSpline
70
4
71
3
72
10
73
6
40
0
40
0
40
0
40
0
40
0.930450252311019
40
0.930450252311019
40
1
40
1
40
1
40
1
41
1
10
139.31640480985
20
5.4751480906161
30
0
41
1
10
139.235764695043
20
5.29408932813939
30
0
41
1
10
139.154065198937
20
5.11904538004723
30
0
41
1
10
139.066429514906
20
4.93702329929897
30
0
41
1
10
139.060335258635
20
4.92439542700163
30
0
41
1
10
139.054242582882
20
4.9117992677628
30
0
0
SPLINE
5
110
100
AcDbEntity
8
1
62
256
6
ByLayer
370
13
48
1
60
0
100
AcDbSpline
70
4
71
3
72
8
73
4
40
0
40
0
40
0
40
0
40
1
40
1
40
1
40
1
41
1
10
156.128390094112
20
0.797301953980337
30
0
41
1
10
156.111797120915
20
0.789623817135208
30
0
41
1
10
156.094551735854
20
0.775242399847144
30
0
41
1
10
156.080462407283
20
0.757333692234567
30
0
0
SPLINE
5
111
100
AcDbEntity
8
1
62
256
6
ByLayer
370
18
48
1
60
0
100
AcDbSpline
70
4
71
3
72
8
73
4
40
0
40
0
40
0
40
0
40
1
40
1
40
1
40
1
41
1
10
148.098954769945
20
-8.1518795731584
30
0
41
1
10
148.236532637972
20
-8.20866628206301
30
0
41
1
10
148.373915075117
20
-8.26473134602139
30
0
41
1
10
148.5111125807
20
-8.32004649921456
30
0
0
SPLINE
5
112
100
AcDbEntity
8
1
62
256
6
ByLayer
370
18
48
1
60
0
100
AcDbSpline
70
4
71
3
72
8
73
4
40
0
40
0
40
0
40
0
40
1
40
1
40
1
40
1
41
1
10
155.187713660396
20
5.68582285260388
30
0
41
1
10
154.948052455285
20
6.41324635899096
30
0
41
1
10
154.70432840437
20
7.14535442418028
30
0
41
1
10
154.456391493336
20
7.88232000621966
30
0
0
SPLINE
5
113
100
AcDbEntity
8
1
62
256
6
ByLayer
370
18
48
1
60
0
100
AcDbSpline
70
4
71
4
72
10
73
5
40
0
40
0
40
0
40
0
40
0
40
1
40
1
40
1
40
1
40
1
41
1
10
147
20
7.76771017285236
30
0
41
1
10
147
20
7.3521505127101
30
0
41
1
10
147
20
6.93659085256783
30
0
41
1
10
147
20
6.5210311924256
30
0
41
1
10
147
20
6.10547153228333
30
0
0
SPLINE
5
114
100
AcDbEntity
8
1
62
256
6
ByLayer
370
18
48
1
60
0
100
AcDbSpline
70
4
71
3
72
9
73
5
40
0
40
0
40
0
40
0
40
0.501798470697076
40
1
40
1
40
1
40
1
41
1
10
20.4622601479448
20
-7.05742691929725
30
0
41
1
10
21.4466223166677
20
-7.14871254256962
30
0
41
1
10
23.4070732638207
20
-7.2849618546555
30
0
41
1
10
25.3636859709602
20
-7.33636015524675
30
0
41
1
10
26.3382981182271
20
-7.33844977396145
30
0
0
SPLINE
5
115
100
AcDbEntity
8
1
62
256
6
ByLayer
370
18
48
1
60
0
100
AcDbSpline
70
4
71
3
72
14
73
10
40
0
40
0
40
0
40
0
40
0.0369531882677512
40
0.201660138943246
40
0.36636708961874
40
0.592839146797545
40
0.69578099096973
40
0.798722835141914
40
1
40
1
40
1
40
1
41
1
10
124.537705985883
20
-0.0009642750247281
30
0
41
1
10
124.678318935889
20
-0.0503853091428538
30
0
41
1
10
125.44561644635
20
-0.320077056106953
30
0
41
1
10
126.839053869844
20
-0.809508928448934
30
0
41
1
10
128.954793817643
20
-1.54925872484847
30
0
41
1
10
130.834266803925
20
-2.19283835681148
30
0
41
1
10
132.47861030162
20
-2.73700573874671
30
0
41
1
10
134.028959738902
20
-3.23614687092109
30
0
41
1
10
135.187819268396
20
-3.59436494431565
30
0
41
1
10
135.95407981017
20
-3.82427312318452
30
0
0
SPLINE
5
116
100
AcDbEntity
8
1
62
256
6
ByLayer
370
18
48
1
60
0
100
AcDbSpline
70
4
71
3
72
8
73
4
40
0
40
0
40
0
40
0
40
1
40
1
40
1
40
1
41
1
10
153.053936197705
20
-7.63543420673722
30
0
41
1
10
151.350633125509
20
-7.63544794435708
30
0
41
1
10
149.64733006084
20
-7.63551254618716
30
0
41
1
10
147.944026994725
20
-7.63541359423402
30
0
0
SPLINE
5
117
100
AcDbEntity
8
1
62
256
6
ByLayer
370
18
48
1
60
0
100
AcDbSpline
70
4
71
3
72
10
73
6
40
0
40
0
40
0
40
0
40
0.509867923065795
40
0.509867923065795
40
1
40
1
40
1
40
1
41
1
10
154.331773701382
20
-8.09162306980528
30
0
41
1
10
154.340582114969
20
-8.06589264939461
30
0
41
1
10
154.349386703896
20
-8.04016441052053
30
0
41
1
10
154.366647458393
20
-7.98970844081308
30
0
41
1
10
154.375103937187
20
-7.96498047723949
30
0
41
1
10
154.383556792903
20
-7.94025479621368
30
0
0
SPLINE
5
118
100
AcDbEntity
8
1
62
256
6
ByLayer
370
18
48
1
60
0
100
AcDbSpline
70
4
71
3
72
14
73
10
40
0
40
0
40
0
40
0
40
0.302411868928483
40
0.302411868928483
40
0.604823737856965
40
0.604823737856965
40
0.907235606785448
40
0.907235606785448
40
1
40
1
40
1
40
1
41
1
10
12.8037131219233
20
-8.54811879146183
30
0
41
1
10
12.4067660579817
20
-8.79334577630254
30
0
41
1
10
12.0200244527301
20
-9.05348052302284
30
0
41
1
10
11.2550802846617
20
-9.58574752008946
30
0
41
1
10
10.8768742370889
20
-9.85800922937489
30
0
41
1
10
10.1183660135485
20
-10.3964562262354
30
0
41
1
10
9.73816069960557
20
-10.6626847096375
30
0
41
1
10
9.2330522042148
20
-10.9927347678849
30
0
41
1
10
9.11388468261671
20
-11.0689151652122
30
0
41
1
10
8.99395779330231
20
-11.1434254762905
30
0
0
SPLINE
5
119
100
AcDbEntity
8
1
62
256
6
ByLayer
370
18
48
1
60
0
100
AcDbSpline
70
4
71
3
72
44
73
40
40
0
40
0
40
0
40
0
40
0.0412065247939137
40
0.0412065247939137
40
0.0824130495878274
40
0.0824130495878274
40
0.164826099175655
40
0.164826099175655
40
0.247239148763482
40
0.247239148763482
40
0.288445673557396
40
0.288445673557396
40
0.329652198351309
40
0.329652198351309
40
0.370858723145223
40
0.370858723145223
40
0.412065247939137
40
0.412065247939137
40
0.494478297526964
40
0.494478297526964
40
0.535684822320879
40
0.535684822320879
40
0.576891347114793
40
0.576891347114793
40
0.659304396702622
40
0.659304396702622
40
0.700510921496537
40
0.700510921496537
40
0.741717446290451
40
0.741717446290451
40
0.824130495878279
40
0.824130495878279
40
0.906543545466106
40
0.906543545466106
40
0.947750070260019
40
0.947750070260019
40
0.988956595053932
40
0.988956595053932
40
1
40
1
40
1
40
1
41
1
10
135.297667622009
20
-3.87713345658003
30
0
41
1
10
134.699223035899
20
-3.68119589418924
30
0
41
1
10
134.100877152385
20
-3.48063796834424
30
0
41
1
10
132.903791271089
20
-3.07172488361851
30
0
41
1
10
132.30480552434
20
-2.86332427799599
30
0
41
1
10
130.508701546312
20
-2.22730240937858
30
0
41
1
10
129.314934925234
20
-1.78872566592082
30
0
41
1
10
126.92808969962
20
-0.899572115063222
30
0
41
1
10
125.734358457445
20
-0.450756484734711
30
0
41
1
10
123.941255555272
20
0.223277879423506
30
0
41
1
10
123.343154358676
20
0.448140949033586
30
0
41
1
10
122.14563309178
20
0.896846978208202
30
0
41
1
10
121.547047315724
20
1.1203858624082
30
0
41
1
10
120.351404341432
20
1.56371168362378
30
0
41
1
10
119.754031359163
20
1.78347635407127
30
0
41
1
10
118.559429120664
20
2.21728234521672
30
0
41
1
10
117.962265539659
20
2.43150317956611
30
0
41
1
10
116.171199366753
20
3.06610793030168
30
0
41
1
10
114.977631115911
20
3.47813533329423
30
0
41
1
10
113.183662051764
20
4.0686151137601
30
0
41
1
10
112.584972700977
20
4.26084879141806
30
0
41
1
10
111.389169663873
20
4.6325890543167
30
0
41
1
10
110.791575295797
20
4.8122686596289
30
0
41
1
10
108.999561439493
20
5.33267050558868
30
0
41
1
10
107.805933004386
20
5.65474045703638
30
0
41
1
10
106.014002163869
20
6.09462697573196
30
0
41
1
10
105.416463024661
20
6.23408114250171
30
0
41
1
10
104.220084908985
20
6.49720460765869
30
0
41
1
10
103.620730438629
20
6.62089863467875
30
0
41
1
10
101.825160566545
20
6.96709311184585
30
0
41
1
10
100.631280691939
20
7.16519582325509
30
0
41
1
10
98.2446300466181
20
7.48903451750797
30
0
41
1
10
97.0516901697352
20
7.61452871885541
30
0
41
1
10
95.2580883381807
20
7.74510387569407
30
0
41
1
10
94.6593838673868
20
7.77916494384868
30
0
41
1
10
93.4618731995735
20
7.82804557091126
30
0
41
1
10
92.8638079790125
20
7.84283240823933
30
0
41
1
10
92.1060055828722
20
7.8493328702186
30
0
41
1
10
91.9458705917628
20
7.85001065108571
30
0
41
1
10
91.7857610185476
20
7.84999412890295
30
0
0
SPLINE
5
11A
100
AcDbEntity
8
1
62
256
6
ByLayer
370
18
48
1
60
0
100
AcDbSpline
70
4
71
3
72
16
73
12
40
0
40
0
40
0
40
0
40
0.188860149495645
40
0.188860149495645
40
0.324050124579705
40
0.324050124579705
40
0.459240099663764
40
0.459240099663764
40
0.729620049831882
40
0.729620049831882
40
1
40
1
40
1
40
1
41
1
10
33.8200814160888
20
-7.34655323523174
30
0
41
1
10
32.9857065702619
20
-7.45711258063525
30
0
41
1
10
32.1514921857455
20
-7.55006914363341
30
0
41
1
10
30.7191858054916
20
-7.67825729118741
30
0
41
1
10
30.121378160771
20
-7.72239020751655
30
0
41
1
10
28.9243747434791
20
-7.79147845439891
30
0
41
1
10
28.3250830606614
20
-7.81643037825296
30
0
41
1
10
26.53035105809
20
-7.86237140249747
30
0
41
1
10
25.3365256969275
20
-7.85448969394258
30
0
41
1
10
22.949545708843
20
-7.76088491254012
30
0
41
1
10
21.7562868978316
20
-7.67501635986304
30
0
41
1
10
20.5597857333214
20
-7.55202568339112
30
0
0
SPLINE
5
11B
100
AcDbEntity
8
1
62
256
6
ByLayer
370
18
48
1
60
0
100
AcDbSpline
70
4
71
3
72
8
73
4
40
0
40
0
40
0
40
0
40
1
40
1
40
1
40
1
41
1
10
135.954079878247
20
-3.82427313783302
30
0
41
1
10
136.060802554967
20
-3.84723728546368
30
0
41
1
10
136.167520745227
20
-3.87015599172545
30
0
41
1
10
136.274234313201
20
-3.89303124746388
30
0
0
SPLINE
5
11C
100
AcDbEntity
8
1
62
256
6
ByLayer
370
18
48
1
60
0
100
AcDbSpline
70
4
71
3
72
8
73
4
40
0
40
0
40
0
40
0
40
1
40
1
40
1
40
1
41
1
10
134.864851209766
20
-5.55469301001713
30
0
41
1
10
134.968030557259
20
-5.52411578869081
30
0
41
1
10
135.07302287225
20
-5.49774444136474
30
0
41
1
10
135.17979013367
20
-5.475709018613
30
0
0
SPLINE
5
11D
100
AcDbEntity
8
1
62
256
6
ByLayer
370
18
48
1
60
0
100
AcDbSpline
70
4
71
3
72
71
73
67
40
0
40
0
40
0
40
0
40
0.010659030583766
40
0.0263628554951349
40
0.0420666804065039
40
0.0577705053178724
40
0.0734743302292409
40
0.0891781551406106
40
0.104881980051979
40
0.120585804963348
40
0.136289629874716
40
0.151993454786085
40
0.167697279697454
40
0.183401104608823
40
0.199104929520191
40
0.21480875443156
40
0.230512579342929
40
0.246216404254298
40
0.261920229165667
40
0.277624054077036
40
0.293327878988404
40
0.309031703899773
40
0.324735528811142
40
0.340439353722511
40
0.356143178633879
40
0.371847003545248
40
0.387550828456617
40
0.403254653367986
40
0.418958478279355
40
0.434662303190723
40
0.450366128102092
40
0.466069953013461
40
0.48177377792483
40
0.497477602836199
40
0.513181427747567
40
0.528885252658936
40
0.544589077570305
40
0.560292902481674
40
0.575996727393043
40
0.591700552304411
40
0.60740437721578
40
0.623108202127149
40
0.638812027038517
40
0.654515851949886
40
0.670219676861255
40
0.685923501772624
40
0.701627326683993
40
0.717331151595362
40
0.733034976506731
40
0.748738801418099
40
0.764442626329468
40
0.780146451240837
40
0.795850276152206
40
0.811554101063574
40
0.827257925974943
40
0.842961750886312
40
0.858665575797681
40
0.87436940070905
40
0.890073225620418
40
0.905777050531787
40
0.921480875443156
40
0.937184700354525
40
0.952888525265894
40
0.968592350177262
40
0.984296175088631
40
1
40
1
40
1
40
1
41
1
10
16.8301932301126
20
1.82281771919594
30
0
41
1
10
16.8382956623085
20
1.83172373643629
30
0
41
1
10
16.8583283819816
20
1.85411747872496
30
0
41
1
10
16.8902588469516
20
1.89138385004563
30
0
41
1
10
16.9259556883521
20
1.93509644339949
30
0
41
1
10
16.9615740253752
20
1.98078039412795
30
0
41
1
10
16.9970982329499
20
2.02841206182467
30
0
41
1
10
17.0325127272978
20
2.07797151595329
30
0
41
1
10
17.0678019727693
20
2.12943675729574
30
0
41
1
10
17.1029504886595
20
2.18278527830387
30
0
41
1
10
17.1379428559986
20
2.23799365746399
30
0
41
1
10
17.1727637243161
20
2.2950376809068
30
0
41
1
10
17.2073978183748
20
2.35389232319727
30
0
41
1
10
17.2418299448717
20
2.41453176630631
30
0
41
1
10
17.2760449991032
20
2.47692940879495
30
0
41
1
10
17.310027971591
20
2.54105787805747
30
0
41
1
10
17.3437639546664
20
2.60688904217579
30
0
41
1
10
17.3772381490103
20
2.67439402230141
30
0
41
1
10
17.4104358701452
20
2.74354320531293
30
0
41
1
10
17.4433425548771
20
2.81430625680983
30
0
41
1
10
17.4759437676836
20
2.88665213441871
30
0
41
1
10
17.5082252070476
20
2.96054910141123
30
0
41
1
10
17.5401727117297
20
3.03596474062633
30
0
41
1
10
17.5717722669815
20
3.11286596869093
30
0
41
1
10
17.6030100106931
20
3.19121905053308
30
0
41
1
10
17.6338722394745
20
3.27098961418088
30
0
41
1
10
17.6643454146665
20
3.35214266584069
30
0
41
1
10
17.6944161682804
20
3.43464260524834
30
0
41
1
10
17.7240713088617
20
3.51845324128615
30
0
41
1
10
17.7532978272775
20
3.60353780785942
30
0
41
1
10
17.7820829024233
20
3.68985898002487
30
0
41
1
10
17.8104139068465
20
3.77737889036442
30
0
41
1
10
17.8382784122871
20
3.86605914559689
30
0
41
1
10
17.865664195129
20
3.95586084342043
30
0
41
1
10
17.8925592417621
20
4.04674458957803
30
0
41
1
10
17.9189517538532
20
4.1386705151393
30
0
41
1
10
17.9448301535206
20
4.23159829398986
30
0
41
1
10
17.9701830884144
20
4.32548716052196
30
0
41
1
10
17.9949994366953
20
4.42029592751726
30
0
41
1
10
18.0192683119144
20
4.51598300421503
30
0
41
1
10
18.0429790677886
20
4.61250641455723
30
0
41
1
10
18.0661213028707
20
4.70982381560242
30
0
41
1
10
18.0886848651126
20
4.80789251610099
30
0
41
1
10
18.1106598563188
20
4.90666949522281
30
0
41
1
10
18.1320366364884
20
5.00611142142975
30
0
41
1
10
18.1528058280439
20
5.10617467148435
30
0
41
1
10
18.1729583199453
20
5.20681534958644
30
0
41
1
10
18.1924852716867
20
5.30798930662934
30
0
41
1
10
18.2113781171743
20
5.40965215956746
30
0
41
1
10
18.2296285684845
20
5.51175931088585
30
0
41
1
10
18.2472286195002
20
5.61426596816494
30
0
41
1
10
18.264170549419
20
5.71712716372829
30
0
41
1
10
18.2804469261553
20
5.8202977743756
30
0
41
1
10
18.2960506095452
20
5.92373254115285
30
0
41
1
10
18.3109747546843
20
6.02738608929795
30
0
41
1
10
18.3252128141629
20
6.13121294780464
30
0
41
1
10
18.3387585438053
20
6.23516757064306
30
0
41
1
10
18.3516059947048
20
6.33920435198738
30
0
41
1
10
18.3637495557871
20
6.44327766395924
30
0
41
1
10
18.3751838071574
20
6.54734181044788
30
0
41
1
10
18.3859040789831
20
6.65135129420318
30
0
41
1
10
18.395904376637
20
6.75525991480163
30
0
41
1
10
18.4051851344427
20
6.85902422983824
30
0
41
1
10
18.4137242879271
20
6.96259073227759
30
0
41
1
10
18.4215852426108
20
7.06594379982678
30
0
41
1
10
18.426204372409
20
7.1345991598711
30
0
41
1
10
18.4285139373081
20
7.16892683989326
30
0
0
SPLINE
5
11E
100
AcDbEntity
8
1
62
256
6
ByLayer
370
18
48
1
60
0
100
AcDbSpline
70
4
71
3
72
14
73
10
40
0
40
0
40
0
40
0
40
0.500000000000008
40
0.500000000000008
40
0.750000000000008
40
0.750000000000008
40
0.875000000000004
40
0.875000000000004
40
1
40
1
40
1
40
1
41
1
10
137.574917339242
20
-6.07390591624645
30
0
41
1
10
139.129524053781
20
-6.48794807818572
30
0
41
1
10
140.678883473208
20
-6.83624056840912
30
0
41
1
10
143.007506705458
20
-7.24736008811249
30
0
41
1
10
143.78462220807
20
-7.36578106575968
30
0
41
1
10
144.952922316012
20
-7.5148565342985
30
0
41
1
10
145.342906798916
20
-7.55980776206076
30
0
41
1
10
146.121833948618
20
-7.63996623657681
30
0
41
1
10
146.511018610024
20
-7.6752081552097
30
0
41
1
10
146.9
20
-7.70563384359096
30
0
0
SPLINE
5
11F
100
AcDbEntity
8
1
62
256
6
ByLayer
370
18
48
1
60
0
100
AcDbSpline
70
4
71
3
72
14
73
10
40
0
40
0
40
0
40
0
40
0.25
40
0.25
40
0.5
40
0.5
40
0.75
40
0.75
40
1
40
1
40
1
40
1
41
1
10
12.8892231397341
20
-8.49528581075481
30
0
41
1
10
13.1230279250962
20
-8.35081059191469
30
0
41
1
10
13.363534404519
20
-8.22351179477931
30
0
41
1
10
13.8581317917945
20
-8.00183687354303
30
0
41
1
10
14.1122157006864
20
-7.90745328671622
30
0
41
1
10
14.6354237466809
20
-7.75298280012831
30
0
41
1
10
14.9058665927736
20
-7.69293133638243
30
0
41
1
10
15.44887120525
20
-7.61316373962737
30
0
41
1
10
15.7229513439821
20
-7.59284349940682
30
0
41
1
10
15.9999999999999
20
-7.59346334013205
30
0
0
SPLINE
5
120
100
AcDbEntity
8
1
62
256
6
ByLayer
370
18
48
1
60
0
100
AcDbSpline
70
4
71
3
72
8
73
4
40
0
40
0
40
0
40
0
40
1
40
1
40
1
40
1
41
1
10
20.462260147945
20
-7.05742691929728
30
0
41
1
10
20.4920768479429
20
-7.2224546628955
30
0
41
1
10
20.5242645092971
20
-7.38734504201724
30
0
41
1
10
20.5597857333213
20
-7.55202568339112
30
0
0
SPLINE
5
121
100
AcDbEntity
8
1
62
256
6
ByLayer
370
18
48
1
60
0
100
AcDbSpline
70
4
71
1
72
4
73
2
40
0
40
0
40
1
40
1
41
1
10
137.459310232286
20
5.75480877016281
30
0
41
1
10
137.574917339242
20
6.07390591624551
30
0
0
SPLINE
5
122
100
AcDbEntity
8
1
62
256
6
ByLayer
370
18
48
1
60
0
100
AcDbSpline
70
4
71
3
72
8
73
4
40
0
40
0
40
0
40
0
40
1
40
1
40
1
40
1
41
1
10
148.098954769945
20
-7.92057904956465
30
0
41
1
10
148.098954769947
20
-7.83935944792626
30
0
41
1
10
148.044431801319
20
-7.74354432596914
30
0
41
1
10
147.944026994725
20
-7.63541359423405
30
0
0
SPLINE
5
123
100
AcDbEntity
8
1
62
256
6
ByLayer
370
18
48
1
60
0
100
AcDbSpline
70
4
71
3
72
8
73
4
40
0
40
0
40
0
40
0
40
1
40
1
40
1
40
1
41
1
10
12.8037131219233
20
8.54811879146183
30
0
41
1
10
12.8322143252805
20
8.53051124426344
30
0
41
1
10
12.8607176868763
20
8.51290021301517
30
0
41
1
10
12.8892231397341
20
8.49528581075481
30
0
0
SPLINE
5
124
100
AcDbEntity
8
1
62
256
6
ByLayer
370
18
48
1
60
0
100
AcDbSpline
70
4
71
3
72
8
73
4
40
0
40
0
40
0
40
0
40
1
40
1
40
1
40
1
41
1
10
148.098954769945
20
-7.92057904956442
30
0
41
1
10
148.098954769945
20
-8.02934504325546
30
0
41
1
10
148.098954769945
20
-8.10643712673533
30
0
41
1
10
148.098954769945
20
-8.1518795731584
30
0
0
SPLINE
5
125
100
AcDbEntity
8
1
62
256
6
ByLayer
370
18
48
1
60
0
100
AcDbSpline
70
4
71
3
72
68
73
64
40
0
40
0
40
0
40
0
40
0.0450176687244993
40
0.0450176687244993
40
0.0900353374489987
40
0.0900353374489987
40
0.112544171811248
40
0.112544171811248
40
0.135053006173497
40
0.135053006173497
40
0.180070674897995
40
0.180070674897995
40
0.202579509260245
40
0.202579509260245
40
0.225088343622494
40
0.225088343622494
40
0.270106012346993
40
0.270106012346993
40
0.292614846709243
40
0.292614846709243
40
0.315123681071494
40
0.315123681071494
40
0.360141349795994
40
0.360141349795994
40
0.382650184158243
40
0.382650184158243
40
0.405159018520493
40
0.405159018520493
40
0.450176687244991
40
0.450176687244991
40
0.472685521607241
40
0.472685521607241
40
0.49519435596949
40
0.49519435596949
40
0.540212024693989
40
0.540212024693989
40
0.562720859056239
40
0.562720859056239
40
0.58522969341849
40
0.58522969341849
40
0.63024736214299
40
0.63024736214299
40
0.65275619650524
40
0.65275619650524
40
0.67526503086749
40
0.67526503086749
40
0.720282699591991
40
0.720282699591991
40
0.742791533954242
40
0.742791533954242
40
0.765300368316493
40
0.765300368316493
40
0.810318037040994
40
0.810318037040994
40
0.855335705765495
40
0.855335705765495
40
0.900353374489996
40
0.900353374489996
40
0.945371043214498
40
0.945371043214498
40
0.990388711938999
40
0.990388711938999
40
1
40
1
40
1
40
1
41
1
10
134.864851220723
20
-5.55469300677009
30
0
41
1
10
133.663411508255
20
-5.83246580893768
30
0
41
1
10
132.463471611058
20
-6.08076882037778
30
0
41
1
10
130.063202751201
20
-6.51473493390992
30
0
41
1
10
128.862559812867
20
-6.70078965546372
30
0
41
1
10
127.059972848071
20
-6.93052410394895
30
0
41
1
10
126.459388945917
20
-6.99887511150166
30
0
41
1
10
125.25952566617
20
-7.11721820142265
30
0
41
1
10
124.660012585612
20
-7.16736009467093
30
0
41
1
10
122.861638255283
20
-7.29025787597414
30
0
41
1
10
121.662811138224
20
-7.33560693401756
30
0
41
1
10
119.861440180745
20
-7.34920554302991
30
0
41
1
10
119.260345159754
20
-7.34453476949739
30
0
41
1
10
118.059368965496
20
-7.31692665402144
30
0
41
1
10
117.459154791297
20
-7.29410441935201
30
0
41
1
10
115.658698218285
20
-7.19954408882438
30
0
41
1
10
114.458578507998
20
-7.10181721306842
30
0
41
1
10
112.65705534866
20
-6.90307206561889
30
0
41
1
10
112.056024606564
20
-6.82790701652883
30
0
41
1
10
110.855392408193
20
-6.6597449540229
30
0
41
1
10
110.255663097397
20
-6.56687770547575
30
0
41
1
10
108.457149246592
20
-6.26337948294633
30
0
41
1
10
107.258890922711
20
-6.02806299290347
30
0
41
1
10
105.458812242195
20
-5.63335591952134
30
0
41
1
10
104.858105086324
20
-5.49471912271827
30
0
41
1
10
103.656616165613
20
-5.20426562311192
30
0
41
1
10
103.056243857981
20
-5.05263920258679
30
0
41
1
10
101.255539082368
20
-4.58072376135937
30
0
41
1
10
100.055553146691
20
-4.24361532118945
30
0
41
1
10
98.2545410886933
20
-3.70805313340711
30
0
41
1
10
97.6540515121052
20
-3.52449500685569
30
0
41
1
10
96.4525100732697
20
-3.14729588840899
30
0
41
1
10
95.8522983498499
20
-2.95402962081164
30
0
41
1
10
94.0530026661652
20
-2.36349133052633
30
0
41
1
10
92.8548524481336
20
-1.95547854678489
30
0
41
1
10
91.0556267907907
20
-1.33363401526404
30
0
41
1
10
90.4555677028289
20
-1.12468899117687
30
0
41
1
10
89.2543840488995
20
-0.704627713777739
30
0
41
1
10
88.6534487553583
20
-0.493564442969159
30
0
41
1
10
86.8523343771855
20
0.139233172831013
30
0
41
1
10
85.6524883176933
20
0.560903050275016
30
0
41
1
10
83.8520376450425
20
1.1873542377231
30
0
41
1
10
83.2517899598037
20
1.39520858757177
30
0
41
1
10
82.0508815731837
20
1.80831533612997
30
0
41
1
10
81.450024659171
20
2.01370505369428
30
0
41
1
10
79.6498716696215
20
2.62136034229442
30
0
41
1
10
78.4517669127647
20
3.01546241924373
30
0
41
1
10
76.6532429536609
20
3.57946923509667
30
0
41
1
10
76.0535271607509
20
3.7630285648155
30
0
41
1
10
74.8531660444159
20
4.12004906455815
30
0
41
1
10
74.2521986523075
20
4.29362276401577
30
0
41
1
10
72.4502899621981
20
4.79656626738321
30
0
41
1
10
71.2502931091317
20
5.10846302458796
30
0
41
1
10
68.8498199797535
20
5.68057548224206
30
0
41
1
10
67.6491001099814
20
5.94144326473341
30
0
41
1
10
65.2469055932135
20
6.40291980006214
30
0
41
1
10
64.0484041055483
20
6.60214471747167
30
0
41
1
10
61.6506716858017
20
6.93156903499661
30
0
41
1
10
60.4514255020954
20
7.06225202396067
30
0
41
1
10
58.0482912758362
20
7.25199687755938
30
0
41
1
10
56.8477694588564
20
7.31071782034931
30
0
41
1
10
55.3914062506866
20
7.33934922147657
30
0
41
1
10
55.1351842251478
20
7.34279187637577
30
0
41
1
10
54.8789591400173
20
7.34461786570708
30
0
0
SPLINE
5
126
100
AcDbEntity
8
1
62
256
6
ByLayer
370
18
48
1
60
0
100
AcDbSpline
70
4
71
3
72
8
73
4
40
0
40
0
40
0
40
0
40
1
40
1
40
1
40
1
41
1
10
139.31640480985
20
5.47514809061562
30
0
41
1
10
139.38312176823
20
5.62494561941833
30
0
41
1
10
139.46510485171
20
5.76692831763307
30
0
41
1
10
139.560531636853
20
5.90182912949734
30
0
0
SPLINE
5
127
100
AcDbEntity
8
1
62
256
6
ByLayer
370
18
48
1
60
0
100
AcDbSpline
70
4
71
3
72
14
73
10
40
0
40
0
40
0
40
0
40
0.153354788258212
40
0.153354788258212
40
0.576677394129101
40
0.576677394129101
40
0.78833869706455
40
0.78833869706455
40
1
40
1
40
1
40
1
41
1
10
142.418014784038
20
3.88818720745411
30
0
41
1
10
142.822359084846
20
3.7602204542064
30
0
41
1
10
143.226838493088
20
3.62956044847053
30
0
41
1
10
144.746844484381
20
3.12952257700584
30
0
41
1
10
145.860349959718
20
2.74442304599185
30
0
41
1
10
147.529658816379
20
2.14542418291356
30
0
41
1
10
148.085949081696
20
1.94223587202495
30
0
41
1
10
149.198725880831
20
1.52976577997444
30
0
41
1
10
149.755552038532
20
1.32036458642827
30
0
41
1
10
150.31189333795
20
1.1088854929755
30
0
0
SPLINE
5
128
100
AcDbEntity
8
1
62
256
6
ByLayer
370
18
48
1
60
0
100
AcDbSpline
70
4
71
3
72
8
73
4
40
0
40
0
40
0
40
0
40
1
40
1
40
1
40
1
41
1
10
16
20
-7.59346334013307
30
0
41
1
10
16.1951271813509
20
-7.61861096513996
30
0
41
1
10
16.3890138540659
20
-7.6445743823908
30
0
41
1
10
16.5816675455674
20
-7.67121762296364
30
0
0
SPLINE
5
129
100
AcDbEntity
8
1
62
256
6
ByLayer
370
18
48
1
60
0
100
AcDbSpline
70
4
71
3
72
24
73
20
40
0
40
0
40
0
40
0
40
0.250000000000004
40
0.250000000000004
40
0.374999999999992
40
0.374999999999992
40
0.499999999999979
40
0.499999999999979
40
0.624999999999966
40
0.624999999999966
40
0.687499999999959
40
0.687499999999959
40
0.749999999999953
40
0.749999999999953
40
0.812499999999946
40
0.812499999999946
40
0.87499999999994
40
0.87499999999994
40
1
40
1
40
1
40
1
41
1
10
138.519662408725
20
5.95126362009043
30
0
41
1
10
138.50007570916
20
5.98635928148937
30
0
41
1
10
138.47812992945
20
6.02005999499727
30
0
41
1
10
138.438029796078
20
6.066251107065
30
0
41
1
10
138.423432856074
20
6.08091372357245
30
0
41
1
10
138.390460023228
20
6.10768999710632
30
0
41
1
10
138.37223076444
20
6.1197881204119
30
0
41
1
10
138.329169409515
20
6.13928684785063
30
0
41
1
10
138.30422884022
20
6.1467870779075
30
0
41
1
10
138.258670693463
20
6.14968500822468
30
0
41
1
10
138.242502786289
20
6.14918356500601
30
0
41
1
10
138.207980828096
20
6.14452070581217
30
0
41
1
10
138.189414180758
20
6.14022469487887
30
0
41
1
10
138.15288433441
20
6.12845963009906
30
0
41
1
10
138.134331545114
20
6.12084105242246
30
0
41
1
10
138.099075765531
20
6.10389215193379
30
0
41
1
10
138.082126183391
20
6.09451249295461
30
0
41
1
10
138.03284814648
20
6.06457976395976
30
0
41
1
10
138.003461490849
20
6.04323395752715
30
0
41
1
10
137.975675413918
20
6.02127966419471
30
0
0
SPLINE
5
12A
100
AcDbEntity
8
1
62
256
6
ByLayer
370
18
48
1
60
0
100
AcDbSpline
70
4
71
3
72
8
73
4
40
0
40
0
40
0
40
0
40
1
40
1
40
1
40
1
41
1
10
148.599465493244
20
-8.35000030360101
30
0
41
1
10
148.570015944486
20
-8.34999991438562
30
0
41
1
10
148.540564957132
20
-8.34996392733069
30
0
41
1
10
148.511112580686
20
-8.34989235020217
30
0
0
SPLINE
5
12B
100
AcDbEntity
8
1
62
256
6
ByLayer
370
18
48
1
60
0
100
AcDbSpline
70
4
71
3
72
38
73
34
40
0
40
0
40
0
40
0
40
0.0257820117194043
40
0.0257820117194043
40
0.0953690108823042
40
0.0953690108823042
40
0.164956010045204
40
0.164956010045204
40
0.234543009208104
40
0.234543009208104
40
0.304130008371004
40
0.304130008371004
40
0.373717007533904
40
0.373717007533904
40
0.443304006696803
40
0.443304006696803
40
0.512891005859703
40
0.512891005859703
40
0.582478005022603
40
0.582478005022603
40
0.652065004185503
40
0.652065004185503
40
0.721652003348403
40
0.721652003348403
40
0.756445502929853
40
0.756445502929853
40
0.791239002511303
40
0.791239002511303
40
0.860826001674202
40
0.860826001674202
40
0.930413000837101
40
0.930413000837101
40
1
40
1
40
1
40
1
41
1
10
69.2328643271213
20
-5.37587857965403
30
0
41
1
10
68.7720598579434
20
-5.46961227676871
30
0
41
1
10
68.3112237535848
20
-5.55955975993899
30
0
41
1
10
66.6061603583521
20
-5.87804336621411
30
0
41
1
10
65.3608489251254
20
-6.0823933881054
30
0
41
1
10
62.8741122970023
20
-6.42290436253649
30
0
41
1
10
61.6314286875116
20
-6.55920476950217
30
0
41
1
10
59.143190292717
20
-6.75949823724176
30
0
41
1
10
57.8969286635429
20
-6.82317154955336
30
0
41
1
10
55.4087709909235
20
-6.87553878505744
30
0
41
1
10
54.1656063372896
20
-6.86432700037781
30
0
41
1
10
51.6779758599933
20
-6.77200369761937
30
0
41
1
10
50.4326634993253
20
-6.69062835605939
30
0
41
1
10
47.9457951818517
20
-6.45732452340891
30
0
41
1
10
46.7032020535735
20
-6.30541230067712
30
0
41
1
10
44.2154347434385
20
-5.93572159272526
30
0
41
1
10
42.9691548046016
20
-5.71737565772656
30
0
41
1
10
40.4806466960067
20
-5.22143303464304
30
0
41
1
10
39.2374787392584
20
-4.94384142401725
30
0
41
1
10
36.7501806433957
20
-4.33938845868002
30
0
41
1
10
35.5049332440632
20
-4.01194318139926
30
0
41
1
10
33.0177756530173
20
-3.31869235368495
30
0
41
1
10
31.7752313874266
20
-2.95291693871053
30
0
41
1
10
29.9097756500343
20
-2.38418404498825
30
0
41
1
10
29.2876946654808
20
-2.19123778022626
30
0
41
1
10
28.0425484158474
20
-1.79981500505093
30
0
41
1
10
27.4196932923203
20
-1.6014209563524
30
0
41
1
10
25.5525733112276
20
-1.00130022910704
30
0
41
1
10
24.3085694740505
20
-0.594433221588929
30
0
41
1
10
21.8189527740663
20
0.222486101392604
30
0
41
1
10
20.5734459198317
20
0.632904265540901
30
0
41
1
10
18.0849544508563
20
1.44362954606208
30
0
41
1
10
16.8409864862668
20
1.84394132967393
30
0
41
1
10
15.595254968697
20
2.23265231231824
30
0
0
SPLINE
5
12C
100
AcDbEntity
8
1
62
256
6
ByLayer
370
18
48
1
60
0
100
AcDbSpline
70
4
71
3
72
8
73
4
40
0
40
0
40
0
40
0
40
1
40
1
40
1
40
1
41
1
10
135.297667622009
20
-3.87713345658003
30
0
41
1
10
135.497147823375
20
-3.84649898903126
30
0
41
1
10
135.71689085883
20
-3.82951125552765
30
0
41
1
10
135.954079877441
20
-3.82427314029567
30
0
0
SPLINE
5
12D
100
AcDbEntity
8
1
62
256
6
ByLayer
370
18
48
1
60
0
100
AcDbSpline
70
4
71
3
72
8
73
4
40
0
40
0
40
0
40
0
40
1
40
1
40
1
40
1
41
1
10
138.079282943259
20
5.81493901242825
30
0
41
1
10
138.04330956816
20
5.80622432423428
30
0
41
1
10
138.007424237276
20
5.79883093365328
30
0
41
1
10
137.971631051811
20
5.79271628855344
30
0
0
SPLINE
5
12E
100
AcDbEntity
8
1
62
256
6
ByLayer
370
18
48
1
60
0
100
AcDbSpline
70
4
71
3
72
8
73
4
40
0
40
0
40
0
40
0
40
1
40
1
40
1
40
1
41
1
10
156.986092560475
20
0.0595039339733603
30
0
41
1
10
156.974669631403
20
0.0974611581364115
30
0
41
1
10
156.963314873572
20
0.135285051215902
30
0
41
1
10
156.952027735972
20
0.17297669089416
30
0
0
SPLINE
5
12F
100
AcDbEntity
8
1
62
256
6
ByLayer
370
18
48
1
60
0
100
AcDbSpline
70
4
71
3
72
16
73
12
40
0
40
0
40
0
40
0
40
0.24999999999998
40
0.24999999999998
40
0.37499999999997
40
0.37499999999997
40
0.49999999999996
40
0.49999999999996
40
0.74999999999998
40
0.74999999999998
40
1
40
1
40
1
40
1
41
1
10
134.864851209766
20
5.55469301001713
30
0
41
1
10
135.025517654553
20
5.50707947531913
30
0
41
1
10
135.190580070473
20
5.46966408300847
30
0
41
1
10
135.444552316951
20
5.42957475561141
30
0
41
1
10
135.530279490519
20
5.41889237505609
30
0
41
1
10
135.703922282931
20
5.40313546723627
30
0
41
1
10
135.792077988744
20
5.39807552269278
30
0
41
1
10
136.055701122651
20
5.39181615690211
30
0
41
1
10
136.232434990444
20
5.39948126168616
30
0
41
1
10
136.579411948664
20
5.43773118760228
30
0
41
1
10
136.750615628418
20
5.46842836538593
30
0
41
1
10
136.915303109876
20
5.50920350868063
30
0
0
SPLINE
5
130
100
AcDbEntity
8
1
62
256
6
ByLayer
370
18
48
1
60
0
100
AcDbSpline
70
4
71
2
72
6
73
3
40
0
40
0
40
0
40
1
40
1
40
1
41
0.500011632007185
10
151.079474939403
20
-2.37984081964608
30
0
41
0.499988367992815
10
150.421187587409
20
-2.37771201768682
30
0
41
0.500011632007185
10
149.762853196656
20
-2.37558283061453
30
0
0
SPLINE
5
131
100
AcDbEntity
8
1
62
256
6
ByLayer
370
18
48
1
60
0
100
AcDbSpline
70
4
71
3
72
14
73
10
40
0
40
0
40
0
40
0
40
0.5
40
0.5
40
0.625
40
0.625
40
0.75
40
0.75
40
1
40
1
40
1
40
1
41
1
10
154.176513776792
20
-8.1887615882149
30
0
41
1
10
153.94644531659
20
-8.21842151751656
30
0
41
1
10
153.73612359019
20
-8.19012740312701
30
0
41
1
10
153.49976636261
20
-8.07685391137582
30
0
41
1
10
153.453836399022
20
-8.05026214155666
30
0
41
1
10
153.364769872154
20
-7.98888034264524
30
0
41
1
10
153.321675515192
20
-7.95408963413172
30
0
41
1
10
153.197904847682
20
-7.83807056397239
30
0
41
1
10
153.122310073055
20
-7.74497220189167
30
0
41
1
10
153.053936197705
20
-7.6354342067431
30
0
0
SPLINE
5
132
100
AcDbEntity
8
1
62
256
6
ByLayer
370
18
48
1
60
0
100
AcDbSpline
70
4
71
3
72
20
73
16
40
0
40
0
40
0
40
0
40
0.25
40
0.25
40
0.375
40
0.375
40
0.5
40
0.5
40
0.625
40
0.625
40
0.75
40
0.75
40
0.875
40
0.875
40
1
40
1
40
1
40
1
41
1
10
154.467553377458
20
-3.76360524008425
30
0
41
1
10
154.334059106996
20
-3.36620499881511
30
0
41
1
10
154.203861635557
20
-2.96776118218844
30
0
41
1
10
154.014575376521
20
-2.36819305624761
30
0
41
1
10
153.952905965331
20
-2.16788562268741
30
0
41
1
10
153.833030359896
20
-1.76617450194823
30
0
41
1
10
153.77398693214
20
-1.56498691454212
30
0
41
1
10
153.66015362403
20
-1.1614919127646
30
0
41
1
10
153.605030605945
20
-0.959323256357663
30
0
41
1
10
153.498691292078
20
-0.554068623817557
30
0
41
1
10
153.448015644466
20
-0.350855700542525
30
0
41
1
10
153.350650308234
20
0.056506070940685
30
0
41
1
10
153.304550583006
20
0.26079344577434
30
0
41
1
10
153.218129571511
20
0.670725004457779
30
0
41
1
10
153.177957612638
20
0.876404251194657
30
0
41
1
10
153.142254766285
20
1.08313286995101
30
0
0
SPLINE
5
133
100
AcDbEntity
8
1
62
256
6
ByLayer
370
18
48
1
60
0
100
AcDbSpline
70
4
71
3
72
12
73
8
40
0
40
0
40
0
40
0
40
0.417480351745856
40
0.417480351745856
40
0.708739974522365
40
0.708739974522365
40
1
40
1
40
1
40
1
41
1
10
146.999999993939
20
-7.60101525267899
30
0
41
1
10
146.986241845157
20
-7.61545941177801
30
0
41
1
10
146.972478558721
20
-7.62990097934696
30
0
41
1
10
146.949104613725
20
-7.65441354379408
30
0
41
1
10
146.939496537068
20
-7.66448585056114
30
0
41
1
10
146.920275524662
20
-7.68462804126972
30
0
41
1
10
146.910662585584
20
-7.69469792868966
30
0
41
1
10
146.901047253366
20
-7.70476661642061
30
0
0
SPLINE
5
134
100
AcDbEntity
8
1
62
256
6
ByLayer
370
18
48
1
60
0
100
AcDbSpline
70
4
71
1
72
4
73
2
40
0
40
0
40
1
40
1
41
1
10
151.194193497706
20
-2.36546388434218
30
0
41
1
10
151.201439073076
20
-2.37980965201976
30
0
0
SPLINE
5
135
100
AcDbEntity
8
1
62
256
6
ByLayer
370
18
48
1
60
0
100
AcDbSpline
70
4
71
3
72
66
73
62
40
0
40
0
40
0
40
0
40
0.0474857495253793
40
0.0474857495253793
40
0.0720388727777668
40
0.0720388727777668
40
0.0965919960301543
40
0.0965919960301543
40
0.145698242534928
40
0.145698242534928
40
0.194804489039702
40
0.194804489039702
40
0.219357612292089
40
0.219357612292089
40
0.243910735544475
40
0.243910735544475
40
0.293016982049248
40
0.293016982049248
40
0.317570105301634
40
0.317570105301634
40
0.342123228554021
40
0.342123228554021
40
0.366676351806407
40
0.366676351806407
40
0.391229475058793
40
0.391229475058793
40
0.440335721563565
40
0.440335721563565
40
0.464888844815951
40
0.464888844815951
40
0.489441968068337
40
0.489441968068337
40
0.538548214573109
40
0.538548214573109
40
0.563101337825495
40
0.563101337825495
40
0.587654461077881
40
0.587654461077881
40
0.636760707582653
40
0.636760707582653
40
0.685866954087426
40
0.685866954087426
40
0.710420077339812
40
0.710420077339812
40
0.734973200592199
40
0.734973200592199
40
0.784079447096971
40
0.784079447096971
40
0.833185693601744
40
0.833185693601744
40
0.85773881685413
40
0.85773881685413
40
0.882291940106516
40
0.882291940106516
40
0.931398186611288
40
0.931398186611288
40
0.955951309863675
40
0.955951309863675
40
0.980504433116061
40
0.980504433116061
40
1
40
1
40
1
40
1
41
1
10
99.3198179747331
20
-7.34302602302293
30
0
41
1
10
98.1658934161927
20
-7.4972752228548
30
0
41
1
10
97.0122311523712
20
-7.61740135607641
30
0
41
1
10
95.2580883381808
20
-7.74510387569407
30
0
41
1
10
94.6593838673868
20
-7.77916494384868
30
0
41
1
10
93.4618731995735
20
-7.82804557091129
30
0
41
1
10
92.8638079790125
20
-7.84283240823933
30
0
41
1
10
91.0709020336358
20
-7.85821203357398
30
0
41
1
10
89.8774185262474
20
-7.82969633589329
30
0
41
1
10
87.4884799378951
20
-7.69665370944759
30
0
41
1
10
86.2938909685215
20
-7.59189759848223
30
0
41
1
10
84.4987462681397
20
-7.37785145129334
30
0
41
1
10
83.9005649008433
20
-7.29714444160888
30
0
41
1
10
82.7057027036893
20
-7.11802762225941
30
0
41
1
10
82.1086848460354
20
-7.01963212212942
30
0
41
1
10
80.3174967187271
20
-6.69990816523844
30
0
41
1
10
79.123670193407
20
-6.45354629489037
30
0
41
1
10
77.3312202029894
20
-6.0375339395751
30
0
41
1
10
76.7334116159424
20
-5.89116957645794
30
0
41
1
10
75.5366172359627
20
-5.58387944751053
30
0
41
1
10
74.9375116812781
20
-5.42291856465573
30
0
41
1
10
73.7410579653952
20
-5.08913255078895
30
0
41
1
10
73.1432429416855
20
-4.91620687678139
30
0
41
1
10
71.948504108732
20
-4.55817611951474
30
0
41
1
10
71.3515946660212
20
-4.37302516344008
30
0
41
1
10
69.5612465587371
20
-3.80121766073756
30
0
41
1
10
68.36830288097
20
-3.39783940160399
30
0
41
1
10
66.5747430056607
20
-2.77144324633124
30
0
41
1
10
65.9756391219866
20
-2.55918724354632
30
0
41
1
10
64.7787606026943
20
-2.12968249746743
30
0
41
1
10
64.1809089421131
20
-1.91231715269953
30
0
41
1
10
62.3884450720982
20
-1.25415770460646
30
0
41
1
10
61.1949928095433
20
-0.807108591928625
30
0
41
1
10
59.4034336131496
20
-0.133872779519464
30
0
41
1
10
58.8059041148807
20
0.0906760753021842
30
0
41
1
10
57.6099388252039
20
0.539451774451379
30
0
41
1
10
57.0113054831003
20
0.764018357562634
30
0
41
1
10
55.215613354722
20
1.43570251878387
30
0
41
1
10
54.0218772701162
20
1.8792837777419
30
0
41
1
10
51.6350927489606
20
2.74196267028788
30
0
41
1
10
50.4413651195832
20
3.15941314685563
30
0
41
1
10
48.6483323299378
20
3.76019719947482
30
0
41
1
10
48.0502514935527
20
3.95622750045342
30
0
41
1
10
46.8527678390825
20
4.33856629399426
30
0
41
1
10
46.2541226258614
20
4.52464029317488
30
0
41
1
10
44.4605569116269
20
5.06482516483868
30
0
41
1
10
43.2661679228642
20
5.40001613624173
30
0
41
1
10
40.8780463934676
20
6.01678374416662
30
0
41
1
10
39.6844692450323
20
6.29844456353496
30
0
41
1
10
37.8905255070338
20
6.67276475387956
30
0
41
1
10
37.2918031435366
20
6.78950216849535
30
0
41
1
10
36.0958328300507
20
7.00488075712505
30
0
41
1
10
35.4981362719019
20
7.10366778304785
30
0
41
1
10
33.7057664547775
20
7.37346515826096
30
0
41
1
10
32.511810919681
20
7.51782144044017
30
0
41
1
10
30.7191858054916
20
7.67825729118741
30
0
41
1
10
30.121378160771
20
7.72239020751655
30
0
41
1
10
28.9243747434791
20
7.79147845439891
30
0
41
1
10
28.3250830606614
20
7.81643037825296
30
0
41
1
10
27.2518238932311
20
7.84390335213479
30
0
41
1
10
26.7772283994349
20
7.84999303615521
30
0
41
1
10
26.3029069504454
20
7.84998734789068
30
0
0
SPLINE
5
136
100
AcDbEntity
8
1
62
256
6
ByLayer
370
18
48
1
60
0
100
AcDbSpline
70
4
71
1
72
4
73
2
40
0
40
0
40
1
40
1
41
1
10
151.079462587556
20
-2.37984746738184
30
0
41
1
10
151.194193497706
20
-2.36546388434218
30
0
0
SPLINE
5
137
100
AcDbEntity
8
1
62
256
6
ByLayer
370
18
48
1
60
0
100
AcDbSpline
70
4
71
2
72
6
73
3
40
0
40
0
40
0
40
1
40
1
40
1
41
0.499884714106078
10
149.771639469687
20
-0.407799086925543
30
0
41
0.500115285893922
10
150.072016153108
20
-0.408817800957995
30
0
41
0.499884714106078
10
150.372403100856
20
-0.409836501182566
30
0
0
SPLINE
5
138
100
AcDbEntity
8
1
62
256
6
ByLayer
370
18
48
1
60
0
100
AcDbSpline
70
4
71
3
72
18
73
14
40
0
40
0
40
0
40
0
40
0.249999999999972
40
0.249999999999972
40
0.374999999999972
40
0.374999999999972
40
0.499999999999972
40
0.499999999999972
40
0.749999999999973
40
0.749999999999973
40
0.874999999999986
40
0.874999999999986
40
1
40
1
40
1
40
1
41
1
10
156.095743479122
20
-1.89035460469179
30
0
41
1
10
156.148841200772
20
-1.82924138305461
30
0
41
1
10
156.201736457106
20
-1.76260119557699
30
0
41
1
10
156.280732230064
20
-1.65316534745153
30
0
41
1
10
156.307006111954
20
-1.6151022697843
30
0
41
1
10
156.359427557556
20
-1.53552783858601
30
0
41
1
10
156.38571043953
20
-1.49378654891024
30
0
41
1
10
156.463215634041
20
-1.36477731622006
30
0
41
1
10
156.512968947128
20
-1.27404909603106
30
0
41
1
10
156.584610522434
20
-1.13059487596919
30
0
41
1
10
156.60799182101
20
-1.08154696135196
30
0
41
1
10
156.653721472016
20
-0.980906476071993
30
0
41
1
10
156.676135799008
20
-0.929125677572358
30
0
41
1
10
156.697521673998
20
-0.877256944580239
30
0
0
SPLINE
5
139
100
AcDbEntity
8
1
62
256
6
ByLayer
370
18
48
1
60
0
100
AcDbSpline
70
4
71
3
72
8
73
4
40
0
40
0
40
0
40
0
40
1
40
1
40
1
40
1
41
1
10
148.511112580689
20
8.34989235019799
30
0
41
1
10
148.009792097278
20
8.16622264547789
30
0
41
1
10
147.506260455545
20
7.97170405511426
30
0
41
1
10
147
20
7.76771017285236
30
0
0
SPLINE
5
13A
100
AcDbEntity
8
1
62
256
6
ByLayer
370
18
48
1
60
0
100
AcDbSpline
70
4
71
3
72
8
73
4
40
0
40
0
40
0
40
0
40
1
40
1
40
1
40
1
41
1
10
154.467553377456
20
-3.76360524008507
30
0
41
1
10
154.529313264667
20
-3.692973458301
30
0
41
1
10
154.591084265236
20
-3.62215343088295
30
0
41
1
10
154.652872733156
20
-3.55103752953599
30
0
0
SPLINE
5
13B
100
AcDbEntity
8
1
62
256
6
ByLayer
370
18
48
1
60
0
100
AcDbSpline
70
4
71
3
72
14
73
10
40
0
40
0
40
0
40
0
40
0.329969216884403
40
0.329969216884403
40
0.66498460844221
40
0.66498460844221
40
0.832492304221105
40
0.832492304221105
40
1
40
1
40
1
40
1
41
1
10
149.988540809344
20
8.34999997458124
30
0
41
1
10
150.466260925779
20
8.35000147641389
30
0
41
1
10
150.943691944111
20
8.34054585660445
30
0
41
1
10
151.906476257312
20
8.3025725071098
30
0
41
1
10
152.391669026797
20
8.27378538389712
30
0
41
1
10
153.119396136617
20
8.21627249627593
30
0
41
1
10
153.361983263246
20
8.19471535547453
30
0
41
1
10
153.847098774096
20
8.1468234216247
30
0
41
1
10
154.089203714367
20
8.12029620645978
30
0
41
1
10
154.331773701359
20
8.09162306984035
30
0
0
SPLINE
5
13C
100
AcDbEntity
8
1
62
256
6
ByLayer
370
18
48
1
60
0
100
AcDbSpline
70
4
71
3
72
8
73
4
40
0
40
0
40
0
40
0
40
1
40
1
40
1
40
1
41
1
10
15.3725263857374
20
2.30202055602038
30
0
41
1
10
15.4469865609049
20
2.27635783471197
30
0
41
1
10
15.5212405009523
20
2.25331747418582
30
0
41
1
10
15.5952549686975
20
2.23265231231809
30
0
0
SPLINE
5
13D
100
AcDbEntity
8
1
62
256
6
ByLayer
370
18
48
1
60
0
100
AcDbSpline
70
4
71
3
72
8
73
4
40
0
40
0
40
0
40
0
40
1
40
1
40
1
40
1
41
1
10
19.6469999999957
20
0.744200068991972
30
0
41
1
10
19.6469999999952
20
0.674634061349053
30
0
41
1
10
19.6469999999948
20
0.60355628080066
30
0
41
1
10
19.6469999999943
20
0.530969148814165
30
0
0
SPLINE
5
13E
100
AcDbEntity
8
1
62
256
6
ByLayer
370
18
48
1
60
0
100
AcDbSpline
70
4
71
3
72
8
73
4
40
0
40
0
40
0
40
0
40
1
40
1
40
1
40
1
41
1
10
154.706977965204
20
2.71556732882692
30
0
41
1
10
154.805379353178
20
2.72235361838278
30
0
41
1
10
154.903721485795
20
2.72980396140804
30
0
41
1
10
155.001986569561
20
2.73812987213014
30
0
0
SPLINE
5
13F
100
AcDbEntity
8
1
62
256
6
ByLayer
370
18
48
1
60
0
100
AcDbSpline
70
4
71
3
72
8
73
4
40
0
40
0
40
0
40
0
40
1
40
1
40
1
40
1
41
1
10
138.079282943259
20
5.81493901242825
30
0
41
1
10
138.064492251996
20
5.60140888722881
30
0
41
1
10
138.044390397034
20
5.39348920018904
30
0
41
1
10
138.019219096018
20
5.19305761271869
30
0
0
SPLINE
5
140
100
AcDbEntity
8
1
62
256
6
ByLayer
370
18
48
1
60
0
100
AcDbSpline
70
2053
71
3
72
39
73
35
40
0
40
0
40
0
40
0
40
0.0311591802400568
40
0.0622713420235687
40
0.0934103956628662
40
0.124711397223978
40
0.155893072864451
40
0.187298327448878
40
0.21860128202246
40
0.25000854601658
40
0.281453052503222
40
0.312755565419328
40
0.344179498175186
40
0.375403543431218
40
0.406649870285388
40
0.43783886281948
40
0.468978924302177
40
0.500146323967761
40
0.531218546810865
40
0.562314634678808
40
0.59355468221444
40
0.624690761959474
40
0.656043061148185
40
0.687316429288486
40
0.718690603316294
40
0.750126321565968
40
0.781441451164842
40
0.812905818755449
40
0.844182963035866
40
0.875499013449766
40
0.906754699280821
40
0.937831799971954
40
0.969023680026775
40
1
40
1
40
1
40
1
41
1
10
144.05
20
-4.04663109054497
30
0
41
1
10
144.177017149994
20
-4.04663171348812
30
0
41
1
10
144.430865873791
20
-4.06918731535018
30
0
41
1
10
144.795629458512
20
-4.16800237903402
30
0
41
1
10
145.130552275599
20
-4.32485486925273
30
0
41
1
10
145.423121615795
20
-4.52982069471449
30
0
41
1
10
145.66363660364
20
-4.77178730906041
30
0
41
1
10
145.842736099601
20
-5.03780150526717
30
0
41
1
10
145.953627948927
20
-5.31559761332068
30
0
41
1
10
145.99120464016
20
-5.59184664513418
30
0
41
1
10
145.953542063634
20
-5.85454081732146
30
0
41
1
10
145.842460945205
20
-6.09393467541034
30
0
41
1
10
145.66311281532
20
-6.30246563954114
30
0
41
1
10
145.422403234879
20
-6.47617387025798
30
0
41
1
10
145.129589587573
20
-6.61249542500104
30
0
41
1
10
144.794474774255
20
-6.71046851739294
30
0
41
1
10
144.429276180934
20
-6.76945202007303
30
0
41
1
10
144.048578237313
20
-6.78902991736234
30
0
41
1
10
143.668143640305
20
-6.76914983743418
30
0
41
1
10
143.303429186589
20
-6.7100019643234
30
0
41
1
10
142.968886086499
20
-6.61191194958718
30
0
41
1
10
142.676104128264
20
-6.4753144172395
30
0
41
1
10
142.436008749606
20
-6.30165892728255
30
0
41
1
10
142.256890125454
20
-6.09287611307323
30
0
41
1
10
142.146152313245
20
-5.85360285200915
30
0
41
1
10
142.108836963321
20
-5.59090651988234
30
0
41
1
10
142.146646403127
20
-5.31447343894848
30
0
41
1
10
142.257761938396
20
-5.03684187252762
30
0
41
1
10
142.437461303421
20
-4.77045505491111
30
0
41
1
10
142.678155694103
20
-4.52870694175371
30
0
41
1
10
142.971093453521
20
-4.32394519208128
30
0
41
1
10
143.306064907329
20
-4.16737441321007
30
0
41
1
10
143.670312118143
20
-4.06901408489091
30
0
41
1
10
143.923728260821
20
-4.04663047125761
30
0
41
1
10
144.05
20
-4.04663109054496
30
0
0
SPLINE
5
141
100
AcDbEntity
8
1
62
256
6
ByLayer
370
18
48
1
60
0
100
AcDbSpline
70
4
71
3
72
8
73
4
40
0
40
0
40
0
40
0
40
1
40
1
40
1
40
1
41
1
10
146.904761142646
20
6.66229904689047
30
0
41
1
10
146.903542192719
20
7.01235428605656
30
0
41
1
10
146.902304076924
20
7.35987175462978
30
0
41
1
10
146.901047421225
20
7.7047664682982
30
0
0
SPLINE
5
142
100
AcDbEntity
8
1
62
256
6
ByLayer
370
18
48
1
60
0
100
AcDbSpline
70
4
71
3
72
8
73
4
40
0
40
0
40
0
40
0
40
1
40
1
40
1
40
1
41
1
10
13.5938831765453
20
3.83113580895323
30
0
41
1
10
13.5401724337426
20
3.9378692903513
30
0
41
1
10
13.4943128339552
20
4.044422487953
30
0
41
1
10
13.4554166633648
20
4.15137306133545
30
0
0
SPLINE
5
143
100
AcDbEntity
8
1
62
256
6
ByLayer
370
18
48
1
60
0
100
AcDbSpline
70
4
71
3
72
10
73
6
40
0
40
0
40
0
40
0
40
0.5
40
0.5
40
1
40
1
40
1
40
1
41
1
10
155.001986569564
20
2.73812987213009
30
0
41
1
10
155.195824340015
20
2.75455356922615
30
0
41
1
10
155.389224817939
20
2.77384340190918
30
0
41
1
10
155.774614247853
20
2.82167459680755
30
0
41
1
10
155.966621734252
20
2.85009447939189
30
0
41
1
10
156.157391144758
20
2.88662905218868
30
0
0
SPLINE
5
144
100
AcDbEntity
8
1
62
256
6
ByLayer
370
18
48
1
60
0
100
AcDbSpline
70
4
71
3
72
8
73
4
40
0
40
0
40
0
40
0
40
1
40
1
40
1
40
1
41
1
10
146.901047267889
20
7.70476659527446
30
0
41
1
10
146.90069817748
20
7.70505569803254
30
0
41
1
10
146.900349088183
20
7.70534478080535
30
0
41
1
10
146.9
20
7.70563384359093
30
0
0
SPLINE
5
145
100
AcDbEntity
8
1
62
256
6
ByLayer
370
18
48
1
60
0
100
AcDbSpline
70
4
71
3
72
8
73
4
40
0
40
0
40
0
40
0
40
1
40
1
40
1
40
1
41
1
10
138.519662408725
20
5.95126362009046
30
0
41
1
10
138.632496584872
20
5.96630387482048
30
0
41
1
10
138.743260123994
20
5.97560285967003
30
0
41
1
10
138.851847065868
20
5.97813651527645
30
0
0
SPLINE
5
146
100
AcDbEntity
8
1
62
256
6
ByLayer
370
18
48
1
60
0
100
AcDbSpline
70
4
71
3
72
8
73
4
40
0
40
0
40
0
40
0
40
1
40
1
40
1
40
1
41
1
10
146.8
20
3.55000000000001
30
0
41
1
10
146.86665698953
20
3.55000000000001
30
0
41
1
10
146.933323853586
20
3.55000000000001
30
0
41
1
10
147
20
3.55000000000001
30
0
0
SPLINE
5
147
100
AcDbEntity
8
1
62
256
6
ByLayer
370
18
48
1
60
0
100
AcDbSpline
70
4
71
3
72
8
73
4
40
0
40
0
40
0
40
0
40
1
40
1
40
1
40
1
41
1
10
154.383556792903
20
-7.94025479621365
30
0
41
1
10
154.296391559413
20
-8.07700571568739
30
0
41
1
10
154.227314406217
20
-8.16002789685669
30
0
41
1
10
154.176513776792
20
-8.1887615882149
30
0
0
SPLINE
5
148
100
AcDbEntity
8
1
62
256
6
ByLayer
370
18
48
1
60
0
100
AcDbSpline
70
4
71
3
72
16
73
12
40
0
40
0
40
0
40
0
40
0.25
40
0.25
40
0.5
40
0.5
40
0.625
40
0.625
40
0.75
40
0.75
40
1
40
1
40
1
40
1
41
1
10
153.155121075354
20
1.10278224156522
30
0
41
1
10
153.237324095796
20
1.22970838946483
30
0
41
1
10
153.333027935932
20
1.36116543778587
30
0
41
1
10
153.550432255012
20
1.63289941168728
30
0
41
1
10
153.669510309808
20
1.76989008128501
30
0
41
1
10
153.862516170106
20
1.97538955553515
30
0
41
1
10
153.929307054558
20
2.04391103610914
30
0
41
1
10
154.067987284203
20
2.18066186981679
30
0
41
1
10
154.140166425127
20
2.24914290812302
30
0
41
1
10
154.361878736611
20
2.4508426263038
30
0
41
1
10
154.516786435712
20
2.58088026612674
30
0
41
1
10
154.679698052723
20
2.70490167632352
30
0
0
SPLINE
5
149
100
AcDbEntity
8
1
62
256
6
ByLayer
370
18
48
1
60
0
100
AcDbSpline
70
4
71
3
72
8
73
4
40
0
40
0
40
0
40
0
40
1
40
1
40
1
40
1
41
1
10
12.8892231397341
20
4.74797328691665
30
0
41
1
10
12.8607635563246
20
4.77892235566139
30
0
41
1
10
12.8322599503747
20
4.8098306417929
30
0
41
1
10
12.8037131219232
20
4.84069888557784
30
0
0
SPLINE
5
14A
100
AcDbEntity
8
1
62
256
6
ByLayer
370
18
48
1
60
0
100
AcDbSpline
70
4
71
3
72
12
73
8
40
0
40
0
40
0
40
0
40
0.417480351745622
40
0.417480351745622
40
0.708739974522113
40
0.708739974522113
40
1
40
1
40
1
40
1
41
1
10
146.999999993939
20
7.60101525267899
30
0
41
1
10
146.986241845157
20
7.61545941177801
30
0
41
1
10
146.972478558721
20
7.62990097934696
30
0
41
1
10
146.949104613725
20
7.65441354379408
30
0
41
1
10
146.939496537068
20
7.66448585056114
30
0
41
1
10
146.920275524662
20
7.68462804126975
30
0
41
1
10
146.910662585584
20
7.69469792868966
30
0
41
1
10
146.901047253366
20
7.70476661642064
30
0
0
SPLINE
5
14B
100
AcDbEntity
8
1
62
256
6
ByLayer
370
18
48
1
60
0
100
AcDbSpline
70
4
71
3
72
14
73
10
40
0
40
0
40
0
40
0
40
0.500000000000009
40
0.500000000000009
40
0.750000000000009
40
0.750000000000009
40
0.875000000000005
40
0.875000000000005
40
1
40
1
40
1
40
1
41
1
10
156.157391144758
20
2.88662905218868
30
0
41
1
10
155.990099407051
20
3.34876532539536
30
0
41
1
10
155.825332417565
20
3.8134292528222
30
0
41
1
10
155.582214354155
20
4.51446220612331
30
0
41
1
10
155.501853667201
20
4.74881930589092
30
0
41
1
10
155.382440103359
20
5.10148371985025
30
0
41
1
10
155.342786857155
20
5.21934242365288
30
0
41
1
10
155.264553613497
20
5.45345253265202
30
0
41
1
10
155.225894203567
20
5.56993667434784
30
0
41
1
10
155.187713664875
20
5.68582285342359
30
0
0
SPLINE
5
14C
100
AcDbEntity
8
1
62
256
6
ByLayer
370
18
48
1
60
0
100
AcDbSpline
70
4
71
3
72
10
73
6
40
0
40
0
40
0
40
0
40
0.5
40
0.5
40
1
40
1
40
1
40
1
41
1
10
17.2518358950226
20
7.316329231536
30
0
41
1
10
17.4460225746785
20
7.26364523305566
30
0
41
1
10
17.6422685144196
20
7.22330124747808
30
0
41
1
10
18.0399091166771
20
7.17197039735291
30
0
41
1
10
18.2361994349903
20
7.16176614840225
30
0
41
1
10
18.4285110165567
20
7.16888209345714
30
0
0
SPLINE
5
14D
100
AcDbEntity
8
1
62
256
6
ByLayer
370
18
48
1
60
0
100
AcDbSpline
70
4
71
3
72
32
73
28
40
0
40
0
40
0
40
0
40
0.125000000000008
40
0.125000000000008
40
0.187500000000009
40
0.187500000000009
40
0.250000000000011
40
0.250000000000011
40
0.312500000000013
40
0.312500000000013
40
0.375000000000015
40
0.375000000000015
40
0.500000000000019
40
0.500000000000019
40
0.562500000000014
40
0.562500000000014
40
0.62500000000001
40
0.62500000000001
40
0.687500000000006
40
0.687500000000006
40
0.750000000000002
40
0.750000000000002
40
0.874999999999993
40
0.874999999999993
40
0.937499999999997
40
0.937499999999997
40
1
40
1
40
1
40
1
41
1
10
140
20
-1.36523731851975
30
0
41
1
10
140
20
-1.59128912503772
30
0
41
1
10
139.975138391731
20
-1.81112194301386
30
0
41
1
10
139.900183164652
20
-2.13185719592647
30
0
41
1
10
139.86865373441
20
-2.23781572269726
30
0
41
1
10
139.793163015485
20
-2.44400200819052
30
0
41
1
10
139.749574976798
20
-2.54344712190016
30
0
41
1
10
139.651001210528
20
-2.73543296971613
30
0
41
1
10
139.596015029488
20
-2.82797285090342
30
0
41
1
10
139.474497413285
20
-3.00630438203595
30
0
41
1
10
139.407473761443
20
-3.09260727162984
30
0
41
1
10
139.192762166973
20
-3.33638811362994
30
0
41
1
10
139.031712106379
20
-3.47954314352455
30
0
41
1
10
138.763360745963
20
-3.66747651973341
30
0
41
1
10
138.668954581896
20
-3.72577968261911
30
0
41
1
10
138.475459104943
20
-3.8308250289694
30
0
41
1
10
138.375929452241
20
-3.87793769649062
30
0
41
1
10
138.171364049269
20
-3.96180126478362
30
0
41
1
10
138.066328428093
20
-3.99855175654019
30
0
41
1
10
137.850593215848
20
-4.06168689612744
30
0
41
1
10
137.739552758665
20
-4.08805795560301
30
0
41
1
10
137.406251299918
20
-4.14971374500007
30
0
41
1
10
137.181196359967
20
-4.16871607278873
30
0
41
1
10
136.839273277603
20
-4.16413226748298
30
0
41
1
10
136.724384859679
20
-4.15694259287966
30
0
41
1
10
136.497786681199
20
-4.13142343865218
30
0
41
1
10
136.385500573309
20
-4.11311227771876
30
0
41
1
10
136.274234313201
20
-4.08912703597292
30
0
0
SPLINE
5
14E
100
AcDbEntity
8
1
62
256
6
ByLayer
370
18
48
1
60
0
100
AcDbSpline
70
4
71
3
72
14
73
10
40
0
40
0
40
0
40
0
40
0.249999999999999
40
0.249999999999999
40
0.5
40
0.5
40
0.75
40
0.75
40
1
40
1
40
1
40
1
41
1
10
156.809537154655
20
0.748074234483369
30
0
41
1
10
156.781871777041
20
0.86217264729305
30
0
41
1
10
156.747631660838
20
0.992674038181093
30
0
41
1
10
156.667371946034
20
1.28126157779604
30
0
41
1
10
156.621354696631
20
1.43933918155074
30
0
41
1
10
156.519388123706
20
1.77673201403727
30
0
41
1
10
156.463441547612
20
1.95603815193053
30
0
41
1
10
156.343862134693
20
2.32868975577307
30
0
41
1
10
156.280233659087
20
2.52202179574084
30
0
41
1
10
156.214036985575
20
2.71849927700734
30
0
0
SPLINE
5
14F
100
AcDbEntity
8
1
62
256
6
ByLayer
370
18
48
1
60
0
100
AcDbSpline
70
4
71
3
72
8
73
4
40
0
40
0
40
0
40
0
40
1
40
1
40
1
40
1
41
1
10
150.017439464914
20
0.911532272559356
30
0
41
1
10
150.062137655286
20
0.906771043309277
30
0
41
1
10
150.106835868923
20
0.902225159714646
30
0
41
1
10
150.151534126449
20
0.897894217715447
30
0
0
SPLINE
5
150
100
AcDbEntity
8
1
62
256
6
ByLayer
370
18
48
1
60
0
100
AcDbSpline
70
4
71
1
72
4
73
2
40
0
40
0
40
1
40
1
41
1
10
151.817139223342
20
0.946604608678825
30
0
41
1
10
151.811182329082
20
0.953198535995114
30
0
0
SPLINE
5
151
100
AcDbEntity
8
1
62
256
6
ByLayer
370
13
48
1
60
0
100
AcDbSpline
70
4
71
3
72
8
73
4
40
0
40
0
40
0
40
0
40
1
40
1
40
1
40
1
41
1
10
156.0575988436
20
0.772850415682171
30
0
41
1
10
156.065187370089
20
0.767637156362298
30
0
41
1
10
156.072808956651
20
0.762465088946129
30
0
41
1
10
156.080462407282
20
0.757333692235022
30
0
0
SPLINE
5
152
100
AcDbEntity
8
1
62
256
6
ByLayer
370
18
48
1
60
0
100
AcDbSpline
70
4
71
3
72
9
73
5
40
0
40
0
40
0
40
0
40
0.57325824619664
40
1
40
1
40
1
40
1
41
1
10
151.811180489119
20
0.953202985314391
30
0
41
1
10
151.491653183449
20
0.995331953254322
30
0
41
1
10
150.934265116571
20
1.06882233602588
30
0
41
1
10
150.376919272825
20
1.14262793446039
30
0
41
1
10
150.139089370797
20
1.17422034845387
30
0
0
SPLINE
5
153
100
AcDbEntity
8
1
62
256
6
ByLayer
370
18
48
1
60
0
100
AcDbSpline
70
4
71
3
72
12
73
8
40
0
40
0
40
0
40
0
40
0.5
40
0.5
40
0.75
40
0.75
40
1
40
1
40
1
40
1
41
1
10
137.574917339242
20
6.07390591624645
30
0
41
1
10
139.1293150379
20
6.48789241048124
30
0
41
1
10
140.678466920353
20
6.83614693931389
30
0
41
1
10
143.006775736431
20
7.24724107236028
30
0
41
1
10
143.783785835399
20
7.36565884335755
30
0
41
1
10
145.341307133208
20
7.56443004379108
30
0
41
1
10
146.121078516045
20
7.64470747807587
30
0
41
1
10
146.9
20
7.70563384359093
30
0
0
SPLINE
5
154
100
AcDbEntity
8
1
62
256
6
ByLayer
370
18
48
1
60
0
100
AcDbSpline
70
4
71
3
72
8
73
4
40
0
40
0
40
0
40
0
40
1
40
1
40
1
40
1
41
1
10
146.901047267889
20
-7.70476659527446
30
0
41
1
10
146.90069817748
20
-7.70505569803257
30
0
41
1
10
146.900349088183
20
-7.70534478080532
30
0
41
1
10
146.9
20
-7.70563384359093
30
0
0
SPLINE
5
155
100
AcDbEntity
8
1
62
256
6
ByLayer
370
18
48
1
60
0
100
AcDbSpline
70
4
71
3
72
8
73
4
40
0
40
0
40
0
40
0
40
1
40
1
40
1
40
1
41
1
10
16
20
1.93871404170045
30
0
41
1
10
15.8951242912605
20
1.97590048159918
30
0
41
1
10
15.7899876401958
20
2.01243039946388
30
0
41
1
10
15.6846250069778
20
2.04841107240799
30
0
0
SPLINE
5
156
100
AcDbEntity
8
1
62
256
6
ByLayer
370
18
48
1
60
0
100
AcDbSpline
70
4
71
3
72
8
73
4
40
0
40
0
40
0
40
0
40
1
40
1
40
1
40
1
41
1
10
154.002891038144
20
8.19999514738419
30
0
41
1
10
154.059568088823
20
8.20014508886857
30
0
41
1
10
154.117477267642
20
8.19637244754756
30
0
41
1
10
154.176513776782
20
8.18876158821604
30
0
0
SPLINE
5
157
100
AcDbEntity
8
1
62
256
6
ByLayer
370
13
48
1
60
0
100
AcDbSpline
70
4
71
2
72
6
73
3
40
0
40
0
40
0
40
1
40
1
40
1
41
0.997658439629592
10
156.057598843601
20
0.772850415682182
30
0
41
0.925068896213688
10
155.306770739249
20
-0.181455555373539
30
0
41
1
10
155.104158897679
20
-1.22552848837657
30
0
0
SPLINE
5
158
100
AcDbEntity
8
1
62
256
6
ByLayer
370
18
48
1
60
0
100
AcDbSpline
70
4
71
3
72
12
73
8
40
0
40
0
40
0
40
0
40
0.5
40
0.5
40
0.75
40
0.75
40
1
40
1
40
1
40
1
41
1
10
17.6
20
7.77704842441776
30
0
41
1
10
17.7707746442112
20
7.77839083830727
30
0
41
1
10
17.9381279809839
20
7.78177864647628
30
0
41
1
10
18.1842265044042
20
7.78920205726385
30
0
41
1
10
18.2654323278861
20
7.79206275731437
30
0
41
1
10
18.4261645590133
20
7.79837915002867
30
0
41
1
10
18.5060030850389
20
7.80184992493966
30
0
41
1
10
18.5842300036132
20
7.80547071843668
30
0
0
SPLINE
5
159
100
AcDbEntity
8
1
62
256
6
ByLayer
370
18
48
1
60
0
100
AcDbSpline
70
4
71
3
72
72
73
68
40
0
40
0
40
0
40
0
40
0.0625000000000006
40
0.0625000000000006
40
0.125000000000001
40
0.125000000000001
40
0.187500000000002
40
0.187500000000002
40
0.218750000000002
40
0.218750000000002
40
0.250000000000002
40
0.250000000000002
40
0.281250000000002
40
0.281250000000002
40
0.296875000000001
40
0.296875000000001
40
0.312500000000001
40
0.312500000000001
40
0.343750000000001
40
0.343750000000001
40
0.359375000000001
40
0.359375000000001
40
0.375000000000001
40
0.375000000000001
40
0.390625000000001
40
0.390625000000001
40
0.406250000000001
40
0.406250000000001
40
0.421875000000001
40
0.421875000000001
40
0.429687500000001
40
0.429687500000001
40
0.437500000000001
40
0.437500000000001
40
0.468750000000001
40
0.468750000000001
40
0.484375000000001
40
0.484375000000001
40
0.500000000000001
40
0.500000000000001
40
0.515625000000001
40
0.515625000000001
40
0.531250000000001
40
0.531250000000001
40
0.546875000000001
40
0.546875000000001
40
0.562500000000001
40
0.562500000000001
40
0.593750000000001
40
0.593750000000001
40
0.625000000000001
40
0.625000000000001
40
0.656250000000001
40
0.656250000000001
40
0.687500000000001
40
0.687500000000001
40
0.718750000000001
40
0.718750000000001
40
0.75
40
0.75
40
0.8125
40
0.8125
40
0.875
40
0.875
40
0.9375
40
0.9375
40
1
40
1
40
1
40
1
41
1
10
12.8037131219233
20
8.54811879146183
30
0
41
1
10
12.4067660579817
20
8.79334577630254
30
0
41
1
10
12.0200244527301
20
9.05348052302284
30
0
41
1
10
11.2550802846617
20
9.58574752008946
30
0
41
1
10
10.8768742370889
20
9.85800922937491
30
0
41
1
10
10.1183660135485
20
10.3964562262354
30
0
41
1
10
9.73816069960557
20
10.6626847096376
30
0
41
1
10
9.15835308436164
20
11.0415449721945
30
0
41
1
10
8.96349655114483
20
11.1643879798794
30
0
41
1
10
8.56920626179277
20
11.3999476794479
30
0
41
1
10
8.37052342082262
20
11.5121764035714
30
0
41
1
10
7.9717029859566
20
11.7206576217872
30
0
41
1
10
7.77128794659058
20
11.8170777347086
30
0
41
1
10
7.46959015332004
20
11.9467413469657
30
0
41
1
10
7.36885108723467
20
11.9874640449127
30
0
41
1
10
7.16720060963394
20
12.0632981342762
30
0
41
1
10
7.06628408575389
20
12.0983769596238
30
0
41
1
10
6.76884832713887
20
12.1927240067052
30
0
41
1
10
6.57594864111513
20
12.2417460709555
30
0
41
1
10
6.29921683401489
20
12.2925089660684
30
0
41
1
10
6.20878711673029
20
12.3056259120266
30
0
41
1
10
6.0374771774016
20
12.3235698573182
30
0
41
1
10
5.95608008805317
20
12.3285206243709
30
0
41
1
10
5.80263665443931
20
12.3307355526169
30
0
41
1
10
5.73058546289093
20
12.3280030774206
30
0
41
1
10
5.59693107055037
20
12.315040300123
30
0
41
1
10
5.53636440084858
20
12.3048787545712
30
0
41
1
10
5.42941730742064
20
12.2782887358813
30
0
41
1
10
5.38274568043147
20
12.2618339510598
30
0
41
1
10
5.32310583083429
20
12.2328095218206
30
0
41
1
10
5.30495706706972
20
12.2224079635001
30
0
41
1
10
5.2721926312839
20
12.2001800320967
30
0
41
1
10
5.25754379032108
20
12.188308952769
30
0
41
1
10
5.19420529577297
20
12.1263163042238
30
0
41
1
10
5.17401948796325
20
12.0681613478945
30
0
41
1
10
5.18624611548546
20
11.969111331112
30
0
41
1
10
5.19755471459257
20
11.9341819628759
30
0
41
1
10
5.23318140072641
20
11.8618918863239
30
0
41
1
10
5.25751498086174
20
11.8243310446566
30
0
41
1
10
5.31837703358201
20
11.7460942590498
30
0
41
1
10
5.35507993794644
20
11.7052505552023
30
0
41
1
10
5.43941583531784
20
11.6207252856875
30
0
41
1
10
5.48671790406496
20
11.5773322559468
30
0
41
1
10
5.59048360706467
20
11.4878569727398
30
0
41
1
10
5.64695168395832
20
11.4417740156356
30
0
41
1
10
5.76822323806127
20
11.3464254707478
30
0
41
1
10
5.83333161279188
20
11.2969359825379
30
0
41
1
10
6.03780174085631
20
11.1446367159112
30
0
41
1
10
6.18543421884414
20
11.0384930662243
30
0
41
1
10
6.49677070375037
20
10.8142742046342
30
0
41
1
10
6.66051521670155
20
10.6961959140954
30
0
41
1
10
6.99951448096746
20
10.446297081041
30
0
41
1
10
7.17171083950106
20
10.3167152822697
30
0
41
1
10
7.51728988034085
20
10.0488746688375
30
0
41
1
10
7.6909110354824
20
9.91046623306011
30
0
41
1
10
8.03817270950719
20
9.62500649527308
30
0
41
1
10
8.2118247187058
20
9.47796298748608
30
0
41
1
10
8.55829838386143
20
9.17602696950297
30
0
41
1
10
8.73107939082414
20
9.02116011985134
30
0
41
1
10
9.24316582762086
20
8.55058576305407
30
0
41
1
10
9.57799014939113
20
8.2273937330182
30
0
41
1
10
10.2384516057788
20
7.56857022499511
30
0
41
1
10
10.5642667076998
20
7.23283689569857
30
0
41
1
10
11.2102161434975
20
6.5552852730745
30
0
41
1
10
11.5302250813636
20
6.21363593341184
30
0
41
1
10
12.1680378836682
20
5.52820314554325
30
0
41
1
10
12.4858418326336
20
5.18441932607155
30
0
41
1
10
12.8037131219233
20
4.84069888557787
30
0
0
SPLINE
5
15A
100
AcDbEntity
8
1
62
256
6
ByLayer
370
18
48
1
60
0
100
AcDbSpline
70
4
71
3
72
14
73
10
40
0
40
0
40
0
40
0
40
0.305875210223549
40
0.305875210223549
40
0.611750420447099
40
0.611750420447099
40
0.917625630670648
40
0.917625630670648
40
1
40
1
40
1
40
1
41
1
10
148.5111125807
20
-8.32004649921458
30
0
41
1
10
148.996291162969
20
-8.33970293662759
30
0
41
1
10
149.481588531713
20
-8.34969805223935
30
0
41
1
10
150.451658421666
20
-8.35028848809782
30
0
41
1
10
150.936385943714
20
-8.34083401387855
30
0
41
1
10
151.906476257322
20
-8.3025725071
30
0
41
1
10
152.391669026809
20
-8.27378538388308
30
0
41
1
10
153.007475157271
20
-8.22511770570543
30
0
41
1
10
153.138133195161
20
-8.21409970969808
30
0
41
1
10
153.268788172679
20
-8.2023890570342
30
0
0
SPLINE
5
15B
100
AcDbEntity
8
1
62
256
6
ByLayer
370
18
48
1
60
0
100
AcDbSpline
70
4
71
3
72
8
73
4
40
0
40
0
40
0
40
0
40
1
40
1
40
1
40
1
41
1
10
154.271295649119
20
-8.09872826480745
30
0
41
1
10
154.291452138304
20
-8.09637485912373
30
0
41
1
10
154.311611313359
20
-8.09400637745821
30
0
41
1
10
154.331773701382
20
-8.09162306980528
30
0
0
SPLINE
5
15C
100
AcDbEntity
8
1
62
256
6
ByLayer
370
13
48
1
60
0
100
AcDbSpline
70
4
71
3
72
10
73
6
40
0
40
0
40
0
40
0
40
0.0018196640363049
40
0.0018196640363049
40
1
40
1
40
1
40
1
41
1
10
156.128390094111
20
0.797301953980934
30
0
41
1
10
156.128376169244
20
0.797311021804859
30
0
41
1
10
156.128362244295
20
0.797320089669512
30
0
41
1
10
156.120709865187
20
0.802303446662222
30
0
41
1
10
156.113101152712
20
0.807316139189339
30
0
41
1
10
156.105523311849
20
0.81236777208332
30
0
0
SPLINE
5
15D
100
AcDbEntity
8
1
62
256
6
ByLayer
370
18
48
1
60
0
100
AcDbSpline
70
4
71
2
72
9
73
6
40
0
40
0
40
0
40
0.25
40
0.5
40
0.75
40
1
40
1
40
1
41
1
10
151.201435663459
20
-2.37981246930892
30
0
41
1
10
151.266291059947
20
-2.93003797963849
30
0
41
1
10
151.45502934967
20
-3.96906849755177
30
0
41
1
10
151.697272015827
20
-4.91584398512398
30
0
41
1
10
151.989341190507
20
-5.75595800813068
30
0
41
1
10
152.155975548669
20
-6.11011229903306
30
0
0
SPLINE
5
15E
100
AcDbEntity
8
1
62
256
6
ByLayer
370
18
48
1
60
0
100
AcDbSpline
70
4
71
3
72
52
73
48
40
0
40
0
40
0
40
0
40
0.0547435996021155
40
0.0547435996021155
40
0.0821153994031728
40
0.0821153994031728
40
0.0958012993037014
40
0.0958012993037014
40
0.10948719920423
40
0.10948719920423
40
0.164230798806345
40
0.164230798806345
40
0.218974398408459
40
0.218974398408459
40
0.273717998010573
40
0.273717998010573
40
0.328461597612688
40
0.328461597612688
40
0.383205197214802
40
0.383205197214802
40
0.41057699701586
40
0.41057699701586
40
0.437948796816918
40
0.437948796816918
40
0.492692396419033
40
0.492692396419033
40
0.547435996021149
40
0.547435996021149
40
0.602179595623264
40
0.602179595623264
40
0.65692319522538
40
0.65692319522538
40
0.684294995026438
40
0.684294995026438
40
0.711666794827495
40
0.711666794827495
40
0.766410394429611
40
0.766410394429611
40
0.821153994031726
40
0.821153994031726
40
0.875897593633842
40
0.875897593633842
40
0.930641193235957
40
0.930641193235957
40
0.985384792838072
40
0.985384792838072
40
1
40
1
40
1
40
1
41
1
10
137.561549586676
20
-6.09804216312256
30
0
41
1
10
136.311507426191
20
-5.80370072841978
30
0
41
1
10
135.064543952883
20
-5.47561295038719
30
0
41
1
10
133.195117720625
20
-4.9381731756373
30
0
41
1
10
132.572043766996
20
-4.75167145714079
30
0
41
1
10
131.636660377315
20
-4.46266623276762
30
0
41
1
10
131.324779722396
20
-4.36469499534323
30
0
41
1
10
130.700395534174
20
-4.16651076977311
30
0
41
1
10
130.387757910383
20
-4.06665869408849
30
0
41
1
10
128.827225913787
20
-3.56216461564216
30
0
41
1
10
127.58484174678
20
-3.13903629512839
30
0
41
1
10
125.108211416301
20
-2.26435539853242
30
0
41
1
10
123.873711835568
20
-1.81347709213404
30
0
41
1
10
121.40682815872
20
-0.899711650667768
30
0
41
1
10
120.175090567712
20
-0.435061688497314
30
0
41
1
10
117.710482460825
20
0.497356360824341
30
0
41
1
10
116.477334582881
20
0.964374201121956
30
0
41
1
10
114.001870795217
20
1.87909552470345
30
0
41
1
10
112.760357102911
20
2.3290238291408
30
0
41
1
10
110.890238890766
20
2.98672079152343
30
0
41
1
10
110.264576613384
20
3.20326374098451
30
0
41
1
10
109.017460114319
20
3.6258106327972
30
0
41
1
10
108.395347813568
20
3.83192608842896
30
0
41
1
10
106.532474996804
20
4.43288247787763
30
0
41
1
10
105.295673672086
20
4.81156562141734
30
0
41
1
10
102.827941371542
20
5.51493334142046
30
0
41
1
10
101.596780790267
20
5.83892073642292
30
0
41
1
10
99.1320975634988
20
6.41804783069918
30
0
41
1
10
97.8993309810657
20
6.67481252844581
30
0
41
1
10
95.4302247387685
20
7.11823698847854
30
0
41
1
10
94.1937144562249
20
7.30446482187582
30
0
41
1
10
92.3316516983077
20
7.52476183582428
30
0
41
1
10
91.7098661908624
20
7.58849819723719
30
0
41
1
10
90.4636627941215
20
7.69588020513618
30
0
41
1
10
89.838262716348
20
7.7395425592392
30
0
41
1
10
87.9685504776961
20
7.83862230592487
30
0
41
1
10
86.728369512167
20
7.86211509136365
30
0
41
1
10
84.2526859391168
20
7.8261625739382
30
0
41
1
10
83.0178483789724
20
7.76707710327699
30
0
41
1
10
80.5515927649395
20
7.56861137850265
30
0
41
1
10
79.3200413496662
20
7.42905533878289
30
0
41
1
10
76.85425745238
20
7.07402864005937
30
0
41
1
10
75.6205908588186
20
6.85809742141788
30
0
41
1
10
73.1475639319416
20
6.35261131842958
30
0
41
1
10
71.9080141427972
20
6.06301124429754
30
0
41
1
10
70.3287161869773
20
5.65794042045698
30
0
41
1
10
69.9951972503807
20
5.57031297776234
30
0
41
1
10
69.6616528513884
20
5.48063966407807
30
0
0
SPLINE
5
15F
100
AcDbEntity
8
1
62
256
6
ByLayer
370
18
48
1
60
0
100
AcDbSpline
70
4
71
3
72
8
73
4
40
0
40
0
40
0
40
0
40
1
40
1
40
1
40
1
41
1
10
20.8126285138465
20
-7.84998158415732
30
0
41
1
10
20.0703617952271
20
-7.85023006796496
30
0
41
1
10
19.3277560354548
20
-7.83550852094271
30
0
41
1
10
18.5842300036131
20
-7.80547071843668
30
0
0
SPLINE
5
160
100
AcDbEntity
8
1
62
256
6
ByLayer
370
18
48
1
60
0
100
AcDbSpline
70
4
71
3
72
8
73
4
40
0
40
0
40
0
40
0
40
1
40
1
40
1
40
1
41
1
10
13.4554166633648
20
4.15137306133545
30
0
41
1
10
13.2639640433306
20
4.34720470352605
30
0
41
1
10
13.0750642431834
20
4.54587584214772
30
0
41
1
10
12.8892231397341
20
4.74797328691665
30
0
0
SPLINE
5
161
100
AcDbEntity
8
1
62
256
6
ByLayer
370
18
48
1
60
0
100
AcDbSpline
70
4
71
3
72
8
73
4
40
0
40
0
40
0
40
0
40
1
40
1
40
1
40
1
41
1
10
156.896558457331
20
-0.300004343660163
30
0
41
1
10
156.931009722982
20
-0.178355674677988
30
0
41
1
10
156.960577079806
20
-0.0586287106575298
30
0
41
1
10
156.986092560466
20
0.0595039339750656
30
0
0
SPLINE
5
162
100
AcDbEntity
8
1
62
256
6
ByLayer
370
18
48
1
60
0
100
AcDbSpline
70
4
71
1
72
4
73
2
40
0
40
0
40
1
40
1
41
1
10
152.156010423472
20
-6.11009594324312
30
0
41
1
10
152.021882358863
20
-6.17295289519325
30
0
0
SPLINE
5
163
100
AcDbEntity
8
1
62
256
6
ByLayer
370
18
48
1
60
0
100
AcDbSpline
70
4
71
3
72
14
73
10
40
0
40
0
40
0
40
0
40
0.0419735498992125
40
0.0419735498992125
40
0.361315699932808
40
0.361315699932808
40
0.680657849966404
40
0.680657849966404
40
1
40
1
40
1
40
1
41
1
10
149.032130176306
20
1.57311683456086
30
0
41
1
10
149.089569559214
20
1.56570932177709
30
0
41
1
10
149.147011023033
20
1.55831918223976
30
0
41
1
10
149.641495256657
20
1.49485392560823
30
0
41
1
10
150.078686252347
20
1.44001632682043
30
0
41
1
10
150.95367305288
20
1.33539060093838
30
0
41
1
10
151.39138430245
20
1.28489653302961
30
0
41
1
10
152.266743187986
20
1.18337729564303
30
0
41
1
10
152.704460571028
20
1.13293443528477
30
0
41
1
10
153.142254766284
20
1.08313286995099
30
0
0
SPLINE
5
164
100
AcDbEntity
8
1
62
256
6
ByLayer
370
18
48
1
60
0
100
AcDbSpline
70
4
71
2
72
6
73
3
40
0
40
0
40
0
40
1
40
1
40
1
41
1
10
150.151534037213
20
0.897895683931608
30
0
41
1
10
150.308771076487
20
0.253998006986592
30
0
41
1
10
150.506348019249
20
-0.392887408250317
30
0
0
SPLINE
5
165
100
AcDbEntity
8
1
62
256
6
ByLayer
370
18
48
1
60
0
100
AcDbSpline
70
4
71
3
72
22
73
18
40
0
40
0
40
0
40
0
40
0.0023843471198989
40
0.0598067017878672
40
0.174651411123804
40
0.232073765791773
40
0.289496120459741
40
0.404340829795678
40
0.461763184463646
40
0.519185539131615
40
0.634030248467552
40
0.69145260313552
40
0.748874957803488
40
0.863719667139425
40
0.921142021807394
40
0.978564376475363
40
1
40
1
40
1
40
1
41
1
10
59.0616698531075
20
-0.0054088517114792
30
0
41
1
10
59.087694875836
20
-0.0145523377406391
30
0
41
1
10
59.7405031691827
20
-0.243920211856306
30
0
41
1
10
61.6485236320969
20
-0.915327189891911
30
0
41
1
10
64.1567147888586
20
-1.78516655414404
30
0
41
1
10
66.6624577070438
20
-2.62386992680197
30
0
41
1
10
69.171291440683
20
-3.43585031654459
30
0
41
1
10
71.6781367366606
20
-4.19619057874919
30
0
41
1
10
74.1833318997331
20
-4.88369537032033
30
0
41
1
10
76.6926912618294
20
-5.51354274830197
30
0
41
1
10
79.2009427734454
20
-6.05912122888972
30
0
41
1
10
81.706710294325
20
-6.50828841395141
30
0
41
1
10
84.2155375666409
20
-6.87927223880885
30
0
41
1
10
86.7223415150432
20
-7.14554460447649
30
0
41
1
10
89.2274774763134
20
-7.29909160147081
30
0
41
1
10
90.7163040538879
20
-7.33644752045174
30
0
41
1
10
91.5776329407261
20
-7.34023924308974
30
0
41
1
10
91.8117485078106
20
-7.33995221724279
30
0
0
SPLINE
5
166
100
AcDbEntity
8
1
62
256
6
ByLayer
370
13
48
1
60
0
100
AcDbSpline
70
4
71
3
72
16
73
12
40
0
40
0
40
0
40
0
40
0.250000000000003
40
0.250000000000003
40
0.500000000000007
40
0.500000000000007
40
0.625000000000008
40
0.625000000000008
40
0.75000000000001
40
0.75000000000001
40
1
40
1
40
1
40
1
41
1
10
156.105523311848
20
0.812367772084002
30
0
41
1
10
155.950595821816
20
0.915647429037875
30
0
41
1
10
155.801426220714
20
1.03069805686059
30
0
41
1
10
155.518435611728
20
1.28718520493672
30
0
41
1
10
155.384333656889
20
1.42873168006756
30
0
41
1
10
155.197708416899
20
1.66715789441949
30
0
41
1
10
155.138547451679
20
1.75030418702963
30
0
41
1
10
155.027550816088
20
1.92430286195119
30
0
41
1
10
154.975394502915
20
2.01570908238628
30
0
41
1
10
154.833743847185
20
2.29890510949818
30
0
41
1
10
154.75839074745
20
2.49968782457222
30
0
41
1
10
154.706977965193
20
2.71556732882303
30
0
0
SPLINE
5
167
100
AcDbEntity
8
1
62
256
6
ByLayer
370
18
48
1
60
0
100
AcDbSpline
70
4
71
3
72
21
73
17
40
0
40
0
40
0
40
0
40
0.0285075683495961
40
0.05693262662512
40
0.0853447234361524
40
0.113813502386333
40
0.142408192927076
40
0.213406663654303
40
0.283899719249451
40
0.355066706704143
40
0.425291088087836
40
0.56596832704976
40
0.706131079658215
40
0.845922323856286
40
0.985279927334735
40
1
40
1
40
1
40
1
41
1
10
146.900003986302
20
-7.52707054245047
30
0
41
1
10
146.90024262827
20
-7.52230825211134
30
0
41
1
10
146.900719221498
20
-7.51279745503339
30
0
41
1
10
146.904551416281
20
-7.4981902627429
30
0
41
1
10
146.910669593749
20
-7.48338409838817
30
0
41
1
10
146.919293589683
20
-7.46835577567083
30
0
41
1
10
146.935816131955
20
-7.44563321588484
30
0
41
1
10
146.965848894691
20
-7.41506453494711
30
0
41
1
10
147.01778415961
20
-7.37705599609163
30
0
41
1
10
147.082860740425
20
-7.3401570747433
30
0
41
1
10
147.186510314802
20
-7.29370833726193
30
0
41
1
10
147.345323780277
20
-7.24296418272925
30
0
41
1
10
147.572632740457
20
-7.20249321690955
30
0
41
1
10
147.819375516534
20
-7.18973673307099
30
0
41
1
10
147.991686790178
20
-7.20183022940125
30
0
41
1
10
148.076560718193
20
-7.21374728431249
30
0
41
1
10
148.08466929316
20
-7.21488580040798
30
0
0
SPLINE
5
168
100
AcDbEntity
8
1
62
256
6
ByLayer
370
18
48
1
60
0
100
AcDbSpline
70
4
71
3
72
14
73
10
40
0
40
0
40
0
40
0
40
0.25
40
0.25
40
0.5
40
0.5
40
0.75
40
0.75
40
1
40
1
40
1
40
1
41
1
10
12.8892231397341
20
8.49528581075481
30
0
41
1
10
13.1230279250962
20
8.35081059191469
30
0
41
1
10
13.363534404519
20
8.22351179477931
30
0
41
1
10
13.8581317917945
20
8.00183687354303
30
0
41
1
10
14.1122157006864
20
7.90745328671622
30
0
41
1
10
14.6354237466809
20
7.75298280012831
30
0
41
1
10
14.9058665927736
20
7.69293133638243
30
0
41
1
10
15.44887120525
20
7.61316373962737
30
0
41
1
10
15.7229513439821
20
7.59284349940682
30
0
41
1
10
15.9999999999999
20
7.59346334013205
30
0
0
SPLINE
5
169
100
AcDbEntity
8
1
62
256
6
ByLayer
370
18
48
1
60
0
100
AcDbSpline
70
4
71
3
72
8
73
4
40
0
40
0
40
0
40
0
40
1
40
1
40
1
40
1
41
1
10
150.311893337961
20
1.10888549297081
30
0
41
1
10
150.259218502117
20
1.03648207813163
30
0
41
1
10
150.205775828879
20
0.966124190244557
30
0
41
1
10
150.151534401711
20
0.897894191286696
30
0
0
SPLINE
5
16A
100
AcDbEntity
8
1
62
256
6
ByLayer
370
18
48
1
60
0
100
AcDbSpline
70
4
71
3
72
8
73
4
40
0
40
0
40
0
40
0
40
1
40
1
40
1
40
1
41
1
10
15.5952549686976
20
2.23265231231807
30
0
41
1
10
15.6261172357496
20
2.17566555569485
30
0
41
1
10
15.6560664794591
20
2.1141536840895
30
0
41
1
10
15.6846250069778
20
2.04841107240799
30
0
0
SPLINE
5
16B
100
AcDbEntity
8
1
62
256
6
ByLayer
370
13
48
1
60
0
100
AcDbSpline
70
4
71
3
72
22
73
18
40
0
40
0
40
0
40
0
40
0.314814420230077
40
0.314814420230077
40
0.472221630345115
40
0.472221630345115
40
0.550925235402633
40
0.550925235402633
40
0.629628840460152
40
0.629628840460152
40
0.787036050575189
40
0.787036050575189
40
0.865739655632708
40
0.865739655632708
40
0.944443260690227
40
0.944443260690227
40
1
40
1
40
1
40
1
41
1
10
155.104158897679
20
-1.22552848837657
30
0
41
1
10
154.898306688759
20
-1.08751108959638
30
0
41
1
10
154.643119161152
20
-0.888709478689378
30
0
41
1
10
154.347832042854
20
-0.61725101686838
30
0
41
1
10
154.221655149097
20
-0.491581306921432
30
0
41
1
10
154.07751268562
20
-0.334824338052357
30
0
41
1
10
154.014993467567
20
-0.263827425534288
30
0
41
1
10
153.920323596956
20
-0.151253261799411
30
0
41
1
10
153.858137451119
20
-0.0738445658453202
30
0
41
1
10
153.719101383407
20
0.107903647014581
30
0
41
1
10
153.598555723816
20
0.281702429187504
30
0
41
1
10
153.469981865689
20
0.488887273249304
30
0
41
1
10
153.412707364769
20
0.586552492333539
30
0
41
1
10
153.331009502151
20
0.734706216951338
30
0
41
1
10
153.276092546008
20
0.840745939498873
30
0
41
1
10
153.210890647123
20
0.975617531430089
30
0
41
1
10
153.183090582495
20
1.03713983711017
30
0
41
1
10
153.155121075354
20
1.10278224156522
30
0
0
SPLINE
5
16C
100
AcDbEntity
8
1
62
256
6
ByLayer
370
18
48
1
60
0
100
AcDbSpline
70
4
71
1
72
4
73
2
40
0
40
0
40
1
40
1
41
1
10
18.5842300036132
20
7.80547071843668
30
0
41
1
10
18.4285109852152
20
7.16888209152859
30
0
0
SPLINE
5
16D
100
AcDbEntity
8
1
62
256
6
ByLayer
370
18
48
1
60
0
100
AcDbSpline
70
4
71
3
72
14
73
10
40
0
40
0
40
0
40
0
40
0.499999999999995
40
0.499999999999995
40
0.749999999999997
40
0.749999999999997
40
0.874999999999999
40
0.874999999999999
40
1
40
1
40
1
40
1
41
1
10
156.157391144758
20
-2.88662905218868
30
0
41
1
10
155.990099407051
20
-3.34876532539551
30
0
41
1
10
155.825332417565
20
-3.81342925282243
30
0
41
1
10
155.582214354154
20
-4.51446220612374
30
0
41
1
10
155.501853667201
20
-4.74881930589143
30
0
41
1
10
155.382440103359
20
-5.10148371985088
30
0
41
1
10
155.342786857154
20
-5.21934242365353
30
0
41
1
10
155.264553613496
20
-5.45345253265273
30
0
41
1
10
155.225894203567
20
-5.56993667434782
30
0
41
1
10
155.187713664875
20
-5.68582285342359
30
0
0
SPLINE
5
16E
100
AcDbEntity
8
1
62
256
6
ByLayer
370
18
48
1
60
0
100
AcDbSpline
70
4
71
3
72
8
73
4
40
0
40
0
40
0
40
0
40
1
40
1
40
1
40
1
41
1
10
156.986092560475
20
-0.0595039339750656
30
0
41
1
10
156.974669631402
20
-0.09746115813752
30
0
41
1
10
156.963314873572
20
-0.135285051216442
30
0
41
1
10
156.952027735971
20
-0.17297669089416
30
0
0
SPLINE
5
16F
100
AcDbEntity
8
1
62
256
6
ByLayer
370
13
48
1
60
0
100
AcDbSpline
70
4
71
3
72
15
73
11
40
0
40
0
40
0
40
0
40
0.25061586647097
40
0.375923799706455
40
0.438577766324197
40
0.50123173294194
40
0.751847599412909
40
0.814501566030652
40
0.877155532648394
40
1
40
1
40
1
40
1
41
1
10
147
20
6.10547153228333
30
0
41
1
10
147.684200307997
20
6.1286226107259
30
0
41
1
10
148.710381367217
20
6.1381276995385
30
0
41
1
10
149.906982074124
20
6.11113823823288
30
0
41
1
10
150.590899519231
20
6.08688708185625
30
0
41
1
10
151.617153988332
20
6.04015249150456
30
0
41
1
10
152.643122494681
20
5.9642715030065
30
0
41
1
10
153.668796700375
20
5.86373785853982
30
0
41
1
10
154.346115553301
20
5.79189877124915
30
0
41
1
10
154.852430499804
20
5.73004083379053
30
0
41
1
10
155.187713666016
20
5.68582284996754
30
0
0
SPLINE
5
170
100
AcDbEntity
8
1
62
256
6
ByLayer
370
18
48
1
60
0
100
AcDbSpline
70
4
71
3
72
16
73
12
40
0
40
0
40
0
40
0
40
0.250000000000007
40
0.250000000000007
40
0.375000000000006
40
0.375000000000006
40
0.500000000000005
40
0.500000000000005
40
0.750000000000002
40
0.750000000000002
40
1
40
1
40
1
40
1
41
1
10
20.5597857333213
20
-7.55202568339112
30
0
41
1
10
20.41472618109
20
-7.50757205601749
30
0
41
1
10
20.2857694590681
20
-7.45530194753684
30
0
41
1
10
20.1160865950881
20
-7.36216759504543
30
0
41
1
10
20.0635106590919
20
-7.32865909418072
30
0
41
1
10
19.9665927430179
20
-7.25606023196076
30
0
41
1
10
19.9224570013114
20
-7.21704211355066
30
0
41
1
10
19.8054163175343
20
-7.09365216647063
30
0
41
1
10
19.7466439283317
20
-7.00218783136913
30
0
41
1
10
19.6672861739336
20
-6.79862897036418
30
0
41
1
10
19.6470000001307
20
-6.68588747550814
30
0
41
1
10
19.6470000001345
20
-6.56543106840766
30
0
0
SPLINE
5
171
100
AcDbEntity
8
1
62
256
6
ByLayer
370
18
48
1
60
0
100
AcDbSpline
70
4
71
3
72
8
73
4
40
0
40
0
40
0
40
0
40
1
40
1
40
1
40
1
41
1
10
146.8
20
2.38547712928451
30
0
41
1
10
146.8
20
2.43225433009226
30
0
41
1
10
146.8
20
2.48067283858683
30
0
41
1
10
146.8
20
2.53072612928454
30
0
0
SPLINE
5
172
100
AcDbEntity
8
1
62
256
6
ByLayer
370
18
48
1
60
0
100
AcDbSpline
70
4
71
3
72
54
73
50
40
0
40
0
40
0
40
0
40
0.0610634831206329
40
0.0610634831206329
40
0.0936654455557097
40
0.0936654455557097
40
0.126267407990787
40
0.126267407990787
40
0.158869370425863
40
0.158869370425863
40
0.19147133286094
40
0.19147133286094
40
0.256675257731095
40
0.256675257731095
40
0.289277220166172
40
0.289277220166172
40
0.32187918260125
40
0.32187918260125
40
0.387083107471405
40
0.387083107471405
40
0.419685069906482
40
0.419685069906482
40
0.45228703234156
40
0.45228703234156
40
0.517490957211714
40
0.517490957211714
40
0.550092919646792
40
0.550092919646792
40
0.582694882081869
40
0.582694882081869
40
0.647898806952024
40
0.647898806952024
40
0.680500769387101
40
0.680500769387101
40
0.713102731822178
40
0.713102731822178
40
0.778306656692332
40
0.778306656692332
40
0.810908619127408
40
0.810908619127408
40
0.843510581562484
40
0.843510581562484
40
0.908714506432637
40
0.908714506432637
40
0.941316468867714
40
0.941316468867714
40
0.973918431302791
40
0.973918431302791
40
1
40
1
40
1
40
1
41
1
10
134.791375528586
20
-5.38518243409945
30
0
41
1
10
133.627004993098
20
-5.62480130489101
30
0
41
1
10
132.463934687573
20
-5.8362593335811
30
0
41
1
10
130.679508585406
20
-6.1148408512334
30
0
41
1
10
130.058321448848
20
-6.2032253465878
30
0
41
1
10
128.815331565631
20
-6.36318553774632
30
0
41
1
10
128.193503155318
20
-6.43455259505623
30
0
41
1
10
126.949045400451
20
-6.56263333557186
30
0
41
1
10
126.326990068499
20
-6.61930353796197
30
0
41
1
10
125.083496136982
20
-6.71482215563879
30
0
41
1
10
124.4619385817
20
-6.75402753059248
30
0
41
1
10
122.597089166676
20
-6.84487795348736
30
0
41
1
10
121.353594640908
20
-6.86974942043591
30
0
41
1
10
119.485266274434
20
-6.85154992631584
30
0
41
1
10
118.862373960044
20
-6.83616631394548
30
0
41
1
10
117.617686314499
20
-6.78669721773662
30
0
41
1
10
116.995631368797
20
-6.75269069934552
30
0
41
1
10
115.129675148578
20
-6.62336348203871
30
0
41
1
10
113.885938102048
20
-6.50061965033393
30
0
41
1
10
112.01841783141
20
-6.26706785560614
30
0
41
1
10
111.395747163753
20
-6.18097399663449
30
0
41
1
10
110.151679561081
20
-5.99274380699524
30
0
41
1
10
109.529986127293
20
-5.89063814253177
30
0
41
1
10
107.665041757121
20
-5.56117493774838
30
0
41
1
10
106.421883378778
20
-5.31062228253077
30
0
41
1
10
104.554168965388
20
-4.89412362286311
30
0
41
1
10
103.931075305261
20
-4.74846735728602
30
0
41
1
10
102.68621720621
20
-4.44491174746574
30
0
41
1
10
102.064114651624
20
-4.28698909892742
30
0
41
1
10
100.198133328794
20
-3.79645654135462
30
0
41
1
10
98.9545365903863
20
-3.44709822649497
30
0
41
1
10
97.0874632910297
20
-2.89743838500274
30
0
41
1
10
96.4646687417739
20
-2.70985841653609
30
0
41
1
10
95.2204088428204
20
-2.32819743685673
30
0
41
1
10
94.5986648734728
20
-2.13405796920478
30
0
41
1
10
92.7337142263963
20
-1.54410575365739
30
0
41
1
10
91.4907455703507
20
-1.14084690873241
30
0
41
1
10
89.6236202088983
20
-0.530474025073374
30
0
41
1
10
89.0005275926073
20
-0.325978326741904
30
0
41
1
10
87.7555294982351
20
0.0827991594453579
30
0
41
1
10
87.1334026293517
20
0.287160547615343
30
0
41
1
10
85.2674808083605
20
0.898169496301335
30
0
41
1
10
84.0241006554265
20
1.30258553882831
30
0
41
1
10
82.1575788914319
20
1.89829645949601
30
0
41
1
10
81.5348681664909
20
2.09520045727433
30
0
41
1
10
80.2904583997966
20
2.48284378214922
30
0
41
1
10
79.6686779868804
20
2.67364607266791
30
0
41
1
10
78.5497115327386
20
3.00999302943089
30
0
41
1
10
78.0524709631709
20
3.15692490997878
30
0
41
1
10
77.5551722342685
20
3.30093631289071
30
0
0
SPLINE
5
173
100
AcDbEntity
8
1
62
256
6
ByLayer
370
18
48
1
60
0
100
AcDbSpline
70
4
71
3
72
8
73
4
40
0
40
0
40
0
40
0
40
1
40
1
40
1
40
1
41
1
10
147
20
-7.43118429323349
30
0
41
1
10
146.966666666667
20
-7.46314637621512
30
0
41
1
10
146.933333333333
20
-7.49510845919679
30
0
41
1
10
146.9
20
-7.52707054217842
30
0
0
SPLINE
5
174
100
AcDbEntity
8
1
62
256
6
ByLayer
370
18
48
1
60
0
100
AcDbSpline
70
4
71
3
72
8
73
4
40
0
40
0
40
0
40
0
40
1
40
1
40
1
40
1
41
1
10
138.07928293981
20
5.81493901170219
30
0
41
1
10
138.231506326113
20
5.84698218872282
30
0
41
1
10
138.378276683424
20
5.89241196640484
30
0
41
1
10
138.519662408725
20
5.95126362009046
30
0
0
SPLINE
5
175
100
AcDbEntity
8
1
62
256
6
ByLayer
370
18
48
1
60
0
100
AcDbSpline
70
4
71
3
72
8
73
4
40
0
40
0
40
0
40
0
40
1
40
1
40
1
40
1
41
1
10
153.142254766284
20
1.08313286995096
30
0
41
1
10
153.146564688623
20
1.08964303770836
30
0
41
1
10
153.150853460364
20
1.09619280082941
30
0
41
1
10
153.155121075354
20
1.10278224156522
30
0
0
SPLINE
5
176
100
AcDbEntity
8
1
62
256
6
ByLayer
370
18
48
1
60
0
100
AcDbSpline
70
4
71
3
72
14
73
10
40
0
40
0
40
0
40
0
40
0.249999999999999
40
0.249999999999999
40
0.5
40
0.5
40
0.75
40
0.75
40
1
40
1
40
1
40
1
41
1
10
156.809537154655
20
-0.748074234483369
30
0
41
1
10
156.781871777041
20
-0.86217264729305
30
0
41
1
10
156.747631660838
20
-0.992674038181093
30
0
41
1
10
156.667371946034
20
-1.28126157779604
30
0
41
1
10
156.621354696631
20
-1.43933918155074
30
0
41
1
10
156.519388123706
20
-1.77673201403727
30
0
41
1
10
156.463441547612
20
-1.95603815193053
30
0
41
1
10
156.343862134693
20
-2.32868975577307
30
0
41
1
10
156.280233659087
20
-2.52202179574084
30
0
41
1
10
156.214036985575
20
-2.71849927700734
30
0
0
SPLINE
5
177
100
AcDbEntity
8
1
62
256
6
ByLayer
370
18
48
1
60
0
100
AcDbSpline
70
4
71
3
72
28
73
24
40
0
40
0
40
0
40
0
40
0.124999999999994
40
0.124999999999994
40
0.187499999999993
40
0.187499999999993
40
0.249999999999991
40
0.249999999999991
40
0.374999999999984
40
0.374999999999984
40
0.437499999999983
40
0.437499999999983
40
0.499999999999982
40
0.499999999999982
40
0.624999999999985
40
0.624999999999985
40
0.687499999999988
40
0.687499999999988
40
0.74999999999999
40
0.74999999999999
40
0.874999999999995
40
0.874999999999995
40
1
40
1
40
1
40
1
41
1
10
151.811180237842
20
0.953203026872188
30
0
41
1
10
151.785579879916
20
0.845436387910979
30
0
41
1
10
151.754071745941
20
0.750386992594343
30
0
41
1
10
151.697579113751
20
0.627682583558254
30
0
41
1
10
151.677204175878
20
0.590104901565866
30
0
41
1
10
151.633226482505
20
0.521897827913278
30
0
41
1
10
151.609657343356
20
0.491395950850091
30
0
41
1
10
151.53554580952
20
0.41227546320107
30
0
41
1
10
151.48118130907
20
0.375250260438293
30
0
41
1
10
151.392349312939
20
0.342819467372607
30
0
41
1
10
151.361519630419
20
0.335875626295206
30
0
41
1
10
151.297389115182
20
0.329825826242626
30
0
41
1
10
151.264062105833
20
0.330769171476959
30
0
41
1
10
151.162293046364
20
0.345145822810252
30
0
41
1
10
151.091470296605
20
0.369951846646899
30
0
41
1
10
150.981038186324
20
0.428627539289607
30
0
41
1
10
150.943524708884
20
0.451779781498487
30
0
41
1
10
150.867102311382
20
0.505219947292261
30
0
41
1
10
150.828255217027
20
0.535492230371148
30
0
41
1
10
150.711464490504
20
0.635285948913861
30
0
41
1
10
150.632689890608
20
0.714124751505778
30
0
41
1
10
150.473446069523
20
0.894622455008459
30
0
41
1
10
150.392668739493
20
0.996736818745035
30
0
41
1
10
150.311893337961
20
1.10888549297121
30
0
0
SPLINE
5
178
100
AcDbEntity
8
1
62
256
6
ByLayer
370
18
48
1
60
0
100
AcDbSpline
70
4
71
3
72
8
73
4
40
0
40
0
40
0
40
0
40
1
40
1
40
1
40
1
41
1
10
137.459310232286
20
5.75480877016287
30
0
41
1
10
137.632924396271
20
5.84122275216816
30
0
41
1
10
137.805081647249
20
5.92998990874793
30
0
41
1
10
137.975675413918
20
6.02127966419476
30
0
0
SPLINE
5
179
100
AcDbEntity
8
1
62
256
6
ByLayer
370
18
48
1
60
0
100
AcDbSpline
70
2053
71
3
72
39
73
35
40
0
40
0
40
0
40
0
40
0.0303163288739836
40
0.062440128779621
40
0.0936072604596578
40
0.12490199009183
40
0.156196505287894
40
0.187391222880339
40
0.219467419850573
40
0.249874407208043
40
0.280274409626636
40
0.312387402588628
40
0.343577940629915
40
0.374908262191752
40
0.406082780315196
40
0.437412999498131
40
0.469563433892277
40
0.49985297652135
40
0.53019359344973
40
0.562433048013602
40
0.593712324325976
40
0.624997499384319
40
0.656199974828637
40
0.68754095029021
40
0.719637354264313
40
0.749991513532591
40
0.780339002025287
40
0.812405351652591
40
0.84372758127195
40
0.874887529740733
40
0.906227285632493
40
0.937456355640565
40
0.969671714200784
40
1
40
1
40
1
40
1
41
1
10
144.05
20
-4.06131148991891
30
0
41
1
10
143.932043693827
20
-4.06131208064513
30
0
41
1
10
143.68909837246
20
-4.08235793005284
30
0
41
1
10
143.339341562346
20
-4.17555149811156
30
0
41
1
10
143.015347211684
20
-4.32669403101488
30
0
41
1
10
142.734349553657
20
-4.52244074729168
30
0
41
1
10
142.503417691763
20
-4.75334501820822
30
0
41
1
10
142.329590927249
20
-5.00956095693931
30
0
41
1
10
142.223693755567
20
-5.27403719396915
30
0
41
1
10
142.188613152993
20
-5.53454453304997
30
0
41
1
10
142.223123944926
20
-5.78175338427377
30
0
41
1
10
142.328524785347
20
-6.00895161687166
30
0
41
1
10
142.50202406224
20
-6.20781475807939
30
0
41
1
10
142.732380634317
20
-6.37132337124567
30
0
41
1
10
143.013231070388
20
-6.49961492688959
30
0
41
1
10
143.337230305969
20
-6.59236134300511
30
0
41
1
10
143.687506575632
20
-6.64743853425838
30
0
41
1
10
144.04846415358
20
-6.66495299231903
30
0
41
1
10
144.409841996044
20
-6.64771049850012
30
0
41
1
10
144.760604823232
20
-6.59284686808522
30
0
41
1
10
145.085306251162
20
-6.50016042436872
30
0
41
1
10
145.366187757826
20
-6.37213226773929
30
0
41
1
10
145.597132648612
20
-6.20857424050175
30
0
41
1
10
145.770955217365
20
-6.00984347008114
30
0
41
1
10
145.876628482008
20
-5.78248948176525
30
0
41
1
10
145.911347791816
20
-5.5356928995929
30
0
41
1
10
145.876686253383
20
-5.2755280787718
30
0
41
1
10
145.771162275594
20
-5.01089015556551
30
0
41
1
10
145.597635642928
20
-4.75461594850185
30
0
41
1
10
145.366876904907
20
-4.52350590611547
30
0
41
1
10
145.086229442074
20
-4.32756336166977
30
0
41
1
10
144.761700195153
20
-4.17587665416167
30
0
41
1
10
144.41135069501
20
-4.08239751546378
30
0
41
1
10
144.168002828783
20
-4.06131089895971
30
0
41
1
10
144.05
20
-4.06131148991891
30
0
0
SPLINE
5
17A
100
AcDbEntity
8
1
62
256
6
ByLayer
370
18
48
1
60
0
100
AcDbSpline
70
4
71
3
72
10
73
6
40
0
40
0
40
0
40
0
40
0.5
40
0.5
40
1
40
1
40
1
40
1
41
1
10
17.6
20
7.77704842441776
30
0
41
1
10
17.4256457083888
20
7.7549662951867
30
0
41
1
10
17.253654598153
20
7.73535969618371
30
0
41
1
10
16.9141735433192
20
7.70040816327131
30
0
41
1
10
16.7462263191692
20
7.68503180604446
30
0
41
1
10
16.5816675455674
20
7.67121762296364
30
0
0
SPLINE
5
17B
100
AcDbEntity
8
1
62
256
6
ByLayer
370
18
48
1
60
0
100
AcDbSpline
70
4
71
3
72
9
73
5
40
0
40
0
40
0
40
0
40
0.493266102920724
40
1
40
1
40
1
40
1
41
1
10
147.000000020471
20
6.49966487278388
30
0
41
1
10
146.984626704752
20
6.52654934224893
30
0
41
1
10
146.953460331007
20
6.58105231601067
30
0
41
1
10
146.921139312573
20
6.63497476166751
30
0
41
1
10
146.904761156944
20
6.66229909269526
30
0
0
SPLINE
5
17C
100
AcDbEntity
8
1
62
256
6
ByLayer
370
18
48
1
60
0
100
AcDbSpline
70
4
71
3
72
18
73
14
40
0
40
0
40
0
40
0
40
0.249999999999994
40
0.249999999999994
40
0.374999999999991
40
0.374999999999991
40
0.499999999999987
40
0.499999999999987
40
0.749999999999994
40
0.749999999999994
40
0.874999999999997
40
0.874999999999997
40
1
40
1
40
1
40
1
41
1
10
15.3725263857374
20
2.30202055602038
30
0
41
1
10
15.1777930102307
20
2.36741150473685
30
0
41
1
10
14.9922329210734
20
2.45037688647579
30
0
41
1
10
14.7273814233427
20
2.60065417919358
30
0
41
1
10
14.641198555549
20
2.65520057123342
30
0
41
1
10
14.4742177668226
20
2.77280486916192
30
0
41
1
10
14.3945704557686
20
2.83502722332969
30
0
41
1
10
14.166696042766
20
3.03156783056707
30
0
41
1
10
14.029428310978
20
3.17566056114475
30
0
41
1
10
13.8457271048199
20
3.41174768117105
30
0
41
1
10
13.788776032576
20
3.49314644263424
30
0
41
1
10
13.6845032264
20
3.6592351918967
30
0
41
1
10
13.6369470246471
20
3.74422373566731
30
0
41
1
10
13.5938831765484
20
3.83113580894707
30
0
0
SPLINE
5
17D
100
AcDbEntity
8
1
62
256
6
ByLayer
370
18
48
1
60
0
100
AcDbSpline
70
4
71
3
72
12
73
8
40
0
40
0
40
0
40
0
40
0.5
40
0.5
40
0.75
40
0.75
40
1
40
1
40
1
40
1
41
1
10
17.6
20
-7.77704842441776
30
0
41
1
10
17.7707746442112
20
-7.7783908383073
30
0
41
1
10
17.9381279809839
20
-7.78177864647625
30
0
41
1
10
18.1842265044042
20
-7.78920205726385
30
0
41
1
10
18.2654323278861
20
-7.79206275731437
30
0
41
1
10
18.4261645590133
20
-7.79837915002867
30
0
41
1
10
18.5060030850389
20
-7.80184992493966
30
0
41
1
10
18.5842300036132
20
-7.80547071843668
30
0
0
SPLINE
5
17E
100
AcDbEntity
8
1
62
256
6
ByLayer
370
18
48
1
60
0
100
AcDbSpline
70
4
71
3
72
10
73
6
40
0
40
0
40
0
40
0
40
0.5
40
0.5
40
1
40
1
40
1
40
1
41
1
10
16.5816675455674
20
7.67121762296364
30
0
41
1
10
16.682523929157
20
7.59661954777619
30
0
41
1
10
16.7887340334725
20
7.52849100566905
30
0
41
1
10
17.0142590666352
20
7.40807069244559
30
0
41
1
10
17.1310022118273
20
7.35721379074346
30
0
41
1
10
17.251835895039
20
7.31632923153103
30
0
0
SPLINE
5
17F
100
AcDbEntity
8
1
62
256
6
ByLayer
370
18
48
1
60
0
100
AcDbSpline
70
4
71
3
72
17
73
13
40
0
40
0
40
0
40
0
40
0.102574121114684
40
0.204567639826097
40
0.305983676167236
40
0.406825403774742
40
0.50709605081899
40
0.606798900943445
40
0.705937294212884
40
0.804514628069913
40
0.902534358299392
40
1
40
1
40
1
40
1
41
1
10
150.37240307593
20
-0.409836876527891
30
0
41
1
10
150.359073707203
20
-0.364960240742562
30
0
41
1
10
150.332490418248
20
-0.27546098531468
30
0
41
1
10
150.293660718531
20
-0.141205290360887
30
0
41
1
10
150.255742381083
20
-0.0074797982890402
30
0
41
1
10
150.218801244026
20
0.125706862852525
30
0
41
1
10
150.182819454555
20
0.258308507772256
30
0
41
1
10
150.147803095937
20
0.390289995465935
30
0
41
1
10
150.113745596349
20
0.52161495501025
30
0
41
1
10
150.080667043767
20
0.652246688481284
30
0
41
1
10
150.048494231954
20
0.782156656097897
30
0
41
1
10
150.027771434484
20
0.86848915636736
30
0
41
1
10
150.017439404352
20
0.911533055024847
30
0
0
SPLINE
5
180
100
AcDbEntity
8
1
62
256
6
ByLayer
370
18
48
1
60
0
100
AcDbSpline
70
4
71
3
72
8
73
4
40
0
40
0
40
0
40
0
40
1
40
1
40
1
40
1
41
1
10
17.6
20
1.29968925417094
30
0
41
1
10
17.0675711877176
20
1.51995019878748
30
0
41
1
10
16.5343889272521
20
1.73320634236924
30
0
41
1
10
16
20
1.93871404170045
30
0
0
SPLINE
5
181
100
AcDbEntity
8
1
62
256
6
ByLayer
370
18
48
1
60
0
100
AcDbSpline
70
4
71
3
72
8
73
4
40
0
40
0
40
0
40
0
40
1
40
1
40
1
40
1
41
1
10
12.8037131219233
20
-8.54811879146183
30
0
41
1
10
12.8322143252805
20
-8.53051124426344
30
0
41
1
10
12.8607176868763
20
-8.51290021301517
30
0
41
1
10
12.8892231397341
20
-8.49528581075481
30
0
0
SPLINE
5
182
100
AcDbEntity
8
1
62
256
6
ByLayer
370
18
48
1
60
0
100
AcDbSpline
70
4
71
3
72
32
73
28
40
0
40
0
40
0
40
0
40
0.0624999999999936
40
0.0624999999999936
40
0.124999999999987
40
0.124999999999987
40
0.24999999999999
40
0.24999999999999
40
0.312499999999991
40
0.312499999999991
40
0.374999999999992
40
0.374999999999992
40
0.437499999999993
40
0.437499999999993
40
0.499999999999994
40
0.499999999999994
40
0.624999999999997
40
0.624999999999997
40
0.687499999999998
40
0.687499999999998
40
0.749999999999999
40
0.749999999999999
40
0.8125
40
0.8125
40
0.875000000000001
40
0.875000000000001
40
1
40
1
40
1
40
1
41
1
10
136.274234313201
20
-3.89303124746385
30
0
41
1
10
136.385532972531
20
-3.91688936919914
30
0
41
1
10
136.497825137979
20
-3.93510182525515
30
0
41
1
10
136.724381426418
20
-3.96050596064251
30
0
41
1
10
136.839249341526
20
-3.96768941945905
30
0
41
1
10
137.1817325873
20
-3.97236136571223
30
0
41
1
10
137.406871134715
20
-3.9535194281855
30
0
41
1
10
137.739908010476
20
-3.89245215024951
30
0
41
1
10
137.850839882506
20
-3.86633801021759
30
0
41
1
10
138.066843864012
20
-3.80361469017674
30
0
41
1
10
138.171941121172
20
-3.76710105811256
30
0
41
1
10
138.376514145936
20
-3.68378454838719
30
0
41
1
10
138.475989654625
20
-3.63698190234607
30
0
41
1
10
138.669285016805
20
-3.53263848919281
30
0
41
1
10
138.76363023489
20
-3.47468913775032
30
0
41
1
10
139.03221785329
20
-3.28745102051408
30
0
41
1
10
139.193254591445
20
-3.14476122651709
30
0
41
1
10
139.407829642267
20
-2.90161434456567
30
0
41
1
10
139.47490628326
20
-2.81536716454176
30
0
41
1
10
139.596490915803
20
-2.63702096286355
30
0
41
1
10
139.651478823926
20
-2.54444165475229
30
0
41
1
10
139.75001418884
20
-2.35230724097178
30
0
41
1
10
139.79356196576
20
-2.25275297648469
30
0
41
1
10
139.868951593463
20
-2.04627381743995
30
0
41
1
10
139.90046603264
20
-1.93997889159189
30
0
41
1
10
139.975278497816
20
-1.6183577121073
30
0
41
1
10
140
20
-1.39788353416489
30
0
41
1
10
140
20
-1.17116710631333
30
0
0
SPLINE
5
183
100
AcDbEntity
8
1
62
256
6
ByLayer
370
18
48
1
60
0
100
AcDbSpline
70
4
71
3
72
16
73
12
40
0
40
0
40
0
40
0
40
0.271076379862441
40
0.271076379862441
40
0.542152759724883
40
0.542152759724883
40
0.677690949656104
40
0.677690949656104
40
0.813229139587324
40
0.813229139587324
40
1
40
1
40
1
40
1
41
1
10
134.864851220723
20
5.55469300677009
30
0
41
1
10
133.663411508255
20
5.83246580893771
30
0
41
1
10
132.463471611058
20
6.08076882037778
30
0
41
1
10
130.063202751201
20
6.51473493390995
30
0
41
1
10
128.862559812867
20
6.70078965546372
30
0
41
1
10
127.059972848071
20
6.93052410394895
30
0
41
1
10
126.459388945917
20
6.99887511150166
30
0
41
1
10
125.25952566617
20
7.11721820142267
30
0
41
1
10
124.660012585612
20
7.16736009467095
30
0
41
1
10
123.234504584594
20
7.26477683800431
30
0
41
1
10
122.408496992481
20
7.30386117498352
30
0
41
1
10
121.581819989624
20
7.32567698542127
30
0
0
SPLINE
5
184
100
AcDbEntity
8
1
62
256
6
ByLayer
370
18
48
1
60
0
100
AcDbSpline
70
4
71
3
72
42
73
38
40
0
40
0
40
0
40
0
40
0.0638392732532247
40
0.0638392732532247
40
0.13585163684913
40
0.13585163684913
40
0.207864000445036
40
0.207864000445036
40
0.279876364040941
40
0.279876364040941
40
0.351888727636846
40
0.351888727636846
40
0.387894909434799
40
0.387894909434799
40
0.423901091232752
40
0.423901091232752
40
0.495913454828658
40
0.495913454828658
40
0.53191963662661
40
0.53191963662661
40
0.567925818424563
40
0.567925818424563
40
0.639938182020469
40
0.639938182020469
40
0.675944363818423
40
0.675944363818423
40
0.711950545616376
40
0.711950545616376
40
0.783962909212283
40
0.783962909212283
40
0.819969091010236
40
0.819969091010236
40
0.855975272808189
40
0.855975272808189
40
0.927987636404095
40
0.927987636404095
40
1
40
1
40
1
40
1
41
1
10
69.6413731189423
20
-5.49093706947721
30
0
41
1
10
68.577262143387
20
-5.73940209547393
30
0
41
1
10
67.5127807904516
20
-5.96763105545389
30
0
41
1
10
65.2469055932133
20
-6.40291980006214
30
0
41
1
10
64.0484041055481
20
-6.60214471747167
30
0
41
1
10
61.6506716858017
20
-6.93156903499664
30
0
41
1
10
60.4514255020954
20
-7.0622520239607
30
0
41
1
10
58.0482912758362
20
-7.25199687755938
30
0
41
1
10
56.8477694588562
20
-7.31071782034931
30
0
41
1
10
54.4475011650513
20
-7.35790594206745
30
0
41
1
10
53.2475213700166
20
-7.3465153295096
30
0
41
1
10
51.4462271838215
20
-7.27356452772554
30
0
41
1
10
50.8455922289402
20
-7.23975214564501
30
0
41
1
10
49.6458777429766
20
-7.15361452309401
30
0
41
1
10
49.0464473239687
20
-7.10126307993102
30
0
41
1
10
47.2482642258668
20
-6.91767045456936
30
0
41
1
10
46.0495600587044
20
-6.76016521139076
30
0
41
1
10
44.2484788159414
20
-6.4756041200551
30
0
41
1
10
43.6473667822527
20
-6.37248219574414
30
0
41
1
10
42.4462549505375
20
-6.15125323770548
30
0
41
1
10
41.8460022226272
20
-6.03317802793828
30
0
41
1
10
40.0455175992291
20
-5.65801495254379
30
0
41
1
10
38.8455582178523
20
-5.38014488641616
30
0
41
1
10
37.0447581426582
20
-4.92280057824655
30
0
41
1
10
36.4439954333957
20
-4.76331642994538
30
0
41
1
10
35.2434546585229
20
-4.43217356621483
30
0
41
1
10
34.6438039917451
20
-4.26059727300509
30
0
41
1
10
32.8455819499098
20
-3.73060424636199
30
0
41
1
10
31.64762188866
20
-3.35727252413949
30
0
41
1
10
29.8485394869632
20
-2.77672437381719
30
0
41
1
10
29.2485225670613
20
-2.57965690823786
30
0
41
1
10
28.047354245567
20
-2.17962916948463
30
0
41
1
10
27.4462487131178
20
-1.97669623928141
30
0
41
1
10
25.6450815086548
20
-1.36266740626635
30
0
41
1
10
24.445575495655
20
-0.946103666014011
30
0
41
1
10
22.0468826323246
20
-0.104849144915704
30
0
41
1
10
20.8479722234459
20
0.320666154024451
30
0
41
1
10
19.6469999999958
20
0.744199111377668
30
0
0
SPLINE
5
185
100
AcDbEntity
8
1
62
256
6
ByLayer
370
18
48
1
60
0
100
AcDbSpline
70
4
71
1
72
4
73
2
40
0
40
0
40
1
40
1
41
1
10
150.506348034489
20
-0.392887504692965
30
0
41
1
10
150.372403099085
20
-0.409837230121894
30
0
0
SPLINE
5
186
100
AcDbEntity
8
1
62
256
6
ByLayer
370
18
48
1
60
0
100
AcDbSpline
70
4
71
3
72
14
73
10
40
0
40
0
40
0
40
0
40
0.499999999999996
40
0.499999999999996
40
0.749999999999995
40
0.749999999999995
40
0.874999999999997
40
0.874999999999997
40
1
40
1
40
1
40
1
41
1
10
140
20
4.71905137172951
30
0
41
1
10
141.664740773027
20
4.16807300308977
30
0
41
1
10
143.327057936449
20
3.56296971767483
30
0
41
1
10
145.829656038469
20
2.60109222143484
30
0
41
1
10
146.66522012466
20
2.27107949511259
30
0
41
1
10
147.922563694651
20
1.76641669930123
30
0
41
1
10
148.342390267744
20
1.59653248775115
30
0
41
1
10
149.18046322162
20
1.25525397460785
30
0
41
1
10
149.599096285963
20
1.08370783081369
30
0
41
1
10
150.017440134779
20
0.911533497732506
30
0
0
SPLINE
5
187
100
AcDbEntity
8
1
62
256
6
ByLayer
370
18
48
1
60
0
100
AcDbSpline
70
4
71
3
72
18
73
14
40
0
40
0
40
0
40
0
40
0.124999999999998
40
0.124999999999998
40
0.249999999999997
40
0.249999999999997
40
0.499999999999994
40
0.499999999999994
40
0.624999999999996
40
0.624999999999996
40
0.749999999999997
40
0.749999999999997
40
1
40
1
40
1
40
1
41
1
10
19.6469999999814
20
-6.10644459341853
30
0
41
1
10
19.6469999999796
20
-6.16406884840427
30
0
41
1
10
19.6514538793398
20
-6.21994472976493
30
0
41
1
10
19.6691701878526
20
-6.3268126869219
30
0
41
1
10
19.6823928051171
20
-6.3778221554648
30
0
41
1
10
19.7349461889515
20
-6.52394284214228
30
0
41
1
10
19.7870672829965
20
-6.612162557544
30
0
41
1
10
19.891752480965
20
-6.73178338853762
30
0
41
1
10
19.9311572054942
20
-6.76950949710738
30
0
41
1
10
20.0171825063505
20
-6.83944986469103
30
0
41
1
10
20.0639799898238
20
-6.87189164872098
30
0
41
1
10
20.2155019762118
20
-6.96239025102111
30
0
41
1
10
20.3312659669803
20
-7.01364441282917
30
0
41
1
10
20.462260147945
20
-7.05742691929728
30
0
0
SPLINE
5
188
100
AcDbEntity
8
1
62
256
6
ByLayer
370
18
48
1
60
0
100
AcDbSpline
70
4
71
3
72
8
73
4
40
0
40
0
40
0
40
0
40
1
40
1
40
1
40
1
41
1
10
137.561549586676
20
6.09804216312256
30
0
41
1
10
136.761517337156
20
5.90966240476237
30
0
41
1
10
135.962746134507
20
5.7074599621786
30
0
41
1
10
135.164606986197
20
5.49236308940633
30
0
0
SPLINE
5
189
100
AcDbEntity
8
1
62
256
6
ByLayer
370
18
48
1
60
0
100
AcDbSpline
70
4
71
3
72
50
73
46
40
0
40
0
40
0
40
0
40
0.011559481219073
40
0.011559481219073
40
0.0664728433735689
40
0.0664728433735689
40
0.121386205528065
40
0.121386205528065
40
0.176299567682561
40
0.176299567682561
40
0.231212929837058
40
0.231212929837058
40
0.258669610914306
40
0.258669610914306
40
0.286126291991554
40
0.286126291991554
40
0.34103965414605
40
0.34103965414605
40
0.395953016300546
40
0.395953016300546
40
0.450866378455042
40
0.450866378455042
40
0.505779740609538
40
0.505779740609538
40
0.533236421686786
40
0.533236421686786
40
0.560693102764034
40
0.560693102764034
40
0.61560646491853
40
0.61560646491853
40
0.670519827073025
40
0.670519827073025
40
0.725433189227521
40
0.725433189227521
40
0.780346551382016
40
0.780346551382016
40
0.835259913536512
40
0.835259913536512
40
0.86271659461376
40
0.86271659461376
40
0.890173275691008
40
0.890173275691008
40
0.945086637845504
40
0.945086637845504
40
1
40
1
40
1
40
1
41
1
10
86.2725874381493
20
-7.84996815527239
30
0
41
1
10
86.0117726213755
20
-7.84986940743755
30
0
41
1
10
85.7510983467465
20
-7.84792290663265
30
0
41
1
10
84.2526859391172
20
-7.8261625739382
30
0
41
1
10
83.0178483789727
20
-7.76707710327702
30
0
41
1
10
80.5515927649399
20
-7.56861137850271
30
0
41
1
10
79.3200413496665
20
-7.42905533878292
30
0
41
1
10
76.8542574523802
20
-7.07402864005945
30
0
41
1
10
75.6205908588189
20
-6.85809742141791
30
0
41
1
10
73.1475639319419
20
-6.35261131842967
30
0
41
1
10
71.9080141427975
20
-6.06301124429766
30
0
41
1
10
70.0382489540747
20
-5.58343908845882
30
0
41
1
10
69.4124295402346
20
-5.41561482171017
30
0
41
1
10
68.1649326761068
20
-5.06699535818893
30
0
41
1
10
67.5426485849011
20
-4.88610852046705
30
0
41
1
10
65.6796162381489
20
-4.32513714005754
30
0
41
1
10
64.4426499199724
20
-3.92677714810756
30
0
41
1
10
61.9728994637877
20
-3.09617181330117
30
0
41
1
10
60.7406285616548
20
-2.66268337068041
30
0
41
1
10
58.277409507721
20
-1.76918139773045
30
0
41
1
10
57.0463187730147
20
-1.30945225137489
30
0
41
1
10
54.5771560949501
20
-0.386054248758825
30
0
41
1
10
53.3396192133479
20
0.0789741812002944
30
0
41
1
10
51.4771820867434
20
0.776874448977566
30
0
41
1
10
50.8553055648466
20
1.00945644664404
30
0
41
1
10
49.6087342076875
20
1.47256852999425
30
0
41
1
10
48.983094730504
20
1.70339976911814
30
0
41
1
10
47.1122801227437
20
2.38519352503585
30
0
41
1
10
45.8711501937308
20
2.82779691828654
30
0
41
1
10
43.397319535044
20
3.67918487970809
30
0
41
1
10
42.1645159285794
20
4.08746608425008
30
0
41
1
10
39.6989718827307
20
4.85054140290157
30
0
41
1
10
38.4666523955827
20
5.20661124438763
30
0
41
1
10
36.0007665985064
20
5.86354063121181
30
0
41
1
10
34.7671154661189
20
6.16403181193141
30
0
41
1
10
32.2924189264971
20
6.69758482056201
30
0
41
1
10
31.0517477199468
20
6.93139941006305
30
0
41
1
10
29.1830047855171
20
7.22710858497678
30
0
41
1
10
28.558008472112
20
7.31651197874612
30
0
41
1
10
27.3101602876832
20
7.47476949388007
30
0
41
1
10
26.6868907849237
20
7.54370650286165
30
0
41
1
10
24.8173377992867
20
7.71915461962189
30
0
41
1
10
23.571030590373
20
7.79456322038627
30
0
41
1
10
21.0787705886065
20
7.86316268718514
30
0
41
1
10
19.8327978283776
20
7.8559117684195
30
0
41
1
10
18.5842300036132
20
7.80547071843668
30
0
0
SPLINE
5
18A
100
AcDbEntity
8
1
62
256
6
ByLayer
370
18
48
1
60
0
100
AcDbSpline
70
4
71
3
72
10
73
6
40
0
40
0
40
0
40
0
40
0.5
40
0.5
40
1
40
1
40
1
40
1
41
1
10
17.6
20
-7.77704842441776
30
0
41
1
10
17.4256457083888
20
-7.7549662951867
30
0
41
1
10
17.253654598153
20
-7.73535969618371
30
0
41
1
10
16.9141735433192
20
-7.70040816327131
30
0
41
1
10
16.7462263191692
20
-7.68503180604446
30
0
41
1
10
16.5816675455674
20
-7.67121762296364
30
0
0
SPLINE
5
18B
100
AcDbEntity
8
1
62
256
6
ByLayer
370
18
48
1
60
0
100
AcDbSpline
70
4
71
4
72
10
73
5
40
0
40
0
40
0
40
0
40
0
40
1
40
1
40
1
40
1
40
1
41
1
10
147
20
6.10547153228333
30
0
41
1
10
147
20
4.99686868885135
30
0
41
0.990483945800992
10
147
20
3.81278480676034
30
0
41
0.996910160142547
10
147
20
2.88902461258782
30
0
41
0.999331157631441
10
147
20
2.31052853228332
30
0
0
SPLINE
5
18C
100
AcDbEntity
8
1
62
256
6
ByLayer
370
18
48
1
60
0
100
AcDbSpline
70
4
71
3
72
10
73
6
40
0
40
0
40
0
40
0
40
0.5
40
0.5
40
1
40
1
40
1
40
1
41
1
10
139.560531636853
20
5.90182912949729
30
0
41
1
10
139.457310965989
20
5.93312156761951
30
0
41
1
10
139.344317463202
20
5.95375182141504
30
0
41
1
10
139.104811051325
20
5.9777960776004
30
0
41
1
10
138.980152169119
20
5.98113025410515
30
0
41
1
10
138.851847065868
20
5.97813651527639
30
0
0
SPLINE
5
18D
100
AcDbEntity
8
1
62
256
6
ByLayer
370
18
48
1
60
0
100
AcDbSpline
70
4
71
3
72
8
73
4
40
0
40
0
40
0
40
0
40
1
40
1
40
1
40
1
41
1
10
154.17651377679
20
8.18876158821618
30
0
41
1
10
154.202911063701
20
8.17383083827585
30
0
41
1
10
154.234243201047
20
8.14424163463192
30
0
41
1
10
154.270483749421
20
8.10007251275857
30
0
0
SPLINE
5
18E
100
AcDbEntity
8
1
62
256
6
ByLayer
370
18
48
1
60
0
100
AcDbSpline
70
4
71
3
72
8
73
4
40
0
40
0
40
0
40
0
40
1
40
1
40
1
40
1
41
1
10
154.706977965193
20
2.71556732882584
30
0
41
1
10
154.697045693253
20
2.71488234587292
30
0
41
1
10
154.687624305721
20
2.71093577684985
30
0
41
1
10
154.679698052722
20
2.70490167632323
30
0
0
SPLINE
5
18F
100
AcDbEntity
8
1
62
256
6
ByLayer
370
18
48
1
60
0
100
AcDbSpline
70
4
71
3
72
33
73
29
40
0
40
0
40
0
40
0
40
0.0312297780727808
40
0.0622604844213885
40
0.093092595584839
40
0.123726597371583
40
0.154162985077876
40
0.184402263711745
40
0.214444948222709
40
0.244291563737399
40
0.27394264580118
40
0.303398740625966
40
0.33266040534431
40
0.361728208269977
40
0.390602729165084
40
0.419284559513996
40
0.447774302804084
40
0.47607257481352
40
0.504180003906241
40
0.560867133536098
40
0.617141914192654
40
0.673009879502908
40
0.728476684861248
40
0.783548109259835
40
0.838230057056877
40
0.892528559674396
40
0.946449777216648
40
1
40
1
40
1
40
1
41
1
10
152.021881045013
20
-6.17301054976502
30
0
41
1
10
152.008430244773
20
-6.143182998046
30
0
41
1
10
151.981614385344
20
-6.08371802795227
30
0
41
1
10
151.942222864648
20
-5.99210291409605
30
0
41
1
10
151.90360578282
20
-5.89915259030698
30
0
41
1
10
151.865812672072
20
-5.80473421913544
30
0
41
1
10
151.828830387573
20
-5.70896102066041
30
0
41
1
10
151.792662417365
20
-5.61188022511504
30
0
41
1
10
151.757307835744
20
-5.5135558448346
30
0
41
1
10
151.72276688821
20
-5.41404667475072
30
0
41
1
10
151.689039509551
20
-5.31341209673136
30
0
41
1
10
151.656125716844
20
-5.21171050751414
30
0
41
1
10
151.624025505988
20
-5.1089997066297
30
0
41
1
10
151.592738876155
20
-5.00533676170079
30
0
41
1
10
151.562265834401
20
-4.90077802937188
30
0
41
1
10
151.532606353458
20
-4.79537907956643
30
0
41
1
10
151.503760534349
20
-4.68919485721227
30
0
41
1
10
151.475728003825
20
-4.5822790054406
30
0
41
1
10
151.43922375516
20
-4.43797702593963
30
0
41
1
10
151.395283549983
20
-4.25451601040328
30
0
41
1
10
151.345298491882
20
-4.02969137955407
30
0
41
1
10
151.298301444032
20
-3.801539068642
30
0
41
1
10
151.254290926118
20
-3.57039041465848
30
0
41
1
10
151.213272144873
20
-3.33656396435043
30
0
41
1
10
151.175226028317
20
-3.10039849574039
30
0
41
1
10
151.140223053568
20
-2.86213888712825
30
0
41
1
10
151.108003019606
20
-2.6223531832633
30
0
41
1
10
151.088954045187
20
-2.4604928873917
30
0
41
1
10
151.079462436804
20
-2.37984211284692
30
0
0
SPLINE
5
190
100
AcDbEntity
8
1
62
256
6
ByLayer
370
18
48
1
60
0
100
AcDbSpline
70
4
71
3
72
8
73
4
40
0
40
0
40
0
40
0
40
1
40
1
40
1
40
1
41
1
10
137.971631051811
20
5.79271628855349
30
0
41
1
10
137.972953871281
20
5.86932777787374
30
0
41
1
10
137.974293140342
20
5.94551328005872
30
0
41
1
10
137.975675413918
20
6.02127966419476
30
0
0
SPLINE
5
191
100
AcDbEntity
8
1
62
256
6
ByLayer
370
18
48
1
60
0
100
AcDbSpline
70
4
71
3
72
40
73
36
40
0
40
0
40
0
40
0
40
0.0624999999999997
40
0.0624999999999997
40
0.124999999999999
40
0.124999999999999
40
0.187499999999999
40
0.187499999999999
40
0.249999999999999
40
0.249999999999999
40
0.312499999999999
40
0.312499999999999
40
0.374999999999998
40
0.374999999999998
40
0.437499999999998
40
0.437499999999998
40
0.468749999999998
40
0.468749999999998
40
0.499999999999998
40
0.499999999999998
40
0.562499999999998
40
0.562499999999998
40
0.624999999999999
40
0.624999999999999
40
0.687499999999999
40
0.687499999999999
40
0.749999999999999
40
0.749999999999999
40
0.812499999999999
40
0.812499999999999
40
0.875
40
0.875
40
0.9375
40
0.9375
40
1
40
1
40
1
40
1
41
1
10
149.771639469687
20
-0.407799086925536
30
0
41
1
10
149.703220539855
20
-0.407567047197603
30
0
41
1
10
149.635864996174
20
-0.413664149306953
30
0
41
1
10
149.503152926587
20
-0.437751644377102
30
0
41
1
10
149.437345545755
20
-0.45592018744145
30
0
41
1
10
149.30989406262
20
-0.503963488213088
30
0
41
1
10
149.249156197555
20
-0.533395662039283
30
0
41
1
10
149.133572362011
20
-0.602903075336684
30
0
41
1
10
149.078177943331
20
-0.643501258699928
30
0
41
1
10
148.976992245245
20
-0.733588679691962
30
0
41
1
10
148.931240140322
20
-0.78281400597777
30
0
41
1
10
148.849734423914
20
-0.889854846851392
30
0
41
1
10
148.813711016214
20
-0.9484370808905
30
0
41
1
10
148.755738869493
20
-1.06962890141202
30
0
41
1
10
148.733357357587
20
-1.13254274015421
30
0
41
1
10
148.710219762061
20
-1.23054514238899
30
0
41
1
10
148.704248076663
20
-1.26403535429802
30
0
41
1
10
148.696211910804
20
-1.33068080063643
30
0
41
1
10
148.69409570821
20
-1.36394993648423
30
0
41
1
10
148.693343929909
20
-1.46359774298279
30
0
41
1
10
148.700387085211
20
-1.53038979307601
30
0
41
1
10
148.729432158061
20
-1.66093269993303
30
0
41
1
10
148.751027829593
20
-1.72352575191451
30
0
41
1
10
148.807619085023
20
-1.84369694257262
30
0
41
1
10
148.842852397864
20
-1.90127225116763
30
0
41
1
10
148.923312931596
20
-2.00672428916013
30
0
41
1
10
148.969048116694
20
-2.05550790998348
30
0
41
1
10
149.070055402378
20
-2.1441434317459
30
0
41
1
10
149.124241973203
20
-2.18312613440617
30
0
41
1
10
149.239540332774
20
-2.25118146359304
30
0
41
1
10
149.301285316181
20
-2.28042522110027
30
0
41
1
10
149.42778707485
20
-2.32713505278355
30
0
41
1
10
149.492709768601
20
-2.34483898380319
30
0
41
1
10
149.625907288144
20
-2.36899033544273
30
0
41
1
10
149.694406033877
20
-2.37536145859451
30
0
41
1
10
149.762853196655
20
-2.37558283061483
30
0
0
SPLINE
5
192
100
AcDbEntity
8
1
62
256
6
ByLayer
370
18
48
1
60
0
100
AcDbSpline
70
4
71
3
72
10
73
6
40
0
40
0
40
0
40
0
40
0.155144147780529
40
0.155144147780529
40
1
40
1
40
1
40
1
41
1
10
149.958931942885
20
-8.19997873690642
30
0
41
1
10
149.862778306011
20
-8.1999044595164
30
0
41
1
10
149.766612511511
20
-8.19945571455008
30
0
41
1
10
149.14664826649
20
-8.19415018395964
30
0
41
1
10
148.622564817729
20
-8.1785740980043
30
0
41
1
10
148.098954769944
20
-8.1518795731584
30
0
0
SPLINE
5
193
100
AcDbEntity
8
SK1
62
256
6
ByLayer
370
18
48
1
60
0
100
AcDbSpline
70
4
71
3
72
68
73
64
40
0
40
0
40
0
40
0
40
0.0312499999999982
40
0.0312499999999982
40
0.046874999999998
40
0.046874999999998
40
0.0624999999999977
40
0.0624999999999977
40
0.0937499999999984
40
0.0937499999999984
40
0.109374999999998
40
0.109374999999998
40
0.124999999999998
40
0.124999999999998
40
0.156249999999998
40
0.156249999999998
40
0.187499999999998
40
0.187499999999998
40
0.249999999999999
40
0.249999999999999
40
0.281249999999999
40
0.281249999999999
40
0.312499999999999
40
0.312499999999999
40
0.374999999999999
40
0.374999999999999
40
0.4375
40
0.4375
40
0.46875
40
0.46875
40
0.5
40
0.5
40
0.562500000000001
40
0.562500000000001
40
0.593750000000001
40
0.593750000000001
40
0.625000000000002
40
0.625000000000002
40
0.687500000000002
40
0.687500000000002
40
0.718750000000002
40
0.718750000000002
40
0.750000000000002
40
0.750000000000002
40
0.812500000000003
40
0.812500000000003
40
0.828125000000002
40
0.828125000000002
40
0.843750000000002
40
0.843750000000002
40
0.875000000000001
40
0.875000000000001
40
0.890625000000001
40
0.890625000000001
40
0.90625
40
0.90625
40
0.9375
40
0.9375
40
0.953125
40
0.953125
40
0.96875
40
0.96875
40
1
40
1
40
1
40
1
41
1
10
-6.49999999999997
20
-5.92285193129121
30
0
41
1
10
-6.33154885731426
20
-5.92285193129121
30
0
41
1
10
-6.16649999660115
20
-5.90852604500998
30
0
41
1
10
-5.92366326713301
20
-5.86686260898483
30
0
41
1
10
-5.84351218542494
20
-5.84958640234103
30
0
41
1
10
-5.68479121831058
20
-5.80819694942255
30
0
41
1
10
-5.60578401963124
20
-5.78390949286566
30
0
41
1
10
-5.3755130586502
20
-5.70210438657261
30
0
41
1
10
-5.23040150353978
20
-5.63576008503463
30
0
41
1
10
-5.02388324980436
20
-5.51973068369702
30
0
41
1
10
-4.95691280564995
20
-5.47828589310487
30
0
41
1
10
-4.82656726111881
20
-5.38990512469778
30
0
41
1
10
-4.76344028356681
20
-5.34310223508027
30
0
41
1
10
-4.58224967992157
20
-5.19718203491362
30
0
41
1
10
-4.4712463803283
20
-5.09185813583983
30
0
41
1
10
-4.26572109507714
20
-4.86653318538578
30
0
41
1
10
-4.17106100725223
20
-4.74628556066756
30
0
41
1
10
-3.90966183539743
20
-4.36608870861338
30
0
41
1
10
-3.77014210155204
20
-4.09476951345764
30
0
41
1
10
-3.59557537485898
20
-3.66576223197777
30
0
41
1
10
-3.5432995036517
20
-3.51904778819107
30
0
41
1
10
-3.44875657999086
20
-3.21863479224763
30
0
41
1
10
-3.40657854218807
20
-3.06504134305448
30
0
41
1
10
-3.29445638220415
20
-2.60174839854997
30
0
41
1
10
-3.23788522203446
20
-2.28706820500588
30
0
41
1
10
-3.15042654850248
20
-1.64741181110122
30
0
41
1
10
-3.11961625583052
20
-1.3224279248613
30
0
41
1
10
-3.08903905021938
20
-0.827525561443139
30
0
41
1
10
-3.08151487535059
20
-0.661401493425245
30
0
41
1
10
-3.07158509981957
20
-0.330650499762129
30
0
41
1
10
-3.06914530935046
20
-0.16552511220226
30
0
41
1
10
-3.06912617883177
20
0.329115176337979
30
0
41
1
10
-3.07870960481154
20
0.657899259477574
30
0
41
1
10
-3.10886367144548
20
1.14957645984728
30
0
41
1
10
-3.12157829085984
20
1.31321779556742
30
0
41
1
10
-3.15301382663836
20
1.63997635400699
30
0
41
1
10
-3.17179577364169
20
1.80342210057933
30
0
41
1
10
-3.23780365003569
20
2.28702529223114
30
0
41
1
10
-3.29461555444993
20
2.60220286550486
30
0
41
1
10
-3.40608209976551
20
3.06309107495616
30
0
41
1
10
-3.44765477000672
20
3.21473113100859
30
0
41
1
10
-3.54149844295813
20
3.51371523568545
30
0
41
1
10
-3.59395060131033
20
3.66152013709689
30
0
41
1
10
-3.76989582752731
20
4.0946551835724
30
0
41
1
10
-3.90997479382301
20
4.36619025332939
30
0
41
1
10
-4.12575070768349
20
4.68046987077338
30
0
41
1
10
-4.17097066502382
20
4.74205687033935
30
0
41
1
10
-4.26600396832356
20
4.86254130681425
30
0
41
1
10
-4.31584034796885
20
4.92142662494757
30
0
41
1
10
-4.47077510964746
20
5.09144820130692
30
0
41
1
10
-4.58188757681339
20
5.19679902870035
30
0
41
1
10
-4.76206916652859
20
5.34204312553621
30
0
41
1
10
-4.82438853365235
20
5.38832209237188
30
0
41
1
10
-4.95395839245683
20
5.4763842939077
30
0
41
1
10
-5.02155288993663
20
5.5183478507837
30
0
41
1
10
-5.22922143177559
20
5.63524112422331
30
0
41
1
10
-5.37427976784161
20
5.70150323577644
30
0
41
1
10
-5.60262391278792
20
5.78286634969527
30
0
41
1
10
-5.68053816211989
20
5.80696924836369
30
0
41
1
10
-5.84021859914242
20
5.84884069926673
30
0
41
1
10
-5.92144228459227
20
5.86643352567475
30
0
41
1
10
-6.1660744508427
20
5.90854767474224
30
0
41
1
10
-6.33170271013566
20
5.92285193129121
30
0
41
1
10
-6.49999999999997
20
5.92285193129121
30
0
0
SPLINE
5
194
100
AcDbEntity
8
SK1
62
256
6
ByLayer
370
18
48
1
60
0
100
AcDbSpline
70
4
71
3
72
68
73
64
40
0
40
0
40
0
40
0
40
0.0312500000000002
40
0.0312500000000002
40
0.0468750000000003
40
0.0468750000000003
40
0.0625000000000005
40
0.0625000000000005
40
0.0937500000000007
40
0.0937500000000007
40
0.109375000000001
40
0.109375000000001
40
0.125000000000001
40
0.125000000000001
40
0.156250000000001
40
0.156250000000001
40
0.187500000000001
40
0.187500000000001
40
0.25
40
0.25
40
0.28125
40
0.28125
40
0.3125
40
0.3125
40
0.375
40
0.375
40
0.4375
40
0.4375
40
0.46875
40
0.46875
40
0.5
40
0.5
40
0.5625
40
0.5625
40
0.59375
40
0.59375
40
0.625
40
0.625
40
0.6875
40
0.6875
40
0.71875
40
0.71875
40
0.75
40
0.75
40
0.8125
40
0.8125
40
0.828125
40
0.828125
40
0.84375
40
0.84375
40
0.875
40
0.875
40
0.890625
40
0.890625
40
0.90625
40
0.90625
40
0.9375
40
0.9375
40
0.953125
40
0.953125
40
0.96875
40
0.96875
40
1
40
1
40
1
40
1
41
1
10
-43.5
20
5.92285193129121
30
0
41
1
10
-43.6684511426857
20
5.92285193129121
30
0
41
1
10
-43.8335000033988
20
5.90852604500998
30
0
41
1
10
-44.076336732867
20
5.86686260898486
30
0
41
1
10
-44.156487814575
20
5.84958640234103
30
0
41
1
10
-44.3152087816894
20
5.80819694942255
30
0
41
1
10
-44.3942159803687
20
5.78390949286566
30
0
41
1
10
-44.6244869413498
20
5.70210438657261
30
0
41
1
10
-44.7695984964602
20
5.63576008503463
30
0
41
1
10
-44.9761167501956
20
5.51973068369705
30
0
41
1
10
-45.04308719435
20
5.47828589310487
30
0
41
1
10
-45.1734327388812
20
5.38990512469778
30
0
41
1
10
-45.2365597164332
20
5.34310223508027
30
0
41
1
10
-45.4177503200784
20
5.19718203491362
30
0
41
1
10
-45.5287536196717
20
5.09185813583983
30
0
41
1
10
-45.7342789049228
20
4.86653318538578
30
0
41
1
10
-45.8289389927477
20
4.74628556066759
30
0
41
1
10
-46.0903381646025
20
4.36608870861338
30
0
41
1
10
-46.2298578984479
20
4.09476951345764
30
0
41
1
10
-46.404424625141
20
3.66576223197777
30
0
41
1
10
-46.4567004963483
20
3.51904778819107
30
0
41
1
10
-46.5512434200091
20
3.21863479224763
30
0
41
1
10
-46.5934214578119
20
3.06504134305448
30
0
41
1
10
-46.7055436177958
20
2.60174839855
30
0
41
1
10
-46.7621147779655
20
2.28706820500588
30
0
41
1
10
-46.8495734514975
20
1.64741181110122
30
0
41
1
10
-46.8803837441695
20
1.3224279248613
30
0
41
1
10
-46.9109609497806
20
0.827525561443139
30
0
41
1
10
-46.9184851246494
20
0.661401493425245
30
0
41
1
10
-46.9284149001804
20
0.330650499762129
30
0
41
1
10
-46.9308546906495
20
0.16552511220226
30
0
41
1
10
-46.9308738211682
20
-0.329115176337979
30
0
41
1
10
-46.9212903951884
20
-0.657899259477574
30
0
41
1
10
-46.8911363285545
20
-1.14957645984728
30
0
41
1
10
-46.8784217091401
20
-1.31321779556742
30
0
41
1
10
-46.8469861733616
20
-1.63997635400699
30
0
41
1
10
-46.8282042263583
20
-1.80342210057933
30
0
41
1
10
-46.7621963499643
20
-2.28702529223114
30
0
41
1
10
-46.70538444555
20
-2.60220286550486
30
0
41
1
10
-46.5939179002344
20
-3.06309107495616
30
0
41
1
10
-46.5523452299933
20
-3.21473113100859
30
0
41
1
10
-46.4585015570418
20
-3.51371523568545
30
0
41
1
10
-46.4060493986897
20
-3.66152013709689
30
0
41
1
10
-46.2301041724726
20
-4.0946551835724
30
0
41
1
10
-46.090025206177
20
-4.36619025332939
30
0
41
1
10
-45.8742492923165
20
-4.68046987077341
30
0
41
1
10
-45.8290293349762
20
-4.74205687033935
30
0
41
1
10
-45.7339960316764
20
-4.86254130681425
30
0
41
1
10
-45.6841596520312
20
-4.92142662494757
30
0
41
1
10
-45.5292248903525
20
-5.09144820130692
30
0
41
1
10
-45.4181124231866
20
-5.19679902870035
30
0
41
1
10
-45.2379308334714
20
-5.34204312553621
30
0
41
1
10
-45.1756114663476
20
-5.38832209237188
30
0
41
1
10
-45.0460416075432
20
-5.4763842939077
30
0
41
1
10
-44.9784471100634
20
-5.5183478507837
30
0
41
1
10
-44.7707785682244
20
-5.63524112422331
30
0
41
1
10
-44.6257202321584
20
-5.70150323577644
30
0
41
1
10
-44.397376087212
20
-5.78286634969527
30
0
41
1
10
-44.3194618378801
20
-5.80696924836371
30
0
41
1
10
-44.1597814008576
20
-5.84884069926673
30
0
41
1
10
-44.0785577154077
20
-5.86643352567475
30
0
41
1
10
-43.8339255491573
20
-5.90854767474224
30
0
41
1
10
-43.6682972898643
20
-5.92285193129121
30
0
41
1
10
-43.5
20
-5.92285193129121
30
0
0
LINE
5
70
100
AcDbEntity
8
81
62
256
6
ByLayer
370
18
48
1
60
0
100
AcDbLine
10
147
20
0
30
0
11
152
21
0
31
0
39
0
210
0
220
0
230
1
0
LINE
5
71
100
AcDbEntity
8
1
62
256
6
ByLayer
370
18
48
1
60
0
100
AcDbLine
10
0.2
20
12.5
30
0
11
0
21
12.3
31
0
39
0
210
0
220
0
230
1
0
LINE
5
73
100
AcDbEntity
8
1
62
256
6
ByLayer
370
18
48
1
60
0
100
AcDbLine
10
0
20
-12.3
30
0
11
0.2
21
-12.5
31
0
39
0
210
0
220
0
230
1
0
LINE
5
74
100
AcDbEntity
8
1
62
256
6
ByLayer
370
18
48
1
60
0
100
AcDbLine
10
5.0009
20
12.5
30
0
11
0.2
21
12.5
31
0
39
0
210
0
220
0
230
1
0
LINE
5
75
100
AcDbEntity
8
1
62
256
6
ByLayer
370
18
48
1
60
0
100
AcDbLine
10
0.2
20
-12.5
30
0
11
5.0009
21
-12.5
31
0
39
0
210
0
220
0
230
1
0
LINE
5
76
100
AcDbEntity
8
SK1
62
256
6
ByLayer
370
18
48
1
60
0
100
AcDbLine
10
-48.6
20
-9.99675
30
0
11
-48.449692
21
-9.875033
31
0
39
0
210
0
220
0
230
1
0
LINE
5
78
100
AcDbEntity
8
SK1
62
256
6
ByLayer
370
18
48
1
60
0
100
AcDbLine
10
-48.449692
20
9.875033
30
0
11
-48.6
21
9.99675
31
0
39
0
210
0
220
0
230
1
0
LINE
5
79
100
AcDbEntity
8
SK1
62
256
6
ByLayer
370
18
48
1
60
0
100
AcDbLine
10
-47.3
20
9.99675
30
0
11
-47.426311
21
9.888738
31
0
39
0
210
0
220
0
230
1
0
LINE
5
7A
100
AcDbEntity
8
SK1
62
256
6
ByLayer
370
18
48
1
60
0
100
AcDbLine
10
-47.426311
20
-9.888738
30
0
11
-47.3
21
-9.99675
31
0
39
0
210
0
220
0
230
1
0
LINE
5
7B
100
AcDbEntity
8
SK1
62
256
6
ByLayer
370
18
48
1
60
0
100
AcDbLine
10
-49
20
9.99675
30
0
11
-50
21
8.99675
31
0
39
0
210
0
220
0
230
1
0
LINE
5
7C
100
AcDbEntity
8
SK1
62
256
6
ByLayer
370
18
48
1
60
0
100
AcDbLine
10
-50
20
-8.99675
30
0
11
-49
21
-9.99675
31
0
39
0
210
0
220
0
230
1
0
LINE
5
7D
100
AcDbEntity
8
SK1
62
256
6
ByLayer
370
18
48
1
60
0
100
AcDbLine
10
-1.6
20
-9.99675
30
0
11
-1.144243
21
-9.784227
31
0
39
0
210
0
220
0
230
1
0
LINE
5
7E
100
AcDbEntity
8
SK1
62
256
6
ByLayer
370
18
48
1
60
0
100
AcDbLine
10
-1.144243
20
9.784227
30
0
11
-1.6
21
9.99675
31
0
39
0
210
0
220
0
230
1
0
LINE
5
7F
100
AcDbEntity
8
SK1
62
256
6
ByLayer
370
18
48
1
60
0
100
AcDbLine
10
-48.6
20
9.99675
30
0
11
-49
21
9.99675
31
0
39
0
210
0
220
0
230
1
0
LINE
5
80
100
AcDbEntity
8
SK1
62
256
6
ByLayer
370
18
48
1
60
0
100
AcDbLine
10
-49
20
-9.99675
30
0
11
-48.6
21
-9.99675
31
0
39
0
210
0
220
0
230
1
0
LINE
5
81
100
AcDbEntity
8
SK1
62
256
6
ByLayer
370
18
48
1
60
0
100
AcDbLine
10
-1.6
20
9.99675
30
0
11
-47.3
21
9.99675
31
0
39
0
210
0
220
0
230
1
0
LINE
5
82
100
AcDbEntity
8
SK1
62
256
6
ByLayer
370
18
48
1
60
0
100
AcDbLine
10
-47.3
20
-9.99675
30
0
11
-1.6
21
-9.99675
31
0
39
0
210
0
220
0
230
1
0
LINE
5
83
100
AcDbEntity
8
SK1
62
256
6
ByLayer
370
18
48
1
60
0
100
AcDbLine
10
-0.975195
20
-9.74675
30
0
11
-0.15
21
-9.74675
31
0
39
0
210
0
220
0
230
1
0
LINE
5
84
100
AcDbEntity
8
SK1
62
256
6
ByLayer
370
18
48
1
60
0
100
AcDbLine
10
-0.15
20
9.74675
30
0
11
-0.975195
21
9.74675
31
0
39
0
210
0
220
0
230
1
0
LINE
5
85
100
AcDbEntity
8
1
62
256
6
ByLayer
370
18
48
1
60
0
100
AcDbLine
10
149.98842
20
8.35
30
0
11
148.599343
21
8.35
31
0
39
0
210
0
220
0
230
1
0
LINE
5
86
100
AcDbEntity
8
1
62
256
6
ByLayer
370
18
48
1
60
0
100
AcDbLine
10
148.599343
20
-8.35
30
0
11
149.98842
21
-8.35
31
0
39
0
210
0
220
0
230
1
0
LINE
5
87
100
AcDbEntity
8
1
62
256
6
ByLayer
370
18
48
1
60
0
100
AcDbLine
10
20.795324
20
-7.85
30
0
11
26.30404
21
-7.85
31
0
39
0
210
0
220
0
230
1
0
LINE
5
88
100
AcDbEntity
8
1
62
256
6
ByLayer
370
18
48
1
60
0
100
AcDbLine
10
91.790495
20
7.85
30
0
11
86.293807
21
7.85
31
0
39
0
210
0
220
0
230
1
0
LINE
5
89
100
AcDbEntity
8
1
62
256
6
ByLayer
370
18
48
1
60
0
100
AcDbLine
10
86.293807
20
-7.85
30
0
11
91.790495
21
-7.85
31
0
39
0
210
0
220
0
230
1
0
LINE
5
8A
100
AcDbEntity
8
1
62
256
6
ByLayer
370
18
48
1
60
0
100
AcDbLine
10
26.30404
20
7.85
30
0
11
20.795324
21
7.85
31
0
39
0
210
0
220
0
230
1
0
LINE
5
8B
100
AcDbEntity
8
80
62
256
6
ByLayer
370
18
48
1
60
0
100
AcDbLine
10
0
20
0
30
0
11
-5
21
0
31
0
39
0
210
0
220
0
230
1
0
LINE
5
8C
100
AcDbEntity
8
4
62
256
6
ByLayer
370
18
48
0.05
60
0
100
AcDbLine
10
147
20
0
30
0
11
0
21
0
31
0
39
0
210
0
220
0
230
1
0
LINE
5
8E
100
AcDbEntity
8
SK4
62
256
6
ByLayer
370
18
48
0.05
60
0
100
AcDbLine
10
162
20
0
30
0
11
-55
21
0
31
0
39
0
210
0
220
0
230
1
0
LINE
5
90
100
AcDbEntity
8
1
62
256
6
ByLayer
370
18
48
1
60
0
100
AcDbLine
10
0
20
12.3
30
0
11
0
21
-12.3
31
0
39
0
210
0
220
0
230
1
0
LINE
5
91
100
AcDbEntity
8
1
62
256
6
ByLayer
370
13
48
1
60
0
100
AcDbLine
10
149.762853
20
-2.375583
30
0
11
150.003498
21
-2.243018
31
0
39
0
210
0
220
0
230
1
0
LINE
5
92
100
AcDbEntity
8
1
62
256
6
ByLayer
370
18
48
1
60
0
100
AcDbLine
10
157
20
0
30
0
11
156.986093
21
-0.059504
31
0
39
0
210
0
220
0
230
1
0
LINE
5
93
100
AcDbEntity
8
1
62
256
6
ByLayer
370
18
48
1
60
0
100
AcDbLine
10
147
20
-7.534221
30
0
11
147
21
-7.512509
31
0
39
0
210
0
220
0
230
1
0
LINE
5
94
100
AcDbEntity
8
1
62
256
6
ByLayer
370
18
48
1
60
0
100
AcDbLine
10
151.194193
20
-2.365464
30
0
11
151.266896
21
-2.322565
31
0
39
0
210
0
220
0
230
1
0
LINE
5
95
100
AcDbEntity
8
1
62
256
6
ByLayer
370
18
48
1
60
0
100
AcDbLine
10
148.084677
20
-7.214887
30
0
11
152.201482
21
-7.214887
31
0
39
0
210
0
220
0
230
1
0
LINE
5
96
100
AcDbEntity
8
1
62
256
6
ByLayer
370
18
48
1
60
0
100
AcDbLine
10
152.762286
20
-6.726438
30
0
11
152.765798
21
-6.719935
31
0
39
0
210
0
220
0
230
1
0
LINE
5
97
100
AcDbEntity
8
1
62
256
6
ByLayer
370
13
48
1
60
0
100
AcDbLine
10
12.803713
20
4.840699
30
0
11
12.803713
21
-8.548119
31
0
39
0
210
0
220
0
230
1
0
LINE
5
98
100
AcDbEntity
8
1
62
256
6
ByLayer
370
18
48
1
60
0
100
AcDbLine
10
156.927513
20
-0.261515
30
0
11
156.809537
21
-0.748074
31
0
39
0
210
0
220
0
230
1
0
LINE
5
99
100
AcDbEntity
8
1
62
256
6
ByLayer
370
13
48
1
60
0
100
AcDbLine
10
136.274234
20
-3.893031
30
0
11
136.274234
21
-4.089127
31
0
39
0
210
0
220
0
230
1
0
LINE
5
9A
100
AcDbEntity
8
1
62
256
6
ByLayer
370
13
48
1
60
0
100
AcDbLine
10
154.652873
20
-3.551038
30
0
11
155.104159
21
-1.225528
31
0
39
0
210
0
220
0
230
1
0
LINE
5
9B
100
AcDbEntity
8
1
62
256
6
ByLayer
370
18
48
1
60
0
100
AcDbLine
10
156.927513
20
0.261515
30
0
11
156.809537
21
0.748074
31
0
39
0
210
0
220
0
230
1
0
LINE
5
9C
100
AcDbEntity
8
1
62
256
6
ByLayer
370
18
48
1
60
0
100
AcDbLine
10
147
20
-7.512509
30
0
11
147
21
-7.46006
31
0
39
0
210
0
220
0
230
1
0
LINE
5
9D
100
AcDbEntity
8
1
62
256
6
ByLayer
370
18
48
1
60
0
100
AcDbLine
10
156.214037
20
2.718499
30
0
11
156.157391
21
2.886629
31
0
39
0
210
0
220
0
230
1
0
LINE
5
9E
100
AcDbEntity
8
1
62
256
6
ByLayer
370
18
48
1
60
0
100
AcDbLine
10
152.765798
20
-6.719935
30
0
11
152.765798
21
-2.381407
31
0
39
0
210
0
220
0
230
1
0
LINE
5
9F
100
AcDbEntity
8
1
62
256
6
ByLayer
370
18
48
1
60
0
100
AcDbLine
10
152.207993
20
-7.212085
30
0
11
152.762286
21
-6.726438
31
0
39
0
210
0
220
0
230
1
0
LINE
5
A0
100
AcDbEntity
8
1
62
256
6
ByLayer
370
13
48
1
60
0
100
AcDbLine
10
5.0009
20
0
30
0
11
5.0009
21
-12.5
31
0
39
0
210
0
220
0
230
1
0
LINE
5
A1
100
AcDbEntity
8
1
62
256
6
ByLayer
370
13
48
1
60
0
100
AcDbLine
10
5.0009
20
12.5
30
0
11
5.0009
21
0
31
0
39
0
210
0
220
0
230
1
0
LINE
5
A2
100
AcDbEntity
8
1
62
256
6
ByLayer
370
18
48
1
60
0
100
AcDbLine
10
156.896558
20
-0.300004
30
0
11
157
21
0
31
0
39
0
210
0
220
0
230
1
0
LINE
5
A3
100
AcDbEntity
8
1
62
256
6
ByLayer
370
13
48
1
60
0
100
AcDbLine
10
12.889223
20
4.747973
30
0
11
12.889223
21
-8.495286
31
0
39
0
210
0
220
0
230
1
0
LINE
5
A4
100
AcDbEntity
8
1
62
256
6
ByLayer
370
18
48
1
60
0
100
AcDbLine
10
152.201482
20
-7.214887
30
0
11
152.207993
21
-7.212085
31
0
39
0
210
0
220
0
230
1
0
LINE
5
A5
100
AcDbEntity
8
1
62
256
6
ByLayer
370
18
48
1
60
0
100
AcDbLine
10
17.6
20
-7.777048
30
0
11
17.6
21
1.299689
31
0
39
0
210
0
220
0
230
1
0
LINE
5
A6
100
AcDbEntity
8
1
62
256
6
ByLayer
370
13
48
1
60
0
100
AcDbLine
10
156.095743
20
-1.890355
30
0
11
155.104159
21
-1.225528
31
0
39
0
210
0
220
0
230
1
0
LINE
5
A7
100
AcDbEntity
8
1
62
256
6
ByLayer
370
18
48
1
60
0
100
AcDbLine
10
19.647
20
-6.565431
30
0
11
19.647
21
0.530969
31
0
39
0
210
0
220
0
230
1
0
LINE
5
A8
100
AcDbEntity
8
1
62
256
6
ByLayer
370
13
48
1
60
0
100
AcDbLine
10
156.12839
20
0.797302
30
0
11
156.809537
21
0.748074
31
0
39
0
210
0
220
0
230
1
0
LINE
5
A9
100
AcDbEntity
8
1
62
256
6
ByLayer
370
18
48
1
60
0
100
AcDbLine
10
151.201436
20
-2.3798
30
0
11
152.765647
21
-2.3798
31
0
39
0
210
0
220
0
230
1
0
LINE
5
AA
100
AcDbEntity
8
1
62
256
6
ByLayer
370
18
48
1
60
0
100
AcDbLine
10
153.053936
20
-7.635434
30
0
11
154.467553
21
-3.763605
31
0
39
0
210
0
220
0
230
1
0
LINE
5
AB
100
AcDbEntity
8
1
62
256
6
ByLayer
370
13
48
1
60
0
100
AcDbLine
10
151.266896
20
-2.322565
30
0
11
150.003498
21
-2.243018
31
0
39
0
210
0
220
0
230
1
0
LINE
5
AC
100
AcDbEntity
8
1
62
256
6
ByLayer
370
18
48
1
60
0
100
AcDbLine
10
154.176514
20
-8.188762
30
0
11
156.697522
21
-0.877257
31
0
39
0
210
0
220
0
230
1
0
LINE
5
AD
100
AcDbEntity
8
1
62
256
6
ByLayer
370
13
48
1
60
0
100
AcDbLine
10
156.080462
20
0.757334
30
0
11
156.952028
21
0.172977
31
0
39
0
210
0
220
0
230
1
0
LINE
5
AE
100
AcDbEntity
8
1
62
256
6
ByLayer
370
18
48
1
60
0
100
AcDbLine
10
146.9
20
-7.705634
30
0
11
146.9
21
-7.527071
31
0
39
0
210
0
220
0
230
1
0
LINE
5
AF
100
AcDbEntity
8
1
62
256
6
ByLayer
370
13
48
1
60
0
100
AcDbLine
10
146.8
20
2.55
30
0
11
147.006275
21
2.55
31
0
39
0
210
0
220
0
230
1
0
LINE
5
B0
100
AcDbEntity
8
1
62
256
6
ByLayer
370
18
48
1
60
0
100
AcDbLine
10
148.511113
20
-8.349892
30
0
11
148.511113
21
-8.320046
31
0
39
0
210
0
220
0
230
1
0
LINE
5
B1
100
AcDbEntity
8
1
62
256
6
ByLayer
370
18
48
1
60
0
100
AcDbLine
10
154.652873
20
-3.551038
30
0
11
156.095743
21
-1.890355
31
0
39
0
210
0
220
0
230
1
0
LINE
5
B2
100
AcDbEntity
8
1
62
256
6
ByLayer
370
18
48
1
60
0
100
AcDbLine
10
16
20
-7.593463
30
0
11
16
21
1.938714
31
0
39
0
210
0
220
0
230
1
0
LINE
5
B3
100
AcDbEntity
8
1
62
256
6
ByLayer
370
13
48
1
60
0
100
AcDbLine
10
155.001987
20
2.73813
30
0
11
156.214037
21
2.718499
31
0
39
0
210
0
220
0
230
1
0
LINE
5
B4
100
AcDbEntity
8
1
62
256
6
ByLayer
370
18
48
1
60
0
100
AcDbLine
10
150.63695
20
-0.315825
30
0
11
150.506348
21
-0.392888
31
0
39
0
210
0
220
0
230
1
0
LINE
5
B5
100
AcDbEntity
8
1
62
256
6
ByLayer
370
18
48
1
60
0
100
AcDbLine
10
147.89
20
-7.61512
30
0
11
147.89
21
-7.199648
31
0
39
0
210
0
220
0
230
1
0
LINE
5
B6
100
AcDbEntity
8
1
62
256
6
ByLayer
370
18
48
1
60
0
100
AcDbLine
10
147
20
-7.534221
30
0
11
147
21
-7.76771
31
0
39
0
210
0
220
0
230
1
0
LINE
5
B7
100
AcDbEntity
8
1
62
256
6
ByLayer
370
18
48
1
60
0
100
AcDbLine
10
152.765798
20
-2.381407
30
0
11
152.765647
21
-2.3798
31
0
39
0
210
0
220
0
230
1
0
LINE
5
B8
100
AcDbEntity
8
1
62
256
6
ByLayer
370
18
48
1
60
0
100
AcDbLine
10
0.2
20
0
30
0
11
0.2
21
-12.5
31
0
39
0
210
0
220
0
230
1
0
LINE
5
B9
100
AcDbEntity
8
1
62
256
6
ByLayer
370
18
48
1
60
0
100
AcDbLine
10
0.2
20
12.5
30
0
11
0.2
21
0
31
0
39
0
210
0
220
0
230
1
0
LINE
5
BA
100
AcDbEntity
8
1
62
256
6
ByLayer
370
18
48
1
60
0
100
AcDbLine
10
152.765647
20
-2.3798
30
0
11
151.817136
21
0.946608
31
0
39
0
210
0
220
0
230
1
0
LINE
5
BB
100
AcDbEntity
8
1
62
256
6
ByLayer
370
13
48
1
60
0
100
AcDbLine
10
148.098955
20
-7.920579
30
0
11
147
21
-7.534221
31
0
39
0
210
0
220
0
230
1
0
LINE
5
BC
100
AcDbEntity
8
1
62
256
6
ByLayer
370
18
48
1
60
0
100
AcDbLine
10
147
20
-7.431184
30
0
11
147
21
-7.46006
31
0
39
0
210
0
220
0
230
1
0
LINE
5
BD
100
AcDbEntity
8
1
62
256
6
ByLayer
370
18
48
1
60
0
100
AcDbLine
10
156.986093
20
0.059504
30
0
11
157
21
0
31
0
39
0
210
0
220
0
230
1
0
LINE
5
BE
100
AcDbEntity
8
1
62
256
6
ByLayer
370
13
48
1
60
0
100
AcDbLine
10
156.927513
20
0.261515
30
0
11
156.12839
21
0.797302
31
0
39
0
210
0
220
0
230
1
0
LINE
5
BF
100
AcDbEntity
8
1
62
256
6
ByLayer
370
18
48
1
60
0
100
AcDbLine
10
140
20
-1.365237
30
0
11
140
21
4.719051
31
0
39
0
210
0
220
0
230
1
0
LINE
5
C0
100
AcDbEntity
8
1
62
256
6
ByLayer
370
18
48
1
60
0
100
AcDbLine
10
156.214037
20
-2.718499
30
0
11
156.157391
21
-2.886629
31
0
39
0
210
0
220
0
230
1
0
LINE
5
C1
100
AcDbEntity
8
1
62
256
6
ByLayer
370
18
48
1
60
0
100
AcDbLine
10
152.155976
20
-6.110112
30
0
11
152.765798
21
-6.719935
31
0
39
0
210
0
220
0
230
1
0
LINE
5
C2
100
AcDbEntity
8
SK1
62
256
6
ByLayer
370
13
48
1
60
0
100
AcDbLine
10
-48.449692
20
-9.875033
30
0
11
-48.449692
21
0
31
0
39
0
210
0
220
0
230
1
0
LINE
5
C3
100
AcDbEntity
8
SK1
62
256
6
ByLayer
370
13
48
1
60
0
100
AcDbLine
10
-48.449692
20
0
30
0
11
-48.449692
21
9.875033
31
0
39
0
210
0
220
0
230
1
0
LINE
5
C4
100
AcDbEntity
8
SK1
62
256
6
ByLayer
370
18
48
1
60
0
100
AcDbLine
10
-43.5
20
-5.922852
30
0
11
-6.5
21
-5.922852
31
0
39
0
210
0
220
0
230
1
0
LINE
5
C5
100
AcDbEntity
8
SK1
62
256
6
ByLayer
370
13
48
1
60
0
100
AcDbLine
10
-6.5
20
-5.922852
30
0
11
-6.5
21
5.922852
31
0
39
0
210
0
220
0
230
1
0
LINE
5
C6
100
AcDbEntity
8
SK1
62
256
6
ByLayer
370
18
48
1
60
0
100
AcDbLine
10
-48.6
20
-9.99675
30
0
11
-48.6
21
9.99675
31
0
39
0
210
0
220
0
230
1
0
LINE
5
C7
100
AcDbEntity
8
SK1
62
256
6
ByLayer
370
13
48
1
60
0
100
AcDbLine
10
-43.5
20
5.922852
30
0
11
-43.5
21
-5.922852
31
0
39
0
210
0
220
0
230
1
0
LINE
5
C8
100
AcDbEntity
8
SK1
62
256
6
ByLayer
370
18
48
1
60
0
100
AcDbLine
10
-6.5
20
5.922852
30
0
11
-43.5
21
5.922852
31
0
39
0
210
0
220
0
230
1
0
LINE
5
C9
100
AcDbEntity
8
SK1
62
256
6
ByLayer
370
18
48
1
60
0
100
AcDbLine
10
-1.6
20
-9.99675
30
0
11
-1.6
21
0
31
0
39
0
210
0
220
0
230
1
0
LINE
5
CA
100
AcDbEntity
8
SK1
62
256
6
ByLayer
370
18
48
1
60
0
100
AcDbLine
10
-1.6
20
0
30
0
11
-1.6
21
9.99675
31
0
39
0
210
0
220
0
230
1
0
LINE
5
CB
100
AcDbEntity
8
SK1
62
256
6
ByLayer
370
18
48
1
60
0
100
AcDbLine
10
-47.3
20
0
30
0
11
-47.3
21
-9.99675
31
0
39
0
210
0
220
0
230
1
0
LINE
5
CC
100
AcDbEntity
8
SK1
62
256
6
ByLayer
370
18
48
1
60
0
100
AcDbLine
10
-47.3
20
9.99675
30
0
11
-47.3
21
0
31
0
39
0
210
0
220
0
230
1
0
LINE
5
CD
100
AcDbEntity
8
SK1
62
256
6
ByLayer
370
13
48
1
60
0
100
AcDbLine
10
-1.144243
20
0
30
0
11
-1.144243
21
-9.784227
31
0
39
0
210
0
220
0
230
1
0
LINE
5
CE
100
AcDbEntity
8
SK1
62
256
6
ByLayer
370
13
48
1
60
0
100
AcDbLine
10
-1.144243
20
9.784227
30
0
11
-1.144243
21
0
31
0
39
0
210
0
220
0
230
1
0
LINE
5
CF
100
AcDbEntity
8
SK1
62
256
6
ByLayer
370
13
48
1
60
0
100
AcDbLine
10
-0.15
20
0
30
0
11
-0.15
21
-9.74675
31
0
39
0
210
0
220
0
230
1
0
LINE
5
D0
100
AcDbEntity
8
SK1
62
256
6
ByLayer
370
13
48
1
60
0
100
AcDbLine
10
-0.15
20
9.74675
30
0
11
-0.15
21
0
31
0
39
0
210
0
220
0
230
1
0
LINE
5
D1
100
AcDbEntity
8
SK1
62
256
6
ByLayer
370
18
48
1
60
0
100
AcDbLine
10
-49
20
0
30
0
11
-49
21
-9.99675
31
0
39
0
210
0
220
0
230
1
0
LINE
5
D2
100
AcDbEntity
8
SK1
62
256
6
ByLayer
370
18
48
1
60
0
100
AcDbLine
10
-49
20
9.99675
30
0
11
-49
21
0
31
0
39
0
210
0
220
0
230
1
0
LINE
5
D3
100
AcDbEntity
8
SK1
62
256
6
ByLayer
370
13
48
1
60
0
100
AcDbLine
10
-47.426311
20
-9.888738
30
0
11
-47.426311
21
0
31
0
39
0
210
0
220
0
230
1
0
LINE
5
D4
100
AcDbEntity
8
SK1
62
256
6
ByLayer
370
13
48
1
60
0
100
AcDbLine
10
-47.426311
20
0
30
0
11
-47.426311
21
9.888738
31
0
39
0
210
0
220
0
230
1
0
LINE
5
D5
100
AcDbEntity
8
SK1
62
256
6
ByLayer
370
13
48
1
60
0
100
AcDbLine
10
-0.975195
20
9.74675
30
0
11
-0.975195
21
-9.74675
31
0
39
0
210
0
220
0
230
1
0
LINE
5
D6
100
AcDbEntity
8
SK1
62
256
6
ByLayer
370
18
48
1
60
0
100
AcDbLine
10
-50
20
0
30
0
11
-50
21
-8.99675
31
0
39
0
210
0
220
0
230
1
0
LINE
5
D7
100
AcDbEntity
8
SK1
62
256
6
ByLayer
370
18
48
1
60
0
100
AcDbLine
10
-50
20
8.99675
30
0
11
-50
21
0
31
0
39
0
210
0
220
0
230
1
0
MTEXT
5
195
100
AcDbEntity
8
SK6
62
256
6
ByLayer
370
13
48
1
60
0
100
AcDbMText
10
34.851137
20
30.375134
30
0
210
0
220
0
230
1
1
\W0.7057;870-1600-16L20-8
40
3.5
41
0
44
1.084337
50
0
71
7
72
5
7
iso_b_vert
0
DIMENSION
5
1A3
100
AcDbEntity
8
2
62
256
6
ByLayer
370
13
48
1
60
0
100
AcDbDimension
2
DimnDraft3D1
10
16
20
-21
30
0
11
86.5
21
-21
31
0
70
32
71
5
72
1
41
1
210
0
220
0
230
1
3
Standard
100
AcDbAlignedDimension
13
157
23
-1.5875
33
0
14
16
24
-9.5875
34
0
50
0
100
AcDbRotatedDimension
1001
ACAD
1000
DSTYLE
1002
{
1070
   279
1070
     0
1070
   172
1070
     1
1070
   173
1070
     1
1070
   340
1005
196
1070
   271
1070
     1
1070
   272
1070
     2
1070
    77
1070
     1
1070
    73
1070
     0
1070
   171
1070
     3
1070
   274
1070
     4
1070
   177
1070
     7
1070
   176
1070
     7
1070
   178
1070
     7
1070
    48
1040
-0.005
1070
    41
1041
3.5
1070
   147
1041
1.5
1070
    42
1041
1.5875
1070
    44
1041
2.0
1070
   140
1041
3.0
1070
   343
1005
0
1070
   344
1005
0
1002
}
0
DIMENSION
5
1AD
100
AcDbEntity
8
2
62
256
6
ByLayer
370
13
48
1
60
0
100
AcDbDimension
2
DimnDraft3D2
10
18.437
20
15
30
0
11
87.7185
21
15
31
0
70
32
71
5
72
1
41
1
210
0
220
0
230
1
3
Standard
100
AcDbAlignedDimension
13
157
23
1.5875
33
0
14
18.437
24
9.5875
34
0
50
0
100
AcDbRotatedDimension
1001
ACAD
1000
DSTYLE
1002
{
1070
   279
1070
     0
1070
   172
1070
     1
1070
   173
1070
     1
1070
   340
1005
196
1070
   271
1070
     1
1070
   272
1070
     2
1070
    77
1070
     1
1070
    73
1070
     0
1070
   171
1070
     3
1070
   274
1070
     4
1070
   177
1070
     7
1070
   176
1070
     7
1070
   178
1070
     7
1070
    48
1040
-0.005
1070
    41
1041
3.5
1070
   147
1041
1.5
1070
    42
1041
1.5875
1070
    44
1041
2.0
1070
   140
1041
3.0
1070
   343
1005
0
1070
   344
1005
0
1002
}
0
DIMENSION
5
1B8
100
AcDbEntity
8
SK2
62
256
6
ByLayer
370
13
48
1
60
0
100
AcDbDimension
2
DimnDraft3D3
10
0
20
-33
30
0
11
-25
21
-33
31
0
70
32
71
5
72
1
41
1
210
0
220
0
230
1
3
Standard
100
AcDbAlignedDimension
13
-50
23
-11.5875
33
0
14
0
24
-14.0875
34
0
50
0
100
AcDbRotatedDimension
1001
ACAD
1000
DSTYLE
1002
{
1070
   279
1070
     0
1070
   172
1070
     1
1070
   173
1070
     1
1070
   340
1005
196
1070
   271
1070
     1
1070
   272
1070
     2
1070
    77
1070
     1
1070
    73
1070
     0
1070
   171
1070
     3
1070
   274
1070
     4
1070
   177
1070
     7
1070
   176
1070
     7
1070
   178
1070
     7
1070
    48
1040
-0.005
1070
    41
1041
3.5
1070
   147
1041
1.5
1070
    42
1041
1.5875
1070
    44
1041
2.0
1070
   140
1041
3.0
1070
   343
1005
0
1070
   344
1005
0
1002
}
0
DIMENSION
5
1C2
100
AcDbEntity
8
2
62
256
6
ByLayer
370
13
48
1
60
0
100
AcDbDimension
2
DimnDraft3D4
10
157
20
-33
30
0
11
78.5
21
-33
31
0
70
32
71
5
72
1
41
1
210
0
220
0
230
1
3
Standard
100
AcDbAlignedDimension
13
0
23
-14.0875
33
0
14
157
24
-1.5875
34
0
50
0
100
AcDbRotatedDimension
1001
ACAD
1000
DSTYLE
1002
{
1070
   279
1070
     0
1070
   172
1070
     1
1070
   173
1070
     1
1070
   340
1005
196
1070
   271
1070
     1
1070
   272
1070
     2
1070
    77
1070
     1
1070
    73
1070
     0
1070
   171
1070
     3
1070
   274
1070
     4
1070
   177
1070
     7
1070
   176
1070
     7
1070
   178
1070
     7
1070
    48
1040
-0.005
1070
    41
1041
3.5
1070
   147
1041
1.5
1070
    42
1041
1.5875
1070
    44
1041
2.0
1070
   140
1041
3.0
1070
   343
1005
0
1070
   344
1005
0
1002
}
0
DIMENSION
5
1CD
100
AcDbEntity
8
SK2
62
256
6
ByLayer
370
13
48
1
60
0
100
AcDbDimension
2
DimnDraft3D5
10
-58.25
20
-10
30
0
11
-58.5
21
-0.520456
31
0
70
33
71
5
72
1
41
1
210
0
220
0
230
1
3
Standard
100
AcDbAlignedDimension
13
-51.5875
23
10
33
0
14
-51.5875
24
-10
34
0
1001
ACAD
1000
DSTYLE
1002
{
1070
   279
1070
     0
1070
    74
1070
     0
1070
   173
1070
     1
1070
   340
1005
196
1070
   271
1070
     1
1070
   272
1070
     2
1070
    77
1070
     1
1070
    73
1070
     0
1070
   171
1070
     3
1070
   274
1070
     4
1070
   177
1070
     7
1070
   176
1070
     7
1070
   178
1070
     7
1070
    48
1040
-0.005
1070
    41
1041
3.5
1070
   147
1041
1.5
1070
    42
1041
1.5875
1070
    44
1041
2.0
1070
   140
1041
3.0
1070
   343
1005
0
1070
   344
1005
0
1002
}
0
ENDSEC
0
SECTION
2
OBJECTS
0
DICTIONARY
5
238
330
0
100
AcDbDictionary
280
0
281
1
3
ACAD_GROUP
350
239
3
ACAD_MLINESTYLE
350
23a
0
DICTIONARY
5
239
330
0
100
AcDbDictionary
280
0
281
1
0
DICTIONARY
5
23a
330
0
100
AcDbDictionary
280
0
281
1
3
Standard
350
18
0
MLINESTYLE
5
18
330
23a
100
AcDbMlineStyle
2
Standard
70
0
3

62
256
51
90
52
90
71
2
49
-0.5
62
256
6
ByLayer
49
0.5
62
256
6
ByLayer
0
RASTERVARIABLES
5
226
330

100
AcDbRasterVariables
90
0
70
1
71
1
72
1
0
ENDSEC
0
EOF
