0
SECTION
2
HEADER
9
$ACADVER
1
AC1015
9
$DWGCODEPAGE
3
ANSI_1252
9
$HANDSEED
5
240
9
$ANGBASE
50
0
9
$ANGDIR
70
0
9
$ATTMODE
70
1
9
$AUNITS
70
0
9
$AUPREC
70
0
9
$CECOLOR
62
256
9
$CELTSCALE
40
1
9
$CELTYPE
6
ByLayer
9
$CELWEIGHT
370
18
9
$CLAYER
8
0
9
$CMLJUST
70
0
9
$CMLSCALE
40
1
9
$CMLSTYLE
2
Standard
9
$DIMSTYLE
2
Standard
9
$TEXTSIZE
40
0.2
9
$TEXTSTYLE
7
Standard
9
$LUNITS
70
2
9
$LUPREC
70
4
9
$EXTNAMES
290
1
9
$INSUNITS
70
4
9
$LTSCALE
40
1
9
$LWDISPLAY
290
1
9
$PDMODE
70
0
9
$PDSIZE
40
0
9
$PLINEGEN
70
0
0
ENDSEC
0
SECTION
2
CLASSES
0
CLASS
1
RASTERVARIABLES
2
AcDbRasterVariables
3
ISM
90
0
280
0
281
0
0
ENDSEC
0
SECTION
2
TABLES
0
TABLE
2
VPORT
5
236
100
AcDbSymbolTable
0
VPORT
5
1
100
AcDbSymbolTableRecord
100
AcDbViewportTableRecord
2
*Active
70
0
10
0
20
0
11
1
21
1
12
-1
22
1
13
0
23
0
14
0.5
24
0.5
15
10
25
10
16
0
26
0
36
1
17
0
27
0
37
0
0
ENDTAB
0
TABLE
2
LTYPE
5
237
100
AcDbSymbolTable
0
LTYPE
5
14
100
AcDbSymbolTableRecord
100
AcDbLinetypeTableRecord
70
0
2
ByBlock
3

72
65
73
0
40
0
0
LTYPE
5
15
100
AcDbSymbolTableRecord
100
AcDbLinetypeTableRecord
70
0
2
ByLayer
3

72
65
73
0
40
0
0
LTYPE
5
16
100
AcDbSymbolTableRecord
100
AcDbLinetypeTableRecord
70
0
2
CONTINUOUS
3
Solid line
72
65
73
0
40
0
0
LTYPE
5
6A
100
AcDbSymbolTableRecord
100
AcDbLinetypeTableRecord
70
0
2
CENTER
3
____ _ ____ _ ____ _ ____
72
65
73
4
40
47.5
49
22
74
0
49
-8.5
74
0
49
8.5
74
0
49
-8.5
74
0
0
LTYPE
5
6B
100
AcDbSymbolTableRecord
100
AcDbLinetypeTableRecord
70
0
2
DASHED
3
__ __ __ __ __ __ __ __ __
72
65
73
2
40
25.72
49
12.86
74
0
49
-12.86
74
0
0
ENDTAB
0
TABLE
2
LAYER
5
238
100
AcDbSymbolTable
0
LAYER
5
10
100
AcDbSymbolTableRecord
100
AcDbLayerTableRecord
2
0
70
0
62
7
6
CONTINUOUS
290
1
370
-3
390
0
0
LAYER
5
6D
100
AcDbSymbolTableRecord
100
AcDbLayerTableRecord
2
80
70
0
62
-6
6
CONTINUOUS
290
1
370
-3
390
0
0
LAYER
5
6F
100
AcDbSymbolTableRecord
100
AcDbLayerTableRecord
2
81
70
0
62
-3
6
CONTINUOUS
290
1
370
-3
390
0
0
LAYER
5
72
100
AcDbSymbolTableRecord
100
AcDbLayerTableRecord
2
1
70
0
62
4
6
CONTINUOUS
290
1
370
-3
390
0
0
LAYER
5
8F
100
AcDbSymbolTableRecord
100
AcDbLayerTableRecord
2
4
70
0
62
-2
6
CENTER
290
1
370
-3
390
0
0
LAYER
5
196
100
AcDbSymbolTableRecord
100
AcDbLayerTableRecord
2
2
70
0
62
7
6
CONTINUOUS
290
1
370
-3
390
0
0
LAYER
5
222
100
AcDbSymbolTableRecord
100
AcDbLayerTableRecord
2
SK1
70
0
62
4
6
CONTINUOUS
290
1
370
-3
390
0
0
LAYER
5
223
100
AcDbSymbolTableRecord
100
AcDbLayerTableRecord
2
SK4
70
0
62
2
6
CENTER
290
1
370
-3
390
0
0
LAYER
5
224
100
AcDbSymbolTableRecord
100
AcDbLayerTableRecord
2
SK6
70
0
62
5
6
CONTINUOUS
290
1
370
-3
390
0
0
LAYER
5
225
100
AcDbSymbolTableRecord
100
AcDbLayerTableRecord
2
SK2
70
0
62
7
6
CONTINUOUS
290
1
370
-3
390
0
0
ENDTAB
0
TABLE
2
STYLE
5
239
100
AcDbSymbolTable
0
STYLE
5
11
100
AcDbSymbolTableRecord
100
AcDbTextStyleTableRecord
2
Standard
3
txt
70
0
71
0
40
0
41
1
42
0
50
0
0
STYLE
5
191
100
AcDbSymbolTableRecord
100
AcDbTextStyleTableRecord
2
iso_b_vert
3
simplex.shx
70
0
71
0
40
0
41
1
42
0
50
0
0
STYLE
5
192
100
AcDbSymbolTableRecord
100
AcDbTextStyleTableRecord
2
DWGDirectTextStyle
3
simplex
70
0
71
0
40
0
41
1
42
0
50
0
0
ENDTAB
0
TABLE
2
DIMSTYLE
5
23a
100
AcDbSymbolTable
100
AcDbDimStyleTable
0
DIMSTYLE
105
27
100
AcDbSymbolTableRecord
100
AcDbDimStyleTableRecord
2
Standard
70
0
3
<>
41
0.18
42
0.0625
44
0.18
140
0.18
147
0.09
73
0
74
0
77
1
271
2
275
0
278
52
280
0
340
11
0
ENDTAB
0
TABLE
2
VIEW
5
23b
100
AcDbSymbolTable
0
ENDTAB
0
TABLE
2
UCS
5
23c
100
AcDbSymbolTable
0
ENDTAB
0
TABLE
2
APPID
5
23d
100
AcDbSymbolTable
0
APPID
5
12
100
AcDbSymbolTableRecord
100
AcDbRegAppTableRecord
2
ACAD
70
0
0
ENDTAB
0
TABLE
2
BLOCK_RECORD
5
23e
100
AcDbSymbolTable
0
BLOCK_RECORD
5
1F
100
AcDbSymbolTableRecord
100
AcDbBlockTableRecord
2
*Model_Space
340
0
70
0
0
BLOCK_RECORD
5
1B
100
AcDbSymbolTableRecord
100
AcDbBlockTableRecord
2
*Paper_Space
340
0
70
0
0
BLOCK_RECORD
5
23
100
AcDbSymbolTableRecord
100
AcDbBlockTableRecord
2
*Paper_Space0
340
0
70
0
0
BLOCK_RECORD
5
194
100
AcDbSymbolTableRecord
100
AcDbBlockTableRecord
2
DimnDraft3D1
340
0
70
0
0
BLOCK_RECORD
5
19F
100
AcDbSymbolTableRecord
100
AcDbBlockTableRecord
2
DimnDraft3D2
340
0
70
0
0
BLOCK_RECORD
5
1A9
100
AcDbSymbolTableRecord
100
AcDbBlockTableRecord
2
DimnDraft3D3
340
0
70
0
0
BLOCK_RECORD
5
1B4
100
AcDbSymbolTableRecord
100
AcDbBlockTableRecord
2
DimnDraft3D4
340
0
70
0
0
BLOCK_RECORD
5
1BE
100
AcDbSymbolTableRecord
100
AcDbBlockTableRecord
2
DimnDraft3D5
340
0
70
0
0
ENDTAB
0
ENDSEC
0
SECTION
2
BLOCKS
0
BLOCK
5
20
100
AcDbEntity
8
0
100
AcDbBlockBegin
2
*Model_Space
70
0
10
0
20
0
30
0
3
*Model_Space
0
ENDBLK
5
21
100
AcDbEntity
8
0
100
AcDbBlockEnd
0
BLOCK
5
1C
100
AcDbEntity
8
0
100
AcDbBlockBegin
2
*Paper_Space
70
0
10
0
20
0
30
0
3
*Paper_Space
0
ENDBLK
5
1D
100
AcDbEntity
8
0
100
AcDbBlockEnd
0
BLOCK
5
24
100
AcDbEntity
8
0
100
AcDbBlockBegin
2
*Paper_Space0
70
0
10
0
20
0
30
0
3
*Paper_Space0
0
ENDBLK
5
25
100
AcDbEntity
8
0
100
AcDbBlockEnd
0
BLOCK
5
19C
100
AcDbEntity
8
0
100
AcDbBlockBegin
2
DimnDraft3D1
70
0
10
0
20
0
30
0
3
DimnDraft3D1
0
MTEXT
5
195
100
AcDbEntity
8
2
62
256
6
ByLayer
370
13
48
1
60
0
100
AcDbMText
10
58.229544
20
-20.249886
30
0
210
0
220
0
230
1
1
\W0.7346;90.0
40
3
41
0
44
1.084337
50
0
71
7
72
5
7
iso_b_vert
0
LINE
5
197
100
AcDbEntity
8
2
62
256
6
ByLayer
370
13
48
1
60
0
100
AcDbLine
10
106
20
-1.5875
30
0
11
106
21
-23
31
0
39
0
210
0
220
0
230
1
0
LINE
5
198
100
AcDbEntity
8
2
62
256
6
ByLayer
370
13
48
1
60
0
100
AcDbLine
10
16
20
-9.5875
30
0
11
16
21
-23
31
0
39
0
210
0
220
0
230
1
0
LINE
5
199
100
AcDbEntity
8
2
62
256
6
ByLayer
370
13
48
1
60
0
100
AcDbLine
10
106
20
-21
30
0
11
16
21
-21
31
0
39
0
210
0
220
0
230
1
0
SOLID
5
19A
100
AcDbEntity
8
2
62
256
6
ByLayer
370
13
48
1
60
0
100
AcDbTrace
10
106
20
-21
30
0
11
102.500002
21
-21.460784
31
0
12
102.499998
22
-20.539216
32
0
13
106
23
-21
33
0
39
0
210
0
220
0
230
1
0
SOLID
5
19B
100
AcDbEntity
8
2
62
256
6
ByLayer
370
13
48
1
60
0
100
AcDbTrace
10
16
20
-21
30
0
11
19.499998
21
-20.539216
31
0
12
19.500002
22
-21.460784
32
0
13
16
23
-21
33
0
39
0
210
0
220
0
230
1
0
ENDBLK
5
19D
100
AcDbEntity
8
0
100
AcDbBlockEnd
0
BLOCK
5
1A6
100
AcDbEntity
8
0
100
AcDbBlockBegin
2
DimnDraft3D2
70
0
10
0
20
0
30
0
3
DimnDraft3D2
0
MTEXT
5
1A0
100
AcDbEntity
8
2
62
256
6
ByLayer
370
13
48
1
60
0
100
AcDbMText
10
59.448044
20
15.750114
30
0
210
0
220
0
230
1
1
\W0.7346;87.6
40
3
41
0
44
1.084337
50
0
71
7
72
5
7
iso_b_vert
0
LINE
5
1A1
100
AcDbEntity
8
2
62
256
6
ByLayer
370
13
48
1
60
0
100
AcDbLine
10
106
20
1.5875
30
0
11
106
21
17
31
0
39
0
210
0
220
0
230
1
0
LINE
5
1A2
100
AcDbEntity
8
2
62
256
6
ByLayer
370
13
48
1
60
0
100
AcDbLine
10
18.437
20
9.5875
30
0
11
18.437
21
17
31
0
39
0
210
0
220
0
230
1
0
LINE
5
1A3
100
AcDbEntity
8
2
62
256
6
ByLayer
370
13
48
1
60
0
100
AcDbLine
10
106
20
15
30
0
11
18.437
21
15
31
0
39
0
210
0
220
0
230
1
0
SOLID
5
1A4
100
AcDbEntity
8
2
62
256
6
ByLayer
370
13
48
1
60
0
100
AcDbTrace
10
106
20
15
30
0
11
102.500002
21
14.539216
31
0
12
102.499998
22
15.460784
32
0
13
106
23
15
33
0
39
0
210
0
220
0
230
1
0
SOLID
5
1A5
100
AcDbEntity
8
2
62
256
6
ByLayer
370
13
48
1
60
0
100
AcDbTrace
10
18.437
20
15
30
0
11
21.936998
21
15.460784
31
0
12
21.937002
22
14.539216
32
0
13
18.437
23
15
33
0
39
0
210
0
220
0
230
1
0
ENDBLK
5
1A7
100
AcDbEntity
8
0
100
AcDbBlockEnd
0
BLOCK
5
1B1
100
AcDbEntity
8
0
100
AcDbBlockBegin
2
DimnDraft3D3
70
0
10
0
20
0
30
0
3
DimnDraft3D3
0
MTEXT
5
1AA
100
AcDbEntity
8
SK2
62
256
6
ByLayer
370
13
48
1
60
0
100
AcDbMText
10
-27.770456
20
-32.249886
30
0
210
0
220
0
230
1
1
\W0.7346;50.0
40
3
41
0
44
1.084337
50
0
71
7
72
5
7
iso_b_vert
0
LINE
5
1AC
100
AcDbEntity
8
SK2
62
256
6
ByLayer
370
13
48
1
60
0
100
AcDbLine
10
-50
20
-11.5875
30
0
11
-50
21
-35
31
0
39
0
210
0
220
0
230
1
0
LINE
5
1AD
100
AcDbEntity
8
SK2
62
256
6
ByLayer
370
13
48
1
60
0
100
AcDbLine
10
0
20
-14.0875
30
0
11
0
21
-35
31
0
39
0
210
0
220
0
230
1
0
LINE
5
1AE
100
AcDbEntity
8
SK2
62
256
6
ByLayer
370
13
48
1
60
0
100
AcDbLine
10
-50
20
-33
30
0
11
0
21
-33
31
0
39
0
210
0
220
0
230
1
0
SOLID
5
1AF
100
AcDbEntity
8
SK2
62
256
6
ByLayer
370
13
48
1
60
0
100
AcDbTrace
10
-50
20
-33
30
0
11
-46.500002
21
-32.539216
31
0
12
-46.499998
22
-33.460784
32
0
13
-50
23
-33
33
0
39
0
210
0
220
0
230
1
0
SOLID
5
1B0
100
AcDbEntity
8
SK2
62
256
6
ByLayer
370
13
48
1
60
0
100
AcDbTrace
10
0
20
-33
30
0
11
-3.499998
21
-33.460784
31
0
12
-3.500002
22
-32.539216
32
0
13
0
23
-33
33
0
39
0
210
0
220
0
230
1
0
ENDBLK
5
1B2
100
AcDbEntity
8
0
100
AcDbBlockEnd
0
BLOCK
5
1BB
100
AcDbEntity
8
0
100
AcDbBlockBegin
2
DimnDraft3D4
70
0
10
0
20
0
30
0
3
DimnDraft3D4
0
MTEXT
5
1B5
100
AcDbEntity
8
2
62
256
6
ByLayer
370
13
48
1
60
0
100
AcDbMText
10
49.483572
20
-32.249886
30
0
210
0
220
0
230
1
1
\W0.6864;106.0
40
3
41
0
44
1.084337
50
0
71
7
72
5
7
iso_b_vert
0
LINE
5
1B6
100
AcDbEntity
8
2
62
256
6
ByLayer
370
13
48
1
60
0
100
AcDbLine
10
0
20
-14.0875
30
0
11
0
21
-35
31
0
39
0
210
0
220
0
230
1
0
LINE
5
1B7
100
AcDbEntity
8
2
62
256
6
ByLayer
370
13
48
1
60
0
100
AcDbLine
10
106
20
-1.5875
30
0
11
106
21
-35
31
0
39
0
210
0
220
0
230
1
0
LINE
5
1B8
100
AcDbEntity
8
2
62
256
6
ByLayer
370
13
48
1
60
0
100
AcDbLine
10
0
20
-33
30
0
11
106
21
-33
31
0
39
0
210
0
220
0
230
1
0
SOLID
5
1B9
100
AcDbEntity
8
2
62
256
6
ByLayer
370
13
48
1
60
0
100
AcDbTrace
10
0
20
-33
30
0
11
3.499998
21
-32.539216
31
0
12
3.500002
22
-33.460784
32
0
13
0
23
-33
33
0
39
0
210
0
220
0
230
1
0
SOLID
5
1BA
100
AcDbEntity
8
2
62
256
6
ByLayer
370
13
48
1
60
0
100
AcDbTrace
10
106
20
-33
30
0
11
102.500002
21
-33.460784
31
0
12
102.499998
22
-32.539216
32
0
13
106
23
-33
33
0
39
0
210
0
220
0
230
1
0
ENDBLK
5
1BC
100
AcDbEntity
8
0
100
AcDbBlockEnd
0
BLOCK
5
1C6
100
AcDbEntity
8
0
100
AcDbBlockBegin
2
DimnDraft3D5
70
0
10
0
20
0
30
0
3
DimnDraft3D5
0
MTEXT
5
1BF
100
AcDbEntity
8
SK2
62
256
6
ByLayer
370
13
48
1
60
0
100
AcDbMText
10
-57.750114
20
0.229544
30
0
210
0
220
0
230
1
1
\W0.7346;20.0
40
3
41
0
44
1.084337
50
90
71
7
72
5
7
iso_b_vert
0
MTEXT
5
1C0
100
AcDbEntity
8
SK2
62
256
6
ByLayer
370
13
48
1
60
0
100
AcDbMText
10
-57.750114
20
-4.247019
30
0
210
0
220
0
230
1
1
%%c
40
3
41
0
44
1.084337
50
90
71
7
72
5
7
iso_b_vert
0
LINE
5
1C1
100
AcDbEntity
8
SK2
62
256
6
ByLayer
370
13
48
1
60
0
100
AcDbLine
10
-51.5875
20
10
30
0
11
-58.25
21
10
31
0
39
0
210
0
220
0
230
1
0
LINE
5
1C2
100
AcDbEntity
8
SK2
62
256
6
ByLayer
370
13
48
1
60
0
100
AcDbLine
10
-51.5875
20
-10
30
0
11
-58.25
21
-10
31
0
39
0
210
0
220
0
230
1
0
LINE
5
1C3
100
AcDbEntity
8
SK2
62
256
6
ByLayer
370
13
48
1
60
0
100
AcDbLine
10
-56.25
20
10
30
0
11
-56.25
21
-10
31
0
39
0
210
0
220
0
230
1
0
SOLID
5
1C4
100
AcDbEntity
8
SK2
62
256
6
ByLayer
370
13
48
1
60
0
100
AcDbTrace
10
-56.25
20
10
30
0
11
-55.789216
21
6.500002
31
0
12
-56.710784
22
6.499998
32
0
13
-56.25
23
10
33
0
39
0
210
0
220
0
230
1
0
SOLID
5
1C5
100
AcDbEntity
8
SK2
62
256
6
ByLayer
370
13
48
1
60
0
100
AcDbTrace
10
-56.25
20
-10
30
0
11
-56.710784
21
-6.500002
31
0
12
-55.789216
22
-6.499998
32
0
13
-56.25
23
-10
33
0
39
0
210
0
220
0
230
1
0
ENDBLK
5
1C7
100
AcDbEntity
8
0
100
AcDbBlockEnd
0
ENDSEC
0
SECTION
2
ENTITIES
0
ARC
5
DD
100
AcDbEntity
8
SK1
62
256
6
ByLayer
370
18
48
1
60
0
100
AcDbCircle
39
0
10
47.946236
20
-10.49675
30
0
40
0.799999999999998
210
0
220
0
230
-1
100
AcDbArc
50
51
51
130.534532
0
ARC
5
DE
100
AcDbEntity
8
SK1
62
256
6
ByLayer
370
18
48
1
60
0
100
AcDbCircle
39
0
10
47.946236
20
10.49675
30
0
40
0.799999999999998
210
0
220
0
230
-1
100
AcDbArc
50
229.465468
51
309
0
ARC
5
DF
100
AcDbEntity
8
SK1
62
256
6
ByLayer
370
18
48
1
60
0
100
AcDbCircle
39
0
10
0.975195
20
10.14675
30
0
40
0.4
210
0
220
0
230
-1
100
AcDbArc
50
270
51
295
0
ARC
5
E0
100
AcDbEntity
8
SK1
62
256
6
ByLayer
370
18
48
1
60
0
100
AcDbCircle
39
0
10
0.975195
20
-10.14675
30
0
40
0.4
210
0
220
0
230
-1
100
AcDbArc
50
65
51
90
0
ARC
5
E1
100
AcDbEntity
8
1
62
256
6
ByLayer
370
18
48
1
60
0
100
AcDbCircle
39
0
10
-16
20
-13.65
30
0
40
5.99999999999999
210
0
220
0
230
-1
100
AcDbArc
50
58.770804
51
90
0
ARC
5
E2
100
AcDbEntity
8
1
62
256
6
ByLayer
370
18
48
1
60
0
100
AcDbCircle
39
0
10
-16
20
13.65
30
0
40
5.99999999999999
210
0
220
0
230
-1
100
AcDbArc
50
270
51
301.229196
0
ARC
5
E3
100
AcDbEntity
8
SK1
62
256
6
ByLayer
370
18
48
1
60
0
100
AcDbCircle
39
0
10
0.15
20
10.14675
30
0
40
0.4
210
0
220
0
230
-1
100
AcDbArc
50
247.975687
51
270
0
ARC
5
E4
100
AcDbEntity
8
SK1
62
256
6
ByLayer
370
18
48
1
60
0
100
AcDbCircle
39
0
10
0.15
20
-10.14675
30
0
40
0.4
210
0
220
0
230
-1
100
AcDbArc
50
90
51
112.024313
0
ELLIPSE
5
E5
100
AcDbEntity
8
1
62
256
6
ByLayer
370
18
48
1
60
0
100
AcDbEllipse
10
17.107
20
2.552447
30
0
11
-0.940899052068853
21
-4.91067296547183
31
0
210
0
220
0
230
1
40
0.067046
41
2.41816931315935
42
2.41861451243406
0
ELLIPSE
5
E6
100
AcDbEntity
8
1
62
256
6
ByLayer
370
18
48
1
60
0
100
AcDbEllipse
10
99.951923
20
-1.319195
30
0
11
0.290144988034833
21
-1.01409499121982
31
0
210
0
220
0
230
1
40
0.313216
41
0.0812707445878511
42
-3.06032190900195
0
ELLIPSE
5
E7
100
AcDbEntity
8
1
62
256
6
ByLayer
370
18
48
1
60
0
100
AcDbEllipse
10
84.9
20
-7.589056
30
0
11
-0.0287083645766986
21
-4.99991758230107
31
0
210
0
220
0
230
1
40
0.341978
41
-1.9898289525841
42
-1.98849203096209
0
ELLIPSE
5
E8
100
AcDbEntity
8
1
62
256
6
ByLayer
370
18
48
1
60
0
100
AcDbEllipse
10
99.006865
20
-1.259691
30
0
11
1.24385062279192
21
0.278562755836948
31
0
210
0
220
0
230
1
40
0.763485
41
1.93501221740177
42
-1.74281074557497
0
ELLIPSE
5
E9
100
AcDbEntity
8
1
62
256
6
ByLayer
370
18
48
1
60
0
100
AcDbEllipse
10
85.460842
20
6.938937
30
0
11
2.69728727805455
21
8.39402950795071
31
0
210
0
220
0
230
1
40
0.156451
41
-1.67562145383045
42
-1.63987422439132
0
ELLIPSE
5
EA
100
AcDbEntity
8
1
62
256
6
ByLayer
370
13
48
1
60
0
100
AcDbEllipse
10
84.9
20
7.589056
30
0
11
0.0287083645767012
21
-4.99991758230107
31
0
210
0
220
0
230
1
40
0.341978
41
1.1056992738388
42
1.16718782319673
0
ELLIPSE
5
EB
100
AcDbEntity
8
1
62
256
6
ByLayer
370
18
48
1
60
0
100
AcDbEllipse
10
84.9
20
7.589056
30
0
11
0.0287083645767012
21
-4.99991758230107
31
0
210
0
220
0
230
1
40
0.341978
41
1.16718782319673
42
1.16860971388116
0
ELLIPSE
5
EC
100
AcDbEntity
8
1
62
256
6
ByLayer
370
18
48
1
60
0
100
AcDbEllipse
10
17.420422
20
3.768226
30
0
11
2.99193448528584
21
18.7427416567027
31
0
210
0
220
0
230
1
40
0.011697
41
-1.43919857482573
42
-1.41203231247017
0
ELLIPSE
5
ED
100
AcDbEntity
8
1
62
256
6
ByLayer
370
18
48
1
60
0
100
AcDbEllipse
10
86.724868
20
-80.703112
30
0
11
79.1258765693141
21
8.90324044539917E-06
31
0
210
0
220
0
230
1
40
0.931411
41
1.44197233918362
42
1.45330614502015
0
ELLIPSE
5
EE
100
AcDbEntity
8
1
62
256
6
ByLayer
370
18
48
1
60
0
100
AcDbEllipse
10
105.969037
20
-0.145538
30
0
11
0.0471810661882842
21
0.151780716598068
31
0
210
0
220
0
230
1
40
0.051964
41
1.76869974250824
42
2.45645363690016
0
ELLIPSE
5
EF
100
AcDbEntity
8
1
62
256
6
ByLayer
370
18
48
1
60
0
100
AcDbEllipse
10
106
20
-1E-06
30
0
11
2.92526887035266
21
-8.34774928822566
31
0
210
0
220
0
230
1
40
0.066283
41
2.78209474037971
42
2.86895321307222
0
ELLIPSE
5
F0
100
AcDbEntity
8
1
62
256
6
ByLayer
370
13
48
1
60
0
100
AcDbEllipse
10
84.9
20
-7.589056
30
0
11
-0.0287083645766986
21
-4.99991758230107
31
0
210
0
220
0
230
1
40
0.341978
41
-2.03791088296199
42
-1.9898289525841
0
ELLIPSE
5
F1
100
AcDbEntity
8
1
62
256
6
ByLayer
370
13
48
1
60
0
100
AcDbEllipse
10
17.107
20
2.552447
30
0
11
-0.940899052068853
21
-4.91067296547183
31
0
210
0
220
0
230
1
40
0.067046
41
0.0992177889569906
42
2.41816931315935
0
ELLIPSE
5
F2
100
AcDbEntity
8
1
62
256
6
ByLayer
370
18
48
1
60
0
100
AcDbEllipse
10
17.107
20
2.552447
30
0
11
-0.940899052068853
21
-4.91067296547183
31
0
210
0
220
0
230
1
40
0.067046
41
0.0987897013551402
42
0.0992177889569906
0
ELLIPSE
5
F3
100
AcDbEntity
8
1
62
256
6
ByLayer
370
18
48
1
60
0
100
AcDbEllipse
10
85.779604
20
-0.003373
30
0
11
1.25925097908979
21
7.83569287879764
31
0
210
0
220
0
230
1
40
0.327189
41
-2.40814619113188
42
-2.4028598415921
0
ELLIPSE
5
F4
100
AcDbEntity
8
1
62
256
6
ByLayer
370
18
48
1
60
0
100
AcDbEllipse
10
92.85
20
-3.595732
30
0
11
1.25
21
0
31
0
210
0
220
0
230
1
40
0.702153
41
-2.21619723518147
42
-0.744950439938529
0
ELLIPSE
5
F5
100
AcDbEntity
8
1
62
256
6
ByLayer
370
18
48
1
60
0
100
AcDbEllipse
10
111.846983
20
0
30
0
11
10.6449680943534
21
7.21567427249627
31
0
210
0
220
0
230
1
40
0.290406
41
2.88047503035671
42
3.14133805130436
0
ELLIPSE
5
F6
100
AcDbEntity
8
1
62
256
6
ByLayer
370
18
48
1
60
0
100
AcDbEllipse
10
16.746208
20
0.91664
30
0
11
2.98988870976811
21
12.2524352021894
31
0
210
0
220
0
230
1
40
0.020091
41
-1.87946132437644
42
-1.83496196260003
0
ELLIPSE
5
F7
100
AcDbEntity
8
1
62
256
6
ByLayer
370
18
48
1
60
0
100
AcDbEllipse
10
93.05
20
-3.595732
30
0
11
-1.85
21
2.2655217545714E-16
31
0
210
0
220
0
230
1
40
0.702153
41
0.794135441577503
42
2.34902745531856
0
ELLIPSE
5
F8
100
AcDbEntity
8
1
62
256
6
ByLayer
370
18
48
1
60
0
100
AcDbEllipse
10
84.231087
20
-7.790175
30
0
11
2.45377225281168
21
3.88308578239723
31
0
210
0
220
0
230
1
40
0.444486
41
1.25630640082454
42
1.31045368025779
0
ELLIPSE
5
F9
100
AcDbEntity
8
1
62
256
6
ByLayer
370
18
48
1
60
0
100
AcDbEllipse
10
105.969037
20
0.145538
30
0
11
0.047181066170543
21
-0.151780716547883
31
0
210
0
220
0
230
1
40
0.051964
41
-2.45645363686399
42
-1.76869974228747
0
ELLIPSE
5
FA
100
AcDbEntity
8
1
62
256
6
ByLayer
370
18
48
1
60
0
100
AcDbEllipse
10
85.779318
20
0.00117
30
0
11
1.25908679412799
21
-7.83797400175588
31
0
210
0
220
0
230
1
40
0.327183
41
2.40297198468867
42
2.40825737725645
0
ELLIPSE
5
FB
100
AcDbEntity
8
1
62
256
6
ByLayer
370
18
48
1
60
0
100
AcDbEllipse
10
106
20
0
30
0
11
2.92526846685824
21
8.34774805601101
31
0
210
0
220
0
230
1
40
0.066283
41
-2.86895319342998
42
-2.78209471406816
0
ELLIPSE
5
FC
100
AcDbEntity
8
1
62
256
6
ByLayer
370
13
48
1
60
0
100
AcDbEllipse
10
17.107
20
2.552447
30
0
11
1.59374744887905
21
4.7391949811325
31
0
210
0
220
0
230
1
40
0.665924
41
0.887311227766241
42
3.07000241714598
0
POINT
5
6C
100
AcDbEntity
8
80
62
256
6
ByLayer
370
18
48
1
60
0
100
AcDbPoint
10
0
20
0
30
0
39
0
210
0
220
0
230
1
50
360
0
POINT
5
6E
100
AcDbEntity
8
81
62
256
6
ByLayer
370
18
48
1
60
0
100
AcDbPoint
10
96
20
0
30
0
39
0
210
0
220
0
230
1
50
360
0
SPLINE
5
FD
100
AcDbEntity
8
1
62
256
6
ByLayer
370
18
48
1
60
0
100
AcDbSpline
70
4
71
3
72
14
73
10
40
0
40
0
40
0
40
0
40
0.194610475230278
40
0.387875248964235
40
0.576007975594296
40
0.68357313597327
40
0.789003800654074
40
0.893637306455547
40
1
40
1
40
1
40
1
41
1
10
12.8037131219233
20
8.57124521235428
30
0
41
1
10
12.3187734078633
20
8.88112947953584
30
0
41
1
10
11.3580111353562
20
9.5074478002127
30
0
41
1
10
9.98056012109168
20
10.5086578953599
30
0
41
1
10
8.77147475659561
20
11.3040247040511
30
0
41
1
10
7.72222142564164
20
11.8599855661985
30
0
41
1
10
6.85017453575568
20
12.2126771909133
30
0
41
1
10
5.93896383144656
20
12.4461659063894
30
0
41
1
10
5.31835364418762
20
12.498097750811
30
0
41
1
10
5.00090000000003
20
12.5
30
0
0
SPLINE
5
FE
100
AcDbEntity
8
1
62
256
6
ByLayer
370
18
48
1
60
0
100
AcDbSpline
70
4
71
3
72
13
73
9
40
0
40
0
40
0
40
0
40
0.134869249509768
40
0.268183769364911
40
0.404131156299314
40
0.544098370903703
40
0.77063679433698
40
1
40
1
40
1
40
1
41
1
10
5.00090000000003
20
-12.5
30
0
41
1
10
5.4051721356341
20
-12.4952849332261
30
0
41
1
10
6.19197065979335
20
-12.4131029531633
30
0
41
1
10
7.33766193268877
20
-12.0424540616595
30
0
41
1
10
8.42275549976728
20
-11.5039157125891
30
0
41
1
10
9.68492124706785
20
-10.7181648851006
30
0
41
1
10
11.108114446789
20
-9.67959875078219
30
0
41
1
10
12.2357432361422
20
-8.94153596658697
30
0
41
1
10
12.8037131219233
20
-8.57124521235428
30
0
0
SPLINE
5
FF
100
AcDbEntity
8
1
62
256
6
ByLayer
370
18
48
1
60
0
100
AcDbSpline
70
4
71
3
72
51
73
47
40
0
40
0
40
0
40
0
40
0.0093841539214336
40
0.0219152063185029
40
0.0350161347790616
40
0.0493092000206903
40
0.0733691426951354
40
0.0999142741070472
40
0.126108608429339
40
0.151940170521237
40
0.177416680920605
40
0.202546379678663
40
0.240802551766544
40
0.277244413582495
40
0.311742577985106
40
0.324913133333368
40
0.336891530246991
40
0.349144043195368
40
0.365585538999342
40
0.386431954518503
40
0.409563647976199
40
0.430144922552876
40
0.453969623561242
40
0.472808266141577
40
0.488576347825051
40
0.501781767116979
40
0.517222328869715
40
0.537130870589939
40
0.561509254859159
40
0.588789268618439
40
0.616704609835694
40
0.645236143852837
40
0.674282232208765
40
0.691697612216821
40
0.705268366786518
40
0.715211316840991
40
0.725926441795448
40
0.739145199414267
40
0.754867138349015
40
0.773091504987395
40
0.793561971174386
40
0.841650941072477
40
0.887121817274846
40
0.929971653108289
40
0.973165992589444
40
1
40
1
40
1
40
1
41
1
10
61.732544251906
20
7.33842404818597
30
0
41
1
10
61.6631245151876
20
7.33719438500825
30
0
41
1
10
61.4820083009507
20
7.33195067447971
30
0
41
1
10
61.1057500624946
20
7.30823120934411
30
0
41
1
10
60.6194888512049
20
7.28451944328012
30
0
41
1
10
59.9490065775866
20
7.26574775861454
30
0
41
1
10
59.0856248695314
20
7.26949908085047
30
0
41
1
10
58.0804033816177
20
7.28850410304386
30
0
41
1
10
57.0498803594971
20
7.30420757374668
30
0
41
1
10
56.0370559224743
20
7.31992441977437
30
0
41
1
10
55.0401086359264
20
7.33322541144653
30
0
41
1
10
53.8873069760294
20
7.34571571693235
30
0
41
1
10
52.5858221633325
20
7.35007242937931
30
0
41
1
10
51.1430657428184
20
7.34954065822893
30
0
41
1
10
50.0319206016222
20
7.34991650708844
30
0
41
1
10
49.2441284434993
20
7.34973980147115
30
0
41
1
10
48.7499596902034
20
7.34956159782627
30
0
41
1
10
48.2125580538152
20
7.34929828194007
30
0
41
1
10
47.5579882574224
20
7.3488898814837
30
0
41
1
10
46.7596719919607
20
7.34827397934848
30
0
41
1
10
45.906658006881
20
7.34750205876423
30
0
41
1
10
45.0142922843991
20
7.34661410806547
30
0
41
1
10
44.178650114656
20
7.34573686536919
30
0
41
1
10
43.4066040890021
20
7.34491563126707
30
0
41
1
10
42.7748690256016
20
7.34425122242675
30
0
41
1
10
42.18803227058
20
7.34364903971789
30
0
41
1
10
41.5464884874625
20
7.34301463391722
30
0
41
1
10
40.7573181133243
20
7.34228399046836
30
0
41
1
10
39.8117147221171
20
7.34150108462902
30
0
41
1
10
38.7603182062424
20
7.34077347647957
30
0
41
1
10
37.6540462383578
20
7.34019197067298
30
0
41
1
10
36.5244391800301
20
7.3398083516573
30
0
41
1
10
35.5335672644201
20
7.3396698589672
30
0
41
1
10
34.7403700863158
20
7.33968864267629
30
0
41
1
10
34.1995795195056
20
7.33975992778164
30
0
41
1
10
33.7473186568081
20
7.33985613931478
30
0
41
1
10
33.2997123260768
20
7.33998232881351
30
0
41
1
10
32.7757520587766
20
7.34017081545554
30
0
41
1
10
32.1525760697611
20
7.34045144381383
30
0
41
1
10
31.4335863238263
20
7.34084763412861
30
0
41
1
10
30.2869393879241
20
7.34160248184023
30
0
41
1
10
28.7803070212033
20
7.34284224452836
30
0
41
1
10
26.9779747464677
20
7.34457506844299
30
0
41
1
10
25.2404366263458
20
7.34622768733121
30
0
41
1
10
23.7488363047472
20
7.34760282274576
30
0
41
1
10
22.8237963328786
20
7.34854587734529
30
0
41
1
10
22.4694077332475
20
7.3488481921091
30
0
0
SPLINE
5
100
100
AcDbEntity
8
1
62
256
6
ByLayer
370
18
48
1
60
0
100
AcDbSpline
70
4
71
2
72
6
73
3
40
0
40
0
40
0
40
1
40
1
40
1
41
1
10
60.6979875849675
20
-0.930431022383175
30
0
41
1
10
60.7770009352413
20
-0.945519512259466
30
0
41
1
10
60.856010714721
20
-0.96204906921372
30
0
0
SPLINE
5
101
100
AcDbEntity
8
1
62
256
6
ByLayer
370
18
48
1
60
0
100
AcDbSpline
70
4
71
1
72
4
73
2
40
0
40
0
40
1
40
1
41
1
10
91.2902134540616
20
3.92854789443194
30
0
41
1
10
91.2902229713404
20
3.92854470315649
30
0
0
SPLINE
5
102
100
AcDbEntity
8
1
62
256
6
ByLayer
370
18
48
1
60
0
100
AcDbSpline
70
4
71
3
72
27
73
23
40
0
40
0
40
0
40
0
40
0.0796558953037427
40
0.157802866946849
40
0.229657038661477
40
0.298808571844555
40
0.367874265675889
40
0.422968692683733
40
0.493994323141616
40
0.566086031396852
40
0.640953776107619
40
0.71479687702774
40
0.738715045794254
40
0.764501718459681
40
0.794951777097671
40
0.826102011401984
40
0.854028957234586
40
0.888469157863895
40
0.920856408137921
40
0.953130609344425
40
0.985322278727823
40
1
40
1
40
1
40
1
41
1
10
19.4070000000494
20
-7.34906389963146
30
0
41
1
10
20.4156912836564
20
-7.34948194153782
30
0
41
1
10
22.4149596332981
20
-7.34954371843182
30
0
41
1
10
25.3289246799465
20
-7.3453953595579
30
0
41
1
10
28.1094887479575
20
-7.3431483631704
30
0
41
1
10
30.7739422404047
20
-7.34119955814336
30
0
41
1
10
33.2267543860963
20
-7.33984381394629
30
0
41
1
10
35.7031842673803
20
-7.33953927432711
30
0
41
1
10
38.2180488192328
20
-7.34029547039623
30
0
41
1
10
40.9837770062299
20
-7.34235312073983
30
0
41
1
10
43.7852568728251
20
-7.34531665659219
30
0
41
1
10
45.9755217952141
20
-7.34764121688428
30
0
41
1
10
47.54306468177
20
-7.34889037786823
30
0
41
1
10
48.5600405572619
20
-7.34951218649394
30
0
41
1
10
49.6688092788514
20
-7.34990176275511
30
0
41
1
10
50.8045972206247
20
-7.34993101213601
30
0
41
1
10
51.9898507648848
20
-7.34953772122594
30
0
41
1
10
53.1749186858818
20
-7.34411162170426
30
0
41
1
10
54.4112301292659
20
-7.32977501142673
30
0
41
1
10
55.628275050629
20
-7.31349002136184
30
0
41
1
10
56.626122276907
20
-7.30110197127829
30
0
41
1
10
57.2185167699261
20
-7.29327951175037
30
0
41
1
10
57.4042163143593
20
-7.29123508918733
30
0
0
SPLINE
5
103
100
AcDbEntity
8
1
62
256
6
ByLayer
370
18
48
1
60
0
100
AcDbSpline
70
4
71
3
72
9
73
5
40
0
40
0
40
0
40
0
40
0.057201608015121
40
1
40
1
40
1
40
1
41
1
10
60.4827499622518
20
-7.32243209055255
30
0
41
1
10
60.5050251591097
20
-7.32288778135006
30
0
41
1
10
60.8938678240737
20
-7.33068237119264
30
0
41
1
10
61.2724416379164
20
-7.33508838535622
30
0
41
1
10
61.6216541650913
20
-7.3383909847779
30
0
0
SPLINE
5
104
100
AcDbEntity
8
1
62
256
6
ByLayer
370
18
48
1
60
0
100
AcDbSpline
70
4
71
3
72
14
73
10
40
0
40
0
40
0
40
0
40
0.11629719911006
40
0.224347627173981
40
0.327229232445789
40
0.430544348511452
40
0.604253242614458
40
0.827972338128711
40
1
40
1
40
1
40
1
41
1
10
98.9256574453152
20
-8.1999924869383
30
0
41
1
10
99.0737233641065
20
-8.19956659017396
30
0
41
1
10
99.3650689690545
20
-8.19875825245936
30
0
41
1
10
99.8095770423012
20
-8.19634178496531
30
0
41
1
10
100.244438829384
20
-8.19644462924495
30
0
41
1
10
100.754549392047
20
-8.19930304334491
30
0
41
1
10
101.439635347937
20
-8.19978957837913
30
0
41
1
10
102.221050427631
20
-8.19993343028929
30
0
41
1
10
102.764289563098
20
-8.20000055089622
30
0
41
1
10
103.000563392138
20
-8.20000642639474
30
0
0
SPLINE
5
105
100
AcDbEntity
8
1
62
256
6
ByLayer
370
18
48
1
60
0
100
AcDbSpline
70
4
71
3
72
9
73
5
40
0
40
0
40
0
40
0
40
0.967885919217313
40
1
40
1
40
1
40
1
41
1
10
103.006943441652
20
8.20006208214431
30
0
41
1
10
102.768421413841
20
8.20006198032121
30
0
41
1
10
102.52226493266
20
8.20002088321689
30
0
41
1
10
102.276241128804
20
8.19997078879484
30
0
41
1
10
102.26834044882
20
8.19996916832497
30
0
0
SPLINE
5
106
100
AcDbEntity
8
1
62
256
6
ByLayer
370
18
48
1
60
0
100
AcDbSpline
70
4
71
3
72
14
73
10
40
0
40
0
40
0
40
0
40
0.249999999999999
40
0.249999999999999
40
0.5
40
0.5
40
0.75
40
0.75
40
1
40
1
40
1
40
1
41
1
10
105.809537154655
20
-0.748074234483369
30
0
41
1
10
105.781871777041
20
-0.86217264729305
30
0
41
1
10
105.747631660838
20
-0.992674038181093
30
0
41
1
10
105.667371946034
20
-1.28126157779604
30
0
41
1
10
105.621354696631
20
-1.43933918155074
30
0
41
1
10
105.519388123706
20
-1.77673201403727
30
0
41
1
10
105.463441547612
20
-1.95603815193053
30
0
41
1
10
105.343862134692
20
-2.3286897557731
30
0
41
1
10
105.280233659087
20
-2.52202179574084
30
0
41
1
10
105.214036985575
20
-2.71849927700734
30
0
0
SPLINE
5
107
100
AcDbEntity
8
1
62
256
6
ByLayer
370
18
48
1
60
0
100
AcDbSpline
70
4
71
3
72
8
73
4
40
0
40
0
40
0
40
0
40
1
40
1
40
1
40
1
41
1
10
95.9010472678892
20
7.70476659527446
30
0
41
1
10
95.9006981774802
20
7.70505569803254
30
0
41
1
10
95.9003490881832
20
7.70534478080535
30
0
41
1
10
95.9
20
7.70563384359093
30
0
0
SPLINE
5
108
100
AcDbEntity
8
1
62
256
6
ByLayer
370
13
48
1
60
0
100
AcDbSpline
70
4
71
3
72
22
73
18
40
0
40
0
40
0
40
0
40
0.314814420230075
40
0.314814420230075
40
0.472221630345112
40
0.472221630345112
40
0.55092523540263
40
0.55092523540263
40
0.629628840460148
40
0.629628840460148
40
0.787036050575184
40
0.787036050575184
40
0.865739655632704
40
0.865739655632704
40
0.944443260690222
40
0.944443260690222
40
1
40
1
40
1
40
1
41
1
10
104.104158897679
20
-1.22552848837657
30
0
41
1
10
103.898306688759
20
-1.08751108959638
30
0
41
1
10
103.643119161152
20
-0.888709478689378
30
0
41
1
10
103.347832042854
20
-0.61725101686838
30
0
41
1
10
103.221655149097
20
-0.491581306921432
30
0
41
1
10
103.07751268562
20
-0.334824338052357
30
0
41
1
10
103.014993467567
20
-0.263827425534288
30
0
41
1
10
102.920323596956
20
-0.151253261799411
30
0
41
1
10
102.85813745112
20
-0.0738445658453202
30
0
41
1
10
102.719101383407
20
0.107903647014581
30
0
41
1
10
102.598555723816
20
0.281702429187504
30
0
41
1
10
102.469981865689
20
0.488887273249304
30
0
41
1
10
102.412707364769
20
0.586552492333539
30
0
41
1
10
102.331009502151
20
0.734706216951338
30
0
41
1
10
102.276092546008
20
0.840745939498873
30
0
41
1
10
102.210890647123
20
0.975617531430117
30
0
41
1
10
102.183090582495
20
1.0371398371102
30
0
41
1
10
102.155121075354
20
1.10278224156522
30
0
0
SPLINE
5
109
100
AcDbEntity
8
1
62
256
6
ByLayer
370
18
48
1
60
0
100
AcDbSpline
70
4
71
3
72
9
73
5
40
0
40
0
40
0
40
0
40
0.573041478322295
40
1
40
1
40
1
40
1
41
1
10
100.811180489119
20
0.953202985314391
30
0
41
1
10
100.491653185952
20
0.995331952913261
30
0
41
1
10
99.9340542768791
20
1.06885013474224
30
0
41
1
10
99.3764976228911
20
1.14268377078238
30
0
41
1
10
99.1384569263101
20
1.17430436018199
30
0
0
SPLINE
5
10A
100
AcDbEntity
8
1
62
256
6
ByLayer
370
18
48
1
60
0
100
AcDbSpline
70
4
71
3
72
8
73
4
40
0
40
0
40
0
40
0
40
1
40
1
40
1
40
1
41
1
10
105.697521673998
20
-0.877256944580296
30
0
41
1
10
105.765076927174
20
-0.686804853604087
30
0
41
1
10
105.832481479582
20
-0.491163268936447
30
0
41
1
10
105.896558457332
20
-0.300004343659936
30
0
0
SPLINE
5
10B
100
AcDbEntity
8
1
62
256
6
ByLayer
370
18
48
1
60
0
100
AcDbSpline
70
4
71
3
72
14
73
10
40
0
40
0
40
0
40
0
40
0.500000000000005
40
0.500000000000005
40
0.750000000000003
40
0.750000000000003
40
0.875000000000002
40
0.875000000000002
40
1
40
1
40
1
40
1
41
1
10
105.157391144758
20
-2.88662905218868
30
0
41
1
10
104.990099407051
20
-3.34876532539551
30
0
41
1
10
104.825332417565
20
-3.81342925282243
30
0
41
1
10
104.582214354155
20
-4.51446220612377
30
0
41
1
10
104.501853667201
20
-4.7488193058914
30
0
41
1
10
104.382440103358
20
-5.10148371985085
30
0
41
1
10
104.342786857154
20
-5.21934242365353
30
0
41
1
10
104.264553613496
20
-5.45345253265273
30
0
41
1
10
104.225894203567
20
-5.56993667434782
30
0
41
1
10
104.187713664875
20
-5.68582285342359
30
0
0
SPLINE
5
10C
100
AcDbEntity
8
1
62
256
6
ByLayer
370
18
48
1
60
0
100
AcDbSpline
70
4
71
3
72
12
73
8
40
0
40
0
40
0
40
0
40
0.417480351745532
40
0.417480351745532
40
0.708739974522096
40
0.708739974522096
40
1
40
1
40
1
40
1
41
1
10
95.9999999939386
20
7.60101525267899
30
0
41
1
10
95.9862418451574
20
7.61545941177801
30
0
41
1
10
95.9724785587213
20
7.62990097934696
30
0
41
1
10
95.9491046137254
20
7.65441354379408
30
0
41
1
10
95.9394965370677
20
7.66448585056114
30
0
41
1
10
95.9202755246618
20
7.68462804126975
30
0
41
1
10
95.9106625855837
20
7.69469792868966
30
0
41
1
10
95.901047253366
20
7.70476661642064
30
0
0
SPLINE
5
10D
100
AcDbEntity
8
1
62
256
6
ByLayer
370
18
48
1
60
0
100
AcDbSpline
70
4
71
3
72
72
73
68
40
0
40
0
40
0
40
0
40
0.0625
40
0.0625
40
0.125
40
0.125
40
0.1875
40
0.1875
40
0.21875
40
0.21875
40
0.25
40
0.25
40
0.312499999999998
40
0.312499999999998
40
0.343749999999998
40
0.343749999999998
40
0.359374999999997
40
0.359374999999997
40
0.374999999999997
40
0.374999999999997
40
0.390624999999997
40
0.390624999999997
40
0.406249999999996
40
0.406249999999996
40
0.437499999999996
40
0.437499999999996
40
0.445312499999996
40
0.445312499999996
40
0.453124999999996
40
0.453124999999996
40
0.468749999999996
40
0.468749999999996
40
0.484374999999995
40
0.484374999999995
40
0.492187499999995
40
0.492187499999995
40
0.499999999999995
40
0.499999999999995
40
0.531249999999996
40
0.531249999999996
40
0.546874999999996
40
0.546874999999996
40
0.562499999999996
40
0.562499999999996
40
0.578124999999996
40
0.578124999999996
40
0.593749999999996
40
0.593749999999996
40
0.609374999999996
40
0.609374999999996
40
0.624999999999996
40
0.624999999999996
40
0.656249999999996
40
0.656249999999996
40
0.687499999999996
40
0.687499999999996
40
0.718749999999996
40
0.718749999999996
40
0.749999999999996
40
0.749999999999996
40
0.812499999999997
40
0.812499999999997
40
0.874999999999998
40
0.874999999999998
40
0.937499999999999
40
0.937499999999999
40
1
40
1
40
1
40
1
41
1
10
12.8037131219233
20
-1.18500224612882
30
0
41
1
10
12.4421489325558
20
-1.04798402197818
30
0
41
1
10
12.0864488055056
20
-0.913282551298153
30
0
41
1
10
11.3797275212622
20
-0.645156858653394
30
0
41
1
10
11.0287092554225
20
-0.511738738739865
30
0
41
1
10
10.3243629829618
20
-0.239584951603291
30
0
41
1
10
9.97108279772669
20
-0.100956327492867
30
0
41
1
10
9.43412730109321
20
0.119224462593621
30
0
41
1
10
9.25396603281027
20
0.194699360858891
30
0
41
1
10
8.89038848350353
20
0.352013042237303
30
0
41
1
10
8.70691198591447
20
0.433885160145706
30
0
41
1
10
8.15552325584412
20
0.691174419973294
30
0
41
1
10
7.78492007461711
20
0.878012069080228
30
0
41
1
10
7.22903445184463
20
1.20688002554266
30
0
41
1
10
7.04380988981669
20
1.32475399071893
30
0
41
1
10
6.76784281034531
20
1.51986148815482
30
0
41
1
10
6.67677196105404
20
1.58758722689967
30
0
41
1
10
6.49887868606549
20
1.72784209981091
30
0
41
1
10
6.41177727469778
20
1.80056428182272
30
0
41
1
10
6.24197176009022
20
1.95202728045095
30
0
41
1
10
6.1592655973173
20
2.03076551146225
30
0
41
1
10
5.99911613051398
20
2.19527427795543
30
0
41
1
10
5.92149108443584
20
2.28134729941704
30
0
41
1
10
5.70308679954269
20
2.54557697578599
30
0
41
1
10
5.57487447866023
20
2.73133396886883
30
0
41
1
10
5.44042932122915
20
2.97846998735383
30
0
41
1
10
5.4148414501424
20
3.02864996073049
30
0
41
1
10
5.3664209441738
20
3.1306180034801
30
0
41
1
10
5.34353233742763
20
3.18256989904773
30
0
41
1
10
5.28018752856303
20
3.33861334875661
30
0
41
1
10
5.24471136143541
20
3.44349243130796
30
0
41
1
10
5.18731753532043
20
3.6551177677932
30
0
41
1
10
5.16539730399023
20
3.7618634750649
30
0
41
1
10
5.14305466249238
20
3.92350984862338
30
0
41
1
10
5.13736708403633
20
3.97764669009985
30
0
41
1
10
5.12962434728942
20
4.08645290746097
30
0
41
1
10
5.12758064742357
20
4.14127919994274
30
0
41
1
10
5.12671690961386
20
4.41256984102336
30
0
41
1
10
5.15526210107973
20
4.62347560975763
30
0
41
1
10
5.24037380555433
20
4.93046076319916
30
0
41
1
10
5.27603365886114
20
5.0313049156139
30
0
41
1
10
5.3592200693106
20
5.22416297790204
30
0
41
1
10
5.40691483566002
20
5.31692046960299
30
0
41
1
10
5.51373635747154
20
5.49522733293864
30
0
41
1
10
5.57296003194475
20
5.58089150660356
30
0
41
1
10
5.70199673046585
20
5.74442254462437
30
0
41
1
10
5.77085132088359
20
5.82111481492919
30
0
41
1
10
5.9161407899939
20
5.96506506716617
30
0
41
1
10
5.99257961165202
20
6.0323187580135
30
0
41
1
10
6.1521897333449
20
6.15786751072585
30
0
41
1
10
6.23577429666773
20
6.21640320344312
30
0
41
1
10
6.49221370810591
20
6.37708694928472
30
0
41
1
10
6.67003297486491
20
6.46433075069757
30
0
41
1
10
7.03415023443614
20
6.6071659594443
30
0
41
1
10
7.22072693112736
20
6.66275418257717
30
0
41
1
10
7.59805886100111
20
6.74800724653807
30
0
41
1
10
7.78557184091099
20
6.77704378757409
30
0
41
1
10
8.15778151861872
20
6.81544237132127
30
0
41
1
10
8.3424909626363
20
6.82476525747407
30
0
41
1
10
8.89256511127206
20
6.83117198661591
30
0
41
1
10
9.25381649171362
20
6.80704392265838
30
0
41
1
10
9.96932564326045
20
6.73130099617654
30
0
41
1
10
10.3233573483353
20
6.67950407894458
30
0
41
1
10
11.0280352374142
20
6.56807367776329
30
0
41
1
10
11.3791682240709
20
6.50828630194033
30
0
41
1
10
12.0861657046053
20
6.39439633463152
30
0
41
1
10
12.4420049944116
20
6.34025474194598
30
0
41
1
10
12.8037131219233
20
6.29394398792181
30
0
0
SPLINE
5
10E
100
AcDbEntity
8
1
62
256
6
ByLayer
370
18
48
1
60
0
100
AcDbSpline
70
4
71
3
72
8
73
4
40
0
40
0
40
0
40
0
40
1
40
1
40
1
40
1
41
1
10
103.17651377679
20
8.18876158821618
30
0
41
1
10
103.202911063701
20
8.17383083827585
30
0
41
1
10
103.234243201047
20
8.14424163463195
30
0
41
1
10
103.270483749421
20
8.10007251275857
30
0
0
SPLINE
5
10F
100
AcDbEntity
8
1
62
256
6
ByLayer
370
18
48
1
60
0
100
AcDbSpline
70
4
71
3
72
12
73
8
40
0
40
0
40
0
40
0
40
0.5
40
0.5
40
0.75
40
0.75
40
1
40
1
40
1
40
1
41
1
10
16.2031610641413
20
-2.34050484107661
30
0
41
1
10
16.0433536406697
20
-2.31253009236073
30
0
41
1
10
15.8874809536854
20
-2.27831598651596
30
0
41
1
10
15.6594574765869
20
-2.21787467359636
30
0
41
1
10
15.584418666577
20
-2.19619983871652
30
0
41
1
10
15.4363176130095
20
-2.14974087952416
30
0
41
1
10
15.3629203501525
20
-2.12482755500233
30
0
41
1
10
15.291593232002
20
-2.09869394065569
30
0
0
SPLINE
5
110
100
AcDbEntity
8
1
62
256
6
ByLayer
370
18
48
1
60
0
100
AcDbSpline
70
4
71
1
72
4
73
2
40
0
40
0
40
1
40
1
41
1
10
100.817139223342
20
0.946604608678854
30
0
41
1
10
100.811182329082
20
0.953198535995142
30
0
0
SPLINE
5
111
100
AcDbEntity
8
1
62
256
6
ByLayer
370
18
48
1
60
0
100
AcDbSpline
70
4
71
1
72
4
73
2
40
0
40
0
40
1
40
1
41
1
10
100.079462587556
20
-2.37984746738184
30
0
41
1
10
100.194193497706
20
-2.36546388434218
30
0
0
SPLINE
5
112
100
AcDbEntity
8
1
62
256
6
ByLayer
370
13
48
1
60
0
100
AcDbSpline
70
4
71
3
72
10
73
6
40
0
40
0
40
0
40
0
40
0.0018196640363049
40
0.0018196640363049
40
1
40
1
40
1
40
1
41
1
10
105.128390094111
20
0.797301953980934
30
0
41
1
10
105.128376169244
20
0.797311021804859
30
0
41
1
10
105.128362244296
20
0.797320089669512
30
0
41
1
10
105.120709865187
20
0.802303446662222
30
0
41
1
10
105.113101152712
20
0.807316139189339
30
0
41
1
10
105.105523311849
20
0.81236777208332
30
0
0
SPLINE
5
113
100
AcDbEntity
8
1
62
256
6
ByLayer
370
18
48
1
60
0
100
AcDbSpline
70
4
71
3
72
18
73
14
40
0
40
0
40
0
40
0
40
0.249999999999938
40
0.249999999999938
40
0.374999999999928
40
0.374999999999928
40
0.499999999999917
40
0.499999999999917
40
0.749999999999938
40
0.749999999999938
40
0.874999999999969
40
0.874999999999969
40
1
40
1
40
1
40
1
41
1
10
85.1408684151184
20
5.70392702506189
30
0
41
1
10
84.9843632514868
20
5.66619559167788
30
0
41
1
10
84.8244286622435
20
5.63805103396854
30
0
41
1
10
84.5794813532959
20
5.61090522781458
30
0
41
1
10
84.4969862529157
20
5.60437599926038
30
0
41
1
10
84.3302543099767
20
5.59658243877232
30
0
41
1
10
84.2461015540005
20
5.59536045739159
30
0
41
1
10
83.9966146546016
20
5.59970977758411
30
0
41
1
10
83.8323608463419
20
5.61313802639498
30
0
41
1
10
83.5890652646622
20
5.64850073240547
30
0
41
1
10
83.5081480726296
20
5.66291025251539
30
0
41
1
10
83.3491451468599
20
5.6964468661368
30
0
41
1
10
83.2712402755279
20
5.71550855989102
30
0
41
1
10
83.1949003844387
20
5.73670856275169
30
0
0
SPLINE
5
114
100
AcDbEntity
8
1
62
256
6
ByLayer
370
18
48
1
60
0
100
AcDbSpline
70
4
71
4
72
10
73
5
40
0
40
0
40
0
40
0
40
0
40
1
40
1
40
1
40
1
40
1
41
1
10
96.0000000000001
20
7.76771017285236
30
0
41
1
10
96.0000000000001
20
7.3521505127101
30
0
41
1
10
96.0000000000001
20
6.93659085256783
30
0
41
1
10
96.0000000000001
20
6.5210311924256
30
0
41
1
10
96.0000000000001
20
6.10547153228333
30
0
0
SPLINE
5
115
100
AcDbEntity
8
1
62
256
6
ByLayer
370
18
48
1
60
0
100
AcDbSpline
70
4
71
3
72
8
73
4
40
0
40
0
40
0
40
0
40
1
40
1
40
1
40
1
41
1
10
97.5994654932174
20
-8.35000030360104
30
0
41
1
10
97.5700159444687
20
-8.34999991438562
30
0
41
1
10
97.5405649571233
20
-8.34996392733069
30
0
41
1
10
97.5111125806857
20
-8.34989235020217
30
0
0
SPLINE
5
116
100
AcDbEntity
8
1
62
256
6
ByLayer
370
18
48
1
60
0
100
AcDbSpline
70
4
71
3
72
28
73
24
40
0
40
0
40
0
40
0
40
0.0421211013122106
40
0.0421211013122106
40
0.110541022647051
40
0.110541022647051
40
0.178960943981892
40
0.178960943981892
40
0.315800786651573
40
0.315800786651573
40
0.384220707986414
40
0.384220707986414
40
0.452640629321255
40
0.452640629321255
40
0.589480471990936
40
0.589480471990936
40
0.657900393325777
40
0.657900393325777
40
0.726320314660618
40
0.726320314660618
40
0.863160157330309
40
0.863160157330309
40
1
40
1
40
1
40
1
41
1
10
19.4258518244318
20
7.85000068812496
30
0
41
1
10
19.4314636804593
20
7.84999232405553
30
0
41
1
10
19.4383386393556
20
7.84945182515602
30
0
41
1
10
19.4597316098639
20
7.84666979702965
30
0
41
1
10
19.4763556739438
20
7.84357569394558
30
0
41
1
10
19.5166734176323
20
7.83474173515125
30
0
41
1
10
19.5404595697736
20
7.82897763951885
30
0
41
1
10
19.622475048737
20
7.80802561643225
30
0
41
1
10
19.6903205499166
20
7.78945080663914
30
0
41
1
10
19.8118000729322
20
7.75652970444273
30
0
41
1
10
19.8555932723933
20
7.74471081577792
30
0
41
1
10
19.9499604989261
20
7.71968286711297
30
0
41
1
10
20.0008066186991
20
7.70640477244712
30
0
41
1
10
20.1618638880093
20
7.66548878556574
30
0
41
1
10
20.2798229632337
20
7.63695119848231
30
0
41
1
10
20.4722641725278
20
7.59447057803567
30
0
41
1
10
20.5390086243009
20
7.5803622321053
30
0
41
1
10
20.6777960737535
20
7.55260970372825
30
0
41
1
10
20.7501099658181
20
7.53892400156118
30
0
41
1
10
20.9710862472748
20
7.4998328752942
30
0
41
1
10
21.124789304366
20
7.47616686355607
30
0
41
1
10
21.4447305514891
20
7.4357861522638
30
0
41
1
10
21.6119793836606
20
7.41901091884557
30
0
41
1
10
21.7827682241093
20
7.40697795475205
30
0
0
SPLINE
5
117
100
AcDbEntity
8
1
62
256
6
ByLayer
370
18
48
1
60
0
100
AcDbSpline
70
4
71
3
72
8
73
4
40
0
40
0
40
0
40
0
40
1
40
1
40
1
40
1
41
1
10
83.1949003844226
20
5.73670856275018
30
0
41
1
10
83.1929547751652
20
5.73237188707913
30
0
41
1
10
83.1910112902856
20
5.72802720292768
30
0
41
1
10
83.189069930819
20
5.72367450639425
30
0
0
SPLINE
5
118
100
AcDbEntity
8
1
62
256
6
ByLayer
370
13
48
1
60
0
100
AcDbSpline
70
4
71
3
72
16
73
12
40
0
40
0
40
0
40
0
40
0.249999999999997
40
0.249999999999997
40
0.499999999999993
40
0.499999999999993
40
0.624999999999992
40
0.624999999999992
40
0.74999999999999
40
0.74999999999999
40
1
40
1
40
1
40
1
41
1
10
105.105523311848
20
0.812367772083974
30
0
41
1
10
104.950595821815
20
0.915647429037847
30
0
41
1
10
104.801426220714
20
1.03069805686059
30
0
41
1
10
104.518435611728
20
1.28718520493675
30
0
41
1
10
104.384333656889
20
1.42873168006767
30
0
41
1
10
104.197708416899
20
1.66715789441946
30
0
41
1
10
104.138547451678
20
1.75030418702963
30
0
41
1
10
104.027550816088
20
1.92430286195119
30
0
41
1
10
103.975394502915
20
2.01570908238631
30
0
41
1
10
103.833743847185
20
2.29890510949818
30
0
41
1
10
103.75839074745
20
2.49968782457222
30
0
41
1
10
103.706977965193
20
2.71556732882303
30
0
0
SPLINE
5
119
100
AcDbEntity
8
1
62
256
6
ByLayer
370
18
48
1
60
0
100
AcDbSpline
70
4
71
3
72
16
73
12
40
0
40
0
40
0
40
0
40
0.249999999999996
40
0.249999999999996
40
0.499999999999991
40
0.499999999999991
40
0.749999999999987
40
0.749999999999987
40
0.874999999999993
40
0.874999999999993
40
1
40
1
40
1
40
1
41
1
10
14.3419010080107
20
-1.7733844267438
30
0
41
1
10
14.4382232016031
20
-1.90657469588669
30
0
41
1
10
14.5463229364164
20
-2.02777996758928
30
0
41
1
10
14.7867806935467
20
-2.24879996797841
30
0
41
1
10
14.9204446015534
20
-2.34921993853587
30
0
41
1
10
15.2027390174389
20
-2.52466363812926
30
0
41
1
10
15.3520104933953
20
-2.60064410931784
30
0
41
1
10
15.5877012457962
20
-2.69993533223513
30
0
41
1
10
15.668494908222
20
-2.73064887527957
30
0
41
1
10
15.8324433918026
20
-2.78689401395684
30
0
41
1
10
15.9156303705124
20
-2.81246353944576
30
0
41
1
10
16
20
-2.83566952737311
30
0
0
SPLINE
5
11A
100
AcDbEntity
8
1
62
256
6
ByLayer
370
13
48
1
60
0
100
AcDbSpline
70
4
71
3
72
10
73
6
40
0
40
0
40
0
40
0
40
0.768422392340553
40
0.768422392340553
40
1
40
1
40
1
40
1
41
1
10
85.2822525256965
20
-3.74851276214866
30
0
41
1
10
85.2930903976892
20
-3.68964306647789
30
0
41
1
10
85.3039716983318
20
-3.63067082727201
30
0
41
1
10
85.3181867173517
20
-3.5537907671152
30
0
41
1
10
85.3214824011508
20
-3.5359775870813
30
0
41
1
10
85.3247818396152
20
-3.51815490796014
30
0
0
SPLINE
5
11B
100
AcDbEntity
8
1
62
256
6
ByLayer
370
13
48
1
60
0
100
AcDbSpline
70
4
71
3
72
15
73
11
40
0
40
0
40
0
40
0
40
0.25061586647097
40
0.375923799706455
40
0.438577766324197
40
0.50123173294194
40
0.751847599412909
40
0.814501566030652
40
0.877155532648394
40
1
40
1
40
1
40
1
41
1
10
96.0000000000001
20
6.10547153228333
30
0
41
1
10
96.6842003079973
20
6.1286226107259
30
0
41
1
10
97.7103813672172
20
6.1381276995385
30
0
41
1
10
98.9069820741243
20
6.11113823823288
30
0
41
1
10
99.5908995192309
20
6.08688708185625
30
0
41
1
10
100.617153988332
20
6.04015249150456
30
0
41
1
10
101.64312249468
20
5.9642715030065
30
0
41
1
10
102.668796700375
20
5.86373785853982
30
0
41
1
10
103.346115553301
20
5.79189877124915
30
0
41
1
10
103.852430499804
20
5.73004083379053
30
0
41
1
10
104.187713666016
20
5.68582284996754
30
0
0
SPLINE
5
11C
100
AcDbEntity
8
1
62
256
6
ByLayer
370
18
48
1
60
0
100
AcDbSpline
70
4
71
3
72
18
73
14
40
0
40
0
40
0
40
0
40
0.249999999999985
40
0.249999999999985
40
0.374999999999992
40
0.374999999999992
40
0.499999999999999
40
0.499999999999999
40
0.750000000000012
40
0.750000000000012
40
0.875000000000006
40
0.875000000000006
40
1
40
1
40
1
40
1
41
1
10
105.095743479122
20
-1.89035460469179
30
0
41
1
10
105.148841200772
20
-1.82924138305461
30
0
41
1
10
105.201736457106
20
-1.76260119557699
30
0
41
1
10
105.280732230064
20
-1.65316534745153
30
0
41
1
10
105.307006111954
20
-1.61510226978424
30
0
41
1
10
105.359427557556
20
-1.53552783858595
30
0
41
1
10
105.38571043953
20
-1.49378654891027
30
0
41
1
10
105.463215634041
20
-1.36477731622008
30
0
41
1
10
105.512968947128
20
-1.27404909603106
30
0
41
1
10
105.584610522434
20
-1.13059487596919
30
0
41
1
10
105.60799182101
20
-1.08154696135196
30
0
41
1
10
105.653721472016
20
-0.980906476071965
30
0
41
1
10
105.676135799008
20
-0.929125677572387
30
0
41
1
10
105.697521673998
20
-0.877256944580267
30
0
0
SPLINE
5
11D
100
AcDbEntity
8
1
62
256
6
ByLayer
370
18
48
1
60
0
100
AcDbSpline
70
4
71
3
72
55
73
51
40
0
40
0
40
0
40
0
40
0.124999999999995
40
0.124999999999995
40
0.249999999999989
40
0.249999999999989
40
0.312499999999987
40
0.312499999999987
40
0.374999999999984
40
0.374999999999984
40
0.437499999999982
40
0.437499999999982
40
0.46874999999998
40
0.46874999999998
40
0.499999999999979
40
0.499999999999979
40
0.562499999999975
40
0.562499999999975
40
0.624999999999972
40
0.624999999999972
40
0.749999999999966
40
0.749999999999966
40
0.812499999999963
40
0.812499999999963
40
0.87499999999996
40
0.87499999999996
40
0.890624999999959
40
0.890624999999959
40
0.906249999999959
40
0.906249999999959
40
0.937499999999958
40
0.937499999999958
40
0.953124999999957
40
0.953124999999957
40
0.960937499999957
40
0.960937499999957
40
0.968749999999956
40
0.968749999999956
40
0.969238281249957
40
0.969238281249957
40
0.969726562499957
40
0.969726562499957
40
0.970703124999959
40
0.970703124999959
40
0.972656249999962
40
0.972656249999962
40
0.976562499999967
40
0.984374999999979
40
0.984374999999979
40
1
40
1
40
1
40
1
41
1
10
16.2033411294157
20
-2.34032392828129
30
0
41
1
10
19.0062894956265
20
-2.83810830090718
30
0
41
1
10
21.8096342341415
20
-3.31388887246737
30
0
41
1
10
27.4174059990276
20
-4.21007754067986
30
0
41
1
10
30.2198137995826
20
-4.63029512990963
30
0
41
1
10
34.4235979212382
20
-5.19961835612639
30
0
41
1
10
35.8249064033985
20
-5.37905817957241
30
0
41
1
10
38.6282662822007
20
-5.71286373458869
30
0
41
1
10
40.0307948227751
20
-5.86721190433408
30
0
41
1
10
42.8342850926745
20
-6.14563823081403
30
0
41
1
10
44.2353341972015
20
-6.2696888716485
30
0
41
1
10
46.3364044780631
20
-6.42953268080419
30
0
41
1
10
47.0366647925144
20
-6.47808956242329
30
0
41
1
10
48.4373692449213
20
-6.57036142627479
30
0
41
1
10
49.1377755973932
20
-6.61361029980623
30
0
41
1
10
51.2391946444869
20
-6.73467494558082
30
0
41
1
10
52.6404023505644
20
-6.80387342700794
30
0
41
1
10
55.4436296916366
20
-6.917989973576
30
0
41
1
10
56.8457097637303
20
-6.96287319057879
30
0
41
1
10
61.0511131818703
20
-7.05776998837507
30
0
41
1
10
63.8551559972133
20
-7.06807014791349
30
0
41
1
10
68.0601059459915
20
-6.98701065413607
30
0
41
1
10
69.4616208348159
20
-6.9438826865856
30
0
41
1
10
72.265082571779
20
-6.82270683303508
30
0
41
1
10
73.66628784172
20
-6.74475150252681
30
0
41
1
10
75.4164874048104
20
-6.62445524329354
30
0
41
1
10
75.7664800181947
20
-6.59925891776922
30
0
41
1
10
76.4663889233152
20
-6.54655941956352
30
0
41
1
10
76.8164642584198
20
-6.5196026674293
30
0
41
1
10
77.8653058136798
20
-6.43093641636079
30
0
41
1
10
78.5621650326763
20
-6.36390240387021
30
0
41
1
10
79.601152935903
20
-6.23624397157238
30
0
41
1
10
79.9464217778172
20
-6.18919008207845
30
0
41
1
10
80.4617346024311
20
-6.10601780823879
30
0
41
1
10
80.6330729272983
20
-6.07614650447277
30
0
41
1
10
80.9745827220464
20
-6.00936255969944
30
0
41
1
10
81.1446904468613
20
-5.97296006162847
30
0
41
1
10
81.3245363030557
20
-5.9264241091052
30
0
41
1
10
81.3351119074774
20
-5.92363704091062
30
0
41
1
10
81.3562596560838
20
-5.91805300902985
30
0
41
1
10
81.3668821081986
20
-5.91677351800311
30
0
41
1
10
81.3986877738707
20
-5.91120586354086
30
0
41
1
10
81.4198872831528
20
-5.90751865858209
30
0
41
1
10
81.4834829168666
20
-5.89641025005457
30
0
41
1
10
81.5258774288474
20
-5.88897110284589
30
0
41
1
10
81.6530752287586
20
-5.8665214559372
30
0
41
1
10
81.9075218205126
20
-5.82108284940901
30
0
41
1
10
82.1619740566285
20
-5.77443023051964
30
0
41
1
10
82.6709288852286
20
-5.67938042732632
30
0
41
1
10
83.0102966353517
20
-5.61370746528999
30
0
41
1
10
83.3497530293
20
-5.54573599727115
30
0
0
SPLINE
5
11E
100
AcDbEntity
8
1
62
256
6
ByLayer
370
18
48
1
60
0
100
AcDbSpline
70
4
71
3
72
14
73
10
40
0
40
0
40
0
40
0
40
0.123365488523822
40
0.123365488523822
40
0.561682744261911
40
0.561682744261911
40
0.780841372130955
40
0.780841372130955
40
1
40
1
40
1
40
1
41
1
10
91.2882899517738
20
3.92913506389101
30
0
41
1
10
91.6190342605547
20
3.82492364468095
30
0
41
1
10
91.9497775695995
20
3.71893000435884
30
0
41
1
10
93.4545122747484
20
3.22920037385978
30
0
41
1
10
94.6263630543726
20
2.82671970233272
30
0
41
1
10
96.3833156032665
20
2.19859488151033
30
0
41
1
10
96.968857266625
20
1.98528020508809
30
0
41
1
10
98.1402693212706
20
1.55174171671288
30
0
41
1
10
98.7265351119543
20
1.33139463818566
30
0
41
1
10
99.3118933379614
20
1.10888549297104
30
0
0
SPLINE
5
11F
100
AcDbEntity
8
1
62
256
6
ByLayer
370
18
48
1
60
0
100
AcDbSpline
70
4
71
3
72
9
73
5
40
0
40
0
40
0
40
0
40
0.493266102918937
40
1
40
1
40
1
40
1
41
1
10
96.0000000204722
20
6.49966487278203
30
0
41
1
10
95.9846267047527
20
6.52654934224731
30
0
41
1
10
95.9534603310074
20
6.58105231600973
30
0
41
1
10
95.9211393125733
20
6.63497476166711
30
0
41
1
10
95.9047611569445
20
6.66229909269523
30
0
0
SPLINE
5
120
100
AcDbEntity
8
1
62
256
6
ByLayer
370
18
48
1
60
0
100
AcDbSpline
70
4
71
3
72
8
73
4
40
0
40
0
40
0
40
0
40
1
40
1
40
1
40
1
41
1
10
104.187713660396
20
-5.68582285260388
30
0
41
1
10
103.948052455285
20
-6.41324635899096
30
0
41
1
10
103.70432840437
20
-7.14535442418025
30
0
41
1
10
103.456391493336
20
-7.88232000621963
30
0
0
SPLINE
5
121
100
AcDbEntity
8
1
62
256
6
ByLayer
370
18
48
1
60
0
100
AcDbSpline
70
4
71
3
72
8
73
4
40
0
40
0
40
0
40
0
40
1
40
1
40
1
40
1
41
1
10
18.1099143460015
20
6.69685781495599
30
0
41
1
10
17.9425783376209
20
6.71763130737233
30
0
41
1
10
17.772619047382
20
6.73056468687889
30
0
41
1
10
17.6000000000001
20
6.73591485336396
30
0
0
SPLINE
5
122
100
AcDbEntity
8
1
62
256
6
ByLayer
370
18
48
1
60
0
100
AcDbSpline
70
4
71
3
72
8
73
4
40
0
40
0
40
0
40
0
40
1
40
1
40
1
40
1
41
1
10
103.706977965193
20
2.71556732882584
30
0
41
1
10
103.697045693253
20
2.71488234587292
30
0
41
1
10
103.687624305721
20
2.71093577684985
30
0
41
1
10
103.679698052722
20
2.70490167632323
30
0
0
SPLINE
5
123
100
AcDbEntity
8
1
62
256
6
ByLayer
370
13
48
1
60
0
100
AcDbSpline
70
4
71
2
72
6
73
3
40
0
40
0
40
0
40
1
40
1
40
1
41
0.997658439629592
10
105.057598843601
20
0.772850415682182
30
0
41
0.925068896213688
10
104.306770739249
20
-0.181455555373539
30
0
41
1
10
104.104158897679
20
-1.22552848837657
30
0
0
SPLINE
5
124
100
AcDbEntity
8
1
62
256
6
ByLayer
370
18
48
1
60
0
100
AcDbSpline
70
4
71
2
72
9
73
6
40
0
40
0
40
0
40
0.25
40
0.5
40
0.75
40
1
40
1
40
1
41
1
10
100.201435663458
20
-2.37981246930892
30
0
41
1
10
100.266291059945
20
-2.93003797962066
30
0
41
1
10
100.455029349664
20
-3.96906849752258
30
0
41
1
10
100.697272015825
20
-4.9158439851218
30
0
41
1
10
100.98934119051
20
-5.75595800813733
30
0
41
1
10
101.155975548669
20
-6.11011229903306
30
0
0
SPLINE
5
125
100
AcDbEntity
8
1
62
256
6
ByLayer
370
18
48
1
60
0
100
AcDbSpline
70
4
71
3
72
32
73
28
40
0
40
0
40
0
40
0
40
0.12500000000002
40
0.12500000000002
40
0.187500000000022
40
0.187500000000022
40
0.250000000000024
40
0.250000000000024
40
0.312500000000026
40
0.312500000000026
40
0.375000000000029
40
0.375000000000029
40
0.500000000000033
40
0.500000000000033
40
0.562500000000029
40
0.562500000000029
40
0.625000000000026
40
0.625000000000026
40
0.687500000000022
40
0.687500000000022
40
0.750000000000018
40
0.750000000000018
40
0.875000000000011
40
0.875000000000011
40
0.937500000000005
40
0.937500000000005
40
1
40
1
40
1
40
1
41
1
10
85.2822525256985
20
-3.74851276213641
30
0
41
1
10
85.5066296877048
20
-3.79601555813855
30
0
41
1
10
85.7328120867855
20
-3.81994449149028
30
0
41
1
10
86.0746941165395
20
-3.82236114816777
30
0
41
1
10
86.1892964797929
20
-3.81750117963443
30
0
41
1
10
86.4185728174458
20
-3.79606263965303
30
0
41
1
10
86.5314232861169
20
-3.77967483769282
30
0
41
1
10
86.7536764934277
20
-3.73583931054335
30
0
41
1
10
86.8630788476049
20
-3.70839058163455
30
0
41
1
10
87.0784244010586
20
-3.64218700347257
30
0
41
1
10
87.1847084269597
20
-3.60328570422988
30
0
41
1
10
87.4959308301006
20
-3.46941792980519
30
0
41
1
10
87.6882104679889
20
-3.35990342138308
30
0
41
1
10
87.9544389995993
20
-3.16411788477421
30
0
41
1
10
88.0398242562861
20
-3.09319081495167
30
0
41
1
10
88.2010714918778
20
-2.94151941165475
30
0
41
1
10
88.2761838278407
20
-2.86157090928023
30
0
41
1
10
88.4157847346939
20
-2.69345604298925
30
0
41
1
10
88.4802718878278
20
-2.60528931085869
30
0
41
1
10
88.598637028476
20
-2.42046828321023
30
0
41
1
10
88.6528050598659
20
-2.32317574847079
30
0
41
1
10
88.7966494963524
20
-2.02257075627935
30
0
41
1
10
88.8672793439038
20
-1.81275446575728
30
0
41
1
10
88.9381587551089
20
-1.48410802310235
30
0
41
1
10
88.9559181263433
20
-1.37170290013876
30
0
41
1
10
88.9792934299199
20
-1.1456386639245
30
0
41
1
10
88.9850083609979
20
-1.03182011925358
30
0
41
1
10
88.9850083610095
20
-0.917224790109231
30
0
0
SPLINE
5
126
100
AcDbEntity
8
1
62
256
6
ByLayer
370
18
48
1
60
0
100
AcDbSpline
70
4
71
3
72
14
73
10
40
0
40
0
40
0
40
0
40
0.305875210223696
40
0.305875210223696
40
0.611750420447392
40
0.611750420447392
40
0.917625630671088
40
0.917625630671088
40
1
40
1
40
1
40
1
41
1
10
97.5111125807001
20
-8.32004649921458
30
0
41
1
10
97.9962911629696
20
-8.33970293662759
30
0
41
1
10
98.4815885317134
20
-8.34969805223932
30
0
41
1
10
99.4516584216664
20
-8.35028848809785
30
0
41
1
10
99.9363859437137
20
-8.34083401387855
30
0
41
1
10
100.906476257322
20
-8.3025725071
30
0
41
1
10
101.391669026809
20
-8.27378538388308
30
0
41
1
10
102.007475157271
20
-8.22511770570551
30
0
41
1
10
102.138133195159
20
-8.21409970969819
30
0
41
1
10
102.268788172677
20
-8.20238905703437
30
0
0
SPLINE
5
127
100
AcDbEntity
8
1
62
256
6
ByLayer
370
18
48
1
60
0
100
AcDbSpline
70
4
71
3
72
8
73
4
40
0
40
0
40
0
40
0
40
1
40
1
40
1
40
1
41
1
10
103.271295649147
20
-8.09872826480409
30
0
41
1
10
103.291452138323
20
-8.09637485912145
30
0
41
1
10
103.311611313369
20
-8.09400637745708
30
0
41
1
10
103.331773701382
20
-8.09162306980528
30
0
0
SPLINE
5
128
100
AcDbEntity
8
1
62
256
6
ByLayer
370
18
48
1
60
0
100
AcDbSpline
70
4
71
3
72
8
73
4
40
0
40
0
40
0
40
0
40
1
40
1
40
1
40
1
41
1
10
97.0989547699446
20
-8.1518795731584
30
0
41
1
10
97.2365326379723
20
-8.20866628206301
30
0
41
1
10
97.3739150751169
20
-8.26473134602139
30
0
41
1
10
97.5111125807001
20
-8.32004649921458
30
0
0
SPLINE
5
129
100
AcDbEntity
8
1
62
256
6
ByLayer
370
18
48
1
60
0
100
AcDbSpline
70
4
71
3
72
46
73
42
40
0
40
0
40
0
40
0
40
0.125000000000001
40
0.125000000000001
40
0.250000000000001
40
0.250000000000001
40
0.375000000000002
40
0.375000000000002
40
0.406250000000002
40
0.406250000000002
40
0.437500000000002
40
0.437500000000002
40
0.500000000000002
40
0.500000000000002
40
0.625000000000003
40
0.625000000000003
40
0.750000000000003
40
0.750000000000003
40
0.875000000000004
40
0.875000000000004
40
0.890625000000004
40
0.890625000000004
40
0.906250000000004
40
0.906250000000004
40
0.921875000000004
40
0.921875000000004
40
0.937500000000004
40
0.937500000000004
40
0.953125000000004
40
0.953125000000004
40
0.960937500000003
40
0.960937500000003
40
0.964843750000003
40
0.964843750000003
40
0.966796875000003
40
0.966796875000003
40
0.967773437500003
40
0.967773437500003
40
0.968750000000003
40
0.968750000000003
40
1
40
1
40
1
40
1
41
1
10
19.4070000000291
20
-3.21017939962246
30
0
41
1
10
22.0701812835589
20
-3.69180901414833
30
0
41
1
10
24.734518115435
20
-4.13570012852924
30
0
41
1
10
30.0674909135952
20
-4.94676293460532
30
0
41
1
10
32.7330745515819
20
-5.31408198024417
30
0
41
1
10
38.0632182845762
20
-5.97299904251699
30
0
41
1
10
40.7280728719375
20
-6.26501340169477
30
0
41
1
10
44.0578316428934
20
-6.57520361909872
30
0
41
1
10
44.7234892659446
20
-6.6344145725009
30
0
41
1
10
46.0542152899655
20
-6.7467919777479
30
0
41
1
10
46.7191749688686
20
-6.8001417808253
30
0
41
1
10
48.7143919811465
20
-6.94828008387736
30
0
41
1
10
50.0447602208803
20
-7.03165570214111
30
0
41
1
10
54.0375294685203
20
-7.23622935181652
30
0
41
1
10
56.7022360553034
20
-7.31184032190842
30
0
41
1
10
62.0358089468627
20
-7.35684829183992
30
0
41
1
10
64.701884101466
20
-7.32655442679177
30
0
41
1
10
70.0331841980328
20
-7.16104300808536
30
0
41
1
10
72.6993902569332
20
-7.02554979505393
30
0
41
1
10
75.6915186833842
20
-6.80564788577664
30
0
41
1
10
76.0238960784032
20
-6.78026880363578
30
0
41
1
10
76.6884972221908
20
-6.72757635297466
30
0
41
1
10
77.0208325274059
20
-6.70046408851397
30
0
41
1
10
77.6836533995217
20
-6.64127712844831
30
0
41
1
10
78.0143308584471
20
-6.609490572921
30
0
41
1
10
78.6736464697863
20
-6.54006364456777
30
0
41
1
10
79.0022985370442
20
-6.50248092789903
30
0
41
1
10
79.6565074539457
20
-6.41869761079607
30
0
41
1
10
79.982141655176
20
-6.37270178960569
30
0
41
1
10
80.4663063350108
20
-6.2918159977504
30
0
41
1
10
80.6269762329943
20
-6.26286255345397
30
0
41
1
10
80.8661047269439
20
-6.21442059456737
30
0
41
1
10
80.9454952335506
20
-6.19742319415079
30
0
41
1
10
81.0638793845763
20
-6.17009347199689
30
0
41
1
10
81.103224799976
20
-6.16067976309208
30
0
41
1
10
81.1620070629764
20
-6.1459532778965
30
0
41
1
10
81.1813376510229
20
-6.14044707428243
30
0
41
1
10
81.2214770237915
20
-6.13267186907154
30
0
41
1
10
81.241537926762
20
-6.12875566830704
30
0
41
1
10
81.9037528352196
20
-5.99967348434123
30
0
41
1
10
82.5461685877813
20
-5.86591460960136
30
0
41
1
10
83.1890699308189
20
-5.72367450639425
30
0
0
SPLINE
5
12A
100
AcDbEntity
8
1
62
256
6
ByLayer
370
18
48
1
60
0
100
AcDbSpline
70
4
71
1
72
4
73
2
40
0
40
0
40
1
40
1
41
1
10
99.5063480344895
20
-0.392887504692993
30
0
41
1
10
99.372403099085
20
-0.409837230121923
30
0
0
SPLINE
5
12B
100
AcDbEntity
8
1
62
256
6
ByLayer
370
18
48
1
60
0
100
AcDbSpline
70
4
71
3
72
8
73
4
40
0
40
0
40
0
40
0
40
1
40
1
40
1
40
1
41
1
10
86.5604039473675
20
6.1001024071974
30
0
41
1
10
86.5493268231809
20
6.0475704814875
30
0
41
1
10
86.5382748757248
20
5.99498007121505
30
0
41
1
10
86.5272483976153
20
5.94233075940312
30
0
0
SPLINE
5
12C
100
AcDbEntity
8
1
62
256
6
ByLayer
370
18
48
1
60
0
100
AcDbSpline
70
4
71
3
72
8
73
4
40
0
40
0
40
0
40
0
40
1
40
1
40
1
40
1
41
1
10
102.053936197705
20
-7.63543420673724
30
0
41
1
10
100.350633125509
20
-7.63544794435708
30
0
41
1
10
98.64733006084
20
-7.63551254618716
30
0
41
1
10
96.9440269947252
20
-7.63541359423402
30
0
0
SPLINE
5
12D
100
AcDbEntity
8
1
62
256
6
ByLayer
370
13
48
1
60
0
100
AcDbSpline
70
4
71
3
72
8
73
4
40
0
40
0
40
0
40
0
40
1
40
1
40
1
40
1
41
1
10
105.105523311848
20
0.812367772083974
30
0
41
1
10
105.088941965576
20
0.804723761219009
30
0
41
1
10
105.071717922267
20
0.790521232051049
30
0
41
1
10
105.057598843601
20
0.772850415682171
30
0
0
SPLINE
5
12E
100
AcDbEntity
8
1
62
256
6
ByLayer
370
18
48
1
60
0
100
AcDbSpline
70
4
71
3
72
8
73
4
40
0
40
0
40
0
40
0
40
1
40
1
40
1
40
1
41
1
10
96.0000000000001
20
-7.43118429323349
30
0
41
1
10
95.9666666666667
20
-7.46314637621512
30
0
41
1
10
95.9333333333333
20
-7.49510845919679
30
0
41
1
10
95.9
20
-7.52707054217842
30
0
0
SPLINE
5
12F
100
AcDbEntity
8
1
62
256
6
ByLayer
370
18
48
1
60
0
100
AcDbSpline
70
4
71
3
72
10
73
6
40
0
40
0
40
0
40
0
40
0.5
40
0.5
40
1
40
1
40
1
40
1
41
1
10
104.001986569564
20
2.73812987213009
30
0
41
1
10
104.195824340015
20
2.75455356922615
30
0
41
1
10
104.38922481794
20
2.77384340190918
30
0
41
1
10
104.774614247853
20
2.82167459680755
30
0
41
1
10
104.966621734252
20
2.85009447939189
30
0
41
1
10
105.157391144758
20
2.88662905218868
30
0
0
SPLINE
5
130
100
AcDbEntity
8
1
62
256
6
ByLayer
370
18
48
1
60
0
100
AcDbSpline
70
4
71
3
72
22
73
18
40
0
40
0
40
0
40
0
40
0.0957500295636032
40
0.0957500295636032
40
0.196222248500981
40
0.196222248500981
40
0.24645835796967
40
0.24645835796967
40
0.296694467438358
40
0.296694467438358
40
0.397166686375735
40
0.397166686375735
40
0.59811112425049
40
0.59811112425049
40
0.799055562125245
40
0.799055562125245
40
1
40
1
40
1
40
1
41
1
10
60.7038836881582
20
-0.931564529743099
30
0
41
1
10
59.3415175917339
20
-0.669583870459547
30
0
41
1
10
57.9790189029119
20
-0.405270204989762
30
0
41
1
10
55.1859067070613
20
0.138467284676864
30
0
41
1
10
53.755160216773
20
0.417984715729915
30
0
41
1
10
51.6108297815564
20
0.835122360688104
30
0
41
1
10
50.8962222897175
20
0.973824540120603
30
0
41
1
10
49.4672436005632
20
1.24990370929714
30
0
41
1
10
48.7528984818698
20
1.38730318593792
30
0
41
1
10
46.6098601413703
20
1.7963069790294
30
0
41
1
10
45.1809223957305
20
2.06464242606393
30
0
41
1
10
40.8930587119901
20
2.85483834125597
30
0
41
1
10
38.0317535353713
20
3.36255665309963
30
0
41
1
10
32.3154071432933
20
4.31666802578434
30
0
41
1
10
29.4593256597285
20
4.76326790032923
30
0
41
1
10
23.7468627253861
20
5.56061133461762
30
0
41
1
10
20.8904982759527
20
5.91134460961081
30
0
41
1
10
18.0301864885242
20
6.19145425585697
30
0
0
SPLINE
5
131
100
AcDbEntity
8
1
62
256
6
ByLayer
370
18
48
1
60
0
100
AcDbSpline
70
4
71
3
72
12
73
8
40
0
40
0
40
0
40
0
40
0.5
40
0.5
40
0.75
40
0.75
40
1
40
1
40
1
40
1
41
1
10
86.5749173392423
20
6.07390591624645
30
0
41
1
10
88.1293150379004
20
6.48789241048124
30
0
41
1
10
89.6784669203531
20
6.83614693931389
30
0
41
1
10
92.0067757364312
20
7.24724107236028
30
0
41
1
10
92.7837858353989
20
7.36565884335755
30
0
41
1
10
94.3413071332081
20
7.56443004379108
30
0
41
1
10
95.121078516045
20
7.64470747807587
30
0
41
1
10
95.9
20
7.70563384359093
30
0
0
SPLINE
5
132
100
AcDbEntity
8
1
62
256
6
ByLayer
370
18
48
1
60
0
100
AcDbSpline
70
4
71
1
72
4
73
2
40
0
40
0
40
1
40
1
41
1
10
101.15601042347
20
-6.11009594324409
30
0
41
1
10
101.021882358863
20
-6.17295289519319
30
0
0
SPLINE
5
133
100
AcDbEntity
8
1
62
256
6
ByLayer
370
18
48
1
60
0
100
AcDbSpline
70
4
71
3
72
8
73
4
40
0
40
0
40
0
40
0
40
1
40
1
40
1
40
1
41
1
10
12.8037131219233
20
-1.18500224612882
30
0
41
1
10
12.8322244699246
20
-1.19580689544466
30
0
41
1
10
12.8607279104512
20
-1.20659095803393
30
0
41
1
10
12.8892231397341
20
-1.21735463427615
30
0
0
SPLINE
5
134
100
AcDbEntity
8
1
62
256
6
ByLayer
370
18
48
1
60
0
100
AcDbSpline
70
4
71
3
72
8
73
4
40
0
40
0
40
0
40
0
40
1
40
1
40
1
40
1
41
1
10
97.0989547699446
20
-7.92057904956442
30
0
41
1
10
97.0989547699446
20
-8.02934504325546
30
0
41
1
10
97.0989547699446
20
-8.10643712673533
30
0
41
1
10
97.0989547699446
20
-8.1518795731584
30
0
0
SPLINE
5
135
100
AcDbEntity
8
1
62
256
6
ByLayer
370
18
48
1
60
0
100
AcDbSpline
70
4
71
3
72
8
73
4
40
0
40
0
40
0
40
0
40
1
40
1
40
1
40
1
41
1
10
86.4846627351303
20
5.64096494363562
30
0
41
1
10
86.693820456029
20
5.69679789096182
30
0
41
1
10
86.8903948945529
20
5.78213117522552
30
0
41
1
10
87.0750703591679
20
5.89467432659552
30
0
0
SPLINE
5
136
100
AcDbEntity
8
1
62
256
6
ByLayer
370
18
48
1
60
0
100
AcDbSpline
70
4
71
3
72
8
73
4
40
0
40
0
40
0
40
0
40
1
40
1
40
1
40
1
41
1
10
103.002891038152
20
8.19999514738416
30
0
41
1
10
103.059568088828
20
8.20014508886825
30
0
41
1
10
103.117477267645
20
8.19637244754722
30
0
41
1
10
103.176513776782
20
8.18876158821604
30
0
0
SPLINE
5
137
100
AcDbEntity
8
1
62
256
6
ByLayer
370
18
48
1
60
0
100
AcDbSpline
70
4
71
3
72
8
73
4
40
0
40
0
40
0
40
0
40
1
40
1
40
1
40
1
41
1
10
95.9010472678892
20
-7.70476659527446
30
0
41
1
10
95.9006981774802
20
-7.70505569803254
30
0
41
1
10
95.9003490881832
20
-7.70534478080532
30
0
41
1
10
95.9
20
-7.70563384359093
30
0
0
SPLINE
5
138
100
AcDbEntity
8
1
62
256
6
ByLayer
370
18
48
1
60
0
100
AcDbSpline
70
4
71
4
72
10
73
5
40
0
40
0
40
0
40
0
40
0
40
1
40
1
40
1
40
1
40
1
41
1
10
96.0000000000001
20
6.10547153228333
30
0
41
1
10
96.0000000000001
20
4.99686868885135
30
0
41
0.990483945800992
10
95.9999999999998
20
3.81278480676034
30
0
41
0.996910160142547
10
96
20
2.88902461258782
30
0
41
0.999331157631441
10
96
20
2.31052853228332
30
0
0
SPLINE
5
139
100
AcDbEntity
8
1
62
256
6
ByLayer
370
18
48
1
60
0
100
AcDbSpline
70
4
71
3
72
16
73
12
40
0
40
0
40
0
40
0
40
0.25
40
0.25
40
0.5
40
0.5
40
0.625
40
0.625
40
0.75
40
0.75
40
1
40
1
40
1
40
1
41
1
10
102.155121075354
20
1.10278224156522
30
0
41
1
10
102.237324095796
20
1.22970838946483
30
0
41
1
10
102.333027935932
20
1.36116543778584
30
0
41
1
10
102.550432255012
20
1.63289941168725
30
0
41
1
10
102.669510309808
20
1.76989008128496
30
0
41
1
10
102.862516170106
20
1.97538955553512
30
0
41
1
10
102.929307054558
20
2.04391103610917
30
0
41
1
10
103.067987284203
20
2.18066186981682
30
0
41
1
10
103.140166425127
20
2.24914290812305
30
0
41
1
10
103.361878736611
20
2.4508426263038
30
0
41
1
10
103.516786435712
20
2.58088026612677
30
0
41
1
10
103.679698052723
20
2.70490167632354
30
0
0
SPLINE
5
13A
100
AcDbEntity
8
1
62
256
6
ByLayer
370
13
48
1
60
0
100
AcDbSpline
70
4
71
3
72
8
73
4
40
0
40
0
40
0
40
0
40
1
40
1
40
1
40
1
41
1
10
105.128390094112
20
0.797301953980337
30
0
41
1
10
105.111797120915
20
0.789623817135208
30
0
41
1
10
105.094551735854
20
0.775242399847144
30
0
41
1
10
105.080462407283
20
0.757333692234567
30
0
0
SPLINE
5
13B
100
AcDbEntity
8
1
62
256
6
ByLayer
370
18
48
1
60
0
100
AcDbSpline
70
4
71
1
72
4
73
2
40
0
40
0
40
1
40
1
41
1
10
83.1890699308189
20
-5.72367450639425
30
0
41
1
10
83.3497530293
20
-5.54573599727112
30
0
0
SPLINE
5
13C
100
AcDbEntity
8
1
62
256
6
ByLayer
370
13
48
1
60
0
100
AcDbSpline
70
4
71
3
72
8
73
4
40
0
40
0
40
0
40
0
40
1
40
1
40
1
40
1
41
1
10
21.7874411110592
20
-7.34884044749003
30
0
41
1
10
21.7858827240556
20
-7.36821880098714
30
0
41
1
10
21.7843250934122
20
-7.38759797073769
30
0
41
1
10
21.7827682241093
20
-7.40697795475108
30
0
0
SPLINE
5
13D
100
AcDbEntity
8
1
62
256
6
ByLayer
370
18
48
1
60
0
100
AcDbSpline
70
4
71
3
72
28
73
24
40
0
40
0
40
0
40
0
40
0.125000000000001
40
0.125000000000001
40
0.187500000000001
40
0.187500000000001
40
0.250000000000002
40
0.250000000000002
40
0.375000000000003
40
0.375000000000003
40
0.437500000000001
40
0.437500000000001
40
0.499999999999999
40
0.499999999999999
40
0.624999999999995
40
0.624999999999995
40
0.687499999999993
40
0.687499999999993
40
0.749999999999991
40
0.749999999999991
40
0.874999999999995
40
0.874999999999995
40
1
40
1
40
1
40
1
41
1
10
19.4070000000509
20
-7.84184170182761
30
0
41
1
10
19.4070000000511
20
-7.84979580364214
30
0
41
1
10
19.4200077501357
20
-7.85183564788753
30
0
41
1
10
19.4597316098647
20
-7.84666979702951
30
0
41
1
10
19.4763556739448
20
-7.84357569394541
30
0
41
1
10
19.5166734176334
20
-7.834741735151
30
0
41
1
10
19.5404595697748
20
-7.82897763951857
30
0
41
1
10
19.6224750487384
20
-7.80802561643188
30
0
41
1
10
19.6903205499182
20
-7.78945080663871
30
0
41
1
10
19.8118000729338
20
-7.75652970444227
30
0
41
1
10
19.8555932723949
20
-7.74471081577747
30
0
41
1
10
19.9499604989277
20
-7.71968286711254
30
0
41
1
10
20.0008066187008
20
-7.70640477244666
30
0
41
1
10
20.161863888011
20
-7.66548878556534
30
0
41
1
10
20.2798229632352
20
-7.63695119848194
30
0
41
1
10
20.4722641725293
20
-7.59447057803536
30
0
41
1
10
20.5390086243023
20
-7.58036223210502
30
0
41
1
10
20.6777960737547
20
-7.552609703728
30
0
41
1
10
20.7501099658193
20
-7.53892400156096
30
0
41
1
10
20.9710862472758
20
-7.49983287529403
30
0
41
1
10
21.1247893043667
20
-7.47616686355596
30
0
41
1
10
21.4447305514896
20
-7.43578615226377
30
0
41
1
10
21.6119793836608
20
-7.41901091884554
30
0
41
1
10
21.7827682241093
20
-7.40697795475205
30
0
0
SPLINE
5
13E
100
AcDbEntity
8
1
62
256
6
ByLayer
370
18
48
1
60
0
100
AcDbSpline
70
4
71
3
72
10
73
6
40
0
40
0
40
0
40
0
40
0.509867923065795
40
0.509867923065795
40
1
40
1
40
1
40
1
41
1
10
103.331773701382
20
-8.09162306980528
30
0
41
1
10
103.340582114969
20
-8.06589264939461
30
0
41
1
10
103.349386703896
20
-8.04016441052053
30
0
41
1
10
103.366647458393
20
-7.98970844081308
30
0
41
1
10
103.375103937187
20
-7.96498047723946
30
0
41
1
10
103.383556792903
20
-7.94025479621368
30
0
0
SPLINE
5
13F
100
AcDbEntity
8
1
62
256
6
ByLayer
370
18
48
1
60
0
100
AcDbSpline
70
4
71
3
72
8
73
4
40
0
40
0
40
0
40
0
40
1
40
1
40
1
40
1
41
1
10
16
20
-2.83566952737303
30
0
41
1
10
16.0240821214349
20
-2.84501492782033
30
0
41
1
10
16.0482320753549
20
-2.8540310038077
30
0
41
1
10
16.0724490077398
20
-2.86272113186416
30
0
0
SPLINE
5
140
100
AcDbEntity
8
1
62
256
6
ByLayer
370
18
48
1
60
0
100
AcDbSpline
70
4
71
3
72
8
73
4
40
0
40
0
40
0
40
0
40
1
40
1
40
1
40
1
41
1
10
103.706977965204
20
2.71556732882692
30
0
41
1
10
103.805379353178
20
2.72235361838275
30
0
41
1
10
103.903721485795
20
2.72980396140801
30
0
41
1
10
104.001986569561
20
2.73812987213014
30
0
0
SPLINE
5
141
100
AcDbEntity
8
1
62
256
6
ByLayer
370
18
48
1
60
0
100
AcDbSpline
70
4
71
3
72
10
73
6
40
0
40
0
40
0
40
0
40
0.5
40
0.5
40
1
40
1
40
1
40
1
41
1
10
95.9047611844257
20
6.66229904719654
30
0
41
1
10
94.6016808845183
20
6.61778774879491
30
0
41
1
10
93.2985398591218
20
6.52885017269435
30
0
41
1
10
90.7002140651592
20
6.24878078983213
30
0
41
1
10
89.4036655280748
20
6.05776752233311
30
0
41
1
10
88.105176750438
20
5.82052514806003
30
0
0
SPLINE
5
142
100
AcDbEntity
8
1
62
256
6
ByLayer
370
18
48
1
60
0
100
AcDbSpline
70
4
71
3
72
16
73
12
40
0
40
0
40
0
40
0
40
0.250000000000003
40
0.250000000000003
40
0.500000000000006
40
0.500000000000006
40
0.625000000000007
40
0.625000000000007
40
0.750000000000008
40
0.750000000000008
40
1
40
1
40
1
40
1
41
1
10
15.666406648782
20
6.36816235273503
30
0
41
1
10
15.4152119864805
20
6.33266717731863
30
0
41
1
10
15.1706003149544
20
6.30334612560983
30
0
41
1
10
14.6908323932593
20
6.2577968853962
30
0
41
1
10
14.4557133252108
20
6.24155813879491
30
0
41
1
10
14.1087104183409
20
6.22842878507572
30
0
41
1
10
13.9939988546144
20
6.22593376286665
30
0
41
1
10
13.7663438958682
20
6.22507631570573
30
0
41
1
10
13.6532084186129
20
6.22672473387078
30
0
41
1
10
13.3184376904901
20
6.23847303290307
30
0
41
1
10
13.1010189718258
20
6.25530864050941
30
0
41
1
10
12.8892231397341
20
6.28290008351621
30
0
0
SPLINE
5
143
100
AcDbEntity
8
1
62
256
6
ByLayer
370
18
48
1
60
0
100
AcDbSpline
70
4
71
3
72
14
73
10
40
0
40
0
40
0
40
0
40
0.249999999999999
40
0.249999999999999
40
0.499999999999999
40
0.499999999999999
40
0.749999999999999
40
0.749999999999999
40
1
40
1
40
1
40
1
41
1
10
87.0750703591682
20
5.89467432659595
30
0
41
1
10
87.17287827875
20
5.90822841108033
30
0
41
1
10
87.2699160624873
20
5.91755055731986
30
0
41
1
10
87.4562959473508
20
5.92626088125442
30
0
41
1
10
87.5462595393235
20
5.92577437238089
30
0
41
1
10
87.7196202953311
20
5.91437114527116
30
0
41
1
10
87.8031563027068
20
5.90343179084277
30
0
41
1
10
87.9626208440095
20
5.87000208752295
30
0
41
1
10
88.0366628614576
20
5.84792132006717
30
0
41
1
10
88.1051767504377
20
5.82052514806
30
0
0
SPLINE
5
144
100
AcDbEntity
8
1
62
256
6
ByLayer
370
18
48
1
60
0
100
AcDbSpline
70
4
71
3
72
8
73
4
40
0
40
0
40
0
40
0
40
1
40
1
40
1
40
1
41
1
10
99.3118933379614
20
1.10888549297101
30
0
41
1
10
99.2592185074329
20
1.03648208543808
30
0
41
1
10
99.2057758344249
20
0.966124197220978
30
0
41
1
10
99.1515344017107
20
0.897894191286696
30
0
0
SPLINE
5
145
100
AcDbEntity
8
1
62
256
6
ByLayer
370
18
48
1
60
0
100
AcDbSpline
70
4
71
3
72
10
73
6
40
0
40
0
40
0
40
0
40
0.719755778991779
40
0.719755778991779
40
1
40
1
40
1
40
1
41
1
10
88.105176750438
20
5.82052514806068
30
0
41
1
10
88.0238161807284
20
5.61622518412762
30
0
41
1
10
87.9396530064274
20
5.41837319075466
30
0
41
1
10
87.8200220932289
20
5.15195296551622
30
0
41
1
10
87.786198271863
20
5.07821404281714
30
0
41
1
10
87.7521538086069
20
5.0054009902986
30
0
0
SPLINE
5
146
100
AcDbEntity
8
1
62
256
6
ByLayer
370
18
48
1
60
0
100
AcDbSpline
70
4
71
3
72
8
73
4
40
0
40
0
40
0
40
0
40
1
40
1
40
1
40
1
41
1
10
95.8
20
2.38056712928457
30
0
41
1
10
95.8
20
2.42886405543402
30
0
41
1
10
95.8
20
2.47891947286413
30
0
41
1
10
95.8
20
2.53072612928454
30
0
0
SPLINE
5
147
100
AcDbEntity
8
1
62
256
6
ByLayer
370
18
48
1
60
0
100
AcDbSpline
70
4
71
3
72
12
73
8
40
0
40
0
40
0
40
0
40
0.417480351745589
40
0.417480351745589
40
0.70873997452217
40
0.70873997452217
40
1
40
1
40
1
40
1
41
1
10
95.9999999939386
20
-7.60101525267899
30
0
41
1
10
95.9862418451574
20
-7.61545941177798
30
0
41
1
10
95.9724785587213
20
-7.62990097934696
30
0
41
1
10
95.9491046137254
20
-7.65441354379408
30
0
41
1
10
95.9394965370677
20
-7.66448585056114
30
0
41
1
10
95.9202755246618
20
-7.68462804126975
30
0
41
1
10
95.9106625855837
20
-7.69469792868966
30
0
41
1
10
95.901047253366
20
-7.70476661642064
30
0
0
SPLINE
5
148
100
AcDbEntity
8
1
62
256
6
ByLayer
370
18
48
1
60
0
100
AcDbSpline
70
4
71
3
72
44
73
40
40
0
40
0
40
0
40
0
40
0.0156249999999999
40
0.0156249999999999
40
0.0234375000000004
40
0.0234375000000004
40
0.0273437500000006
40
0.0273437500000006
40
0.0292968750000002
40
0.0292968750000002
40
0.0312499999999997
40
0.0312499999999997
40
0.0624999999999973
40
0.0624999999999973
40
0.0937499999999949
40
0.0937499999999949
40
0.109374999999994
40
0.109374999999994
40
0.117187499999994
40
0.117187499999994
40
0.124999999999994
40
0.124999999999994
40
0.249999999999994
40
0.249999999999994
40
0.312499999999994
40
0.312499999999994
40
0.374999999999994
40
0.374999999999994
40
0.499999999999995
40
0.499999999999995
40
0.562499999999996
40
0.562499999999996
40
0.624999999999996
40
0.624999999999996
40
0.749999999999997
40
0.749999999999997
40
0.874999999999999
40
0.874999999999999
40
1
40
1
40
1
40
1
41
1
10
86.5604039473675
20
-6.1001024071974
30
0
41
1
10
86.2180741870843
20
-6.01897829467492
30
0
41
1
10
85.8758472015631
20
-5.93544209639657
30
0
41
1
10
85.3626204761767
20
-5.80661883646698
30
0
41
1
10
85.191564088114
20
-5.76309066852738
30
0
41
1
10
84.9350025581929
20
-5.69693131133627
30
0
41
1
10
84.8494857314975
20
-5.67473405332206
30
0
41
1
10
84.721216017815
20
-5.64122191598676
30
0
41
1
10
84.678687284779
20
-5.62946790274535
30
0
41
1
10
84.5924246921483
20
-5.60879771496266
30
0
41
1
10
84.5492651132919
20
-5.59850214023493
30
0
41
1
10
83.8150389502566
20
-5.42424782408651
30
0
41
1
10
83.1161737325389
20
-5.27235284369283
30
0
41
1
10
81.7085553989011
20
-4.98549145834659
30
0
41
1
10
80.999753498359
20
-4.85052679904041
30
0
41
1
10
79.9315310034775
20
-4.65700982891511
30
0
41
1
10
79.5746070137965
20
-4.5940055982706
30
0
41
1
10
79.0381386134859
20
-4.50145088857801
30
0
41
1
10
78.8590302699604
20
-4.47127061294387
30
0
41
1
10
78.501497469952
20
-4.40806383174913
30
0
41
1
10
78.3227318357107
20
-4.37634677928594
30
0
41
1
10
75.283871932667
20
-3.83465734835323
30
0
41
1
10
72.4252083723912
20
-3.29080117125719
30
0
41
1
10
68.1349285264752
20
-2.44513294639691
30
0
41
1
10
66.7044643296415
20
-2.15823264625107
30
0
41
1
10
63.8422029140436
20
-1.57733240522674
30
0
41
1
10
62.4100735639431
20
-1.28328911949529
30
0
41
1
10
58.1163418794753
20
-0.39543907212709
30
0
41
1
10
55.2557966189802
20
0.204105647161782
30
0
41
1
10
50.9654654434722
20
1.10316585184333
30
0
41
1
10
49.5355546052985
20
1.40337379871187
30
0
41
1
10
46.6750894369124
20
1.99981303199871
30
0
41
1
10
45.2448981540931
20
2.29260510226095
30
0
41
1
10
40.9580505223924
20
3.14957097582817
30
0
41
1
10
38.1031154656356
20
3.69217654368137
30
0
41
1
10
32.3939999846806
20
4.70032940968301
30
0
41
1
10
29.5398100752085
20
5.16595771864411
30
0
41
1
10
23.8282950724291
20
6.00526496214698
30
0
41
1
10
20.9709945216189
20
6.37917527837618
30
0
41
1
10
18.1105327770983
20
6.69889522582275
30
0
0
SPLINE
5
149
100
AcDbEntity
8
1
62
256
6
ByLayer
370
18
48
1
60
0
100
AcDbSpline
70
4
71
3
72
8
73
4
40
0
40
0
40
0
40
0
40
1
40
1
40
1
40
1
41
1
10
103.467553377456
20
-3.76360524008504
30
0
41
1
10
103.529313264667
20
-3.69297345830097
30
0
41
1
10
103.591084265236
20
-3.62215343088295
30
0
41
1
10
103.652872733156
20
-3.55103752953599
30
0
0
SPLINE
5
14A
100
AcDbEntity
8
1
62
256
6
ByLayer
370
18
48
1
60
0
100
AcDbSpline
70
4
71
2
72
6
73
3
40
0
40
0
40
0
40
1
40
1
40
1
41
0.500000048921442
10
16.070986967693
20
-2.87171928642249
30
0
41
0.499999951078558
10
16.0717175641898
20
-2.86722141162678
30
0
41
0.500000048921442
10
16.0724490077398
20
-2.86272113186418
30
0
0
SPLINE
5
14B
100
AcDbEntity
8
1
62
256
6
ByLayer
370
18
48
1
60
0
100
AcDbSpline
70
4
71
3
72
8
73
4
40
0
40
0
40
0
40
0
40
1
40
1
40
1
40
1
41
1
10
17.6
20
-3.34874349326995
30
0
41
1
10
17.0904417174802
20
-3.18937626784611
30
0
41
1
10
16.5807984762995
20
-3.03027919562993
30
0
41
1
10
16.070986967693
20
-2.87171928642249
30
0
0
SPLINE
5
14C
100
AcDbEntity
8
1
62
256
6
ByLayer
370
18
48
1
60
0
100
AcDbSpline
70
4
71
3
72
8
73
4
40
0
40
0
40
0
40
0
40
1
40
1
40
1
40
1
41
1
10
99.0174394649142
20
0.911532272559356
30
0
41
1
10
99.0621376552861
20
0.906771043309277
30
0
41
1
10
99.1068358689227
20
0.902225159714618
30
0
41
1
10
99.1515341264493
20
0.897894217715418
30
0
0
SPLINE
5
14D
100
AcDbEntity
8
1
62
256
6
ByLayer
370
18
48
1
60
0
100
AcDbSpline
70
4
71
3
72
18
73
14
40
0
40
0
40
0
40
0
40
0.0822339746797624
40
0.0822339746797624
40
0.235194978899794
40
0.235194978899794
40
0.388155983119825
40
0.388155983119825
40
0.694077991559888
40
0.694077991559888
40
0.847038995779944
40
0.847038995779944
40
1
40
1
40
1
40
1
41
1
10
84.7920871398122
20
-5.63671683172805
30
0
41
1
10
84.7486788096371
20
-5.63040913346464
30
0
41
1
10
84.7050261557185
20
-5.62481848485277
30
0
41
1
10
84.5794813532959
20
-5.61090522781458
30
0
41
1
10
84.4969862529156
20
-5.60437599926038
30
0
41
1
10
84.3302543099766
20
-5.59658243877232
30
0
41
1
10
84.2461015540006
20
-5.59536045739159
30
0
41
1
10
83.9966146546016
20
-5.59970977758411
30
0
41
1
10
83.8323608463418
20
-5.61313802639498
30
0
41
1
10
83.5890652646622
20
-5.64850073240547
30
0
41
1
10
83.5081480726296
20
-5.66291025251539
30
0
41
1
10
83.3491451468599
20
-5.6964468661368
30
0
41
1
10
83.271240275528
20
-5.71550855989102
30
0
41
1
10
83.1949003844388
20
-5.73670856275169
30
0
0
SPLINE
5
14E
100
AcDbEntity
8
1
62
256
6
ByLayer
370
18
48
1
60
0
100
AcDbSpline
70
4
71
3
72
8
73
4
40
0
40
0
40
0
40
0
40
1
40
1
40
1
40
1
41
1
10
95.8
20
3.55000000000001
30
0
41
1
10
95.8666569895297
20
3.55000000000001
30
0
41
1
10
95.9333238535862
20
3.55000000000001
30
0
41
1
10
96
20
3.55000000000001
30
0
0
SPLINE
5
14F
100
AcDbEntity
8
1
62
256
6
ByLayer
370
18
48
1
60
0
100
AcDbSpline
70
4
71
3
72
28
73
24
40
0
40
0
40
0
40
0
40
0.125000000000005
40
0.125000000000005
40
0.18750000000001
40
0.18750000000001
40
0.250000000000014
40
0.250000000000014
40
0.375000000000022
40
0.375000000000022
40
0.437500000000024
40
0.437500000000024
40
0.500000000000026
40
0.500000000000026
40
0.625000000000023
40
0.625000000000023
40
0.687500000000022
40
0.687500000000022
40
0.75000000000002
40
0.75000000000002
40
0.87500000000001
40
0.87500000000001
40
1
40
1
40
1
40
1
41
1
10
100.811180237842
20
0.953203026872217
30
0
41
1
10
100.785580191949
20
0.845437701437476
30
0
41
1
10
100.754072268
20
0.750388249041436
30
0
41
1
10
100.69757924078
20
0.627682798213982
30
0
41
1
10
100.677204052127
20
0.5901046097039
30
0
41
1
10
100.633225505125
20
0.521896411981999
30
0
41
1
10
100.609656945473
20
0.491395517881131
30
0
41
1
10
100.535546432801
20
0.412276144995502
30
0
41
1
10
100.481182283401
20
0.375250758185445
30
0
41
1
10
100.392349921728
20
0.342819618611799
30
0
41
1
10
100.361519968692
20
0.335875648325299
30
0
41
1
10
100.297388541688
20
0.329825782022795
30
0
41
1
10
100.264061961558
20
0.330769209390297
30
0
41
1
10
100.16229405409
20
0.345145645387788
30
0
41
1
10
100.091471584744
20
0.369951276388093
30
0
41
1
10
99.9810390085009
20
0.428627045362418
30
0
41
1
10
99.9435252279099
20
0.451779421418962
30
0
41
1
10
99.8671018987238
20
0.505220232991491
30
0
41
1
10
99.8282555052053
20
0.535492016575802
30
0
41
1
10
99.7114658750475
20
0.635284700983192
30
0
41
1
10
99.632691491431
20
0.714123052005078
30
0
41
1
10
99.4734470820678
20
0.894621192343067
30
0
41
1
10
99.3926686467416
20
0.996736947522066
30
0
41
1
10
99.3118933379615
20
1.10888549297104
30
0
0
SPLINE
5
150
100
AcDbEntity
8
1
62
256
6
ByLayer
370
18
48
1
60
0
100
AcDbSpline
70
4
71
3
72
12
73
8
40
0
40
0
40
0
40
0
40
0.0209638822718315
40
0.0209638822718315
40
0.347309254847926
40
0.347309254847926
40
1
40
1
40
1
40
1
41
1
10
84.0314900859453
20
-5.46589400844837
30
0
41
1
10
84.0266188649838
20
-5.46594579631662
30
0
41
1
10
84.0217503985226
20
-5.46600929421757
30
0
41
1
10
83.941146194268
20
-5.46725545296198
30
0
41
1
10
83.8659155498979
20
-5.47123567365892
30
0
41
1
10
83.641721036933
20
-5.49148475105213
30
0
41
1
10
83.4942460918583
20
-5.51601317475726
30
0
41
1
10
83.3487892550129
20
-5.55183865612636
30
0
0
SPLINE
5
151
100
AcDbEntity
8
1
62
256
6
ByLayer
370
18
48
1
60
0
100
AcDbSpline
70
4
71
1
72
4
73
2
40
0
40
0
40
1
40
1
41
1
10
86.5272483976153
20
5.94233075940315
30
0
41
1
10
86.574917339242
20
6.07390591624551
30
0
0
SPLINE
5
152
100
AcDbEntity
8
1
62
256
6
ByLayer
370
18
48
1
60
0
100
AcDbSpline
70
4
71
3
72
40
73
36
40
0
40
0
40
0
40
0
40
0.0625
40
0.0625
40
0.125
40
0.125
40
0.1875
40
0.1875
40
0.25
40
0.25
40
0.3125
40
0.3125
40
0.375
40
0.375
40
0.4375
40
0.4375
40
0.46875
40
0.46875
40
0.5
40
0.5
40
0.5625
40
0.5625
40
0.625
40
0.625
40
0.6875
40
0.6875
40
0.75
40
0.75
40
0.8125
40
0.8125
40
0.875
40
0.875
40
0.9375
40
0.9375
40
1
40
1
40
1
40
1
41
1
10
98.771639469687
20
-0.407799086925536
30
0
41
1
10
98.7032205398545
20
-0.407567047197603
30
0
41
1
10
98.6358649961742
20
-0.413664149306982
30
0
41
1
10
98.5031529265866
20
-0.43775164437713
30
0
41
1
10
98.4373455457545
20
-0.45592018744145
30
0
41
1
10
98.3098940626197
20
-0.503963488213117
30
0
41
1
10
98.2491561975547
20
-0.533395662039311
30
0
41
1
10
98.1335723620112
20
-0.602903075336684
30
0
41
1
10
98.0781779433308
20
-0.643501258699956
30
0
41
1
10
97.9769922452455
20
-0.733588679691991
30
0
41
1
10
97.9312401403217
20
-0.782814005977826
30
0
41
1
10
97.8497344239142
20
-0.889854846851449
30
0
41
1
10
97.8137110162141
20
-0.948437080890528
30
0
41
1
10
97.7557388694933
20
-1.06962890141205
30
0
41
1
10
97.7333573575872
20
-1.13254274015424
30
0
41
1
10
97.7102197620615
20
-1.23054514238902
30
0
41
1
10
97.7042480766625
20
-1.26403535429804
30
0
41
1
10
97.696211910804
20
-1.33068080063646
30
0
41
1
10
97.6940957082101
20
-1.36394993648426
30
0
41
1
10
97.6933439299092
20
-1.46359774298281
30
0
41
1
10
97.700387085211
20
-1.53038979307601
30
0
41
1
10
97.7294321580606
20
-1.66093269993303
30
0
41
1
10
97.7510278295933
20
-1.72352575191454
30
0
41
1
10
97.8076190850235
20
-1.84369694257265
30
0
41
1
10
97.8428523978638
20
-1.90127225116765
30
0
41
1
10
97.9233129315963
20
-2.00672428916016
30
0
41
1
10
97.9690481166945
20
-2.05550790998348
30
0
41
1
10
98.0700554023777
20
-2.1441434317459
30
0
41
1
10
98.124241973203
20
-2.18312613440617
30
0
41
1
10
98.2395403327739
20
-2.25118146359304
30
0
41
1
10
98.3012853161809
20
-2.28042522110027
30
0
41
1
10
98.4277870748501
20
-2.32713505278355
30
0
41
1
10
98.4927097686013
20
-2.34483898380319
30
0
41
1
10
98.6259072881437
20
-2.36899033544273
30
0
41
1
10
98.6944060338767
20
-2.37536145859451
30
0
41
1
10
98.7628531966554
20
-2.37558283061483
30
0
0
SPLINE
5
153
100
AcDbEntity
8
1
62
256
6
ByLayer
370
18
48
1
60
0
100
AcDbSpline
70
4
71
3
72
8
73
4
40
0
40
0
40
0
40
0
40
1
40
1
40
1
40
1
41
1
10
16
20
6.41344698724384
30
0
41
1
10
16.0936786637465
20
6.43331142522754
30
0
41
1
10
16.1874242457702
20
6.45150555161791
30
0
41
1
10
16.2812289725195
20
6.46810518080881
30
0
0
SPLINE
5
154
100
AcDbEntity
8
1
62
256
6
ByLayer
370
18
48
1
60
0
100
AcDbSpline
70
4
71
2
72
6
73
3
40
0
40
0
40
0
40
1
40
1
40
1
41
0.500031137142811
10
100.079474939404
20
-2.37984081964605
30
0
41
0.499968862857189
10
99.4211875883221
20
-2.37771201768978
30
0
41
0.500031137142811
10
98.7628531966567
20
-2.37558283061452
30
0
0
SPLINE
5
155
100
AcDbEntity
8
1
62
256
6
ByLayer
370
13
48
1
60
0
100
AcDbSpline
70
4
71
3
72
20
73
16
40
0
40
0
40
0
40
0
40
0.125000000000004
40
0.125000000000004
40
0.250000000000009
40
0.250000000000009
40
0.375000000000013
40
0.375000000000013
40
0.500000000000017
40
0.500000000000017
40
0.750000000000009
40
0.750000000000009
40
0.875000000000004
40
0.875000000000004
40
1
40
1
40
1
40
1
41
1
10
103.679698052715
20
2.70490167632226
30
0
41
1
10
103.704865983507
20
2.59635231311756
30
0
41
1
10
103.736086965403
20
2.4915792669758
30
0
41
1
10
103.80838861641
20
2.28837092254261
30
0
41
1
10
103.849581506765
20
2.18997916263106
30
0
41
1
10
103.94182104626
20
1.99929875953359
30
0
41
1
10
103.992763155547
20
1.90688380674001
30
0
41
1
10
104.101329731391
20
1.73077027850604
30
0
41
1
10
104.159194293323
20
1.64653317589318
30
0
41
1
10
104.342130884143
20
1.40457629059125
30
0
41
1
10
104.474722867452
20
1.25950025298184
30
0
41
1
10
104.686052965408
20
1.06161970580308
30
0
41
1
10
104.758254898392
20
0.999345849017601
30
0
41
1
10
104.905686484782
20
0.881300224121276
30
0
41
1
10
104.980698585767
20
0.825692693377789
30
0
41
1
10
105.057598843601
20
0.7728504156822
30
0
0
SPLINE
5
156
100
AcDbEntity
8
1
62
256
6
ByLayer
370
18
48
1
60
0
100
AcDbSpline
70
4
71
3
72
40
73
36
40
0
40
0
40
0
40
0
40
0.0625
40
0.0625
40
0.125
40
0.125
40
0.249999999999999
40
0.249999999999999
40
0.374999999999999
40
0.374999999999999
40
0.437499999999998
40
0.437499999999998
40
0.499999999999998
40
0.499999999999998
40
0.624999999999997
40
0.624999999999997
40
0.687499999999997
40
0.687499999999997
40
0.749999999999997
40
0.749999999999997
40
0.812499999999997
40
0.812499999999997
40
0.843749999999997
40
0.843749999999997
40
0.874999999999998
40
0.874999999999998
40
0.906249999999998
40
0.906249999999998
40
0.937499999999998
40
0.937499999999998
40
0.953124999999998
40
0.953124999999998
40
0.968749999999998
40
0.968749999999998
40
1
40
1
40
1
40
1
41
1
10
21.7827682241094
20
7.40697795475205
30
0
41
1
10
23.1063615309684
20
7.31372390668895
30
0
41
1
10
24.4298399382687
20
7.20632641264623
30
0
41
1
10
27.0771035736262
20
6.96437406643298
30
0
41
1
10
28.4009465892164
20
6.82980308117223
30
0
41
1
10
32.370881765139
20
6.38778189261385
30
0
41
1
10
35.0163526077109
20
6.04179535309075
30
0
41
1
10
40.3102815003966
20
5.2626799510135
30
0
41
1
10
42.9580028138915
20
4.82981847715968
30
0
41
1
10
46.9294901769434
20
4.1300314938529
30
0
41
1
10
48.2530691942043
20
3.88834018095059
30
0
41
1
10
50.9003133086356
20
3.39041860806265
30
0
41
1
10
52.2241672663419
20
3.13437145309143
30
0
41
1
10
56.1943697518239
20
2.35105256324488
30
0
41
1
10
58.8400486048453
20
1.80759319928975
30
0
41
1
10
62.8104329366385
20
0.976766889852598
30
0
41
1
10
64.1344299211723
20
0.697217483945678
30
0
41
1
10
66.781297475448
20
0.136573848629467
30
0
41
1
10
68.1044257681333
20
-0.144567536645553
30
0
41
1
10
70.7507269596179
20
-0.705384647098214
30
0
41
1
10
72.0738972090216
20
-0.985072903057869
30
0
41
1
10
74.0591709973664
20
-1.40121790978929
30
0
41
1
10
74.7210942930339
20
-1.53935865845966
30
0
41
1
10
76.0446935377081
20
-1.8137478938996
30
0
41
1
10
76.7064771848422
20
-1.94971114290999
30
0
41
1
10
78.02952371256
20
-2.22129358868631
30
0
41
1
10
78.6903981124472
20
-2.35854695824165
30
0
41
1
10
80.0140858400816
20
-2.62216971002357
30
0
41
1
10
80.6778946701125
20
-2.74454521781263
30
0
41
1
10
81.665808122905
20
-2.95864928560266
30
0
41
1
10
81.9939507836379
20
-3.03445215250918
30
0
41
1
10
82.6513372148798
20
-3.18062595334291
30
0
41
1
10
82.9802652427788
20
-3.25233190621276
30
0
41
1
10
83.9667345824788
20
-3.46750805379216
30
0
41
1
10
84.6243956589208
20
-3.60923815745306
30
0
41
1
10
85.2822525256964
20
-3.74851276214864
30
0
0
SPLINE
5
157
100
AcDbEntity
8
1
62
256
6
ByLayer
370
18
48
1
60
0
100
AcDbSpline
70
4
71
3
72
8
73
4
40
0
40
0
40
0
40
0
40
1
40
1
40
1
40
1
41
1
10
97.5111125806895
20
-8.3498923501983
30
0
41
1
10
97.0097920972789
20
-8.16622264547811
30
0
41
1
10
96.5062604555451
20
-7.97170405511437
30
0
41
1
10
96.0000000000001
20
-7.76771017285236
30
0
0
SPLINE
5
158
100
AcDbEntity
8
1
62
256
6
ByLayer
370
18
48
1
60
0
100
AcDbSpline
70
4
71
3
72
8
73
4
40
0
40
0
40
0
40
0
40
1
40
1
40
1
40
1
41
1
10
12.8892231397341
20
6.28290008351627
30
0
41
1
10
12.8607278988601
20
6.28661226617243
30
0
41
1
10
12.8322244815038
20
6.29029357904238
30
0
41
1
10
12.8037131219233
20
6.29394398792181
30
0
0
SPLINE
5
159
100
AcDbEntity
8
1
62
256
6
ByLayer
370
18
48
1
60
0
100
AcDbSpline
70
4
71
3
72
33
73
29
40
0
40
0
40
0
40
0
40
0.0312297780238284
40
0.0622604843296013
40
0.0930925954563376
40
0.123726597212489
40
0.154162984894307
40
0.184402263509818
40
0.214444948008545
40
0.244291563517114
40
0.273942645580892
40
0.303398740411786
40
0.33266040514235
40
0.361728208086348
40
0.390602729005891
40
0.419284559385342
40
0.447774302712067
40
0.476072574764235
40
0.504180003905777
40
0.560867133462196
40
0.617141914063623
40
0.673009879337095
40
0.728476684677028
40
0.783548109075606
40
0.838230056891057
40
0.892528559545413
40
0.946449777142939
40
1
40
1
40
1
40
1
41
1
10
101.021881045013
20
-6.173010549765
30
0
41
1
10
101.008430244794
20
-6.14318299809301
30
0
41
1
10
100.981614385405
20
-6.08371802808756
30
0
41
1
10
100.942222864765
20
-5.99210291436228
30
0
41
1
10
100.903605782985
20
-5.89915259069051
30
0
41
1
10
100.865812672275
20
-5.80473421962185
30
0
41
1
10
100.828830387809
20
-5.70896102123382
30
0
41
1
10
100.792662417625
20
-5.61188022575845
30
0
41
1
10
100.75730783602
20
-5.51355584552982
30
0
41
1
10
100.722766888493
20
-5.41404667547846
30
0
41
1
10
100.689039509835
20
-5.31341209747126
30
0
41
1
10
100.65612571712
20
-5.21171050824481
30
0
41
1
10
100.624025506248
20
-5.10899970732885
30
0
41
1
10
100.592738876392
20
-5.00533676234514
30
0
41
1
10
100.562265834606
20
-4.90077802993727
30
0
41
1
10
100.532606353622
20
-4.79537908002797
30
0
41
1
10
100.503760534466
20
-4.68919485754424
30
0
41
1
10
100.475728003887
20
-4.58227900561653
30
0
41
1
10
100.439223755194
20
-4.43797702609777
30
0
41
1
10
100.395283550014
20
-4.2545160106724
30
0
41
1
10
100.345298491943
20
-4.02969138005508
30
0
41
1
10
100.298301444112
20
-3.80153906930676
30
0
41
1
10
100.254290926207
20
-3.57039041541358
30
0
41
1
10
100.213272144963
20
-3.33656396511824
30
0
41
1
10
100.175226028398
20
-3.1003984964394
30
0
41
1
10
100.140223053631
20
-2.86213888767355
30
0
41
1
10
100.10800301964
20
-2.62235318356778
30
0
41
1
10
100.088954045199
20
-2.46049288750243
30
0
41
1
10
100.079462436803
20
-2.37984211284689
30
0
0
SPLINE
5
15A
100
AcDbEntity
8
1
62
256
6
ByLayer
370
18
48
1
60
0
100
AcDbSpline
70
4
71
3
72
8
73
4
40
0
40
0
40
0
40
0
40
1
40
1
40
1
40
1
41
1
10
104.187713660396
20
5.68582285260388
30
0
41
1
10
103.948052455285
20
6.41324635899096
30
0
41
1
10
103.70432840437
20
7.14535442418031
30
0
41
1
10
103.456391493336
20
7.88232000621966
30
0
0
SPLINE
5
15B
100
AcDbEntity
8
1
62
256
6
ByLayer
370
18
48
1
60
0
100
AcDbSpline
70
4
71
3
72
14
73
10
40
0
40
0
40
0
40
0
40
0.5
40
0.5
40
0.75
40
0.75
40
0.875
40
0.875
40
1
40
1
40
1
40
1
41
1
10
86.5749173392423
20
-6.07390591624645
30
0
41
1
10
88.1294555495281
20
-6.48792983328246
30
0
41
1
10
89.6787469494335
20
-6.83620988205371
30
0
41
1
10
92.0072671327417
20
-7.24732108229441
30
0
41
1
10
92.7843480896162
20
-7.36574100935707
30
0
41
1
10
93.9525960416363
20
-7.51481743947303
30
0
41
1
10
94.34255448353
20
-7.55976898787983
30
0
41
1
10
95.1215748676675
20
-7.63994209070643
30
0
41
1
10
95.5108615242576
20
-7.67519586813714
30
0
41
1
10
95.9
20
-7.70563384359093
30
0
0
SPLINE
5
15C
100
AcDbEntity
8
1
62
256
6
ByLayer
370
18
48
1
60
0
100
AcDbSpline
70
4
71
3
72
14
73
10
40
0
40
0
40
0
40
0
40
0.0404605480988363
40
0.0404605480988363
40
0.360307032065891
40
0.360307032065891
40
0.680153516032945
40
0.680153516032945
40
1
40
1
40
1
40
1
41
1
10
98.0386035774375
20
1.57228208479896
30
0
41
1
10
98.0938853133925
20
1.56515410285243
30
0
41
1
10
98.149168977243
20
1.55804221664931
30
0
41
1
10
98.6414952566575
20
1.4948539256082
30
0
41
1
10
99.0786862523466
20
1.44001632682043
30
0
41
1
10
99.9536730528805
20
1.33539060093838
30
0
41
1
10
100.39138430245
20
1.28489653302961
30
0
41
1
10
101.266743187986
20
1.18337729564303
30
0
41
1
10
101.704460571028
20
1.13293443528477
30
0
41
1
10
102.142254766284
20
1.08313286995099
30
0
0
SPLINE
5
15D
100
AcDbEntity
8
1
62
256
6
ByLayer
370
18
48
1
60
0
100
AcDbSpline
70
4
71
3
72
8
73
4
40
0
40
0
40
0
40
0
40
1
40
1
40
1
40
1
41
1
10
17.6000000000001
20
-3.34874349326995
30
0
41
1
10
18.2022767359038
20
-3.46675087669038
30
0
41
1
10
18.8045999738
20
-3.58285731309604
30
0
41
1
10
19.4070000000304
20
-3.69697805330117
30
0
0
SPLINE
5
15E
100
AcDbEntity
8
1
62
256
6
ByLayer
370
18
48
1
60
0
100
AcDbSpline
70
4
71
3
72
8
73
4
40
0
40
0
40
0
40
0
40
1
40
1
40
1
40
1
41
1
10
95.9047611426464
20
6.66229904689044
30
0
41
1
10
95.9035421927184
20
7.01235428605654
30
0
41
1
10
95.9023040769235
20
7.35987175462975
30
0
41
1
10
95.9010474212246
20
7.7047664682982
30
0
0
SPLINE
5
15F
100
AcDbEntity
8
1
62
256
6
ByLayer
370
18
48
1
60
0
100
AcDbSpline
70
4
71
3
72
16
73
12
40
0
40
0
40
0
40
0
40
0.29932046757193
40
0.485397808537045
40
0.581451462921821
40
0.677509451417855
40
0.77356912667647
40
0.821602401615433
40
0.86963835833674
40
0.917678513355089
40
1
40
1
40
1
40
1
41
1.10374900959774
10
67.4548145775104
20
-0.0061408255915773
30
0
41
1.10374900959774
10
69.2460358309311
20
-0.361518291256778
30
0
41
1.10374900959774
10
72.1492938872157
20
-0.9378106754474
30
0
41
1.10374900959774
10
75.6197461532501
20
-1.61646818620425
30
0
41
1.10374900959774
10
77.8732515678758
20
-2.04903381729811
30
0
41
1.10374900959774
10
79.5876645643318
20
-2.38020467790998
30
0
41
1.10374900959774
10
81.0161671762061
20
-2.63129302945025
30
0
41
1.10374900959774
10
82.1534786756245
20
-2.87562567447453
30
0
41
1.10374900959774
10
83.0074764647779
20
-3.05077911449187
30
0
41
1.10374900959774
10
84.0645359683018
20
-3.26662607001793
30
0
41
1.10374900959774
10
84.8370125885814
20
-3.4215358448749
30
0
41
1.10374900959774
10
85.3247818396151
20
-3.51815490796013
30
0
0
SPLINE
5
160
100
AcDbEntity
8
1
62
256
6
ByLayer
370
18
48
1
60
0
100
AcDbSpline
70
4
71
3
72
8
73
4
40
0
40
0
40
0
40
0
40
1
40
1
40
1
40
1
41
1
10
85.1408684151183
20
5.70392702506192
30
0
41
1
10
86.4227816115966
20
5.39041301612932
30
0
41
1
10
87.7029744108708
20
5.03801536791448
30
0
41
1
10
88.9850083620242
20
4.65318953741757
30
0
0
SPLINE
5
161
100
AcDbEntity
8
1
62
256
6
ByLayer
370
18
48
1
60
0
100
AcDbSpline
70
4
71
3
72
8
73
4
40
0
40
0
40
0
40
0
40
1
40
1
40
1
40
1
41
1
10
97.5111125806886
20
8.34989235019796
30
0
41
1
10
97.0097920972784
20
8.16622264547789
30
0
41
1
10
96.5062604555449
20
7.97170405511426
30
0
41
1
10
96.0000000000001
20
7.76771017285236
30
0
0
SPLINE
5
162
100
AcDbEntity
8
1
62
256
6
ByLayer
370
18
48
1
60
0
100
AcDbSpline
70
4
71
2
72
6
73
3
40
0
40
0
40
0
40
1
40
1
40
1
41
1
10
99.1515340372132
20
0.897895683931608
30
0
41
1
10
99.3087710764868
20
0.25399800698662
30
0
41
1
10
99.5063480192486
20
-0.392887408250317
30
0
0
SPLINE
5
163
100
AcDbEntity
8
1
62
256
6
ByLayer
370
18
48
1
60
0
100
AcDbSpline
70
4
71
3
72
14
73
10
40
0
40
0
40
0
40
0
40
0.25
40
0.25
40
0.5
40
0.5
40
0.75
40
0.75
40
1
40
1
40
1
40
1
41
1
10
14.3419010080107
20
-1.77338442674366
30
0
41
1
10
14.4017294312528
20
-1.79131208484367
30
0
41
1
10
14.46648788136
20
-1.81130347750943
30
0
41
1
10
14.6072590136235
20
-1.85653745432967
30
0
41
1
10
14.6832670444411
20
-1.88180500460223
30
0
41
1
10
14.8425710881515
20
-1.9365080391791
30
0
41
1
10
14.9264044710433
20
-1.96611422103359
30
0
41
1
10
15.1028109945305
20
-2.02958108877917
30
0
41
1
10
15.1958291208891
20
-2.06360683195288
30
0
41
1
10
15.2915932320021
20
-2.09869394065666
30
0
0
SPLINE
5
164
100
AcDbEntity
8
1
62
256
6
ByLayer
370
18
48
1
60
0
100
AcDbSpline
70
4
71
3
72
10
73
6
40
0
40
0
40
0
40
0
40
0.155144147761956
40
0.155144147761956
40
1
40
1
40
1
40
1
41
1
10
98.9589319428437
20
-8.19997873690633
30
0
41
1
10
98.862778305984
20
-8.19990445951623
30
0
41
1
10
98.7666125114976
20
-8.19945571454997
30
0
41
1
10
98.14664826649
20
-8.19415018395964
30
0
41
1
10
97.6225648177287
20
-8.1785740980043
30
0
41
1
10
97.0989547699445
20
-8.1518795731584
30
0
0
SPLINE
5
165
100
AcDbEntity
8
1
62
256
6
ByLayer
370
18
48
1
60
0
100
AcDbSpline
70
4
71
3
72
18
73
14
40
0
40
0
40
0
40
0
40
0.49726512033146
40
0.49726512033146
40
0.745897680497173
40
0.745897680497173
40
0.870213960580029
40
0.870213960580029
40
0.932372100621457
40
0.932372100621457
40
0.994530240662885
40
0.994530240662885
40
1
40
1
40
1
40
1
41
1
10
86.5604039473675
20
6.1001024071974
30
0
41
1
10
86.2180741870841
20
6.01897829467489
30
0
41
1
10
85.8758472015631
20
5.93544209639657
30
0
41
1
10
85.3626204761766
20
5.80661883646698
30
0
41
1
10
85.1915640881139
20
5.76309066852735
30
0
41
1
10
84.9350025581929
20
5.69693131133627
30
0
41
1
10
84.8494857314975
20
5.67473405332214
30
0
41
1
10
84.721216017815
20
5.64122191598673
30
0
41
1
10
84.678687284779
20
5.62946790274535
30
0
41
1
10
84.5924246921482
20
5.60879771496266
30
0
41
1
10
84.5492651132918
20
5.59850214023496
30
0
41
1
10
84.5022747479376
20
5.58734988988948
30
0
41
1
10
84.4984739200711
20
5.58644825971379
30
0
41
1
10
84.494672855876
20
5.58554699521045
30
0
0
SPLINE
5
166
100
AcDbEntity
8
1
62
256
6
ByLayer
370
18
48
1
60
0
100
AcDbSpline
70
4
71
3
72
14
73
10
40
0
40
0
40
0
40
0
40
0.25
40
0.25
40
0.5
40
0.5
40
0.75
40
0.75
40
1
40
1
40
1
40
1
41
1
10
103.456391493336
20
7.88232000621966
30
0
41
1
10
102.959681412431
20
7.96095729891758
30
0
41
1
10
102.464077390167
20
8.03001569367686
30
0
41
1
10
101.472760058009
20
8.14779329097988
30
0
41
1
10
100.977385079345
20
8.19676248731926
30
0
41
1
10
99.9872961066156
20
8.27493843084653
30
0
41
1
10
99.4928368671331
20
8.3041630500164
30
0
41
1
10
98.5028022708624
20
8.34220794745409
30
0
41
1
10
98.0071544397368
20
8.351097864194
30
0
41
1
10
97.5111125806847
20
8.34989235020217
30
0
0
SPLINE
5
167
100
AcDbEntity
8
1
62
256
6
ByLayer
370
18
48
1
60
0
100
AcDbSpline
70
4
71
3
72
32
73
28
40
0
40
0
40
0
40
0
40
0.0625000000000031
40
0.0625000000000031
40
0.125000000000006
40
0.125000000000006
40
0.250000000000012
40
0.250000000000012
40
0.312500000000016
40
0.312500000000016
40
0.375000000000019
40
0.375000000000019
40
0.437500000000022
40
0.437500000000022
40
0.500000000000025
40
0.500000000000025
40
0.62500000000002
40
0.62500000000002
40
0.687500000000017
40
0.687500000000017
40
0.750000000000014
40
0.750000000000014
40
0.812500000000011
40
0.812500000000011
40
0.875000000000009
40
0.875000000000009
40
1
40
1
40
1
40
1
41
1
10
85.3247818396152
20
-3.51815490796011
30
0
41
1
10
85.4366694428508
20
-3.54031800121078
30
0
41
1
10
85.5494660214287
20
-3.55670196316657
30
0
41
1
10
85.7768610946288
20
-3.57815609860705
30
0
41
1
10
85.8917906643586
20
-3.58317571299338
30
0
41
1
10
86.2329519029886
20
-3.58114117770654
30
0
41
1
10
86.4575127946673
20
-3.55756822464835
30
0
41
1
10
86.7900114760151
20
-3.4880952163777
30
0
41
1
10
86.9003683949175
20
-3.45902231709172
30
0
41
1
10
87.1141353139742
20
-3.39046434146306
30
0
41
1
10
87.2182359723186
20
-3.35087126915806
30
0
41
1
10
87.4209391286336
20
-3.26089863417874
30
0
41
1
10
87.5195418268696
20
-3.21052024575647
30
0
41
1
10
87.7111022326333
20
-3.09833924497451
30
0
41
1
10
87.8038127824059
20
-3.03656280056899
30
0
41
1
10
88.0664484410338
20
-2.83817618187339
30
0
41
1
10
88.2235115748921
20
-2.68732845510073
30
0
41
1
10
88.4315508865765
20
-2.43053271437563
30
0
41
1
10
88.4953889455027
20
-2.3407869948912
30
0
41
1
10
88.6109418579902
20
-2.15529431328699
30
0
41
1
10
88.6629314929496
20
-2.05920992830392
30
0
41
1
10
88.7556086745333
20
-1.86029791326285
30
0
41
1
10
88.7962957169023
20
-1.75747050739719
30
0
41
1
10
88.8662838076135
20
-1.5448159427138
30
0
41
1
10
88.8950107778652
20
-1.4366453268056
30
0
41
1
10
88.9631498171511
20
-1.1090856309994
30
0
41
1
10
88.9850081038203
20
-0.885682172874596
30
0
41
1
10
88.9850083611185
20
-0.657345665555368
30
0
0
SPLINE
5
168
100
AcDbEntity
8
1
62
256
6
ByLayer
370
18
48
1
60
0
100
AcDbSpline
70
4
71
3
72
8
73
4
40
0
40
0
40
0
40
0
40
1
40
1
40
1
40
1
41
1
10
86.5847905002445
20
5.93856876654598
30
0
41
1
10
86.5897605681299
20
5.94849941500328
30
0
41
1
10
86.5947298568738
20
5.95843335990091
30
0
41
1
10
86.5996983669181
20
5.96837059469692
30
0
0
SPLINE
5
169
100
AcDbEntity
8
1
62
256
6
ByLayer
370
18
48
1
60
0
100
AcDbSpline
70
4
71
3
72
8
73
4
40
0
40
0
40
0
40
0
40
1
40
1
40
1
40
1
41
1
10
95.8000000000001
20
2.53072612928454
30
0
41
1
10
95.6538329701278
20
2.54198203525561
30
0
41
1
10
95.507662234289
20
2.55298776683139
30
0
41
1
10
95.3614882571382
20
2.56374072208928
30
0
0
SPLINE
5
16A
100
AcDbEntity
8
1
62
256
6
ByLayer
370
18
48
1
60
0
100
AcDbSpline
70
4
71
3
72
8
73
4
40
0
40
0
40
0
40
0
40
1
40
1
40
1
40
1
41
1
10
86.4837470353168
20
5.63441938792565
30
0
41
1
10
86.2917418448
20
5.59350126026234
30
0
41
1
10
86.0997542598703
20
5.55188297277323
30
0
41
1
10
85.9077807621476
20
5.50958704326126
30
0
0
SPLINE
5
16B
100
AcDbEntity
8
1
62
256
6
ByLayer
370
18
48
1
60
0
100
AcDbSpline
70
4
71
3
72
8
73
4
40
0
40
0
40
0
40
0
40
1
40
1
40
1
40
1
41
1
10
96.89
20
-7.61512014616562
30
0
41
1
10
96.9080090171146
20
-7.62188457860995
30
0
41
1
10
96.9260180153616
20
-7.62864906128564
30
0
41
1
10
96.9440269947252
20
-7.63541359423402
30
0
0
SPLINE
5
16C
100
AcDbEntity
8
1
62
256
6
ByLayer
370
18
48
1
60
0
100
AcDbSpline
70
4
71
3
72
8
73
4
40
0
40
0
40
0
40
0
40
1
40
1
40
1
40
1
41
1
10
15.666406648782
20
6.36816235273506
30
0
41
1
10
15.7755924648726
20
6.38359090388184
30
0
41
1
10
15.887258073465
20
6.39866078387533
30
0
41
1
10
16
20
6.41344698724387
30
0
0
SPLINE
5
16D
100
AcDbEntity
8
1
62
256
6
ByLayer
370
18
48
1
60
0
100
AcDbSpline
70
4
71
3
72
12
73
8
40
0
40
0
40
0
40
0
40
0.5
40
0.5
40
0.75
40
0.75
40
1
40
1
40
1
40
1
41
1
10
95.8
20
3.55000000000001
30
0
41
1
10
95.8
20
3.3369810124162
30
0
41
1
10
95.7999999999999
20
3.14611292702728
30
0
41
1
10
95.8
20
2.89118191855789
30
0
41
1
10
95.8000000000001
20
2.8114796240568
30
0
41
1
10
95.8000000000001
20
2.66285561194397
30
0
41
1
10
95.8
20
2.59382600256745
30
0
41
1
10
95.8
20
2.53072612928454
30
0
0
SPLINE
5
16E
100
AcDbEntity
8
1
62
256
6
ByLayer
370
18
48
1
60
0
100
AcDbSpline
70
2053
71
3
72
39
73
35
40
0
40
0
40
0
40
0
40
0.0303163288812076
40
0.0624401287796428
40
0.0936072604596791
40
0.12490199009185
40
0.156196505287912
40
0.187391222880356
40
0.219467419848935
40
0.249874407208064
40
0.280274409624207
40
0.312387402588644
40
0.34357794062993
40
0.374908262191763
40
0.40608278031521
40
0.437412999498145
40
0.469563433901572
40
0.499852976521334
40
0.530193593457084
40
0.562433048013604
40
0.593712324325977
40
0.624997499384324
40
0.656199974828639
40
0.687540950290212
40
0.719637354276417
40
0.749991513532559
40
0.780339002024842
40
0.812405351652558
40
0.843727581271915
40
0.8748875297407
40
0.90622728563246
40
0.937456355640532
40
0.969671714188269
40
1
40
1
40
1
40
1
41
1
10
93.05
20
-4.06131148991892
30
0
41
1
10
92.9320436937984
20
-4.0613120806457
30
0
41
1
10
92.6890983724314
20
-4.08235793005218
30
0
41
1
10
92.3393415623212
20
-4.17555149812461
30
0
41
1
10
92.0153472116839
20
-4.32669403101451
30
0
41
1
10
91.7343495536574
20
-4.52244074729177
30
0
41
1
10
91.5034176917625
20
-4.75334501820828
30
0
41
1
10
91.3295909272524
20
-5.00956095693462
30
0
41
1
10
91.2236937555687
20
-5.27403719396528
30
0
41
1
10
91.1886131529938
20
-5.53454453303888
30
0
41
1
10
91.2231239449241
20
-5.78175338426564
30
0
41
1
10
91.3285247853426
20
-6.00895161686702
30
0
41
1
10
91.5020240622403
20
-6.20781475807931
30
0
41
1
10
91.7323806343172
20
-6.37132337124561
30
0
41
1
10
92.0132310703885
20
-6.49961492689002
30
0
41
1
10
92.3372303060002
20
-6.59236134301253
30
0
41
1
10
92.687506575669
20
-6.64743853426845
30
0
41
1
10
93.0484641536448
20
-6.66495299231835
30
0
41
1
10
93.4098419960738
20
-6.64771049849233
30
0
41
1
10
93.7606048232568
20
-6.59284686807939
30
0
41
1
10
94.0853062511619
20
-6.50016042436835
30
0
41
1
10
94.3661877578259
20
-6.37213226773957
30
0
41
1
10
94.5971326486117
20
-6.20857424050106
30
0
41
1
10
94.7709552173874
20
-6.00984347005831
30
0
41
1
10
94.8766284820181
20
-5.78248948172453
30
0
41
1
10
94.9113477918109
20
-5.53569289956246
30
0
41
1
10
94.8766862533833
20
-5.27552807877206
30
0
41
1
10
94.771162275595
20
-5.0108901555669
30
0
41
1
10
94.5976356429284
20
-4.75461594850177
30
0
41
1
10
94.3668769049073
20
-4.52350590611567
30
0
41
1
10
94.0862294420737
20
-4.32756336166909
30
0
41
1
10
93.7617001951951
20
-4.17587665418412
30
0
41
1
10
93.4113506950604
20
-4.08239751546336
30
0
41
1
10
93.1680028288319
20
-4.06131089895915
30
0
41
1
10
93.05
20
-4.06131148991892
30
0
0
SPLINE
5
16F
100
AcDbEntity
8
1
62
256
6
ByLayer
370
18
48
1
60
0
100
AcDbSpline
70
4
71
3
72
8
73
4
40
0
40
0
40
0
40
0
40
1
40
1
40
1
40
1
41
1
10
21.7827682241094
20
-7.40697795475205
30
0
41
1
10
22.0117500400777
20
-7.39084499218629
30
0
41
1
10
22.2407284172119
20
-7.3742887297829
30
0
41
1
10
22.4697047447481
20
-7.35731209175185
30
0
0
SPLINE
5
170
100
AcDbEntity
8
1
62
256
6
ByLayer
370
18
48
1
60
0
100
AcDbSpline
70
4
71
2
72
6
73
3
40
0
40
0
40
0
40
1
40
1
40
1
41
0.500153611846481
10
98.7716394696865
20
-0.407799086925551
30
0
41
0.499846388153519
10
99.0720161531082
20
-0.408817800957992
30
0
41
0.500153611846481
10
99.3724031008562
20
-0.409836501182544
30
0
0
SPLINE
5
171
100
AcDbEntity
8
1
62
256
6
ByLayer
370
18
48
1
60
0
100
AcDbSpline
70
4
71
3
72
8
73
4
40
0
40
0
40
0
40
0
40
1
40
1
40
1
40
1
41
1
10
86.5272483976153
20
5.94233075940315
30
0
41
1
10
86.5514016454421
20
5.95100695783333
30
0
41
1
10
86.575551642712
20
5.95968691647425
30
0
41
1
10
86.5996983669181
20
5.96837059469692
30
0
0
SPLINE
5
172
100
AcDbEntity
8
1
62
256
6
ByLayer
370
18
48
1
60
0
100
AcDbSpline
70
4
71
1
72
4
73
2
40
0
40
0
40
1
40
1
41
1
10
18.1105327770983
20
6.69889522582275
30
0
41
1
10
18.0301864885242
20
6.19145425585697
30
0
0
SPLINE
5
173
100
AcDbEntity
8
1
62
256
6
ByLayer
370
18
48
1
60
0
100
AcDbSpline
70
4
71
3
72
8
73
4
40
0
40
0
40
0
40
0
40
1
40
1
40
1
40
1
41
1
10
105.986092560475
20
0.0595039339733603
30
0
41
1
10
105.974669631403
20
0.0974611581363831
30
0
41
1
10
105.963314873572
20
0.135285051215874
30
0
41
1
10
105.952027735971
20
0.17297669089416
30
0
0
SPLINE
5
174
100
AcDbEntity
8
1
62
256
6
ByLayer
370
18
48
1
60
0
100
AcDbSpline
70
4
71
3
72
8
73
4
40
0
40
0
40
0
40
0
40
1
40
1
40
1
40
1
41
1
10
19.4070000000291
20
-3.21018930550358
30
0
41
1
10
19.4070000000295
20
-3.37214464768348
30
0
41
1
10
19.40700000003
20
-3.53440772200162
30
0
41
1
10
19.4070000000305
20
-3.69697805330114
30
0
0
SPLINE
5
175
100
AcDbEntity
8
1
62
256
6
ByLayer
370
18
48
1
60
0
100
AcDbSpline
70
4
71
3
72
18
73
14
40
0
40
0
40
0
40
0
40
0.249999999999983
40
0.249999999999983
40
0.374999999999986
40
0.374999999999986
40
0.499999999999988
40
0.499999999999988
40
0.749999999999994
40
0.749999999999994
40
0.874999999999997
40
0.874999999999997
40
1
40
1
40
1
40
1
41
1
10
18.0303538156596
20
6.19292212926666
30
0
41
1
10
17.8796929291464
20
6.20492315557402
30
0
41
1
10
17.7291044461802
20
6.22083884622123
30
0
41
1
10
17.5032725213868
20
6.24976017110677
30
0
41
1
10
17.4280025811872
20
6.26023556226843
30
0
41
1
10
17.2774566287965
20
6.28265885644237
30
0
41
1
10
17.201817510287
20
6.2946695631278
30
0
41
1
10
16.9784415718273
20
6.33196185398126
30
0
41
1
10
16.833804112464
20
6.35851440644109
30
0
41
1
10
16.6223005823858
20
6.39928065806535
30
0
41
1
10
16.5527147918461
20
6.41302962242398
30
0
41
1
10
16.4152830713378
20
6.4406251908253
30
0
41
1
10
16.3473783526985
20
6.45448505179766
30
0
41
1
10
16.2812289725196
20
6.46810518080881
30
0
0
SPLINE
5
176
100
AcDbEntity
8
1
62
256
6
ByLayer
370
18
48
1
60
0
100
AcDbSpline
70
4
71
3
72
8
73
4
40
0
40
0
40
0
40
0
40
1
40
1
40
1
40
1
41
1
10
105.896558457331
20
-0.300004343660163
30
0
41
1
10
105.931009722982
20
-0.178355674677988
30
0
41
1
10
105.960577079806
20
-0.0586287106575298
30
0
41
1
10
105.986092560466
20
0.0595039339750656
30
0
0
SPLINE
5
177
100
AcDbEntity
8
1
62
256
6
ByLayer
370
18
48
1
60
0
100
AcDbSpline
70
4
71
3
72
14
73
10
40
0
40
0
40
0
40
0
40
0.249999999999999
40
0.249999999999999
40
0.5
40
0.5
40
0.75
40
0.75
40
1
40
1
40
1
40
1
41
1
10
105.809537154655
20
0.748074234483369
30
0
41
1
10
105.781871777041
20
0.86217264729305
30
0
41
1
10
105.747631660838
20
0.992674038181093
30
0
41
1
10
105.667371946034
20
1.28126157779604
30
0
41
1
10
105.621354696631
20
1.43933918155074
30
0
41
1
10
105.519388123706
20
1.77673201403727
30
0
41
1
10
105.463441547612
20
1.95603815193053
30
0
41
1
10
105.343862134692
20
2.3286897557731
30
0
41
1
10
105.280233659087
20
2.52202179574084
30
0
41
1
10
105.214036985575
20
2.71849927700734
30
0
0
SPLINE
5
178
100
AcDbEntity
8
1
62
256
6
ByLayer
370
18
48
1
60
0
100
AcDbSpline
70
4
71
3
72
32
73
28
40
0
40
0
40
0
40
0
40
0.260662821868628
40
0.260662821868628
40
0.630331410934395
40
0.630331410934395
40
0.676539984567616
40
0.676539984567616
40
0.722748558200838
40
0.722748558200838
40
0.768957131834058
40
0.768957131834058
40
0.81516570546728
40
0.81516570546728
40
0.861374279100501
40
0.861374279100501
40
0.884478565917111
40
0.884478565917111
40
0.896030709325416
40
0.896030709325416
40
0.901806781029567
40
0.901806781029567
40
0.904694816881641
40
0.904694816881641
40
0.907582852733714
40
0.907582852733714
40
1
40
1
40
1
40
1
41
1
10
61.7279446725038
20
7.34048800805104
30
0
41
1
10
63.6080860844528
20
7.33442092504816
30
0
41
1
10
65.4879157990104
20
7.30215189475413
30
0
41
1
10
70.0331841980328
20
7.16104300808536
30
0
41
1
10
72.6993902569332
20
7.02554979505396
30
0
41
1
10
75.6915186833841
20
6.80564788577664
30
0
41
1
10
76.0238960784032
20
6.78026880363578
30
0
41
1
10
76.6884972221908
20
6.72757635297466
30
0
41
1
10
77.0208325274058
20
6.70046408851397
30
0
41
1
10
77.6836533995217
20
6.64127712844831
30
0
41
1
10
78.0143308584471
20
6.609490572921
30
0
41
1
10
78.6736464697863
20
6.54006364456777
30
0
41
1
10
79.0022985370443
20
6.50248092789903
30
0
41
1
10
79.6565074539457
20
6.41869761079607
30
0
41
1
10
79.9821416551761
20
6.37270178960569
30
0
41
1
10
80.4663063350107
20
6.29181599775038
30
0
41
1
10
80.6269762329943
20
6.26286255345397
30
0
41
1
10
80.866104726944
20
6.21442059456734
30
0
41
1
10
80.9454952335506
20
6.19742319415079
30
0
41
1
10
81.0638793845762
20
6.17009347199689
30
0
41
1
10
81.1032247999761
20
6.16067976309205
30
0
41
1
10
81.1620070629765
20
6.1459532778965
30
0
41
1
10
81.1813376510228
20
6.14044707428243
30
0
41
1
10
81.2214770237914
20
6.13267186907154
30
0
41
1
10
81.241537926762
20
6.12875566830704
30
0
41
1
10
81.9037528352197
20
5.99967348434137
30
0
41
1
10
82.5461685877813
20
5.86591460960136
30
0
41
1
10
83.1890699308189
20
5.72367450639425
30
0
0
SPLINE
5
179
100
AcDbEntity
8
1
62
256
6
ByLayer
370
18
48
1
60
0
100
AcDbSpline
70
4
71
3
72
20
73
16
40
0
40
0
40
0
40
0
40
0.25
40
0.25
40
0.375
40
0.375
40
0.5
40
0.5
40
0.625
40
0.625
40
0.75
40
0.75
40
0.875
40
0.875
40
1
40
1
40
1
40
1
41
1
10
103.467553377458
20
-3.76360524008427
30
0
41
1
10
103.334059106996
20
-3.36620499881511
30
0
41
1
10
103.203861635557
20
-2.96776118218847
30
0
41
1
10
103.01457537652
20
-2.36819305624761
30
0
41
1
10
102.952905965331
20
-2.16788562268741
30
0
41
1
10
102.833030359896
20
-1.76617450194823
30
0
41
1
10
102.77398693214
20
-1.56498691454212
30
0
41
1
10
102.66015362403
20
-1.1614919127646
30
0
41
1
10
102.605030605945
20
-0.959323256357663
30
0
41
1
10
102.498691292078
20
-0.554068623817585
30
0
41
1
10
102.448015644466
20
-0.350855700542525
30
0
41
1
10
102.350650308233
20
0.0565060709406566
30
0
41
1
10
102.304550583006
20
0.260793445774311
30
0
41
1
10
102.218129571511
20
0.670725004457751
30
0
41
1
10
102.177957612638
20
0.876404251194657
30
0
41
1
10
102.142254766284
20
1.08313286995099
30
0
0
SPLINE
5
17A
100
AcDbEntity
8
1
62
256
6
ByLayer
370
18
48
1
60
0
100
AcDbSpline
70
4
71
3
72
8
73
4
40
0
40
0
40
0
40
0
40
1
40
1
40
1
40
1
41
1
10
105.986092560475
20
-0.0595039339750372
30
0
41
1
10
105.974669631402
20
-0.09746115813752
30
0
41
1
10
105.963314873572
20
-0.135285051216442
30
0
41
1
10
105.952027735971
20
-0.17297669089416
30
0
0
SPLINE
5
17B
100
AcDbEntity
8
1
62
256
6
ByLayer
370
18
48
1
60
0
100
AcDbSpline
70
4
71
3
72
17
73
13
40
0
40
0
40
0
40
0
40
0.102574121114634
40
0.204567639825998
40
0.305983676167099
40
0.406825403774589
40
0.507096050818829
40
0.606798900943291
40
0.70593729421275
40
0.80451462806981
40
0.902534358299336
40
1
40
1
40
1
40
1
41
1
10
99.3724030759296
20
-0.409836876527351
30
0
41
1
10
99.3590737072025
20
-0.364960240742079
30
0
41
1
10
99.3324904182477
20
-0.275460985314282
30
0
41
1
10
99.293660718531
20
-0.141205290360603
30
0
41
1
10
99.2557423810829
20
-0.0074797982888413
30
0
41
1
10
99.2188012440265
20
0.125706862852667
30
0
41
1
10
99.1828194545546
20
0.258308507772341
30
0
41
1
10
99.1478030959374
20
0.390289995465963
30
0
41
1
10
99.113745596349
20
0.521614955010278
30
0
41
1
10
99.0806670437673
20
0.652246688481256
30
0
41
1
10
99.0484942319543
20
0.782156656097897
30
0
41
1
10
99.0277714344844
20
0.868489156367389
30
0
41
1
10
99.0174394043519
20
0.911533055024876
30
0
0
SPLINE
5
17C
100
AcDbEntity
8
1
62
256
6
ByLayer
370
18
48
1
60
0
100
AcDbSpline
70
4
71
3
72
14
73
10
40
0
40
0
40
0
40
0
40
0.499999999999996
40
0.499999999999996
40
0.749999999999995
40
0.749999999999995
40
0.874999999999997
40
0.874999999999997
40
1
40
1
40
1
40
1
41
1
10
88.985008361938
20
4.72401169117686
30
0
41
1
10
90.6522598175069
20
4.17252603464371
30
0
41
1
10
92.3170591804048
20
3.56670933306597
30
0
41
1
10
94.823387081918
20
2.60355306785851
30
0
41
1
10
95.6601956581225
20
2.27307972383062
30
0
41
1
10
96.9194145410881
20
1.76768885306601
30
0
41
1
10
97.3398733365462
20
1.59755419887944
30
0
41
1
10
98.1792065745884
20
1.25576891852043
30
0
41
1
10
98.5984683967279
20
1.08396624601602
30
0
41
1
10
99.0174401347791
20
0.911533497732506
30
0
0
SPLINE
5
17D
100
AcDbEntity
8
1
62
256
6
ByLayer
370
18
48
1
60
0
100
AcDbSpline
70
4
71
3
72
10
73
6
40
0
40
0
40
0
40
0
40
0.5
40
0.5
40
1
40
1
40
1
40
1
41
1
10
12.8892231397341
20
-1.21735463427615
30
0
41
1
10
13.1202657623662
20
-1.30462776913953
30
0
41
1
10
13.3567029316229
20
-1.39601372331586
30
0
41
1
10
13.840598918591
20
-1.58278783540348
30
0
41
1
10
14.0880464006585
20
-1.67818998816571
30
0
41
1
10
14.3419010080109
20
-1.77338442674372
30
0
0
SPLINE
5
17E
100
AcDbEntity
8
1
62
256
6
ByLayer
370
18
48
1
60
0
100
AcDbSpline
70
4
71
3
72
14
73
10
40
0
40
0
40
0
40
0
40
0.25
40
0.25
40
0.5
40
0.5
40
0.75
40
0.75
40
1
40
1
40
1
40
1
41
1
10
87.0750703591682
20
5.89467432659566
30
0
41
1
10
87.0460064663382
20
5.9102055114748
30
0
41
1
10
87.0147059214927
20
5.92388020480979
30
0
41
1
10
86.945818589548
20
5.94622298527898
30
0
41
1
10
86.9083073585613
20
5.95479600060636
30
0
41
1
10
86.8272766263827
20
5.96464629075768
30
0
41
1
10
86.7833066006986
20
5.96601545142337
30
0
41
1
10
86.6872990317058
20
5.9592856041987
30
0
41
1
10
86.6372011348296
20
5.95131606773342
30
0
41
1
10
86.5847905002395
20
5.93856876653621
30
0
0
SPLINE
5
17F
100
AcDbEntity
8
1
62
256
6
ByLayer
370
18
48
1
60
0
100
AcDbSpline
70
4
71
3
72
12
73
8
40
0
40
0
40
0
40
0
40
0.499999999999985
40
0.499999999999985
40
0.749999999999993
40
0.749999999999993
40
1
40
1
40
1
40
1
41
1
10
16.2812289725196
20
6.46810518080881
30
0
41
1
10
16.4872544412485
20
6.53794335178986
30
0
41
1
10
16.7016743135344
20
6.59484229971298
30
0
41
1
10
17.0360168654022
20
6.66242040068681
30
0
41
1
10
17.148496182725
20
6.68169953361644
30
0
41
1
10
17.3736600003878
20
6.71368220700026
30
0
41
1
10
17.4866314713409
20
6.72644477885771
30
0
41
1
10
17.6
20
6.73591485336396
30
0
0
SPLINE
5
180
100
AcDbEntity
8
1
62
256
6
ByLayer
370
18
48
1
60
0
100
AcDbSpline
70
4
71
3
72
10
73
6
40
0
40
0
40
0
40
0
40
0.172596851585422
40
0.598671322034389
40
1
40
1
40
1
40
1
41
1
10
96.0097923251506
20
-7.38820307385805
30
0
41
1
10
96.0086704850065
20
-7.39073754711535
30
0
41
1
10
96.005096485892
20
-7.39949867267632
30
0
41
1
10
96.0009411136921
20
-7.41392334716781
30
0
41
1
10
96.0003073867756
20
-7.42554506093012
30
0
41
1
10
96.0000000000003
20
-7.43118212797398
30
0
0
SPLINE
5
181
100
AcDbEntity
8
1
62
256
6
ByLayer
370
18
48
1
60
0
100
AcDbSpline
70
4
71
1
72
4
73
2
40
0
40
0
40
1
40
1
41
1
10
16.2033411294156
20
-2.34032392828129
30
0
41
1
10
16.070986967693
20
-2.87171928642249
30
0
0
SPLINE
5
182
100
AcDbEntity
8
1
62
256
6
ByLayer
370
18
48
1
60
0
100
AcDbSpline
70
4
71
3
72
14
73
10
40
0
40
0
40
0
40
0
40
0.329969216875484
40
0.329969216875484
40
0.664984608437734
40
0.664984608437734
40
0.832492304218867
40
0.832492304218867
40
1
40
1
40
1
40
1
41
1
10
98.9885408094019
20
8.34999997458127
30
0
41
1
10
99.4662609258178
20
8.35000147641313
30
0
41
1
10
99.9436919441304
20
8.34054585660371
30
0
41
1
10
100.906476257312
20
8.3025725071098
30
0
41
1
10
101.391669026797
20
8.27378538389712
30
0
41
1
10
102.119396136616
20
8.21627249627593
30
0
41
1
10
102.361983263246
20
8.19471535547453
30
0
41
1
10
102.847098774096
20
8.1468234216247
30
0
41
1
10
103.089203714367
20
8.12029620645976
30
0
41
1
10
103.331773701359
20
8.09162306984035
30
0
0
SPLINE
5
183
100
AcDbEntity
8
1
62
256
6
ByLayer
370
18
48
1
60
0
100
AcDbSpline
70
4
71
3
72
21
73
17
40
0
40
0
40
0
40
0
40
0.028507568388479
40
0.0569326266833338
40
0.085344723494233
40
0.113813502425059
40
0.142408192927599
40
0.213406663770106
40
0.283899719249202
40
0.355066706712637
40
0.42529108808538
40
0.565968327046691
40
0.706131079654517
40
0.845922323851895
40
0.985279927329684
40
1
40
1
40
1
40
1
41
1
10
95.9000039863025
20
-7.52707054245047
30
0
41
1
10
95.9002426282699
20
-7.52230825210481
30
0
41
1
10
95.9007192214979
20
-7.51279745501705
30
0
41
1
10
95.9045514162794
20
-7.49819026271601
30
0
41
1
10
95.9106695937471
20
-7.48338409836069
30
0
41
1
10
95.9192935896787
20
-7.46835577565309
30
0
41
1
10
95.9358161319883
20
-7.44563321585872
30
0
41
1
10
95.9658488947148
20
-7.41506453492713
30
0
41
1
10
96.0177841596384
20
-7.37705599606878
30
0
41
1
10
96.0828607404565
20
-7.34015707475009
30
0
41
1
10
96.1865103147871
20
-7.29370833725687
30
0
41
1
10
96.3453237802781
20
-7.24296418273192
30
0
41
1
10
96.5726327404494
20
-7.20249321690983
30
0
41
1
10
96.819375516527
20
-7.18973673307121
30
0
41
1
10
96.9916867901727
20
-7.2018302294004
30
0
41
1
10
97.0765607181904
20
-7.21374728431215
30
0
41
1
10
97.0846692931603
20
-7.21488580040807
30
0
0
SPLINE
5
184
100
AcDbEntity
8
1
62
256
6
ByLayer
370
18
48
1
60
0
100
AcDbSpline
70
4
71
3
72
14
73
10
40
0
40
0
40
0
40
0
40
0.5
40
0.5
40
0.625
40
0.625
40
0.75
40
0.75
40
1
40
1
40
1
40
1
41
1
10
103.176513776792
20
-8.1887615882149
30
0
41
1
10
102.94644531659
20
-8.21842151751653
30
0
41
1
10
102.736123590191
20
-8.19012740312701
30
0
41
1
10
102.49976636261
20
-8.07685391137582
30
0
41
1
10
102.453836399022
20
-8.05026214155666
30
0
41
1
10
102.364769872154
20
-7.98888034264524
30
0
41
1
10
102.321675515192
20
-7.95408963413172
30
0
41
1
10
102.197904847682
20
-7.83807056397239
30
0
41
1
10
102.122310073055
20
-7.74497220189167
30
0
41
1
10
102.053936197705
20
-7.6354342067431
30
0
0
SPLINE
5
185
100
AcDbEntity
8
1
62
256
6
ByLayer
370
18
48
1
60
0
100
AcDbSpline
70
4
71
3
72
8
73
4
40
0
40
0
40
0
40
0
40
1
40
1
40
1
40
1
41
1
10
97.0989547699446
20
-7.92057904956465
30
0
41
1
10
97.0989547699466
20
-7.83935944792626
30
0
41
1
10
97.0444318013193
20
-7.74354432596914
30
0
41
1
10
96.9440269947252
20
-7.63541359423402
30
0
0
SPLINE
5
186
100
AcDbEntity
8
1
62
256
6
ByLayer
370
18
48
1
60
0
100
AcDbSpline
70
4
71
3
72
14
73
10
40
0
40
0
40
0
40
0
40
0.499999999999992
40
0.499999999999992
40
0.749999999999991
40
0.749999999999991
40
0.874999999999996
40
0.874999999999996
40
1
40
1
40
1
40
1
41
1
10
105.157391144758
20
2.88662905218868
30
0
41
1
10
104.990099407051
20
3.34876532539536
30
0
41
1
10
104.825332417565
20
3.81342925282217
30
0
41
1
10
104.582214354155
20
4.51446220612328
30
0
41
1
10
104.501853667202
20
4.74881930589089
30
0
41
1
10
104.382440103359
20
5.10148371985022
30
0
41
1
10
104.342786857155
20
5.21934242365285
30
0
41
1
10
104.264553613497
20
5.45345253265199
30
0
41
1
10
104.225894203567
20
5.56993667434784
30
0
41
1
10
104.187713664875
20
5.68582285342359
30
0
0
SPLINE
5
187
100
AcDbEntity
8
1
62
256
6
ByLayer
370
18
48
1
60
0
100
AcDbSpline
70
4
71
3
72
8
73
4
40
0
40
0
40
0
40
0
40
1
40
1
40
1
40
1
41
1
10
102.142254766284
20
1.08313286995099
30
0
41
1
10
102.146564688623
20
1.08964303770836
30
0
41
1
10
102.150853460364
20
1.09619280082941
30
0
41
1
10
102.155121075354
20
1.10278224156522
30
0
0
SPLINE
5
188
100
AcDbEntity
8
1
62
256
6
ByLayer
370
18
48
1
60
0
100
AcDbSpline
70
4
71
3
72
8
73
4
40
0
40
0
40
0
40
0
40
1
40
1
40
1
40
1
41
1
10
83.1949003844226
20
-5.73670856275027
30
0
41
1
10
83.1929547751651
20
-5.73237188707921
30
0
41
1
10
83.1910112902855
20
-5.72802720292771
30
0
41
1
10
83.1890699308188
20
-5.72367450639425
30
0
0
SPLINE
5
189
100
AcDbEntity
8
1
62
256
6
ByLayer
370
18
48
1
60
0
100
AcDbSpline
70
4
71
2
72
6
73
3
40
0
40
0
40
0
40
1
40
1
40
1
41
0.500000008799365
10
18.1105327770983
20
6.69889522582279
30
0
41
0.499999991200635
10
18.1102236236645
20
6.69787693508977
30
0
41
0.500000008799365
10
18.1099143460015
20
6.69685781495598
30
0
0
SPLINE
5
18A
100
AcDbEntity
8
1
62
256
6
ByLayer
370
18
48
1
60
0
100
AcDbSpline
70
4
71
1
72
4
73
2
40
0
40
0
40
1
40
1
41
1
10
100.194193497706
20
-2.36546388434218
30
0
41
1
10
100.201439073076
20
-2.37980965201979
30
0
0
SPLINE
5
18B
100
AcDbEntity
8
1
62
256
6
ByLayer
370
18
48
1
60
0
100
AcDbSpline
70
4
71
3
72
8
73
4
40
0
40
0
40
0
40
0
40
1
40
1
40
1
40
1
41
1
10
103.383556792903
20
-7.94025479621368
30
0
41
1
10
103.296391559413
20
-8.07700571568739
30
0
41
1
10
103.227314406217
20
-8.16002789685666
30
0
41
1
10
103.176513776792
20
-8.1887615882149
30
0
0
SPLINE
5
18C
100
AcDbEntity
8
1
62
256
6
ByLayer
370
13
48
1
60
0
100
AcDbSpline
70
4
71
3
72
8
73
4
40
0
40
0
40
0
40
0
40
1
40
1
40
1
40
1
41
1
10
105.057598843601
20
0.772850415682171
30
0
41
1
10
105.065187370089
20
0.767637156362298
30
0
41
1
10
105.072808956651
20
0.762465088946129
30
0
41
1
10
105.080462407282
20
0.757333692235022
30
0
0
SPLINE
5
18D
100
AcDbEntity
8
1
62
256
6
ByLayer
370
18
48
1
60
0
100
AcDbSpline
70
2053
71
3
72
39
73
35
40
0
40
0
40
0
40
0
40
0.0311591802400564
40
0.0622713420235683
40
0.0934103956628657
40
0.12471139722398
40
0.155893072864452
40
0.187298327448879
40
0.218601282022461
40
0.250008546016581
40
0.281453052503223
40
0.31275556541933
40
0.344179498175187
40
0.375403543431218
40
0.40664987028539
40
0.437838862819484
40
0.468978924302176
40
0.500146323967762
40
0.531218546810866
40
0.562314634678806
40
0.593554682214441
40
0.624690761959475
40
0.656043061148185
40
0.687316429288485
40
0.718690603316294
40
0.750126321565969
40
0.781441451164842
40
0.812905818755449
40
0.844182963035866
40
0.875499013449764
40
0.90675469928082
40
0.937831799971955
40
0.969023680026771
40
1
40
1
40
1
40
1
41
1
10
93.0500000000001
20
-4.04663109054496
30
0
41
1
10
93.1770171499941
20
-4.04663171348812
30
0
41
1
10
93.430865873791
20
-4.06918731535018
30
0
41
1
10
93.7956294585115
20
-4.16800237903402
30
0
41
1
10
94.1305522755993
20
-4.32485486925273
30
0
41
1
10
94.4231216157949
20
-4.52982069471449
30
0
41
1
10
94.66363660364
20
-4.77178730906041
30
0
41
1
10
94.8427360996016
20
-5.03780150526717
30
0
41
1
10
94.9536279489272
20
-5.3155976133207
30
0
41
1
10
94.9912046401602
20
-5.59184664513418
30
0
41
1
10
94.9535420636341
20
-5.85454081732149
30
0
41
1
10
94.8424609452052
20
-6.09393467541034
30
0
41
1
10
94.6631128153201
20
-6.30246563954114
30
0
41
1
10
94.4224032348789
20
-6.47617387025801
30
0
41
1
10
94.1295895875733
20
-6.61249542500107
30
0
41
1
10
93.7944747742552
20
-6.71046851739294
30
0
41
1
10
93.4292761809345
20
-6.76945202007306
30
0
41
1
10
93.0485782373131
20
-6.78902991736237
30
0
41
1
10
92.6681436403053
20
-6.76914983743418
30
0
41
1
10
92.3034291865894
20
-6.71000196432342
30
0
41
1
10
91.9688860864989
20
-6.61191194958721
30
0
41
1
10
91.6761041282637
20
-6.4753144172395
30
0
41
1
10
91.4360087496065
20
-6.30165892728255
30
0
41
1
10
91.2568901254537
20
-6.09287611307326
30
0
41
1
10
91.1461523132452
20
-5.85360285200915
30
0
41
1
10
91.1088369633208
20
-5.59090651988237
30
0
41
1
10
91.1466464031274
20
-5.31447343894851
30
0
41
1
10
91.2577619383966
20
-5.03684187252762
30
0
41
1
10
91.4374613034213
20
-4.77045505491111
30
0
41
1
10
91.6781556941035
20
-4.52870694175371
30
0
41
1
10
91.9710934535215
20
-4.32394519208125
30
0
41
1
10
92.3060649073289
20
-4.16737441321007
30
0
41
1
10
92.6703121181427
20
-4.06901408489088
30
0
41
1
10
92.9237282608211
20
-4.0466304712576
30
0
41
1
10
93.0500000000001
20
-4.04663109054496
30
0
0
SPLINE
5
18E
100
AcDbEntity
8
SK1
62
256
6
ByLayer
370
18
48
1
60
0
100
AcDbSpline
70
4
71
3
72
68
73
64
40
0
40
0
40
0
40
0
40
0.0312499999999982
40
0.0312499999999982
40
0.046874999999998
40
0.046874999999998
40
0.0624999999999977
40
0.0624999999999977
40
0.0937499999999984
40
0.0937499999999984
40
0.109374999999998
40
0.109374999999998
40
0.124999999999998
40
0.124999999999998
40
0.156249999999998
40
0.156249999999998
40
0.187499999999998
40
0.187499999999998
40
0.249999999999999
40
0.249999999999999
40
0.281249999999999
40
0.281249999999999
40
0.312499999999999
40
0.312499999999999
40
0.374999999999999
40
0.374999999999999
40
0.4375
40
0.4375
40
0.46875
40
0.46875
40
0.5
40
0.5
40
0.562500000000001
40
0.562500000000001
40
0.593750000000001
40
0.593750000000001
40
0.625000000000002
40
0.625000000000002
40
0.687500000000002
40
0.687500000000002
40
0.718750000000002
40
0.718750000000002
40
0.750000000000002
40
0.750000000000002
40
0.812500000000003
40
0.812500000000003
40
0.828125000000002
40
0.828125000000002
40
0.843750000000002
40
0.843750000000002
40
0.875000000000001
40
0.875000000000001
40
0.890625000000001
40
0.890625000000001
40
0.90625
40
0.90625
40
0.9375
40
0.9375
40
0.953125
40
0.953125
40
0.96875
40
0.96875
40
1
40
1
40
1
40
1
41
1
10
-6.49999999999997
20
-5.92285193129121
30
0
41
1
10
-6.33154885731426
20
-5.92285193129121
30
0
41
1
10
-6.16649999660115
20
-5.90852604500998
30
0
41
1
10
-5.92366326713301
20
-5.86686260898483
30
0
41
1
10
-5.84351218542494
20
-5.84958640234103
30
0
41
1
10
-5.68479121831058
20
-5.80819694942255
30
0
41
1
10
-5.60578401963124
20
-5.78390949286566
30
0
41
1
10
-5.3755130586502
20
-5.70210438657261
30
0
41
1
10
-5.23040150353978
20
-5.63576008503463
30
0
41
1
10
-5.02388324980436
20
-5.51973068369702
30
0
41
1
10
-4.95691280564995
20
-5.47828589310487
30
0
41
1
10
-4.82656726111881
20
-5.38990512469778
30
0
41
1
10
-4.76344028356681
20
-5.34310223508027
30
0
41
1
10
-4.58224967992157
20
-5.19718203491362
30
0
41
1
10
-4.4712463803283
20
-5.09185813583983
30
0
41
1
10
-4.26572109507714
20
-4.86653318538578
30
0
41
1
10
-4.17106100725223
20
-4.74628556066756
30
0
41
1
10
-3.90966183539743
20
-4.36608870861338
30
0
41
1
10
-3.77014210155204
20
-4.09476951345764
30
0
41
1
10
-3.59557537485898
20
-3.66576223197777
30
0
41
1
10
-3.5432995036517
20
-3.51904778819107
30
0
41
1
10
-3.44875657999086
20
-3.21863479224763
30
0
41
1
10
-3.40657854218807
20
-3.06504134305448
30
0
41
1
10
-3.29445638220415
20
-2.60174839854997
30
0
41
1
10
-3.23788522203446
20
-2.28706820500588
30
0
41
1
10
-3.15042654850248
20
-1.64741181110122
30
0
41
1
10
-3.11961625583052
20
-1.3224279248613
30
0
41
1
10
-3.08903905021938
20
-0.827525561443139
30
0
41
1
10
-3.08151487535059
20
-0.661401493425245
30
0
41
1
10
-3.07158509981957
20
-0.330650499762129
30
0
41
1
10
-3.06914530935046
20
-0.16552511220226
30
0
41
1
10
-3.06912617883177
20
0.329115176337979
30
0
41
1
10
-3.07870960481154
20
0.657899259477574
30
0
41
1
10
-3.10886367144548
20
1.14957645984728
30
0
41
1
10
-3.12157829085984
20
1.31321779556742
30
0
41
1
10
-3.15301382663836
20
1.63997635400699
30
0
41
1
10
-3.17179577364169
20
1.80342210057933
30
0
41
1
10
-3.23780365003569
20
2.28702529223114
30
0
41
1
10
-3.29461555444993
20
2.60220286550486
30
0
41
1
10
-3.40608209976551
20
3.06309107495616
30
0
41
1
10
-3.44765477000672
20
3.21473113100859
30
0
41
1
10
-3.54149844295813
20
3.51371523568545
30
0
41
1
10
-3.59395060131033
20
3.66152013709689
30
0
41
1
10
-3.76989582752731
20
4.0946551835724
30
0
41
1
10
-3.90997479382301
20
4.36619025332939
30
0
41
1
10
-4.12575070768349
20
4.68046987077338
30
0
41
1
10
-4.17097066502382
20
4.74205687033935
30
0
41
1
10
-4.26600396832356
20
4.86254130681425
30
0
41
1
10
-4.31584034796885
20
4.92142662494757
30
0
41
1
10
-4.47077510964746
20
5.09144820130692
30
0
41
1
10
-4.58188757681339
20
5.19679902870035
30
0
41
1
10
-4.76206916652859
20
5.34204312553621
30
0
41
1
10
-4.82438853365235
20
5.38832209237188
30
0
41
1
10
-4.95395839245683
20
5.4763842939077
30
0
41
1
10
-5.02155288993663
20
5.5183478507837
30
0
41
1
10
-5.22922143177559
20
5.63524112422331
30
0
41
1
10
-5.37427976784161
20
5.70150323577644
30
0
41
1
10
-5.60262391278792
20
5.78286634969527
30
0
41
1
10
-5.68053816211989
20
5.80696924836369
30
0
41
1
10
-5.84021859914242
20
5.84884069926673
30
0
41
1
10
-5.92144228459227
20
5.86643352567475
30
0
41
1
10
-6.1660744508427
20
5.90854767474224
30
0
41
1
10
-6.33170271013566
20
5.92285193129121
30
0
41
1
10
-6.49999999999997
20
5.92285193129121
30
0
0
SPLINE
5
18F
100
AcDbEntity
8
SK1
62
256
6
ByLayer
370
18
48
1
60
0
100
AcDbSpline
70
4
71
3
72
68
73
64
40
0
40
0
40
0
40
0
40
0.0312500000000002
40
0.0312500000000002
40
0.0468750000000003
40
0.0468750000000003
40
0.0625000000000005
40
0.0625000000000005
40
0.0937500000000007
40
0.0937500000000007
40
0.109375000000001
40
0.109375000000001
40
0.125000000000001
40
0.125000000000001
40
0.156250000000001
40
0.156250000000001
40
0.187500000000001
40
0.187500000000001
40
0.25
40
0.25
40
0.28125
40
0.28125
40
0.3125
40
0.3125
40
0.375
40
0.375
40
0.4375
40
0.4375
40
0.46875
40
0.46875
40
0.5
40
0.5
40
0.5625
40
0.5625
40
0.59375
40
0.59375
40
0.625
40
0.625
40
0.6875
40
0.6875
40
0.71875
40
0.71875
40
0.75
40
0.75
40
0.8125
40
0.8125
40
0.828125
40
0.828125
40
0.84375
40
0.84375
40
0.875
40
0.875
40
0.890625
40
0.890625
40
0.90625
40
0.90625
40
0.9375
40
0.9375
40
0.953125
40
0.953125
40
0.96875
40
0.96875
40
1
40
1
40
1
40
1
41
1
10
-43.5
20
5.92285193129121
30
0
41
1
10
-43.6684511426857
20
5.92285193129121
30
0
41
1
10
-43.8335000033988
20
5.90852604500998
30
0
41
1
10
-44.076336732867
20
5.86686260898486
30
0
41
1
10
-44.156487814575
20
5.84958640234103
30
0
41
1
10
-44.3152087816894
20
5.80819694942255
30
0
41
1
10
-44.3942159803687
20
5.78390949286566
30
0
41
1
10
-44.6244869413498
20
5.70210438657261
30
0
41
1
10
-44.7695984964602
20
5.63576008503463
30
0
41
1
10
-44.9761167501956
20
5.51973068369705
30
0
41
1
10
-45.04308719435
20
5.47828589310487
30
0
41
1
10
-45.1734327388812
20
5.38990512469778
30
0
41
1
10
-45.2365597164332
20
5.34310223508027
30
0
41
1
10
-45.4177503200784
20
5.19718203491362
30
0
41
1
10
-45.5287536196717
20
5.09185813583983
30
0
41
1
10
-45.7342789049228
20
4.86653318538578
30
0
41
1
10
-45.8289389927477
20
4.74628556066759
30
0
41
1
10
-46.0903381646025
20
4.36608870861338
30
0
41
1
10
-46.2298578984479
20
4.09476951345764
30
0
41
1
10
-46.404424625141
20
3.66576223197777
30
0
41
1
10
-46.4567004963483
20
3.51904778819107
30
0
41
1
10
-46.5512434200091
20
3.21863479224763
30
0
41
1
10
-46.5934214578119
20
3.06504134305448
30
0
41
1
10
-46.7055436177958
20
2.60174839855
30
0
41
1
10
-46.7621147779655
20
2.28706820500588
30
0
41
1
10
-46.8495734514975
20
1.64741181110122
30
0
41
1
10
-46.8803837441695
20
1.3224279248613
30
0
41
1
10
-46.9109609497806
20
0.827525561443139
30
0
41
1
10
-46.9184851246494
20
0.661401493425245
30
0
41
1
10
-46.9284149001804
20
0.330650499762129
30
0
41
1
10
-46.9308546906495
20
0.16552511220226
30
0
41
1
10
-46.9308738211682
20
-0.329115176337979
30
0
41
1
10
-46.9212903951884
20
-0.657899259477574
30
0
41
1
10
-46.8911363285545
20
-1.14957645984728
30
0
41
1
10
-46.8784217091401
20
-1.31321779556742
30
0
41
1
10
-46.8469861733616
20
-1.63997635400699
30
0
41
1
10
-46.8282042263583
20
-1.80342210057933
30
0
41
1
10
-46.7621963499643
20
-2.28702529223114
30
0
41
1
10
-46.70538444555
20
-2.60220286550486
30
0
41
1
10
-46.5939179002344
20
-3.06309107495616
30
0
41
1
10
-46.5523452299933
20
-3.21473113100859
30
0
41
1
10
-46.4585015570418
20
-3.51371523568545
30
0
41
1
10
-46.4060493986897
20
-3.66152013709689
30
0
41
1
10
-46.2301041724726
20
-4.0946551835724
30
0
41
1
10
-46.090025206177
20
-4.36619025332939
30
0
41
1
10
-45.8742492923164
20
-4.68046987077341
30
0
41
1
10
-45.8290293349762
20
-4.74205687033935
30
0
41
1
10
-45.7339960316764
20
-4.86254130681425
30
0
41
1
10
-45.6841596520312
20
-4.92142662494757
30
0
41
1
10
-45.5292248903525
20
-5.09144820130692
30
0
41
1
10
-45.4181124231866
20
-5.19679902870035
30
0
41
1
10
-45.2379308334714
20
-5.34204312553621
30
0
41
1
10
-45.1756114663476
20
-5.38832209237188
30
0
41
1
10
-45.0460416075432
20
-5.4763842939077
30
0
41
1
10
-44.9784471100634
20
-5.5183478507837
30
0
41
1
10
-44.7707785682244
20
-5.63524112422331
30
0
41
1
10
-44.6257202321584
20
-5.70150323577644
30
0
41
1
10
-44.3973760872121
20
-5.78286634969527
30
0
41
1
10
-44.3194618378801
20
-5.80696924836371
30
0
41
1
10
-44.1597814008575
20
-5.84884069926673
30
0
41
1
10
-44.0785577154077
20
-5.86643352567475
30
0
41
1
10
-43.8339255491573
20
-5.90854767474224
30
0
41
1
10
-43.6682972898643
20
-5.92285193129121
30
0
41
1
10
-43.5
20
-5.92285193129121
30
0
0
LINE
5
70
100
AcDbEntity
8
81
62
256
6
ByLayer
370
18
48
1
60
0
100
AcDbLine
10
96
20
0
30
0
11
101
21
0
31
0
39
0
210
0
220
0
230
1
0
LINE
5
71
100
AcDbEntity
8
1
62
256
6
ByLayer
370
18
48
1
60
0
100
AcDbLine
10
0.2
20
12.5
30
0
11
0
21
12.3
31
0
39
0
210
0
220
0
230
1
0
LINE
5
73
100
AcDbEntity
8
1
62
256
6
ByLayer
370
18
48
1
60
0
100
AcDbLine
10
0
20
-12.3
30
0
11
0.2
21
-12.5
31
0
39
0
210
0
220
0
230
1
0
LINE
5
74
100
AcDbEntity
8
1
62
256
6
ByLayer
370
18
48
1
60
0
100
AcDbLine
10
5.0009
20
12.5
30
0
11
0.2
21
12.5
31
0
39
0
210
0
220
0
230
1
0
LINE
5
75
100
AcDbEntity
8
1
62
256
6
ByLayer
370
18
48
1
60
0
100
AcDbLine
10
0.2
20
-12.5
30
0
11
5.0009
21
-12.5
31
0
39
0
210
0
220
0
230
1
0
LINE
5
76
100
AcDbEntity
8
SK1
62
256
6
ByLayer
370
18
48
1
60
0
100
AcDbLine
10
-1.6
20
-9.99675
30
0
11
-1.144243
21
-9.784227
31
0
39
0
210
0
220
0
230
1
0
LINE
5
78
100
AcDbEntity
8
SK1
62
256
6
ByLayer
370
18
48
1
60
0
100
AcDbLine
10
-1.144243
20
9.784227
30
0
11
-1.6
21
9.99675
31
0
39
0
210
0
220
0
230
1
0
LINE
5
79
100
AcDbEntity
8
SK1
62
256
6
ByLayer
370
18
48
1
60
0
100
AcDbLine
10
-47.3
20
9.99675
30
0
11
-47.426311
21
9.888738
31
0
39
0
210
0
220
0
230
1
0
LINE
5
7A
100
AcDbEntity
8
SK1
62
256
6
ByLayer
370
18
48
1
60
0
100
AcDbLine
10
-47.426311
20
-9.888738
30
0
11
-47.3
21
-9.99675
31
0
39
0
210
0
220
0
230
1
0
LINE
5
7B
100
AcDbEntity
8
SK1
62
256
6
ByLayer
370
18
48
1
60
0
100
AcDbLine
10
-48.6
20
9.99675
30
0
11
-49
21
9.99675
31
0
39
0
210
0
220
0
230
1
0
LINE
5
7C
100
AcDbEntity
8
SK1
62
256
6
ByLayer
370
18
48
1
60
0
100
AcDbLine
10
-49
20
-9.99675
30
0
11
-48.6
21
-9.99675
31
0
39
0
210
0
220
0
230
1
0
LINE
5
7D
100
AcDbEntity
8
SK1
62
256
6
ByLayer
370
18
48
1
60
0
100
AcDbLine
10
-49
20
9.99675
30
0
11
-50
21
8.99675
31
0
39
0
210
0
220
0
230
1
0
LINE
5
7E
100
AcDbEntity
8
SK1
62
256
6
ByLayer
370
18
48
1
60
0
100
AcDbLine
10
-50
20
-8.99675
30
0
11
-49
21
-9.99675
31
0
39
0
210
0
220
0
230
1
0
LINE
5
7F
100
AcDbEntity
8
SK1
62
256
6
ByLayer
370
18
48
1
60
0
100
AcDbLine
10
-48.6
20
-9.99675
30
0
11
-48.449692
21
-9.875033
31
0
39
0
210
0
220
0
230
1
0
LINE
5
80
100
AcDbEntity
8
SK1
62
256
6
ByLayer
370
18
48
1
60
0
100
AcDbLine
10
-48.449692
20
9.875033
30
0
11
-48.6
21
9.99675
31
0
39
0
210
0
220
0
230
1
0
LINE
5
81
100
AcDbEntity
8
SK1
62
256
6
ByLayer
370
18
48
1
60
0
100
AcDbLine
10
-1.6
20
9.99675
30
0
11
-47.3
21
9.99675
31
0
39
0
210
0
220
0
230
1
0
LINE
5
82
100
AcDbEntity
8
SK1
62
256
6
ByLayer
370
18
48
1
60
0
100
AcDbLine
10
-47.3
20
-9.99675
30
0
11
-1.6
21
-9.99675
31
0
39
0
210
0
220
0
230
1
0
LINE
5
83
100
AcDbEntity
8
SK1
62
256
6
ByLayer
370
18
48
1
60
0
100
AcDbLine
10
-0.975195
20
-9.74675
30
0
11
-0.15
21
-9.74675
31
0
39
0
210
0
220
0
230
1
0
LINE
5
84
100
AcDbEntity
8
SK1
62
256
6
ByLayer
370
18
48
1
60
0
100
AcDbLine
10
-0.15
20
9.74675
30
0
11
-0.975195
21
9.74675
31
0
39
0
210
0
220
0
230
1
0
LINE
5
85
100
AcDbEntity
8
1
62
256
6
ByLayer
370
18
48
1
60
0
100
AcDbLine
10
12.803713
20
-8.571245
30
0
11
12.889223
21
-8.519399
31
0
39
0
210
0
220
0
230
1
0
LINE
5
86
100
AcDbEntity
8
1
62
256
6
ByLayer
370
18
48
1
60
0
100
AcDbLine
10
19.433041
20
7.85
30
0
11
17.6
21
7.85
31
0
39
0
210
0
220
0
230
1
0
LINE
5
87
100
AcDbEntity
8
1
62
256
6
ByLayer
370
18
48
1
60
0
100
AcDbLine
10
16
20
-7.65
30
0
11
17.6
21
-7.85
31
0
39
0
210
0
220
0
230
1
0
LINE
5
88
100
AcDbEntity
8
1
62
256
6
ByLayer
370
18
48
1
60
0
100
AcDbLine
10
17.6
20
-7.85
30
0
11
19.433041
21
-7.85
31
0
39
0
210
0
220
0
230
1
0
LINE
5
89
100
AcDbEntity
8
1
62
256
6
ByLayer
370
18
48
1
60
0
100
AcDbLine
10
12.889223
20
8.519399
30
0
11
12.803713
21
8.571245
31
0
39
0
210
0
220
0
230
1
0
LINE
5
8A
100
AcDbEntity
8
1
62
256
6
ByLayer
370
18
48
1
60
0
100
AcDbLine
10
17.6
20
7.85
30
0
11
16
21
7.65
31
0
39
0
210
0
220
0
230
1
0
LINE
5
8B
100
AcDbEntity
8
1
62
256
6
ByLayer
370
18
48
1
60
0
100
AcDbLine
10
98.98842
20
8.35
30
0
11
97.599343
21
8.35
31
0
39
0
210
0
220
0
230
1
0
LINE
5
8C
100
AcDbEntity
8
1
62
256
6
ByLayer
370
18
48
1
60
0
100
AcDbLine
10
97.599343
20
-8.35
30
0
11
98.98842
21
-8.35
31
0
39
0
210
0
220
0
230
1
0
LINE
5
8D
100
AcDbEntity
8
80
62
256
6
ByLayer
370
18
48
1
60
0
100
AcDbLine
10
0
20
0
30
0
11
-5
21
0
31
0
39
0
210
0
220
0
230
1
0
LINE
5
8E
100
AcDbEntity
8
4
62
256
6
ByLayer
370
18
48
0.05
60
0
100
AcDbLine
10
96
20
0
30
0
11
0
21
0
31
0
39
0
210
0
220
0
230
1
0
LINE
5
90
100
AcDbEntity
8
SK4
62
256
6
ByLayer
370
18
48
0.05
60
0
100
AcDbLine
10
111
20
0
30
0
11
-55
21
0
31
0
39
0
210
0
220
0
230
1
0
LINE
5
92
100
AcDbEntity
8
1
62
256
6
ByLayer
370
18
48
1
60
0
100
AcDbLine
10
99.63695
20
-0.315825
30
0
11
99.506348
21
-0.392888
31
0
39
0
210
0
220
0
230
1
0
LINE
5
93
100
AcDbEntity
8
1
62
256
6
ByLayer
370
13
48
1
60
0
100
AcDbLine
10
12.889223
20
-1.217355
30
0
11
12.889223
21
-8.519399
31
0
39
0
210
0
220
0
230
1
0
LINE
5
94
100
AcDbEntity
8
1
62
256
6
ByLayer
370
18
48
1
60
0
100
AcDbLine
10
105.896558
20
-0.300004
30
0
11
106
21
0
31
0
39
0
210
0
220
0
230
1
0
LINE
5
95
100
AcDbEntity
8
1
62
256
6
ByLayer
370
13
48
1
60
0
100
AcDbLine
10
104.001987
20
2.73813
30
0
11
105.214037
21
2.718499
31
0
39
0
210
0
220
0
230
1
0
LINE
5
96
100
AcDbEntity
8
1
62
256
6
ByLayer
370
18
48
1
60
0
100
AcDbLine
10
95.9
20
-7.705634
30
0
11
95.9
21
-7.527071
31
0
39
0
210
0
220
0
230
1
0
LINE
5
97
100
AcDbEntity
8
1
62
256
6
ByLayer
370
18
48
1
60
0
100
AcDbLine
10
0
20
12.3
30
0
11
0
21
-12.3
31
0
39
0
210
0
220
0
230
1
0
LINE
5
98
100
AcDbEntity
8
1
62
256
6
ByLayer
370
18
48
1
60
0
100
AcDbLine
10
103.176514
20
-8.188762
30
0
11
105.697522
21
-0.877257
31
0
39
0
210
0
220
0
230
1
0
LINE
5
99
100
AcDbEntity
8
1
62
256
6
ByLayer
370
18
48
1
60
0
100
AcDbLine
10
101.765647
20
-2.3798
30
0
11
100.817136
21
0.946608
31
0
39
0
210
0
220
0
230
1
0
LINE
5
9A
100
AcDbEntity
8
1
62
256
6
ByLayer
370
18
48
1
60
0
100
AcDbLine
10
17.6
20
-7.85
30
0
11
17.6
21
-3.348743
31
0
39
0
210
0
220
0
230
1
0
LINE
5
9B
100
AcDbEntity
8
1
62
256
6
ByLayer
370
13
48
1
60
0
100
AcDbLine
10
5.0009
20
0
30
0
11
5.0009
21
-12.5
31
0
39
0
210
0
220
0
230
1
0
LINE
5
9C
100
AcDbEntity
8
1
62
256
6
ByLayer
370
13
48
1
60
0
100
AcDbLine
10
5.0009
20
12.5
30
0
11
5.0009
21
0
31
0
39
0
210
0
220
0
230
1
0
LINE
5
9D
100
AcDbEntity
8
1
62
256
6
ByLayer
370
18
48
1
60
0
100
AcDbLine
10
0.2
20
0
30
0
11
0.2
21
-12.5
31
0
39
0
210
0
220
0
230
1
0
LINE
5
9E
100
AcDbEntity
8
1
62
256
6
ByLayer
370
18
48
1
60
0
100
AcDbLine
10
0.2
20
12.5
30
0
11
0.2
21
0
31
0
39
0
210
0
220
0
230
1
0
LINE
5
9F
100
AcDbEntity
8
1
62
256
6
ByLayer
370
18
48
1
60
0
100
AcDbLine
10
97.084677
20
-7.214887
30
0
11
101.201482
21
-7.214887
31
0
39
0
210
0
220
0
230
1
0
LINE
5
A0
100
AcDbEntity
8
1
62
256
6
ByLayer
370
18
48
1
60
0
100
AcDbLine
10
101.155976
20
-6.110112
30
0
11
101.765798
21
-6.719935
31
0
39
0
210
0
220
0
230
1
0
LINE
5
A1
100
AcDbEntity
8
1
62
256
6
ByLayer
370
13
48
1
60
0
100
AcDbLine
10
97.098955
20
-7.920579
30
0
11
96
21
-7.534221
31
0
39
0
210
0
220
0
230
1
0
LINE
5
A2
100
AcDbEntity
8
1
62
256
6
ByLayer
370
13
48
1
60
0
100
AcDbLine
10
105.095743
20
-1.890355
30
0
11
104.104159
21
-1.225528
31
0
39
0
210
0
220
0
230
1
0
LINE
5
A3
100
AcDbEntity
8
1
62
256
6
ByLayer
370
18
48
1
60
0
100
AcDbLine
10
96
20
-7.534221
30
0
11
96
21
-7.512509
31
0
39
0
210
0
220
0
230
1
0
LINE
5
A4
100
AcDbEntity
8
1
62
256
6
ByLayer
370
18
48
1
60
0
100
AcDbLine
10
105.986093
20
0.059504
30
0
11
106
21
0
31
0
39
0
210
0
220
0
230
1
0
LINE
5
A5
100
AcDbEntity
8
1
62
256
6
ByLayer
370
18
48
1
60
0
100
AcDbLine
10
16
20
7.65
30
0
11
16
21
6.413447
31
0
39
0
210
0
220
0
230
1
0
LINE
5
A6
100
AcDbEntity
8
1
62
256
6
ByLayer
370
13
48
1
60
0
100
AcDbLine
10
95.8
20
2.55
30
0
11
96.006275
21
2.55
31
0
39
0
210
0
220
0
230
1
0
LINE
5
A7
100
AcDbEntity
8
1
62
256
6
ByLayer
370
13
48
1
60
0
100
AcDbLine
10
105.927513
20
0.261515
30
0
11
105.12839
21
0.797302
31
0
39
0
210
0
220
0
230
1
0
LINE
5
A8
100
AcDbEntity
8
1
62
256
6
ByLayer
370
18
48
1
60
0
100
AcDbLine
10
105.214037
20
-2.718499
30
0
11
105.157391
21
-2.886629
31
0
39
0
210
0
220
0
230
1
0
LINE
5
A9
100
AcDbEntity
8
1
62
256
6
ByLayer
370
13
48
1
60
0
100
AcDbLine
10
12.889223
20
8.519399
30
0
11
12.889223
21
6.2829
31
0
39
0
210
0
220
0
230
1
0
LINE
5
AA
100
AcDbEntity
8
1
62
256
6
ByLayer
370
18
48
1
60
0
100
AcDbLine
10
96
20
-7.512509
30
0
11
96
21
-7.46006
31
0
39
0
210
0
220
0
230
1
0
LINE
5
AB
100
AcDbEntity
8
1
62
256
6
ByLayer
370
18
48
1
60
0
100
AcDbLine
10
100.201436
20
-2.3798
30
0
11
101.765647
21
-2.3798
31
0
39
0
210
0
220
0
230
1
0
LINE
5
AC
100
AcDbEntity
8
1
62
256
6
ByLayer
370
18
48
1
60
0
100
AcDbLine
10
102.053936
20
-7.635434
30
0
11
103.467553
21
-3.763605
31
0
39
0
210
0
220
0
230
1
0
LINE
5
AD
100
AcDbEntity
8
1
62
256
6
ByLayer
370
18
48
1
60
0
100
AcDbLine
10
100.194193
20
-2.365464
30
0
11
100.266896
21
-2.322565
31
0
39
0
210
0
220
0
230
1
0
LINE
5
AE
100
AcDbEntity
8
1
62
256
6
ByLayer
370
18
48
1
60
0
100
AcDbLine
10
101.765798
20
-2.381407
30
0
11
101.765647
21
-2.3798
31
0
39
0
210
0
220
0
230
1
0
LINE
5
AF
100
AcDbEntity
8
1
62
256
6
ByLayer
370
18
48
1
60
0
100
AcDbLine
10
103.652873
20
-3.551038
30
0
11
105.095743
21
-1.890355
31
0
39
0
210
0
220
0
230
1
0
LINE
5
B0
100
AcDbEntity
8
1
62
256
6
ByLayer
370
18
48
1
60
0
100
AcDbLine
10
16
20
-7.65
30
0
11
16
21
-2.83567
31
0
39
0
210
0
220
0
230
1
0
LINE
5
B1
100
AcDbEntity
8
1
62
256
6
ByLayer
370
13
48
1
60
0
100
AcDbLine
10
105.12839
20
0.797302
30
0
11
105.809537
21
0.748074
31
0
39
0
210
0
220
0
230
1
0
LINE
5
B2
100
AcDbEntity
8
1
62
256
6
ByLayer
370
18
48
1
60
0
100
AcDbLine
10
105.214037
20
2.718499
30
0
11
105.157391
21
2.886629
31
0
39
0
210
0
220
0
230
1
0
LINE
5
B3
100
AcDbEntity
8
1
62
256
6
ByLayer
370
13
48
1
60
0
100
AcDbLine
10
98.762853
20
-2.375583
30
0
11
99.003498
21
-2.243018
31
0
39
0
210
0
220
0
230
1
0
LINE
5
B4
100
AcDbEntity
8
1
62
256
6
ByLayer
370
18
48
1
60
0
100
AcDbLine
10
96
20
-7.534221
30
0
11
96
21
-7.76771
31
0
39
0
210
0
220
0
230
1
0
LINE
5
B5
100
AcDbEntity
8
1
62
256
6
ByLayer
370
18
48
1
60
0
100
AcDbLine
10
105.927513
20
-0.261515
30
0
11
105.809537
21
-0.748074
31
0
39
0
210
0
220
0
230
1
0
LINE
5
B6
100
AcDbEntity
8
1
62
256
6
ByLayer
370
18
48
1
60
0
100
AcDbLine
10
19.407
20
-7.841842
30
0
11
19.407
21
-3.696978
31
0
39
0
210
0
220
0
230
1
0
LINE
5
B7
100
AcDbEntity
8
1
62
256
6
ByLayer
370
18
48
1
60
0
100
AcDbLine
10
96
20
-7.431184
30
0
11
96
21
-7.46006
31
0
39
0
210
0
220
0
230
1
0
LINE
5
B8
100
AcDbEntity
8
1
62
256
6
ByLayer
370
18
48
1
60
0
100
AcDbLine
10
101.201482
20
-7.214887
30
0
11
101.207993
21
-7.212085
31
0
39
0
210
0
220
0
230
1
0
LINE
5
B9
100
AcDbEntity
8
1
62
256
6
ByLayer
370
18
48
1
60
0
100
AcDbLine
10
101.762286
20
-6.726438
30
0
11
101.765798
21
-6.719935
31
0
39
0
210
0
220
0
230
1
0
LINE
5
BA
100
AcDbEntity
8
1
62
256
6
ByLayer
370
18
48
1
60
0
100
AcDbLine
10
101.207993
20
-7.212085
30
0
11
101.762286
21
-6.726438
31
0
39
0
210
0
220
0
230
1
0
LINE
5
BB
100
AcDbEntity
8
1
62
256
6
ByLayer
370
18
48
1
60
0
100
AcDbLine
10
101.765798
20
-6.719935
30
0
11
101.765798
21
-2.381407
31
0
39
0
210
0
220
0
230
1
0
LINE
5
BC
100
AcDbEntity
8
1
62
256
6
ByLayer
370
13
48
1
60
0
100
AcDbLine
10
12.803713
20
-1.185002
30
0
11
12.803713
21
-8.571245
31
0
39
0
210
0
220
0
230
1
0
LINE
5
BD
100
AcDbEntity
8
1
62
256
6
ByLayer
370
13
48
1
60
0
100
AcDbLine
10
100.266896
20
-2.322565
30
0
11
99.003498
21
-2.243018
31
0
39
0
210
0
220
0
230
1
0
LINE
5
BE
100
AcDbEntity
8
1
62
256
6
ByLayer
370
18
48
1
60
0
100
AcDbLine
10
106
20
0
30
0
11
105.986093
21
-0.059504
31
0
39
0
210
0
220
0
230
1
0
LINE
5
BF
100
AcDbEntity
8
1
62
256
6
ByLayer
370
18
48
1
60
0
100
AcDbLine
10
17.6
20
7.85
30
0
11
17.6
21
6.735915
31
0
39
0
210
0
220
0
230
1
0
LINE
5
C0
100
AcDbEntity
8
1
62
256
6
ByLayer
370
13
48
1
60
0
100
AcDbLine
10
105.080462
20
0.757334
30
0
11
105.952028
21
0.172977
31
0
39
0
210
0
220
0
230
1
0
LINE
5
C1
100
AcDbEntity
8
1
62
256
6
ByLayer
370
18
48
1
60
0
100
AcDbLine
10
88.985008
20
-0.917225
30
0
11
88.985008
21
4.724012
31
0
39
0
210
0
220
0
230
1
0
LINE
5
C2
100
AcDbEntity
8
1
62
256
6
ByLayer
370
13
48
1
60
0
100
AcDbLine
10
103.652873
20
-3.551038
30
0
11
104.104159
21
-1.225528
31
0
39
0
210
0
220
0
230
1
0
LINE
5
C3
100
AcDbEntity
8
1
62
256
6
ByLayer
370
18
48
1
60
0
100
AcDbLine
10
105.927513
20
0.261515
30
0
11
105.809537
21
0.748074
31
0
39
0
210
0
220
0
230
1
0
LINE
5
C4
100
AcDbEntity
8
1
62
256
6
ByLayer
370
18
48
1
60
0
100
AcDbLine
10
97.511113
20
-8.349892
30
0
11
97.511113
21
-8.320046
31
0
39
0
210
0
220
0
230
1
0
LINE
5
C5
100
AcDbEntity
8
1
62
256
6
ByLayer
370
13
48
1
60
0
100
AcDbLine
10
12.803713
20
8.571245
30
0
11
12.803713
21
6.293944
31
0
39
0
210
0
220
0
230
1
0
LINE
5
C6
100
AcDbEntity
8
1
62
256
6
ByLayer
370
18
48
1
60
0
100
AcDbLine
10
96.89
20
-7.61512
30
0
11
96.89
21
-7.199648
31
0
39
0
210
0
220
0
230
1
0
LINE
5
C7
100
AcDbEntity
8
SK1
62
256
6
ByLayer
370
18
48
1
60
0
100
AcDbLine
10
-47.3
20
0
30
0
11
-47.3
21
-9.99675
31
0
39
0
210
0
220
0
230
1
0
LINE
5
C8
100
AcDbEntity
8
SK1
62
256
6
ByLayer
370
18
48
1
60
0
100
AcDbLine
10
-47.3
20
9.99675
30
0
11
-47.3
21
0
31
0
39
0
210
0
220
0
230
1
0
LINE
5
C9
100
AcDbEntity
8
SK1
62
256
6
ByLayer
370
18
48
1
60
0
100
AcDbLine
10
-1.6
20
-9.99675
30
0
11
-1.6
21
0
31
0
39
0
210
0
220
0
230
1
0
LINE
5
CA
100
AcDbEntity
8
SK1
62
256
6
ByLayer
370
18
48
1
60
0
100
AcDbLine
10
-1.6
20
0
30
0
11
-1.6
21
9.99675
31
0
39
0
210
0
220
0
230
1
0
LINE
5
CB
100
AcDbEntity
8
SK1
62
256
6
ByLayer
370
13
48
1
60
0
100
AcDbLine
10
-43.5
20
5.922852
30
0
11
-43.5
21
-5.922852
31
0
39
0
210
0
220
0
230
1
0
LINE
5
CC
100
AcDbEntity
8
SK1
62
256
6
ByLayer
370
18
48
1
60
0
100
AcDbLine
10
-43.5
20
-5.922852
30
0
11
-6.5
21
-5.922852
31
0
39
0
210
0
220
0
230
1
0
LINE
5
CD
100
AcDbEntity
8
SK1
62
256
6
ByLayer
370
18
48
1
60
0
100
AcDbLine
10
-6.5
20
5.922852
30
0
11
-43.5
21
5.922852
31
0
39
0
210
0
220
0
230
1
0
LINE
5
CE
100
AcDbEntity
8
SK1
62
256
6
ByLayer
370
13
48
1
60
0
100
AcDbLine
10
-0.15
20
0
30
0
11
-0.15
21
-9.74675
31
0
39
0
210
0
220
0
230
1
0
LINE
5
CF
100
AcDbEntity
8
SK1
62
256
6
ByLayer
370
13
48
1
60
0
100
AcDbLine
10
-0.15
20
9.74675
30
0
11
-0.15
21
0
31
0
39
0
210
0
220
0
230
1
0
LINE
5
D0
100
AcDbEntity
8
SK1
62
256
6
ByLayer
370
13
48
1
60
0
100
AcDbLine
10
-1.144243
20
0
30
0
11
-1.144243
21
-9.784227
31
0
39
0
210
0
220
0
230
1
0
LINE
5
D1
100
AcDbEntity
8
SK1
62
256
6
ByLayer
370
13
48
1
60
0
100
AcDbLine
10
-1.144243
20
9.784227
30
0
11
-1.144243
21
0
31
0
39
0
210
0
220
0
230
1
0
LINE
5
D2
100
AcDbEntity
8
SK1
62
256
6
ByLayer
370
18
48
1
60
0
100
AcDbLine
10
-50
20
0
30
0
11
-50
21
-8.99675
31
0
39
0
210
0
220
0
230
1
0
LINE
5
D3
100
AcDbEntity
8
SK1
62
256
6
ByLayer
370
18
48
1
60
0
100
AcDbLine
10
-50
20
8.99675
30
0
11
-50
21
0
31
0
39
0
210
0
220
0
230
1
0
LINE
5
D4
100
AcDbEntity
8
SK1
62
256
6
ByLayer
370
13
48
1
60
0
100
AcDbLine
10
-48.449692
20
-9.875033
30
0
11
-48.449692
21
0
31
0
39
0
210
0
220
0
230
1
0
LINE
5
D5
100
AcDbEntity
8
SK1
62
256
6
ByLayer
370
13
48
1
60
0
100
AcDbLine
10
-48.449692
20
0
30
0
11
-48.449692
21
9.875033
31
0
39
0
210
0
220
0
230
1
0
LINE
5
D6
100
AcDbEntity
8
SK1
62
256
6
ByLayer
370
18
48
1
60
0
100
AcDbLine
10
-49
20
0
30
0
11
-49
21
-9.99675
31
0
39
0
210
0
220
0
230
1
0
LINE
5
D7
100
AcDbEntity
8
SK1
62
256
6
ByLayer
370
18
48
1
60
0
100
AcDbLine
10
-49
20
9.99675
30
0
11
-49
21
0
31
0
39
0
210
0
220
0
230
1
0
LINE
5
D8
100
AcDbEntity
8
SK1
62
256
6
ByLayer
370
18
48
1
60
0
100
AcDbLine
10
-48.6
20
-9.99675
30
0
11
-48.6
21
9.99675
31
0
39
0
210
0
220
0
230
1
0
LINE
5
D9
100
AcDbEntity
8
SK1
62
256
6
ByLayer
370
13
48
1
60
0
100
AcDbLine
10
-47.426311
20
-9.888738
30
0
11
-47.426311
21
0
31
0
39
0
210
0
220
0
230
1
0
LINE
5
DA
100
AcDbEntity
8
SK1
62
256
6
ByLayer
370
13
48
1
60
0
100
AcDbLine
10
-47.426311
20
0
30
0
11
-47.426311
21
9.888738
31
0
39
0
210
0
220
0
230
1
0
LINE
5
DB
100
AcDbEntity
8
SK1
62
256
6
ByLayer
370
13
48
1
60
0
100
AcDbLine
10
-0.975195
20
9.74675
30
0
11
-0.975195
21
-9.74675
31
0
39
0
210
0
220
0
230
1
0
LINE
5
DC
100
AcDbEntity
8
SK1
62
256
6
ByLayer
370
13
48
1
60
0
100
AcDbLine
10
-6.5
20
-5.922852
30
0
11
-6.5
21
5.922852
31
0
39
0
210
0
220
0
230
1
0
MTEXT
5
190
100
AcDbEntity
8
SK6
62
256
6
ByLayer
370
13
48
1
60
0
100
AcDbMText
10
9.351137
20
30.375134
30
0
210
0
220
0
230
1
1
\W0.7057;870-1600-16L20-5
40
3.5
41
0
44
1.084337
50
0
71
7
72
5
7
iso_b_vert
0
DIMENSION
5
19E
100
AcDbEntity
8
2
62
256
6
ByLayer
370
13
48
1
60
0
100
AcDbDimension
2
DimnDraft3D1
10
16
20
-21
30
0
11
61
21
-21
31
0
70
32
71
5
72
1
41
1
210
0
220
0
230
1
3
Standard
100
AcDbAlignedDimension
13
106
23
-1.5875
33
0
14
16
24
-9.5875
34
0
50
0
100
AcDbRotatedDimension
1001
ACAD
1000
DSTYLE
1002
{
1070
   279
1070
     0
1070
   172
1070
     1
1070
   173
1070
     1
1070
   340
1005
191
1070
   271
1070
     1
1070
   272
1070
     2
1070
    77
1070
     1
1070
    73
1070
     0
1070
   171
1070
     3
1070
   274
1070
     4
1070
   177
1070
     7
1070
   176
1070
     7
1070
   178
1070
     7
1070
    48
1040
-0.005
1070
    41
1041
3.5
1070
   147
1041
1.5
1070
    42
1041
1.5875
1070
    44
1041
2.0
1070
   140
1041
3.0
1070
   343
1005
0
1070
   344
1005
0
1002
}
0
DIMENSION
5
1A8
100
AcDbEntity
8
2
62
256
6
ByLayer
370
13
48
1
60
0
100
AcDbDimension
2
DimnDraft3D2
10
18.437
20
15
30
0
11
62.2185
21
15
31
0
70
32
71
5
72
1
41
1
210
0
220
0
230
1
3
Standard
100
AcDbAlignedDimension
13
106
23
1.5875
33
0
14
18.437
24
9.5875
34
0
50
0
100
AcDbRotatedDimension
1001
ACAD
1000
DSTYLE
1002
{
1070
   279
1070
     0
1070
   172
1070
     1
1070
   173
1070
     1
1070
   340
1005
191
1070
   271
1070
     1
1070
   272
1070
     2
1070
    77
1070
     1
1070
    73
1070
     0
1070
   171
1070
     3
1070
   274
1070
     4
1070
   177
1070
     7
1070
   176
1070
     7
1070
   178
1070
     7
1070
    48
1040
-0.005
1070
    41
1041
3.5
1070
   147
1041
1.5
1070
    42
1041
1.5875
1070
    44
1041
2.0
1070
   140
1041
3.0
1070
   343
1005
0
1070
   344
1005
0
1002
}
0
DIMENSION
5
1B3
100
AcDbEntity
8
SK2
62
256
6
ByLayer
370
13
48
1
60
0
100
AcDbDimension
2
DimnDraft3D3
10
0
20
-33
30
0
11
-25
21
-33
31
0
70
32
71
5
72
1
41
1
210
0
220
0
230
1
3
Standard
100
AcDbAlignedDimension
13
-50
23
-11.5875
33
0
14
0
24
-14.0875
34
0
50
0
100
AcDbRotatedDimension
1001
ACAD
1000
DSTYLE
1002
{
1070
   279
1070
     0
1070
   172
1070
     1
1070
   173
1070
     1
1070
   340
1005
191
1070
   271
1070
     1
1070
   272
1070
     2
1070
    77
1070
     1
1070
    73
1070
     0
1070
   171
1070
     3
1070
   274
1070
     4
1070
   177
1070
     7
1070
   176
1070
     7
1070
   178
1070
     7
1070
    48
1040
-0.005
1070
    41
1041
3.5
1070
   147
1041
1.5
1070
    42
1041
1.5875
1070
    44
1041
2.0
1070
   140
1041
3.0
1070
   343
1005
0
1070
   344
1005
0
1002
}
0
DIMENSION
5
1BD
100
AcDbEntity
8
2
62
256
6
ByLayer
370
13
48
1
60
0
100
AcDbDimension
2
DimnDraft3D4
10
106
20
-33
30
0
11
53
21
-33
31
0
70
32
71
5
72
1
41
1
210
0
220
0
230
1
3
Standard
100
AcDbAlignedDimension
13
0
23
-14.0875
33
0
14
106
24
-1.5875
34
0
50
0
100
AcDbRotatedDimension
1001
ACAD
1000
DSTYLE
1002
{
1070
   279
1070
     0
1070
   172
1070
     1
1070
   173
1070
     1
1070
   340
1005
191
1070
   271
1070
     1
1070
   272
1070
     2
1070
    77
1070
     1
1070
    73
1070
     0
1070
   171
1070
     3
1070
   274
1070
     4
1070
   177
1070
     7
1070
   176
1070
     7
1070
   178
1070
     7
1070
    48
1040
-0.005
1070
    41
1041
3.5
1070
   147
1041
1.5
1070
    42
1041
1.5875
1070
    44
1041
2.0
1070
   140
1041
3.0
1070
   343
1005
0
1070
   344
1005
0
1002
}
0
DIMENSION
5
1C8
100
AcDbEntity
8
SK2
62
256
6
ByLayer
370
13
48
1
60
0
100
AcDbDimension
2
DimnDraft3D5
10
-58.25
20
-10
30
0
11
-58.5
21
-0.520456
31
0
70
33
71
5
72
1
41
1
210
0
220
0
230
1
3
Standard
100
AcDbAlignedDimension
13
-51.5875
23
10
33
0
14
-51.5875
24
-10
34
0
1001
ACAD
1000
DSTYLE
1002
{
1070
   279
1070
     0
1070
    74
1070
     0
1070
   173
1070
     1
1070
   340
1005
191
1070
   271
1070
     1
1070
   272
1070
     2
1070
    77
1070
     1
1070
    73
1070
     0
1070
   171
1070
     3
1070
   274
1070
     4
1070
   177
1070
     7
1070
   176
1070
     7
1070
   178
1070
     7
1070
    48
1040
-0.005
1070
    41
1041
3.5
1070
   147
1041
1.5
1070
    42
1041
1.5875
1070
    44
1041
2.0
1070
   140
1041
3.0
1070
   343
1005
0
1070
   344
1005
0
1002
}
0
ENDSEC
0
SECTION
2
OBJECTS
0
DICTIONARY
5
233
330
0
100
AcDbDictionary
280
0
281
1
3
ACAD_GROUP
350
234
3
ACAD_MLINESTYLE
350
235
0
DICTIONARY
5
234
330
0
100
AcDbDictionary
280
0
281
1
0
DICTIONARY
5
235
330
0
100
AcDbDictionary
280
0
281
1
3
Standard
350
18
0
MLINESTYLE
5
18
330
235
100
AcDbMlineStyle
2
Standard
70
0
3

62
256
51
90
52
90
71
2
49
-0.5
62
256
6
ByLayer
49
0.5
62
256
6
ByLayer
0
RASTERVARIABLES
5
221
330

100
AcDbRasterVariables
90
0
70
1
71
1
72
1
0
ENDSEC
0
EOF
