0
SECTION
2
HEADER
9
$ACADVER
1
AC1015
9
$DWGCODEPAGE
3
ANSI_1252
9
$HANDSEED
5
23b
9
$ANGBASE
50
0
9
$ANGDIR
70
0
9
$ATTMODE
70
1
9
$AUNITS
70
0
9
$AUPREC
70
0
9
$CECOLOR
62
256
9
$CELTSCALE
40
1
9
$CELTYPE
6
ByLayer
9
$CELWEIGHT
370
18
9
$CLAYER
8
0
9
$CMLJUST
70
0
9
$CMLSCALE
40
1
9
$CMLSTYLE
2
Standard
9
$DIMSTYLE
2
Standard
9
$TEXTSIZE
40
0.2
9
$TEXTSTYLE
7
Standard
9
$LUNITS
70
2
9
$LUPREC
70
4
9
$EXTNAMES
290
1
9
$INSUNITS
70
4
9
$LTSCALE
40
1
9
$LWDISPLAY
290
1
9
$PDMODE
70
0
9
$PDSIZE
40
0
9
$PLINEGEN
70
0
0
ENDSEC
0
SECTION
2
CLASSES
0
CLASS
1
RASTERVARIABLES
2
AcDbRasterVariables
3
ISM
90
0
280
0
281
0
0
ENDSEC
0
SECTION
2
TABLES
0
TABLE
2
VPORT
5
231
100
AcDbSymbolTable
0
VPORT
5
1
100
AcDbSymbolTableRecord
100
AcDbViewportTableRecord
2
*Active
70
0
10
0
20
0
11
1
21
1
12
-1
22
1
13
0
23
0
14
0.5
24
0.5
15
10
25
10
16
0
26
0
36
1
17
0
27
0
37
0
0
ENDTAB
0
TABLE
2
LTYPE
5
232
100
AcDbSymbolTable
0
LTYPE
5
14
100
AcDbSymbolTableRecord
100
AcDbLinetypeTableRecord
70
0
2
ByBlock
3

72
65
73
0
40
0
0
LTYPE
5
15
100
AcDbSymbolTableRecord
100
AcDbLinetypeTableRecord
70
0
2
ByLayer
3

72
65
73
0
40
0
0
LTYPE
5
16
100
AcDbSymbolTableRecord
100
AcDbLinetypeTableRecord
70
0
2
CONTINUOUS
3
Solid line
72
65
73
0
40
0
0
LTYPE
5
6A
100
AcDbSymbolTableRecord
100
AcDbLinetypeTableRecord
70
0
2
CENTER
3
____ _ ____ _ ____ _ ____
72
65
73
4
40
47.5
49
22
74
0
49
-8.5
74
0
49
8.5
74
0
49
-8.5
74
0
0
LTYPE
5
6B
100
AcDbSymbolTableRecord
100
AcDbLinetypeTableRecord
70
0
2
DASHED
3
__ __ __ __ __ __ __ __ __
72
65
73
2
40
25.72
49
12.86
74
0
49
-12.86
74
0
0
ENDTAB
0
TABLE
2
LAYER
5
233
100
AcDbSymbolTable
0
LAYER
5
10
100
AcDbSymbolTableRecord
100
AcDbLayerTableRecord
2
0
70
0
62
7
6
CONTINUOUS
290
1
370
-3
390
0
0
LAYER
5
6D
100
AcDbSymbolTableRecord
100
AcDbLayerTableRecord
2
80
70
0
62
-6
6
CONTINUOUS
290
1
370
-3
390
0
0
LAYER
5
6F
100
AcDbSymbolTableRecord
100
AcDbLayerTableRecord
2
81
70
0
62
-3
6
CONTINUOUS
290
1
370
-3
390
0
0
LAYER
5
72
100
AcDbSymbolTableRecord
100
AcDbLayerTableRecord
2
1
70
0
62
4
6
CONTINUOUS
290
1
370
-3
390
0
0
LAYER
5
8F
100
AcDbSymbolTableRecord
100
AcDbLayerTableRecord
2
4
70
0
62
-2
6
CENTER
290
1
370
-3
390
0
0
LAYER
5
191
100
AcDbSymbolTableRecord
100
AcDbLayerTableRecord
2
2
70
0
62
7
6
CONTINUOUS
290
1
370
-3
390
0
0
LAYER
5
21d
100
AcDbSymbolTableRecord
100
AcDbLayerTableRecord
2
SK1
70
0
62
4
6
CONTINUOUS
290
1
370
-3
390
0
0
LAYER
5
21e
100
AcDbSymbolTableRecord
100
AcDbLayerTableRecord
2
SK4
70
0
62
2
6
CENTER
290
1
370
-3
390
0
0
LAYER
5
21f
100
AcDbSymbolTableRecord
100
AcDbLayerTableRecord
2
SK6
70
0
62
5
6
CONTINUOUS
290
1
370
-3
390
0
0
LAYER
5
220
100
AcDbSymbolTableRecord
100
AcDbLayerTableRecord
2
SK2
70
0
62
7
6
CONTINUOUS
290
1
370
-3
390
0
0
ENDTAB
0
TABLE
2
STYLE
5
234
100
AcDbSymbolTable
0
STYLE
5
11
100
AcDbSymbolTableRecord
100
AcDbTextStyleTableRecord
2
Standard
3
txt
70
0
71
0
40
0
41
1
42
0
50
0
0
STYLE
5
18C
100
AcDbSymbolTableRecord
100
AcDbTextStyleTableRecord
2
iso_b_vert
3
simplex.shx
70
0
71
0
40
0
41
1
42
0
50
0
0
STYLE
5
18D
100
AcDbSymbolTableRecord
100
AcDbTextStyleTableRecord
2
DWGDirectTextStyle
3
simplex
70
0
71
0
40
0
41
1
42
0
50
0
0
ENDTAB
0
TABLE
2
DIMSTYLE
5
235
100
AcDbSymbolTable
100
AcDbDimStyleTable
0
DIMSTYLE
105
27
100
AcDbSymbolTableRecord
100
AcDbDimStyleTableRecord
2
Standard
70
0
3
<>
41
0.18
42
0.0625
44
0.18
140
0.18
147
0.09
73
0
74
0
77
1
271
2
275
0
278
52
280
0
340
11
0
ENDTAB
0
TABLE
2
VIEW
5
236
100
AcDbSymbolTable
0
ENDTAB
0
TABLE
2
UCS
5
237
100
AcDbSymbolTable
0
ENDTAB
0
TABLE
2
APPID
5
238
100
AcDbSymbolTable
0
APPID
5
12
100
AcDbSymbolTableRecord
100
AcDbRegAppTableRecord
2
ACAD
70
0
0
ENDTAB
0
TABLE
2
BLOCK_RECORD
5
239
100
AcDbSymbolTable
0
BLOCK_RECORD
5
1F
100
AcDbSymbolTableRecord
100
AcDbBlockTableRecord
2
*Model_Space
340
0
70
0
0
BLOCK_RECORD
5
1B
100
AcDbSymbolTableRecord
100
AcDbBlockTableRecord
2
*Paper_Space
340
0
70
0
0
BLOCK_RECORD
5
23
100
AcDbSymbolTableRecord
100
AcDbBlockTableRecord
2
*Paper_Space0
340
0
70
0
0
BLOCK_RECORD
5
18F
100
AcDbSymbolTableRecord
100
AcDbBlockTableRecord
2
DimnDraft3D1
340
0
70
0
0
BLOCK_RECORD
5
19A
100
AcDbSymbolTableRecord
100
AcDbBlockTableRecord
2
DimnDraft3D2
340
0
70
0
0
BLOCK_RECORD
5
1A4
100
AcDbSymbolTableRecord
100
AcDbBlockTableRecord
2
DimnDraft3D3
340
0
70
0
0
BLOCK_RECORD
5
1AF
100
AcDbSymbolTableRecord
100
AcDbBlockTableRecord
2
DimnDraft3D4
340
0
70
0
0
BLOCK_RECORD
5
1B9
100
AcDbSymbolTableRecord
100
AcDbBlockTableRecord
2
DimnDraft3D5
340
0
70
0
0
ENDTAB
0
ENDSEC
0
SECTION
2
BLOCKS
0
BLOCK
5
20
100
AcDbEntity
8
0
100
AcDbBlockBegin
2
*Model_Space
70
0
10
0
20
0
30
0
3
*Model_Space
0
ENDBLK
5
21
100
AcDbEntity
8
0
100
AcDbBlockEnd
0
BLOCK
5
1C
100
AcDbEntity
8
0
100
AcDbBlockBegin
2
*Paper_Space
70
0
10
0
20
0
30
0
3
*Paper_Space
0
ENDBLK
5
1D
100
AcDbEntity
8
0
100
AcDbBlockEnd
0
BLOCK
5
24
100
AcDbEntity
8
0
100
AcDbBlockBegin
2
*Paper_Space0
70
0
10
0
20
0
30
0
3
*Paper_Space0
0
ENDBLK
5
25
100
AcDbEntity
8
0
100
AcDbBlockEnd
0
BLOCK
5
197
100
AcDbEntity
8
0
100
AcDbBlockBegin
2
DimnDraft3D1
70
0
10
0
20
0
30
0
3
DimnDraft3D1
0
MTEXT
5
190
100
AcDbEntity
8
2
62
256
6
ByLayer
370
13
48
1
60
0
100
AcDbMText
10
41.229544
20
-20.249886
30
0
210
0
220
0
230
1
1
\W0.7346;56.0
40
3
41
0
44
1.084337
50
0
71
7
72
5
7
iso_b_vert
0
LINE
5
192
100
AcDbEntity
8
2
62
256
6
ByLayer
370
13
48
1
60
0
100
AcDbLine
10
72
20
-1.5875
30
0
11
72
21
-23
31
0
39
0
210
0
220
0
230
1
0
LINE
5
193
100
AcDbEntity
8
2
62
256
6
ByLayer
370
13
48
1
60
0
100
AcDbLine
10
16
20
-9.5875
30
0
11
16
21
-23
31
0
39
0
210
0
220
0
230
1
0
LINE
5
194
100
AcDbEntity
8
2
62
256
6
ByLayer
370
13
48
1
60
0
100
AcDbLine
10
72
20
-21
30
0
11
16
21
-21
31
0
39
0
210
0
220
0
230
1
0
SOLID
5
195
100
AcDbEntity
8
2
62
256
6
ByLayer
370
13
48
1
60
0
100
AcDbTrace
10
72
20
-21
30
0
11
68.500002
21
-21.460784
31
0
12
68.499998
22
-20.539216
32
0
13
72
23
-21
33
0
39
0
210
0
220
0
230
1
0
SOLID
5
196
100
AcDbEntity
8
2
62
256
6
ByLayer
370
13
48
1
60
0
100
AcDbTrace
10
16
20
-21
30
0
11
19.499998
21
-20.539216
31
0
12
19.500002
22
-21.460784
32
0
13
16
23
-21
33
0
39
0
210
0
220
0
230
1
0
ENDBLK
5
198
100
AcDbEntity
8
0
100
AcDbBlockEnd
0
BLOCK
5
1A1
100
AcDbEntity
8
0
100
AcDbBlockBegin
2
DimnDraft3D2
70
0
10
0
20
0
30
0
3
DimnDraft3D2
0
MTEXT
5
19B
100
AcDbEntity
8
2
62
256
6
ByLayer
370
13
48
1
60
0
100
AcDbMText
10
42.448044
20
15.750114
30
0
210
0
220
0
230
1
1
\W0.7346;53.6
40
3
41
0
44
1.084337
50
0
71
7
72
5
7
iso_b_vert
0
LINE
5
19C
100
AcDbEntity
8
2
62
256
6
ByLayer
370
13
48
1
60
0
100
AcDbLine
10
72
20
1.5875
30
0
11
72
21
17
31
0
39
0
210
0
220
0
230
1
0
LINE
5
19D
100
AcDbEntity
8
2
62
256
6
ByLayer
370
13
48
1
60
0
100
AcDbLine
10
18.437
20
9.5875
30
0
11
18.437
21
17
31
0
39
0
210
0
220
0
230
1
0
LINE
5
19E
100
AcDbEntity
8
2
62
256
6
ByLayer
370
13
48
1
60
0
100
AcDbLine
10
72
20
15
30
0
11
18.437
21
15
31
0
39
0
210
0
220
0
230
1
0
SOLID
5
19F
100
AcDbEntity
8
2
62
256
6
ByLayer
370
13
48
1
60
0
100
AcDbTrace
10
72
20
15
30
0
11
68.500002
21
14.539216
31
0
12
68.499998
22
15.460784
32
0
13
72
23
15
33
0
39
0
210
0
220
0
230
1
0
SOLID
5
1A0
100
AcDbEntity
8
2
62
256
6
ByLayer
370
13
48
1
60
0
100
AcDbTrace
10
18.437
20
15
30
0
11
21.936998
21
15.460784
31
0
12
21.937002
22
14.539216
32
0
13
18.437
23
15
33
0
39
0
210
0
220
0
230
1
0
ENDBLK
5
1A2
100
AcDbEntity
8
0
100
AcDbBlockEnd
0
BLOCK
5
1AC
100
AcDbEntity
8
0
100
AcDbBlockBegin
2
DimnDraft3D3
70
0
10
0
20
0
30
0
3
DimnDraft3D3
0
MTEXT
5
1A5
100
AcDbEntity
8
SK2
62
256
6
ByLayer
370
13
48
1
60
0
100
AcDbMText
10
-27.770456
20
-32.249886
30
0
210
0
220
0
230
1
1
\W0.7346;50.0
40
3
41
0
44
1.084337
50
0
71
7
72
5
7
iso_b_vert
0
LINE
5
1A7
100
AcDbEntity
8
SK2
62
256
6
ByLayer
370
13
48
1
60
0
100
AcDbLine
10
-50
20
-11.5875
30
0
11
-50
21
-35
31
0
39
0
210
0
220
0
230
1
0
LINE
5
1A8
100
AcDbEntity
8
SK2
62
256
6
ByLayer
370
13
48
1
60
0
100
AcDbLine
10
0
20
-14.0875
30
0
11
0
21
-35
31
0
39
0
210
0
220
0
230
1
0
LINE
5
1A9
100
AcDbEntity
8
SK2
62
256
6
ByLayer
370
13
48
1
60
0
100
AcDbLine
10
-50
20
-33
30
0
11
0
21
-33
31
0
39
0
210
0
220
0
230
1
0
SOLID
5
1AA
100
AcDbEntity
8
SK2
62
256
6
ByLayer
370
13
48
1
60
0
100
AcDbTrace
10
-50
20
-33
30
0
11
-46.500002
21
-32.539216
31
0
12
-46.499998
22
-33.460784
32
0
13
-50
23
-33
33
0
39
0
210
0
220
0
230
1
0
SOLID
5
1AB
100
AcDbEntity
8
SK2
62
256
6
ByLayer
370
13
48
1
60
0
100
AcDbTrace
10
0
20
-33
30
0
11
-3.499998
21
-33.460784
31
0
12
-3.500002
22
-32.539216
32
0
13
0
23
-33
33
0
39
0
210
0
220
0
230
1
0
ENDBLK
5
1AD
100
AcDbEntity
8
0
100
AcDbBlockEnd
0
BLOCK
5
1B6
100
AcDbEntity
8
0
100
AcDbBlockBegin
2
DimnDraft3D4
70
0
10
0
20
0
30
0
3
DimnDraft3D4
0
MTEXT
5
1B0
100
AcDbEntity
8
2
62
256
6
ByLayer
370
13
48
1
60
0
100
AcDbMText
10
33.229544
20
-32.249886
30
0
210
0
220
0
230
1
1
\W0.7346;72.0
40
3
41
0
44
1.084337
50
0
71
7
72
5
7
iso_b_vert
0
LINE
5
1B1
100
AcDbEntity
8
2
62
256
6
ByLayer
370
13
48
1
60
0
100
AcDbLine
10
0
20
-14.0875
30
0
11
0
21
-35
31
0
39
0
210
0
220
0
230
1
0
LINE
5
1B2
100
AcDbEntity
8
2
62
256
6
ByLayer
370
13
48
1
60
0
100
AcDbLine
10
72
20
-1.5875
30
0
11
72
21
-35
31
0
39
0
210
0
220
0
230
1
0
LINE
5
1B3
100
AcDbEntity
8
2
62
256
6
ByLayer
370
13
48
1
60
0
100
AcDbLine
10
0
20
-33
30
0
11
72
21
-33
31
0
39
0
210
0
220
0
230
1
0
SOLID
5
1B4
100
AcDbEntity
8
2
62
256
6
ByLayer
370
13
48
1
60
0
100
AcDbTrace
10
0
20
-33
30
0
11
3.499998
21
-32.539216
31
0
12
3.500002
22
-33.460784
32
0
13
0
23
-33
33
0
39
0
210
0
220
0
230
1
0
SOLID
5
1B5
100
AcDbEntity
8
2
62
256
6
ByLayer
370
13
48
1
60
0
100
AcDbTrace
10
72
20
-33
30
0
11
68.500002
21
-33.460784
31
0
12
68.499998
22
-32.539216
32
0
13
72
23
-33
33
0
39
0
210
0
220
0
230
1
0
ENDBLK
5
1B7
100
AcDbEntity
8
0
100
AcDbBlockEnd
0
BLOCK
5
1C1
100
AcDbEntity
8
0
100
AcDbBlockBegin
2
DimnDraft3D5
70
0
10
0
20
0
30
0
3
DimnDraft3D5
0
MTEXT
5
1BA
100
AcDbEntity
8
SK2
62
256
6
ByLayer
370
13
48
1
60
0
100
AcDbMText
10
-57.750114
20
0.229544
30
0
210
0
220
0
230
1
1
\W0.7346;20.0
40
3
41
0
44
1.084337
50
90
71
7
72
5
7
iso_b_vert
0
MTEXT
5
1BB
100
AcDbEntity
8
SK2
62
256
6
ByLayer
370
13
48
1
60
0
100
AcDbMText
10
-57.750114
20
-4.247019
30
0
210
0
220
0
230
1
1
%%c
40
3
41
0
44
1.084337
50
90
71
7
72
5
7
iso_b_vert
0
LINE
5
1BC
100
AcDbEntity
8
SK2
62
256
6
ByLayer
370
13
48
1
60
0
100
AcDbLine
10
-51.5875
20
10
30
0
11
-58.25
21
10
31
0
39
0
210
0
220
0
230
1
0
LINE
5
1BD
100
AcDbEntity
8
SK2
62
256
6
ByLayer
370
13
48
1
60
0
100
AcDbLine
10
-51.5875
20
-10
30
0
11
-58.25
21
-10
31
0
39
0
210
0
220
0
230
1
0
LINE
5
1BE
100
AcDbEntity
8
SK2
62
256
6
ByLayer
370
13
48
1
60
0
100
AcDbLine
10
-56.25
20
10
30
0
11
-56.25
21
-10
31
0
39
0
210
0
220
0
230
1
0
SOLID
5
1BF
100
AcDbEntity
8
SK2
62
256
6
ByLayer
370
13
48
1
60
0
100
AcDbTrace
10
-56.25
20
10
30
0
11
-55.789216
21
6.500002
31
0
12
-56.710784
22
6.499998
32
0
13
-56.25
23
10
33
0
39
0
210
0
220
0
230
1
0
SOLID
5
1C0
100
AcDbEntity
8
SK2
62
256
6
ByLayer
370
13
48
1
60
0
100
AcDbTrace
10
-56.25
20
-10
30
0
11
-56.710784
21
-6.500002
31
0
12
-55.789216
22
-6.499998
32
0
13
-56.25
23
-10
33
0
39
0
210
0
220
0
230
1
0
ENDBLK
5
1C2
100
AcDbEntity
8
0
100
AcDbBlockEnd
0
ENDSEC
0
SECTION
2
ENTITIES
0
ARC
5
DF
100
AcDbEntity
8
SK1
62
256
6
ByLayer
370
18
48
1
60
0
100
AcDbCircle
39
0
10
47.946236
20
-10.49675
30
0
40
0.799999999999998
210
0
220
0
230
-1
100
AcDbArc
50
51
51
130.534532
0
ARC
5
E0
100
AcDbEntity
8
SK1
62
256
6
ByLayer
370
18
48
1
60
0
100
AcDbCircle
39
0
10
47.946236
20
10.49675
30
0
40
0.799999999999998
210
0
220
0
230
-1
100
AcDbArc
50
229.465468
51
309
0
ARC
5
E1
100
AcDbEntity
8
SK1
62
256
6
ByLayer
370
18
48
1
60
0
100
AcDbCircle
39
0
10
0.975195
20
10.14675
30
0
40
0.4
210
0
220
0
230
-1
100
AcDbArc
50
270
51
295
0
ARC
5
E2
100
AcDbEntity
8
SK1
62
256
6
ByLayer
370
18
48
1
60
0
100
AcDbCircle
39
0
10
0.975195
20
-10.14675
30
0
40
0.4
210
0
220
0
230
-1
100
AcDbArc
50
65
51
90
0
ARC
5
E3
100
AcDbEntity
8
1
62
256
6
ByLayer
370
18
48
1
60
0
100
AcDbCircle
39
0
10
-16
20
-13.65
30
0
40
5.99999999999999
210
0
220
0
230
-1
100
AcDbArc
50
58.770804
51
90
0
ARC
5
E4
100
AcDbEntity
8
1
62
256
6
ByLayer
370
18
48
1
60
0
100
AcDbCircle
39
0
10
-16
20
13.65
30
0
40
5.99999999999999
210
0
220
0
230
-1
100
AcDbArc
50
270
51
301.229196
0
ARC
5
E5
100
AcDbEntity
8
SK1
62
256
6
ByLayer
370
18
48
1
60
0
100
AcDbCircle
39
0
10
0.15
20
10.14675
30
0
40
0.4
210
0
220
0
230
-1
100
AcDbArc
50
247.975687
51
270
0
ARC
5
E6
100
AcDbEntity
8
SK1
62
256
6
ByLayer
370
18
48
1
60
0
100
AcDbCircle
39
0
10
0.15
20
-10.14675
30
0
40
0.4
210
0
220
0
230
-1
100
AcDbArc
50
90
51
112.024313
0
ELLIPSE
5
E7
100
AcDbEntity
8
1
62
256
6
ByLayer
370
18
48
1
60
0
100
AcDbEllipse
10
72
20
0
30
0
11
2.92526858853111
21
8.34774842710694
31
0
210
0
220
0
230
1
40
0.066283
41
-2.86895319935556
42
-2.78209472200402
0
ELLIPSE
5
E8
100
AcDbEntity
8
1
62
256
6
ByLayer
370
18
48
1
60
0
100
AcDbEllipse
10
77.846983
20
0
30
0
11
10.6449680936363
21
7.21567427204389
31
0
210
0
220
0
230
1
40
0.290406
41
2.88047503034742
42
3.14133805130374
0
ELLIPSE
5
E9
100
AcDbEntity
8
1
62
256
6
ByLayer
370
18
48
1
60
0
100
AcDbEllipse
10
18.372894
20
0
30
0
11
16.7460792306625
21
-4.46735311558006
31
0
210
0
220
0
230
1
40
0.385455
41
1.41196603745669
42
1.47460871578732
0
ELLIPSE
5
EA
100
AcDbEntity
8
1
62
256
6
ByLayer
370
13
48
1
60
0
100
AcDbEllipse
10
51.4
20
7.584864
30
0
11
3.71882582859684
21
-3.34220502910295
31
0
210
0
220
0
230
1
40
0.108935
41
0.772929693721848
42
0.952656578405845
0
ELLIPSE
5
EB
100
AcDbEntity
8
1
62
256
6
ByLayer
370
18
48
1
60
0
100
AcDbEllipse
10
51.780353
20
0.009145
30
0
11
1.25968101527183
21
-7.82971597250886
31
0
210
0
220
0
230
1
40
0.327204
41
2.40256586996017
42
2.4074626805406
0
ELLIPSE
5
EC
100
AcDbEntity
8
1
62
256
6
ByLayer
370
18
48
1
60
0
100
AcDbEllipse
10
16.598384
20
0.648515
30
0
11
2.69320093894161
21
4.21267951575764
31
0
210
0
220
0
230
1
40
0.614847
41
0.630423375581653
42
3.01137201893456
0
ELLIPSE
5
ED
100
AcDbEntity
8
1
62
256
6
ByLayer
370
18
48
1
60
0
100
AcDbEllipse
10
59.05
20
-3.595732
30
0
11
-1.85
21
2.2655217545714E-16
31
0
210
0
220
0
230
1
40
0.702153
41
0.794135441577486
42
2.34902745531854
0
ELLIPSE
5
EE
100
AcDbEntity
8
1
62
256
6
ByLayer
370
18
48
1
60
0
100
AcDbEllipse
10
46.270956
20
0
30
0
11
31.477786853937
21
-7.32568753177884
31
0
210
0
220
0
230
1
40
0.089612
41
-1.42274229017507
42
-1.39035606568928
0
ELLIPSE
5
EF
100
AcDbEntity
8
1
62
256
6
ByLayer
370
18
48
1
60
0
100
AcDbEllipse
10
51.778915
20
0.001958
30
0
11
1.25885430748108
21
7.8412120129982
31
0
210
0
220
0
230
1
40
0.327175
41
-2.4080235949297
42
-2.40313125049307
0
ELLIPSE
5
F0
100
AcDbEntity
8
1
62
256
6
ByLayer
370
18
48
1
60
0
100
AcDbEllipse
10
65.951923
20
-1.319195
30
0
11
0.290144988034819
21
-1.01409499121982
31
0
210
0
220
0
230
1
40
0.313216
41
0.0812707445878598
42
-3.06032190900198
0
ELLIPSE
5
F1
100
AcDbEntity
8
1
62
256
6
ByLayer
370
18
48
1
60
0
100
AcDbEllipse
10
71.969037
20
-0.145538
30
0
11
0.0471810661298099
21
0.15178071643295
31
0
210
0
220
0
230
1
40
0.051964
41
1.76869974176586
42
2.45645363675636
0
ELLIPSE
5
F2
100
AcDbEntity
8
1
62
256
6
ByLayer
370
18
48
1
60
0
100
AcDbEllipse
10
65.006865
20
-1.259691
30
0
11
1.24385062279188
21
0.278562755836977
31
0
210
0
220
0
230
1
40
0.763485
41
1.93501221740172
42
-1.742810745575
0
ELLIPSE
5
F3
100
AcDbEntity
8
1
62
256
6
ByLayer
370
18
48
1
60
0
100
AcDbEllipse
10
72
20
0
30
0
11
2.9252687187755
21
-8.34774882514096
31
0
210
0
220
0
230
1
40
0.066283
41
2.78209473049618
42
2.86895320570288
0
ELLIPSE
5
F4
100
AcDbEntity
8
1
62
256
6
ByLayer
370
18
48
1
60
0
100
AcDbEllipse
10
58.85
20
-3.595732
30
0
11
1.24999999999999
21
0
31
0
210
0
220
0
230
1
40
0.702153
41
-2.21619723518149
42
-0.744950439938531
0
ELLIPSE
5
F5
100
AcDbEntity
8
1
62
256
6
ByLayer
370
18
48
1
60
0
100
AcDbEllipse
10
52.72487
20
-80.703096
30
0
11
79.1258678586826
21
-5.96811312551797E-06
31
0
210
0
220
0
230
1
40
0.931411
41
1.44197252714263
42
1.4533063342079
0
ELLIPSE
5
F6
100
AcDbEntity
8
1
62
256
6
ByLayer
370
18
48
1
60
0
100
AcDbEllipse
10
71.969037
20
0.145538
30
0
11
0.0471810661234572
21
-0.151780716414959
31
0
210
0
220
0
230
1
40
0.051964
41
-2.45645363674954
42
-1.7686997416907
0
POINT
5
6C
100
AcDbEntity
8
80
62
256
6
ByLayer
370
18
48
1
60
0
100
AcDbPoint
10
0
20
0
30
0
39
0
210
0
220
0
230
1
50
360
0
POINT
5
6E
100
AcDbEntity
8
81
62
256
6
ByLayer
370
18
48
1
60
0
100
AcDbPoint
10
62
20
0
30
0
39
0
210
0
220
0
230
1
50
360
0
SPLINE
5
F7
100
AcDbEntity
8
1
62
256
6
ByLayer
370
18
48
1
60
0
100
AcDbSpline
70
4
71
3
72
14
73
10
40
0
40
0
40
0
40
0
40
0.194610475230278
40
0.387875248964235
40
0.576007975594296
40
0.68357313597327
40
0.789003800654074
40
0.893637306455547
40
1
40
1
40
1
40
1
41
1
10
12.8037131219232
20
8.57124521235428
30
0
41
1
10
12.3187734078633
20
8.88112947953584
30
0
41
1
10
11.3580111353562
20
9.5074478002127
30
0
41
1
10
9.98056012109166
20
10.5086578953599
30
0
41
1
10
8.77147475659561
20
11.3040247040511
30
0
41
1
10
7.72222142564161
20
11.8599855661985
30
0
41
1
10
6.85017453575568
20
12.2126771909133
30
0
41
1
10
5.93896383144653
20
12.4461659063894
30
0
41
1
10
5.3183536441876
20
12.498097750811
30
0
41
1
10
5.0009
20
12.5
30
0
0
SPLINE
5
F8
100
AcDbEntity
8
1
62
256
6
ByLayer
370
18
48
1
60
0
100
AcDbSpline
70
4
71
3
72
13
73
9
40
0
40
0
40
0
40
0
40
0.134869249509768
40
0.268183769364911
40
0.404131156299314
40
0.544098370903703
40
0.77063679433698
40
1
40
1
40
1
40
1
41
1
10
5.0009
20
-12.5
30
0
41
1
10
5.4051721356341
20
-12.4952849332261
30
0
41
1
10
6.19197065979333
20
-12.4131029531633
30
0
41
1
10
7.33766193268877
20
-12.0424540616595
30
0
41
1
10
8.42275549976728
20
-11.5039157125891
30
0
41
1
10
9.68492124706782
20
-10.7181648851006
30
0
41
1
10
11.1081144467889
20
-9.67959875078219
30
0
41
1
10
12.2357432361422
20
-8.94153596658697
30
0
41
1
10
12.8037131219232
20
-8.57124521235428
30
0
0
SPLINE
5
F9
100
AcDbEntity
8
1
62
256
6
ByLayer
370
18
48
1
60
0
100
AcDbSpline
70
4
71
3
72
24
73
20
40
0
40
0
40
0
40
0
40
0.0065266843760883
40
0.0371784901388898
40
0.0686645725921113
40
0.126097689852464
40
0.187633486341002
40
0.244662119958729
40
0.296272839748003
40
0.342477544909118
40
0.386129439859135
40
0.432213686992606
40
0.518508997178846
40
0.6070930639049
40
0.695167921054001
40
0.752388192431734
40
0.822233863499992
40
0.904761855303171
40
1
40
1
40
1
40
1
41
1
10
36.1931505569424
20
7.33307030361988
30
0
41
1
10
36.1620178748859
20
7.33248052533926
30
0
41
1
10
35.9824015822464
20
7.32898228544087
30
0
41
1
10
35.6059089728717
20
7.31721616186684
30
0
41
1
10
34.9543158242724
20
7.30606137657321
30
0
41
1
10
34.1100372387029
20
7.30614831442193
30
0
41
1
10
33.1537275569375
20
7.32250602426956
30
0
41
1
10
32.2220497896382
20
7.32994091029448
30
0
41
1
10
31.3736299393524
20
7.33424233771123
30
0
41
1
10
30.5964659279468
20
7.33571990965416
30
0
41
1
10
29.8471561834714
20
7.33558951058757
30
0
41
1
10
28.8734784073343
20
7.33425892195061
30
0
41
1
10
27.6480026673722
20
7.33208972130865
30
0
41
1
10
26.1889938412509
20
7.33056406015388
30
0
41
1
10
24.8913960019646
20
7.33104644334063
30
0
41
1
10
23.6981523589778
20
7.33315975618353
30
0
41
1
10
22.5353910008224
20
7.33666345894559
30
0
41
1
10
21.1616797817169
20
7.34259805894882
30
0
41
1
10
20.1754080890184
20
7.34727481215666
30
0
41
1
10
19.6469999997085
20
7.34999880558056
30
0
0
SPLINE
5
FA
100
AcDbEntity
8
1
62
256
6
ByLayer
370
18
48
1
60
0
100
AcDbSpline
70
4
71
1
72
4
73
2
40
0
40
0
40
1
40
1
41
1
10
40.0135715128052
20
-2.22943525737523
30
0
41
1
10
40.376967606783
20
-2.35258547607046
30
0
0
SPLINE
5
FB
100
AcDbEntity
8
1
62
256
6
ByLayer
370
18
48
1
60
0
100
AcDbSpline
70
4
71
1
72
4
73
2
40
0
40
0
40
1
40
1
41
1
10
57.2899684329989
20
3.92862501692929
30
0
41
1
10
57.2899869527437
20
3.92862942090957
30
0
0
SPLINE
5
FC
100
AcDbEntity
8
1
62
256
6
ByLayer
370
18
48
1
60
0
100
AcDbSpline
70
4
71
3
72
21
73
17
40
0
40
0
40
0
40
0
40
0.122946988171955
40
0.228830571325299
40
0.32308261516049
40
0.413085612109439
40
0.498911355028554
40
0.578127555978465
40
0.641865017784111
40
0.680468467709377
40
0.71240602385586
40
0.75572688616111
40
0.813193795682968
40
0.88435963989757
40
0.988078687150541
40
1
40
1
40
1
40
1
41
1
10
19.6469999997085
20
-7.34999880558056
30
0
41
1
10
20.2273757593934
20
-7.34697367309954
30
0
41
1
10
21.3075375826302
20
-7.34188456192385
30
0
41
1
10
22.8324746787764
20
-7.33551430979267
30
0
41
1
10
24.2018653864059
20
-7.33194195840906
30
0
41
1
10
25.4767698024092
20
-7.3307563256034
30
0
41
1
10
26.6807399337101
20
-7.33113721134177
30
0
41
1
10
27.7607450318164
20
-7.33237487719302
30
0
41
1
10
28.6176168329561
20
-7.33373900225604
30
0
41
1
10
29.2509767574393
20
-7.33480427782916
30
0
41
1
10
29.7865489750005
20
-7.33561333396256
30
0
41
1
10
30.4072161078309
20
-7.33577594154363
30
0
41
1
10
31.2097595423547
20
-7.33448233186587
30
0
41
1
10
32.2889396628578
20
-7.32711078044272
30
0
41
1
10
33.1734529145878
20
-7.32574505698568
30
0
41
1
10
33.720307996119
20
-7.32828029743288
30
0
41
1
10
33.7766676465179
20
-7.3285714899171
30
0
0
SPLINE
5
FD
100
AcDbEntity
8
1
62
256
6
ByLayer
370
18
48
1
60
0
100
AcDbSpline
70
4
71
3
72
9
73
5
40
0
40
0
40
0
40
0
40
0.665859010369707
40
1
40
1
40
1
40
1
41
1
10
34.3478874792604
20
-7.33231579511101
30
0
41
1
10
34.6407317974994
20
-7.33452316229415
30
0
41
1
10
35.0787936532441
20
-7.33821480826316
30
0
41
1
10
35.511679786575
20
-7.340524123889
30
0
41
1
10
35.6559789955648
20
-7.34131756880444
30
0
0
SPLINE
5
FE
100
AcDbEntity
8
1
62
256
6
ByLayer
370
18
48
1
60
0
100
AcDbSpline
70
4
71
3
72
14
73
10
40
0
40
0
40
0
40
0
40
0.116297199110041
40
0.224347627173945
40
0.327229232445745
40
0.43054434851141
40
0.604253242614412
40
0.827972338128668
40
1
40
1
40
1
40
1
41
1
10
64.9256574453152
20
-8.1999924869383
30
0
41
1
10
65.0737233641065
20
-8.19956659017396
30
0
41
1
10
65.3650689690545
20
-8.19875825245936
30
0
41
1
10
65.8095770423012
20
-8.19634178496531
30
0
41
1
10
66.2444388293845
20
-8.19644462924498
30
0
41
1
10
66.7545493920466
20
-8.19930304334491
30
0
41
1
10
67.4396353479367
20
-8.19978957837913
30
0
41
1
10
68.2210504276315
20
-8.19993343028929
30
0
41
1
10
68.7642895630976
20
-8.20000055089625
30
0
41
1
10
69.0005633921384
20
-8.20000642639474
30
0
0
SPLINE
5
FF
100
AcDbEntity
8
1
62
256
6
ByLayer
370
18
48
1
60
0
100
AcDbSpline
70
4
71
3
72
9
73
5
40
0
40
0
40
0
40
0
40
0.967885919217478
40
1
40
1
40
1
40
1
41
1
10
69.0069434416521
20
8.20006208214431
30
0
41
1
10
68.7684214138416
20
8.20006198032121
30
0
41
1
10
68.5222649326599
20
8.20002088321692
30
0
41
1
10
68.2762411288043
20
8.19997078879487
30
0
41
1
10
68.2683404488204
20
8.19996916832497
30
0
0
SPLINE
5
100
100
AcDbEntity
8
1
62
256
6
ByLayer
370
18
48
1
60
0
100
AcDbSpline
70
4
71
3
72
18
73
14
40
0
40
0
40
0
40
0
40
0.249999999999994
40
0.249999999999994
40
0.374999999999991
40
0.374999999999991
40
0.499999999999987
40
0.499999999999987
40
0.749999999999993
40
0.749999999999993
40
0.874999999999997
40
0.874999999999997
40
1
40
1
40
1
40
1
41
1
10
15.3725264067184
20
-3.89112428079574
30
0
41
1
10
15.1777285152255
20
-3.85275106833717
30
0
41
1
10
14.9920637852601
20
-3.81122541909912
30
0
41
1
10
14.7270008256606
20
-3.74438755370076
30
0
41
1
10
14.6407361116051
20
-3.72129337552909
30
0
41
1
10
14.4735831876732
20
-3.67368542939297
30
0
41
1
10
14.3938430774348
20
-3.64950442337067
30
0
41
1
10
14.1656721563958
20
-3.57579578931595
30
0
41
1
10
14.0281827757707
20
-3.52512291380049
30
0
41
1
10
13.8441171964163
20
-3.44629241244309
30
0
41
1
10
13.787046016637
20
-3.41976335972331
30
0
41
1
10
13.6825243999477
20
-3.36675355513725
30
0
41
1
10
13.6348409926508
20
-3.34017377941279
30
0
41
1
10
13.5916472134211
20
-3.31347219949365
30
0
0
SPLINE
5
101
100
AcDbEntity
8
1
62
256
6
ByLayer
370
18
48
1
60
0
100
AcDbSpline
70
4
71
3
72
8
73
4
40
0
40
0
40
0
40
0
40
1
40
1
40
1
40
1
41
1
10
15.5959702004261
20
-3.95063107046593
30
0
41
1
10
15.6271814710548
20
-4.2083196580447
30
0
41
1
10
15.6574675934812
20
-4.46802866189515
30
0
41
1
10
15.6863592402099
20
-4.72953905878762
30
0
0
SPLINE
5
102
100
AcDbEntity
8
1
62
256
6
ByLayer
370
18
48
1
60
0
100
AcDbSpline
70
4
71
3
72
24
73
20
40
0
40
0
40
0
40
0
40
0.250000000000027
40
0.250000000000027
40
0.375000000000033
40
0.375000000000033
40
0.500000000000039
40
0.500000000000039
40
0.625000000000045
40
0.625000000000045
40
0.687500000000031
40
0.687500000000031
40
0.750000000000017
40
0.750000000000017
40
0.812500000000003
40
0.812500000000003
40
0.874999999999989
40
0.874999999999989
40
1
40
1
40
1
40
1
41
1
10
53.5210840153699
20
5.95145282206676
30
0
41
1
10
53.5014551324911
20
5.9866227982445
30
0
41
1
10
53.4794588280116
20
6.02039328637278
30
0
41
1
10
53.4392492714036
20
6.06666653411256
30
0
41
1
10
53.4246090461355
20
6.08135363296626
30
0
41
1
10
53.3915310801372
20
6.10816003903236
30
0
41
1
10
53.3732396561525
20
6.12026614557621
30
0
41
1
10
53.3300016519287
20
6.13974408034164
30
0
41
1
10
53.3049580815396
20
6.14721259200905
30
0
41
1
10
53.2591683293419
20
6.14998369274329
30
0
41
1
10
53.2429522628632
20
6.14942781395479
30
0
41
1
10
53.2082844353172
20
6.14463249544377
30
0
41
1
10
53.1896706075133
20
6.14026256177371
30
0
41
1
10
53.1530634880397
20
6.1283584205091
30
0
41
1
10
53.1344859611389
20
6.12067345085711
30
0
41
1
10
53.09921420819
20
6.10362066643876
30
0
41
1
10
53.0822382013572
20
6.09418339869637
30
0
41
1
10
53.0329745012881
20
6.06414453463421
30
0
41
1
10
53.0035769570528
20
6.04273677775413
30
0
41
1
10
52.9757756797554
20
6.02072248684217
30
0
0
SPLINE
5
103
100
AcDbEntity
8
1
62
256
6
ByLayer
370
18
48
1
60
0
100
AcDbSpline
70
4
71
3
72
8
73
4
40
0
40
0
40
0
40
0
40
1
40
1
40
1
40
1
41
1
10
53.0792829432594
20
5.81493901242828
30
0
41
1
10
53.0433296058104
20
5.80621618454234
30
0
41
1
10
53.0074628534306
20
5.79881231275965
30
0
41
1
10
52.9716868504897
20
5.7926853977313
30
0
0
SPLINE
5
104
100
AcDbEntity
8
1
62
256
6
ByLayer
370
18
48
1
60
0
100
AcDbSpline
70
4
71
1
72
4
73
2
40
0
40
0
40
1
40
1
41
1
10
66.0794625875559
20
-2.37984746738184
30
0
41
1
10
66.1941934977063
20
-2.36546388434218
30
0
0
SPLINE
5
105
100
AcDbEntity
8
1
62
256
6
ByLayer
370
18
48
1
60
0
100
AcDbSpline
70
4
71
1
72
4
73
2
40
0
40
0
40
1
40
1
41
1
10
52.4587830468291
20
5.75335364011835
30
0
41
1
10
52.574917339242
20
6.07390591624551
30
0
0
SPLINE
5
106
100
AcDbEntity
8
1
62
256
6
ByLayer
370
18
48
1
60
0
100
AcDbSpline
70
4
71
3
72
8
73
4
40
0
40
0
40
0
40
0
40
1
40
1
40
1
40
1
41
1
10
61.9010472678892
20
-7.70476659527446
30
0
41
1
10
61.9006981774802
20
-7.70505569803254
30
0
41
1
10
61.9003490881832
20
-7.70534478080535
30
0
41
1
10
61.9
20
-7.70563384359093
30
0
0
SPLINE
5
107
100
AcDbEntity
8
1
62
256
6
ByLayer
370
18
48
1
60
0
100
AcDbSpline
70
4
71
3
72
11
73
7
40
0
40
0
40
0
40
0
40
0.19366321668054
40
0.581271893197611
40
0.968880569714682
40
1
40
1
40
1
40
1
41
1
10
39.5448162731645
20
-0.0051360677626349
30
0
41
1
10
40.2807594719774
20
-0.26439993302435
30
0
41
1
10
42.4894718217557
20
-1.04320405657097
30
0
41
1
10
46.1702011353801
20
-2.31976791327722
30
0
41
1
10
49.2341319726055
20
-3.30204478801855
30
0
41
1
10
50.8237951169799
20
-3.7824624475376
30
0
41
1
10
50.9419299993799
20
-3.8179978695569
30
0
0
SPLINE
5
108
100
AcDbEntity
8
1
62
256
6
ByLayer
370
18
48
1
60
0
100
AcDbSpline
70
4
71
3
72
10
73
6
40
0
40
0
40
0
40
0
40
0.045118630298167
40
0.045118630298167
40
1
40
1
40
1
40
1
41
1
10
19.6857332769504
20
-7.35558823202831
30
0
41
1
10
19.6845645331135
20
-7.35835799017866
30
0
41
1
10
19.6834215727705
20
-7.36111953599246
30
0
41
1
10
19.6586612775529
20
-7.42214243236324
30
0
41
1
10
19.647000012993
20
-7.47574594111018
30
0
41
1
10
19.6470000129141
20
-7.52422756239747
30
0
0
SPLINE
5
109
100
AcDbEntity
8
1
62
256
6
ByLayer
370
18
48
1
60
0
100
AcDbSpline
70
4
71
3
72
9
73
5
40
0
40
0
40
0
40
0
40
0.493266102912454
40
1
40
1
40
1
40
1
41
1
10
62.0000000204718
20
6.49966487278255
30
0
41
1
10
61.9846267047526
20
6.52654934224739
30
0
41
1
10
61.9534603310074
20
6.58105231600962
30
0
41
1
10
61.9211393125734
20
6.63497476166685
30
0
41
1
10
61.9047611569445
20
6.66229909269523
30
0
0
SPLINE
5
10A
100
AcDbEntity
8
1
62
256
6
ByLayer
370
18
48
1
60
0
100
AcDbSpline
70
4
71
3
72
14
73
10
40
0
40
0
40
0
40
0
40
0.329969216878896
40
0.329969216878896
40
0.664984608439448
40
0.664984608439448
40
0.832492304219724
40
0.832492304219724
40
1
40
1
40
1
40
1
41
1
10
64.9885408093799
20
8.34999997458127
30
0
41
1
10
65.4662609258031
20
8.35000147641344
30
0
41
1
10
65.943691944123
20
8.340545856604
30
0
41
1
10
66.9064762573117
20
8.3025725071098
30
0
41
1
10
67.3916690267973
20
8.27378538389712
30
0
41
1
10
68.1193961366164
20
8.21627249627593
30
0
41
1
10
68.3619832632458
20
8.19471535547453
30
0
41
1
10
68.847098774096
20
8.1468234216247
30
0
41
1
10
69.0892037143671
20
8.12029620645978
30
0
41
1
10
69.3317737013592
20
8.09162306984035
30
0
0
SPLINE
5
10B
100
AcDbEntity
8
1
62
256
6
ByLayer
370
18
48
1
60
0
100
AcDbSpline
70
4
71
3
72
8
73
4
40
0
40
0
40
0
40
0
40
1
40
1
40
1
40
1
41
1
10
71.8965584573307
20
-0.300004343660163
30
0
41
1
10
71.9310097229815
20
-0.178355674677988
30
0
41
1
10
71.9605770798062
20
-0.0586287106575583
30
0
41
1
10
71.9860925604664
20
0.0595039339750372
30
0
0
SPLINE
5
10C
100
AcDbEntity
8
1
62
256
6
ByLayer
370
18
48
1
60
0
100
AcDbSpline
70
4
71
3
72
8
73
4
40
0
40
0
40
0
40
0
40
1
40
1
40
1
40
1
41
1
10
69.1765137767895
20
8.18876158821618
30
0
41
1
10
69.2029110637006
20
8.17383083827582
30
0
41
1
10
69.2342432010466
20
8.1442416346319
30
0
41
1
10
69.2704837494208
20
8.10007251275854
30
0
0
SPLINE
5
10D
100
AcDbEntity
8
1
62
256
6
ByLayer
370
18
48
1
60
0
100
AcDbSpline
70
4
71
3
72
12
73
8
40
0
40
0
40
0
40
0
40
0.50000000000002
40
0.50000000000002
40
0.75000000000001
40
0.75000000000001
40
1
40
1
40
1
40
1
41
1
10
17.6
20
5.47059263463038
30
0
41
1
10
17.7708584413174
20
5.46320065317187
30
0
41
1
10
17.9382533154197
20
5.44513744089846
30
0
41
1
10
18.1843530340334
20
5.40223263658197
30
0
41
1
10
18.2655490031899
20
5.38527518509028
30
0
41
1
10
18.4262406317924
20
5.34583441933898
30
0
41
1
10
18.5060515081144
20
5.32324661595263
30
0
41
1
10
18.5842300033014
20
5.29795043537675
30
0
0
SPLINE
5
10E
100
AcDbEntity
8
1
62
256
6
ByLayer
370
18
48
1
60
0
100
AcDbSpline
70
4
71
3
72
8
73
4
40
0
40
0
40
0
40
0
40
1
40
1
40
1
40
1
41
1
10
62
20
-7.43118429323349
30
0
41
1
10
61.9666666666667
20
-7.46314637621512
30
0
41
1
10
61.9333333333333
20
-7.49510845919679
30
0
41
1
10
61.9
20
-7.52707054217842
30
0
0
SPLINE
5
10F
100
AcDbEntity
8
1
62
256
6
ByLayer
370
18
48
1
60
0
100
AcDbSpline
70
4
71
3
72
33
73
29
40
0
40
0
40
0
40
0
40
0.0312297780212622
40
0.0622604843247924
40
0.0930925954496033
40
0.123726597204151
40
0.154162984884686
40
0.184402263499236
40
0.214444947997321
40
0.244291563505569
40
0.273942645569347
40
0.303398740400561
40
0.332660405131766
40
0.361728208076724
40
0.390602728997549
40
0.4192845593786
40
0.447774302707244
40
0.476072574761652
40
0.504180003905753
40
0.560867133458315
40
0.617141914056848
40
0.673009879328389
40
0.728476684667356
40
0.783548109065934
40
0.83823005688235
40
0.89252855953864
40
0.946449777139068
40
1
40
1
40
1
40
1
41
1
10
67.0218810450132
20
-6.17301054976502
30
0
41
1
10
67.0084302447954
20
-6.14318299809551
30
0
41
1
10
66.9816143854081
20
-6.08371802809467
30
0
41
1
10
66.942222864771
20
-5.99210291437623
30
0
41
1
10
66.9036057829933
20
-5.89915259071063
30
0
41
1
10
66.8658126722861
20
-5.80473421964734
30
0
41
1
10
66.828830387821
20
-5.70896102126389
30
0
41
1
10
66.7926624176386
20
-5.61188022579219
30
0
41
1
10
66.7573078360344
20
-5.51355584556629
30
0
41
1
10
66.722766888508
20
-5.41404667551663
30
0
41
1
10
66.6890395098498
20
-5.31341209751005
30
0
41
1
10
66.6561257171344
20
-5.21171050828312
30
0
41
1
10
66.6240255062612
20
-5.10899970736548
30
0
41
1
10
66.592738876404
20
-5.0053367623789
30
0
41
1
10
66.5622658346167
20
-4.90077802996694
30
0
41
1
10
66.5326063536312
20
-4.79537908005219
30
0
41
1
10
66.5037605344725
20
-4.68919485756166
30
0
41
1
10
66.4757280038903
20
-4.58227900562577
30
0
41
1
10
66.4392237551953
20
-4.4379770261061
30
0
41
1
10
66.3952835500156
20
-4.25451601068656
30
0
41
1
10
66.3452984919459
20
-4.02969138008143
30
0
41
1
10
66.2983014441165
20
-3.80153906934169
30
0
41
1
10
66.254290926212
20
-3.57039041545326
30
0
41
1
10
66.213272144968
20
-3.33656396515857
30
0
41
1
10
66.1752260284022
20
-3.10039849647612
30
0
41
1
10
66.1402230536343
20
-2.8621388877022
30
0
41
1
10
66.1080030196419
20
-2.62235318358381
30
0
41
1
10
66.0889540451998
20
-2.46049288750828
30
0
41
1
10
66.0794624368034
20
-2.37984211284692
30
0
0
SPLINE
5
110
100
AcDbEntity
8
1
62
256
6
ByLayer
370
18
48
1
60
0
100
AcDbSpline
70
4
71
1
72
4
73
2
40
0
40
0
40
1
40
1
41
1
10
67.1560104234703
20
-6.11009594324403
30
0
41
1
10
67.0218823588626
20
-6.17295289519322
30
0
0
SPLINE
5
111
100
AcDbEntity
8
1
62
256
6
ByLayer
370
18
48
1
60
0
100
AcDbSpline
70
4
71
3
72
14
73
10
40
0
40
0
40
0
40
0
40
0.249999999999999
40
0.249999999999999
40
0.5
40
0.5
40
0.75
40
0.75
40
1
40
1
40
1
40
1
41
1
10
71.8095371546551
20
0.748074234483369
30
0
41
1
10
71.7818717770414
20
0.86217264729305
30
0
41
1
10
71.7476316608381
20
0.992674038181093
30
0
41
1
10
71.6673719460342
20
1.28126157779604
30
0
41
1
10
71.621354696631
20
1.43933918155074
30
0
41
1
10
71.5193881237058
20
1.77673201403727
30
0
41
1
10
71.4634415476121
20
1.95603815193053
30
0
41
1
10
71.3438621346925
20
2.32868975577307
30
0
41
1
10
71.2802336590874
20
2.52202179574084
30
0
41
1
10
71.214036985575
20
2.71849927700734
30
0
0
SPLINE
5
112
100
AcDbEntity
8
1
62
256
6
ByLayer
370
18
48
1
60
0
100
AcDbSpline
70
4
71
3
72
10
73
6
40
0
40
0
40
0
40
0
40
0.155144147770832
40
0.155144147770832
40
1
40
1
40
1
40
1
41
1
10
64.9589319428632
20
-8.19997873690636
30
0
41
1
10
64.8627783059969
20
-8.19990445951632
30
0
41
1
10
64.7666125115041
20
-8.19945571455003
30
0
41
1
10
64.14664826649
20
-8.19415018395964
30
0
41
1
10
63.6225648177287
20
-8.1785740980043
30
0
41
1
10
63.0989547699444
20
-8.1518795731584
30
0
0
SPLINE
5
113
100
AcDbEntity
8
1
62
256
6
ByLayer
370
18
48
1
60
0
100
AcDbSpline
70
4
71
3
72
8
73
4
40
0
40
0
40
0
40
0
40
1
40
1
40
1
40
1
41
1
10
15.3725264067184
20
-3.89112428079576
30
0
41
1
10
15.4472330412049
20
-3.90916356253084
30
0
41
1
10
15.5217251255512
20
-3.9289878234716
30
0
41
1
10
15.5959702004261
20
-3.95063107046593
30
0
0
SPLINE
5
114
100
AcDbEntity
8
1
62
256
6
ByLayer
370
18
48
1
60
0
100
AcDbSpline
70
4
71
3
72
28
73
24
40
0
40
0
40
0
40
0
40
0.124999999999999
40
0.124999999999999
40
0.187499999999999
40
0.187499999999999
40
0.249999999999999
40
0.249999999999999
40
0.374999999999998
40
0.374999999999998
40
0.437499999999998
40
0.437499999999998
40
0.499999999999998
40
0.499999999999998
40
0.624999999999999
40
0.624999999999999
40
0.6875
40
0.6875
40
0.75
40
0.75
40
0.875
40
0.875
40
1
40
1
40
1
40
1
41
1
10
52.5614805403841
20
-6.09816636847245
30
0
41
1
10
51.142460248537
20
-5.76412909271616
30
0
41
1
10
49.7280285419347
20
-5.38547745529033
30
0
41
1
10
47.6062417086271
20
-4.76170961524355
30
0
41
1
10
46.8987846209837
20
-4.54486013536609
30
0
41
1
10
45.4817113394084
20
-4.09723360062526
30
0
41
1
10
44.7724737871207
20
-3.86631006124654
30
0
41
1
10
42.6472990784934
20
-3.15670106540989
30
0
41
1
10
41.2316976560944
20
-2.66080887280171
30
0
41
1
10
39.105416852378
20
-1.89472710323432
30
0
41
1
10
38.3958325255034
20
-1.63538953341731
30
0
41
1
10
36.977096644786
20
-1.11102999953883
30
0
41
1
10
36.2685628549779
20
-0.846472977479266
30
0
41
1
10
34.1436100235983
20
-0.0506351309202842
30
0
41
1
10
32.7279608144051
20
0.483138128864255
30
0
41
1
10
30.6000963719112
20
1.27287398168318
30
0
41
1
10
29.8898020489094
20
1.53446013212343
30
0
41
1
10
28.4726200620865
20
2.05072498863115
30
0
41
1
10
27.7650944812045
20
2.30564735369646
30
0
41
1
10
25.644806907221
20
3.05836137567394
30
0
41
1
10
24.2342482295053
20
3.54382276800396
30
0
41
1
10
21.4118038603788
20
4.46335368495858
30
0
41
1
10
19.9999054642159
20
4.89745212645522
30
0
41
1
10
18.5842300033014
20
5.29795043537675
30
0
0
SPLINE
5
115
100
AcDbEntity
8
1
62
256
6
ByLayer
370
18
48
1
60
0
100
AcDbSpline
70
4
71
3
72
8
73
4
40
0
40
0
40
0
40
0
40
1
40
1
40
1
40
1
41
1
10
63.5111125806886
20
8.34989235019799
30
0
41
1
10
63.0097920972783
20
8.16622264547789
30
0
41
1
10
62.5062604555449
20
7.97170405511426
30
0
41
1
10
62
20
7.76771017285236
30
0
0
SPLINE
5
116
100
AcDbEntity
8
1
62
256
6
ByLayer
370
18
48
1
60
0
100
AcDbSpline
70
4
71
3
72
8
73
4
40
0
40
0
40
0
40
0
40
1
40
1
40
1
40
1
41
1
10
62.89
20
-7.61512014616562
30
0
41
1
10
62.9080090171145
20
-7.62188457860998
30
0
41
1
10
62.9260180153616
20
-7.62864906128561
30
0
41
1
10
62.9440269947252
20
-7.63541359423402
30
0
0
SPLINE
5
117
100
AcDbEntity
8
1
62
256
6
ByLayer
370
18
48
1
60
0
100
AcDbSpline
70
4
71
3
72
14
73
10
40
0
40
0
40
0
40
0
40
0.25
40
0.25
40
0.5
40
0.5
40
0.75
40
0.75
40
1
40
1
40
1
40
1
41
1
10
12.8892231397341
20
5.5501231056266
30
0
41
1
10
13.1230279250962
20
5.48921737380667
30
0
41
1
10
13.3635344045189
20
5.44083922373446
30
0
41
1
10
13.8581317917945
20
5.36335369557455
30
0
41
1
10
14.1122157006864
20
5.3342670959471
30
0
41
1
10
14.6354237466809
20
5.29046651918532
30
0
41
1
10
14.9058665927736
20
5.27581081458169
30
0
41
1
10
15.4488712052499
20
5.25627559437433
30
0
41
1
10
15.7229513439821
20
5.25126817635973
30
0
41
1
10
15.9999999999999
20
5.24755150735038
30
0
0
SPLINE
5
118
100
AcDbEntity
8
1
62
256
6
ByLayer
370
18
48
1
60
0
100
AcDbSpline
70
2053
71
3
72
39
73
35
40
0
40
0
40
0
40
0
40
0.0303163288933911
40
0.0624401287796704
40
0.0936072604597037
40
0.124901990091871
40
0.15619650528793
40
0.187391222880372
40
0.219467419848947
40
0.249874407208074
40
0.280274409636188
40
0.31238740258868
40
0.343577940629962
40
0.374908262191795
40
0.406082780315236
40
0.437412999498168
40
0.469563433891193
40
0.499852976521382
40
0.530193593458354
40
0.56243304801365
40
0.593712324326021
40
0.624997499384363
40
0.656199974828676
40
0.687540950290246
40
0.71963735427796
40
0.749991513532582
40
0.780339002037115
40
0.812405351652608
40
0.843727581271963
40
0.874887529740743
40
0.906227285632499
40
0.937456355640569
40
0.969671714199276
40
1
40
1
40
1
40
1
41
1
10
59.05
20
-4.06131148991892
30
0
41
1
10
58.932043693751
20
-4.06131208064327
30
0
41
1
10
58.6890983723827
20
-4.08235793005278
30
0
41
1
10
58.33934156228
20
-4.17555149814615
30
0
41
1
10
58.0153472116838
20
-4.32669403101394
30
0
41
1
10
57.7343495536574
20
-4.52244074729191
30
0
41
1
10
57.5034176917625
20
-4.75334501820831
30
0
41
1
10
57.3295909272524
20
-5.00956095693445
30
0
41
1
10
57.2236937555687
20
-5.27403719396597
30
0
41
1
10
57.1886131529891
20
-5.53454453307009
30
0
41
1
10
57.2231239449337
20
-5.78175338430583
30
0
41
1
10
57.3285247853644
20
-6.00895161688962
30
0
41
1
10
57.5020240622403
20
-6.20781475807993
30
0
41
1
10
57.7323806343172
20
-6.37132337124555
30
0
41
1
10
58.0132310703885
20
-6.49961492688954
30
0
41
1
10
58.3372303059648
20
-6.59236134300437
30
0
41
1
10
58.6875065756273
20
-6.64743853425665
30
0
41
1
10
59.0484641536091
20
-6.66495299232275
30
0
41
1
10
59.4098419960787
20
-6.64771049849037
30
0
41
1
10
59.760604823261
20
-6.5928468680786
30
0
41
1
10
60.0853062511619
20
-6.50016042436823
30
0
41
1
10
60.3661877578259
20
-6.3721322677396
30
0
41
1
10
60.5971326486116
20
-6.20857424050101
30
0
41
1
10
60.7709552173902
20
-6.0098434700553
30
0
41
1
10
60.8766284820194
20
-5.78248948172001
30
0
41
1
10
60.911347791815
20
-5.5356928995239
30
0
41
1
10
60.8766862533735
20
-5.27552807874432
30
0
41
1
10
60.7711622755727
20
-5.01089015553182
30
0
41
1
10
60.5976356429284
20
-4.75461594850231
30
0
41
1
10
60.3668769049073
20
-4.52350590611539
30
0
41
1
10
60.0862294420737
20
-4.32756336166963
30
0
41
1
10
59.7617001951579
20
-4.17587665416463
30
0
41
1
10
59.4113506950164
20
-4.08239751546276
30
0
41
1
10
59.1680028287891
20
-4.0613108989616
30
0
41
1
10
59.05
20
-4.06131148991892
30
0
0
SPLINE
5
119
100
AcDbEntity
8
1
62
256
6
ByLayer
370
18
48
1
60
0
100
AcDbSpline
70
4
71
3
72
8
73
4
40
0
40
0
40
0
40
0
40
1
40
1
40
1
40
1
41
1
10
69.706977965204
20
2.71556732882692
30
0
41
1
10
69.8053793531777
20
2.72235361838278
30
0
41
1
10
69.9037214857947
20
2.72980396140801
30
0
41
1
10
70.001986569561
20
2.73812987213014
30
0
0
SPLINE
5
11A
100
AcDbEntity
8
1
62
256
6
ByLayer
370
18
48
1
60
0
100
AcDbSpline
70
4
71
3
72
8
73
4
40
0
40
0
40
0
40
0
40
1
40
1
40
1
40
1
41
1
10
19.6469999999252
20
-5.44566449941257
30
0
41
1
10
19.6469999999166
20
-5.62679810026034
30
0
41
1
10
19.6469999999079
20
-5.8083417240712
30
0
41
1
10
19.6469999998992
20
-5.99029499944251
30
0
0
SPLINE
5
11B
100
AcDbEntity
8
1
62
256
6
ByLayer
370
18
48
1
60
0
100
AcDbSpline
70
4
71
3
72
12
73
8
40
0
40
0
40
0
40
0
40
0.417480351745512
40
0.417480351745512
40
0.708739974522085
40
0.708739974522085
40
1
40
1
40
1
40
1
41
1
10
61.9999999939386
20
-7.60101525267899
30
0
41
1
10
61.9862418451574
20
-7.61545941177801
30
0
41
1
10
61.9724785587213
20
-7.62990097934696
30
0
41
1
10
61.9491046137254
20
-7.65441354379408
30
0
41
1
10
61.9394965370677
20
-7.66448585056114
30
0
41
1
10
61.9202755246618
20
-7.68462804126975
30
0
41
1
10
61.9106625855837
20
-7.69469792868969
30
0
41
1
10
61.901047253366
20
-7.70476661642064
30
0
0
SPLINE
5
11C
100
AcDbEntity
8
1
62
256
6
ByLayer
370
18
48
1
60
0
100
AcDbSpline
70
4
71
1
72
4
73
2
40
0
40
0
40
1
40
1
41
1
10
66.1941934977063
20
-2.36546388434218
30
0
41
1
10
66.201439073076
20
-2.37980965201982
30
0
0
SPLINE
5
11D
100
AcDbEntity
8
1
62
256
6
ByLayer
370
18
48
1
60
0
100
AcDbSpline
70
4
71
3
72
14
73
10
40
0
40
0
40
0
40
0
40
0.249999999999999
40
0.249999999999999
40
0.5
40
0.5
40
0.75
40
0.75
40
1
40
1
40
1
40
1
41
1
10
71.8095371546551
20
-0.748074234483369
30
0
41
1
10
71.7818717770414
20
-0.86217264729305
30
0
41
1
10
71.7476316608381
20
-0.992674038181093
30
0
41
1
10
71.6673719460342
20
-1.28126157779604
30
0
41
1
10
71.621354696631
20
-1.43933918155074
30
0
41
1
10
71.5193881237058
20
-1.77673201403727
30
0
41
1
10
71.4634415476121
20
-1.95603815193053
30
0
41
1
10
71.3438621346925
20
-2.32868975577307
30
0
41
1
10
71.2802336590874
20
-2.52202179574084
30
0
41
1
10
71.214036985575
20
-2.71849927700734
30
0
0
SPLINE
5
11E
100
AcDbEntity
8
1
62
256
6
ByLayer
370
18
48
1
60
0
100
AcDbSpline
70
4
71
3
72
8
73
4
40
0
40
0
40
0
40
0
40
1
40
1
40
1
40
1
41
1
10
16
20
-4.81058783013108
30
0
41
1
10
15.8956994236368
20
-4.78101535871753
30
0
41
1
10
15.7911412149973
20
-4.75399814460212
30
0
41
1
10
15.6863592402098
20
-4.72953905878762
30
0
0
SPLINE
5
11F
100
AcDbEntity
8
1
62
256
6
ByLayer
370
18
48
1
60
0
100
AcDbSpline
70
4
71
3
72
8
73
4
40
0
40
0
40
0
40
0
40
1
40
1
40
1
40
1
41
1
10
71.6975216739977
20
-0.877256944580267
30
0
41
1
10
71.7650769271737
20
-0.686804853604087
30
0
41
1
10
71.8324814795821
20
-0.491163268936447
30
0
41
1
10
71.8965584573317
20
-0.300004343659936
30
0
0
SPLINE
5
120
100
AcDbEntity
8
1
62
256
6
ByLayer
370
18
48
1
60
0
100
AcDbSpline
70
4
71
3
72
8
73
4
40
0
40
0
40
0
40
0
40
1
40
1
40
1
40
1
41
1
10
63.0989547699446
20
-7.92057904956465
30
0
41
1
10
63.0989547699466
20
-7.83935944792626
30
0
41
1
10
63.0444318013192
20
-7.74354432596914
30
0
41
1
10
62.9440269947252
20
-7.63541359423402
30
0
0
SPLINE
5
121
100
AcDbEntity
8
1
62
256
6
ByLayer
370
18
48
1
60
0
100
AcDbSpline
70
4
71
3
72
8
73
4
40
0
40
0
40
0
40
0
40
1
40
1
40
1
40
1
41
1
10
52.5614805403841
20
6.09816636847245
30
0
41
1
10
51.767180673913
20
5.91118823640909
30
0
41
1
10
50.9743185150522
20
5.71023141508192
30
0
41
1
10
50.182073019535
20
5.49659738228507
30
0
0
SPLINE
5
122
100
AcDbEntity
8
1
62
256
6
ByLayer
370
18
48
1
60
0
100
AcDbSpline
70
4
71
1
72
4
73
2
40
0
40
0
40
1
40
1
41
1
10
49.8662498087373
20
-5.5528215385059
30
0
41
1
10
49.9639994214235
20
-5.42202154875173
30
0
0
SPLINE
5
123
100
AcDbEntity
8
1
62
256
6
ByLayer
370
18
48
1
60
0
100
AcDbSpline
70
4
71
3
72
8
73
4
40
0
40
0
40
0
40
0
40
1
40
1
40
1
40
1
41
1
10
69.3835567929033
20
-7.94025479621368
30
0
41
1
10
69.2963915594129
20
-8.07700571568739
30
0
41
1
10
69.2273144062173
20
-8.16002789685669
30
0
41
1
10
69.176513776792
20
-8.1887615882149
30
0
0
SPLINE
5
124
100
AcDbEntity
8
1
62
256
6
ByLayer
370
18
48
1
60
0
100
AcDbSpline
70
4
71
3
72
8
73
4
40
0
40
0
40
0
40
0
40
1
40
1
40
1
40
1
41
1
10
16
20
5.24755150735044
30
0
41
1
10
16.1913005592411
20
5.2584462953032
30
0
41
1
10
16.3814087610306
20
5.26365299442114
30
0
41
1
10
16.570331777999
20
5.26303559773467
30
0
0
SPLINE
5
125
100
AcDbEntity
8
1
62
256
6
ByLayer
370
18
48
1
60
0
100
AcDbSpline
70
4
71
3
72
8
73
4
40
0
40
0
40
0
40
0
40
1
40
1
40
1
40
1
41
1
10
12.8892231397341
20
-2.88433373183486
30
0
41
1
10
12.8607636365909
20
-2.86600087977246
30
0
41
1
10
12.8322598706677
20
-2.84762723862673
30
0
41
1
10
12.8037131219232
20
-2.82921354569379
30
0
0
SPLINE
5
126
100
AcDbEntity
8
1
62
256
6
ByLayer
370
18
48
1
60
0
100
AcDbSpline
70
4
71
3
72
8
73
4
40
0
40
0
40
0
40
0
40
1
40
1
40
1
40
1
41
1
10
70.1877136603965
20
-5.68582285260388
30
0
41
1
10
69.9480524552848
20
-6.41324635899096
30
0
41
1
10
69.7043284043701
20
-7.14535442418028
30
0
41
1
10
69.4563914933358
20
-7.88232000621963
30
0
0
SPLINE
5
127
100
AcDbEntity
8
1
62
256
6
ByLayer
370
18
48
1
60
0
100
AcDbSpline
70
4
71
3
72
21
73
17
40
0
40
0
40
0
40
0
40
0.0285075683623651
40
0.0569326266441866
40
0.0853447234550734
40
0.113813502398744
40
0.142408192926741
40
0.213406663692283
40
0.283899719248353
40
0.355066706713984
40
0.425291088085651
40
0.565968327046887
40
0.706131079654654
40
0.845922323851967
40
0.985279927329692
40
1
40
1
40
1
40
1
41
1
10
61.9000039863025
20
-7.52707054245047
30
0
41
1
10
61.90024262827
20
-7.52230825210921
30
0
41
1
10
61.9007192214983
20
-7.51279745502802
30
0
41
1
10
61.9045514162807
20
-7.49819026273408
30
0
41
1
10
61.9106695937485
20
-7.48338409837925
30
0
41
1
10
61.9192935896816
20
-7.46835577566517
30
0
41
1
10
61.9358161319662
20
-7.44563321587643
30
0
41
1
10
61.9658488946978
20
-7.41506453494077
30
0
41
1
10
62.0177841596212
20
-7.37705599608319
30
0
41
1
10
62.0828607404346
20
-7.34015707474418
30
0
41
1
10
62.1865103148001
20
-7.29370833726014
30
0
41
1
10
62.3453237802739
20
-7.24296418273076
30
0
41
1
10
62.5726327404505
20
-7.20249321691017
30
0
41
1
10
62.8193755165267
20
-7.1897367330711
30
0
41
1
10
62.9916867901727
20
-7.20183022940051
30
0
41
1
10
63.0765607181904
20
-7.21374728431212
30
0
41
1
10
63.0846692931603
20
-7.21488580040804
30
0
0
SPLINE
5
128
100
AcDbEntity
8
1
62
256
6
ByLayer
370
18
48
1
60
0
100
AcDbSpline
70
4
71
3
72
8
73
4
40
0
40
0
40
0
40
0
40
1
40
1
40
1
40
1
41
1
10
63.0989547699446
20
-8.1518795731584
30
0
41
1
10
63.2365326379722
20
-8.20866628206301
30
0
41
1
10
63.3739150751169
20
-8.26473134602139
30
0
41
1
10
63.5111125807001
20
-8.32004649921458
30
0
0
SPLINE
5
129
100
AcDbEntity
8
1
62
256
6
ByLayer
370
18
48
1
60
0
100
AcDbSpline
70
4
71
3
72
8
73
4
40
0
40
0
40
0
40
0
40
1
40
1
40
1
40
1
41
1
10
71.9860925604746
20
-0.0595039339750656
30
0
41
1
10
71.9746696314023
20
-0.09746115813752
30
0
41
1
10
71.9633148735717
20
-0.135285051216442
30
0
41
1
10
71.9520277359714
20
-0.17297669089416
30
0
0
SPLINE
5
12A
100
AcDbEntity
8
1
62
256
6
ByLayer
370
18
48
1
60
0
100
AcDbSpline
70
4
71
3
72
8
73
4
40
0
40
0
40
0
40
0
40
1
40
1
40
1
40
1
41
1
10
17.6
20
-5.46250953734653
30
0
41
1
10
18.2831891308113
20
-5.6472732743218
30
0
41
1
10
18.9653373359236
20
-5.82356955591143
30
0
41
1
10
19.6469999998992
20
-5.99029499944251
30
0
0
SPLINE
5
12B
100
AcDbEntity
8
1
62
256
6
ByLayer
370
18
48
1
60
0
100
AcDbSpline
70
4
71
3
72
22
73
18
40
0
40
0
40
0
40
0
40
0.125
40
0.125
40
0.25
40
0.25
40
0.375
40
0.375
40
0.5
40
0.5
40
0.625
40
0.625
40
0.75
40
0.75
40
0.875
40
0.875
40
1
40
1
40
1
40
1
41
1
10
49.8662498087373
20
-5.5528215385059
30
0
41
1
10
48.6048529848111
20
-5.84378462573125
30
0
41
1
10
47.3445832136602
20
-6.10195459710584
30
0
41
1
10
44.8233270632835
20
-6.54982922514605
30
0
41
1
10
43.5622219559108
20
-6.73950131438053
30
0
41
1
10
41.0373178808715
20
-7.04718010489182
30
0
41
1
10
39.7785980272898
20
-7.16419350042344
30
0
41
1
10
37.2648774402358
20
-7.31689574762626
30
0
41
1
10
36.0097810306225
20
-7.35178191229724
30
0
41
1
10
33.4961363298925
20
-7.33877569617891
30
0
41
1
10
32.2369123035237
20
-7.29139443540498
30
0
41
1
10
29.7125720350028
20
-7.1194741536101
30
0
41
1
10
28.4531897836284
20
-6.99528882416666
30
0
41
1
10
25.9371109359324
20
-6.67393235593178
30
0
41
1
10
24.6805074592411
20
-6.47682131315469
30
0
41
1
10
22.1662093789001
20
-6.01260197187827
30
0
41
1
10
20.9084445924549
20
-5.74533773211061
30
0
41
1
10
19.6469999999253
20
-5.44566684263114
30
0
0
SPLINE
5
12C
100
AcDbEntity
8
1
62
256
6
ByLayer
370
18
48
1
60
0
100
AcDbSpline
70
4
71
3
72
72
73
68
40
0
40
0
40
0
40
0
40
0.0625000000000008
40
0.0625000000000008
40
0.125000000000002
40
0.125000000000002
40
0.187500000000003
40
0.187500000000003
40
0.218750000000003
40
0.218750000000003
40
0.250000000000003
40
0.250000000000003
40
0.281250000000004
40
0.281250000000004
40
0.296875000000004
40
0.296875000000004
40
0.312500000000004
40
0.312500000000004
40
0.343750000000004
40
0.343750000000004
40
0.359375000000004
40
0.359375000000004
40
0.375000000000003
40
0.375000000000003
40
0.390625000000003
40
0.390625000000003
40
0.406250000000003
40
0.406250000000003
40
0.421875000000003
40
0.421875000000003
40
0.429687500000003
40
0.429687500000003
40
0.437500000000003
40
0.437500000000003
40
0.468750000000003
40
0.468750000000003
40
0.484375000000003
40
0.484375000000003
40
0.500000000000002
40
0.500000000000002
40
0.515625000000002
40
0.515625000000002
40
0.531250000000002
40
0.531250000000002
40
0.546875000000002
40
0.546875000000002
40
0.562500000000002
40
0.562500000000002
40
0.593750000000001
40
0.593750000000001
40
0.625000000000001
40
0.625000000000001
40
0.656250000000001
40
0.656250000000001
40
0.6875
40
0.6875
40
0.71875
40
0.71875
40
0.75
40
0.75
40
0.8125
40
0.8125
40
0.875
40
0.875
40
0.9375
40
0.9375
40
1
40
1
40
1
40
1
41
1
10
12.8037131219232
20
5.57231651328016
30
0
41
1
10
12.4067660579817
20
5.67496001930382
30
0
41
1
10
12.0200244527301
20
5.78617568425543
30
0
41
1
10
11.2550802846617
20
6.01366356862172
30
0
41
1
10
10.8768742370889
20
6.13001118614571
30
0
41
1
10
10.1183660135486
20
6.35010539334192
30
0
41
1
10
9.73816069960554
20
6.45403560568977
30
0
41
1
10
9.15835308436161
20
6.58041346443119
30
0
41
1
10
8.96349655114483
20
6.61753604971119
30
0
41
1
10
8.56920626179277
20
6.6766974616458
30
0
41
1
10
8.37052342082265
20
6.69859534255019
30
0
41
1
10
7.97170298595665
20
6.72047983062956
30
0
41
1
10
7.77128794659063
20
6.72054920933076
30
0
41
1
10
7.4695901533201
20
6.69793922196851
30
0
41
1
10
7.3688510872347
20
6.68659638396292
30
0
41
1
10
7.16720060963399
20
6.65487581619459
30
0
41
1
10
7.06628408575392
20
6.6344414161274
30
0
41
1
10
6.7688483271389
20
6.55857498503875
30
0
41
1
10
6.57594864111525
20
6.48850031986237
30
0
41
1
10
6.29921683401497
20
6.3466691915072
30
0
41
1
10
6.20878711673032
20
6.29293718851014
30
0
41
1
10
6.03747717740166
20
6.17468513976416
30
0
41
1
10
5.95608008805323
20
6.10996276756654
30
0
41
1
10
5.80263665443934
20
5.96893678740449
30
0
41
1
10
5.73058546289099
20
5.89263879827112
30
0
41
1
10
5.59693107055045
20
5.72777830657623
30
0
41
1
10
5.53636440084864
20
5.64037571183317
30
0
41
1
10
5.42941730742066
20
5.45836277376617
30
0
41
1
10
5.38274568043147
20
5.36340261038006
30
0
41
1
10
5.32310583083435
20
5.21515960676908
30
0
41
1
10
5.30495706706978
20
5.16477553347755
30
0
41
1
10
5.27219263128396
20
5.06205582508261
30
0
41
1
10
5.25754379032117
20
5.00953995811568
30
0
41
1
10
5.19420529577303
20
4.74580126426849
30
0
41
1
10
5.17401948796328
20
4.52924685210198
30
0
41
1
10
5.18624611548546
20
4.19670395931314
30
0
41
1
10
5.19755471459263
20
4.08498388143963
30
0
41
1
10
5.23318140072647
20
3.86439498794391
30
0
41
1
10
5.25751498086177
20
3.75484876063277
30
0
41
1
10
5.31837703358204
20
3.53701029987573
30
0
41
1
10
5.35507993794647
20
3.42829912303992
30
0
41
1
10
5.4394158353179
20
3.21384213604028
30
0
41
1
10
5.48671790406499
20
3.10879076975201
30
0
41
1
10
5.5904836070647
20
2.9024398173633
30
0
41
1
10
5.64695168395838
20
2.8011421695677
30
0
41
1
10
5.76822323806132
20
2.60181449351646
30
0
41
1
10
5.83333161279194
20
2.50337243644054
30
0
41
1
10
6.03780174085637
20
2.21557611131951
30
0
41
1
10
6.18543421884419
20
2.03446471712391
30
0
41
1
10
6.49677070375046
20
1.68792134270586
30
0
41
1
10
6.66051521670161
20
1.52252681564815
30
0
41
1
10
6.99951448096752
20
1.2033646694544
30
0
41
1
10
7.17171083950109
20
1.05244481641054
30
0
41
1
10
7.51728988034091
20
0.763764398844472
30
0
41
1
10
7.69091103548243
20
0.625826309310781
30
0
41
1
10
8.03817270950725
20
0.359065400803416
30
0
41
1
10
8.2118247187058
20
0.230257734570898
30
0
41
1
10
8.55829838386143
20
-0.0208017958216544
30
0
41
1
10
8.73107939082416
20
-0.14299877520736
30
0
41
1
10
9.24316582762086
20
-0.499468694118519
30
0
41
1
10
9.57799014939116
20
-0.725145863238822
30
0
41
1
10
10.2384516057789
20
-1.16453127935699
30
0
41
1
10
10.5642667076997
20
-1.37818096092613
30
0
41
1
10
11.2102161434975
20
-1.79932908360075
30
0
41
1
10
11.5302250813636
20
-2.00668470659775
30
0
41
1
10
12.1680378836682
20
-2.41911863935812
30
0
41
1
10
12.4858418326336
20
-2.62417498366449
30
0
41
1
10
12.8037131219232
20
-2.82921354569373
30
0
0
SPLINE
5
12D
100
AcDbEntity
8
1
62
256
6
ByLayer
370
18
48
1
60
0
100
AcDbSpline
70
4
71
3
72
12
73
8
40
0
40
0
40
0
40
0
40
0.417480351745687
40
0.417480351745687
40
0.708739974522294
40
0.708739974522294
40
1
40
1
40
1
40
1
41
1
10
61.9999999939386
20
7.60101525267899
30
0
41
1
10
61.9862418451574
20
7.61545941177801
30
0
41
1
10
61.9724785587213
20
7.62990097934696
30
0
41
1
10
61.9491046137254
20
7.65441354379408
30
0
41
1
10
61.9394965370677
20
7.66448585056114
30
0
41
1
10
61.9202755246618
20
7.68462804126972
30
0
41
1
10
61.9106625855837
20
7.69469792868966
30
0
41
1
10
61.901047253366
20
7.70476661642064
30
0
0
SPLINE
5
12E
100
AcDbEntity
8
1
62
256
6
ByLayer
370
13
48
1
60
0
100
AcDbSpline
70
4
71
3
72
10
73
6
40
0
40
0
40
0
40
0
40
0.0018196640363055
40
0.0018196640363055
40
1
40
1
40
1
40
1
41
1
10
71.128390094111
20
0.797301953980934
30
0
41
1
10
71.1283761692439
20
0.797311021804859
30
0
41
1
10
71.1283622442954
20
0.797320089669512
30
0
41
1
10
71.1207098651871
20
0.802303446662222
30
0
41
1
10
71.1131011527124
20
0.807316139189339
30
0
41
1
10
71.1055233118492
20
0.81236777208332
30
0
0
SPLINE
5
12F
100
AcDbEntity
8
1
62
256
6
ByLayer
370
18
48
1
60
0
100
AcDbSpline
70
4
71
3
72
8
73
4
40
0
40
0
40
0
40
0
40
1
40
1
40
1
40
1
41
1
10
63.5111125806894
20
-8.3498923501983
30
0
41
1
10
63.0097920972788
20
-8.16622264547811
30
0
41
1
10
62.5062604555452
20
-7.97170405511437
30
0
41
1
10
62
20
-7.76771017285236
30
0
0
SPLINE
5
130
100
AcDbEntity
8
1
62
256
6
ByLayer
370
18
48
1
60
0
100
AcDbSpline
70
4
71
3
72
14
73
10
40
0
40
0
40
0
40
0
40
0.305875210225055
40
0.305875210225055
40
0.61175042045011
40
0.61175042045011
40
0.917625630675165
40
0.917625630675165
40
1
40
1
40
1
40
1
41
1
10
63.5111125807001
20
-8.32004649921458
30
0
41
1
10
63.9962911629695
20
-8.33970293662759
30
0
41
1
10
64.4815885317134
20
-8.34969805223932
30
0
41
1
10
65.4516584216663
20
-8.35028848809782
30
0
41
1
10
65.9363859437137
20
-8.34083401387855
30
0
41
1
10
66.9064762573221
20
-8.3025725071
30
0
41
1
10
67.3916690268092
20
-8.27378538388308
30
0
41
1
10
68.0074751572636
20
-8.22511770570608
30
0
41
1
10
68.1381331951453
20
-8.21409970969938
30
0
41
1
10
68.2687881726559
20
-8.2023890570363
30
0
0
SPLINE
5
131
100
AcDbEntity
8
1
62
256
6
ByLayer
370
18
48
1
60
0
100
AcDbSpline
70
4
71
3
72
8
73
4
40
0
40
0
40
0
40
0
40
1
40
1
40
1
40
1
41
1
10
69.2712956490807
20
-8.09872826481191
30
0
41
1
10
69.2914521382789
20
-8.09637485912668
30
0
41
1
10
69.3116113133463
20
-8.09400637745972
30
0
41
1
10
69.3317737013817
20
-8.09162306980528
30
0
0
SPLINE
5
132
100
AcDbEntity
8
1
62
256
6
ByLayer
370
18
48
1
60
0
100
AcDbSpline
70
4
71
3
72
40
73
36
40
0
40
0
40
0
40
0
40
0.0625000000000016
40
0.0625000000000016
40
0.125000000000003
40
0.125000000000003
40
0.187500000000005
40
0.187500000000005
40
0.250000000000007
40
0.250000000000007
40
0.312500000000008
40
0.312500000000008
40
0.37500000000001
40
0.37500000000001
40
0.437500000000011
40
0.437500000000011
40
0.468750000000011
40
0.468750000000011
40
0.50000000000001
40
0.50000000000001
40
0.562500000000009
40
0.562500000000009
40
0.625000000000008
40
0.625000000000008
40
0.687500000000007
40
0.687500000000007
40
0.750000000000006
40
0.750000000000006
40
0.812500000000005
40
0.812500000000005
40
0.875000000000003
40
0.875000000000003
40
0.937500000000002
40
0.937500000000002
40
1
40
1
40
1
40
1
41
1
10
64.7716394696871
20
-0.407799086925536
30
0
41
1
10
64.7032205398546
20
-0.407567047197603
30
0
41
1
10
64.6358649961742
20
-0.413664149306953
30
0
41
1
10
64.5031529265866
20
-0.437751644377102
30
0
41
1
10
64.4373455457545
20
-0.45592018744145
30
0
41
1
10
64.3098940626197
20
-0.503963488213117
30
0
41
1
10
64.2491561975547
20
-0.533395662039311
30
0
41
1
10
64.1335723620112
20
-0.602903075336684
30
0
41
1
10
64.0781779433308
20
-0.643501258699956
30
0
41
1
10
63.9769922452455
20
-0.733588679691962
30
0
41
1
10
63.9312401403216
20
-0.782814005977798
30
0
41
1
10
63.8497344239142
20
-0.889854846851421
30
0
41
1
10
63.8137110162141
20
-0.9484370808905
30
0
41
1
10
63.7557388694933
20
-1.06962890141202
30
0
41
1
10
63.7333573575873
20
-1.13254274015424
30
0
41
1
10
63.7102197620615
20
-1.23054514238899
30
0
41
1
10
63.7042480766625
20
-1.26403535429804
30
0
41
1
10
63.696211910804
20
-1.33068080063646
30
0
41
1
10
63.6940957082101
20
-1.36394993648426
30
0
41
1
10
63.6933439299091
20
-1.46359774298281
30
0
41
1
10
63.700387085211
20
-1.53038979307604
30
0
41
1
10
63.7294321580606
20
-1.66093269993306
30
0
41
1
10
63.7510278295933
20
-1.72352575191451
30
0
41
1
10
63.8076190850235
20
-1.84369694257265
30
0
41
1
10
63.8428523978639
20
-1.90127225116765
30
0
41
1
10
63.9233129315963
20
-2.00672428916016
30
0
41
1
10
63.9690481166945
20
-2.05550790998345
30
0
41
1
10
64.0700554023776
20
-2.1441434317459
30
0
41
1
10
64.124241973203
20
-2.18312613440617
30
0
41
1
10
64.2395403327739
20
-2.25118146359307
30
0
41
1
10
64.3012853161809
20
-2.2804252211003
30
0
41
1
10
64.4277870748501
20
-2.32713505278355
30
0
41
1
10
64.4927097686013
20
-2.34483898380321
30
0
41
1
10
64.6259072881438
20
-2.36899033544273
30
0
41
1
10
64.6944060338768
20
-2.37536145859451
30
0
41
1
10
64.7628531966555
20
-2.37558283061483
30
0
0
SPLINE
5
133
100
AcDbEntity
8
1
62
256
6
ByLayer
370
18
48
1
60
0
100
AcDbSpline
70
4
71
3
72
14
73
10
40
0
40
0
40
0
40
0
40
0.5
40
0.5
40
0.75
40
0.75
40
0.875
40
0.875
40
1
40
1
40
1
40
1
41
1
10
52.5749173392423
20
-6.07390591624645
30
0
41
1
10
54.1294534650866
20
-6.48792927812812
30
0
41
1
10
55.6787427952994
20
-6.83620894832785
30
0
41
1
10
58.0072598430447
20
-7.24731989541044
30
0
41
1
10
58.7843397487652
20
-7.36573979050013
30
0
41
1
10
59.9525861137908
20
-7.51481624986428
30
0
41
1
10
60.3425437625466
20
-7.55976780793702
30
0
41
1
10
61.1215669835242
20
-7.63994135589553
30
0
41
1
10
61.5108567441251
20
-7.67519549424054
30
0
41
1
10
61.9
20
-7.70563384359093
30
0
0
SPLINE
5
134
100
AcDbEntity
8
1
62
256
6
ByLayer
370
13
48
1
60
0
100
AcDbSpline
70
4
71
3
72
8
73
4
40
0
40
0
40
0
40
0
40
1
40
1
40
1
40
1
41
1
10
71.1283900941123
20
0.797301953980337
30
0
41
1
10
71.111797120915
20
0.789623817135208
30
0
41
1
10
71.0945517358539
20
0.775242399847144
30
0
41
1
10
71.0804624072831
20
0.757333692234567
30
0
0
SPLINE
5
135
100
AcDbEntity
8
1
62
256
6
ByLayer
370
18
48
1
60
0
100
AcDbSpline
70
4
71
1
72
4
73
2
40
0
40
0
40
1
40
1
41
1
10
18.5842300033014
20
5.29795043537675
30
0
41
1
10
18.428511016016
20
4.74515163505561
30
0
0
SPLINE
5
136
100
AcDbEntity
8
1
62
256
6
ByLayer
370
18
48
1
60
0
100
AcDbSpline
70
4
71
3
72
8
73
4
40
0
40
0
40
0
40
0
40
1
40
1
40
1
40
1
41
1
10
61.8
20
3.55000000000001
30
0
41
1
10
61.8666569895297
20
3.55000000000001
30
0
41
1
10
61.9333238535862
20
3.55000000000001
30
0
41
1
10
62
20
3.55000000000001
30
0
0
SPLINE
5
137
100
AcDbEntity
8
1
62
256
6
ByLayer
370
18
48
1
60
0
100
AcDbSpline
70
4
71
3
72
8
73
4
40
0
40
0
40
0
40
0
40
1
40
1
40
1
40
1
41
1
10
63.0989547699446
20
-7.92057904956442
30
0
41
1
10
63.0989547699446
20
-8.02934504325546
30
0
41
1
10
63.0989547699446
20
-8.10643712673533
30
0
41
1
10
63.0989547699446
20
-8.1518795731584
30
0
0
SPLINE
5
138
100
AcDbEntity
8
1
62
256
6
ByLayer
370
18
48
1
60
0
100
AcDbSpline
70
4
71
3
72
32
73
28
40
0
40
0
40
0
40
0
40
0.124999999999998
40
0.124999999999998
40
0.187499999999997
40
0.187499999999997
40
0.249999999999996
40
0.249999999999996
40
0.312499999999995
40
0.312499999999995
40
0.374999999999994
40
0.374999999999994
40
0.499999999999987
40
0.499999999999987
40
0.562499999999987
40
0.562499999999987
40
0.624999999999987
40
0.624999999999987
40
0.687499999999987
40
0.687499999999987
40
0.749999999999986
40
0.749999999999986
40
0.874999999999993
40
0.874999999999993
40
0.937499999999997
40
0.937499999999997
40
1
40
1
40
1
40
1
41
1
10
55
20
-1.36587307831991
30
0
41
1
10
55.0000000000001
20
-1.591921283842
30
0
41
1
10
54.9751376271256
20
-1.81174958696505
30
0
41
1
10
54.9001809396258
20
-2.13247696338479
30
0
41
1
10
54.8686509476494
20
-2.23843269977505
30
0
41
1
10
54.7931592093364
20
-2.44461291231971
30
0
41
1
10
54.7495706769803
20
-2.54405490154917
30
0
41
1
10
54.6509960250388
20
-2.73603440836476
30
0
41
1
10
54.5960094516315
20
-2.82857107269177
30
0
41
1
10
54.4744912002672
20
-3.0068961505365
30
0
41
1
10
54.4074673203557
20
-3.09319575467254
30
0
41
1
10
54.1927555791966
20
-3.33696678818478
30
0
41
1
10
54.0317056993865
20
-3.48011583660102
30
0
41
1
10
53.7633548699991
20
-3.6680412447717
30
0
41
1
10
53.6689489760865
20
-3.72634187923381
30
0
41
1
10
53.4754541267778
20
-3.83138263807794
30
0
41
1
10
53.375924800094
20
-3.87849324628883
30
0
41
1
10
53.1713600421738
20
-3.96235315076734
30
0
41
1
10
53.0663247401132
20
-3.99910203811081
30
0
41
1
10
52.8505901278658
20
-4.0622344234641
30
0
41
1
10
52.7395498915577
20
-4.08860434774775
30
0
41
1
10
52.4062490891357
20
-4.15025744381441
30
0
41
1
10
52.1811946087493
20
-4.16925888646591
30
0
41
1
10
51.8392722391722
20
-4.16467513794726
30
0
41
1
10
51.7243839874634
20
-4.15748571404518
30
0
41
1
10
51.497786197994
20
-4.13196751467905
30
0
41
1
10
51.3855003172252
20
-4.11365706074125
30
0
41
1
10
51.274234313201
20
-4.08967276559011
30
0
0
SPLINE
5
139
100
AcDbEntity
8
1
62
256
6
ByLayer
370
18
48
1
60
0
100
AcDbSpline
70
4
71
3
72
14
73
10
40
0
40
0
40
0
40
0
40
0.25
40
0.25
40
0.5
40
0.5
40
0.75
40
0.75
40
1
40
1
40
1
40
1
41
1
10
15.3725264067184
20
-3.89112428079576
30
0
41
1
10
15.4517910833102
20
-3.76631818253597
30
0
41
1
10
15.5435497840042
20
-3.60110377039956
30
0
41
1
10
15.7471118391587
20
-3.1987590547609
30
0
41
1
10
15.8589052114358
20
-2.96164848125508
30
0
41
1
10
16.0964939060685
20
-2.4283249622406
30
0
41
1
10
16.2222775776581
20
-2.13213816960717
30
0
41
1
10
16.481047118781
20
-1.49667124080079
30
0
41
1
10
16.6140202988919
20
-1.15742226636499
30
0
41
1
10
16.7470000000007
20
-0.805796106005459
30
0
0
SPLINE
5
13A
100
AcDbEntity
8
1
62
256
6
ByLayer
370
18
48
1
60
0
100
AcDbSpline
70
4
71
3
72
8
73
4
40
0
40
0
40
0
40
0
40
1
40
1
40
1
40
1
41
1
10
63.5994654932463
20
-8.35000030360104
30
0
41
1
10
63.570015944488
20
-8.34999991438562
30
0
41
1
10
63.5405649571329
20
-8.34996392733069
30
0
41
1
10
63.5111125806857
20
-8.34989235020217
30
0
0
SPLINE
5
13B
100
AcDbEntity
8
1
62
256
6
ByLayer
370
18
48
1
60
0
100
AcDbSpline
70
4
71
3
72
10
73
6
40
0
40
0
40
0
40
0
40
0.5
40
0.5
40
1
40
1
40
1
40
1
41
1
10
61.9047611844257
20
6.66229904719651
30
0
41
1
10
60.6778303392568
20
6.62038890169637
30
0
41
1
10
59.4509325558256
20
6.53914790673636
30
0
41
1
10
57.0041678153142
20
6.28662554095169
30
0
41
1
10
55.7831079577917
20
6.11501725689573
30
0
41
1
10
54.5605316368527
20
5.90182912949729
30
0
0
SPLINE
5
13C
100
AcDbEntity
8
1
62
256
6
ByLayer
370
18
48
1
60
0
100
AcDbSpline
70
4
71
1
72
4
73
2
40
0
40
0
40
1
40
1
41
1
10
66.8171392233421
20
0.946604608678825
30
0
41
1
10
66.8111823290816
20
0.953198535995142
30
0
0
SPLINE
5
13D
100
AcDbEntity
8
1
62
256
6
ByLayer
370
18
48
1
60
0
100
AcDbSpline
70
4
71
3
72
14
73
10
40
0
40
0
40
0
40
0
40
0.499999999999998
40
0.499999999999998
40
0.749999999999997
40
0.749999999999997
40
0.874999999999998
40
0.874999999999998
40
1
40
1
40
1
40
1
41
1
10
71.1573911447577
20
-2.88662905218868
30
0
41
1
10
70.9900994070513
20
-3.34876532539548
30
0
41
1
10
70.8253324175645
20
-3.81342925282243
30
0
41
1
10
70.5822143541545
20
-4.51446220612374
30
0
41
1
10
70.5018536672012
20
-4.7488193058914
30
0
41
1
10
70.3824401033584
20
-5.10148371985085
30
0
41
1
10
70.3427868571545
20
-5.21934242365353
30
0
41
1
10
70.2645536134962
20
-5.45345253265273
30
0
41
1
10
70.2258942035671
20
-5.56993667434782
30
0
41
1
10
70.1877136648754
20
-5.68582285342359
30
0
0
SPLINE
5
13E
100
AcDbEntity
8
1
62
256
6
ByLayer
370
18
48
1
60
0
100
AcDbSpline
70
4
71
3
72
20
73
16
40
0
40
0
40
0
40
0
40
0.25
40
0.25
40
0.375
40
0.375
40
0.5
40
0.5
40
0.625
40
0.625
40
0.75
40
0.75
40
0.875
40
0.875
40
1
40
1
40
1
40
1
41
1
10
69.4675533774583
20
-3.76360524008427
30
0
41
1
10
69.3340591069963
20
-3.36620499881511
30
0
41
1
10
69.2038616355569
20
-2.96776118218847
30
0
41
1
10
69.0145753765204
20
-2.36819305624761
30
0
41
1
10
68.9529059653314
20
-2.16788562268738
30
0
41
1
10
68.833030359896
20
-1.76617450194823
30
0
41
1
10
68.7739869321402
20
-1.56498691454212
30
0
41
1
10
68.6601536240303
20
-1.1614919127646
30
0
41
1
10
68.6050306059448
20
-0.959323256357635
30
0
41
1
10
68.4986912920778
20
-0.554068623817557
30
0
41
1
10
68.4480156444657
20
-0.350855700542525
30
0
41
1
10
68.3506503082335
20
0.056506070940685
30
0
41
1
10
68.3045505830058
20
0.26079344577434
30
0
41
1
10
68.2181295715115
20
0.670725004457779
30
0
41
1
10
68.1779576126377
20
0.876404251194657
30
0
41
1
10
68.1422547662845
20
1.08313286995099
30
0
0
SPLINE
5
13F
100
AcDbEntity
8
1
62
256
6
ByLayer
370
18
48
1
60
0
100
AcDbSpline
70
4
71
3
72
8
73
4
40
0
40
0
40
0
40
0
40
1
40
1
40
1
40
1
41
1
10
65.3118933379612
20
1.10888549297084
30
0
41
1
10
65.2592185021171
20
1.03648207813146
30
0
41
1
10
65.2057758288786
20
0.966124190244386
30
0
41
1
10
65.1515344017106
20
0.897894191286696
30
0
0
SPLINE
5
140
100
AcDbEntity
8
1
62
256
6
ByLayer
370
18
48
1
60
0
100
AcDbSpline
70
4
71
3
72
10
73
6
40
0
40
0
40
0
40
0
40
0.5
40
0.5
40
1
40
1
40
1
40
1
41
1
10
17.2470320672446
20
5.02756010615704
30
0
41
1
10
17.4420624259995
20
4.98816809149861
30
0
41
1
10
17.6392341416562
20
4.94419756497311
30
0
41
1
10
18.0389256045849
20
4.84814757152603
30
0
41
1
10
18.2355797911179
20
4.79750172882905
30
0
41
1
10
18.4285110251848
20
4.74515163276277
30
0
0
SPLINE
5
141
100
AcDbEntity
8
1
62
256
6
ByLayer
370
18
48
1
60
0
100
AcDbSpline
70
4
71
3
72
10
73
6
40
0
40
0
40
0
40
0
40
0.172596851361221
40
0.598671321980087
40
1
40
1
40
1
40
1
41
1
10
62.0097923251452
20
-7.38820307386979
30
0
41
1
10
62.0086704850032
20
-7.39073754712319
30
0
41
1
10
62.0050964858905
20
-7.39949867268115
30
0
41
1
10
62.0009411136921
20
-7.41392334716849
30
0
41
1
10
62.0003073867755
20
-7.42554506093086
30
0
41
1
10
62.0000000000003
20
-7.43118212797398
30
0
0
SPLINE
5
142
100
AcDbEntity
8
1
62
256
6
ByLayer
370
18
48
1
60
0
100
AcDbSpline
70
4
71
3
72
8
73
4
40
0
40
0
40
0
40
0
40
1
40
1
40
1
40
1
41
1
10
12.8037131219232
20
5.57231651328013
30
0
41
1
10
12.8322143383984
20
5.56494660164532
30
0
41
1
10
12.8607176738151
20
5.55754872893013
30
0
41
1
10
12.8892231397341
20
5.5501231056266
30
0
0
SPLINE
5
143
100
AcDbEntity
8
1
62
256
6
ByLayer
370
18
48
1
60
0
100
AcDbSpline
70
4
71
3
72
8
73
4
40
0
40
0
40
0
40
0
40
1
40
1
40
1
40
1
41
1
10
52.5614805403841
20
6.09816636847242
30
0
41
1
10
52.5271769087342
20
5.98342163899585
30
0
41
1
10
52.4929438052265
20
5.8684853713909
30
0
41
1
10
52.4587830468261
20
5.75335364011133
30
0
0
SPLINE
5
144
100
AcDbEntity
8
1
62
256
6
ByLayer
370
18
48
1
60
0
100
AcDbSpline
70
4
71
3
72
14
73
10
40
0
40
0
40
0
40
0
40
0.499999999999998
40
0.499999999999998
40
0.749999999999999
40
0.749999999999999
40
0.875
40
0.875
40
1
40
1
40
1
40
1
41
1
10
55.0000000000001
20
4.71905137172951
30
0
41
1
10
56.6647407730269
20
4.16807300308969
30
0
41
1
10
58.3270579364489
20
3.56296971767495
30
0
41
1
10
60.8296560384687
20
2.60109222143478
30
0
41
1
10
61.6652201246605
20
2.27107949511256
30
0
41
1
10
62.9225636946511
20
1.76641669930123
30
0
41
1
10
63.3423902677436
20
1.59653248775112
30
0
41
1
10
64.1804632216202
20
1.25525397460785
30
0
41
1
10
64.5990962859631
20
1.08370783081369
30
0
41
1
10
65.0174401347791
20
0.911533497732506
30
0
0
SPLINE
5
145
100
AcDbEntity
8
1
62
256
6
ByLayer
370
18
48
1
60
0
100
AcDbSpline
70
4
71
3
72
24
73
20
40
0
40
0
40
0
40
0
40
0.250000000000009
40
0.250000000000009
40
0.31250000000001
40
0.31250000000001
40
0.37500000000001
40
0.37500000000001
40
0.500000000000011
40
0.500000000000011
40
0.562500000000011
40
0.562500000000011
40
0.625000000000011
40
0.625000000000011
40
0.750000000000008
40
0.750000000000008
40
0.875000000000004
40
0.875000000000004
40
1
40
1
40
1
40
1
41
1
10
21.6951813044388
20
5.99598390386509
30
0
41
1
10
21.3882973393054
20
6.09019937034819
30
0
41
1
10
21.1090872122871
20
6.20696930613326
30
0
41
1
10
20.7931301613232
20
6.37165760766999
30
0
41
1
10
20.7313944603026
20
6.40568611612434
30
0
41
1
10
20.6126182238479
20
6.47474926932406
30
0
41
1
10
20.5556776123461
20
6.50970719984466
30
0
41
1
10
20.3920206433345
20
6.61547261845465
30
0
41
1
10
20.2924328453539
20
6.68716538163866
30
0
41
1
10
20.1573020534941
20
6.79510986774309
30
0
41
1
10
20.1146426913295
20
6.83116090470247
30
0
41
1
10
20.0342024374844
20
6.90318838748783
30
0
41
1
10
19.9963267891783
20
6.939278209479
30
0
41
1
10
19.8920068005365
20
7.04528902908018
30
0
41
1
10
19.8341811654054
20
7.11347215187146
30
0
41
1
10
19.7411510513151
20
7.24362654037992
30
0
41
1
10
19.7059475667761
20
7.30560317862384
30
0
41
1
10
19.6586612775529
20
7.42214243236324
30
0
41
1
10
19.647000012993
20
7.47574594111018
30
0
41
1
10
19.6470000129141
20
7.52422756239747
30
0
0
SPLINE
5
146
100
AcDbEntity
8
1
62
256
6
ByLayer
370
18
48
1
60
0
100
AcDbSpline
70
4
71
2
72
6
73
3
40
0
40
0
40
0
40
1
40
1
40
1
41
1
10
65.1515340372132
20
0.897895683931608
30
0
41
1
10
65.3087710764868
20
0.253998006986507
30
0
41
1
10
65.5063480192485
20
-0.392887408250346
30
0
0
SPLINE
5
147
100
AcDbEntity
8
1
62
256
6
ByLayer
370
18
48
1
60
0
100
AcDbSpline
70
4
71
3
72
8
73
4
40
0
40
0
40
0
40
0
40
1
40
1
40
1
40
1
41
1
10
61.8
20
2.53072612928454
30
0
41
1
10
61.6557666735028
20
2.54183312627535
30
0
41
1
10
61.5115297299645
20
2.55269701951377
30
0
41
1
10
61.3672896715088
20
2.56331516302862
30
0
0
SPLINE
5
148
100
AcDbEntity
8
1
62
256
6
ByLayer
370
18
48
1
60
0
100
AcDbSpline
70
4
71
3
72
10
73
6
40
0
40
0
40
0
40
0
40
0.930234473257121
40
0.930234473257121
40
1
40
1
40
1
40
1
41
1
10
54.3164048098498
20
5.47514809061624
30
0
41
1
10
54.2357646950425
20
5.29408932813953
30
0
41
1
10
54.1540651989373
20
5.11904538004728
30
0
41
1
10
54.0664091867574
20
4.93698107709216
30
0
41
1
10
54.0602946075714
20
4.92431119450882
30
0
41
1
10
54.0541816221407
20
4.91167323686037
30
0
0
SPLINE
5
149
100
AcDbEntity
8
1
62
256
6
ByLayer
370
18
48
1
60
0
100
AcDbSpline
70
4
71
3
72
10
73
6
40
0
40
0
40
0
40
0
40
0.5
40
0.5
40
1
40
1
40
1
40
1
41
1
10
16.570331777999
20
5.26303559773464
30
0
41
1
10
16.6720702568757
20
5.2176444681335
30
0
41
1
10
16.7792984777804
20
5.17503255279306
30
0
41
1
10
17.0070631226609
20
5.09571893848093
30
0
41
1
10
17.1249507647295
20
5.05996072113106
30
0
41
1
10
17.2470320672594
20
5.02756010615386
30
0
0
SPLINE
5
14A
100
AcDbEntity
8
1
62
256
6
ByLayer
370
18
48
1
60
0
100
AcDbSpline
70
4
71
3
72
8
73
4
40
0
40
0
40
0
40
0
40
1
40
1
40
1
40
1
41
1
10
69.0028910381523
20
8.19999514738419
30
0
41
1
10
69.0595680888289
20
8.2001450888682
30
0
41
1
10
69.1174772676451
20
8.19637244754719
30
0
41
1
10
69.1765137767821
20
8.18876158821604
30
0
0
SPLINE
5
14B
100
AcDbEntity
8
1
62
256
6
ByLayer
370
18
48
1
60
0
100
AcDbSpline
70
4
71
3
72
26
73
22
40
0
40
0
40
0
40
0
40
0.125000000000001
40
0.125000000000001
40
0.187500000000001
40
0.187500000000001
40
0.250000000000001
40
0.250000000000001
40
0.375000000000002
40
0.375000000000002
40
0.437500000000002
40
0.437500000000002
40
0.500000000000002
40
0.500000000000002
40
0.750000000000003
40
0.750000000000003
40
0.812500000000003
40
0.812500000000003
40
0.875000000000002
40
0.875000000000002
40
1
40
1
40
1
40
1
41
1
10
50.2650754305294
20
-3.87056130910972
30
0
41
1
10
49.1155448196591
20
-3.49532960243053
30
0
41
1
10
47.9669366197745
20
-3.10264244278426
30
0
41
1
10
46.242882338329
20
-2.4933528962666
30
0
41
1
10
45.6682669588109
20
-2.28689018492673
30
0
41
1
10
44.5207924555689
20
-1.86924597305145
30
0
41
1
10
43.9476245329974
20
-1.65798577179439
30
0
41
1
10
42.2289435082363
20
-1.01920895830156
30
0
41
1
10
41.0842346381188
20
-0.586737396921933
30
0
41
1
10
39.3652947415563
20
0.0626051449781073
30
0
41
1
10
38.7920049378532
20
0.27916432427341
30
0
41
1
10
37.6442599319107
20
0.711033710636173
30
0
41
1
10
37.0694053377544
20
0.926471231097906
30
0
41
1
10
34.1965044211909
20
1.9953209833854
30
0
41
1
10
31.9042259069377
20
2.82314069634609
30
0
41
1
10
29.0306472032053
20
3.78360693926345
30
0
41
1
10
28.4559465976525
20
3.97187066196278
30
0
41
1
10
27.3080887412953
20
4.33910528122996
30
0
41
1
10
26.734640502668
20
4.51815462848373
30
0
41
1
10
25.0149052568148
20
5.03966870421198
30
0
41
1
10
23.8692566632416
20
5.36648482475388
30
0
41
1
10
22.721799520064
20
5.66704396327782
30
0
0
SPLINE
5
14C
100
AcDbEntity
8
1
62
256
6
ByLayer
370
18
48
1
60
0
100
AcDbSpline
70
4
71
3
72
10
73
6
40
0
40
0
40
0
40
0
40
0.509867923065788
40
0.509867923065788
40
1
40
1
40
1
40
1
41
1
10
69.3317737013817
20
-8.09162306980525
30
0
41
1
10
69.3405821149687
20
-8.06589264939461
30
0
41
1
10
69.3493867038958
20
-8.04016441052053
30
0
41
1
10
69.3666474583927
20
-7.98970844081308
30
0
41
1
10
69.3751039371867
20
-7.96498047723949
30
0
41
1
10
69.3835567929033
20
-7.94025479621368
30
0
0
SPLINE
5
14D
100
AcDbEntity
8
1
62
256
6
ByLayer
370
13
48
1
60
0
100
AcDbSpline
70
4
71
3
72
22
73
18
40
0
40
0
40
0
40
0
40
0.314814420230077
40
0.314814420230077
40
0.472221630345114
40
0.472221630345114
40
0.550925235402633
40
0.550925235402633
40
0.629628840460151
40
0.629628840460151
40
0.787036050575188
40
0.787036050575188
40
0.865739655632707
40
0.865739655632707
40
0.944443260690226
40
0.944443260690226
40
1
40
1
40
1
40
1
41
1
10
70.1041588976791
20
-1.22552848837657
30
0
41
1
10
69.898306688759
20
-1.08751108959638
30
0
41
1
10
69.6431191611514
20
-0.888709478689378
30
0
41
1
10
69.3478320428541
20
-0.61725101686838
30
0
41
1
10
69.2216551490968
20
-0.491581306921432
30
0
41
1
10
69.0775126856203
20
-0.334824338052357
30
0
41
1
10
69.014993467567
20
-0.263827425534288
30
0
41
1
10
68.9203235969563
20
-0.151253261799411
30
0
41
1
10
68.8581374511195
20
-0.0738445658453202
30
0
41
1
10
68.7191013834069
20
0.107903647014581
30
0
41
1
10
68.5985557238159
20
0.281702429187504
30
0
41
1
10
68.4699818656892
20
0.488887273249304
30
0
41
1
10
68.4127073647688
20
0.586552492333539
30
0
41
1
10
68.3310095021508
20
0.734706216951338
30
0
41
1
10
68.2760925460084
20
0.840745939498873
30
0
41
1
10
68.2108906471226
20
0.975617531430117
30
0
41
1
10
68.1830905824946
20
1.03713983711017
30
0
41
1
10
68.1551210753544
20
1.10278224156522
30
0
0
SPLINE
5
14E
100
AcDbEntity
8
1
62
256
6
ByLayer
370
13
48
1
60
0
100
AcDbSpline
70
4
71
3
72
20
73
16
40
0
40
0
40
0
40
0
40
0.124999999999999
40
0.124999999999999
40
0.249999999999998
40
0.249999999999998
40
0.374999999999997
40
0.374999999999997
40
0.499999999999995
40
0.499999999999995
40
0.749999999999993
40
0.749999999999993
40
0.874999999999996
40
0.874999999999996
40
1
40
1
40
1
40
1
41
1
10
69.6796980527154
20
2.70490167632226
30
0
41
1
10
69.7048659835069
20
2.59635231311756
30
0
41
1
10
69.7360869654031
20
2.49157926697583
30
0
41
1
10
69.8083886164098
20
2.28837092254264
30
0
41
1
10
69.8495815067652
20
2.18997916263109
30
0
41
1
10
69.9418210462595
20
1.99929875953367
30
0
41
1
10
69.9927631555468
20
1.90688380674004
30
0
41
1
10
70.1013297313906
20
1.73077027850607
30
0
41
1
10
70.1591942933224
20
1.64653317589321
30
0
41
1
10
70.3421308841429
20
1.40457629059131
30
0
41
1
10
70.4747228674522
20
1.25950025298187
30
0
41
1
10
70.6860529654076
20
1.06161970580311
30
0
41
1
10
70.7582548983922
20
0.999345849017573
30
0
41
1
10
70.9056864847825
20
0.881300224121247
30
0
41
1
10
70.980698585747
20
0.825692693352494
30
0
41
1
10
71.0575988436005
20
0.7728504156822
30
0
0
SPLINE
5
14F
100
AcDbEntity
8
1
62
256
6
ByLayer
370
13
48
1
60
0
100
AcDbSpline
70
4
71
3
72
8
73
4
40
0
40
0
40
0
40
0
40
1
40
1
40
1
40
1
41
1
10
71.0575988436005
20
0.772850415682171
30
0
41
1
10
71.0651873700892
20
0.767637156362298
30
0
41
1
10
71.0728089566506
20
0.762465088946129
30
0
41
1
10
71.0804624072817
20
0.757333692235022
30
0
0
SPLINE
5
150
100
AcDbEntity
8
1
62
256
6
ByLayer
370
18
48
1
60
0
100
AcDbSpline
70
4
71
2
72
9
73
6
40
0
40
0
40
0
40
0.25
40
0.5
40
0.75
40
1
40
1
40
1
41
1
10
66.2014356634585
20
-2.37981246930892
30
0
41
1
10
66.2662910599456
20
-2.93003797962325
30
0
41
1
10
66.4550293496661
20
-3.96906849753361
30
0
41
1
10
66.6972720158262
20
-4.91584398512356
30
0
41
1
10
66.9893411905079
20
-5.75595800813338
30
0
41
1
10
67.1559755486689
20
-6.11011229903306
30
0
0
SPLINE
5
151
100
AcDbEntity
8
1
62
256
6
ByLayer
370
18
48
1
60
0
100
AcDbSpline
70
4
71
3
72
14
73
10
40
0
40
0
40
0
40
0
40
0.499999999999998
40
0.499999999999998
40
0.749999999999999
40
0.749999999999999
40
0.874999999999999
40
0.874999999999999
40
1
40
1
40
1
40
1
41
1
10
71.1573911447577
20
2.88662905218868
30
0
41
1
10
70.9900994070514
20
3.34876532539536
30
0
41
1
10
70.8253324175647
20
3.81342925282217
30
0
41
1
10
70.5822143541546
20
4.51446220612331
30
0
41
1
10
70.5018536672014
20
4.74881930589089
30
0
41
1
10
70.3824401033586
20
5.10148371985022
30
0
41
1
10
70.3427868571547
20
5.21934242365288
30
0
41
1
10
70.2645536134965
20
5.45345253265202
30
0
41
1
10
70.2258942035671
20
5.56993667434784
30
0
41
1
10
70.1877136648754
20
5.68582285342359
30
0
0
SPLINE
5
152
100
AcDbEntity
8
1
62
256
6
ByLayer
370
18
48
1
60
0
100
AcDbSpline
70
4
71
4
72
10
73
5
40
0
40
0
40
0
40
0
40
0
40
1
40
1
40
1
40
1
40
1
41
1
10
62
20
7.76771017285236
30
0
41
1
10
62
20
7.3521505127101
30
0
41
1
10
62
20
6.93659085256783
30
0
41
1
10
62
20
6.5210311924256
30
0
41
1
10
62
20
6.10547153228333
30
0
0
SPLINE
5
153
100
AcDbEntity
8
1
62
256
6
ByLayer
370
18
48
1
60
0
100
AcDbSpline
70
4
71
3
72
8
73
4
40
0
40
0
40
0
40
0
40
1
40
1
40
1
40
1
41
1
10
61.8
20
2.38547712928451
30
0
41
1
10
61.8
20
2.43225433009226
30
0
41
1
10
61.8
20
2.48067283858683
30
0
41
1
10
61.8
20
2.53072612928452
30
0
0
SPLINE
5
154
100
AcDbEntity
8
1
62
256
6
ByLayer
370
18
48
1
60
0
100
AcDbSpline
70
4
71
3
72
8
73
4
40
0
40
0
40
0
40
0
40
1
40
1
40
1
40
1
41
1
10
68.1422547662844
20
1.08313286995099
30
0
41
1
10
68.1465646886234
20
1.08964303770836
30
0
41
1
10
68.1508534603636
20
1.09619280082941
30
0
41
1
10
68.1551210753544
20
1.10278224156522
30
0
0
SPLINE
5
155
100
AcDbEntity
8
1
62
256
6
ByLayer
370
18
48
1
60
0
100
AcDbSpline
70
4
71
3
72
8
73
4
40
0
40
0
40
0
40
0
40
1
40
1
40
1
40
1
41
1
10
61.9047611426464
20
6.66229904689047
30
0
41
1
10
61.9035421927184
20
7.01235428605654
30
0
41
1
10
61.9023040769235
20
7.35987175462975
30
0
41
1
10
61.9010474212245
20
7.70476646829817
30
0
0
SPLINE
5
156
100
AcDbEntity
8
1
62
256
6
ByLayer
370
18
48
1
60
0
100
AcDbSpline
70
4
71
3
72
8
73
4
40
0
40
0
40
0
40
0
40
1
40
1
40
1
40
1
41
1
10
13.4499499420943
20
-3.24777414312669
30
0
41
1
10
13.2603777710156
20
-3.12429056638726
30
0
41
1
10
13.0733049677503
20
-3.00291433049895
30
0
41
1
10
12.8892231397341
20
-2.8843337318348
30
0
0
SPLINE
5
157
100
AcDbEntity
8
1
62
256
6
ByLayer
370
18
48
1
60
0
100
AcDbSpline
70
4
71
3
72
8
73
4
40
0
40
0
40
0
40
0
40
1
40
1
40
1
40
1
41
1
10
69.4675533774558
20
-3.76360524008504
30
0
41
1
10
69.5293132646673
20
-3.69297345830097
30
0
41
1
10
69.591084265236
20
-3.62215343088295
30
0
41
1
10
69.6528727331562
20
-3.55103752953599
30
0
0
SPLINE
5
158
100
AcDbEntity
8
1
62
256
6
ByLayer
370
18
48
1
60
0
100
AcDbSpline
70
4
71
4
72
10
73
5
40
0
40
0
40
0
40
0
40
0
40
1
40
1
40
1
40
1
40
1
41
1
10
62
20
6.10547153228333
30
0
41
1
10
62
20
4.99686868885135
30
0
41
0.990483945800992
10
62
20
3.81278480676034
30
0
41
0.996910160142547
10
62
20
2.88902461258782
30
0
41
0.999331157631441
10
62
20
2.31052853228332
30
0
0
SPLINE
5
159
100
AcDbEntity
8
1
62
256
6
ByLayer
370
18
48
1
60
0
100
AcDbSpline
70
4
71
3
72
8
73
4
40
0
40
0
40
0
40
0
40
1
40
1
40
1
40
1
41
1
10
61.9010472678892
20
7.70476659527444
30
0
41
1
10
61.9006981774802
20
7.70505569803254
30
0
41
1
10
61.9003490881832
20
7.70534478080535
30
0
41
1
10
61.9
20
7.70563384359093
30
0
0
SPLINE
5
15A
100
AcDbEntity
8
1
62
256
6
ByLayer
370
18
48
1
60
0
100
AcDbSpline
70
4
71
3
72
8
73
4
40
0
40
0
40
0
40
0
40
1
40
1
40
1
40
1
41
1
10
52.9716868504896
20
5.79268539773133
30
0
41
1
10
52.9730233188602
20
5.86911878787905
30
0
41
1
10
52.974377529748
20
5.94512887633925
30
0
41
1
10
52.9757756797559
20
6.02072248684226
30
0
0
SPLINE
5
15B
100
AcDbEntity
8
1
62
256
6
ByLayer
370
18
48
1
60
0
100
AcDbSpline
70
4
71
3
72
16
73
12
40
0
40
0
40
0
40
0
40
0.25
40
0.25
40
0.375
40
0.375
40
0.5
40
0.5
40
0.75
40
0.75
40
1
40
1
40
1
40
1
41
1
10
49.8662497977818
20
5.55282154174432
30
0
41
1
10
50.0268280493118
20
5.50535458814031
30
0
41
1
10
50.1917914569292
20
5.46808868833156
30
0
41
1
10
50.4456016369494
20
5.42821728291503
30
0
41
1
10
50.5312725294168
20
5.4176064575795
30
0
41
1
10
50.7047986934208
20
5.40198835620603
30
0
41
1
10
50.7928988871278
20
5.3969953515471
30
0
41
1
10
51.0563679119708
20
5.39092544860424
30
0
41
1
10
51.2330031297335
20
5.39870286774726
30
0
41
1
10
51.5798142205081
20
5.43714266912895
30
0
41
1
10
51.7509441356772
20
5.46791794535287
30
0
41
1
10
51.9155662766528
20
5.50875333182421
30
0
0
SPLINE
5
15C
100
AcDbEntity
8
1
62
256
6
ByLayer
370
18
48
1
60
0
100
AcDbSpline
70
4
71
3
72
30
73
26
40
0
40
0
40
0
40
0
40
0.119025890660639
40
0.119025890660639
40
0.181952612756308
40
0.181952612756308
40
0.244879334851977
40
0.244879334851977
40
0.370732779043314
40
0.370732779043314
40
0.433659501138982
40
0.433659501138982
40
0.496586223234651
40
0.496586223234651
40
0.622439667425988
40
0.622439667425988
40
0.685366389521657
40
0.685366389521657
40
0.748293111617325
40
0.748293111617325
40
0.811219833712994
40
0.811219833712994
40
0.874146555808663
40
0.874146555808663
40
1
40
1
40
1
40
1
41
1
10
49.7949634983395
20
-5.38437835208734
30
0
41
1
10
48.4394400871513
20
-5.66295492799287
30
0
41
1
10
47.0855390522927
20
-5.9022723412578
30
0
41
1
10
45.0147796682737
20
-6.20540449285824
30
0
41
1
10
44.2984075615503
20
-6.29869145910479
30
0
41
1
10
42.8646841111945
20
-6.46356062461246
30
0
41
1
10
42.1469938860354
20
-6.53529009324265
30
0
41
1
10
39.9957623177102
20
-6.71747916774225
30
0
41
1
10
38.563230617453
20
-6.79518685685287
30
0
41
1
10
36.4124154950641
20
-6.84289264208192
30
0
41
1
10
35.6951450160664
20
-6.84728734043807
30
0
41
1
10
34.2591342347184
20
-6.83177168361229
30
0
41
1
10
33.5410697142436
20
-6.81178074433197
30
0
41
1
10
31.3883836323286
20
-6.71500587533424
30
0
41
1
10
29.9541927045047
20
-6.60103436993319
30
0
41
1
10
27.8007187518791
20
-6.36245301822413
30
0
41
1
10
27.0821831805316
20
-6.27165884546321
30
0
41
1
10
25.6458026179552
20
-6.06952891494413
30
0
41
1
10
24.9280188654586
20
-5.95821131318158
30
0
41
1
10
23.4926394957712
20
-5.71621060823333
30
0
41
1
10
22.7750470303216
20
-5.58550816691502
30
0
41
1
10
21.3392696178103
20
-5.30551673015697
30
0
41
1
10
20.6209824076657
20
-5.15619443868866
30
0
41
1
10
18.4676775063566
20
-4.68239471274606
30
0
41
1
10
17.0330706558671
20
-4.33181276636907
30
0
41
1
10
15.5959702004261
20
-3.95063107046593
30
0
0
SPLINE
5
15D
100
AcDbEntity
8
1
62
256
6
ByLayer
370
18
48
1
60
0
100
AcDbSpline
70
4
71
3
72
8
73
4
40
0
40
0
40
0
40
0
40
1
40
1
40
1
40
1
41
1
10
71.9860925604751
20
0.0595039339733603
30
0
41
1
10
71.9746696314027
20
0.0974611581364115
30
0
41
1
10
71.9633148735719
20
0.135285051215902
30
0
41
1
10
71.9520277359714
20
0.17297669089416
30
0
0
SPLINE
5
15E
100
AcDbEntity
8
1
62
256
6
ByLayer
370
13
48
1
60
0
100
AcDbSpline
70
4
71
3
72
15
73
11
40
0
40
0
40
0
40
0
40
0.25061586647097
40
0.375923799706455
40
0.438577766324197
40
0.50123173294194
40
0.751847599412909
40
0.814501566030652
40
0.877155532648394
40
1
40
1
40
1
40
1
41
1
10
62
20
6.10547153228333
30
0
41
1
10
62.6842003079973
20
6.1286226107259
30
0
41
1
10
63.7103813672171
20
6.1381276995385
30
0
41
1
10
64.9069820741243
20
6.11113823823288
30
0
41
1
10
65.5908995192309
20
6.08688708185625
30
0
41
1
10
66.6171539883318
20
6.04015249150456
30
0
41
1
10
67.6431224946805
20
5.9642715030065
30
0
41
1
10
68.6687967003754
20
5.86373785853982
30
0
41
1
10
69.3461155533005
20
5.79189877124915
30
0
41
1
10
69.852430499804
20
5.73004083379053
30
0
41
1
10
70.1877136660162
20
5.68582284996754
30
0
0
SPLINE
5
15F
100
AcDbEntity
8
1
62
256
6
ByLayer
370
18
48
1
60
0
100
AcDbSpline
70
4
71
3
72
14
73
10
40
0
40
0
40
0
40
0
40
0.25
40
0.25
40
0.5
40
0.5
40
0.75
40
0.75
40
1
40
1
40
1
40
1
41
1
10
69.4563914933358
20
7.88232000621966
30
0
41
1
10
68.9596814124316
20
7.96095729891758
30
0
41
1
10
68.4640773901675
20
8.03001569367686
30
0
41
1
10
67.4727600580095
20
8.14779329097988
30
0
41
1
10
66.9773850793451
20
8.19676248731926
30
0
41
1
10
65.9872961066157
20
8.27493843084653
30
0
41
1
10
65.4928368671331
20
8.3041630500164
30
0
41
1
10
64.5028022708624
20
8.34220794745409
30
0
41
1
10
64.0071544397368
20
8.351097864194
30
0
41
1
10
63.5111125806847
20
8.34989235020217
30
0
0
SPLINE
5
160
100
AcDbEntity
8
1
62
256
6
ByLayer
370
18
48
1
60
0
100
AcDbSpline
70
4
71
3
72
8
73
4
40
0
40
0
40
0
40
0
40
1
40
1
40
1
40
1
41
1
10
49.8662497977818
20
-5.55282154174432
30
0
41
1
10
49.9688405781643
20
-5.52249569271919
30
0
41
1
10
50.0732212565097
20
-5.49633362829911
30
0
41
1
10
50.1793548610105
20
-5.47446153954374
30
0
0
SPLINE
5
161
100
AcDbEntity
8
1
62
256
6
ByLayer
370
18
48
1
60
0
100
AcDbSpline
70
4
71
3
72
24
73
20
40
0
40
0
40
0
40
0
40
0.062500000000002
40
0.062500000000002
40
0.125000000000004
40
0.125000000000004
40
0.250000000000004
40
0.250000000000004
40
0.375000000000003
40
0.375000000000003
40
0.500000000000002
40
0.500000000000002
40
0.625000000000002
40
0.625000000000002
40
0.750000000000001
40
0.750000000000001
40
0.875000000000001
40
0.875000000000001
40
1
40
1
40
1
40
1
41
1
10
13.4499499420943
20
-3.24777414312669
30
0
41
1
10
13.4669336184619
20
-3.30462904882521
30
0
41
1
10
13.4858515061243
20
-3.36034906159293
30
0
41
1
10
13.5280193025436
20
-3.46942867547472
30
0
41
1
10
13.5513470281106
20
-3.52288824846846
30
0
41
1
10
13.6270408500571
20
-3.67671952395855
30
0
41
1
10
13.6854445228297
20
-3.77154442602077
30
0
41
1
10
13.8193819673916
20
-3.94687718214232
30
0
41
1
10
13.8951230854236
20
-4.02757333411961
30
0
41
1
10
14.0644059822097
20
-4.17508938791264
30
0
41
1
10
14.1559843549468
20
-4.24031825858037
30
0
41
1
10
14.352630234514
20
-4.35714056677904
30
0
41
1
10
14.4577487664358
20
-4.40874928313829
30
0
41
1
10
14.6814389928959
20
-4.5007947240334
30
0
41
1
10
14.7976717428982
20
-4.54030408534703
30
0
41
1
10
15.0384635682106
20
-4.60943074722101
30
0
41
1
10
15.1630236590051
20
-4.63903525020393
30
0
41
1
10
15.4205015807415
20
-4.69029190295163
30
0
41
1
10
15.5528077992443
20
-4.71177367337535
30
0
41
1
10
15.6863592402098
20
-4.72953905878762
30
0
0
SPLINE
5
162
100
AcDbEntity
8
1
62
256
6
ByLayer
370
18
48
1
60
0
100
AcDbSpline
70
2053
71
3
72
39
73
35
40
0
40
0
40
0
40
0
40
0.0311591802400577
40
0.0622713420235673
40
0.0934103956628651
40
0.124711397223979
40
0.155893072864451
40
0.187298327448879
40
0.218601282022461
40
0.25000854601658
40
0.281453052503222
40
0.312755565419328
40
0.344179498175186
40
0.375403543431217
40
0.40664987028539
40
0.437838862819482
40
0.468978924302177
40
0.500146323967762
40
0.531218546810866
40
0.562314634678807
40
0.59355468221444
40
0.624690761959474
40
0.656043061148185
40
0.687316429288485
40
0.718690603316294
40
0.750126321565969
40
0.781441451164843
40
0.812905818755449
40
0.844182963035866
40
0.875499013449765
40
0.906754699280821
40
0.937831799971954
40
0.969023680026772
40
1
40
1
40
1
40
1
41
1
10
59.05
20
-4.04663109054497
30
0
41
1
10
59.177017149994
20
-4.04663171348812
30
0
41
1
10
59.430865873791
20
-4.06918731535018
30
0
41
1
10
59.7956294585115
20
-4.16800237903402
30
0
41
1
10
60.1305522755993
20
-4.32485486925273
30
0
41
1
10
60.4231216157949
20
-4.52982069471449
30
0
41
1
10
60.66363660364
20
-4.77178730906041
30
0
41
1
10
60.8427360996016
20
-5.03780150526717
30
0
41
1
10
60.9536279489272
20
-5.3155976133207
30
0
41
1
10
60.9912046401602
20
-5.59184664513418
30
0
41
1
10
60.9535420636342
20
-5.85454081732146
30
0
41
1
10
60.8424609452052
20
-6.09393467541034
30
0
41
1
10
60.6631128153201
20
-6.30246563954114
30
0
41
1
10
60.4224032348789
20
-6.47617387025798
30
0
41
1
10
60.1295895875733
20
-6.61249542500104
30
0
41
1
10
59.7944747742552
20
-6.71046851739294
30
0
41
1
10
59.4292761809344
20
-6.76945202007303
30
0
41
1
10
59.0485782373132
20
-6.78902991736237
30
0
41
1
10
58.6681436403052
20
-6.76914983743418
30
0
41
1
10
58.3034291865894
20
-6.71000196432342
30
0
41
1
10
57.9688860864989
20
-6.61191194958721
30
0
41
1
10
57.6761041282636
20
-6.4753144172395
30
0
41
1
10
57.4360087496065
20
-6.30165892728255
30
0
41
1
10
57.2568901254537
20
-6.09287611307326
30
0
41
1
10
57.1461523132452
20
-5.85360285200915
30
0
41
1
10
57.1088369633207
20
-5.59090651988234
30
0
41
1
10
57.1466464031274
20
-5.31447343894848
30
0
41
1
10
57.2577619383965
20
-5.03684187252762
30
0
41
1
10
57.4374613034213
20
-4.77045505491111
30
0
41
1
10
57.6781556941035
20
-4.52870694175371
30
0
41
1
10
57.9710934535215
20
-4.32394519208128
30
0
41
1
10
58.306064907329
20
-4.16737441321007
30
0
41
1
10
58.6703121181427
20
-4.06901408489091
30
0
41
1
10
58.9237282608211
20
-4.04663047125761
30
0
41
1
10
59.05
20
-4.04663109054497
30
0
0
SPLINE
5
163
100
AcDbEntity
8
1
62
256
6
ByLayer
370
18
48
1
60
0
100
AcDbSpline
70
4
71
3
72
17
73
13
40
0
40
0
40
0
40
0
40
0.102574121114652
40
0.204567639826038
40
0.305983676167155
40
0.406825403774649
40
0.507096050818893
40
0.606798900943354
40
0.7059372942128
40
0.804514628069852
40
0.902534358299356
40
1
40
1
40
1
40
1
41
1
10
65.3724030759296
20
-0.409836876527464
30
0
41
1
10
65.3590737072025
20
-0.364960240742192
30
0
41
1
10
65.3324904182477
20
-0.275460985314339
30
0
41
1
10
65.293660718531
20
-0.141205290360631
30
0
41
1
10
65.2557423810829
20
-0.0074797982888697
30
0
41
1
10
65.2188012440264
20
0.125706862852667
30
0
41
1
10
65.1828194545547
20
0.258308507772341
30
0
41
1
10
65.1478030959373
20
0.390289995465963
30
0
41
1
10
65.113745596349
20
0.521614955010307
30
0
41
1
10
65.0806670437672
20
0.652246688481284
30
0
41
1
10
65.0484942319543
20
0.782156656097925
30
0
41
1
10
65.0277714344844
20
0.86848915636736
30
0
41
1
10
65.0174394043519
20
0.911533055024847
30
0
0
SPLINE
5
164
100
AcDbEntity
8
1
62
256
6
ByLayer
370
18
48
1
60
0
100
AcDbSpline
70
4
71
2
72
6
73
3
40
0
40
0
40
0
40
1
40
1
40
1
41
0.500011630221766
10
66.0794749394056
20
-2.37984081964607
30
0
41
0.499988369778234
10
65.4211875878647
20
-2.37771201768832
30
0
41
0.500011630221766
10
64.7628531966565
20
-2.37558283061452
30
0
0
SPLINE
5
165
100
AcDbEntity
8
1
62
256
6
ByLayer
370
18
48
1
60
0
100
AcDbSpline
70
4
71
3
72
12
73
8
40
0
40
0
40
0
40
0
40
0.5
40
0.5
40
0.75
40
0.75
40
1
40
1
40
1
40
1
41
1
10
52.5749173392423
20
6.07390591624645
30
0
41
1
10
54.1293150379004
20
6.48789241048124
30
0
41
1
10
55.6784669203532
20
6.83614693931389
30
0
41
1
10
58.0067757364312
20
7.24724107236028
30
0
41
1
10
58.7837858353989
20
7.36565884335755
30
0
41
1
10
60.3413071332081
20
7.56443004379108
30
0
41
1
10
61.121078516045
20
7.64470747807587
30
0
41
1
10
61.9
20
7.70563384359093
30
0
0
SPLINE
5
166
100
AcDbEntity
8
1
62
256
6
ByLayer
370
18
48
1
60
0
100
AcDbSpline
70
4
71
3
72
8
73
4
40
0
40
0
40
0
40
0
40
1
40
1
40
1
40
1
41
1
10
54.3164048098495
20
5.47514809061565
30
0
41
1
10
54.3831217682295
20
5.62494561941833
30
0
41
1
10
54.4651048517095
20
5.76692831763307
30
0
41
1
10
54.5605316368527
20
5.90182912949732
30
0
0
SPLINE
5
167
100
AcDbEntity
8
1
62
256
6
ByLayer
370
18
48
1
60
0
100
AcDbSpline
70
4
71
3
72
8
73
4
40
0
40
0
40
0
40
0
40
1
40
1
40
1
40
1
41
1
10
51.3026648533738
20
5.42617994595682
30
0
41
1
10
51.8584087158359
20
5.55462010426871
30
0
41
1
10
52.4146668205793
20
5.67703237735824
30
0
41
1
10
52.9716868504893
20
5.79268539773125
30
0
0
SPLINE
5
168
100
AcDbEntity
8
1
62
256
6
ByLayer
370
18
48
1
60
0
100
AcDbSpline
70
4
71
2
72
6
73
3
40
0
40
0
40
0
40
1
40
1
40
1
41
0.499884714106078
10
64.771639469687
20
-0.407799086925543
30
0
41
0.500115285893922
10
65.0720161531085
20
-0.408817800957995
30
0
41
0.499884714106078
10
65.3724031008566
20
-0.409836501182566
30
0
0
SPLINE
5
169
100
AcDbEntity
8
1
62
256
6
ByLayer
370
13
48
1
60
0
100
AcDbSpline
70
4
71
2
72
6
73
3
40
0
40
0
40
0
40
1
40
1
40
1
41
0.997658439629592
10
71.0575988436005
20
0.772850415682182
30
0
41
0.925068896213688
10
70.3067707392492
20
-0.181455555373539
30
0
41
1
10
70.1041588976791
20
-1.22552848837657
30
0
0
SPLINE
5
16A
100
AcDbEntity
8
1
62
256
6
ByLayer
370
18
48
1
60
0
100
AcDbSpline
70
4
71
3
72
8
73
4
40
0
40
0
40
0
40
0
40
1
40
1
40
1
40
1
41
1
10
17.6
20
-5.46250953734653
30
0
41
1
10
17.0676412498092
20
-5.2482587842066
30
0
41
1
10
16.5344686666302
20
-5.03058407004002
30
0
41
1
10
16
20
-4.81058783013108
30
0
0
SPLINE
5
16B
100
AcDbEntity
8
1
62
256
6
ByLayer
370
18
48
1
60
0
100
AcDbSpline
70
4
71
3
72
8
73
4
40
0
40
0
40
0
40
0
40
1
40
1
40
1
40
1
41
1
10
50.2650754305294
20
-3.87056130910958
30
0
41
1
10
50.4701975638495
20
-3.83911333317087
30
0
41
1
10
50.6969143665233
20
-3.82233869354582
30
0
41
1
10
50.9419298946836
20
-3.81799784278721
30
0
0
SPLINE
5
16C
100
AcDbEntity
8
1
62
256
6
ByLayer
370
18
48
1
60
0
100
AcDbSpline
70
4
71
3
72
8
73
4
40
0
40
0
40
0
40
0
40
1
40
1
40
1
40
1
41
1
10
50.9419298934513
20
-3.81799784657346
30
0
41
1
10
51.0527028887891
20
-3.842032399347
30
0
41
1
10
51.1634712246962
20
-3.86601345085782
30
0
41
1
10
51.274234313201
20
-3.8899399073218
30
0
0
SPLINE
5
16D
100
AcDbEntity
8
1
62
256
6
ByLayer
370
18
48
1
60
0
100
AcDbSpline
70
4
71
3
72
32
73
28
40
0
40
0
40
0
40
0
40
0.0625000000000046
40
0.0625000000000046
40
0.125000000000009
40
0.125000000000009
40
0.250000000000011
40
0.250000000000011
40
0.312500000000008
40
0.312500000000008
40
0.375000000000005
40
0.375000000000005
40
0.437500000000002
40
0.437500000000002
40
0.499999999999999
40
0.499999999999999
40
0.625
40
0.625
40
0.6875
40
0.6875
40
0.75
40
0.75
40
0.8125
40
0.8125
40
0.875
40
0.875
40
1
40
1
40
1
40
1
41
1
10
51.274234313201
20
-3.8899399073218
30
0
41
1
10
51.3855545401995
20
-3.91398671389606
30
0
41
1
10
51.4978625568617
20
-3.93237689603438
30
0
41
1
10
51.7244372744771
20
-3.95811980980031
30
0
41
1
10
51.8393064719774
20
-3.96546557317245
30
0
41
1
10
52.1818244262378
20
-3.97059836493284
30
0
41
1
10
52.4069550898874
20
-3.95202590156862
30
0
41
1
10
52.7399408983333
20
-3.89134165550979
30
0
41
1
10
52.8508480567954
20
-3.86535352524834
30
0
41
1
10
53.0668454460956
20
-3.80285642502557
30
0
41
1
10
53.1719358253412
20
-3.76644928667355
30
0
41
1
10
53.3764902735802
20
-3.6833359664812
30
0
41
1
10
53.4759540774425
20
-3.63662999980227
30
0
41
1
10
53.6692233226543
20
-3.53247264068997
30
0
41
1
10
53.7635572101088
20
-3.47461202484459
30
0
41
1
10
54.0321483721372
20
-3.28759421115581
30
0
41
1
10
54.193185174099
20
-3.14502535745501
30
0
41
1
10
54.4077626492617
20
-2.90202952242098
30
0
41
1
10
54.4748463511834
20
-2.815820417509
30
0
41
1
10
54.5964448378309
20
-2.63753541523934
30
0
41
1
10
54.6514385323388
20
-2.5449816683518
30
0
41
1
10
54.7499840226462
20
-2.35289023343074
30
0
41
1
10
54.793536134833
20
-2.25335338380791
30
0
41
1
10
54.8689334530515
20
-2.04690243050365
30
0
41
1
10
54.9004536470613
20
-1.94060999885511
30
0
41
1
10
54.975276266776
20
-1.61899892155469
30
0
41
1
10
55.0000000000001
20
-1.39852473102158
30
0
41
1
10
55
20
-1.17180474860086
30
0
0
SPLINE
5
16E
100
AcDbEntity
8
1
62
256
6
ByLayer
370
18
48
1
60
0
100
AcDbSpline
70
4
71
3
72
14
73
10
40
0
40
0
40
0
40
0
40
0.0419735498929758
40
0.0419735498929758
40
0.361315699928651
40
0.361315699928651
40
0.680657849964325
40
0.680657849964325
40
1
40
1
40
1
40
1
41
1
10
64.0321301763329
20
1.57311683455742
30
0
41
1
10
64.0895695592322
20
1.56570932177482
30
0
41
1
10
64.1470110230419
20
1.55831918223862
30
0
41
1
10
64.6414952566574
20
1.49485392560823
30
0
41
1
10
65.0786862523466
20
1.44001632682043
30
0
41
1
10
65.9536730528805
20
1.33539060093838
30
0
41
1
10
66.3913843024502
20
1.28489653302961
30
0
41
1
10
67.2667431879859
20
1.18337729564303
30
0
41
1
10
67.7044605710279
20
1.13293443528477
30
0
41
1
10
68.1422547662844
20
1.08313286995099
30
0
0
SPLINE
5
16F
100
AcDbEntity
8
1
62
256
6
ByLayer
370
18
48
1
60
0
100
AcDbSpline
70
4
71
3
72
8
73
4
40
0
40
0
40
0
40
0
40
1
40
1
40
1
40
1
41
1
10
70.1877136603965
20
5.68582285260388
30
0
41
1
10
69.9480524552848
20
6.41324635899096
30
0
41
1
10
69.7043284043701
20
7.14535442418028
30
0
41
1
10
69.4563914933358
20
7.88232000621966
30
0
0
SPLINE
5
170
100
AcDbEntity
8
1
62
256
6
ByLayer
370
18
48
1
60
0
100
AcDbSpline
70
4
71
3
72
22
73
18
40
0
40
0
40
0
40
0
40
0.199860102449933
40
0.199860102449933
40
0.299790153674901
40
0.299790153674901
40
0.399720204899869
40
0.399720204899869
40
0.599580307349806
40
0.599580307349806
40
0.799440409799743
40
0.799440409799743
40
0.899370461024712
40
0.899370461024712
40
0.999300512249681
40
0.999300512249681
40
1
40
1
40
1
40
1
41
1
10
18.4285110251608
20
4.74515163260338
30
0
41
1
10
19.8651341023142
20
4.35991409692446
30
0
41
1
10
21.2992998346545
20
3.94020905505189
30
0
41
1
10
23.4524548810757
20
3.27525092900825
30
0
41
1
10
24.1704944428237
20
3.04771562604273
30
0
41
1
10
25.6081586124644
20
2.58372900283112
30
0
41
1
10
26.3282347328693
20
2.34712762112417
30
0
41
1
10
28.4869019124715
20
1.63003067275159
30
0
41
1
10
29.9252306471536
20
1.14248347707786
30
0
41
1
10
32.805426391023
20
0.165830951705857
30
0
41
1
10
34.2485242603772
20
-0.324442985144628
30
0
41
1
10
36.4102542578889
20
-1.04981551614722
30
0
41
1
10
37.130527208269
20
-1.29005139010528
30
0
41
1
10
38.5712738650396
20
-1.764546063464
30
0
41
1
10
39.2917821572816
20
-1.99868495220824
30
0
41
1
10
40.0177556267622
20
-2.23077032457081
30
0
41
1
10
40.0228019976997
20
-2.23238340649678
30
0
41
1
10
40.0278484121096
20
-2.23399631723086
30
0
0
SPLINE
5
171
100
AcDbEntity
8
1
62
256
6
ByLayer
370
18
48
1
60
0
100
AcDbSpline
70
4
71
3
72
16
73
12
40
0
40
0
40
0
40
0
40
0.249999999999997
40
0.249999999999997
40
0.499999999999994
40
0.499999999999994
40
0.624999999999992
40
0.624999999999992
40
0.749999999999991
40
0.749999999999991
40
1
40
1
40
1
40
1
41
1
10
68.1551210753544
20
1.10278224156522
30
0
41
1
10
68.2373240957961
20
1.22970838946483
30
0
41
1
10
68.3330279359316
20
1.36116543778587
30
0
41
1
10
68.5504322550121
20
1.63289941168728
30
0
41
1
10
68.6695103098084
20
1.76989008128498
30
0
41
1
10
68.8625161701059
20
1.97538955553512
30
0
41
1
10
68.929307054558
20
2.04391103610914
30
0
41
1
10
69.0679872842033
20
2.18066186981679
30
0
41
1
10
69.1401664251269
20
2.24914290812302
30
0
41
1
10
69.3618787366109
20
2.4508426263038
30
0
41
1
10
69.5167864357121
20
2.58088026612677
30
0
41
1
10
69.6796980527226
20
2.70490167632352
30
0
0
SPLINE
5
172
100
AcDbEntity
8
1
62
256
6
ByLayer
370
18
48
1
60
0
100
AcDbSpline
70
4
71
1
72
4
73
2
40
0
40
0
40
1
40
1
41
1
10
65.5063480344895
20
-0.392887504692993
30
0
41
1
10
65.372403099085
20
-0.409837230121894
30
0
0
SPLINE
5
173
100
AcDbEntity
8
1
62
256
6
ByLayer
370
18
48
1
60
0
100
AcDbSpline
70
4
71
3
72
8
73
4
40
0
40
0
40
0
40
0
40
1
40
1
40
1
40
1
41
1
10
53.5210840153699
20
5.95145282206678
30
0
41
1
10
53.633426855364
20
5.96638152406845
30
0
41
1
10
53.7437161911707
20
5.97561350107071
30
0
41
1
10
53.8518470658684
20
5.97813651527642
30
0
0
SPLINE
5
174
100
AcDbEntity
8
1
62
256
6
ByLayer
370
18
48
1
60
0
100
AcDbSpline
70
4
71
3
72
73
73
69
40
0
40
0
40
0
40
0
40
0.0151515151515155
40
0.0303030303030304
40
0.0454545454545456
40
0.0606060606060607
40
0.0757575757575756
40
0.0909090909090912
40
0.106060606060606
40
0.121212121212121
40
0.136363636363636
40
0.151515151515152
40
0.166666666666666
40
0.181818181818182
40
0.196969696969697
40
0.212121212121212
40
0.227272727272727
40
0.242424242424243
40
0.257575757575757
40
0.272727272727273
40
0.287878787878788
40
0.303030303030303
40
0.318181818181819
40
0.333333333333333
40
0.348484848484848
40
0.363636363636364
40
0.378787878787879
40
0.393939393939394
40
0.409090909090909
40
0.424242424242424
40
0.439393939393939
40
0.454545454545455
40
0.46969696969697
40
0.484848484848485
40
0.5
40
0.515151515151515
40
0.53030303030303
40
0.545454545454546
40
0.560606060606061
40
0.575757575757576
40
0.590909090909091
40
0.606060606060606
40
0.621212121212121
40
0.636363636363637
40
0.651515151515152
40
0.666666666666667
40
0.681818181818182
40
0.696969696969697
40
0.712121212121212
40
0.727272727272727
40
0.742424242424242
40
0.757575757575758
40
0.772727272727273
40
0.787878787878788
40
0.803030303030303
40
0.818181818181818
40
0.833333333333333
40
0.848484848484849
40
0.863636363636364
40
0.878787878787879
40
0.893939393939394
40
0.909090909090909
40
0.924242424242424
40
0.939393939393939
40
0.954545454545455
40
0.96969696969697
40
0.984848484848485
40
1
40
1
40
1
40
1
41
1
10
16.7470000000007
20
-0.805796106005459
30
0
41
1
10
16.7589512792463
20
-0.774137039993548
30
0
41
1
10
16.7828538377376
20
-0.710818907969724
30
0
41
1
10
16.8186919472558
20
-0.615127305589965
30
0
41
1
10
16.8544986072365
20
-0.518965864437632
30
0
41
1
10
16.8902581101566
20
-0.422322484949973
30
0
41
1
10
16.9259547691799
20
-0.325254107420619
30
0
41
1
10
16.9615729250385
20
-0.227799416054296
30
0
41
1
10
16.9970969529017
20
-0.130002206182155
30
0
41
1
10
17.0325112692304
20
-0.0319050992762016
30
0
41
1
10
17.0678003386137
20
0.0664487968386425
30
0
41
1
10
17.1029486805832
20
0.165016356757377
30
0
41
1
10
17.1379408764042
20
0.263754335872562
30
0
41
1
10
17.1727615758401
20
0.362619421643529
30
0
41
1
10
17.2073955038849
20
0.461568243942054
30
0
41
1
10
17.2418274674654
20
0.560557396396717
30
0
41
1
10
17.2760423621048
20
0.65954345481299
30
0
41
1
10
17.3100251785496
20
0.75848299638875
30
0
41
1
10
17.3437610093534
20
0.857332618718345
30
0
41
1
10
17.3772350554165
20
0.956048958843922
30
0
41
1
10
17.4104326324775
20
1.05458871227483
30
0
41
1
10
17.4433391775559
20
1.15290865198483
30
0
41
1
10
17.4759402553397
20
1.25096564737467
30
0
41
1
10
17.5082215645178
20
1.34871668319252
30
0
41
1
10
17.5401689440543
20
1.44611887840358
30
0
41
1
10
17.5717683794002
20
1.54312950500116
30
0
41
1
10
17.603006008641
20
1.63970600675026
30
0
41
1
10
17.6338681285781
20
1.73580601785605
30
0
41
1
10
17.6643412007397
20
1.83138738154875
30
0
41
1
10
17.69441185732
20
1.92640816857673
30
0
41
1
10
17.7240669070432
20
2.02082669559988
30
0
41
1
10
17.7532933409504
20
2.11460154347515
30
0
41
1
10
17.782078338106
20
2.20769157542605
30
0
41
1
10
17.8104092712223
20
2.30005595508848
30
0
41
1
10
17.8382737121982
20
2.39165416442449
30
0
41
1
10
17.8656594375721
20
2.48244602149677
30
0
41
1
10
17.892554433883
20
2.57239169809537
30
0
41
1
10
17.9189469029413
20
2.66145173720938
30
0
41
1
10
17.9448252670036
20
2.74958707033588
30
0
41
1
10
17.9701781738526
20
2.83675903461824
30
0
41
1
10
17.9949945017759
20
2.92292938980665
30
0
41
1
10
18.019263364446
20
3.00806033503318
30
0
41
1
10
18.0429741156946
20
3.09211452539412
30
0
41
1
10
18.0661163541842
20
3.1750550883323
30
0
41
1
10
18.0886799279697
20
3.25684563981216
30
0
41
1
10
18.1106549389524
20
3.33745030028064
30
0
41
1
10
18.1320317472223
20
3.41683371040656
30
0
41
1
10
18.1528009752862
20
3.49496104659201
30
0
41
1
10
18.172953512182
20
3.57179803624857
30
0
41
1
10
18.1924805174751
20
3.64731097283189
30
0
41
1
10
18.2113734251367
20
3.72146673062807
30
0
41
1
10
18.2296239473012
20
3.79423277928441
30
0
41
1
10
18.2472240779029
20
3.86557719808243
30
0
41
1
10
18.2641660961844
20
3.93546868993067
30
0
41
1
10
18.2804425700976
20
4.00387659513109
30
0
41
1
10
18.2960463595096
20
4.0707709046909
30
0
41
1
10
18.3109706195403
20
4.13612227400037
30
0
41
1
10
18.3252088027968
20
4.19990203378953
30
0
41
1
10
18.3387546651139
20
4.26208220985549
30
0
41
1
10
18.3516022575875
20
4.32263550864664
30
0
41
1
10
18.3637459691393
20
4.38153542883458
30
0
41
1
10
18.3751803798645
20
4.43875590123164
30
0
41
1
10
18.3859008199081
20
4.49427268745961
30
0
41
1
10
18.3959012946328
20
4.54805821335935
30
0
41
1
10
18.4051822382734
20
4.60010090274682
30
0
41
1
10
18.4137215865274
20
4.65033307307485
30
0
41
1
10
18.4215827440847
20
4.69890008112961
30
0
41
1
10
18.4262020164485
20
4.72973729681635
30
0
41
1
10
18.4285116526305
20
4.74515590465975
30
0
0
SPLINE
5
175
100
AcDbEntity
8
1
62
256
6
ByLayer
370
18
48
1
60
0
100
AcDbSpline
70
4
71
3
72
8
73
4
40
0
40
0
40
0
40
0
40
1
40
1
40
1
40
1
41
1
10
68.0539361977047
20
-7.63543420673724
30
0
41
1
10
66.3506331255088
20
-7.63544794435711
30
0
41
1
10
64.64733006084
20
-7.63551254618716
30
0
41
1
10
62.9440269947252
20
-7.63541359423402
30
0
0
SPLINE
5
176
100
AcDbEntity
8
1
62
256
6
ByLayer
370
18
48
1
60
0
100
AcDbSpline
70
4
71
3
72
8
73
4
40
0
40
0
40
0
40
0
40
1
40
1
40
1
40
1
41
1
10
69.7069779651932
20
2.71556732882584
30
0
41
1
10
69.697045693253
20
2.71488234587292
30
0
41
1
10
69.6876243057206
20
2.71093577684985
30
0
41
1
10
69.6796980527223
20
2.70490167632323
30
0
0
SPLINE
5
177
100
AcDbEntity
8
1
62
256
6
ByLayer
370
18
48
1
60
0
100
AcDbSpline
70
4
71
3
72
28
73
24
40
0
40
0
40
0
40
0
40
0.125000000000001
40
0.125000000000001
40
0.187500000000001
40
0.187500000000001
40
0.250000000000002
40
0.250000000000002
40
0.375000000000002
40
0.375000000000002
40
0.437500000000003
40
0.437500000000003
40
0.500000000000003
40
0.500000000000003
40
0.625000000000002
40
0.625000000000002
40
0.687500000000002
40
0.687500000000002
40
0.750000000000002
40
0.750000000000002
40
0.875000000000001
40
0.875000000000001
40
1
40
1
40
1
40
1
41
1
10
66.8111802378419
20
0.953203026872188
30
0
41
1
10
66.7855798799156
20
0.845436387910979
30
0
41
1
10
66.7540717459407
20
0.750386992594343
30
0
41
1
10
66.697579113751
20
0.627682583558254
30
0
41
1
10
66.677204175878
20
0.590104901565894
30
0
41
1
10
66.6332264825047
20
0.521897827913278
30
0
41
1
10
66.609657343356
20
0.491395950850062
30
0
41
1
10
66.53554580952
20
0.41227546320107
30
0
41
1
10
66.4811813090701
20
0.375250260438293
30
0
41
1
10
66.3923493129386
20
0.342819467372607
30
0
41
1
10
66.3615196304188
20
0.335875626295206
30
0
41
1
10
66.2973891151825
20
0.329825826242626
30
0
41
1
10
66.2640621058335
20
0.330769171476959
30
0
41
1
10
66.1622930463639
20
0.345145822810252
30
0
41
1
10
66.0914702966047
20
0.36995184664687
30
0
41
1
10
65.9810381863244
20
0.428627539289607
30
0
41
1
10
65.943524708884
20
0.451779781498516
30
0
41
1
10
65.8671023113817
20
0.505219947292289
30
0
41
1
10
65.8282552170269
20
0.535492230371119
30
0
41
1
10
65.7114644905045
20
0.635285948913861
30
0
41
1
10
65.632689890608
20
0.714124751505778
30
0
41
1
10
65.4734460695226
20
0.894622455008459
30
0
41
1
10
65.3926687394936
20
0.996736818745035
30
0
41
1
10
65.3118933379612
20
1.10888549297121
30
0
0
SPLINE
5
178
100
AcDbEntity
8
1
62
256
6
ByLayer
370
13
48
1
60
0
100
AcDbSpline
70
4
71
3
72
8
73
4
40
0
40
0
40
0
40
0
40
1
40
1
40
1
40
1
41
1
10
71.1055233118482
20
0.812367772083974
30
0
41
1
10
71.0889419655763
20
0.804723761219009
30
0
41
1
10
71.0717179222667
20
0.790521232051077
30
0
41
1
10
71.0575988436005
20
0.7728504156822
30
0
0
SPLINE
5
179
100
AcDbEntity
8
1
62
256
6
ByLayer
370
18
48
1
60
0
100
AcDbSpline
70
4
71
3
72
8
73
4
40
0
40
0
40
0
40
0
40
1
40
1
40
1
40
1
41
1
10
65.0174394649142
20
0.911532272559327
30
0
41
1
10
65.0621376552861
20
0.906771043309249
30
0
41
1
10
65.1068358689227
20
0.902225159714618
30
0
41
1
10
65.1515341264493
20
0.897894217715418
30
0
0
SPLINE
5
17A
100
AcDbEntity
8
1
62
256
6
ByLayer
370
18
48
1
60
0
100
AcDbSpline
70
4
71
3
72
14
73
10
40
0
40
0
40
0
40
0
40
0.499999999999998
40
0.499999999999998
40
0.624999999999998
40
0.624999999999998
40
0.749999999999998
40
0.749999999999998
40
1
40
1
40
1
40
1
41
1
10
69.176513776792
20
-8.1887615882149
30
0
41
1
10
68.9464453165896
20
-8.21842151751653
30
0
41
1
10
68.7361235901905
20
-8.19012740312701
30
0
41
1
10
68.4997663626103
20
-8.07685391137582
30
0
41
1
10
68.4538363990222
20
-8.05026214155666
30
0
41
1
10
68.3647698721543
20
-7.98888034264524
30
0
41
1
10
68.321675515192
20
-7.95408963413172
30
0
41
1
10
68.1979048476821
20
-7.83807056397239
30
0
41
1
10
68.1223100730546
20
-7.74497220189164
30
0
41
1
10
68.0539361977047
20
-7.6354342067431
30
0
0
SPLINE
5
17B
100
AcDbEntity
8
1
62
256
6
ByLayer
370
18
48
1
60
0
100
AcDbSpline
70
4
71
3
72
8
73
4
40
0
40
0
40
0
40
0
40
1
40
1
40
1
40
1
41
1
10
52.4587830468241
20
5.75335364010476
30
0
41
1
10
52.6327149523937
20
5.8399544171852
30
0
41
1
10
52.8050921250514
20
5.92900761893205
30
0
41
1
10
52.9757756797557
20
6.02072248684232
30
0
0
SPLINE
5
17C
100
AcDbEntity
8
1
62
256
6
ByLayer
370
18
48
1
60
0
100
AcDbSpline
70
4
71
3
72
9
73
5
40
0
40
0
40
0
40
0
40
0.57325824175183
40
1
40
1
40
1
40
1
41
1
10
66.8111804891187
20
0.953202985314391
30
0
41
1
10
66.4916531859253
20
0.995331952916956
30
0
41
1
10
65.9342651190447
20
1.06882233566978
30
0
41
1
10
65.3769192753
20
1.14262793411618
30
0
41
1
10
65.1390893707963
20
1.17422034844549
30
0
0
SPLINE
5
17D
100
AcDbEntity
8
1
62
256
6
ByLayer
370
18
48
1
60
0
100
AcDbSpline
70
4
71
3
72
14
73
10
40
0
40
0
40
0
40
0
40
0.270407096560023
40
0.270407096560023
40
0.540814193120045
40
0.540814193120045
40
0.811221289680068
40
0.811221289680068
40
1
40
1
40
1
40
1
41
1
10
49.8662498087373
20
5.5528215385059
30
0
41
1
10
48.6048529848111
20
5.84378462573125
30
0
41
1
10
47.3445832136602
20
6.10195459710584
30
0
41
1
10
44.8233270632835
20
6.54982922514605
30
0
41
1
10
43.5622219559108
20
6.73950131438053
30
0
41
1
10
41.0373178808715
20
7.04718010489182
30
0
41
1
10
39.7785980272898
20
7.16419350042344
30
0
41
1
10
37.6442886272757
20
7.29384746565998
30
0
41
1
10
36.7676992067981
20
7.32694101529034
30
0
41
1
10
35.8907820412907
20
7.33985102554021
30
0
0
SPLINE
5
17E
100
AcDbEntity
8
1
62
256
6
ByLayer
370
18
48
1
60
0
100
AcDbSpline
70
4
71
3
72
8
73
4
40
0
40
0
40
0
40
0
40
1
40
1
40
1
40
1
41
1
10
53.0792829398103
20
5.81493901170518
30
0
41
1
10
53.2320057403865
20
5.84695729712826
30
0
41
1
10
53.3792501897286
20
5.89244824512042
30
0
41
1
10
53.5210840153699
20
5.95145282206678
30
0
0
SPLINE
5
17F
100
AcDbEntity
8
1
62
256
6
ByLayer
370
18
48
1
60
0
100
AcDbSpline
70
4
71
3
72
8
73
4
40
0
40
0
40
0
40
0
40
1
40
1
40
1
40
1
41
1
10
13.5916472134156
20
-3.31347219949052
30
0
41
1
10
13.5364962321403
20
-3.286586907903
30
0
41
1
10
13.4895824082882
20
-3.26533894367466
30
0
41
1
10
13.4499499420943
20
-3.24777414312669
30
0
0
SPLINE
5
180
100
AcDbEntity
8
1
62
256
6
ByLayer
370
18
48
1
60
0
100
AcDbSpline
70
4
71
3
72
8
73
4
40
0
40
0
40
0
40
0
40
1
40
1
40
1
40
1
41
1
10
55
20
4.64868804920408
30
0
41
1
10
53.9713616884115
20
4.95759416762678
30
0
41
1
10
52.9439729364258
20
5.24545095242198
30
0
41
1
10
51.9155662766528
20
5.50875333182421
30
0
0
SPLINE
5
181
100
AcDbEntity
8
1
62
256
6
ByLayer
370
18
48
1
60
0
100
AcDbSpline
70
4
71
3
72
12
73
8
40
0
40
0
40
0
40
0
40
0.5
40
0.5
40
0.75
40
0.75
40
1
40
1
40
1
40
1
41
1
10
17.6
20
5.47059263463038
30
0
41
1
10
17.4237218556981
20
5.45816506399669
30
0
41
1
10
17.2498206310157
20
5.43442781183848
30
0
41
1
10
16.9923638386254
20
5.38263870961103
30
0
41
1
10
16.9071156524621
20
5.36265433873521
30
0
41
1
10
16.7377877257197
20
5.31709992510244
30
0
41
1
10
16.6534464898105
20
5.29143882370028
30
0
41
1
10
16.570331777999
20
5.26303559773467
30
0
0
SPLINE
5
182
100
AcDbEntity
8
1
62
256
6
ByLayer
370
18
48
1
60
0
100
AcDbSpline
70
4
71
3
72
18
73
14
40
0
40
0
40
0
40
0
40
0.249999999999989
40
0.249999999999989
40
0.374999999999991
40
0.374999999999991
40
0.499999999999993
40
0.499999999999993
40
0.749999999999997
40
0.749999999999997
40
0.874999999999998
40
0.874999999999998
40
1
40
1
40
1
40
1
41
1
10
71.095743479122
20
-1.89035460469179
30
0
41
1
10
71.1488412007718
20
-1.82924138305461
30
0
41
1
10
71.2017364571061
20
-1.76260119557699
30
0
41
1
10
71.2807322300641
20
-1.65316534745153
30
0
41
1
10
71.3070061119544
20
-1.61510226978427
30
0
41
1
10
71.3594275575558
20
-1.53552783858598
30
0
41
1
10
71.3857104395302
20
-1.49378654891027
30
0
41
1
10
71.463215634041
20
-1.36477731622008
30
0
41
1
10
71.5129689471283
20
-1.27404909603112
30
0
41
1
10
71.5846105224338
20
-1.13059487596925
30
0
41
1
10
71.6079918210104
20
-1.08154696135199
30
0
41
1
10
71.6537214720161
20
-0.980906476072022
30
0
41
1
10
71.6761357990078
20
-0.929125677572387
30
0
41
1
10
71.6975216739976
20
-0.877256944580267
30
0
0
SPLINE
5
183
100
AcDbEntity
8
1
62
256
6
ByLayer
370
18
48
1
60
0
100
AcDbSpline
70
4
71
3
72
10
73
6
40
0
40
0
40
0
40
0
40
0.5
40
0.5
40
1
40
1
40
1
40
1
41
1
10
70.0019865695643
20
2.73812987213009
30
0
41
1
10
70.1958243400148
20
2.75455356922615
30
0
41
1
10
70.3892248179395
20
2.7738434019092
30
0
41
1
10
70.7746142478528
20
2.82167459680758
30
0
41
1
10
70.9666217342523
20
2.85009447939191
30
0
41
1
10
71.1573911447577
20
2.88662905218868
30
0
0
SPLINE
5
184
100
AcDbEntity
8
1
62
256
6
ByLayer
370
18
48
1
60
0
100
AcDbSpline
70
4
71
3
72
8
73
4
40
0
40
0
40
0
40
0
40
1
40
1
40
1
40
1
41
1
10
53.0792829432594
20
5.81493901242828
30
0
41
1
10
53.0644883469443
20
5.6013525108059
30
0
41
1
10
53.0443797820428
20
5.39337941028049
30
0
41
1
10
53.0191991577069
20
5.19289885988024
30
0
0
SPLINE
5
185
100
AcDbEntity
8
1
62
256
6
ByLayer
370
18
48
1
60
0
100
AcDbSpline
70
4
71
3
72
12
73
8
40
0
40
0
40
0
40
0
40
0.5
40
0.5
40
0.75
40
0.75
40
1
40
1
40
1
40
1
41
1
10
61.8
20
3.55000000000001
30
0
41
1
10
61.8
20
3.3369810148746
30
0
41
1
10
61.7999999999999
20
3.146112930302
30
0
41
1
10
61.7999999999999
20
2.89118192171361
30
0
41
1
10
61.8
20
2.811479626943
30
0
41
1
10
61.8
20
2.66285561398473
30
0
41
1
10
61.8
20
2.59382600538683
30
0
41
1
10
61.8
20
2.53072612928454
30
0
0
SPLINE
5
186
100
AcDbEntity
8
1
62
256
6
ByLayer
370
18
48
1
60
0
100
AcDbSpline
70
4
71
3
72
14
73
10
40
0
40
0
40
0
40
0
40
0.153354786559325
40
0.153354786559325
40
0.576677393279663
40
0.576677393279663
40
0.788338696639831
40
0.788338696639831
40
1
40
1
40
1
40
1
41
1
10
57.4180929629718
20
3.88816246782176
30
0
41
1
10
57.822433277661
20
3.76019663594715
30
0
41
1
10
58.226908691303
20
3.62953762117363
30
0
41
1
10
59.7468995345165
20
3.12950373308988
30
0
41
1
10
60.860393965484
20
2.74440753307457
30
0
41
1
10
62.5296863081134
20
2.14541417918988
30
0
41
1
10
63.0859710753645
20
1.94222777877766
30
0
41
1
10
64.1987368807342
20
1.52976164357815
30
0
41
1
10
64.7555575369947
20
1.32036249632637
30
0
41
1
10
65.3118933379496
20
1.10888549297548
30
0
0
SPLINE
5
187
100
AcDbEntity
8
1
62
256
6
ByLayer
370
13
48
1
60
0
100
AcDbSpline
70
4
71
3
72
16
73
12
40
0
40
0
40
0
40
0
40
0.249999999999998
40
0.249999999999998
40
0.499999999999997
40
0.499999999999997
40
0.624999999999996
40
0.624999999999996
40
0.749999999999995
40
0.749999999999995
40
1
40
1
40
1
40
1
41
1
10
71.1055233118482
20
0.812367772083974
30
0
41
1
10
70.9505958218153
20
0.915647429037875
30
0
41
1
10
70.8014262207142
20
1.03069805686056
30
0
41
1
10
70.518435611728
20
1.28718520493669
30
0
41
1
10
70.3843336568887
20
1.42873168006761
30
0
41
1
10
70.1977084168991
20
1.66715789441943
30
0
41
1
10
70.1385474516785
20
1.75030418702963
30
0
41
1
10
70.0275508160878
20
1.92430286195116
30
0
41
1
10
69.9753945029149
20
2.01570908238631
30
0
41
1
10
69.8337438471847
20
2.29890510949821
30
0
41
1
10
69.7583907474498
20
2.49968782457219
30
0
41
1
10
69.7069779651926
20
2.715567328823
30
0
0
SPLINE
5
188
100
AcDbEntity
8
1
62
256
6
ByLayer
370
18
48
1
60
0
100
AcDbSpline
70
4
71
3
72
10
73
6
40
0
40
0
40
0
40
0
40
0.5
40
0.5
40
1
40
1
40
1
40
1
41
1
10
54.5605316368527
20
5.90182912949729
30
0
41
1
10
54.4573109584892
20
5.93312156989302
30
0
41
1
10
54.3443175240831
20
5.95375181320892
30
0
41
1
10
54.1048110714408
20
5.97779607767498
30
0
41
1
10
53.9801521758367
20
5.98113025426187
30
0
41
1
10
53.8518470658677
20
5.97813651527636
30
0
0
SPLINE
5
189
100
AcDbEntity
8
SK1
62
256
6
ByLayer
370
18
48
1
60
0
100
AcDbSpline
70
4
71
3
72
68
73
64
40
0
40
0
40
0
40
0
40
0.0312499999999982
40
0.0312499999999982
40
0.046874999999998
40
0.046874999999998
40
0.0624999999999977
40
0.0624999999999977
40
0.0937499999999984
40
0.0937499999999984
40
0.109374999999998
40
0.109374999999998
40
0.124999999999998
40
0.124999999999998
40
0.156249999999998
40
0.156249999999998
40
0.187499999999998
40
0.187499999999998
40
0.249999999999999
40
0.249999999999999
40
0.281249999999999
40
0.281249999999999
40
0.312499999999999
40
0.312499999999999
40
0.374999999999999
40
0.374999999999999
40
0.4375
40
0.4375
40
0.46875
40
0.46875
40
0.5
40
0.5
40
0.562500000000001
40
0.562500000000001
40
0.593750000000001
40
0.593750000000001
40
0.625000000000002
40
0.625000000000002
40
0.687500000000002
40
0.687500000000002
40
0.718750000000002
40
0.718750000000002
40
0.750000000000002
40
0.750000000000002
40
0.812500000000003
40
0.812500000000003
40
0.828125000000002
40
0.828125000000002
40
0.843750000000002
40
0.843750000000002
40
0.875000000000001
40
0.875000000000001
40
0.890625000000001
40
0.890625000000001
40
0.90625
40
0.90625
40
0.9375
40
0.9375
40
0.953125
40
0.953125
40
0.96875
40
0.96875
40
1
40
1
40
1
40
1
41
1
10
-6.5
20
-5.92285193129121
30
0
41
1
10
-6.33154885731429
20
-5.92285193129121
30
0
41
1
10
-6.16649999660117
20
-5.90852604500998
30
0
41
1
10
-5.92366326713301
20
-5.86686260898483
30
0
41
1
10
-5.84351218542497
20
-5.84958640234103
30
0
41
1
10
-5.68479121831058
20
-5.80819694942255
30
0
41
1
10
-5.60578401963124
20
-5.78390949286566
30
0
41
1
10
-5.37551305865023
20
-5.70210438657261
30
0
41
1
10
-5.23040150353978
20
-5.63576008503463
30
0
41
1
10
-5.02388324980436
20
-5.51973068369702
30
0
41
1
10
-4.95691280564995
20
-5.47828589310487
30
0
41
1
10
-4.82656726111884
20
-5.38990512469778
30
0
41
1
10
-4.76344028356684
20
-5.34310223508027
30
0
41
1
10
-4.5822496799216
20
-5.19718203491362
30
0
41
1
10
-4.47124638032832
20
-5.09185813583983
30
0
41
1
10
-4.26572109507717
20
-4.86653318538578
30
0
41
1
10
-4.17106100725226
20
-4.74628556066756
30
0
41
1
10
-3.90966183539746
20
-4.36608870861338
30
0
41
1
10
-3.77014210155204
20
-4.09476951345764
30
0
41
1
10
-3.59557537485901
20
-3.66576223197777
30
0
41
1
10
-3.54329950365172
20
-3.51904778819107
30
0
41
1
10
-3.44875657999089
20
-3.21863479224763
30
0
41
1
10
-3.40657854218807
20
-3.06504134305448
30
0
41
1
10
-3.29445638220415
20
-2.60174839854997
30
0
41
1
10
-3.23788522203449
20
-2.28706820500588
30
0
41
1
10
-3.15042654850248
20
-1.64741181110122
30
0
41
1
10
-3.11961625583052
20
-1.3224279248613
30
0
41
1
10
-3.08903905021941
20
-0.827525561443139
30
0
41
1
10
-3.08151487535059
20
-0.661401493425245
30
0
41
1
10
-3.0715850998196
20
-0.330650499762129
30
0
41
1
10
-3.06914530935046
20
-0.16552511220226
30
0
41
1
10
-3.06912617883177
20
0.329115176337979
30
0
41
1
10
-3.07870960481154
20
0.657899259477574
30
0
41
1
10
-3.10886367144548
20
1.14957645984728
30
0
41
1
10
-3.12157829085984
20
1.31321779556742
30
0
41
1
10
-3.15301382663836
20
1.63997635400699
30
0
41
1
10
-3.17179577364169
20
1.80342210057933
30
0
41
1
10
-3.23780365003569
20
2.28702529223114
30
0
41
1
10
-3.29461555444996
20
2.60220286550486
30
0
41
1
10
-3.40608209976554
20
3.06309107495616
30
0
41
1
10
-3.44765477000675
20
3.21473113100859
30
0
41
1
10
-3.54149844295813
20
3.51371523568545
30
0
41
1
10
-3.59395060131035
20
3.66152013709689
30
0
41
1
10
-3.76989582752734
20
4.0946551835724
30
0
41
1
10
-3.90997479382301
20
4.36619025332939
30
0
41
1
10
-4.12575070768349
20
4.68046987077338
30
0
41
1
10
-4.17097066502385
20
4.74205687033935
30
0
41
1
10
-4.26600396832356
20
4.86254130681425
30
0
41
1
10
-4.31584034796885
20
4.92142662494757
30
0
41
1
10
-4.47077510964749
20
5.09144820130692
30
0
41
1
10
-4.58188757681341
20
5.19679902870035
30
0
41
1
10
-4.76206916652862
20
5.34204312553621
30
0
41
1
10
-4.82438853365238
20
5.38832209237188
30
0
41
1
10
-4.95395839245685
20
5.4763842939077
30
0
41
1
10
-5.02155288993663
20
5.5183478507837
30
0
41
1
10
-5.22922143177559
20
5.63524112422331
30
0
41
1
10
-5.37427976784161
20
5.70150323577644
30
0
41
1
10
-5.60262391278795
20
5.78286634969527
30
0
41
1
10
-5.68053816211992
20
5.80696924836369
30
0
41
1
10
-5.84021859914242
20
5.84884069926673
30
0
41
1
10
-5.9214422845923
20
5.86643352567475
30
0
41
1
10
-6.1660744508427
20
5.90854767474224
30
0
41
1
10
-6.33170271013569
20
5.92285193129121
30
0
41
1
10
-6.5
20
5.92285193129121
30
0
0
SPLINE
5
18A
100
AcDbEntity
8
SK1
62
256
6
ByLayer
370
18
48
1
60
0
100
AcDbSpline
70
4
71
3
72
68
73
64
40
0
40
0
40
0
40
0
40
0.0312500000000002
40
0.0312500000000002
40
0.0468750000000003
40
0.0468750000000003
40
0.0625000000000005
40
0.0625000000000005
40
0.0937500000000007
40
0.0937500000000007
40
0.109375000000001
40
0.109375000000001
40
0.125000000000001
40
0.125000000000001
40
0.156250000000001
40
0.156250000000001
40
0.187500000000001
40
0.187500000000001
40
0.25
40
0.25
40
0.28125
40
0.28125
40
0.3125
40
0.3125
40
0.375
40
0.375
40
0.4375
40
0.4375
40
0.46875
40
0.46875
40
0.5
40
0.5
40
0.5625
40
0.5625
40
0.59375
40
0.59375
40
0.625
40
0.625
40
0.6875
40
0.6875
40
0.71875
40
0.71875
40
0.75
40
0.75
40
0.8125
40
0.8125
40
0.828125
40
0.828125
40
0.84375
40
0.84375
40
0.875
40
0.875
40
0.890625
40
0.890625
40
0.90625
40
0.90625
40
0.9375
40
0.9375
40
0.953125
40
0.953125
40
0.96875
40
0.96875
40
1
40
1
40
1
40
1
41
1
10
-43.5
20
5.92285193129121
30
0
41
1
10
-43.6684511426857
20
5.92285193129121
30
0
41
1
10
-43.8335000033988
20
5.90852604500998
30
0
41
1
10
-44.076336732867
20
5.86686260898486
30
0
41
1
10
-44.156487814575
20
5.84958640234103
30
0
41
1
10
-44.3152087816894
20
5.80819694942255
30
0
41
1
10
-44.3942159803687
20
5.78390949286566
30
0
41
1
10
-44.6244869413498
20
5.70210438657261
30
0
41
1
10
-44.7695984964602
20
5.63576008503463
30
0
41
1
10
-44.9761167501956
20
5.51973068369705
30
0
41
1
10
-45.0430871943501
20
5.47828589310487
30
0
41
1
10
-45.1734327388812
20
5.38990512469778
30
0
41
1
10
-45.2365597164332
20
5.34310223508027
30
0
41
1
10
-45.4177503200784
20
5.19718203491362
30
0
41
1
10
-45.5287536196717
20
5.09185813583983
30
0
41
1
10
-45.7342789049228
20
4.86653318538578
30
0
41
1
10
-45.8289389927477
20
4.74628556066759
30
0
41
1
10
-46.0903381646025
20
4.36608870861338
30
0
41
1
10
-46.229857898448
20
4.09476951345764
30
0
41
1
10
-46.404424625141
20
3.66576223197777
30
0
41
1
10
-46.4567004963483
20
3.51904778819107
30
0
41
1
10
-46.5512434200091
20
3.21863479224763
30
0
41
1
10
-46.5934214578119
20
3.06504134305448
30
0
41
1
10
-46.7055436177958
20
2.60174839855
30
0
41
1
10
-46.7621147779655
20
2.28706820500588
30
0
41
1
10
-46.8495734514975
20
1.64741181110122
30
0
41
1
10
-46.8803837441695
20
1.3224279248613
30
0
41
1
10
-46.9109609497806
20
0.827525561443139
30
0
41
1
10
-46.9184851246494
20
0.661401493425245
30
0
41
1
10
-46.9284149001804
20
0.330650499762129
30
0
41
1
10
-46.9308546906495
20
0.16552511220226
30
0
41
1
10
-46.9308738211682
20
-0.329115176337979
30
0
41
1
10
-46.9212903951884
20
-0.657899259477574
30
0
41
1
10
-46.8911363285545
20
-1.14957645984728
30
0
41
1
10
-46.8784217091401
20
-1.31321779556742
30
0
41
1
10
-46.8469861733616
20
-1.63997635400699
30
0
41
1
10
-46.8282042263583
20
-1.80342210057933
30
0
41
1
10
-46.7621963499643
20
-2.28702529223114
30
0
41
1
10
-46.70538444555
20
-2.60220286550486
30
0
41
1
10
-46.5939179002345
20
-3.06309107495616
30
0
41
1
10
-46.5523452299933
20
-3.21473113100859
30
0
41
1
10
-46.4585015570419
20
-3.51371523568545
30
0
41
1
10
-46.4060493986897
20
-3.66152013709689
30
0
41
1
10
-46.2301041724726
20
-4.0946551835724
30
0
41
1
10
-46.090025206177
20
-4.36619025332939
30
0
41
1
10
-45.8742492923165
20
-4.68046987077341
30
0
41
1
10
-45.8290293349762
20
-4.74205687033935
30
0
41
1
10
-45.7339960316764
20
-4.86254130681425
30
0
41
1
10
-45.6841596520312
20
-4.92142662494757
30
0
41
1
10
-45.5292248903525
20
-5.09144820130692
30
0
41
1
10
-45.4181124231866
20
-5.19679902870035
30
0
41
1
10
-45.2379308334714
20
-5.34204312553621
30
0
41
1
10
-45.1756114663476
20
-5.38832209237188
30
0
41
1
10
-45.0460416075432
20
-5.4763842939077
30
0
41
1
10
-44.9784471100634
20
-5.5183478507837
30
0
41
1
10
-44.7707785682244
20
-5.63524112422331
30
0
41
1
10
-44.6257202321584
20
-5.70150323577644
30
0
41
1
10
-44.3973760872121
20
-5.78286634969527
30
0
41
1
10
-44.3194618378801
20
-5.80696924836371
30
0
41
1
10
-44.1597814008576
20
-5.84884069926673
30
0
41
1
10
-44.0785577154077
20
-5.86643352567475
30
0
41
1
10
-43.8339255491573
20
-5.90854767474224
30
0
41
1
10
-43.6682972898643
20
-5.92285193129121
30
0
41
1
10
-43.5
20
-5.92285193129121
30
0
0
LINE
5
70
100
AcDbEntity
8
81
62
256
6
ByLayer
370
18
48
1
60
0
100
AcDbLine
10
62
20
0
30
0
11
67
21
0
31
0
39
0
210
0
220
0
230
1
0
LINE
5
71
100
AcDbEntity
8
1
62
256
6
ByLayer
370
18
48
1
60
0
100
AcDbLine
10
0.2
20
12.5
30
0
11
0
21
12.3
31
0
39
0
210
0
220
0
230
1
0
LINE
5
73
100
AcDbEntity
8
1
62
256
6
ByLayer
370
18
48
1
60
0
100
AcDbLine
10
0
20
-12.3
30
0
11
0.2
21
-12.5
31
0
39
0
210
0
220
0
230
1
0
LINE
5
74
100
AcDbEntity
8
1
62
256
6
ByLayer
370
18
48
1
60
0
100
AcDbLine
10
5.0009
20
12.5
30
0
11
0.2
21
12.5
31
0
39
0
210
0
220
0
230
1
0
LINE
5
75
100
AcDbEntity
8
1
62
256
6
ByLayer
370
18
48
1
60
0
100
AcDbLine
10
0.2
20
-12.5
30
0
11
5.0009
21
-12.5
31
0
39
0
210
0
220
0
230
1
0
LINE
5
76
100
AcDbEntity
8
SK1
62
256
6
ByLayer
370
18
48
1
60
0
100
AcDbLine
10
-1.6
20
-9.99675
30
0
11
-1.144243
21
-9.784227
31
0
39
0
210
0
220
0
230
1
0
LINE
5
78
100
AcDbEntity
8
SK1
62
256
6
ByLayer
370
18
48
1
60
0
100
AcDbLine
10
-1.144243
20
9.784227
30
0
11
-1.6
21
9.99675
31
0
39
0
210
0
220
0
230
1
0
LINE
5
79
100
AcDbEntity
8
SK1
62
256
6
ByLayer
370
18
48
1
60
0
100
AcDbLine
10
-48.6
20
-9.99675
30
0
11
-48.449692
21
-9.875033
31
0
39
0
210
0
220
0
230
1
0
LINE
5
7A
100
AcDbEntity
8
SK1
62
256
6
ByLayer
370
18
48
1
60
0
100
AcDbLine
10
-48.449692
20
9.875033
30
0
11
-48.6
21
9.99675
31
0
39
0
210
0
220
0
230
1
0
LINE
5
7B
100
AcDbEntity
8
SK1
62
256
6
ByLayer
370
18
48
1
60
0
100
AcDbLine
10
-49
20
9.99675
30
0
11
-50
21
8.99675
31
0
39
0
210
0
220
0
230
1
0
LINE
5
7C
100
AcDbEntity
8
SK1
62
256
6
ByLayer
370
18
48
1
60
0
100
AcDbLine
10
-50
20
-8.99675
30
0
11
-49
21
-9.99675
31
0
39
0
210
0
220
0
230
1
0
LINE
5
7D
100
AcDbEntity
8
SK1
62
256
6
ByLayer
370
18
48
1
60
0
100
AcDbLine
10
-1.6
20
9.99675
30
0
11
-47.3
21
9.99675
31
0
39
0
210
0
220
0
230
1
0
LINE
5
7E
100
AcDbEntity
8
SK1
62
256
6
ByLayer
370
18
48
1
60
0
100
AcDbLine
10
-47.3
20
-9.99675
30
0
11
-1.6
21
-9.99675
31
0
39
0
210
0
220
0
230
1
0
LINE
5
7F
100
AcDbEntity
8
SK1
62
256
6
ByLayer
370
18
48
1
60
0
100
AcDbLine
10
-47.3
20
9.99675
30
0
11
-47.426311
21
9.888738
31
0
39
0
210
0
220
0
230
1
0
LINE
5
80
100
AcDbEntity
8
SK1
62
256
6
ByLayer
370
18
48
1
60
0
100
AcDbLine
10
-47.426311
20
-9.888738
30
0
11
-47.3
21
-9.99675
31
0
39
0
210
0
220
0
230
1
0
LINE
5
81
100
AcDbEntity
8
SK1
62
256
6
ByLayer
370
18
48
1
60
0
100
AcDbLine
10
-48.6
20
9.99675
30
0
11
-49
21
9.99675
31
0
39
0
210
0
220
0
230
1
0
LINE
5
82
100
AcDbEntity
8
SK1
62
256
6
ByLayer
370
18
48
1
60
0
100
AcDbLine
10
-49
20
-9.99675
30
0
11
-48.6
21
-9.99675
31
0
39
0
210
0
220
0
230
1
0
LINE
5
83
100
AcDbEntity
8
SK1
62
256
6
ByLayer
370
18
48
1
60
0
100
AcDbLine
10
-0.975195
20
-9.74675
30
0
11
-0.15
21
-9.74675
31
0
39
0
210
0
220
0
230
1
0
LINE
5
84
100
AcDbEntity
8
SK1
62
256
6
ByLayer
370
18
48
1
60
0
100
AcDbLine
10
-0.15
20
9.74675
30
0
11
-0.975195
21
9.74675
31
0
39
0
210
0
220
0
230
1
0
LINE
5
85
100
AcDbEntity
8
1
62
256
6
ByLayer
370
18
48
1
60
0
100
AcDbLine
10
12.803713
20
-8.571245
30
0
11
12.889223
21
-8.519399
31
0
39
0
210
0
220
0
230
1
0
LINE
5
86
100
AcDbEntity
8
1
62
256
6
ByLayer
370
18
48
1
60
0
100
AcDbLine
10
19.647
20
7.85
30
0
11
17.6
21
7.85
31
0
39
0
210
0
220
0
230
1
0
LINE
5
87
100
AcDbEntity
8
1
62
256
6
ByLayer
370
18
48
1
60
0
100
AcDbLine
10
12.889223
20
8.519399
30
0
11
12.803713
21
8.571245
31
0
39
0
210
0
220
0
230
1
0
LINE
5
88
100
AcDbEntity
8
1
62
256
6
ByLayer
370
18
48
1
60
0
100
AcDbLine
10
17.6
20
7.85
30
0
11
16
21
7.65
31
0
39
0
210
0
220
0
230
1
0
LINE
5
89
100
AcDbEntity
8
1
62
256
6
ByLayer
370
18
48
1
60
0
100
AcDbLine
10
16
20
-7.65
30
0
11
17.6
21
-7.85
31
0
39
0
210
0
220
0
230
1
0
LINE
5
8A
100
AcDbEntity
8
1
62
256
6
ByLayer
370
18
48
1
60
0
100
AcDbLine
10
17.6
20
-7.85
30
0
11
19.647
21
-7.85
31
0
39
0
210
0
220
0
230
1
0
LINE
5
8B
100
AcDbEntity
8
1
62
256
6
ByLayer
370
18
48
1
60
0
100
AcDbLine
10
64.98842
20
8.35
30
0
11
63.599343
21
8.35
31
0
39
0
210
0
220
0
230
1
0
LINE
5
8C
100
AcDbEntity
8
1
62
256
6
ByLayer
370
18
48
1
60
0
100
AcDbLine
10
63.599343
20
-8.35
30
0
11
64.98842
21
-8.35
31
0
39
0
210
0
220
0
230
1
0
LINE
5
8D
100
AcDbEntity
8
80
62
256
6
ByLayer
370
18
48
1
60
0
100
AcDbLine
10
0
20
0
30
0
11
-5
21
0
31
0
39
0
210
0
220
0
230
1
0
LINE
5
8E
100
AcDbEntity
8
4
62
256
6
ByLayer
370
18
48
0.05
60
0
100
AcDbLine
10
62
20
0
30
0
11
0
21
0
31
0
39
0
210
0
220
0
230
1
0
LINE
5
90
100
AcDbEntity
8
SK4
62
256
6
ByLayer
370
18
48
0.05
60
0
100
AcDbLine
10
77
20
0
30
0
11
-55
21
0
31
0
39
0
210
0
220
0
230
1
0
LINE
5
92
100
AcDbEntity
8
1
62
256
6
ByLayer
370
18
48
1
60
0
100
AcDbLine
10
19.647
20
-7.85
30
0
11
19.647
21
-5.990295
31
0
39
0
210
0
220
0
230
1
0
LINE
5
93
100
AcDbEntity
8
1
62
256
6
ByLayer
370
18
48
1
60
0
100
AcDbLine
10
67.207993
20
-7.212085
30
0
11
67.762286
21
-6.726438
31
0
39
0
210
0
220
0
230
1
0
LINE
5
94
100
AcDbEntity
8
1
62
256
6
ByLayer
370
18
48
1
60
0
100
AcDbLine
10
65.63695
20
-0.315825
30
0
11
65.506348
21
-0.392888
31
0
39
0
210
0
220
0
230
1
0
LINE
5
95
100
AcDbEntity
8
1
62
256
6
ByLayer
370
18
48
1
60
0
100
AcDbLine
10
67.201482
20
-7.214887
30
0
11
67.207993
21
-7.212085
31
0
39
0
210
0
220
0
230
1
0
LINE
5
96
100
AcDbEntity
8
1
62
256
6
ByLayer
370
18
48
1
60
0
100
AcDbLine
10
62
20
-7.512509
30
0
11
62
21
-7.46006
31
0
39
0
210
0
220
0
230
1
0
LINE
5
97
100
AcDbEntity
8
1
62
256
6
ByLayer
370
13
48
1
60
0
100
AcDbLine
10
63.098955
20
-7.920579
30
0
11
62
21
-7.534221
31
0
39
0
210
0
220
0
230
1
0
LINE
5
98
100
AcDbEntity
8
1
62
256
6
ByLayer
370
13
48
1
60
0
100
AcDbLine
10
66.266896
20
-2.322565
30
0
11
65.003498
21
-2.243018
31
0
39
0
210
0
220
0
230
1
0
LINE
5
99
100
AcDbEntity
8
1
62
256
6
ByLayer
370
13
48
1
60
0
100
AcDbLine
10
61.8
20
2.55
30
0
11
62.006275
21
2.55
31
0
39
0
210
0
220
0
230
1
0
LINE
5
9A
100
AcDbEntity
8
1
62
256
6
ByLayer
370
18
48
1
60
0
100
AcDbLine
10
62
20
-7.534221
30
0
11
62
21
-7.76771
31
0
39
0
210
0
220
0
230
1
0
LINE
5
9B
100
AcDbEntity
8
1
62
256
6
ByLayer
370
18
48
1
60
0
100
AcDbLine
10
71.214037
20
2.718499
30
0
11
71.157391
21
2.886629
31
0
39
0
210
0
220
0
230
1
0
LINE
5
9C
100
AcDbEntity
8
1
62
256
6
ByLayer
370
18
48
1
60
0
100
AcDbLine
10
71.927513
20
-0.261515
30
0
11
71.809537
21
-0.748074
31
0
39
0
210
0
220
0
230
1
0
LINE
5
9D
100
AcDbEntity
8
1
62
256
6
ByLayer
370
13
48
1
60
0
100
AcDbLine
10
12.803713
20
8.571245
30
0
11
12.803713
21
5.572317
31
0
39
0
210
0
220
0
230
1
0
LINE
5
9E
100
AcDbEntity
8
1
62
256
6
ByLayer
370
18
48
1
60
0
100
AcDbLine
10
62
20
-7.534221
30
0
11
62
21
-7.512509
31
0
39
0
210
0
220
0
230
1
0
LINE
5
9F
100
AcDbEntity
8
1
62
256
6
ByLayer
370
13
48
1
60
0
100
AcDbLine
10
71.095743
20
-1.890355
30
0
11
70.104159
21
-1.225528
31
0
39
0
210
0
220
0
230
1
0
LINE
5
A0
100
AcDbEntity
8
1
62
256
6
ByLayer
370
18
48
1
60
0
100
AcDbLine
10
69.652873
20
-3.551038
30
0
11
71.095743
21
-1.890355
31
0
39
0
210
0
220
0
230
1
0
LINE
5
A1
100
AcDbEntity
8
1
62
256
6
ByLayer
370
18
48
1
60
0
100
AcDbLine
10
16
20
7.65
30
0
11
16
21
5.247552
31
0
39
0
210
0
220
0
230
1
0
LINE
5
A2
100
AcDbEntity
8
1
62
256
6
ByLayer
370
13
48
1
60
0
100
AcDbLine
10
5.0009
20
0
30
0
11
5.0009
21
-12.5
31
0
39
0
210
0
220
0
230
1
0
LINE
5
A3
100
AcDbEntity
8
1
62
256
6
ByLayer
370
13
48
1
60
0
100
AcDbLine
10
5.0009
20
12.5
30
0
11
5.0009
21
0
31
0
39
0
210
0
220
0
230
1
0
LINE
5
A4
100
AcDbEntity
8
1
62
256
6
ByLayer
370
18
48
1
60
0
100
AcDbLine
10
0.2
20
0
30
0
11
0.2
21
-12.5
31
0
39
0
210
0
220
0
230
1
0
LINE
5
A5
100
AcDbEntity
8
1
62
256
6
ByLayer
370
18
48
1
60
0
100
AcDbLine
10
0.2
20
12.5
30
0
11
0.2
21
0
31
0
39
0
210
0
220
0
230
1
0
LINE
5
A6
100
AcDbEntity
8
1
62
256
6
ByLayer
370
13
48
1
60
0
100
AcDbLine
10
69.652873
20
-3.551038
30
0
11
70.104159
21
-1.225528
31
0
39
0
210
0
220
0
230
1
0
LINE
5
A7
100
AcDbEntity
8
1
62
256
6
ByLayer
370
18
48
1
60
0
100
AcDbLine
10
66.201436
20
-2.3798
30
0
11
67.765647
21
-2.3798
31
0
39
0
210
0
220
0
230
1
0
LINE
5
A8
100
AcDbEntity
8
1
62
256
6
ByLayer
370
13
48
1
60
0
100
AcDbLine
10
12.889223
20
-2.884334
30
0
11
12.889223
21
-8.519399
31
0
39
0
210
0
220
0
230
1
0
LINE
5
A9
100
AcDbEntity
8
1
62
256
6
ByLayer
370
18
48
1
60
0
100
AcDbLine
10
67.762286
20
-6.726438
30
0
11
67.765798
21
-6.719935
31
0
39
0
210
0
220
0
230
1
0
LINE
5
AA
100
AcDbEntity
8
1
62
256
6
ByLayer
370
18
48
1
60
0
100
AcDbLine
10
17.6
20
7.85
30
0
11
17.6
21
5.470593
31
0
39
0
210
0
220
0
230
1
0
LINE
5
AB
100
AcDbEntity
8
1
62
256
6
ByLayer
370
18
48
1
60
0
100
AcDbLine
10
71.986093
20
0.059504
30
0
11
72
21
0
31
0
39
0
210
0
220
0
230
1
0
LINE
5
AC
100
AcDbEntity
8
1
62
256
6
ByLayer
370
18
48
1
60
0
100
AcDbLine
10
19.647
20
7.85
30
0
11
19.647
21
7.524228
31
0
39
0
210
0
220
0
230
1
0
LINE
5
AD
100
AcDbEntity
8
1
62
256
6
ByLayer
370
13
48
1
60
0
100
AcDbLine
10
12.803713
20
-2.829214
30
0
11
12.803713
21
-8.571245
31
0
39
0
210
0
220
0
230
1
0
LINE
5
AE
100
AcDbEntity
8
1
62
256
6
ByLayer
370
18
48
1
60
0
100
AcDbLine
10
67.765647
20
-2.3798
30
0
11
66.817136
21
0.946608
31
0
39
0
210
0
220
0
230
1
0
LINE
5
AF
100
AcDbEntity
8
1
62
256
6
ByLayer
370
18
48
1
60
0
100
AcDbLine
10
16
20
-7.65
30
0
11
16
21
-4.810588
31
0
39
0
210
0
220
0
230
1
0
LINE
5
B0
100
AcDbEntity
8
1
62
256
6
ByLayer
370
18
48
1
60
0
100
AcDbLine
10
71.896558
20
-0.300004
30
0
11
72
21
0
31
0
39
0
210
0
220
0
230
1
0
LINE
5
B1
100
AcDbEntity
8
1
62
256
6
ByLayer
370
13
48
1
60
0
100
AcDbLine
10
12.889223
20
8.519399
30
0
11
12.889223
21
5.550123
31
0
39
0
210
0
220
0
230
1
0
LINE
5
B2
100
AcDbEntity
8
1
62
256
6
ByLayer
370
13
48
1
60
0
100
AcDbLine
10
71.080462
20
0.757334
30
0
11
71.952028
21
0.172977
31
0
39
0
210
0
220
0
230
1
0
LINE
5
B3
100
AcDbEntity
8
1
62
256
6
ByLayer
370
18
48
1
60
0
100
AcDbLine
10
67.155976
20
-6.110112
30
0
11
67.765798
21
-6.719935
31
0
39
0
210
0
220
0
230
1
0
LINE
5
B4
100
AcDbEntity
8
1
62
256
6
ByLayer
370
13
48
1
60
0
100
AcDbLine
10
70.001987
20
2.73813
30
0
11
71.214037
21
2.718499
31
0
39
0
210
0
220
0
230
1
0
LINE
5
B5
100
AcDbEntity
8
1
62
256
6
ByLayer
370
18
48
1
60
0
100
AcDbLine
10
68.053936
20
-7.635434
30
0
11
69.467553
21
-3.763605
31
0
39
0
210
0
220
0
230
1
0
LINE
5
B6
100
AcDbEntity
8
1
62
256
6
ByLayer
370
13
48
1
60
0
100
AcDbLine
10
64.762853
20
-2.375583
30
0
11
65.003498
21
-2.243018
31
0
39
0
210
0
220
0
230
1
0
LINE
5
B7
100
AcDbEntity
8
1
62
256
6
ByLayer
370
18
48
1
60
0
100
AcDbLine
10
63.084677
20
-7.214887
30
0
11
67.201482
21
-7.214887
31
0
39
0
210
0
220
0
230
1
0
LINE
5
B8
100
AcDbEntity
8
1
62
256
6
ByLayer
370
18
48
1
60
0
100
AcDbLine
10
66.194193
20
-2.365464
30
0
11
66.266896
21
-2.322565
31
0
39
0
210
0
220
0
230
1
0
LINE
5
B9
100
AcDbEntity
8
1
62
256
6
ByLayer
370
13
48
1
60
0
100
AcDbLine
10
51.274234
20
-3.88994
30
0
11
51.274234
21
-4.089673
31
0
39
0
210
0
220
0
230
1
0
LINE
5
BA
100
AcDbEntity
8
1
62
256
6
ByLayer
370
18
48
1
60
0
100
AcDbLine
10
17.6
20
-7.85
30
0
11
17.6
21
-5.46251
31
0
39
0
210
0
220
0
230
1
0
LINE
5
BB
100
AcDbEntity
8
1
62
256
6
ByLayer
370
18
48
1
60
0
100
AcDbLine
10
67.765798
20
-6.719935
30
0
11
67.765798
21
-2.381407
31
0
39
0
210
0
220
0
230
1
0
LINE
5
BC
100
AcDbEntity
8
1
62
256
6
ByLayer
370
18
48
1
60
0
100
AcDbLine
10
61.9
20
-7.705634
30
0
11
61.9
21
-7.527071
31
0
39
0
210
0
220
0
230
1
0
LINE
5
BD
100
AcDbEntity
8
1
62
256
6
ByLayer
370
18
48
1
60
0
100
AcDbLine
10
71.214037
20
-2.718499
30
0
11
71.157391
21
-2.886629
31
0
39
0
210
0
220
0
230
1
0
LINE
5
BE
100
AcDbEntity
8
1
62
256
6
ByLayer
370
18
48
1
60
0
100
AcDbLine
10
72
20
0
30
0
11
71.986093
21
-0.059504
31
0
39
0
210
0
220
0
230
1
0
LINE
5
BF
100
AcDbEntity
8
1
62
256
6
ByLayer
370
18
48
1
60
0
100
AcDbLine
10
62
20
-7.431184
30
0
11
62
21
-7.46006
31
0
39
0
210
0
220
0
230
1
0
LINE
5
C0
100
AcDbEntity
8
1
62
256
6
ByLayer
370
18
48
1
60
0
100
AcDbLine
10
55
20
-1.365873
30
0
11
55
21
4.719051
31
0
39
0
210
0
220
0
230
1
0
LINE
5
C1
100
AcDbEntity
8
1
62
256
6
ByLayer
370
18
48
1
60
0
100
AcDbLine
10
71.927513
20
0.261515
30
0
11
71.809537
21
0.748074
31
0
39
0
210
0
220
0
230
1
0
LINE
5
C2
100
AcDbEntity
8
1
62
256
6
ByLayer
370
18
48
1
60
0
100
AcDbLine
10
69.176514
20
-8.188762
30
0
11
71.697522
21
-0.877257
31
0
39
0
210
0
220
0
230
1
0
LINE
5
C3
100
AcDbEntity
8
1
62
256
6
ByLayer
370
18
48
1
60
0
100
AcDbLine
10
0
20
12.3
30
0
11
0
21
-12.3
31
0
39
0
210
0
220
0
230
1
0
LINE
5
C4
100
AcDbEntity
8
1
62
256
6
ByLayer
370
13
48
1
60
0
100
AcDbLine
10
71.927513
20
0.261515
30
0
11
71.12839
21
0.797302
31
0
39
0
210
0
220
0
230
1
0
LINE
5
C5
100
AcDbEntity
8
1
62
256
6
ByLayer
370
18
48
1
60
0
100
AcDbLine
10
62.89
20
-7.61512
30
0
11
62.89
21
-7.199648
31
0
39
0
210
0
220
0
230
1
0
LINE
5
C6
100
AcDbEntity
8
1
62
256
6
ByLayer
370
18
48
1
60
0
100
AcDbLine
10
63.511113
20
-8.349892
30
0
11
63.511113
21
-8.320046
31
0
39
0
210
0
220
0
230
1
0
LINE
5
C7
100
AcDbEntity
8
1
62
256
6
ByLayer
370
13
48
1
60
0
100
AcDbLine
10
71.12839
20
0.797302
30
0
11
71.809537
21
0.748074
31
0
39
0
210
0
220
0
230
1
0
LINE
5
C8
100
AcDbEntity
8
1
62
256
6
ByLayer
370
18
48
1
60
0
100
AcDbLine
10
67.765798
20
-2.381407
30
0
11
67.765647
21
-2.3798
31
0
39
0
210
0
220
0
230
1
0
LINE
5
C9
100
AcDbEntity
8
SK1
62
256
6
ByLayer
370
18
48
1
60
0
100
AcDbLine
10
-47.3
20
0
30
0
11
-47.3
21
-9.99675
31
0
39
0
210
0
220
0
230
1
0
LINE
5
CA
100
AcDbEntity
8
SK1
62
256
6
ByLayer
370
18
48
1
60
0
100
AcDbLine
10
-47.3
20
9.99675
30
0
11
-47.3
21
0
31
0
39
0
210
0
220
0
230
1
0
LINE
5
CB
100
AcDbEntity
8
SK1
62
256
6
ByLayer
370
13
48
1
60
0
100
AcDbLine
10
-0.975195
20
9.74675
30
0
11
-0.975195
21
-9.74675
31
0
39
0
210
0
220
0
230
1
0
LINE
5
CC
100
AcDbEntity
8
SK1
62
256
6
ByLayer
370
13
48
1
60
0
100
AcDbLine
10
-47.426311
20
-9.888738
30
0
11
-47.426311
21
0
31
0
39
0
210
0
220
0
230
1
0
LINE
5
CD
100
AcDbEntity
8
SK1
62
256
6
ByLayer
370
13
48
1
60
0
100
AcDbLine
10
-47.426311
20
0
30
0
11
-47.426311
21
9.888738
31
0
39
0
210
0
220
0
230
1
0
LINE
5
CE
100
AcDbEntity
8
SK1
62
256
6
ByLayer
370
18
48
1
60
0
100
AcDbLine
10
-6.5
20
5.922852
30
0
11
-43.5
21
5.922852
31
0
39
0
210
0
220
0
230
1
0
LINE
5
CF
100
AcDbEntity
8
SK1
62
256
6
ByLayer
370
13
48
1
60
0
100
AcDbLine
10
-43.5
20
5.922852
30
0
11
-43.5
21
-5.922852
31
0
39
0
210
0
220
0
230
1
0
LINE
5
D0
100
AcDbEntity
8
SK1
62
256
6
ByLayer
370
13
48
1
60
0
100
AcDbLine
10
-48.449692
20
-9.875033
30
0
11
-48.449692
21
0
31
0
39
0
210
0
220
0
230
1
0
LINE
5
D1
100
AcDbEntity
8
SK1
62
256
6
ByLayer
370
13
48
1
60
0
100
AcDbLine
10
-48.449692
20
0
30
0
11
-48.449692
21
9.875033
31
0
39
0
210
0
220
0
230
1
0
LINE
5
D2
100
AcDbEntity
8
SK1
62
256
6
ByLayer
370
13
48
1
60
0
100
AcDbLine
10
-6.5
20
-5.922852
30
0
11
-6.5
21
5.922852
31
0
39
0
210
0
220
0
230
1
0
LINE
5
D3
100
AcDbEntity
8
SK1
62
256
6
ByLayer
370
18
48
1
60
0
100
AcDbLine
10
-43.5
20
-5.922852
30
0
11
-6.5
21
-5.922852
31
0
39
0
210
0
220
0
230
1
0
LINE
5
D4
100
AcDbEntity
8
SK1
62
256
6
ByLayer
370
18
48
1
60
0
100
AcDbLine
10
-48.6
20
-9.99675
30
0
11
-48.6
21
9.99675
31
0
39
0
210
0
220
0
230
1
0
LINE
5
D5
100
AcDbEntity
8
SK1
62
256
6
ByLayer
370
18
48
1
60
0
100
AcDbLine
10
-50
20
0
30
0
11
-50
21
-8.99675
31
0
39
0
210
0
220
0
230
1
0
LINE
5
D6
100
AcDbEntity
8
SK1
62
256
6
ByLayer
370
18
48
1
60
0
100
AcDbLine
10
-50
20
8.99675
30
0
11
-50
21
0
31
0
39
0
210
0
220
0
230
1
0
LINE
5
D7
100
AcDbEntity
8
SK1
62
256
6
ByLayer
370
18
48
1
60
0
100
AcDbLine
10
-1.6
20
-9.99675
30
0
11
-1.6
21
0
31
0
39
0
210
0
220
0
230
1
0
LINE
5
D8
100
AcDbEntity
8
SK1
62
256
6
ByLayer
370
18
48
1
60
0
100
AcDbLine
10
-1.6
20
0
30
0
11
-1.6
21
9.99675
31
0
39
0
210
0
220
0
230
1
0
LINE
5
D9
100
AcDbEntity
8
SK1
62
256
6
ByLayer
370
13
48
1
60
0
100
AcDbLine
10
-0.15
20
0
30
0
11
-0.15
21
-9.74675
31
0
39
0
210
0
220
0
230
1
0
LINE
5
DA
100
AcDbEntity
8
SK1
62
256
6
ByLayer
370
13
48
1
60
0
100
AcDbLine
10
-0.15
20
9.74675
30
0
11
-0.15
21
0
31
0
39
0
210
0
220
0
230
1
0
LINE
5
DB
100
AcDbEntity
8
SK1
62
256
6
ByLayer
370
13
48
1
60
0
100
AcDbLine
10
-1.144243
20
0
30
0
11
-1.144243
21
-9.784227
31
0
39
0
210
0
220
0
230
1
0
LINE
5
DC
100
AcDbEntity
8
SK1
62
256
6
ByLayer
370
13
48
1
60
0
100
AcDbLine
10
-1.144243
20
9.784227
30
0
11
-1.144243
21
0
31
0
39
0
210
0
220
0
230
1
0
LINE
5
DD
100
AcDbEntity
8
SK1
62
256
6
ByLayer
370
18
48
1
60
0
100
AcDbLine
10
-49
20
0
30
0
11
-49
21
-9.99675
31
0
39
0
210
0
220
0
230
1
0
LINE
5
DE
100
AcDbEntity
8
SK1
62
256
6
ByLayer
370
18
48
1
60
0
100
AcDbLine
10
-49
20
9.99675
30
0
11
-49
21
0
31
0
39
0
210
0
220
0
230
1
0
MTEXT
5
18B
100
AcDbEntity
8
SK6
62
256
6
ByLayer
370
13
48
1
60
0
100
AcDbMText
10
-7.648863
20
30.375134
30
0
210
0
220
0
230
1
1
\W0.7057;870-1600-16L20-3
40
3.5
41
0
44
1.084337
50
0
71
7
72
5
7
iso_b_vert
0
DIMENSION
5
199
100
AcDbEntity
8
2
62
256
6
ByLayer
370
13
48
1
60
0
100
AcDbDimension
2
DimnDraft3D1
10
16
20
-21
30
0
11
44
21
-21
31
0
70
32
71
5
72
1
41
1
210
0
220
0
230
1
3
Standard
100
AcDbAlignedDimension
13
72
23
-1.5875
33
0
14
16
24
-9.5875
34
0
50
0
100
AcDbRotatedDimension
1001
ACAD
1000
DSTYLE
1002
{
1070
   279
1070
     0
1070
   172
1070
     1
1070
   173
1070
     1
1070
   340
1005
18C
1070
   271
1070
     1
1070
   272
1070
     2
1070
    77
1070
     1
1070
    73
1070
     0
1070
   171
1070
     3
1070
   274
1070
     4
1070
   177
1070
     7
1070
   176
1070
     7
1070
   178
1070
     7
1070
    48
1040
-0.005
1070
    41
1041
3.5
1070
   147
1041
1.5
1070
    42
1041
1.5875
1070
    44
1041
2.0
1070
   140
1041
3.0
1070
   343
1005
0
1070
   344
1005
0
1002
}
0
DIMENSION
5
1A3
100
AcDbEntity
8
2
62
256
6
ByLayer
370
13
48
1
60
0
100
AcDbDimension
2
DimnDraft3D2
10
18.437
20
15
30
0
11
45.2185
21
15
31
0
70
32
71
5
72
1
41
1
210
0
220
0
230
1
3
Standard
100
AcDbAlignedDimension
13
72
23
1.5875
33
0
14
18.437
24
9.5875
34
0
50
0
100
AcDbRotatedDimension
1001
ACAD
1000
DSTYLE
1002
{
1070
   279
1070
     0
1070
   172
1070
     1
1070
   173
1070
     1
1070
   340
1005
18C
1070
   271
1070
     1
1070
   272
1070
     2
1070
    77
1070
     1
1070
    73
1070
     0
1070
   171
1070
     3
1070
   274
1070
     4
1070
   177
1070
     7
1070
   176
1070
     7
1070
   178
1070
     7
1070
    48
1040
-0.005
1070
    41
1041
3.5
1070
   147
1041
1.5
1070
    42
1041
1.5875
1070
    44
1041
2.0
1070
   140
1041
3.0
1070
   343
1005
0
1070
   344
1005
0
1002
}
0
DIMENSION
5
1AE
100
AcDbEntity
8
SK2
62
256
6
ByLayer
370
13
48
1
60
0
100
AcDbDimension
2
DimnDraft3D3
10
0
20
-33
30
0
11
-25
21
-33
31
0
70
32
71
5
72
1
41
1
210
0
220
0
230
1
3
Standard
100
AcDbAlignedDimension
13
-50
23
-11.5875
33
0
14
0
24
-14.0875
34
0
50
0
100
AcDbRotatedDimension
1001
ACAD
1000
DSTYLE
1002
{
1070
   279
1070
     0
1070
   172
1070
     1
1070
   173
1070
     1
1070
   340
1005
18C
1070
   271
1070
     1
1070
   272
1070
     2
1070
    77
1070
     1
1070
    73
1070
     0
1070
   171
1070
     3
1070
   274
1070
     4
1070
   177
1070
     7
1070
   176
1070
     7
1070
   178
1070
     7
1070
    48
1040
-0.005
1070
    41
1041
3.5
1070
   147
1041
1.5
1070
    42
1041
1.5875
1070
    44
1041
2.0
1070
   140
1041
3.0
1070
   343
1005
0
1070
   344
1005
0
1002
}
0
DIMENSION
5
1B8
100
AcDbEntity
8
2
62
256
6
ByLayer
370
13
48
1
60
0
100
AcDbDimension
2
DimnDraft3D4
10
72
20
-33
30
0
11
36
21
-33
31
0
70
32
71
5
72
1
41
1
210
0
220
0
230
1
3
Standard
100
AcDbAlignedDimension
13
0
23
-14.0875
33
0
14
72
24
-1.5875
34
0
50
0
100
AcDbRotatedDimension
1001
ACAD
1000
DSTYLE
1002
{
1070
   279
1070
     0
1070
   172
1070
     1
1070
   173
1070
     1
1070
   340
1005
18C
1070
   271
1070
     1
1070
   272
1070
     2
1070
    77
1070
     1
1070
    73
1070
     0
1070
   171
1070
     3
1070
   274
1070
     4
1070
   177
1070
     7
1070
   176
1070
     7
1070
   178
1070
     7
1070
    48
1040
-0.005
1070
    41
1041
3.5
1070
   147
1041
1.5
1070
    42
1041
1.5875
1070
    44
1041
2.0
1070
   140
1041
3.0
1070
   343
1005
0
1070
   344
1005
0
1002
}
0
DIMENSION
5
1C3
100
AcDbEntity
8
SK2
62
256
6
ByLayer
370
13
48
1
60
0
100
AcDbDimension
2
DimnDraft3D5
10
-58.25
20
-10
30
0
11
-58.5
21
-0.520456
31
0
70
33
71
5
72
1
41
1
210
0
220
0
230
1
3
Standard
100
AcDbAlignedDimension
13
-51.5875
23
10
33
0
14
-51.5875
24
-10
34
0
1001
ACAD
1000
DSTYLE
1002
{
1070
   279
1070
     0
1070
    74
1070
     0
1070
   173
1070
     1
1070
   340
1005
18C
1070
   271
1070
     1
1070
   272
1070
     2
1070
    77
1070
     1
1070
    73
1070
     0
1070
   171
1070
     3
1070
   274
1070
     4
1070
   177
1070
     7
1070
   176
1070
     7
1070
   178
1070
     7
1070
    48
1040
-0.005
1070
    41
1041
3.5
1070
   147
1041
1.5
1070
    42
1041
1.5875
1070
    44
1041
2.0
1070
   140
1041
3.0
1070
   343
1005
0
1070
   344
1005
0
1002
}
0
ENDSEC
0
SECTION
2
OBJECTS
0
DICTIONARY
5
22e
330
0
100
AcDbDictionary
280
0
281
1
3
ACAD_GROUP
350
22f
3
ACAD_MLINESTYLE
350
230
0
DICTIONARY
5
22f
330
0
100
AcDbDictionary
280
0
281
1
0
DICTIONARY
5
230
330
0
100
AcDbDictionary
280
0
281
1
3
Standard
350
18
0
MLINESTYLE
5
18
330
230
100
AcDbMlineStyle
2
Standard
70
0
3

62
256
51
90
52
90
71
2
49
-0.5
62
256
6
ByLayer
49
0.5
62
256
6
ByLayer
0
RASTERVARIABLES
5
21c
330

100
AcDbRasterVariables
90
0
70
1
71
1
72
1
0
ENDSEC
0
EOF
