0
SECTION
2
HEADER
9
$ACADVER
1
AC1015
9
$DWGCODEPAGE
3
ANSI_1252
9
$HANDSEED
5
240
9
$ANGBASE
50
0
9
$ANGDIR
70
0
9
$ATTMODE
70
1
9
$AUNITS
70
0
9
$AUPREC
70
0
9
$CECOLOR
62
256
9
$CELTSCALE
40
1
9
$CELTYPE
6
ByLayer
9
$CELWEIGHT
370
18
9
$CLAYER
8
0
9
$CMLJUST
70
0
9
$CMLSCALE
40
1
9
$CMLSTYLE
2
Standard
9
$DIMSTYLE
2
Standard
9
$TEXTSIZE
40
0.2
9
$TEXTSTYLE
7
Standard
9
$LUNITS
70
2
9
$LUPREC
70
4
9
$EXTNAMES
290
1
9
$INSUNITS
70
4
9
$LTSCALE
40
1
9
$LWDISPLAY
290
1
9
$PDMODE
70
0
9
$PDSIZE
40
0
9
$PLINEGEN
70
0
0
ENDSEC
0
SECTION
2
CLASSES
0
CLASS
1
RASTERVARIABLES
2
AcDbRasterVariables
3
ISM
90
0
280
0
281
0
0
ENDSEC
0
SECTION
2
TABLES
0
TABLE
2
VPORT
5
236
100
AcDbSymbolTable
0
VPORT
5
1
100
AcDbSymbolTableRecord
100
AcDbViewportTableRecord
2
*Active
70
0
10
0
20
0
11
1
21
1
12
-1
22
1
13
0
23
0
14
0.5
24
0.5
15
10
25
10
16
0
26
0
36
1
17
0
27
0
37
0
0
ENDTAB
0
TABLE
2
LTYPE
5
237
100
AcDbSymbolTable
0
LTYPE
5
14
100
AcDbSymbolTableRecord
100
AcDbLinetypeTableRecord
70
0
2
ByBlock
3

72
65
73
0
40
0
0
LTYPE
5
15
100
AcDbSymbolTableRecord
100
AcDbLinetypeTableRecord
70
0
2
ByLayer
3

72
65
73
0
40
0
0
LTYPE
5
16
100
AcDbSymbolTableRecord
100
AcDbLinetypeTableRecord
70
0
2
CONTINUOUS
3
Solid line
72
65
73
0
40
0
0
LTYPE
5
6A
100
AcDbSymbolTableRecord
100
AcDbLinetypeTableRecord
70
0
2
CENTER
3
____ _ ____ _ ____ _ ____
72
65
73
4
40
47.5
49
22
74
0
49
-8.5
74
0
49
8.5
74
0
49
-8.5
74
0
0
LTYPE
5
6B
100
AcDbSymbolTableRecord
100
AcDbLinetypeTableRecord
70
0
2
DASHED
3
__ __ __ __ __ __ __ __ __
72
65
73
2
40
25.72
49
12.86
74
0
49
-12.86
74
0
0
ENDTAB
0
TABLE
2
LAYER
5
238
100
AcDbSymbolTable
0
LAYER
5
10
100
AcDbSymbolTableRecord
100
AcDbLayerTableRecord
2
0
70
0
62
7
6
CONTINUOUS
290
1
370
-3
390
0
0
LAYER
5
6D
100
AcDbSymbolTableRecord
100
AcDbLayerTableRecord
2
80
70
0
62
-6
6
CONTINUOUS
290
1
370
-3
390
0
0
LAYER
5
6F
100
AcDbSymbolTableRecord
100
AcDbLayerTableRecord
2
81
70
0
62
-3
6
CONTINUOUS
290
1
370
-3
390
0
0
LAYER
5
72
100
AcDbSymbolTableRecord
100
AcDbLayerTableRecord
2
1
70
0
62
4
6
CONTINUOUS
290
1
370
-3
390
0
0
LAYER
5
8F
100
AcDbSymbolTableRecord
100
AcDbLayerTableRecord
2
4
70
0
62
-2
6
CENTER
290
1
370
-3
390
0
0
LAYER
5
196
100
AcDbSymbolTableRecord
100
AcDbLayerTableRecord
2
2
70
0
62
7
6
CONTINUOUS
290
1
370
-3
390
0
0
LAYER
5
222
100
AcDbSymbolTableRecord
100
AcDbLayerTableRecord
2
SK1
70
0
62
4
6
CONTINUOUS
290
1
370
-3
390
0
0
LAYER
5
223
100
AcDbSymbolTableRecord
100
AcDbLayerTableRecord
2
SK4
70
0
62
2
6
CENTER
290
1
370
-3
390
0
0
LAYER
5
224
100
AcDbSymbolTableRecord
100
AcDbLayerTableRecord
2
SK6
70
0
62
5
6
CONTINUOUS
290
1
370
-3
390
0
0
LAYER
5
225
100
AcDbSymbolTableRecord
100
AcDbLayerTableRecord
2
SK2
70
0
62
7
6
CONTINUOUS
290
1
370
-3
390
0
0
ENDTAB
0
TABLE
2
STYLE
5
239
100
AcDbSymbolTable
0
STYLE
5
11
100
AcDbSymbolTableRecord
100
AcDbTextStyleTableRecord
2
Standard
3
txt
70
0
71
0
40
0
41
1
42
0
50
0
0
STYLE
5
191
100
AcDbSymbolTableRecord
100
AcDbTextStyleTableRecord
2
iso_b_vert
3
simplex.shx
70
0
71
0
40
0
41
1
42
0
50
0
0
STYLE
5
192
100
AcDbSymbolTableRecord
100
AcDbTextStyleTableRecord
2
DWGDirectTextStyle
3
simplex
70
0
71
0
40
0
41
1
42
0
50
0
0
ENDTAB
0
TABLE
2
DIMSTYLE
5
23a
100
AcDbSymbolTable
100
AcDbDimStyleTable
0
DIMSTYLE
105
27
100
AcDbSymbolTableRecord
100
AcDbDimStyleTableRecord
2
Standard
70
0
3
<>
41
0.18
42
0.0625
44
0.18
140
0.18
147
0.09
73
0
74
0
77
1
271
2
275
0
278
52
280
0
340
11
0
ENDTAB
0
TABLE
2
VIEW
5
23b
100
AcDbSymbolTable
0
ENDTAB
0
TABLE
2
UCS
5
23c
100
AcDbSymbolTable
0
ENDTAB
0
TABLE
2
APPID
5
23d
100
AcDbSymbolTable
0
APPID
5
12
100
AcDbSymbolTableRecord
100
AcDbRegAppTableRecord
2
ACAD
70
0
0
ENDTAB
0
TABLE
2
BLOCK_RECORD
5
23e
100
AcDbSymbolTable
0
BLOCK_RECORD
5
1F
100
AcDbSymbolTableRecord
100
AcDbBlockTableRecord
2
*Model_Space
340
0
70
0
0
BLOCK_RECORD
5
1B
100
AcDbSymbolTableRecord
100
AcDbBlockTableRecord
2
*Paper_Space
340
0
70
0
0
BLOCK_RECORD
5
23
100
AcDbSymbolTableRecord
100
AcDbBlockTableRecord
2
*Paper_Space0
340
0
70
0
0
BLOCK_RECORD
5
194
100
AcDbSymbolTableRecord
100
AcDbBlockTableRecord
2
DimnDraft3D1
340
0
70
0
0
BLOCK_RECORD
5
19F
100
AcDbSymbolTableRecord
100
AcDbBlockTableRecord
2
DimnDraft3D2
340
0
70
0
0
BLOCK_RECORD
5
1A9
100
AcDbSymbolTableRecord
100
AcDbBlockTableRecord
2
DimnDraft3D3
340
0
70
0
0
BLOCK_RECORD
5
1B4
100
AcDbSymbolTableRecord
100
AcDbBlockTableRecord
2
DimnDraft3D4
340
0
70
0
0
BLOCK_RECORD
5
1BE
100
AcDbSymbolTableRecord
100
AcDbBlockTableRecord
2
DimnDraft3D5
340
0
70
0
0
ENDTAB
0
ENDSEC
0
SECTION
2
BLOCKS
0
BLOCK
5
20
100
AcDbEntity
8
0
100
AcDbBlockBegin
2
*Model_Space
70
0
10
0
20
0
30
0
3
*Model_Space
0
ENDBLK
5
21
100
AcDbEntity
8
0
100
AcDbBlockEnd
0
BLOCK
5
1C
100
AcDbEntity
8
0
100
AcDbBlockBegin
2
*Paper_Space
70
0
10
0
20
0
30
0
3
*Paper_Space
0
ENDBLK
5
1D
100
AcDbEntity
8
0
100
AcDbBlockEnd
0
BLOCK
5
24
100
AcDbEntity
8
0
100
AcDbBlockBegin
2
*Paper_Space0
70
0
10
0
20
0
30
0
3
*Paper_Space0
0
ENDBLK
5
25
100
AcDbEntity
8
0
100
AcDbBlockEnd
0
BLOCK
5
19C
100
AcDbEntity
8
0
100
AcDbBlockBegin
2
DimnDraft3D1
70
0
10
0
20
0
30
0
3
DimnDraft3D1
0
MTEXT
5
195
100
AcDbEntity
8
2
62
256
6
ByLayer
370
13
48
1
60
0
100
AcDbMText
10
53.229544
20
-19.249886
30
0
210
0
220
0
230
1
1
\W0.7346;80.0
40
3
41
0
44
1.084337
50
0
71
7
72
5
7
iso_b_vert
0
LINE
5
197
100
AcDbEntity
8
2
62
256
6
ByLayer
370
13
48
1
60
0
100
AcDbLine
10
96
20
-1.5875
30
0
11
96
21
-22
31
0
39
0
210
0
220
0
230
1
0
LINE
5
198
100
AcDbEntity
8
2
62
256
6
ByLayer
370
13
48
1
60
0
100
AcDbLine
10
16
20
-8.5875
30
0
11
16
21
-22
31
0
39
0
210
0
220
0
230
1
0
LINE
5
199
100
AcDbEntity
8
2
62
256
6
ByLayer
370
13
48
1
60
0
100
AcDbLine
10
96
20
-20
30
0
11
16
21
-20
31
0
39
0
210
0
220
0
230
1
0
SOLID
5
19A
100
AcDbEntity
8
2
62
256
6
ByLayer
370
13
48
1
60
0
100
AcDbTrace
10
96
20
-20
30
0
11
92.500002
21
-20.460784
31
0
12
92.499998
22
-19.539216
32
0
13
96
23
-20
33
0
39
0
210
0
220
0
230
1
0
SOLID
5
19B
100
AcDbEntity
8
2
62
256
6
ByLayer
370
13
48
1
60
0
100
AcDbTrace
10
16
20
-20
30
0
11
19.499998
21
-19.539216
31
0
12
19.500002
22
-20.460784
32
0
13
16
23
-20
33
0
39
0
210
0
220
0
230
1
0
ENDBLK
5
19D
100
AcDbEntity
8
0
100
AcDbBlockEnd
0
BLOCK
5
1A6
100
AcDbEntity
8
0
100
AcDbBlockBegin
2
DimnDraft3D2
70
0
10
0
20
0
30
0
3
DimnDraft3D2
0
MTEXT
5
1A0
100
AcDbEntity
8
2
62
256
6
ByLayer
370
13
48
1
60
0
100
AcDbMText
10
54.594544
20
14.750114
30
0
210
0
220
0
230
1
1
\W0.7346;77.3
40
3
41
0
44
1.084337
50
0
71
7
72
5
7
iso_b_vert
0
LINE
5
1A1
100
AcDbEntity
8
2
62
256
6
ByLayer
370
13
48
1
60
0
100
AcDbLine
10
96
20
1.5875
30
0
11
96
21
16
31
0
39
0
210
0
220
0
230
1
0
LINE
5
1A2
100
AcDbEntity
8
2
62
256
6
ByLayer
370
13
48
1
60
0
100
AcDbLine
10
18.73
20
8.5875
30
0
11
18.73
21
16
31
0
39
0
210
0
220
0
230
1
0
LINE
5
1A3
100
AcDbEntity
8
2
62
256
6
ByLayer
370
13
48
1
60
0
100
AcDbLine
10
96
20
14
30
0
11
18.73
21
14
31
0
39
0
210
0
220
0
230
1
0
SOLID
5
1A4
100
AcDbEntity
8
2
62
256
6
ByLayer
370
13
48
1
60
0
100
AcDbTrace
10
96
20
14
30
0
11
92.500002
21
13.539216
31
0
12
92.499998
22
14.460784
32
0
13
96
23
14
33
0
39
0
210
0
220
0
230
1
0
SOLID
5
1A5
100
AcDbEntity
8
2
62
256
6
ByLayer
370
13
48
1
60
0
100
AcDbTrace
10
18.73
20
14
30
0
11
22.229998
21
14.460784
31
0
12
22.230002
22
13.539216
32
0
13
18.73
23
14
33
0
39
0
210
0
220
0
230
1
0
ENDBLK
5
1A7
100
AcDbEntity
8
0
100
AcDbBlockEnd
0
BLOCK
5
1B1
100
AcDbEntity
8
0
100
AcDbBlockBegin
2
DimnDraft3D3
70
0
10
0
20
0
30
0
3
DimnDraft3D3
0
MTEXT
5
1AA
100
AcDbEntity
8
SK2
62
256
6
ByLayer
370
13
48
1
60
0
100
AcDbMText
10
-27.770456
20
-32.249886
30
0
210
0
220
0
230
1
1
\W0.7346;50.0
40
3
41
0
44
1.084337
50
0
71
7
72
5
7
iso_b_vert
0
LINE
5
1AC
100
AcDbEntity
8
SK2
62
256
6
ByLayer
370
13
48
1
60
0
100
AcDbLine
10
-50
20
-11.5875
30
0
11
-50
21
-35
31
0
39
0
210
0
220
0
230
1
0
LINE
5
1AD
100
AcDbEntity
8
SK2
62
256
6
ByLayer
370
13
48
1
60
0
100
AcDbLine
10
0
20
-14.0875
30
0
11
0
21
-35
31
0
39
0
210
0
220
0
230
1
0
LINE
5
1AE
100
AcDbEntity
8
SK2
62
256
6
ByLayer
370
13
48
1
60
0
100
AcDbLine
10
-50
20
-33
30
0
11
0
21
-33
31
0
39
0
210
0
220
0
230
1
0
SOLID
5
1AF
100
AcDbEntity
8
SK2
62
256
6
ByLayer
370
13
48
1
60
0
100
AcDbTrace
10
-50
20
-33
30
0
11
-46.500002
21
-32.539216
31
0
12
-46.499998
22
-33.460784
32
0
13
-50
23
-33
33
0
39
0
210
0
220
0
230
1
0
SOLID
5
1B0
100
AcDbEntity
8
SK2
62
256
6
ByLayer
370
13
48
1
60
0
100
AcDbTrace
10
0
20
-33
30
0
11
-3.499998
21
-33.460784
31
0
12
-3.500002
22
-32.539216
32
0
13
0
23
-33
33
0
39
0
210
0
220
0
230
1
0
ENDBLK
5
1B2
100
AcDbEntity
8
0
100
AcDbBlockEnd
0
BLOCK
5
1BB
100
AcDbEntity
8
0
100
AcDbBlockBegin
2
DimnDraft3D4
70
0
10
0
20
0
30
0
3
DimnDraft3D4
0
MTEXT
5
1B5
100
AcDbEntity
8
2
62
256
6
ByLayer
370
13
48
1
60
0
100
AcDbMText
10
45.229544
20
-32.249886
30
0
210
0
220
0
230
1
1
\W0.7346;96.0
40
3
41
0
44
1.084337
50
0
71
7
72
5
7
iso_b_vert
0
LINE
5
1B6
100
AcDbEntity
8
2
62
256
6
ByLayer
370
13
48
1
60
0
100
AcDbLine
10
0
20
-14.0875
30
0
11
0
21
-35
31
0
39
0
210
0
220
0
230
1
0
LINE
5
1B7
100
AcDbEntity
8
2
62
256
6
ByLayer
370
13
48
1
60
0
100
AcDbLine
10
96
20
-1.5875
30
0
11
96
21
-35
31
0
39
0
210
0
220
0
230
1
0
LINE
5
1B8
100
AcDbEntity
8
2
62
256
6
ByLayer
370
13
48
1
60
0
100
AcDbLine
10
0
20
-33
30
0
11
96
21
-33
31
0
39
0
210
0
220
0
230
1
0
SOLID
5
1B9
100
AcDbEntity
8
2
62
256
6
ByLayer
370
13
48
1
60
0
100
AcDbTrace
10
0
20
-33
30
0
11
3.499998
21
-32.539216
31
0
12
3.500002
22
-33.460784
32
0
13
0
23
-33
33
0
39
0
210
0
220
0
230
1
0
SOLID
5
1BA
100
AcDbEntity
8
2
62
256
6
ByLayer
370
13
48
1
60
0
100
AcDbTrace
10
96
20
-33
30
0
11
92.500002
21
-33.460784
31
0
12
92.499998
22
-32.539216
32
0
13
96
23
-33
33
0
39
0
210
0
220
0
230
1
0
ENDBLK
5
1BC
100
AcDbEntity
8
0
100
AcDbBlockEnd
0
BLOCK
5
1C6
100
AcDbEntity
8
0
100
AcDbBlockBegin
2
DimnDraft3D5
70
0
10
0
20
0
30
0
3
DimnDraft3D5
0
MTEXT
5
1BF
100
AcDbEntity
8
SK2
62
256
6
ByLayer
370
13
48
1
60
0
100
AcDbMText
10
-57.750114
20
0.229544
30
0
210
0
220
0
230
1
1
\W0.7346;20.0
40
3
41
0
44
1.084337
50
90
71
7
72
5
7
iso_b_vert
0
MTEXT
5
1C0
100
AcDbEntity
8
SK2
62
256
6
ByLayer
370
13
48
1
60
0
100
AcDbMText
10
-57.750114
20
-4.247019
30
0
210
0
220
0
230
1
1
%%c
40
3
41
0
44
1.084337
50
90
71
7
72
5
7
iso_b_vert
0
LINE
5
1C1
100
AcDbEntity
8
SK2
62
256
6
ByLayer
370
13
48
1
60
0
100
AcDbLine
10
-51.5875
20
10
30
0
11
-58.25
21
10
31
0
39
0
210
0
220
0
230
1
0
LINE
5
1C2
100
AcDbEntity
8
SK2
62
256
6
ByLayer
370
13
48
1
60
0
100
AcDbLine
10
-51.5875
20
-10
30
0
11
-58.25
21
-10
31
0
39
0
210
0
220
0
230
1
0
LINE
5
1C3
100
AcDbEntity
8
SK2
62
256
6
ByLayer
370
13
48
1
60
0
100
AcDbLine
10
-56.25
20
10
30
0
11
-56.25
21
-10
31
0
39
0
210
0
220
0
230
1
0
SOLID
5
1C4
100
AcDbEntity
8
SK2
62
256
6
ByLayer
370
13
48
1
60
0
100
AcDbTrace
10
-56.25
20
10
30
0
11
-55.789216
21
6.500002
31
0
12
-56.710784
22
6.499998
32
0
13
-56.25
23
10
33
0
39
0
210
0
220
0
230
1
0
SOLID
5
1C5
100
AcDbEntity
8
SK2
62
256
6
ByLayer
370
13
48
1
60
0
100
AcDbTrace
10
-56.25
20
-10
30
0
11
-56.710784
21
-6.500002
31
0
12
-55.789216
22
-6.499998
32
0
13
-56.25
23
-10
33
0
39
0
210
0
220
0
230
1
0
ENDBLK
5
1C7
100
AcDbEntity
8
0
100
AcDbBlockEnd
0
ENDSEC
0
SECTION
2
ENTITIES
0
ARC
5
E4
100
AcDbEntity
8
SK1
62
256
6
ByLayer
370
18
48
1
60
0
100
AcDbCircle
39
0
10
47.946236
20
-10.49675
30
0
40
0.799999999999998
210
0
220
0
230
-1
100
AcDbArc
50
51
51
130.534532
0
ARC
5
E5
100
AcDbEntity
8
SK1
62
256
6
ByLayer
370
18
48
1
60
0
100
AcDbCircle
39
0
10
47.946236
20
10.49675
30
0
40
0.799999999999998
210
0
220
0
230
-1
100
AcDbArc
50
229.465468
51
309
0
ARC
5
E6
100
AcDbEntity
8
SK1
62
256
6
ByLayer
370
18
48
1
60
0
100
AcDbCircle
39
0
10
0.975195
20
10.14675
30
0
40
0.4
210
0
220
0
230
-1
100
AcDbArc
50
270
51
295
0
ARC
5
E7
100
AcDbEntity
8
SK1
62
256
6
ByLayer
370
18
48
1
60
0
100
AcDbCircle
39
0
10
0.975195
20
-10.14675
30
0
40
0.4
210
0
220
0
230
-1
100
AcDbArc
50
65
51
90
0
ARC
5
E8
100
AcDbEntity
8
1
62
256
6
ByLayer
370
18
48
1
60
0
100
AcDbCircle
39
0
10
-16
20
-12.75
30
0
40
6.00000000000001
210
0
220
0
230
-1
100
AcDbArc
50
54.290254
51
90
0
ARC
5
E9
100
AcDbEntity
8
1
62
256
6
ByLayer
370
18
48
1
60
0
100
AcDbCircle
39
0
10
-16
20
12.75
30
0
40
6.00000000000001
210
0
220
0
230
-1
100
AcDbArc
50
270
51
305.709746
0
ARC
5
EA
100
AcDbEntity
8
SK1
62
256
6
ByLayer
370
18
48
1
60
0
100
AcDbCircle
39
0
10
0.15
20
10.14675
30
0
40
0.4
210
0
220
0
230
-1
100
AcDbArc
50
247.975687
51
270
0
ARC
5
EB
100
AcDbEntity
8
SK1
62
256
6
ByLayer
370
18
48
1
60
0
100
AcDbCircle
39
0
10
0.15
20
-10.14675
30
0
40
0.4
210
0
220
0
230
-1
100
AcDbArc
50
90
51
112.024313
0
ARC
5
EC
100
AcDbEntity
8
1
62
256
6
ByLayer
370
18
48
1
60
0
100
AcDbCircle
39
0
10
87.08
20
1.95
30
0
40
0.249999999972198
210
0
220
0
230
1
100
AcDbArc
50
331.642363
51
352.091076
0
ELLIPSE
5
ED
100
AcDbEntity
8
1
62
256
6
ByLayer
370
13
48
1
60
0
100
AcDbEllipse
10
77.6
20
7.346187
30
0
11
-0.129947242423147
21
-4.99831108617567
31
0
210
0
220
0
230
1
40
0.341147
41
0.876875025007417
42
1.08797698876618
0
ELLIPSE
5
EE
100
AcDbEntity
8
1
62
256
6
ByLayer
370
18
48
1
60
0
100
AcDbEllipse
10
89.480155
20
-0.920578
30
0
11
1.21278927251917
21
0.281640720437711
31
0
210
0
220
0
230
1
40
0.785931
41
1.91064549601169
42
-1.75132261659843
0
ELLIPSE
5
EF
100
AcDbEntity
8
1
62
256
6
ByLayer
370
18
48
1
60
0
100
AcDbEllipse
10
96
20
0
30
0
11
2.4592564501088
21
-6.99840296030751
31
0
210
0
220
0
230
1
40
0.060808
41
2.76632499008936
42
2.85647399175407
0
ELLIPSE
5
F0
100
AcDbEntity
8
1
62
256
6
ByLayer
370
18
48
1
60
0
100
AcDbEllipse
10
17.66
20
0.702904
30
0
11
-0.992469104971284
21
-4.90051069539467
31
0
210
0
220
0
230
1
40
0.019027
41
2.4890355635028
42
2.48980253718342
0
ELLIPSE
5
F1
100
AcDbEntity
8
1
62
256
6
ByLayer
370
18
48
1
60
0
100
AcDbEllipse
10
84.11
20
-2.926427
30
0
11
1.04999999999998
21
0
31
0
210
0
220
0
230
1
40
0.702153
41
-1.57079631813552
42
-1.34764508504655
0
ELLIPSE
5
F2
100
AcDbEntity
8
1
62
256
6
ByLayer
370
18
48
1
60
0
100
AcDbEllipse
10
84.27
20
-2.926427
30
0
11
-1.51000000000003
21
1.84915559427183E-16
31
0
210
0
220
0
230
1
40
0.702153
41
1.02003608237863
42
2.12077157281233
0
ELLIPSE
5
F3
100
AcDbEntity
8
1
62
256
6
ByLayer
370
18
48
1
60
0
100
AcDbEllipse
10
77.6
20
7.346187
30
0
11
-0.129947242423147
21
-4.99831108617567
31
0
210
0
220
0
230
1
40
0.341147
41
1.08797698876618
42
1.09042074894749
0
ELLIPSE
5
F4
100
AcDbEntity
8
1
62
256
6
ByLayer
370
18
48
1
60
0
100
AcDbEllipse
10
17.327462
20
-0.963636
30
0
11
2.99936362213564
21
14.200816000929
31
0
210
0
220
0
230
1
40
0.004308
41
-1.80152311364172
42
-1.76146597124511
0
ELLIPSE
5
F5
100
AcDbEntity
8
1
62
256
6
ByLayer
370
18
48
1
60
0
100
AcDbEllipse
10
78.123238
20
6.335511
30
0
11
2.73758527657117
21
9.15133115846889
31
0
210
0
220
0
230
1
40
0.134083
41
-1.67736897170572
42
-1.61965181196942
0
ELLIPSE
5
F6
100
AcDbEntity
8
1
62
256
6
ByLayer
370
18
48
1
60
0
100
AcDbEllipse
10
96
20
-1E-06
30
0
11
2.45925597531838
21
6.99840151893433
31
0
210
0
220
0
230
1
40
0.060808
41
-2.85647396323514
42
-2.76632495184163
0
ELLIPSE
5
F7
100
AcDbEntity
8
1
62
256
6
ByLayer
370
18
48
1
60
0
100
AcDbEllipse
10
17.66
20
0.702904
30
0
11
-0.992469104971284
21
-4.90051069539467
31
0
210
0
220
0
230
1
40
0.019027
41
0.473247138245574
42
0.473743265934644
0
ELLIPSE
5
F8
100
AcDbEntity
8
1
62
256
6
ByLayer
370
18
48
1
60
0
100
AcDbEllipse
10
95.97138
20
0.131454
30
0
11
0.0472765640384275
21
-0.150392792016741
31
0
210
0
220
0
230
1
40
0.048492
41
-2.46903554423776
42
-1.78128164863111
0
ELLIPSE
5
F9
100
AcDbEntity
8
1
62
256
6
ByLayer
370
18
48
1
60
0
100
AcDbEllipse
10
77.964934
20
-79.99957
30
0
11
79.2897681350131
21
0.240904614625971
31
0
210
0
220
0
230
1
40
0.93303
41
1.44800338580453
42
1.44957373634425
0
ELLIPSE
5
FA
100
AcDbEntity
8
1
62
256
6
ByLayer
370
18
48
1
60
0
100
AcDbEllipse
10
95.97138
20
-0.131454
30
0
11
0.0472765639906085
21
0.150392791881488
31
0
210
0
220
0
230
1
40
0.048492
41
1.78128164799766
42
2.46903554408119
0
ELLIPSE
5
FB
100
AcDbEntity
8
1
62
256
6
ByLayer
370
13
48
1
60
0
100
AcDbEllipse
10
17.66
20
0.702904
30
0
11
-0.992469104971284
21
-4.90051069539467
31
0
210
0
220
0
230
1
40
0.019027
41
0.473743265934644
42
2.4890355635028
0
ELLIPSE
5
FC
100
AcDbEntity
8
1
62
256
6
ByLayer
370
18
48
1
60
0
100
AcDbEllipse
10
101.018955
20
0
30
0
11
9.28892120271489
21
6.29648009725275
31
0
210
0
220
0
230
1
40
0.290406
41
2.8563624423954
42
3.12641752544904
0
ELLIPSE
5
FD
100
AcDbEntity
8
1
62
256
6
ByLayer
370
18
48
1
60
0
100
AcDbEllipse
10
17.960087
20
2.062176
30
0
11
2.99918289469694
21
16.055464553299
31
0
210
0
220
0
230
1
40
0.004497
41
-1.41202238259044
42
-1.38488788782319
0
ELLIPSE
5
FE
100
AcDbEntity
8
1
62
256
6
ByLayer
370
18
48
1
60
0
100
AcDbEllipse
10
90.61165
20
-0.969071
30
0
11
0.293527028154748
21
-1.00785788868274
31
0
210
0
220
0
230
1
40
0.31511
41
0.0530808625920577
42
-3.08851179099812
0
ELLIPSE
5
FF
100
AcDbEntity
8
1
62
256
6
ByLayer
370
13
48
1
60
0
100
AcDbEllipse
10
17.66
20
0.702904
30
0
11
0.475033705226929
21
4.97738314567991
31
0
210
0
220
0
230
1
40
0.703879
41
0.737623357070181
42
2.62540468610778
0
POINT
5
6C
100
AcDbEntity
8
80
62
256
6
ByLayer
370
18
48
1
60
0
100
AcDbPoint
10
0
20
0
30
0
39
0
210
0
220
0
230
1
50
360
0
POINT
5
6E
100
AcDbEntity
8
81
62
256
6
ByLayer
370
18
48
1
60
0
100
AcDbPoint
10
87.3
20
0
30
0
39
0
210
0
220
0
230
1
50
360
0
SPLINE
5
100
100
AcDbEntity
8
1
62
256
6
ByLayer
370
18
48
1
60
0
100
AcDbSpline
70
4
71
3
72
14
73
10
40
0
40
0
40
0
40
0
40
0.197862047688588
40
0.393737867359643
40
0.582534814577637
40
0.689157712721052
40
0.792726729336009
40
0.895128614193209
40
1
40
1
40
1
40
1
41
1
10
12.4167255104682
20
7.936462430533
30
0
41
1
10
11.9503339602386
20
8.29182654281504
30
0
41
1
10
11.0335693118852
20
9.01286854678273
30
0
41
1
10
9.75416922871293
20
10.1704169159146
30
0
41
1
10
8.63048202888243
20
11.0976914342466
30
0
41
1
10
7.64234517746371
20
11.7493737009037
30
0
41
1
10
6.81164021846615
20
12.1632136377564
30
0
41
1
10
5.92520863179189
20
12.4377013648578
30
0
41
1
10
5.3158026331451
20
12.4981816589262
30
0
41
1
10
5.0009
20
12.5
30
0
0
SPLINE
5
101
100
AcDbEntity
8
1
62
256
6
ByLayer
370
18
48
1
60
0
100
AcDbSpline
70
4
71
3
72
15
73
11
40
0
40
0
40
0
40
0
40
0.10673037168397
40
0.210982088141329
40
0.316541609160882
40
0.425324708771518
40
0.537772464307381
40
0.689630169147014
40
0.844516340203986
40
1
40
1
40
1
40
1
41
1
10
5.0009
20
-12.5
30
0
41
1
10
5.32153454317776
20
-12.4980297366497
30
0
41
1
10
5.94173411981819
20
-12.4354320379057
30
0
41
1
10
6.8432335073862
20
-12.1512082046434
30
0
41
1
10
7.6870416108878
20
-11.723708823345
30
0
41
1
10
8.49318287493617
20
-11.1851368475541
30
0
41
1
10
9.36064074990639
20
-10.4998555675057
30
0
41
1
10
10.2959943512203
20
-9.68353816232684
30
0
41
1
10
11.3214422930839
20
-8.77599634218015
30
0
41
1
10
12.0472336534112
20
-8.21189574400327
30
0
41
1
10
12.4167255104682
20
-7.936462430533
30
0
0
SPLINE
5
102
100
AcDbEntity
8
1
62
256
6
ByLayer
370
18
48
1
60
0
100
AcDbSpline
70
4
71
3
72
34
73
30
40
0
40
0
40
0
40
0
40
0.0068783567414842
40
0.024653612748939
40
0.0498717731846075
40
0.081676200490495
40
0.120385389567526
40
0.16618135112818
40
0.218380619802808
40
0.265483138864386
40
0.306948235254165
40
0.345115355190134
40
0.376804361814255
40
0.40201489466099
40
0.423348098724434
40
0.44390037310974
40
0.479275321314002
40
0.521471447766049
40
0.570527923821689
40
0.626947501389205
40
0.654766172281376
40
0.684158446432925
40
0.715123780807963
40
0.747660959166187
40
0.783828578678252
40
0.827531522557819
40
0.879516782697178
40
0.939762986607816
40
1
40
1
40
1
40
1
41
1
10
50.6811530116797
20
6.54534151229575
30
0
41
1
10
50.6296348862254
20
6.54456800569096
30
0
41
1
10
50.435835806777
20
6.54137139301133
30
0
41
1
10
49.9296339832734
20
6.52723542335821
30
0
41
1
10
49.1705655304306
20
6.51465513389439
30
0
41
1
10
48.1724242339991
20
6.50710153899581
30
0
41
1
10
46.9628836679116
20
6.50875812467373
30
0
41
1
10
45.542893196286
20
6.51892765426328
30
0
41
1
10
44.0411645479695
20
6.53190348273304
30
0
41
1
10
42.5826301038254
20
6.53954568248253
30
0
41
1
10
41.2693218543056
20
6.54406544651445
30
0
41
1
10
40.1151855414334
20
6.5461143410601
30
0
41
1
10
39.1290209276791
20
6.54670429400522
30
0
41
1
10
38.3168756882106
20
6.5465764832372
30
0
41
1
10
37.6195859426851
20
6.5462123353667
30
0
41
1
10
36.8160238292469
20
6.54577243281679
30
0
41
1
10
35.7953162680774
20
6.5453298037402
30
0
41
1
10
34.4782406638069
20
6.54484223529855
30
0
41
1
10
32.9424322485748
20
6.54432450855089
30
0
41
1
10
31.5558487168375
20
6.54420961002779
30
0
41
1
10
30.3738005392094
20
6.54455371332204
30
0
41
1
10
29.4565794695302
20
6.54498098864528
30
0
41
1
10
28.4903353443714
20
6.54557037851836
30
0
41
1
10
27.453716750614
20
6.54630060467022
30
0
41
1
10
26.284662169836
20
6.54711926575183
30
0
41
1
10
24.9131558107506
20
6.54798770147488
30
0
41
1
10
23.2911364012164
20
6.54892381170734
30
0
41
1
10
21.4970629632753
20
6.54974649761101
30
0
41
1
10
20.2437437091103
20
6.5499433043874
30
0
41
1
10
19.6171258999481
20
6.5499625491444
30
0
0
SPLINE
5
103
100
AcDbEntity
8
1
62
256
6
ByLayer
370
18
48
1
60
0
100
AcDbSpline
70
4
71
2
72
6
73
3
40
0
40
0
40
0
40
1
40
1
40
1
41
1
10
50.8032044788046
20
-0.466260101971898
30
0
41
1
10
50.8816747345322
20
-0.479704718031968
30
0
41
1
10
50.9601427778218
20
-0.494666044546392
30
0
0
SPLINE
5
104
100
AcDbEntity
8
1
62
256
6
ByLayer
370
18
48
1
60
0
100
AcDbSpline
70
4
71
3
72
39
73
35
40
0
40
0
40
0
40
0
40
0.0502448762923324
40
0.092925211209512
40
0.128022418797406
40
0.149360857185596
40
0.166422442427195
40
0.182748099710451
40
0.192953894133587
40
0.204238405537024
40
0.217360020765579
40
0.232319663198707
40
0.249118173136018
40
0.279105877451793
40
0.311189057020891
40
0.344501558037793
40
0.3752844734026
40
0.407048611190709
40
0.439794203300366
40
0.473521277253591
40
0.506816336884217
40
0.534656619606529
40
0.557591002848261
40
0.573991417637112
40
0.58409276804903
40
0.59595193622172
40
0.61354056547922
40
0.636392135104094
40
0.664769333839212
40
0.698670149201245
40
0.73647195903374
40
0.8282992084133
40
0.922659629184584
40
1
40
1
40
1
40
1
41
1
10
19.3599999998901
20
-6.54996604276104
30
0
41
1
10
19.8775263861616
20
-6.54998114619139
30
0
41
1
10
20.8346617279123
20
-6.54989375467534
30
0
41
1
10
22.1532956997757
20
-6.54943370363961
30
0
41
1
10
23.1741887296083
20
-6.54895174665245
30
0
41
1
10
23.9312075371644
20
-6.5485468423918
30
0
41
1
10
24.4948804977377
20
-6.54822951999896
30
0
41
1
10
24.9438875419297
20
-6.54796955938585
30
0
41
1
10
25.3333970573899
20
-6.54774191158106
30
0
41
1
10
25.6898875093663
20
-6.5475333369522
30
0
41
1
10
26.0953112448524
20
-6.54729287931977
30
0
41
1
10
26.5574867013749
20
-6.54701020827474
30
0
41
1
10
27.1933089097294
20
-6.54660604910688
30
0
41
1
10
28.0053384286494
20
-6.54602998604901
30
0
41
1
10
28.9875827972041
20
-6.54535474294639
30
0
41
1
10
29.9781503841734
20
-6.54480756222483
30
0
41
1
10
30.9654961137988
20
-6.54443764574376
30
0
41
1
10
31.9470238923947
20
-6.54426190053746
30
0
41
1
10
32.9588617331438
20
-6.54428508639251
30
0
41
1
10
33.9864213276039
20
-6.54450574001729
30
0
41
1
10
34.9633888166048
20
-6.54486607720418
30
0
41
1
10
35.8291965770528
20
-6.54524593258768
30
0
41
1
10
36.5210028874942
20
-6.54559283512052
30
0
41
1
10
37.0300746085032
20
-6.54586791010291
30
0
41
1
10
37.4251095740676
20
-6.54609308342214
30
0
41
1
10
37.8318617905834
20
-6.54633739697812
30
0
41
1
10
38.3694041957571
20
-6.54653311914234
30
0
41
1
10
39.0764497794301
20
-6.54648172345841
30
0
41
1
10
39.9508961650959
20
-6.54585354467918
30
0
41
1
10
40.978569510225
20
-6.54415745771692
30
0
41
1
10
42.6585249575921
20
-6.53978199885591
30
0
41
1
10
44.9668937126901
20
-6.53695957957916
30
0
41
1
10
47.6813639498249
20
-6.5442443755656
30
0
41
1
10
49.4422289264978
20
-6.54630825847761
30
0
41
1
10
50.2343149044061
20
-6.54734520557679
30
0
0
SPLINE
5
105
100
AcDbEntity
8
1
62
256
6
ByLayer
370
18
48
1
60
0
100
AcDbSpline
70
4
71
3
72
11
73
7
40
0
40
0
40
0
40
0
40
0.205878645432484
40
0.458138212352755
40
0.757584826259648
40
1
40
1
40
1
40
1
41
1
10
89.6525617824931
20
-6.84999575242978
30
0
41
1
10
89.9123461264313
20
-6.84987582118055
30
0
41
1
10
90.4911285998704
20
-6.84966462784857
30
0
41
1
10
91.4524941800031
20
-6.8493293656212
30
0
41
1
10
92.4594194856199
20
-6.84967435616352
30
0
41
1
10
93.1456968818192
20
-6.84987054471631
30
0
41
1
10
93.4525797602404
20
-6.84998650737242
30
0
0
SPLINE
5
106
100
AcDbEntity
8
1
62
256
6
ByLayer
370
18
48
1
60
0
100
AcDbSpline
70
4
71
2
72
6
73
3
40
0
40
0
40
0
40
1
40
1
40
1
41
1
10
93.4470434185981
20
6.85001939770098
30
0
41
1
10
93.1704928324126
20
6.8500091208806
30
0
41
1
10
92.8939424188942
20
6.85000135746512
30
0
0
SPLINE
5
107
100
AcDbEntity
8
1
62
256
6
ByLayer
370
18
48
1
60
0
100
AcDbSpline
70
4
71
3
72
10
73
6
40
0
40
0
40
0
40
0
40
0.494166647664541
40
0.760944791267827
40
1
40
1
40
1
40
1
41
1
10
87.3
20
1.78974306792881
30
0
41
1
10
87.2997210676181
20
1.76503437197241
30
0
41
1
10
87.2926280703431
20
1.72943763572618
30
0
41
1
10
87.2691260207311
20
1.68642945284336
30
0
41
1
10
87.2533717970485
20
1.66748218594213
30
0
41
1
10
87.2451206609392
20
1.65924540011477
30
0
0
SPLINE
5
108
100
AcDbEntity
8
SK1
62
256
6
ByLayer
370
18
48
1
60
0
100
AcDbSpline
70
4
71
3
72
68
73
64
40
0
40
0
40
0
40
0
40
0.0312500000000002
40
0.0312500000000002
40
0.0468750000000003
40
0.0468750000000003
40
0.0625000000000005
40
0.0625000000000005
40
0.0937500000000007
40
0.0937500000000007
40
0.109375000000001
40
0.109375000000001
40
0.125000000000001
40
0.125000000000001
40
0.156250000000001
40
0.156250000000001
40
0.187500000000001
40
0.187500000000001
40
0.25
40
0.25
40
0.28125
40
0.28125
40
0.3125
40
0.3125
40
0.375
40
0.375
40
0.4375
40
0.4375
40
0.46875
40
0.46875
40
0.5
40
0.5
40
0.5625
40
0.5625
40
0.59375
40
0.59375
40
0.625
40
0.625
40
0.6875
40
0.6875
40
0.71875
40
0.71875
40
0.75
40
0.75
40
0.8125
40
0.8125
40
0.828125
40
0.828125
40
0.84375
40
0.84375
40
0.875
40
0.875
40
0.890625
40
0.890625
40
0.90625
40
0.90625
40
0.9375
40
0.9375
40
0.953125
40
0.953125
40
0.96875
40
0.96875
40
1
40
1
40
1
40
1
41
1
10
-43.5
20
5.92285193129121
30
0
41
1
10
-43.6684511426857
20
5.92285193129121
30
0
41
1
10
-43.8335000033988
20
5.90852604500998
30
0
41
1
10
-44.076336732867
20
5.86686260898486
30
0
41
1
10
-44.156487814575
20
5.84958640234103
30
0
41
1
10
-44.3152087816894
20
5.80819694942255
30
0
41
1
10
-44.3942159803687
20
5.78390949286566
30
0
41
1
10
-44.6244869413498
20
5.70210438657261
30
0
41
1
10
-44.7695984964602
20
5.63576008503463
30
0
41
1
10
-44.9761167501956
20
5.51973068369705
30
0
41
1
10
-45.0430871943501
20
5.47828589310487
30
0
41
1
10
-45.1734327388812
20
5.38990512469778
30
0
41
1
10
-45.2365597164332
20
5.34310223508027
30
0
41
1
10
-45.4177503200784
20
5.19718203491362
30
0
41
1
10
-45.5287536196717
20
5.09185813583983
30
0
41
1
10
-45.7342789049228
20
4.86653318538578
30
0
41
1
10
-45.8289389927477
20
4.74628556066759
30
0
41
1
10
-46.0903381646025
20
4.36608870861338
30
0
41
1
10
-46.229857898448
20
4.09476951345764
30
0
41
1
10
-46.404424625141
20
3.66576223197777
30
0
41
1
10
-46.4567004963483
20
3.51904778819107
30
0
41
1
10
-46.5512434200091
20
3.21863479224763
30
0
41
1
10
-46.5934214578119
20
3.06504134305448
30
0
41
1
10
-46.7055436177958
20
2.60174839855
30
0
41
1
10
-46.7621147779655
20
2.28706820500588
30
0
41
1
10
-46.8495734514975
20
1.64741181110122
30
0
41
1
10
-46.8803837441695
20
1.3224279248613
30
0
41
1
10
-46.9109609497806
20
0.827525561443139
30
0
41
1
10
-46.9184851246494
20
0.661401493425245
30
0
41
1
10
-46.9284149001804
20
0.330650499762129
30
0
41
1
10
-46.9308546906495
20
0.16552511220226
30
0
41
1
10
-46.9308738211682
20
-0.329115176337979
30
0
41
1
10
-46.9212903951884
20
-0.657899259477574
30
0
41
1
10
-46.8911363285545
20
-1.14957645984728
30
0
41
1
10
-46.8784217091401
20
-1.31321779556742
30
0
41
1
10
-46.8469861733616
20
-1.63997635400699
30
0
41
1
10
-46.8282042263583
20
-1.80342210057933
30
0
41
1
10
-46.7621963499643
20
-2.28702529223114
30
0
41
1
10
-46.70538444555
20
-2.60220286550486
30
0
41
1
10
-46.5939179002345
20
-3.06309107495616
30
0
41
1
10
-46.5523452299933
20
-3.21473113100859
30
0
41
1
10
-46.4585015570419
20
-3.51371523568545
30
0
41
1
10
-46.4060493986897
20
-3.66152013709689
30
0
41
1
10
-46.2301041724726
20
-4.0946551835724
30
0
41
1
10
-46.090025206177
20
-4.36619025332939
30
0
41
1
10
-45.8742492923165
20
-4.68046987077341
30
0
41
1
10
-45.8290293349762
20
-4.74205687033935
30
0
41
1
10
-45.7339960316764
20
-4.86254130681425
30
0
41
1
10
-45.6841596520312
20
-4.92142662494757
30
0
41
1
10
-45.5292248903525
20
-5.09144820130692
30
0
41
1
10
-45.4181124231866
20
-5.19679902870035
30
0
41
1
10
-45.2379308334714
20
-5.34204312553621
30
0
41
1
10
-45.1756114663476
20
-5.38832209237188
30
0
41
1
10
-45.0460416075432
20
-5.4763842939077
30
0
41
1
10
-44.9784471100634
20
-5.5183478507837
30
0
41
1
10
-44.7707785682244
20
-5.63524112422331
30
0
41
1
10
-44.6257202321584
20
-5.70150323577644
30
0
41
1
10
-44.3973760872121
20
-5.78286634969527
30
0
41
1
10
-44.3194618378801
20
-5.80696924836371
30
0
41
1
10
-44.1597814008576
20
-5.84884069926673
30
0
41
1
10
-44.0785577154077
20
-5.86643352567475
30
0
41
1
10
-43.8339255491573
20
-5.90854767474224
30
0
41
1
10
-43.6682972898643
20
-5.92285193129121
30
0
41
1
10
-43.5
20
-5.92285193129121
30
0
0
SPLINE
5
109
100
AcDbEntity
8
SK1
62
256
6
ByLayer
370
18
48
1
60
0
100
AcDbSpline
70
4
71
3
72
68
73
64
40
0
40
0
40
0
40
0
40
0.0312499999999982
40
0.0312499999999982
40
0.046874999999998
40
0.046874999999998
40
0.0624999999999977
40
0.0624999999999977
40
0.0937499999999984
40
0.0937499999999984
40
0.109374999999998
40
0.109374999999998
40
0.124999999999998
40
0.124999999999998
40
0.156249999999998
40
0.156249999999998
40
0.187499999999998
40
0.187499999999998
40
0.249999999999999
40
0.249999999999999
40
0.281249999999999
40
0.281249999999999
40
0.312499999999999
40
0.312499999999999
40
0.374999999999999
40
0.374999999999999
40
0.4375
40
0.4375
40
0.46875
40
0.46875
40
0.5
40
0.5
40
0.562500000000001
40
0.562500000000001
40
0.593750000000001
40
0.593750000000001
40
0.625000000000002
40
0.625000000000002
40
0.687500000000002
40
0.687500000000002
40
0.718750000000002
40
0.718750000000002
40
0.750000000000002
40
0.750000000000002
40
0.812500000000003
40
0.812500000000003
40
0.828125000000002
40
0.828125000000002
40
0.843750000000002
40
0.843750000000002
40
0.875000000000001
40
0.875000000000001
40
0.890625000000001
40
0.890625000000001
40
0.90625
40
0.90625
40
0.9375
40
0.9375
40
0.953125
40
0.953125
40
0.96875
40
0.96875
40
1
40
1
40
1
40
1
41
1
10
-6.5
20
-5.92285193129121
30
0
41
1
10
-6.33154885731429
20
-5.92285193129121
30
0
41
1
10
-6.16649999660117
20
-5.90852604500998
30
0
41
1
10
-5.92366326713301
20
-5.86686260898483
30
0
41
1
10
-5.84351218542497
20
-5.84958640234103
30
0
41
1
10
-5.68479121831058
20
-5.80819694942255
30
0
41
1
10
-5.60578401963124
20
-5.78390949286566
30
0
41
1
10
-5.37551305865023
20
-5.70210438657261
30
0
41
1
10
-5.23040150353978
20
-5.63576008503463
30
0
41
1
10
-5.02388324980436
20
-5.51973068369702
30
0
41
1
10
-4.95691280564995
20
-5.47828589310487
30
0
41
1
10
-4.82656726111884
20
-5.38990512469778
30
0
41
1
10
-4.76344028356684
20
-5.34310223508027
30
0
41
1
10
-4.5822496799216
20
-5.19718203491362
30
0
41
1
10
-4.47124638032832
20
-5.09185813583983
30
0
41
1
10
-4.26572109507717
20
-4.86653318538578
30
0
41
1
10
-4.17106100725226
20
-4.74628556066756
30
0
41
1
10
-3.90966183539746
20
-4.36608870861338
30
0
41
1
10
-3.77014210155204
20
-4.09476951345764
30
0
41
1
10
-3.59557537485901
20
-3.66576223197777
30
0
41
1
10
-3.54329950365172
20
-3.51904778819107
30
0
41
1
10
-3.44875657999089
20
-3.21863479224763
30
0
41
1
10
-3.40657854218807
20
-3.06504134305448
30
0
41
1
10
-3.29445638220415
20
-2.60174839854997
30
0
41
1
10
-3.23788522203449
20
-2.28706820500588
30
0
41
1
10
-3.15042654850248
20
-1.64741181110122
30
0
41
1
10
-3.11961625583052
20
-1.3224279248613
30
0
41
1
10
-3.08903905021941
20
-0.827525561443139
30
0
41
1
10
-3.08151487535059
20
-0.661401493425245
30
0
41
1
10
-3.0715850998196
20
-0.330650499762129
30
0
41
1
10
-3.06914530935046
20
-0.16552511220226
30
0
41
1
10
-3.06912617883177
20
0.329115176337979
30
0
41
1
10
-3.07870960481154
20
0.657899259477574
30
0
41
1
10
-3.10886367144548
20
1.14957645984728
30
0
41
1
10
-3.12157829085984
20
1.31321779556742
30
0
41
1
10
-3.15301382663836
20
1.63997635400699
30
0
41
1
10
-3.17179577364169
20
1.80342210057933
30
0
41
1
10
-3.23780365003569
20
2.28702529223114
30
0
41
1
10
-3.29461555444996
20
2.60220286550486
30
0
41
1
10
-3.40608209976554
20
3.06309107495616
30
0
41
1
10
-3.44765477000675
20
3.21473113100859
30
0
41
1
10
-3.54149844295813
20
3.51371523568545
30
0
41
1
10
-3.59395060131035
20
3.66152013709689
30
0
41
1
10
-3.76989582752734
20
4.0946551835724
30
0
41
1
10
-3.90997479382301
20
4.36619025332939
30
0
41
1
10
-4.12575070768349
20
4.68046987077338
30
0
41
1
10
-4.17097066502385
20
4.74205687033935
30
0
41
1
10
-4.26600396832356
20
4.86254130681425
30
0
41
1
10
-4.31584034796885
20
4.92142662494757
30
0
41
1
10
-4.47077510964749
20
5.09144820130692
30
0
41
1
10
-4.58188757681341
20
5.19679902870035
30
0
41
1
10
-4.76206916652862
20
5.34204312553621
30
0
41
1
10
-4.82438853365238
20
5.38832209237188
30
0
41
1
10
-4.95395839245685
20
5.4763842939077
30
0
41
1
10
-5.02155288993663
20
5.5183478507837
30
0
41
1
10
-5.22922143177559
20
5.63524112422331
30
0
41
1
10
-5.37427976784161
20
5.70150323577644
30
0
41
1
10
-5.60262391278795
20
5.78286634969527
30
0
41
1
10
-5.68053816211992
20
5.80696924836369
30
0
41
1
10
-5.84021859914242
20
5.84884069926673
30
0
41
1
10
-5.9214422845923
20
5.86643352567475
30
0
41
1
10
-6.1660744508427
20
5.90854767474224
30
0
41
1
10
-6.33170271013569
20
5.92285193129121
30
0
41
1
10
-6.5
20
5.92285193129121
30
0
0
SPLINE
5
10A
100
AcDbEntity
8
1
62
256
6
ByLayer
370
18
48
1
60
0
100
AcDbSpline
70
4
71
3
72
10
73
6
40
0
40
0
40
0
40
0
40
0.509844355825652
40
0.509844355825652
40
1
40
1
40
1
40
1
41
1
10
93.7597251334519
20
-6.75792677072087
30
0
41
1
10
93.768505429812
20
-6.73229181264787
30
0
41
1
10
93.7772813675327
20
-6.70666032845153
30
0
41
1
10
93.7944856462451
20
-6.65639442151445
30
0
41
1
10
93.8029143460477
20
-6.63175965163575
30
0
41
1
10
93.8113389052255
20
-6.60712842628905
30
0
0
SPLINE
5
10B
100
AcDbEntity
8
1
62
256
6
ByLayer
370
18
48
1
60
0
100
AcDbSpline
70
4
71
3
72
16
73
12
40
0
40
0
40
0
40
0
40
0.25
40
0.25
40
0.5
40
0.5
40
0.625
40
0.625
40
0.75
40
0.75
40
1
40
1
40
1
40
1
41
1
10
15.6553618488475
20
4.6113828464525
30
0
41
1
10
15.3702068788762
20
4.52696872135778
30
0
41
1
10
15.0922822319458
20
4.44684737195868
30
0
41
1
10
14.5463681451095
20
4.29764825456272
30
0
41
1
10
14.2784330500508
20
4.22852956227567
30
0
41
1
10
13.8822358815124
20
4.13674558316737
30
0
41
1
10
13.7508860789164
20
4.10811092922572
30
0
41
1
10
13.4916284541204
20
4.05612347142468
30
0
41
1
10
13.3636288357731
20
4.03274161765265
30
0
41
1
10
12.9843844511134
20
3.97194066499208
30
0
41
1
10
12.737829477754
20
3.94377690234325
30
0
41
1
10
12.4979239355325
20
3.93317661831395
30
0
0
SPLINE
5
10C
100
AcDbEntity
8
1
62
256
6
ByLayer
370
18
48
1
60
0
100
AcDbSpline
70
4
71
3
72
8
73
4
40
0
40
0
40
0
40
0
40
1
40
1
40
1
40
1
41
1
10
76.0026482778908
20
4.53632610664033
30
0
41
1
10
76.0008332714638
20
4.53148037087897
30
0
41
1
10
75.9990206125196
20
4.52662701660614
30
0
41
1
10
75.9972103024332
20
4.52176603936005
30
0
0
SPLINE
5
10D
100
AcDbEntity
8
1
62
256
6
ByLayer
370
18
48
1
60
0
100
AcDbSpline
70
4
71
3
72
14
73
10
40
0
40
0
40
0
40
0
40
0.40688806556446
40
0.40688806556446
40
0.610332098346689
40
0.610332098346689
40
0.813776131128919
40
0.813776131128919
40
1
40
1
40
1
40
1
41
1
10
19.3599999998863
20
-6.80866959518758
30
0
41
1
10
19.359999999886
20
-6.78909342934895
30
0
41
1
10
19.3728824121955
20
-6.76285458920336
30
0
41
1
10
19.4128131742302
20
-6.71427253389336
30
0
41
1
10
19.4295714034497
20
-6.696539829193
30
0
41
1
10
19.4703877146455
20
-6.65811623303384
30
0
41
1
10
19.4945856997651
20
-6.63731626685239
30
0
41
1
10
19.5477924066088
20
-6.595282044047
30
0
41
1
10
19.576081392764
20
-6.57432049504283
30
0
41
1
10
19.6072513542602
20
-6.55262437724815
30
0
0
SPLINE
5
10E
100
AcDbEntity
8
1
62
256
6
ByLayer
370
18
48
1
60
0
100
AcDbSpline
70
4
71
3
72
10
73
6
40
0
40
0
40
0
40
0
40
0.5
40
0.5
40
1
40
1
40
1
40
1
41
1
10
18.5854120932479
20
5.01660347895577
30
0
41
1
10
18.3922435869804
20
5.04470801547441
30
0
41
1
10
18.1951855238231
20
5.05962372422752
30
0
41
1
10
17.7950507415117
20
5.0627768117651
30
0
41
1
10
17.5966761968047
20
5.05102557610678
30
0
41
1
10
17.4
20
5.02556488045491
30
0
0
SPLINE
5
10F
100
AcDbEntity
8
1
62
256
6
ByLayer
370
18
48
1
60
0
100
AcDbSpline
70
4
71
3
72
38
73
34
40
0
40
0
40
0
40
0
40
0.163530353200155
40
0.163530353200155
40
0.302941961000141
40
0.302941961000141
40
0.442353568800127
40
0.442353568800127
40
0.721176784400099
40
0.721176784400099
40
0.756029686350095
40
0.756029686350095
40
0.790882588300091
40
0.790882588300091
40
0.825735490250087
40
0.825735490250087
40
0.860588392200082
40
0.860588392200082
40
0.895441294150078
40
0.895441294150078
40
0.912867745125076
40
0.912867745125076
40
0.917224357868825
40
0.917224357868825
40
0.918313511054762
40
0.918313511054762
40
0.9194026642407
40
0.9194026642407
40
0.921580970612573
40
0.921580970612573
40
0.930294196100064
40
0.930294196100064
40
1
40
1
40
1
40
1
41
1
10
50.6771865377142
20
6.54685153927807
30
0
41
1
10
52.0640284310048
20
6.54073124012672
30
0
41
1
10
53.4511200704775
20
6.5201745234325
30
0
41
1
10
56.0214355261032
20
6.45706917836242
30
0
41
1
10
57.2045346552895
20
6.41818734759326
30
0
41
1
10
59.5713357801309
20
6.32105062211267
30
0
41
1
10
60.7549961142994
20
6.26277285609225
30
0
41
1
10
64.3031701271227
20
6.0585234725088
30
0
41
1
10
66.6660976698352
20
5.88343396242112
30
0
41
1
10
69.3218566502609
20
5.63766695598795
30
0
41
1
10
69.6170741495976
20
5.61005776127416
30
0
41
1
10
70.2065870493034
20
5.55142184030981
30
0
41
1
10
70.5009159019571
20
5.52046962651025
30
0
41
1
10
71.0884683149087
20
5.45434786912367
30
0
41
1
10
71.381702684839
20
5.41916332447531
30
0
41
1
10
71.9666810254161
20
5.34283969904936
30
0
41
1
10
72.2584394099047
20
5.3017690785428
30
0
41
1
10
72.8395632856118
20
5.21085418483483
30
0
41
1
10
73.1290134760957
20
5.16127870912521
30
0
41
1
10
73.5596590199976
20
5.07392960211976
30
0
41
1
10
73.7026211967403
20
5.04266183448664
30
0
41
1
10
73.8798989109087
20
4.9985087825406
30
0
41
1
10
73.9152797951961
20
4.98941325754686
30
0
41
1
10
73.9593879428555
20
4.97762861765324
30
0
41
1
10
73.9682035747681
20
4.97525060742262
30
0
41
1
10
73.9858227043825
20
4.97045173823869
30
0
41
1
10
73.9945716035352
20
4.96786180535133
30
0
41
1
10
74.0214962213978
20
4.96218125555276
30
0
41
1
10
74.039446566623
20
4.95838938793761
30
0
41
1
10
74.1291867104191
20
4.93936051763057
30
0
41
1
10
74.2009880957989
20
4.92405855102876
30
0
41
1
10
74.8472663555312
20
4.7855788344815
30
0
41
1
10
75.4220399347774
20
4.6565305207028
30
0
41
1
10
75.9972103024332
20
4.52176603936005
30
0
0
SPLINE
5
110
100
AcDbEntity
8
1
62
256
6
ByLayer
370
18
48
1
60
0
100
AcDbSpline
70
4
71
3
72
8
73
4
40
0
40
0
40
0
40
0
40
1
40
1
40
1
40
1
41
1
10
93.6187769880328
20
-3.64811626825636
30
0
41
1
10
93.6883026727014
20
-3.56688746761881
30
0
41
1
10
93.7578419523924
20
-3.4854256023965
30
0
41
1
10
93.8274049685351
20
-3.40355681424685
30
0
0
SPLINE
5
111
100
AcDbEntity
8
1
62
256
6
ByLayer
370
18
48
1
60
0
100
AcDbSpline
70
4
71
3
72
10
73
6
40
0
40
0
40
0
40
0
40
0.878109230031674
40
0.878109230031674
40
1
40
1
40
1
40
1
41
1
10
87.1000000000003
20
2.2642061816517
30
0
41
1
10
86.4301928777491
20
2.31257185063504
30
0
41
1
10
85.7608435460784
20
2.35718292877837
30
0
41
1
10
84.9986982179213
20
2.40180296559168
30
0
41
1
10
84.9058003829811
20
2.40713944388082
30
0
41
1
10
84.8129034344195
20
2.41237189143826
30
0
0
SPLINE
5
112
100
AcDbEntity
8
1
62
256
6
ByLayer
370
18
48
1
60
0
100
AcDbSpline
70
4
71
3
72
18
73
14
40
0
40
0
40
0
40
0
40
0.125000000000006
40
0.125000000000006
40
0.250000000000012
40
0.250000000000012
40
0.500000000000025
40
0.500000000000025
40
0.625000000000019
40
0.625000000000019
40
0.750000000000012
40
0.750000000000012
40
1
40
1
40
1
40
1
41
1
10
92.4520866606923
20
0.90876078087723
30
0
41
1
10
92.4966441110975
20
0.96394676808373
30
0
41
1
10
92.5440414269445
20
1.02048579538914
30
0
41
1
10
92.6444494561623
20
1.13615836719779
30
0
41
1
10
92.6976813026437
20
1.19552828127266
30
0
41
1
10
92.864323840667
20
1.37557156641063
30
0
41
1
10
92.983777458178
20
1.49734572902088
30
0
41
1
10
93.1753590466591
20
1.68129816453947
30
0
41
1
10
93.2412964200341
20
1.74283692211003
30
0
41
1
10
93.3775146854746
20
1.86602516581004
30
0
41
1
10
93.4479334901694
20
1.92776761975446
30
0
41
1
10
93.662819960644
20
2.10971669522323
30
0
41
1
10
93.8118992652162
20
2.22755858170709
30
0
41
1
10
93.9674579332839
20
2.34059923822585
30
0
0
SPLINE
5
113
100
AcDbEntity
8
1
62
256
6
ByLayer
370
18
48
1
60
0
100
AcDbSpline
70
4
71
3
72
12
73
8
40
0
40
0
40
0
40
0
40
0.419672288135504
40
0.419672288135504
40
0.709835940075001
40
0.709835940075001
40
1
40
1
40
1
40
1
41
1
10
87.2999999990513
20
-6.6868243850501
30
0
41
1
10
87.2864583953873
20
-6.70094524969917
30
0
41
1
10
87.2729108144935
20
-6.71506400267731
30
0
41
1
10
87.2499864307889
20
-6.7389411080735
30
0
41
1
10
87.2406126887952
20
-6.74870052316095
30
0
41
1
10
87.2218596386766
20
-6.76821748996505
30
0
41
1
10
87.2124803272446
20
-6.77797504511202
30
0
41
1
10
87.203098270232
20
-6.78773169141184
30
0
0
SPLINE
5
114
100
AcDbEntity
8
1
62
256
6
ByLayer
370
18
48
1
60
0
100
AcDbSpline
70
4
71
3
72
14
73
10
40
0
40
0
40
0
40
0
40
0.25
40
0.25
40
0.5
40
0.5
40
0.75
40
0.75
40
1
40
1
40
1
40
1
41
1
10
79.6997920001079
20
3.92461472683684
30
0
41
1
10
80.5471121100688
20
3.671906551924
30
0
41
1
10
81.3939141852231
20
3.40711453035314
30
0
41
1
10
83.0887087688562
20
2.8587045885983
30
0
41
1
10
83.9366118605641
20
2.57488759769782
30
0
41
1
10
85.6349223168081
20
1.99171054541893
30
0
41
1
10
86.4855951585141
20
1.69307252655361
30
0
41
1
10
88.1913161464677
20
1.08521519522702
30
0
41
1
10
89.0426828578709
20
0.77724876811979
30
0
41
1
10
89.8934564167818
20
0.468418210372505
30
0
0
SPLINE
5
115
100
AcDbEntity
8
1
62
256
6
ByLayer
370
18
48
1
60
0
100
AcDbSpline
70
4
71
3
72
11
73
7
40
0
40
0
40
0
40
0
40
0.252386942885698
40
0.50317576412106
40
0.752376654282048
40
1
40
1
40
1
40
1
41
1
10
90.0319372189903
20
-0.0476686750470776
30
0
41
1
10
90.0198141765641
20
-0.004347385197093
30
0
41
1
10
89.995644855178
20
0.0820208828034481
30
0
41
1
10
89.9605554529991
20
0.211425610322578
30
0
41
1
10
89.9263958263814
20
0.340136483967825
30
0
41
1
10
89.904412934469
20
0.425748236745136
30
0
41
1
10
89.8934563891743
20
0.468418193491488
30
0
0
SPLINE
5
116
100
AcDbEntity
8
1
62
256
6
ByLayer
370
18
48
1
60
0
100
AcDbSpline
70
4
71
3
72
8
73
4
40
0
40
0
40
0
40
0
40
1
40
1
40
1
40
1
41
1
10
80.5831632202121
20
-6.02334944269703
30
0
41
1
10
80.4889497893632
20
-5.98955896302039
30
0
41
1
10
80.3926258377921
20
-5.95646549900954
30
0
41
1
10
80.2941958095668
20
-5.92433114384892
30
0
0
SPLINE
5
117
100
AcDbEntity
8
1
62
256
6
ByLayer
370
18
48
1
60
0
100
AcDbSpline
70
4
71
3
72
8
73
4
40
0
40
0
40
0
40
0
40
1
40
1
40
1
40
1
41
1
10
93.6413554973396
20
-6.83331476298443
30
0
41
1
10
93.6832074301627
20
-6.80176363621507
30
0
41
1
10
93.7399193817172
20
-6.72621774534835
30
0
41
1
10
93.8113389052255
20
-6.60712842628908
30
0
0
SPLINE
5
118
100
AcDbEntity
8
1
62
256
6
ByLayer
370
18
48
1
60
0
100
AcDbSpline
70
4
71
3
72
16
73
12
40
0
40
0
40
0
40
0
40
0.250000000000011
40
0.250000000000011
40
0.375000000000017
40
0.375000000000017
40
0.500000000000022
40
0.500000000000022
40
0.750000000000011
40
0.750000000000011
40
1
40
1
40
1
40
1
41
1
10
18.5055747891184
20
4.58735079981741
30
0
41
1
10
18.3647180951502
20
4.59963160269493
30
0
41
1
10
18.2242461752203
20
4.61886033555945
30
0
41
1
10
18.0139012078704
20
4.65589279986258
30
0
41
1
10
17.9437088166056
20
4.66960072023488
30
0
41
1
10
17.8068167369651
20
4.69819253700794
30
0
41
1
10
17.7396343992407
20
4.71315151383226
30
0
41
1
10
17.5411324052104
20
4.7589530170961
30
0
41
1
10
17.4127289185906
20
4.79067879405582
30
0
41
1
10
17.1618052161936
20
4.85237374480491
30
0
41
1
10
17.0417763786465
20
4.88174360117037
30
0
41
1
10
16.9258674517122
20
4.90873160085036
30
0
0
SPLINE
5
119
100
AcDbEntity
8
1
62
256
6
ByLayer
370
18
48
1
60
0
100
AcDbSpline
70
4
71
3
72
10
73
6
40
0
40
0
40
0
40
0
40
0.521519481300495
40
0.521519481300495
40
1
40
1
40
1
40
1
41
1
10
88.13
20
-6.29971035238421
30
0
41
1
10
88.9127816079391
20
-6.29973314058466
30
0
41
1
10
89.6955632167628
20
-6.29973146990852
30
0
41
1
10
91.1965265289751
20
-6.29969568200775
30
0
41
1
10
91.9147082335722
20
-6.29971938814464
30
0
41
1
10
92.6328899379157
20
-6.29971342957103
30
0
0
SPLINE
5
11A
100
AcDbEntity
8
1
62
256
6
ByLayer
370
18
48
1
60
0
100
AcDbSpline
70
4
71
3
72
8
73
4
40
0
40
0
40
0
40
0
40
1
40
1
40
1
40
1
41
1
10
93.6829565165143
20
6.79313654146648
30
0
41
1
10
93.6677591583547
20
6.81046793866471
30
0
41
1
10
93.6538907865839
20
6.82386472153163
30
0
41
1
10
93.6413554973416
20
6.83331476298272
30
0
0
SPLINE
5
11B
100
AcDbEntity
8
1
62
256
6
ByLayer
370
18
48
1
60
0
100
AcDbSpline
70
4
71
3
72
8
73
4
40
0
40
0
40
0
40
0
40
1
40
1
40
1
40
1
41
1
10
88.4291781239891
20
-7.00000509952292
30
0
41
1
10
88.2460132176215
20
-7.00000353949568
30
0
41
1
10
88.062784689721
20
-6.99851213021634
30
0
41
1
10
87.8794954838909
20
-6.99552280567715
30
0
0
SPLINE
5
11C
100
AcDbEntity
8
1
62
256
6
ByLayer
370
18
48
1
60
0
100
AcDbSpline
70
4
71
3
72
45
73
41
40
0
40
0
40
0
40
0
40
0.0312499999999995
40
0.0312499999999995
40
0.0351562500000004
40
0.0351562500000004
40
0.0390625000000013
40
0.0468750000000018
40
0.0468750000000018
40
0.0625000000000015
40
0.0625000000000015
40
0.0937500000000015
40
0.0937500000000015
40
0.125000000000002
40
0.125000000000002
40
0.140625000000002
40
0.140625000000002
40
0.156250000000002
40
0.156250000000002
40
0.187500000000002
40
0.187500000000002
40
0.250000000000002
40
0.250000000000002
40
0.375000000000002
40
0.375000000000002
40
0.437500000000002
40
0.437500000000002
40
0.500000000000002
40
0.500000000000002
40
0.562500000000001
40
0.562500000000001
40
0.625000000000001
40
0.625000000000001
40
0.687500000000001
40
0.687500000000001
40
0.750000000000001
40
0.750000000000001
40
0.875
40
0.875
40
1
40
1
40
1
40
1
41
1
10
79.2191987315979
20
-5.51325141133444
30
0
41
1
10
78.608108927997
20
-5.39045488626192
30
0
41
1
10
77.9973244245022
20
-5.2602473995442
30
0
41
1
10
77.3103649233127
20
-5.10585900491574
30
0
41
1
10
77.2341478921965
20
-5.08830964774629
30
0
41
1
10
77.0805847075362
20
-5.05592631704994
30
0
41
1
10
76.8499640269083
20
-5.00779171458325
30
0
41
1
10
76.6185623009188
20
-4.96092900228669
30
0
41
1
10
76.1548300208905
20
-4.86876473938736
30
0
41
1
10
75.8444445933588
20
-4.80939039766474
30
0
41
1
10
74.9103437388553
20
-4.63644270020913
30
0
41
1
10
74.2837287877569
20
-4.527979770804
30
0
41
1
10
73.0253408288462
20
-4.3206405335211
30
0
41
1
10
72.3935430150585
20
-4.22178964447235
30
0
41
1
10
71.4430634406672
20
-4.07882408745232
30
0
41
1
10
71.1265166732433
20
-4.02973917849198
30
0
41
1
10
70.4933456401872
20
-3.93121370947728
30
0
41
1
10
70.1767809249019
20
-3.88152547518842
30
0
41
1
10
69.2271384562108
20
-3.73123682410352
30
0
41
1
10
68.5941132210241
20
-3.629408478822
30
0
41
1
10
66.6951542214281
20
-3.31947122955188
30
0
41
1
10
65.4293375134948
20
-3.10690664073397
30
0
41
1
10
61.6316699766662
20
-2.45487223705925
30
0
41
1
10
59.099576443491
20
-2.00118316958554
30
0
41
1
10
55.2986478767629
20
-1.30438011564252
30
0
41
1
10
54.0314269109318
20
-1.06943304790667
30
0
41
1
10
51.4983046283797
20
-0.596201358688319
30
0
41
1
10
50.2320987906502
20
-0.357896447320002
30
0
41
1
10
47.7001490970074
20
0.120761651124866
30
0
41
1
10
46.4344093356087
20
0.361136630134439
30
0
41
1
10
43.9031318053875
20
0.842540164218718
30
0
41
1
10
42.6372646671702
20
1.08181764494108
30
0
41
1
10
40.1044501596074
20
1.55421820266525
30
0
41
1
10
38.8374120383759
20
1.78747759534841
30
0
41
1
10
36.304943175171
20
2.24533111436668
30
0
41
1
10
35.039129488001
20
2.46996874134848
30
0
41
1
10
31.2423512777756
20
3.12818084090287
30
0
41
1
10
28.7120080380826
20
3.5458711676269
30
0
41
1
10
23.6502911504776
20
4.32636726231627
30
0
41
1
10
21.1189181398914
20
4.68925668960753
30
0
41
1
10
18.5860027368286
20
5.01924713726743
30
0
0
SPLINE
5
11D
100
AcDbEntity
8
1
62
256
6
ByLayer
370
18
48
1
60
0
100
AcDbSpline
70
4
71
3
72
68
73
64
40
0
40
0
40
0
40
0
40
0.0625000000000015
40
0.0625000000000015
40
0.125000000000003
40
0.125000000000003
40
0.187500000000005
40
0.187500000000005
40
0.218750000000005
40
0.218750000000005
40
0.250000000000006
40
0.250000000000006
40
0.312500000000008
40
0.312500000000008
40
0.328125000000009
40
0.328125000000009
40
0.34375000000001
40
0.34375000000001
40
0.375000000000011
40
0.375000000000011
40
0.390625000000011
40
0.390625000000011
40
0.406250000000011
40
0.406250000000011
40
0.421875000000012
40
0.421875000000012
40
0.437500000000012
40
0.437500000000012
40
0.468750000000012
40
0.468750000000012
40
0.484375000000012
40
0.484375000000012
40
0.500000000000012
40
0.500000000000012
40
0.515625000000012
40
0.515625000000012
40
0.531250000000012
40
0.531250000000012
40
0.546875000000012
40
0.546875000000012
40
0.562500000000012
40
0.562500000000012
40
0.593750000000013
40
0.593750000000013
40
0.625000000000013
40
0.625000000000013
40
0.640625000000012
40
0.640625000000012
40
0.656250000000012
40
0.656250000000012
40
0.687500000000011
40
0.687500000000011
40
0.71875000000001
40
0.71875000000001
40
0.750000000000008
40
0.750000000000008
40
0.812500000000006
40
0.812500000000006
40
0.875000000000004
40
0.875000000000004
40
0.937500000000002
40
0.937500000000002
40
1
40
1
40
1
40
1
41
1
10
12.4167255104682
20
-2.54775666419505
30
0
41
1
10
12.0908673075569
20
-2.48009025040326
30
0
41
1
10
11.7718964980975
20
-2.42311265096455
30
0
41
1
10
11.1414961477751
20
-2.32247894852017
30
0
41
1
10
10.8300838096109
20
-2.27878788215304
30
0
41
1
10
10.2075281313284
20
-2.19166508995141
30
0
41
1
10
9.89639410103945
20
-2.14827666360679
30
0
41
1
10
9.42336767056497
20
-2.07010608554629
30
0
41
1
10
9.26462550296762
20
-2.04183026976079
30
0
41
1
10
8.94376669021722
20
-1.97787684061291
30
0
41
1
10
8.7813543741118
20
-1.94213963657705
30
0
41
1
10
8.28921403075665
20
-1.81859328290159
30
0
41
1
10
7.95567122246831
20
-1.7157780075286
30
0
41
1
10
7.53159232585614
20
-1.5346359349256
30
0
41
1
10
7.44644150331999
20
-1.49569935064869
30
0
41
1
10
7.2755853034763
20
-1.41132045156445
30
0
41
1
10
7.19006282293475
20
-1.36593745400114
30
0
41
1
10
6.93695827386722
20
-1.2205419049925
30
0
41
1
10
6.77160010598274
20
-1.11082930805321
30
0
41
1
10
6.53228735433672
20
-0.921041967426191
30
0
41
1
10
6.45355656566284
20
-0.853120535108218
30
0
41
1
10
6.30258330498185
20
-0.710021602744803
30
0
41
1
10
6.23029788173571
20
-0.634894192954135
30
0
41
1
10
6.09290742338413
20
-0.476934290584069
30
0
41
1
10
6.02779885239835
20
-0.394105334056064
30
0
41
1
10
5.9057442306451
20
-0.220002342680118
30
0
41
1
10
5.84850561135633
20
-0.128077564397159
30
0
41
1
10
5.69504986039311
20
0.153808411194632
30
0
41
1
10
5.61546265483855
20
0.351270454181616
30
0
41
1
10
5.53363001225267
20
0.663035581396997
30
0
41
1
10
5.51270708704698
20
0.770078163473784
30
0
41
1
10
5.48534262327956
20
0.982678020557927
30
0
41
1
10
5.47862682263755
20
1.08902501173176
30
0
41
1
10
5.47904658547117
20
1.30182421095239
30
0
41
1
10
5.48618062479685
20
1.40827644994269
30
0
41
1
10
5.51480517113393
20
1.62127718719219
30
0
41
1
10
5.53599473654228
20
1.72549813268193
30
0
41
1
10
5.59120712145463
20
1.92903213844636
30
0
41
1
10
5.62524746444751
20
2.02843817151413
30
0
41
1
10
5.70587128942125
20
2.22252053850247
30
0
41
1
10
5.75278523620182
20
2.31762628231778
30
0
41
1
10
5.90797681235165
20
2.58852511729114
30
0
41
1
10
6.03125363037782
20
2.75230054072273
30
0
41
1
10
6.31121275585218
20
3.04872162064939
30
0
41
1
10
6.46318433557195
20
3.17639436990581
30
0
41
1
10
6.70327172601938
20
3.3423713701232
30
0
41
1
10
6.78574091398772
20
3.39363074217388
30
0
41
1
10
6.95222126646368
20
3.4872584215733
30
0
41
1
10
7.03602173739029
20
3.52956912517496
30
0
41
1
10
7.28841423302526
20
3.64494775090449
30
0
41
1
10
7.45795383621271
20
3.70653566390476
30
0
41
1
10
7.79735737323514
20
3.80683592663135
30
0
41
1
10
7.96798072003077
20
3.84559647824173
30
0
41
1
10
8.30309831277043
20
3.90514468817187
30
0
41
1
10
8.46809400944352
20
3.92615393776433
30
0
41
1
10
8.95697815239168
20
3.9711424019516
30
0
41
1
10
9.27479189118702
20
3.97741056233815
30
0
41
1
10
9.90291288426346
20
3.97120412131415
30
0
41
1
10
10.2132589108534
20
3.95847555659677
30
0
41
1
10
10.8341038490619
20
3.93350422728506
30
0
41
1
10
11.1446813309237
20
3.92122093981493
30
0
41
1
10
11.7734546880552
20
3.91168160210185
30
0
41
1
10
12.0916333697775
20
3.91445688276383
30
0
41
1
10
12.4167255104682
20
3.92950358862061
30
0
0
SPLINE
5
11E
100
AcDbEntity
8
1
62
256
6
ByLayer
370
13
48
1
60
0
100
AcDbSpline
70
4
71
3
72
20
73
16
40
0
40
0
40
0
40
0
40
0.125000000000003
40
0.125000000000003
40
0.250000000000006
40
0.250000000000006
40
0.375000000000008
40
0.375000000000008
40
0.500000000000011
40
0.500000000000011
40
0.750000000000016
40
0.750000000000016
40
0.875000000000008
40
0.875000000000008
40
1
40
1
40
1
40
1
41
1
10
93.9674579327179
20
2.34059923822681
30
0
41
1
10
93.9902290819894
20
2.24617968896644
30
0
41
1
10
94.0184373382655
20
2.15413082050847
30
0
41
1
10
94.0831442455764
20
1.97686868969751
30
0
41
1
10
94.1198515853646
20
1.89129624615225
30
0
41
1
10
94.2015909451356
20
1.72586120624931
30
0
41
1
10
94.2464635717442
20
1.64604782997372
30
0
41
1
10
94.3416807359532
20
1.49435311957976
30
0
41
1
10
94.3922050870032
20
1.42202500765495
30
0
41
1
10
94.5516255038175
20
1.21447781735762
30
0
41
1
10
94.668474581384
20
1.08844656689706
30
0
41
1
10
94.8530964332697
20
0.918322080452413
30
0
41
1
10
94.91640602392
20
0.864600122503361
30
0
41
1
10
95.045380964694
20
0.763074150306721
30
0
41
1
10
95.1109857577452
20
0.715295985343147
30
0
41
1
10
95.1781103428006
20
0.670011190907928
30
0
0
SPLINE
5
11F
100
AcDbEntity
8
1
62
256
6
ByLayer
370
18
48
1
60
0
100
AcDbSpline
70
4
71
3
72
16
73
12
40
0
40
0
40
0
40
0
40
0.250000000000002
40
0.250000000000002
40
0.500000000000005
40
0.500000000000005
40
0.625000000000004
40
0.625000000000004
40
0.750000000000002
40
0.750000000000002
40
1
40
1
40
1
40
1
41
1
10
93.6187769880365
20
-3.64811626825517
30
0
41
1
10
93.5067052644475
20
-3.296390700431
30
0
41
1
10
93.39720963302
20
-2.94388514310288
30
0
41
1
10
93.184735168056
20
-2.23690087157317
30
0
41
1
10
93.0834406073292
20
-1.88181865127194
30
0
41
1
10
92.9386379477234
20
-1.34735284543308
30
0
41
1
10
92.892376984514
20
-1.1687335189954
30
0
41
1
10
92.8019577245401
20
-0.81100858899319
30
0
41
1
10
92.7585421432148
20
-0.631731219939752
30
0
41
1
10
92.6344744278434
20
-0.0924701080581087
30
0
41
1
10
92.5586905524457
20
0.268639501801516
30
0
41
1
10
92.4947759358387
20
0.632494078214194
30
0
0
SPLINE
5
120
100
AcDbEntity
8
1
62
256
6
ByLayer
370
18
48
1
60
0
100
AcDbSpline
70
4
71
3
72
8
73
4
40
0
40
0
40
0
40
0
40
1
40
1
40
1
40
1
41
1
10
80.5831632202121
20
6.02334944269705
30
0
41
1
10
80.4889497893632
20
5.98955896302039
30
0
41
1
10
80.3926258377921
20
5.95646549900954
30
0
41
1
10
80.2941958095668
20
5.92433114384892
30
0
0
SPLINE
5
121
100
AcDbEntity
8
1
62
256
6
ByLayer
370
18
48
1
60
0
100
AcDbSpline
70
4
71
3
72
40
73
36
40
0
40
0
40
0
40
0
40
0.124999999999999
40
0.124999999999999
40
0.249999999999999
40
0.249999999999999
40
0.374999999999998
40
0.374999999999998
40
0.499999999999997
40
0.499999999999997
40
0.624999999999997
40
0.624999999999997
40
0.749999999999996
40
0.749999999999996
40
0.812499999999996
40
0.812499999999996
40
0.843749999999995
40
0.843749999999995
40
0.874999999999995
40
0.874999999999995
40
0.890624999999995
40
0.890624999999995
40
0.906249999999995
40
0.906249999999995
40
0.921874999999995
40
0.921874999999995
40
0.929687499999995
40
0.929687499999995
40
0.937499999999996
40
0.937499999999996
40
0.953124999999997
40
0.953124999999997
40
0.968749999999997
40
0.968749999999997
40
1
40
1
40
1
40
1
41
1
10
21.8050590125763
20
5.82208202562495
30
0
41
1
10
24.0667173787275
20
5.59778393159797
30
0
41
1
10
26.3283445846618
20
5.34009494369897
30
0
41
1
10
30.851737243481
20
4.76623543662646
30
0
41
1
10
33.1135008873886
20
4.45008211633589
30
0
41
1
10
37.6368127840418
20
3.77028622358699
30
0
41
1
10
39.8986684865599
20
3.40664752223924
30
0
41
1
10
44.4219292535631
20
2.64425478371129
30
0
41
1
10
46.6836806823726
20
2.24501610248518
30
0
41
1
10
51.2069138148157
20
1.4260756479897
30
0
41
1
10
53.4687919525449
20
1.00645862249306
30
0
41
1
10
57.9922159482215
20
0.160036285587608
30
0
41
1
10
60.2539210829108
20
-0.266673535265426
30
0
41
1
10
63.6465052575822
20
-0.901130554377517
30
0
41
1
10
64.7773949644915
20
-1.11173499486554
30
0
41
1
10
66.4735267180262
20
-1.42475973454339
30
0
41
1
10
67.0389007159259
20
-1.52859212824021
30
0
41
1
10
68.1697275732555
20
-1.73480029148027
30
0
41
1
10
68.7352123097254
20
-1.83701719440538
30
0
41
1
10
69.583108708721
20
-1.99123907806032
30
0
41
1
10
69.8656959800845
20
-2.04276239095222
30
0
41
1
10
70.431109476851
20
-2.14419725907069
30
0
41
1
10
70.7139989960543
20
-2.1938251411832
30
0
41
1
10
71.2801195462573
20
-2.29106140729473
30
0
41
1
10
71.5632109009556
20
-2.3393207336785
30
0
41
1
10
71.9867670054814
20
-2.41624842742945
30
0
41
1
10
72.1277664893333
20
-2.44267128637841
30
0
41
1
10
72.4092435813611
20
-2.49772585886004
30
0
41
1
10
72.5497507126815
20
-2.52622222463358
30
0
41
1
10
72.9710716367109
20
-2.61236129791186
30
0
41
1
10
73.2519191593281
20
-2.6696031241942
30
0
41
1
10
73.8140843796098
20
-2.78135461550781
30
0
41
1
10
74.095184917883
20
-2.83683409998915
30
0
41
1
10
74.9383335652884
20
-3.00298738197529
30
0
41
1
10
75.5004381632463
20
-3.11245026335431
30
0
41
1
10
76.0626200965515
20
-3.22029567896669
30
0
0
SPLINE
5
122
100
AcDbEntity
8
1
62
256
6
ByLayer
370
18
48
1
60
0
100
AcDbSpline
70
4
71
3
72
8
73
4
40
0
40
0
40
0
40
0
40
1
40
1
40
1
40
1
41
1
10
87.1
20
3.25
30
0
41
1
10
87.1666589043639
20
3.25
30
0
41
1
10
87.2333257584698
20
3.25
30
0
41
1
10
87.3000000000001
20
3.25
30
0
0
SPLINE
5
123
100
AcDbEntity
8
1
62
256
6
ByLayer
370
18
48
1
60
0
100
AcDbSpline
70
4
71
2
72
6
73
3
40
0
40
0
40
0
40
1
40
1
40
1
41
1
10
90.0289598655157
20
0.465224060245674
30
0
41
1
10
90.0941315615508
20
0.216320342859888
30
0
41
1
10
90.1661838766935
20
-0.0330683667262974
30
0
0
SPLINE
5
124
100
AcDbEntity
8
1
62
256
6
ByLayer
370
18
48
1
60
0
100
AcDbSpline
70
4
71
3
72
8
73
4
40
0
40
0
40
0
40
0
40
1
40
1
40
1
40
1
41
1
10
87.33
20
6.78275509974227
30
0
41
1
10
87.5135183877444
20
6.85512463626031
30
0
41
1
10
87.6966735372934
20
6.92607475748292
30
0
41
1
10
87.879495483891
20
6.99552280567715
30
0
0
SPLINE
5
125
100
AcDbEntity
8
1
62
256
6
ByLayer
370
18
48
1
60
0
100
AcDbSpline
70
4
71
2
72
9
73
6
40
0
40
0
40
0
40
0.25
40
0.5
40
0.75
40
1
40
1
40
1
41
1
10
90.9726560856616
20
-2.33980117570798
30
0
41
1
10
91.0294745605784
20
-2.76010695362262
30
0
41
1
10
91.1829723475961
20
-3.55354239397408
30
0
41
1
10
91.3731531640124
20
-4.28216939774535
30
0
41
1
10
91.5975429980278
20
-4.93701847531065
30
0
41
1
10
91.7242200333128
20
-5.21965488693223
30
0
0
SPLINE
5
126
100
AcDbEntity
8
1
62
256
6
ByLayer
370
18
48
1
60
0
100
AcDbSpline
70
4
71
3
72
8
73
4
40
0
40
0
40
0
40
0
40
1
40
1
40
1
40
1
41
1
10
87.2030982483287
20
6.78773172065428
30
0
41
1
10
87.2020654916457
20
6.78865213652128
30
0
41
1
10
87.2010327421867
20
6.78957238436817
30
0
41
1
10
87.2
20
6.79049246413732
30
0
0
SPLINE
5
127
100
AcDbEntity
8
1
62
256
6
ByLayer
370
18
48
1
60
0
100
AcDbSpline
70
4
71
3
72
8
73
4
40
0
40
0
40
0
40
0
40
1
40
1
40
1
40
1
41
1
10
19.359999999919
20
-4.35140713886608
30
0
41
1
10
19.3599999999182
20
-4.45792436141423
30
0
41
1
10
19.3599999999175
20
-4.56450991857184
30
0
41
1
10
19.3599999999168
20
-4.67116375127438
30
0
0
SPLINE
5
128
100
AcDbEntity
8
1
62
256
6
ByLayer
370
18
48
1
60
0
100
AcDbSpline
70
4
71
3
72
8
73
4
40
0
40
0
40
0
40
0
40
1
40
1
40
1
40
1
41
1
10
94.3921302053681
20
4.9978926016116
30
0
41
1
10
94.2197086444911
20
5.51773956116372
30
0
41
1
10
94.0449739409905
20
6.04047822836512
30
0
41
1
10
93.8678603441065
20
6.5661907879751
30
0
0
SPLINE
5
129
100
AcDbEntity
8
1
62
256
6
ByLayer
370
18
48
1
60
0
100
AcDbSpline
70
4
71
3
72
14
73
10
40
0
40
0
40
0
40
0
40
0.125
40
0.125
40
0.25
40
0.25
40
0.5
40
0.5
40
1
40
1
40
1
40
1
41
1
10
87.2049043625142
20
6.28181328628889
30
0
41
1
10
86.9478898536219
20
6.2748247884017
30
0
41
1
10
86.6908948339998
20
6.26688870287308
30
0
41
1
10
86.1770488030381
20
6.24700567401112
30
0
41
1
10
85.9201764839573
20
6.23536355695691
30
0
41
1
10
85.1496509839212
20
6.19506691323875
30
0
41
1
10
84.6360148293617
20
6.1610224528788
30
0
41
1
10
83.0971316980558
20
6.03564536485206
30
0
41
1
10
82.0732880759033
20
5.92029849455076
30
0
41
1
10
81.0492501180258
20
5.77233892982417
30
0
0
SPLINE
5
12A
100
AcDbEntity
8
1
62
256
6
ByLayer
370
18
48
1
60
0
100
AcDbSpline
70
4
71
3
72
28
73
24
40
0
40
0
40
0
40
0
40
0.124999999999992
40
0.124999999999992
40
0.187499999999988
40
0.187499999999988
40
0.249999999999984
40
0.249999999999984
40
0.374999999999976
40
0.374999999999976
40
0.437499999999974
40
0.437499999999974
40
0.499999999999973
40
0.499999999999973
40
0.624999999999975
40
0.624999999999975
40
0.687499999999976
40
0.687499999999976
40
0.749999999999978
40
0.749999999999978
40
0.874999999999989
40
0.874999999999989
40
1
40
1
40
1
40
1
41
1
10
19.3599999998863
20
6.80866959518758
30
0
41
1
10
19.359999999886
20
6.78909342934895
30
0
41
1
10
19.3728824121955
20
6.76285458920336
30
0
41
1
10
19.4128131742302
20
6.71427253389336
30
0
41
1
10
19.4295714034498
20
6.696539829193
30
0
41
1
10
19.4703877146455
20
6.65811623303387
30
0
41
1
10
19.4945856997651
20
6.63731626685239
30
0
41
1
10
19.5779227180216
20
6.57147857455507
30
0
41
1
10
19.6471404059897
20
6.52341804080339
30
0
41
1
10
19.7717645252924
20
6.4472435592171
30
0
41
1
10
19.8167870434498
20
6.42117040494404
30
0
41
1
10
19.9140425867152
20
6.368031249415
30
0
41
1
10
19.9665666067695
20
6.34083165835753
30
0
41
1
10
20.1322299617934
20
6.2599103467507
30
0
41
1
10
20.253848177724
20
6.20655674973935
30
0
41
1
10
20.4528277344806
20
6.12991447919686
30
0
41
1
10
20.5219274739783
20
6.10493176954918
30
0
41
1
10
20.6658221404805
20
6.05653887629273
30
0
41
1
10
20.7402032889955
20
6.03328485244165
30
0
41
1
10
20.9676764160496
20
5.96772342824824
30
0
41
1
10
21.1261648151217
20
5.92922557805335
30
0
41
1
10
21.4567834205552
20
5.86509374500022
30
0
41
1
10
21.6295346784531
20
5.83948950598909
30
0
41
1
10
21.8050590125764
20
5.82208202562495
30
0
0
SPLINE
5
12B
100
AcDbEntity
8
1
62
256
6
ByLayer
370
18
48
1
60
0
100
AcDbSpline
70
4
71
3
72
17
73
13
40
0
40
0
40
0
40
0
40
0.450856121696059
40
0.450856121696059
40
0.507213136908062
40
0.507213136908062
40
0.563570152120065
40
0.676284182544089
40
0.676284182544089
40
0.901712243392119
40
0.901712243392119
40
1
40
1
40
1
40
1
41
1
10
79.2191987315979
20
5.51325141133444
30
0
41
1
10
78.608108927997
20
5.39045488626192
30
0
41
1
10
77.9973244245022
20
5.2602473995442
30
0
41
1
10
77.3103649233128
20
5.10585900491574
30
0
41
1
10
77.2341478921964
20
5.08830964774631
30
0
41
1
10
77.0805847075362
20
5.05592631704991
30
0
41
1
10
76.8499640269083
20
5.00779171458325
30
0
41
1
10
76.6185623009188
20
4.96092900228669
30
0
41
1
10
76.1548300208906
20
4.86876473938736
30
0
41
1
10
75.8444445933589
20
4.80939039766474
30
0
41
1
10
75.3973201011604
20
4.72660581286442
30
0
41
1
10
75.2613781133221
20
4.70179531995879
30
0
41
1
10
75.1252651680311
20
4.67728852781528
30
0
0
SPLINE
5
12C
100
AcDbEntity
8
1
62
256
6
ByLayer
370
13
48
1
60
0
100
AcDbSpline
70
4
71
3
72
18
73
14
40
0
40
0
40
0
40
0
40
0.25
40
0.25
40
0.5
40
0.5
40
0.625
40
0.625
40
0.75
40
0.75
40
0.875
40
0.875
40
1
40
1
40
1
40
1
41
1
10
95.2260343962079
20
0.709031447943175
30
0
41
1
10
95.0906269107959
20
0.797312217387002
30
0
41
1
10
94.9595223403865
20
0.896249790815062
30
0
41
1
10
94.7099324423476
20
1.11817062947097
30
0
41
1
10
94.5912260730533
20
1.24156939541086
30
0
41
1
10
94.4289770472474
20
1.44520600540531
30
0
41
1
10
94.3774707251257
20
1.51621433596156
30
0
41
1
10
94.2803638966843
20
1.6653574739826
30
0
41
1
10
94.2345173315567
20
1.74390118824303
30
0
41
1
10
94.1509959356965
20
1.9068879042361
30
0
41
1
10
94.1133525145979
20
1.99124340957434
30
0
41
1
10
94.0470716795023
20
2.16627241495047
30
0
41
1
10
94.0182533058306
20
2.25732811835781
30
0
41
1
10
93.9949942434801
20
2.35079234044233
30
0
0
SPLINE
5
12D
100
AcDbEntity
8
1
62
256
6
ByLayer
370
13
48
1
60
0
100
AcDbSpline
70
4
71
2
72
6
73
3
40
0
40
0
40
0
40
1
40
1
40
1
41
0.997659736680304
10
95.1781103428006
20
0.670011190907917
30
0
41
0.92506822677458
10
94.4272717554482
20
-0.281814124291262
30
0
41
1
10
94.2246579571036
20
-1.33622846705074
30
0
0
SPLINE
5
12E
100
AcDbEntity
8
1
62
256
6
ByLayer
370
18
48
1
60
0
100
AcDbSpline
70
4
71
3
72
13
73
9
40
0
40
0
40
0
40
0
40
0.25
40
0.25
40
0.5
40
0.75
40
0.75
40
1
40
1
40
1
40
1
41
1
10
16.8191087548941
20
-3.66761311485826
30
0
41
1
10
16.7018290085248
20
-3.65318470895403
30
0
41
1
10
16.5840892234409
20
-3.63768322137742
30
0
41
1
10
16.3550646777962
20
-3.60553447008425
30
0
41
1
10
16.1317560913725
20
-3.57217916134235
30
0
41
1
10
15.9196337840717
20
-3.53646008400076
30
0
41
1
10
15.7132212712654
20
-3.49947706867837
30
0
41
1
10
15.6129304788947
20
-3.48034771630302
30
0
41
1
10
15.5176549662892
20
-3.46092815866731
30
0
0
SPLINE
5
12F
100
AcDbEntity
8
1
62
256
6
ByLayer
370
18
48
1
60
0
100
AcDbSpline
70
4
71
3
72
8
73
4
40
0
40
0
40
0
40
0
40
1
40
1
40
1
40
1
41
1
10
17.4
20
-4.38719664811723
30
0
41
1
10
17.1666409146812
20
-4.33511946901081
30
0
41
1
10
16.9332664139978
20
-4.28283319793172
30
0
41
1
10
16.6998780432065
20
-4.2303550120904
30
0
0
SPLINE
5
130
100
AcDbEntity
8
1
62
256
6
ByLayer
370
18
48
1
60
0
100
AcDbSpline
70
4
71
3
72
14
73
10
40
0
40
0
40
0
40
0
40
0.500000000000004
40
0.500000000000004
40
0.750000000000007
40
0.750000000000007
40
0.875000000000003
40
0.875000000000003
40
1
40
1
40
1
40
1
41
1
10
95.2665263774804
20
2.48181172440678
30
0
41
1
10
95.1159008154193
20
2.89783843446116
30
0
41
1
10
94.9674435864284
20
3.31586160732425
30
0
41
1
10
94.7482060340753
20
3.94607133318425
30
0
41
1
10
94.6757074105893
20
4.15667578500944
30
0
41
1
10
94.5679243146052
20
4.47347082519249
30
0
41
1
10
94.5321313607374
20
4.57930023518335
30
0
41
1
10
94.4615099914694
20
4.7894288774873
30
0
41
1
10
94.4266066343073
20
4.89394699040756
30
0
41
1
10
94.3921302094204
20
4.99789260233612
30
0
0
SPLINE
5
131
100
AcDbEntity
8
1
62
256
6
ByLayer
370
13
48
1
60
0
100
AcDbSpline
70
4
71
3
72
10
73
6
40
0
40
0
40
0
40
0
40
0.0018236890469655
40
0.0018236890469655
40
1
40
1
40
1
40
1
41
1
10
95.248889153541
20
0.694329498307098
30
0
41
1
10
95.2488751983277
20
0.694338356347885
30
0
41
1
10
95.2488612430227
20
0.694347214437101
30
0
41
1
10
95.2412091208313
20
0.699204555880527
30
0
41
1
10
95.2336043435893
20
0.704096116801963
30
0
41
1
10
95.2260343962092
20
0.709031447942351
30
0
0
SPLINE
5
132
100
AcDbEntity
8
1
62
256
6
ByLayer
370
18
48
1
60
0
100
AcDbSpline
70
4
71
3
72
8
73
4
40
0
40
0
40
0
40
0
40
1
40
1
40
1
40
1
41
1
10
90.1405854043397
20
0.647238322535571
30
0
41
1
10
90.1037977406068
20
0.585508722529056
30
0
41
1
10
90.0665937794775
20
0.5248258489801
30
0
41
1
10
90.0289598835348
20
0.465223991427081
30
0
0
SPLINE
5
133
100
AcDbEntity
8
1
62
256
6
ByLayer
370
18
48
1
60
0
100
AcDbSpline
70
4
71
2
72
6
73
3
40
0
40
0
40
0
40
1
40
1
40
1
41
0.50000001153624
10
18.5860027368286
20
5.01924713726742
30
0
41
0.49999998846376
10
18.5857074894269
20
5.01792571134589
30
0
41
0.50000001153624
10
18.5854120932479
20
5.01660347895577
30
0
0
SPLINE
5
134
100
AcDbEntity
8
1
62
256
6
ByLayer
370
18
48
1
60
0
100
AcDbSpline
70
4
71
3
72
8
73
4
40
0
40
0
40
0
40
0
40
1
40
1
40
1
40
1
41
1
10
89.8934563934762
20
0.468418155297314
30
0
41
1
10
89.938624253355
20
0.46712909493607
30
0
41
1
10
89.9837920780433
20
0.466064664312341
30
0
41
1
10
90.0289598724255
20
0.465223991622281
30
0
0
SPLINE
5
135
100
AcDbEntity
8
1
62
256
6
ByLayer
370
18
48
1
60
0
100
AcDbSpline
70
4
71
3
72
30
73
26
40
0
40
0
40
0
40
0
40
0.124999999999991
40
0.124999999999991
40
0.187499999999994
40
0.187499999999994
40
0.249999999999997
40
0.249999999999997
40
0.374999999999988
40
0.374999999999988
40
0.49999999999998
40
0.49999999999998
40
0.562499999999981
40
0.562499999999981
40
0.624999999999982
40
0.624999999999982
40
0.687499999999984
40
0.687499999999984
40
0.749999999999985
40
0.749999999999985
40
0.874999999999994
40
0.874999999999994
40
0.937499999999997
40
0.937499999999997
40
1
40
1
40
1
40
1
41
1
10
76.0626200965557
20
-3.22029567895294
30
0
41
1
10
76.2864183311393
20
-3.26322771250295
30
0
41
1
10
76.5114066886089
20
-3.28283497591701
30
0
41
1
10
76.8506082700557
20
-3.27908754312347
30
0
41
1
10
76.9640740951179
20
-3.27223330365752
30
0
41
1
10
77.1911612964356
20
-3.24687655702252
30
0
41
1
10
77.3027995962721
20
-3.22860581323843
30
0
41
1
10
77.632205992051
20
-3.15739289196628
30
0
41
1
10
77.8449347618871
20
-3.08812919516041
30
0
41
1
10
78.2535820151674
20
-2.90290960884565
30
0
41
1
10
78.4423707381158
20
-2.79024975710956
30
0
41
1
10
78.7029494394775
20
-2.59001600722047
30
0
41
1
10
78.7862332722149
20
-2.51778942166635
30
0
41
1
10
78.9439083904284
20
-2.36294147089953
30
0
41
1
10
79.017173300103
20
-2.28147854027901
30
0
41
1
10
79.1530130668931
20
-2.11051483206984
30
0
41
1
10
79.2155861491167
20
-2.02101346941365
30
0
41
1
10
79.3301291010236
20
-1.83375734852308
30
0
41
1
10
79.3823277347064
20
-1.7354850857281
30
0
41
1
10
79.5210496551554
20
-1.43117420267171
30
0
41
1
10
79.5884586308154
20
-1.21956309640228
30
0
41
1
10
79.6556989944094
20
-0.889580217844411
30
0
41
1
10
79.6724517469174
20
-0.776964265698439
30
0
41
1
10
79.6944623066802
20
-0.550560934932321
30
0
41
1
10
79.699791999883
20
-0.436767752912459
30
0
41
1
10
79.6997919998863
20
-0.322400714035581
30
0
0
SPLINE
5
136
100
AcDbEntity
8
1
62
256
6
ByLayer
370
18
48
1
60
0
100
AcDbSpline
70
4
71
3
72
12
73
8
40
0
40
0
40
0
40
0
40
0.500000000000026
40
0.500000000000026
40
0.750000000000013
40
0.750000000000013
40
1
40
1
40
1
40
1
41
1
10
79.2151233722019
20
5.52196954683663
30
0
41
1
10
79.4198903934147
20
5.56965613252771
30
0
41
1
10
79.613088247264
20
5.62896532131907
30
0
41
1
10
79.8855284196445
20
5.73181858113205
30
0
41
1
10
79.9739417116656
20
5.76868770618603
30
0
41
1
10
80.1409623145111
20
5.84483437615478
30
0
41
1
10
80.2198331962659
20
5.88416395086887
30
0
41
1
10
80.2941958095668
20
5.92433114384892
30
0
0
SPLINE
5
137
100
AcDbEntity
8
1
62
256
6
ByLayer
370
18
48
1
60
0
100
AcDbSpline
70
4
71
3
72
14
73
10
40
0
40
0
40
0
40
0
40
0.25
40
0.25
40
0.5
40
0.5
40
0.75
40
0.75
40
1
40
1
40
1
40
1
41
1
10
12.4979239355327
20
-2.56454470004695
30
0
41
1
10
12.7043740023701
20
-2.60704260200933
30
0
41
1
10
12.9150965262292
20
-2.66043849806999
30
0
41
1
10
13.3446196852185
20
-2.78258129617382
30
0
41
1
10
13.5634266093967
20
-2.8513247933333
30
0
41
1
10
14.0096295922951
20
-2.99922361057963
30
0
41
1
10
14.2370170585687
20
-3.07838818758967
30
0
41
1
10
14.7018610121995
20
-3.24362135816566
30
0
41
1
10
14.9382626982645
20
-3.32933335921086
30
0
41
1
10
15.177914713155
20
-3.41607802177111
30
0
0
SPLINE
5
138
100
AcDbEntity
8
1
62
256
6
ByLayer
370
18
48
1
60
0
100
AcDbSpline
70
4
71
3
72
16
73
12
40
0
40
0
40
0
40
0
40
0.358070539838311
40
0.517589247881163
40
0.602679427964456
40
0.687777517885035
40
0.772889833049157
40
0.821535792004601
40
0.87018883156031
40
0.918849853680366
40
1
40
1
40
1
40
1
41
1.10374900959774
10
58.864291464958
20
-0.0044623520937443
30
0
41
1.10374900959774
10
60.9283042156293
20
-0.374958406307853
30
0
41
1.10374900959774
10
63.9106338489833
20
-0.910449638434136
30
0
41
1.10374900959774
10
67.3773170576176
20
-1.52129533362787
30
0
41
1.10374900959774
10
69.2713399382094
20
-1.84913939191216
30
0
41
1.10374900959774
10
70.7361239512756
20
-2.10525347146329
30
0
41
1.10374900959774
10
71.9927631428917
20
-2.30355485518325
30
0
41
1.10374900959774
10
73.0328971566708
20
-2.51156159945232
30
0
41
1.10374900959774
10
73.8663778281816
20
-2.66932582520074
30
0
41
1.10374900959774
10
74.8851676406168
20
-2.86172958715702
30
0
41
1.10374900959774
10
75.6261787234175
20
-2.99921714423213
30
0
41
1.10374900959774
10
76.0893510439324
20
-3.08413910547196
30
0
0
SPLINE
5
139
100
AcDbEntity
8
1
62
256
6
ByLayer
370
18
48
1
60
0
100
AcDbSpline
70
4
71
3
72
9
73
5
40
0
40
0
40
0
40
0
40
0.493248890181444
40
1
40
1
40
1
40
1
41
1
10
87.2999999562129
20
6.11174481182701
30
0
41
1
10
87.2846844026712
20
6.13986830954298
30
0
41
1
10
87.253634046864
20
6.19688515899927
30
0
41
1
10
87.221293160792
20
6.25325020495362
30
0
41
1
10
87.2049043808824
20
6.28181325454594
30
0
0
SPLINE
5
13A
100
AcDbEntity
8
1
62
256
6
ByLayer
370
18
48
1
60
0
100
AcDbSpline
70
4
71
3
72
48
73
44
40
0
40
0
40
0
40
0
40
0.12779752942541
40
0.12779752942541
40
0.255595058850821
40
0.255595058850821
40
0.383392588276231
40
0.383392588276231
40
0.447291352988936
40
0.447291352988936
40
0.479240735345289
40
0.479240735345289
40
0.511190117701642
40
0.511190117701642
40
0.638987647127053
40
0.638987647127053
40
0.766785176552465
40
0.766785176552465
40
0.894582705977877
40
0.894582705977877
40
0.910557397156053
40
0.910557397156053
40
0.92653208833423
40
0.92653208833423
40
0.958481470690583
40
0.958481470690583
40
0.97445616186876
40
0.97445616186876
40
0.982443507457848
40
0.982443507457848
40
0.986437180252393
40
0.986437180252393
40
0.986686784802051
40
0.986686784802051
40
0.98693638935171
40
0.98693638935171
40
0.987435598451027
40
0.987435598451027
40
0.98843401664966
40
0.98843401664966
40
0.990430853046926
40
0.990430853046926
40
1
40
1
40
1
40
1
41
1
10
16.8193744564497
20
-3.66651279043825
30
0
41
1
10
19.2965050781434
20
-4.00488372991913
30
0
41
1
10
21.7735329960269
20
-4.32029847976443
30
0
41
1
10
26.7287141120723
20
-4.89646439852339
30
0
41
1
10
29.2054310073111
20
-5.15704769682361
30
0
41
1
10
34.1577768243153
20
-5.60356742149835
30
0
41
1
10
36.6336237511099
20
-5.78903871279749
30
0
41
1
10
40.3496350497966
20
-5.99185855920203
30
0
41
1
10
41.5887974904934
20
-6.04691445648564
30
0
41
1
10
43.4464378766505
20
-6.10819990794548
30
0
41
1
10
44.0655700581902
20
-6.12536467964787
30
0
41
1
10
45.3038606717224
20
-6.15623935933786
30
0
41
1
10
45.9229960930119
20
-6.16954138644039
30
0
41
1
10
49.0186659063018
20
-6.2252191812488
30
0
41
1
10
51.4951280897176
20
-6.23545264578374
30
0
41
1
10
56.449671083955
20
-6.17708947759834
30
0
41
1
10
58.9277265162718
20
-6.10824578517136
30
0
41
1
10
63.8826332650833
20
-5.87688580670397
30
0
41
1
10
66.3604303323261
20
-5.71390266711589
30
0
41
1
10
69.1473508597009
20
-5.47326974028405
30
0
41
1
10
69.4570356709932
20
-5.4456142677227
30
0
41
1
10
70.0763287202407
20
-5.38918532926516
30
0
41
1
10
70.3858597957141
20
-5.35817155434628
30
0
41
1
10
71.3124223082327
20
-5.26006756857592
30
0
41
1
10
71.9280286127685
20
-5.1863928744155
30
0
41
1
10
72.8450751144005
20
-5.05058501491089
30
0
41
1
10
73.1497062257131
20
-5.00101143987499
30
0
41
1
10
73.6041563266825
20
-4.91358083366734
30
0
41
1
10
73.7552170513539
20
-4.88224508899108
30
0
41
1
10
73.9808641619948
20
-4.82978214802063
30
0
41
1
10
74.0559089274778
20
-4.81139539119394
30
0
41
1
10
74.1354782192083
20
-4.79030320128481
30
0
41
1
10
74.1401582257783
20
-4.78905712454906
30
0
41
1
10
74.1495171059263
20
-4.78655181781124
30
0
41
1
10
74.1541826487427
20
-4.78498786370165
30
0
41
1
10
74.1682673806307
20
-4.78232593435331
30
0
41
1
10
74.1776551238196
20
-4.78053310742229
30
0
41
1
10
74.2058166477802
20
-4.77517675512456
30
0
41
1
10
74.2245871770691
20
-4.77159878200007
30
0
41
1
10
74.2808960821682
20
-4.76086447465528
30
0
41
1
10
74.3184319303376
20
-4.75370015002787
30
0
41
1
10
74.5358510955984
20
-4.71206626330928
30
0
41
1
10
74.715739230826
20
-4.67704394370389
30
0
41
1
10
74.8956320093447
20
-4.64145955500089
30
0
0
SPLINE
5
13B
100
AcDbEntity
8
1
62
256
6
ByLayer
370
18
48
1
60
0
100
AcDbSpline
70
4
71
3
72
14
73
10
40
0
40
0
40
0
40
0
40
0.25
40
0.25
40
0.5
40
0.5
40
0.75
40
0.75
40
1
40
1
40
1
40
1
41
1
10
88.13
20
1.45877434200122
30
0
41
1
10
88.48976987419
20
1.40973077700221
30
0
41
1
10
88.8496204324786
20
1.36132808914829
30
0
41
1
10
89.5694818150677
20
1.26579571302688
30
0
41
1
10
89.9295080025317
20
1.21878805500518
30
0
41
1
10
90.6500044951628
20
1.12830038431358
30
0
41
1
10
91.0104599463632
20
1.0847023859709
30
0
41
1
10
91.7312605271388
20
0.99663010003664
30
0
41
1
10
92.0916632821473
20
0.952613533653476
30
0
41
1
10
92.4520866606935
20
0.908760780887263
30
0
0
SPLINE
5
13C
100
AcDbEntity
8
1
62
256
6
ByLayer
370
18
48
1
60
0
100
AcDbSpline
70
4
71
3
72
8
73
4
40
0
40
0
40
0
40
0
40
1
40
1
40
1
40
1
41
1
10
87.8794954838723
20
-6.95059335939709
30
0
41
1
10
87.7423067236315
20
-6.8935836419551
30
0
41
1
10
87.6049299747375
20
-6.83581016046281
30
0
41
1
10
87.4673494445328
20
-6.77730749377824
30
0
0
SPLINE
5
13D
100
AcDbEntity
8
1
62
256
6
ByLayer
370
18
48
1
60
0
100
AcDbSpline
70
4
71
2
72
6
73
3
40
0
40
0
40
0
40
1
40
1
40
1
41
1
10
90.8109267444235
20
-2.02412956042826
30
0
41
1
10
90.8910523935427
20
-2.18417704572948
30
0
41
1
10
90.9726528369808
20
-2.3397941076706
30
0
0
SPLINE
5
13E
100
AcDbEntity
8
1
62
256
6
ByLayer
370
18
48
1
60
0
100
AcDbSpline
70
4
71
3
72
8
73
4
40
0
40
0
40
0
40
0
40
1
40
1
40
1
40
1
41
1
10
93.9949942434824
20
2.35079234044286
30
0
41
1
10
94.1558409822876
20
2.36038063668318
30
0
41
1
10
94.3165371367045
20
2.37166299877418
30
0
41
1
10
94.4769889628434
20
2.38576957387184
30
0
0
SPLINE
5
13F
100
AcDbEntity
8
1
62
256
6
ByLayer
370
18
48
1
60
0
100
AcDbSpline
70
4
71
3
72
8
73
4
40
0
40
0
40
0
40
0
40
1
40
1
40
1
40
1
41
1
10
15.177914713155
20
-3.41607802177109
30
0
41
1
10
15.2808303978277
20
-3.42108326018263
30
0
41
1
10
15.393537993181
20
-3.43562998238957
30
0
41
1
10
15.5176549662892
20
-3.46092815866731
30
0
0
SPLINE
5
140
100
AcDbEntity
8
1
62
256
6
ByLayer
370
18
48
1
60
0
100
AcDbSpline
70
4
71
3
72
12
73
8
40
0
40
0
40
0
40
0
40
0.5
40
0.5
40
0.75
40
0.75
40
1
40
1
40
1
40
1
41
1
10
80.5831632202144
20
-6.02334944269487
30
0
41
1
10
81.68307335791
20
-6.22357525558263
30
0
41
1
10
82.7833270403848
20
-6.38857249335746
30
0
41
1
10
84.4382562946926
20
-6.58074199089808
30
0
41
1
10
84.9910098273747
20
-6.63568525720802
30
0
41
1
10
86.0959422138433
20
-6.7269902614413
30
0
41
1
10
86.6480607471315
20
-6.7633668257759
30
0
41
1
10
87.2
20
-6.79049246413732
30
0
0
SPLINE
5
141
100
AcDbEntity
8
1
62
256
6
ByLayer
370
18
48
1
60
0
100
AcDbSpline
70
4
71
3
72
10
73
6
40
0
40
0
40
0
40
0
40
0.5
40
0.5
40
1
40
1
40
1
40
1
41
1
10
87.1
20
3.25
30
0
41
1
10
87.1
20
3.05536068061804
30
0
41
1
10
87.0999999999999
20
2.87637285696096
30
0
41
1
10
87.0999999999999
20
2.54790207508444
30
0
41
1
10
87.1
20
2.39842481298001
30
0
41
1
10
87.1
20
2.26420618165051
30
0
0
SPLINE
5
142
100
AcDbEntity
8
1
62
256
6
ByLayer
370
18
48
1
60
0
100
AcDbSpline
70
4
71
3
72
50
73
46
40
0
40
0
40
0
40
0
40
0.126903557275477
40
0.126903557275477
40
0.253807114550955
40
0.253807114550955
40
0.380710671826432
40
0.380710671826432
40
0.412436561145302
40
0.412436561145302
40
0.444162450464171
40
0.444162450464171
40
0.50761422910191
40
0.50761422910191
40
0.634517786377388
40
0.634517786377388
40
0.697969565015127
40
0.697969565015127
40
0.761421343652866
40
0.761421343652866
40
0.888324900928344
40
0.888324900928344
40
0.904187845587778
40
0.904187845587778
40
0.920050790247212
40
0.920050790247212
40
0.935913734906647
40
0.935913734906647
40
0.951776679566081
40
0.951776679566081
40
0.967639624225515
40
0.967639624225515
40
0.975571096555233
40
0.975571096555233
40
0.977553964637662
40
0.977553964637662
40
0.978049681658269
40
0.978049681658269
40
0.978545398678877
40
0.978545398678877
40
0.979536832720091
40
0.979536832720091
40
0.983502568884946
40
0.983502568884946
40
1
40
1
40
1
40
1
41
1
10
19.359999999919
20
-4.35140290840951
30
0
41
1
10
21.7249751117228
20
-4.67656419252421
30
0
41
1
10
24.0903977567186
20
-4.96626881448674
30
0
41
1
10
28.8239129528029
20
-5.47594177146439
30
0
41
1
10
31.1906153481201
20
-5.69604405926648
30
0
41
1
10
35.9219411263234
20
-6.06672483075212
30
0
41
1
10
38.286945100231
20
-6.21757335470892
30
0
41
1
10
41.2427133579241
20
-6.35764789869663
30
0
41
1
10
41.8338443816155
20
-6.38320546976584
30
0
41
1
10
43.0160783065784
20
-6.42914708754176
30
0
41
1
10
43.6071491078297
20
-6.44954971917642
30
0
41
1
10
45.3802202373921
20
-6.50194148255579
30
0
41
1
10
46.5621842626997
20
-6.52541425596988
30
0
41
1
10
50.1083528590464
20
-6.56300291982265
30
0
41
1
10
52.4729161096554
20
-6.54419099127946
30
0
41
1
10
56.0214355261031
20
-6.45706917836242
30
0
41
1
10
57.2045346552895
20
-6.41818734759323
30
0
41
1
10
59.5713357801309
20
-6.32105062211267
30
0
41
1
10
60.7549961142993
20
-6.26277285609225
30
0
41
1
10
64.3031701271226
20
-6.0585234725088
30
0
41
1
10
66.6660976698352
20
-5.88343396242109
30
0
41
1
10
69.3218566502609
20
-5.63766695598795
30
0
41
1
10
69.6170741495976
20
-5.61005776127416
30
0
41
1
10
70.2065870493035
20
-5.55142184030981
30
0
41
1
10
70.5009159019571
20
-5.52046962651025
30
0
41
1
10
71.0884683149088
20
-5.45434786912369
30
0
41
1
10
71.3817026848391
20
-5.41916332447531
30
0
41
1
10
71.9666810254161
20
-5.34283969904936
30
0
41
1
10
72.2584394099047
20
-5.3017690785428
30
0
41
1
10
72.8395632856118
20
-5.21085418483483
30
0
41
1
10
73.1290134760957
20
-5.16127870912521
30
0
41
1
10
73.5596590199976
20
-5.07392960211976
30
0
41
1
10
73.7026211967402
20
-5.04266183448664
30
0
41
1
10
73.8798989109087
20
-4.9985087825406
30
0
41
1
10
73.9152797951961
20
-4.98941325754686
30
0
41
1
10
73.9593879428556
20
-4.97762861765324
30
0
41
1
10
73.9682035747681
20
-4.97525060742262
30
0
41
1
10
73.9858227043825
20
-4.97045173823869
30
0
41
1
10
73.9945716035352
20
-4.96786180535133
30
0
41
1
10
74.0214962213978
20
-4.96218125555276
30
0
41
1
10
74.0394465666229
20
-4.95838938793761
30
0
41
1
10
74.129186710419
20
-4.93936051763057
30
0
41
1
10
74.2009880957988
20
-4.92405855102874
30
0
41
1
10
74.5715203973975
20
-4.8446636351016
30
0
41
1
10
74.8703262088247
20
-4.77904506562081
30
0
41
1
10
75.1692272702102
20
-4.7118498216519
30
0
0
SPLINE
5
143
100
AcDbEntity
8
1
62
256
6
ByLayer
370
18
48
1
60
0
100
AcDbSpline
70
4
71
1
72
4
73
2
40
0
40
0
40
1
40
1
41
1
10
16.8193744564496
20
-3.66651279043825
30
0
41
1
10
16.6998780432065
20
-4.2303550120904
30
0
0
SPLINE
5
144
100
AcDbEntity
8
1
62
256
6
ByLayer
370
18
48
1
60
0
100
AcDbSpline
70
4
71
3
72
14
73
10
40
0
40
0
40
0
40
0
40
0.29306182031818
40
0.29306182031818
40
0.58612364063636
40
0.58612364063636
40
0.87918546095454
40
0.87918546095454
40
1
40
1
40
1
40
1
41
1
10
87.8794954838702
20
-6.95059335940368
30
0
41
1
10
88.3693164988772
20
-6.97711952989701
30
0
41
1
10
88.8595263930343
20
-6.99292110698718
30
0
41
1
10
89.8398333601259
20
-7.00329087897231
30
0
41
1
10
90.3297290408461
20
-6.99781938502196
30
0
41
1
10
91.3094759856675
20
-6.96546526503829
30
0
41
1
10
91.7995999608423
20
-6.93865979408997
30
0
41
1
10
92.4918108620089
20
-6.88599324168339
30
0
41
1
10
92.6938719405978
20
-6.86883560045643
30
0
41
1
10
92.8959214364467
20
-6.84990059715392
30
0
0
SPLINE
5
145
100
AcDbEntity
8
1
62
256
6
ByLayer
370
18
48
1
60
0
100
AcDbSpline
70
4
71
3
72
8
73
4
40
0
40
0
40
0
40
0
40
1
40
1
40
1
40
1
41
1
10
93.6921856353332
20
-6.76587001397408
30
0
41
1
10
93.7146951098305
20
-6.76324207295136
30
0
41
1
10
93.7372080363697
20
-6.76059418985298
30
0
41
1
10
93.7597251334521
20
-6.7579267707209
30
0
0
SPLINE
5
146
100
AcDbEntity
8
1
62
256
6
ByLayer
370
18
48
1
60
0
100
AcDbSpline
70
4
71
3
72
8
73
4
40
0
40
0
40
0
40
0
40
1
40
1
40
1
40
1
41
1
10
87.2030982483287
20
-6.78773172065425
30
0
41
1
10
87.2020654916457
20
-6.78865213652128
30
0
41
1
10
87.2010327421867
20
-6.78957238436814
30
0
41
1
10
87.2
20
-6.79049246413732
30
0
0
SPLINE
5
147
100
AcDbEntity
8
1
62
256
6
ByLayer
370
18
48
1
60
0
100
AcDbSpline
70
4
71
3
72
8
73
4
40
0
40
0
40
0
40
0
40
1
40
1
40
1
40
1
41
1
10
12.4167255104682
20
-2.54775666419505
30
0
41
1
10
12.4437998472911
20
-2.55337881291567
30
0
41
1
10
12.4708660824663
20
-2.55897482058629
30
0
41
1
10
12.4979239355327
20
-2.56454470004695
30
0
0
SPLINE
5
148
100
AcDbEntity
8
1
62
256
6
ByLayer
370
18
48
1
60
0
100
AcDbSpline
70
4
71
3
72
8
73
4
40
0
40
0
40
0
40
0
40
1
40
1
40
1
40
1
41
1
10
87.2049044023569
20
6.28181330025268
30
0
41
1
10
87.2043147741497
20
6.45099251230371
30
0
41
1
10
87.2037088908685
20
6.61963331998015
30
0
41
1
10
87.2030982610082
20
6.78773174145522
30
0
0
SPLINE
5
149
100
AcDbEntity
8
1
62
256
6
ByLayer
370
18
48
1
60
0
100
AcDbSpline
70
4
71
2
72
6
73
3
40
0
40
0
40
0
40
1
40
1
40
1
41
0.500000144018031
10
79.2191987315978
20
-5.51325141133456
30
0
41
0.499999855981969
10
79.2171629166679
20
-5.51761684151189
30
0
41
0.500000144018031
10
79.2151233722019
20
-5.52196954683662
30
0
0
SPLINE
5
14A
100
AcDbEntity
8
1
62
256
6
ByLayer
370
18
48
1
60
0
100
AcDbSpline
70
4
71
3
72
12
73
8
40
0
40
0
40
0
40
0
40
0.499999999999994
40
0.499999999999994
40
0.749999999999997
40
0.749999999999997
40
1
40
1
40
1
40
1
41
1
10
80.5831632202144
20
6.02334944269487
30
0
41
1
10
81.6829732889068
20
6.22355703918765
30
0
41
1
10
82.7831267966218
20
6.38854252577644
30
0
41
1
10
84.4379047239935
20
6.58070452301376
30
0
41
1
10
84.9905685723655
20
6.63564411778995
30
0
41
1
10
86.095545988164
20
6.72696219292069
30
0
41
1
10
86.6478043337379
20
6.76335422406848
30
0
41
1
10
87.2
20
6.79049246413732
30
0
0
SPLINE
5
14B
100
AcDbEntity
8
1
62
256
6
ByLayer
370
18
48
1
60
0
100
AcDbSpline
70
4
71
1
72
4
73
2
40
0
40
0
40
1
40
1
41
1
10
91.7242435872474
20
-5.21964368908141
30
0
41
1
10
91.5908173457533
20
-5.28300698755081
30
0
0
SPLINE
5
14C
100
AcDbEntity
8
1
62
256
6
ByLayer
370
18
48
1
60
0
100
AcDbSpline
70
4
71
3
72
8
73
4
40
0
40
0
40
0
40
0
40
1
40
1
40
1
40
1
41
1
10
17.4
20
-4.38719664811723
30
0
41
1
10
18.0532936720123
20
-4.48454234570974
30
0
41
1
10
18.7066162677052
20
-4.57921948802448
30
0
41
1
10
19.3599999999167
20
-4.67116375127441
30
0
0
SPLINE
5
14D
100
AcDbEntity
8
1
62
256
6
ByLayer
370
18
48
1
60
0
100
AcDbSpline
70
4
71
3
72
14
73
10
40
0
40
0
40
0
40
0
40
0.249999999999999
40
0.249999999999999
40
0.5
40
0.5
40
0.75
40
0.75
40
1
40
1
40
1
40
1
41
1
10
95.8293235653152
20
0.651887385739428
30
0
41
1
10
95.8049148537871
20
0.750030131780107
30
0
41
1
10
95.7747053572269
20
0.862819759597812
30
0
41
1
10
95.7038935197516
20
1.11318018114946
30
0
41
1
10
95.6632932504458
20
1.25074357116929
30
0
41
1
10
95.5733298060402
20
1.54512812753006
30
0
41
1
10
95.5239690536033
20
1.70194136627708
30
0
41
1
10
95.4184660876913
20
2.02853034363022
30
0
41
1
10
95.3623277205782
20
2.19829430917525
30
0
41
1
10
95.3039234749967
20
2.37113761589921
30
0
0
SPLINE
5
14E
100
AcDbEntity
8
1
62
256
6
ByLayer
370
18
48
1
60
0
100
AcDbSpline
70
4
71
3
72
14
73
10
40
0
40
0
40
0
40
0
40
0.500000000000004
40
0.500000000000004
40
0.625000000000003
40
0.625000000000003
40
0.750000000000002
40
0.750000000000002
40
1
40
1
40
1
40
1
41
1
10
92.6328899379157
20
-6.29971342957097
30
0
41
1
10
92.7472565971004
20
-6.51948041327083
30
0
41
1
10
92.8908810038605
20
-6.66966035686482
30
0
41
1
10
93.1030333675268
20
-6.77979700511969
30
0
41
1
10
93.1471201959781
20
-6.79788483493445
30
0
41
1
10
93.2386022077839
20
-6.82619185653078
30
0
41
1
10
93.2860894481339
20
-6.83640413388872
30
0
41
1
10
93.4320163438572
20
-6.85504604085821
30
0
41
1
10
93.5342992161458
20
-6.85170850447099
30
0
41
1
10
93.641355497334
20
-6.83331476298429
30
0
0
SPLINE
5
14F
100
AcDbEntity
8
1
62
256
6
ByLayer
370
13
48
1
60
0
100
AcDbSpline
70
4
71
3
72
10
73
6
40
0
40
0
40
0
40
0
40
0.612074396721063
40
0.612074396721063
40
1
40
1
40
1
40
1
41
1
10
76.0626200965511
20
-3.22029567897664
30
0
41
1
10
76.0680580488821
20
-3.19255893216609
30
0
41
1
10
76.0735057982937
20
-3.1647962324802
30
0
41
1
10
76.0824219383042
20
-3.11939515035053
30
0
41
1
10
76.0858845918134
20
-3.10177239902143
30
0
41
1
10
76.0893510439324
20
-3.08413910547196
30
0
0
SPLINE
5
150
100
AcDbEntity
8
1
62
256
6
ByLayer
370
18
48
1
60
0
100
AcDbSpline
70
4
71
3
72
12
73
8
40
0
40
0
40
0
40
0
40
0.249999999999993
40
0.249999999999993
40
0.499999999999985
40
0.499999999999985
40
1
40
1
40
1
40
1
41
1
10
15.177914713155
20
-3.41607802177111
30
0
41
1
10
15.2352860515269
20
-3.46983621584593
30
0
41
1
10
15.2956922501992
20
-3.52113401442475
30
0
41
1
10
15.4226858076669
20
-3.61928754714774
30
0
41
1
10
15.4895578827136
20
-3.66631276838856
30
0
41
1
10
15.6968602431731
20
-3.79970087135419
30
0
41
1
10
15.8441312670265
20
-3.87874647570703
30
0
41
1
10
15.9999999999995
20
-3.95064457137056
30
0
0
SPLINE
5
151
100
AcDbEntity
8
1
62
256
6
ByLayer
370
13
48
1
60
0
100
AcDbSpline
70
4
71
3
72
20
73
16
40
0
40
0
40
0
40
0
40
0.332892821059506
40
0.332892821059506
40
0.499339231589259
40
0.499339231589259
40
0.665785642119012
40
0.665785642119012
40
0.832232052648765
40
0.832232052648765
40
0.915455257913642
40
0.915455257913642
40
0.998678463178518
40
0.998678463178518
40
1
40
1
40
1
40
1
41
1
10
94.2246579571036
20
-1.33622846705074
30
0
41
1
10
94.0370823235961
20
-1.2131931107649
30
0
41
1
10
93.7994217566162
20
-1.03149860408533
30
0
41
1
10
93.5291040088651
20
-0.786915448200347
30
0
41
1
10
93.4110271825732
20
-0.671024440858702
30
0
41
1
10
93.2346351147635
20
-0.481748981637764
30
0
41
1
10
93.117170200279
20
-0.344221226056078
30
0
41
1
10
92.9463528568077
20
-0.123394566265375
30
0
41
1
10
92.8326984689611
20
0.0388297895874814
30
0
41
1
10
92.713810020941
20
0.228696514986467
30
0
41
1
10
92.6596554090593
20
0.320263068187558
30
0
41
1
10
92.5839637580883
20
0.456438096649805
30
0
41
1
10
92.5319411577842
20
0.556143276176385
30
0
41
1
10
92.4959038844423
20
0.630171237358297
30
0
41
1
10
92.4953401265861
20
0.631331246750932
30
0
41
1
10
92.4947759245129
20
0.632494100705799
30
0
0
SPLINE
5
152
100
AcDbEntity
8
1
62
256
6
ByLayer
370
18
48
1
60
0
100
AcDbSpline
70
4
71
3
72
12
73
8
40
0
40
0
40
0
40
0
40
0.301445121804265
40
0.301445121804265
40
0.650722560902132
40
0.650722560902132
40
1
40
1
40
1
40
1
41
1
10
81.5436389611678
20
3.35648497174873
30
0
41
1
10
82.4089380473797
20
3.12017952597728
30
0
41
1
10
83.2738839375227
20
2.8711142642139
30
0
41
1
10
85.1416323647784
20
2.30892144207917
30
0
41
1
10
86.1429420796517
20
1.99232353791035
30
0
41
1
10
88.1425718827566
20
1.33567505697184
30
0
41
1
10
89.1419945117955
20
0.99521113312079
30
0
41
1
10
90.1405854043164
20
0.647238322544069
30
0
0
SPLINE
5
153
100
AcDbEntity
8
1
62
256
6
ByLayer
370
18
48
1
60
0
100
AcDbSpline
70
4
71
3
72
8
73
4
40
0
40
0
40
0
40
0
40
1
40
1
40
1
40
1
41
1
10
87.33
20
5.39510350753295
30
0
41
1
10
87.33
20
5.85765403303606
30
0
41
1
10
87.3299999999999
20
6.32020456377214
30
0
41
1
10
87.3299999999999
20
6.78275509974227
30
0
0
SPLINE
5
154
100
AcDbEntity
8
1
62
256
6
ByLayer
370
18
48
1
60
0
100
AcDbSpline
70
4
71
3
72
8
73
4
40
0
40
0
40
0
40
0
40
1
40
1
40
1
40
1
41
1
10
87.3
20
-6.44689847911383
30
0
41
1
10
87.2666666666667
20
-6.47873501481314
30
0
41
1
10
87.2333333333333
20
-6.51057155051248
30
0
41
1
10
87.2
20
-6.54240808621179
30
0
0
SPLINE
5
155
100
AcDbEntity
8
1
62
256
6
ByLayer
370
18
48
1
60
0
100
AcDbSpline
70
4
71
3
72
32
73
28
40
0
40
0
40
0
40
0
40
0.0625000000000149
40
0.0625000000000149
40
0.12500000000003
40
0.12500000000003
40
0.250000000000045
40
0.250000000000045
40
0.312500000000044
40
0.312500000000044
40
0.375000000000044
40
0.375000000000044
40
0.437500000000044
40
0.437500000000044
40
0.500000000000044
40
0.500000000000044
40
0.625000000000032
40
0.625000000000032
40
0.687500000000026
40
0.687500000000026
40
0.75000000000002
40
0.75000000000002
40
0.812500000000015
40
0.812500000000015
40
0.875000000000009
40
0.875000000000009
40
1
40
1
40
1
40
1
41
1
10
76.0893510439323
20
-3.08413910547196
30
0
41
1
10
76.2010968062281
20
-3.10462752603181
30
0
41
1
10
76.313634469098
20
-3.11935787152453
30
0
41
1
10
76.5402796719284
20
-3.13754345251499
30
0
41
1
10
76.6547194252901
20
-3.1409446139607
30
0
41
1
10
76.9941494247115
20
-3.13418393688465
30
0
41
1
10
77.2171773107127
20
-3.10760294451796
30
0
41
1
10
77.5468075993354
20
-3.03371587045496
30
0
41
1
10
77.6561390842093
20
-3.00317785395987
30
0
41
1
10
77.8677814146079
20
-2.93173614590279
30
0
41
1
10
77.9707610739695
20
-2.89072060136428
30
0
41
1
10
78.171103873314
20
-2.79790930755314
30
0
41
1
10
78.2684672015296
20
-2.74611477940994
30
0
41
1
10
78.4574274334302
20
-2.63107816004339
30
0
41
1
10
78.5487690649328
20
-2.56787192670006
30
0
41
1
10
78.8072517267448
20
-2.36521501620712
30
0
41
1
10
78.9614274974778
20
-2.21151401177886
30
0
41
1
10
79.1649975032698
20
-1.95038977925546
30
0
41
1
10
79.2272379101761
20
-1.85935938804212
30
0
41
1
10
79.3397276152978
20
-1.67134514606443
30
0
41
1
10
79.3902068941575
20
-1.57406576463228
30
0
41
1
10
79.4799691189118
20
-1.37293647963307
30
0
41
1
10
79.5192511696237
20
-1.26908658246006
30
0
41
1
10
79.5866276207099
20
-1.05461869126267
30
0
41
1
10
79.6141468083288
20
-0.94576004158489
30
0
41
1
10
79.6792492931822
20
-0.616535806334213
30
0
41
1
10
79.6997918773252
20
-0.392671919210528
30
0
41
1
10
79.6997919999127
20
-0.164653840597794
30
0
0
SPLINE
5
156
100
AcDbEntity
8
1
62
256
6
ByLayer
370
18
48
1
60
0
100
AcDbSpline
70
4
71
3
72
10
73
6
40
0
40
0
40
0
40
0
40
0.333223309242023
40
0.686110019827775
40
1
40
1
40
1
40
1
41
1
10
84.27
20
-3.6254050990454
30
0
41
1
10
84.1737371221099
20
-3.62540600552674
30
0
41
1
10
83.9755307616533
20
-3.642391269386
30
0
41
1
10
83.6980412332093
20
-3.71558004516515
30
0
41
1
10
83.5277213961405
20
-3.7927776953122
30
0
41
1
10
83.4519950336109
20
-3.83441739891782
30
0
0
SPLINE
5
157
100
AcDbEntity
8
1
62
256
6
ByLayer
370
18
48
1
60
0
100
AcDbSpline
70
4
71
3
72
33
73
29
40
0
40
0
40
0
40
0
40
0.0356133071132894
40
0.074678469607352
40
0.113594937517982
40
0.153626927884397
40
0.191571442010727
40
0.229510220800474
40
0.269584559890047
40
0.308496419741502
40
0.347599492929794
40
0.386501197222671
40
0.425593294392187
40
0.465700151800123
40
0.503508465263497
40
0.541396725926969
40
0.581636170561531
40
0.620643905137058
40
0.659706605117996
40
0.698627830088924
40
0.737738988442037
40
0.777781957040459
40
0.815662728754905
40
0.853525344099809
40
0.893551647713727
40
0.93264682876558
40
0.971533064578826
40
1
40
1
40
1
40
1
41
1
10
83.4098480261851
20
-3.858408551748
30
0
41
1
10
83.3358992264396
20
-3.90196150370627
30
0
41
1
10
83.1905917268716
20
-4.00396489647267
30
0
41
1
10
83.0075822989678
20
-4.18575664081533
30
0
41
1
10
82.8657089132331
20
-4.39387353643895
30
0
41
1
10
82.7793243497845
20
-4.60901081725231
30
0
41
1
10
82.750713264996
20
-4.82132393343034
30
0
41
1
10
82.778859162435
20
-5.02326768064924
30
0
41
1
10
82.8648383800841
20
-5.20935378356637
30
0
41
1
10
83.0064304584097
20
-5.37275892453238
30
0
41
1
10
83.1944935113149
20
-5.50752413411416
30
0
41
1
10
83.4238226021307
20
-5.61355635010551
30
0
41
1
10
83.6882924726781
20
-5.69037319162999
30
0
41
1
10
83.9741285047372
20
-5.73605451028317
30
0
41
1
10
84.2686890739958
20
-5.7506288530503
30
0
41
1
10
84.5636511378491
20
-5.73629226943504
30
0
41
1
10
84.8499271025142
20
-5.69077867853918
30
0
41
1
10
85.1150189363443
20
-5.61399484739817
30
0
41
1
10
85.3443336617952
20
-5.50819441785953
30
0
41
1
10
85.5328915186221
20
-5.37337114659079
30
0
41
1
10
85.6747260979236
20
-5.21010356117472
30
0
41
1
10
85.7609300089009
20
-5.02388667500244
30
0
41
1
10
85.7892528169587
20
-4.82231663740689
30
0
41
1
10
85.761001749602
20
-4.61028867372659
30
0
41
1
10
85.6749260981089
20
-4.39497870619732
30
0
41
1
10
85.5332776421172
20
-4.18678560115384
30
0
41
1
10
85.3619756984215
20
-4.01635063934233
30
0
41
1
10
85.2332262909352
20
-3.92271619571605
30
0
41
1
10
85.1756996432619
20
-3.88624710578654
30
0
0
SPLINE
5
158
100
AcDbEntity
8
1
62
256
6
ByLayer
370
18
48
1
60
0
100
AcDbSpline
70
4
71
3
72
11
73
7
40
0
40
0
40
0
40
0
40
0.0107847524817264
40
0.340377214742495
40
0.680070338316299
40
1
40
1
40
1
40
1
41
1
10
85.1179683209878
20
-3.85130321406788
30
0
41
1
10
85.1153010243306
20
-3.84976304989547
30
0
41
1
10
85.0309323599263
20
-3.80136269836987
30
0
41
1
10
84.8507172691432
20
-3.71792255061354
30
0
41
1
10
84.5647837899595
20
-3.64241414969612
30
0
41
1
10
84.3662787961931
20
-3.62540419241415
30
0
41
1
10
84.27
20
-3.6254050990454
30
0
0
SPLINE
5
159
100
AcDbEntity
8
1
62
256
6
ByLayer
370
13
48
1
60
0
100
AcDbSpline
70
4
71
3
72
8
73
4
40
0
40
0
40
0
40
0
40
1
40
1
40
1
40
1
41
1
10
95.2488891535429
20
0.694329498306331
30
0
41
1
10
95.2322961803458
20
0.686893905314832
30
0
41
1
10
95.2150507952844
20
0.672675026992522
30
0
41
1
10
95.2009614667137
20
0.654812958375459
30
0
0
SPLINE
5
15A
100
AcDbEntity
8
1
62
256
6
ByLayer
370
18
48
1
60
0
100
AcDbSpline
70
4
71
3
72
16
73
12
40
0
40
0
40
0
40
0
40
0.25
40
0.25
40
0.375
40
0.375
40
0.499999999999999
40
0.499999999999999
40
0.75
40
0.75
40
1
40
1
40
1
40
1
41
1
10
79.0521189691857
20
4.9970925444656
30
0
41
1
10
79.1786177502683
20
5.03025346718189
30
0
41
1
10
79.2997671925056
20
5.07910657866358
30
0
41
1
10
79.4745608777791
20
5.17190953171351
30
0
41
1
10
79.5317387606284
20
5.20618363372944
30
0
41
1
10
79.641716766414
20
5.2790123448919
30
0
41
1
10
79.6948460338571
20
5.31772470077797
30
0
41
1
10
79.8494070303507
20
5.43971380674958
30
0
41
1
10
79.9460643931283
20
5.52877208684149
30
0
41
1
10
80.1288957332633
20
5.71909886689031
30
0
41
1
10
80.2148114066852
20
5.82030449870538
30
0
41
1
10
80.2941958095669
20
5.92433114384889
30
0
0
SPLINE
5
15B
100
AcDbEntity
8
1
62
256
6
ByLayer
370
13
48
1
60
0
100
AcDbSpline
70
4
71
3
72
8
73
4
40
0
40
0
40
0
40
0
40
1
40
1
40
1
40
1
41
1
10
95.1781103428006
20
0.6700111909079
30
0
41
1
10
95.1856904433409
20
0.664898909522407
30
0
41
1
10
95.1933079930625
20
0.659833055281467
30
0
41
1
10
95.2009614667119
20
0.654812958375999
30
0
0
SPLINE
5
15C
100
AcDbEntity
8
1
62
256
6
ByLayer
370
18
48
1
60
0
100
AcDbSpline
70
4
71
3
72
12
73
8
40
0
40
0
40
0
40
0
40
0.5
40
0.5
40
0.75
40
0.75
40
1
40
1
40
1
40
1
41
1
10
95.097518614827
20
-1.90875870454727
30
0
41
1
10
95.1981209145002
20
-1.79035975038903
30
0
41
1
10
95.2982640044461
20
-1.6524035294272
30
0
41
1
10
95.4462605524125
20
-1.40815157613352
30
0
41
1
10
95.4938750898839
20
-1.32265047113694
30
0
41
1
10
95.5855576908057
20
-1.14321634199061
30
0
41
1
10
95.6298041900313
20
-1.04886884960146
30
0
41
1
10
95.6717802170037
20
-0.950897469346899
30
0
0
SPLINE
5
15D
100
AcDbEntity
8
1
62
256
6
ByLayer
370
18
48
1
60
0
100
AcDbSpline
70
4
71
3
72
8
73
4
40
0
40
0
40
0
40
0
40
1
40
1
40
1
40
1
41
1
10
77.615081817613
20
4.44917969198744
30
0
41
1
10
78.3100165380153
20
4.27163393779924
30
0
41
1
10
79.0047987859793
20
4.08517924808146
30
0
41
1
10
79.6997920001319
20
3.89062580643176
30
0
0
SPLINE
5
15E
100
AcDbEntity
8
1
62
256
6
ByLayer
370
18
48
1
60
0
100
AcDbSpline
70
4
71
3
72
8
73
4
40
0
40
0
40
0
40
0
40
1
40
1
40
1
40
1
41
1
10
87.4673494445329
20
-6.61658332252352
30
0
41
1
10
87.4673494445335
20
-6.59474872659555
30
0
41
1
10
87.4626843076923
20
-6.57164308911354
30
0
41
1
10
87.4536300831056
20
-6.54734134544833
30
0
0
SPLINE
5
15F
100
AcDbEntity
8
1
62
256
6
ByLayer
370
18
48
1
60
0
100
AcDbSpline
70
4
71
1
72
4
73
2
40
0
40
0
40
1
40
1
41
1
10
18.5860027368286
20
5.01924713726743
30
0
41
1
10
18.505169644734
20
4.5850581594124
30
0
0
SPLINE
5
160
100
AcDbEntity
8
1
62
256
6
ByLayer
370
18
48
1
60
0
100
AcDbSpline
70
4
71
3
72
8
73
4
40
0
40
0
40
0
40
0
40
1
40
1
40
1
40
1
41
1
10
87.4536300831057
20
-6.54734134544833
30
0
41
1
10
87.6812954509206
20
-6.47731431089207
30
0
41
1
10
87.9067949039868
20
-6.39501326946407
30
0
41
1
10
88.13
20
-6.29971035238418
30
0
0
SPLINE
5
161
100
AcDbEntity
8
1
62
256
6
ByLayer
370
18
48
1
60
0
100
AcDbSpline
70
4
71
3
72
8
73
4
40
0
40
0
40
0
40
0
40
1
40
1
40
1
40
1
41
1
10
15.6553618488479
20
4.61138284645187
30
0
41
1
10
15.7679421024645
20
4.64470986022599
30
0
41
1
10
15.8827843820705
20
4.67633457471422
30
0
41
1
10
15.9999999999995
20
4.70660152537113
30
0
0
SPLINE
5
162
100
AcDbEntity
8
1
62
256
6
ByLayer
370
18
48
1
60
0
100
AcDbSpline
70
4
71
3
72
18
73
14
40
0
40
0
40
0
40
0
40
0.125
40
0.125
40
0.25
40
0.25
40
0.500000000000001
40
0.500000000000001
40
0.625000000000001
40
0.625000000000001
40
0.75
40
0.75
40
1
40
1
40
1
40
1
41
1
10
87.3
20
3.25000000000003
30
0
41
1
10
87.3
20
3.35098426474758
30
0
41
1
10
87.3000000000001
20
3.45539881065901
30
0
41
1
10
87.3000000000001
20
3.67127686732442
30
0
41
1
10
87.3000000000001
20
3.78335162630586
30
0
41
1
10
87.3000000000001
20
4.12524150758537
30
0
41
1
10
87.3
20
4.36053043786782
30
0
41
1
10
87.3000000000001
20
4.72447021897167
30
0
41
1
10
87.2999999999999
20
4.84762922080168
30
0
41
1
10
87.2999999999998
20
5.09777859444691
30
0
41
1
10
87.3
20
5.22518120050057
30
0
41
1
10
87.3
20
5.60545831124094
30
0
41
1
10
87.3
20
5.85872795837173
30
0
41
1
10
87.3
20
6.11174481037625
30
0
0
SPLINE
5
163
100
AcDbEntity
8
1
62
256
6
ByLayer
370
13
48
1
60
0
100
AcDbSpline
70
4
71
3
72
8
73
4
40
0
40
0
40
0
40
0
40
1
40
1
40
1
40
1
41
1
10
95.2260343962079
20
0.709031447943204
30
0
41
1
10
95.2094545288004
20
0.701629326180978
30
0
41
1
10
95.1922332014559
20
0.687607544388925
30
0
41
1
10
95.1781103428005
20
0.670011190907957
30
0
0
SPLINE
5
164
100
AcDbEntity
8
1
62
256
6
ByLayer
370
18
48
1
60
0
100
AcDbSpline
70
4
71
3
72
8
73
4
40
0
40
0
40
0
40
0
40
1
40
1
40
1
40
1
41
1
10
12.4979239355327
20
3.93317661831449
30
0
41
1
10
12.4708660715609
20
3.93198106009325
30
0
41
1
10
12.4437998581661
20
3.93075670949031
30
0
41
1
10
12.4167255104682
20
3.92950358862061
30
0
0
SPLINE
5
165
100
AcDbEntity
8
1
62
256
6
ByLayer
370
18
48
1
60
0
100
AcDbSpline
70
4
71
3
72
8
73
4
40
0
40
0
40
0
40
0
40
1
40
1
40
1
40
1
41
1
10
87.1
20
1.67197218472228
30
0
41
1
10
87.1
20
1.8355944994324
30
0
41
1
10
87.1
20
2.03323758248735
30
0
41
1
10
87.1
20
2.26420618165051
30
0
0
SPLINE
5
166
100
AcDbEntity
8
1
62
256
6
ByLayer
370
18
48
1
60
0
100
AcDbSpline
70
4
71
3
72
8
73
4
40
0
40
0
40
0
40
0
40
1
40
1
40
1
40
1
41
1
10
15.9999999999997
20
4.70660152537101
30
0
41
1
10
16.3028218516267
20
4.79649663862193
30
0
41
1
10
16.6115249759505
20
4.86312784835548
30
0
41
1
10
16.9258674517122
20
4.90873160085036
30
0
0
SPLINE
5
167
100
AcDbEntity
8
1
62
256
6
ByLayer
370
18
48
1
60
0
100
AcDbSpline
70
4
71
3
72
8
73
4
40
0
40
0
40
0
40
0
40
1
40
1
40
1
40
1
41
1
10
93.6413554973417
20
6.83331476298272
30
0
41
1
10
93.5729871412281
20
6.84506138685492
30
0
41
1
10
93.5067000095401
20
6.8507079609206
30
0
41
1
10
93.4425564305826
20
6.85007180148673
30
0
0
SPLINE
5
168
100
AcDbEntity
8
1
62
256
6
ByLayer
370
18
48
1
60
0
100
AcDbSpline
70
4
71
3
72
8
73
4
40
0
40
0
40
0
40
0
40
1
40
1
40
1
40
1
41
1
10
87.3276220112423
20
1.91560029726446
30
0
41
1
10
87.3291852483726
20
1.9268530666626
30
0
41
1
10
87.33
20
1.93832278819721
30
0
41
1
10
87.33
20
1.94999999999999
30
0
0
SPLINE
5
169
100
AcDbEntity
8
1
62
256
6
ByLayer
370
18
48
1
60
0
100
AcDbSpline
70
4
71
3
72
22
73
18
40
0
40
0
40
0
40
0
40
0.125000000000002
40
0.125000000000002
40
0.250000000000003
40
0.250000000000003
40
0.500000000000011
40
0.500000000000011
40
0.56250000000001
40
0.56250000000001
40
0.625000000000009
40
0.625000000000009
40
0.750000000000006
40
0.750000000000006
40
0.875000000000003
40
0.875000000000003
40
1
40
1
40
1
40
1
41
1
10
91.3566854010719
20
0.83904808503371
30
0
41
1
10
91.3345067058873
20
0.748059615923125
30
0
41
1
10
91.3080942698149
20
0.666264817753756
30
0
41
1
10
91.2465523509209
20
0.521604499687015
30
0
41
1
10
91.2113292928738
20
0.458604897441347
30
0
41
1
10
91.0921833553262
20
0.300974622261521
30
0
41
1
10
90.9984828730236
20
0.241580992380847
30
0
41
1
10
90.8640606319008
20
0.22272416917059
30
0
41
1
10
90.836187962371
20
0.221773853528077
30
0
41
1
10
90.7792328753536
20
0.225554327176411
30
0
41
1
10
90.7502148891082
20
0.230254514326759
30
0
41
1
10
90.6616023364677
20
0.252458749214981
30
0
41
1
10
90.6004550021922
20
0.27803617885931
30
0
41
1
10
90.4741914290305
20
0.349826757804692
30
0
41
1
10
90.4086973065347
20
0.396388279708702
30
0
41
1
10
90.2758816017445
20
0.508266179146659
30
0
41
1
10
90.2086322481757
20
0.573396786179558
30
0
41
1
10
90.1405854043397
20
0.647238322536111
30
0
0
SPLINE
5
16A
100
AcDbEntity
8
1
62
256
6
ByLayer
370
18
48
1
60
0
100
AcDbSpline
70
4
71
3
72
12
73
8
40
0
40
0
40
0
40
0
40
0.419672288135334
40
0.419672288135334
40
0.709835940074495
40
0.709835940074495
40
1
40
1
40
1
40
1
41
1
10
87.2999999990513
20
6.6868243850501
30
0
41
1
10
87.2864583953873
20
6.70094524969917
30
0
41
1
10
87.2729108144935
20
6.71506400267731
30
0
41
1
10
87.2499864307889
20
6.7389411080735
30
0
41
1
10
87.2406126887953
20
6.74870052316095
30
0
41
1
10
87.2218596386767
20
6.76821748996508
30
0
41
1
10
87.2124803272446
20
6.77797504511202
30
0
41
1
10
87.203098270232
20
6.78773169141184
30
0
0
SPLINE
5
16B
100
AcDbEntity
8
1
62
256
6
ByLayer
370
18
48
1
60
0
100
AcDbSpline
70
4
71
3
72
18
73
14
40
0
40
0
40
0
40
0
40
0.0610879209281822
40
0.0610879209281822
40
0.178451930812159
40
0.178451930812159
40
0.295815940696136
40
0.295815940696136
40
0.53054396046409
40
0.53054396046409
40
0.765271980232045
40
0.765271980232045
40
1
40
1
40
1
40
1
41
1
10
50.8156078850035
20
-0.46834599402294
30
0
41
1
10
50.1577617262328
20
-0.354700388337619
30
0
41
1
10
49.4998436815877
20
-0.240702436084206
30
0
41
1
10
47.5776038621222
20
0.0928841656057102
30
0
41
1
10
46.3129489076738
20
0.31289518621918
30
0
41
1
10
43.7850330127047
20
0.750151366362985
30
0
41
1
10
42.5211667898204
20
0.967147646851998
30
0
41
1
10
38.7294634557567
20
1.61168275716656
30
0
41
1
10
36.201645419472
20
2.03318051312633
30
0
41
1
10
31.1438336867761
20
2.84506724553464
30
0
41
1
10
28.6157376694596
20
3.23518025185112
30
0
41
1
10
23.5610443308209
20
3.95988710042181
30
0
41
1
10
21.0340811955185
20
4.29487453680775
30
0
41
1
10
18.5051696447345
20
4.58505815941498
30
0
0
SPLINE
5
16C
100
AcDbEntity
8
1
62
256
6
ByLayer
370
18
48
1
60
0
100
AcDbSpline
70
4
71
1
72
4
73
2
40
0
40
0
40
1
40
1
41
1
10
90.1661838777585
20
-0.0330683733007788
30
0
41
1
10
90.031937220639
20
-0.0476686865135036
30
0
0
SPLINE
5
16D
100
AcDbEntity
8
1
62
256
6
ByLayer
370
18
48
1
60
0
100
AcDbSpline
70
4
71
3
72
9
73
5
40
0
40
0
40
0
40
0
40
0.547500787703391
40
1
40
1
40
1
40
1
41
1
10
87.3081220580127
20
-6.4077251785744
30
0
41
1
10
87.3051288402108
20
-6.4150136176423
30
0
41
1
10
87.3010561957282
20
-6.42825972912789
30
0
41
1
10
87.3003290382063
20
-6.44109055149525
30
0
41
1
10
87.3000000000004
20
-6.44689648850959
30
0
0
SPLINE
5
16E
100
AcDbEntity
8
1
62
256
6
ByLayer
370
18
48
1
60
0
100
AcDbSpline
70
4
71
3
72
10
73
6
40
0
40
0
40
0
40
0
40
0.5
40
0.5
40
1
40
1
40
1
40
1
41
1
10
87.3071796769725
20
2.25
30
0
41
1
10
87.3071796769725
20
2.32584785827183
30
0
41
1
10
87.3058016745281
20
2.400132092093
30
0
41
1
10
87.3022211454398
20
2.54574620452559
30
0
41
1
10
87.3
20
2.6176361273082
30
0
41
1
10
87.3
20
2.68588989435406
30
0
0
SPLINE
5
16F
100
AcDbEntity
8
1
62
256
6
ByLayer
370
18
48
1
60
0
100
AcDbSpline
70
4
71
3
72
8
73
4
40
0
40
0
40
0
40
0
40
1
40
1
40
1
40
1
41
1
10
94.4769889628434
20
2.38576957387184
30
0
41
1
10
94.7414553749787
20
2.409020884825
30
0
41
1
10
95.0050283239879
20
2.4383541836454
30
0
41
1
10
95.2665263774804
20
2.48181172440678
30
0
0
SPLINE
5
170
100
AcDbEntity
8
1
62
256
6
ByLayer
370
13
48
1
60
0
100
AcDbSpline
70
4
71
3
72
15
73
11
40
0
40
0
40
0
40
0
40
0.252108876544781
40
0.380286667674042
40
0.444375563238673
40
0.508464458803304
40
0.764820041061827
40
0.828908936626458
40
0.892997832191088
40
1
40
1
40
1
40
1
41
1
10
87.33
20
5.39510350753295
30
0
41
1
10
87.9236563483199
20
5.41099665477086
30
0
41
1
10
88.8190352045887
20
5.41339298650246
30
0
41
1
10
89.8647828515734
20
5.38332055610499
30
0
41
1
10
90.4681920836851
20
5.35817417075995
30
0
41
1
10
91.3736395765086
20
5.31132865608419
30
0
41
1
10
92.2788348618581
20
5.23888441162578
30
0
41
1
10
93.1837705860474
20
5.14478646939915
30
0
41
1
10
93.7374380667375
20
5.08276376918414
30
0
41
1
10
94.1402304753084
20
5.03183875258642
30
0
41
1
10
94.3921302104646
20
4.99789259918774
30
0
0
SPLINE
5
171
100
AcDbEntity
8
1
62
256
6
ByLayer
370
18
48
1
60
0
100
AcDbSpline
70
4
71
3
72
31
73
27
40
0
40
0
40
0
40
0
40
0.0330651904377644
40
0.0659189730031133
40
0.0985619153332813
40
0.130994596137528
40
0.163217605455329
40
0.195231544920985
40
0.227037028034771
40
0.25863468044078
40
0.290025140211587
40
0.321209058139897
40
0.352187098037276
40
0.382959937040147
40
0.413528265923149
40
0.443892789420033
40
0.474054226552179
40
0.504013310964923
40
0.567682739661409
40
0.630859080183099
40
0.69354992437385
40
0.75576304182856
40
0.817506382505438
40
0.878788079208742
40
0.93961644992562
40
1
40
1
40
1
40
1
41
1
10
91.5908176389333
20
-5.28304836624341
30
0
41
1
10
91.5789845388539
20
-5.25540511058298
30
0
41
1
10
91.5553939956162
20
-5.20029534108005
30
0
41
1
10
91.5207930198356
20
-5.11543350816748
30
0
41
1
10
91.486912502882
20
-5.02936853504229
30
0
41
1
10
91.4537996993295
20
-4.94198125629146
30
0
41
1
10
91.421442069182
20
-4.85337680896808
30
0
41
1
10
91.3898429399891
20
-4.76360013220483
30
0
41
1
10
91.3590014287267
20
-4.67271142784813
30
0
41
1
10
91.3289177697002
20
-4.58076610237779
30
0
41
1
10
91.2995919006042
20
-4.48782005640103
30
0
41
1
10
91.2710238384394
20
-4.39392825119134
30
0
41
1
10
91.243213577019
20
-4.29914505601585
30
0
41
1
10
91.2161611243381
20
-4.20352414174721
30
0
41
1
10
91.1898664550673
20
-4.1071184328803
30
0
41
1
10
91.1643296620622
20
-4.0099802803239
30
0
41
1
10
91.1395504029471
20
-3.91216070981105
30
0
41
1
10
91.1064667621753
20
-3.77656639752692
30
0
41
1
10
91.0661913503918
20
-3.60137269567514
30
0
41
1
10
91.0202506642078
20
-3.38428313363571
30
0
41
1
10
90.9774301894237
20
-3.16389013116097
30
0
41
1
10
90.9377354182787
20
-2.94056222319617
30
0
41
1
10
90.9011462985636
20
-2.71468484890886
30
0
41
1
10
90.8677368901455
20
-2.48654743597479
30
0
41
1
10
90.8372339763425
20
-2.25676917823549
30
0
41
1
10
90.8194443059653
20
-2.10150875292959
30
0
41
1
10
90.8105821128327
20
-2.0241634257965
30
0
0
SPLINE
5
172
100
AcDbEntity
8
1
62
256
6
ByLayer
370
18
48
1
60
0
100
AcDbSpline
70
4
71
3
72
38
73
34
40
0
40
0
40
0
40
0
40
0.0625
40
0.0625
40
0.125
40
0.125
40
0.1875
40
0.1875
40
0.25
40
0.25
40
0.3125
40
0.3125
40
0.375
40
0.375
40
0.4375
40
0.4375
40
0.5
40
0.5
40
0.5625
40
0.5625
40
0.625
40
0.625
40
0.6875
40
0.6875
40
0.75
40
0.75
40
0.8125
40
0.8125
40
0.875
40
0.875
40
0.9375
40
0.9375
40
1
40
1
40
1
40
1
41
1
10
89.2686257135909
20
-0.0476686581162653
30
0
41
1
10
89.2006469183322
20
-0.0476686581162653
30
0
41
1
10
89.1337726101199
20
-0.0541007743076136
30
0
41
1
10
89.0020975553822
20
-0.0790394878589495
30
0
41
1
10
88.9367745260386
20
-0.0977631904315786
30
0
41
1
10
88.8107936257207
20
-0.146903739898448
30
0
41
1
10
88.7508277741868
20
-0.176926808937822
30
0
41
1
10
88.636851130378
20
-0.247696396887363
30
0
41
1
10
88.5823142855115
20
-0.288988600833875
30
0
41
1
10
88.4832617931655
20
-0.380045264053194
30
0
41
1
10
88.4385301434552
20
-0.429749257597479
30
0
41
1
10
88.3589852892085
20
-0.537762327956898
30
0
41
1
10
88.3240521212043
20
-0.596647736908011
30
0
41
1
10
88.2681033824696
20
-0.718033116870771
30
0
41
1
10
88.2465680897965
20
-0.781057273747848
30
0
41
1
10
88.2171427903128
20
-0.912011954847998
30
0
41
1
10
88.2096245152687
20
-0.979127072450069
30
0
41
1
10
88.2093683222657
20
-1.11164202187629
30
0
41
1
10
88.2166241358669
20
-1.17847382326482
30
0
41
1
10
88.2455750196178
20
-1.30843514340515
30
0
41
1
10
88.2669314114409
20
-1.370877442644
30
0
41
1
10
88.3228271584404
20
-1.49095960429386
30
0
41
1
10
88.3575293603961
20
-1.54847462545382
30
0
41
1
10
88.4368244501013
20
-1.65400725606128
30
0
41
1
10
88.4819534820487
20
-1.70294810744443
30
0
41
1
10
88.5816445636208
20
-1.79189162288571
30
0
41
1
10
88.6351787751421
20
-1.8310706016043
30
0
41
1
10
88.7492463492828
20
-1.8995207933126
30
0
41
1
10
88.8104244928268
20
-1.92897062970329
30
0
41
1
10
88.9358584205154
20
-1.97596275092184
30
0
41
1
10
89.0002790544152
20
-1.99375003228422
30
0
41
1
10
89.1325573137445
20
-2.017891854559
30
0
41
1
10
89.2006285890583
20
-2.0241624345249
30
0
41
1
10
89.2686257135908
20
-2.0241624345249
30
0
0
SPLINE
5
173
100
AcDbEntity
8
1
62
256
6
ByLayer
370
18
48
1
60
0
100
AcDbSpline
70
2053
71
3
72
39
73
35
40
0
40
0
40
0
40
0
40
0.0311388249955562
40
0.0622121453219674
40
0.0933515802519418
40
0.124641048360467
40
0.155828045805476
40
0.187253809581412
40
0.218565303364436
40
0.250014565346908
40
0.281471745816954
40
0.312803277026153
40
0.344241747086259
40
0.375456611413171
40
0.406714308556712
40
0.437867852255941
40
0.469010326675528
40
0.500156447954133
40
0.531194058916623
40
0.562275968960076
40
0.593497190469124
40
0.624626373698431
40
0.655987447364029
40
0.687266035227011
40
0.718673145413745
40
0.750126929783313
40
0.781472756415669
40
0.812957808327362
40
0.844239616573546
40
0.875569790535107
40
0.906807272936857
40
0.937881622912148
40
0.969048598626966
40
1
40
1
40
1
40
1
41
1
10
84.27
20
-3.61142367384366
30
0
41
1
10
84.3746845624943
20
-3.61142419817383
30
0
41
1
10
84.5838386802608
20
-3.62981349424862
30
0
41
1
10
84.8845254910923
20
-3.71043921496764
30
0
41
1
10
85.1606859922087
20
-3.83858772106478
30
0
41
1
10
85.4020030576567
20
-4.00635090070935
30
0
41
1
10
85.6003395666187
20
-4.20469612207816
30
0
41
1
10
85.7479506020521
20
-4.42308877920888
30
0
41
1
10
85.8393182549152
20
-4.65158979799548
30
0
41
1
10
85.870263770488
20
-4.87926714659906
30
0
41
1
10
85.8392464761357
20
-5.09640761500782
30
0
41
1
10
85.747749727042
20
-5.2949039684147
30
0
41
1
10
85.5999334285515
20
-5.46841988195098
30
0
41
1
10
85.401448007068
20
-5.61348646755766
30
0
41
1
10
85.1600040459059
20
-5.72766087522123
30
0
41
1
10
84.8836191173505
20
-5.80995553609893
30
0
41
1
10
84.5825584787422
20
-5.85957837762348
30
0
41
1
10
84.2687690549815
20
-5.87605381758237
30
0
41
1
10
83.9552572503371
20
-5.85931224118727
30
0
41
1
10
83.6546401511504
20
-5.80956040249072
30
0
41
1
10
83.3787767286959
20
-5.72718544300312
30
0
41
1
10
83.1373169099921
20
-5.61276488732682
30
0
41
1
10
82.9393533102093
20
-5.46776091607362
30
0
41
1
10
82.7917111783266
20
-5.29401473454666
30
0
41
1
10
82.7004955764771
20
-5.09562097355501
30
0
41
1
10
82.6697724908596
20
-4.87848374902003
30
0
41
1
10
82.7009132428913
20
-4.65064250442012
30
0
41
1
10
82.7924539149082
20
-4.42231328851102
30
0
41
1
10
82.9405657602064
20
-4.20360616522649
30
0
41
1
10
83.1390166332399
20
-4.0054657318087
30
0
41
1
10
83.3806310556643
20
-3.83787027500949
30
0
41
1
10
83.6568355931038
20
-3.70993624654739
30
0
41
1
10
83.9571170313801
20
-3.62967212834303
30
0
41
1
10
84.1659455306427
20
-3.61142315266941
30
0
41
1
10
84.27
20
-3.61142367384366
30
0
0
SPLINE
5
174
100
AcDbEntity
8
1
62
256
6
ByLayer
370
18
48
1
60
0
100
AcDbSpline
70
4
71
3
72
8
73
4
40
0
40
0
40
0
40
0
40
1
40
1
40
1
40
1
41
1
10
95.9183375815181
20
-0.236587162311309
30
0
41
1
10
95.9444717986313
20
-0.139903487842048
30
0
41
1
10
95.9675756608825
20
-0.0445289409622092
30
0
41
1
10
95.9880570027289
20
0.0497126647366599
30
0
0
SPLINE
5
175
100
AcDbEntity
8
1
62
256
6
ByLayer
370
18
48
1
60
0
100
AcDbSpline
70
4
71
3
72
12
73
8
40
0
40
0
40
0
40
0
40
0.500000000000026
40
0.500000000000026
40
0.750000000000013
40
0.750000000000013
40
1
40
1
40
1
40
1
41
1
10
79.2151233722019
20
-5.52196954683663
30
0
41
1
10
79.4198903934147
20
-5.56965613252771
30
0
41
1
10
79.613088247264
20
-5.62896532131907
30
0
41
1
10
79.8855284196445
20
-5.73181858113205
30
0
41
1
10
79.9739417116656
20
-5.76868770618603
30
0
41
1
10
80.1409623145111
20
-5.84483437615478
30
0
41
1
10
80.2198331962659
20
-5.88416395086887
30
0
41
1
10
80.2941958095668
20
-5.92433114384892
30
0
0
SPLINE
5
176
100
AcDbEntity
8
1
62
256
6
ByLayer
370
18
48
1
60
0
100
AcDbSpline
70
4
71
3
72
14
73
10
40
0
40
0
40
0
40
0
40
0.49999999999995
40
0.49999999999995
40
0.624999999999975
40
0.624999999999975
40
0.75
40
0.75
40
1
40
1
40
1
40
1
41
1
10
77.615081817613
20
4.44917969198744
30
0
41
1
10
77.3464904088366
20
4.40083226480306
30
0
41
1
10
77.074527444749
20
4.38384787314337
30
0
41
1
10
76.7303728712793
20
4.402829017866
30
0
41
1
10
76.6615982007808
20
4.40866834373253
30
0
41
1
10
76.5260201578714
20
4.42415934137196
30
0
41
1
10
76.4589413665835
20
4.43382403722492
30
0
41
1
10
76.259797411117
20
4.46837565657958
30
0
41
1
10
76.1298136250477
20
4.49880355465362
30
0
41
1
10
76.0026482778941
20
4.53632610664894
30
0
0
SPLINE
5
177
100
AcDbEntity
8
1
62
256
6
ByLayer
370
18
48
1
60
0
100
AcDbSpline
70
4
71
3
72
14
73
10
40
0
40
0
40
0
40
0
40
0.249999999999999
40
0.249999999999999
40
0.5
40
0.5
40
0.75
40
0.75
40
1
40
1
40
1
40
1
41
1
10
95.8293235653152
20
-0.651887385739428
30
0
41
1
10
95.8049148537871
20
-0.750030131780107
30
0
41
1
10
95.7747053572269
20
-0.862819759597812
30
0
41
1
10
95.7038935197516
20
-1.11318018114946
30
0
41
1
10
95.6632932504458
20
-1.25074357116929
30
0
41
1
10
95.5733298060402
20
-1.54512812753006
30
0
41
1
10
95.5239690536033
20
-1.70194136627708
30
0
41
1
10
95.4184660876913
20
-2.02853034363022
30
0
41
1
10
95.3623277205782
20
-2.19829430917525
30
0
41
1
10
95.3039234749967
20
-2.37113761589921
30
0
0
SPLINE
5
178
100
AcDbEntity
8
1
62
256
6
ByLayer
370
18
48
1
60
0
100
AcDbSpline
70
4
71
3
72
8
73
4
40
0
40
0
40
0
40
0
40
1
40
1
40
1
40
1
41
1
10
87.4673494445329
20
-6.6165833225231
30
0
41
1
10
87.4673494445329
20
-6.68521645643403
30
0
41
1
10
87.4673494445329
20
-6.73878803887621
30
0
41
1
10
87.4673494445329
20
-6.77730749377835
30
0
0
SPLINE
5
179
100
AcDbEntity
8
1
62
256
6
ByLayer
370
18
48
1
60
0
100
AcDbSpline
70
4
71
3
72
10
73
6
40
0
40
0
40
0
40
0
40
0.5
40
0.5
40
1
40
1
40
1
40
1
41
1
10
95.6717802170019
20
-0.950897469346785
30
0
41
1
10
95.7138152635596
20
-0.832988399000186
30
0
41
1
10
95.755709979435
20
-0.713521179859697
30
0
41
1
10
95.8386734865093
20
-0.473089804693814
30
0
41
1
10
95.8790220218174
20
-0.354223482246169
30
0
41
1
10
95.9183375815192
20
-0.236587162311054
30
0
0
SPLINE
5
17A
100
AcDbEntity
8
1
62
256
6
ByLayer
370
18
48
1
60
0
100
AcDbSpline
70
4
71
2
72
6
73
3
40
0
40
0
40
0
40
1
40
1
40
1
41
1
10
87.3
20
6.68682438645524
30
0
41
1
10
87.3
20
6.40163928548148
30
0
41
1
10
87.3
20
6.11174483164601
30
0
0
SPLINE
5
17B
100
AcDbEntity
8
1
62
256
6
ByLayer
370
18
48
1
60
0
100
AcDbSpline
70
4
71
3
72
18
73
14
40
0
40
0
40
0
40
0
40
0.269055415473196
40
0.269055415473196
40
0.403583123209793
40
0.403583123209793
40
0.538110830946391
40
0.538110830946391
40
0.807166246419586
40
0.807166246419586
40
0.941693954156184
40
0.941693954156184
40
1
40
1
40
1
40
1
41
1
10
81.0492501180257
20
5.77233892982417
30
0
41
1
10
80.9694838685398
20
5.57997578273992
30
0
41
1
10
80.8851376937815
20
5.39042116834813
30
0
41
1
10
80.7518034662585
20
5.11032477668113
30
0
41
1
10
80.7060269716944
20
5.0172951930341
30
0
41
1
10
80.6134800480032
20
4.83515780764455
30
0
41
1
10
80.5666690556501
20
4.74593560938649
30
0
41
1
10
80.424847560648
20
4.48366033949245
30
0
41
1
10
80.3284248791318
20
4.3159723387266
30
0
41
1
10
80.1821777613402
20
4.07507677628274
30
0
41
1
10
80.1331649077708
20
3.99655738668412
30
0
41
1
10
80.0627366641382
20
3.8866060993289
30
0
41
1
10
80.041420076548
20
3.8537074942862
30
0
41
1
10
80.0201768556904
20
3.82127406702495
30
0
0
SPLINE
5
17C
100
AcDbEntity
8
1
62
256
6
ByLayer
370
18
48
1
60
0
100
AcDbSpline
70
4
71
3
72
10
73
6
40
0
40
0
40
0
40
0
40
0.377869227798143
40
0.764572741108344
40
1
40
1
40
1
40
1
41
1
10
91.3566856018998
20
0.839048052317025
30
0
41
1
10
91.0008522202005
20
0.883811853841934
30
0
41
1
10
90.28086635205
20
0.974385999383657
30
0
41
1
10
89.3392191229779
20
1.09313690452677
30
0
41
1
10
88.7535389723585
20
1.16816649364722
30
0
41
1
10
88.5319139458927
20
1.1966259982224
30
0
0
SPLINE
5
17D
100
AcDbEntity
8
1
62
256
6
ByLayer
370
18
48
1
60
0
100
AcDbSpline
70
4
71
3
72
16
73
12
40
0
40
0
40
0
40
0
40
0.124999999999996
40
0.124999999999996
40
0.249999999999991
40
0.249999999999991
40
0.499999999999994
40
0.499999999999994
40
0.749999999999997
40
0.749999999999997
40
1
40
1
40
1
40
1
41
1
10
93.8678603440996
20
6.56619078799577
30
0
41
1
10
93.6178578307354
20
6.60569313200068
30
0
41
1
10
93.3682220408605
20
6.64267028657139
30
0
41
1
10
92.8689677736714
20
6.71106925292605
30
0
41
1
10
92.6193681601139
20
6.74251909054391
30
0
41
1
10
91.8708380002575
20
6.82882354319031
30
0
41
1
10
91.3721013682657
20
6.87560740233263
30
0
41
1
10
90.3753738222188
20
6.94763352154962
30
0
41
1
10
89.8772100879423
20
6.97273094955668
30
0
41
1
10
88.8790899232886
20
7.00068497857438
30
0
41
1
10
88.3795184947631
20
7.003677847049
30
0
41
1
10
87.8794954838909
20
6.99552280567715
30
0
0
SPLINE
5
17E
100
AcDbEntity
8
1
62
256
6
ByLayer
370
18
48
1
60
0
100
AcDbSpline
70
4
71
2
72
6
73
3
40
0
40
0
40
0
40
1
40
1
40
1
41
0.500000048171099
10
16.6998780432065
20
-4.23035501209041
30
0
41
0.499999951828901
10
16.7004962147712
20
-4.22704510372815
30
0
41
0.500000048171099
10
16.701115140935
20
-4.2237318633952
30
0
0
SPLINE
5
17F
100
AcDbEntity
8
1
62
256
6
ByLayer
370
18
48
1
60
0
100
AcDbSpline
70
4
71
3
72
18
73
14
40
0
40
0
40
0
40
0
40
0.668449133500322
40
0.668449133500322
40
0.71022720434409
40
0.71022720434409
40
0.73111623976596
40
0.73111623976596
40
0.752005275187831
40
0.752005275187831
40
0.835561416875312
40
0.835561416875312
40
1
40
1
40
1
40
1
41
1
10
79.0499073977443
20
4.98631739796477
30
0
41
1
10
78.4368732708379
20
4.87603932337316
30
0
41
1
10
77.8239609544921
20
4.75819589333332
30
0
41
1
10
77.1728501358137
20
4.62821009023153
30
0
41
1
10
77.1345495466839
20
4.62054482943799
30
0
41
1
10
77.077092016249
20
4.6088466450264
30
0
41
1
10
77.0579491583241
20
4.60453574171984
30
0
41
1
10
77.0195858933297
20
4.59823615804629
30
0
41
1
10
77.0003997888463
20
4.59510306385911
30
0
41
1
10
76.9044432997014
20
4.57951010383982
30
0
41
1
10
76.8275998717337
20
4.56726972626288
30
0
41
1
10
76.5992808621182
20
4.53089034209765
30
0
41
1
10
76.447555087043
20
4.50651565003937
30
0
41
1
10
76.2955481986209
20
4.48225627963453
30
0
0
SPLINE
5
180
100
AcDbEntity
8
1
62
256
6
ByLayer
370
18
48
1
60
0
100
AcDbSpline
70
4
71
3
72
20
73
16
40
0
40
0
40
0
40
0
40
0.25
40
0.25
40
0.312499999999999
40
0.312499999999999
40
0.374999999999999
40
0.374999999999999
40
0.499999999999999
40
0.499999999999999
40
0.624999999999999
40
0.624999999999999
40
0.749999999999999
40
0.749999999999999
40
1
40
1
40
1
40
1
41
1
10
87.33
20
1.94999999999999
30
0
41
1
10
87.3299999999999
20
2.1282082961267
30
0
41
1
10
87.3299999999999
20
2.33977682893092
30
0
41
1
10
87.3299999999999
20
2.64449504018606
30
0
41
1
10
87.33
20
2.70747928582543
30
0
41
1
10
87.33
20
2.83760478407993
30
0
41
1
10
87.33
20
2.90498276466843
30
0
41
1
10
87.3300000000002
20
3.11115037981546
30
0
41
1
10
87.3299999999999
20
3.25417836261914
30
0
41
1
10
87.33
20
3.55106165828235
30
0
41
1
10
87.3299999999999
20
3.70491768791311
30
0
41
1
10
87.3299999999999
20
4.02359553680284
30
0
41
1
10
87.3299999999999
20
4.18949252193104
30
0
41
1
10
87.3299999999999
20
4.69371871730647
30
0
41
1
10
87.33
20
5.0395085775624
30
0
41
1
10
87.33
20
5.39510350753295
30
0
0
SPLINE
5
181
100
AcDbEntity
8
1
62
256
6
ByLayer
370
18
48
1
60
0
100
AcDbSpline
70
4
71
3
72
12
73
8
40
0
40
0
40
0
40
0
40
0.249999999999983
40
0.249999999999983
40
0.499999999999966
40
0.499999999999966
40
1
40
1
40
1
40
1
41
1
10
80.583163220213
20
6.02334944268742
30
0
41
1
10
80.6288971055457
20
6.01043454291167
30
0
41
1
10
80.6731970381161
20
5.99549281805182
30
0
41
1
10
80.758833166001
20
5.96136171781421
30
0
41
1
10
80.8003094834762
20
5.94207347941585
30
0
41
1
10
80.9178067823181
20
5.87878721426006
30
0
41
1
10
80.9876696197038
20
5.82918247481058
30
0
41
1
10
81.0492501180257
20
5.77233892982414
30
0
0
SPLINE
5
182
100
AcDbEntity
8
1
62
256
6
ByLayer
370
18
48
1
60
0
100
AcDbSpline
70
4
71
3
72
8
73
4
40
0
40
0
40
0
40
0
40
1
40
1
40
1
40
1
41
1
10
87.3276220112424
20
1.91560029726446
30
0
41
1
10
87.5927798740752
20
1.75525757907965
30
0
41
1
10
87.8602967765544
20
1.60318407263173
30
0
41
1
10
88.13
20
1.45877434200122
30
0
0
SPLINE
5
183
100
AcDbEntity
8
1
62
256
6
ByLayer
370
18
48
1
60
0
100
AcDbSpline
70
4
71
3
72
8
73
4
40
0
40
0
40
0
40
0
40
1
40
1
40
1
40
1
41
1
10
16.9258674517122
20
4.90873160085036
30
0
41
1
10
17.0801419988086
20
4.95682321742424
30
0
41
1
10
17.2382008353833
20
4.99558986205062
30
0
41
1
10
17.4
20
5.02556488045491
30
0
0
SPLINE
5
184
100
AcDbEntity
8
1
62
256
6
ByLayer
370
18
48
1
60
0
100
AcDbSpline
70
4
71
3
72
8
73
4
40
0
40
0
40
0
40
0
40
1
40
1
40
1
40
1
41
1
10
87.33
20
-6.78275509974227
30
0
41
1
10
87.5135183877444
20
-6.85512463626031
30
0
41
1
10
87.6966735372934
20
-6.92607475748292
30
0
41
1
10
87.879495483891
20
-6.99552280567715
30
0
0
SPLINE
5
185
100
AcDbEntity
8
1
62
256
6
ByLayer
370
18
48
1
60
0
100
AcDbSpline
70
4
71
3
72
8
73
4
40
0
40
0
40
0
40
0
40
1
40
1
40
1
40
1
41
1
10
95.988057002737
20
0.0497126647350683
30
0
41
1
10
95.9767606297735
20
0.0868249058093795
30
0
41
1
10
95.9655320131567
20
0.123798240974139
30
0
41
1
10
95.9543705737217
20
0.160633857563454
30
0
0
SPLINE
5
186
100
AcDbEntity
8
1
62
256
6
ByLayer
370
18
48
1
60
0
100
AcDbSpline
70
4
71
3
72
10
73
6
40
0
40
0
40
0
40
0
40
0.710641747317417
40
0.710641747317417
40
1
40
1
40
1
40
1
41
1
10
87.4673494445327
20
-6.77730749377832
30
0
41
1
10
87.9956571714304
20
-6.81169191288694
30
0
41
1
10
88.5244416254021
20
-6.8338175059499
30
0
41
1
10
89.2684478646057
20
-6.84788228555396
30
0
41
1
10
89.4837586344433
20
-6.84994781617348
30
0
41
1
10
89.6990560341256
20
-6.84999959031495
30
0
0
SPLINE
5
187
100
AcDbEntity
8
1
62
256
6
ByLayer
370
18
48
1
60
0
100
AcDbSpline
70
4
71
3
72
8
73
4
40
0
40
0
40
0
40
0
40
1
40
1
40
1
40
1
41
1
10
92.4947759464149
20
0.632494055564479
30
0
41
1
10
92.4786351642483
20
0.724380664274776
30
0
41
1
10
92.4646440336974
20
0.816494863781685
30
0
41
1
10
92.4520866607009
20
0.90876078087814
30
0
0
SPLINE
5
188
100
AcDbEntity
8
1
62
256
6
ByLayer
370
18
48
1
60
0
100
AcDbSpline
70
4
71
3
72
8
73
4
40
0
40
0
40
0
40
0
40
1
40
1
40
1
40
1
41
1
10
95.9880570027366
20
-0.0497126647360062
30
0
41
1
10
95.9767606297733
20
-0.0868249058100048
30
0
41
1
10
95.9655320131566
20
-0.123798240974423
30
0
41
1
10
95.9543705737216
20
-0.160633857563454
30
0
0
SPLINE
5
189
100
AcDbEntity
8
1
62
256
6
ByLayer
370
18
48
1
60
0
100
AcDbSpline
70
4
71
3
72
21
73
17
40
0
40
0
40
0
40
0
40
0.0286434249710637
40
0.0572055317524962
40
0.0857575183459556
40
0.114370658299505
40
0.14311577027544
40
0.214475159318074
40
0.28529757524051
40
0.35683437456367
40
0.427291543736161
40
0.568475115391948
40
0.709085433682681
40
0.849308499761499
40
0.989302938616354
40
1
40
1
40
1
40
1
41
1
10
87.2000029286253
20
-6.5424080864245
30
0
41
1
10
87.2002215526082
20
-6.53789457428917
30
0
41
1
10
87.2006581799043
20
-6.52888036380165
30
0
41
1
10
87.2041707951877
20
-6.51503844910724
30
0
41
1
10
87.2097789478042
20
-6.50100972340041
30
0
41
1
10
87.2176843007427
20
-6.48677238335981
30
0
41
1
10
87.2328272622765
20
-6.46525190317888
30
0
41
1
10
87.2603410931673
20
-6.43632235100029
30
0
41
1
10
87.3079305455977
20
-6.40039977011668
30
0
41
1
10
87.3675125482901
20
-6.36560598743756
30
0
41
1
10
87.4624027842078
20
-6.32196218857644
30
0
41
1
10
87.6077359695576
20
-6.27461781424526
30
0
41
1
10
87.8156403702238
20
-6.23793961234006
30
0
41
1
10
88.0403734283661
20
-6.22846637632065
30
0
41
1
10
88.1935498068156
20
-6.24205453128107
30
0
41
1
10
88.2676276922166
20
-6.25397454622134
30
0
41
1
10
88.2728862216363
20
-6.2548207062988
30
0
0
SPLINE
5
18A
100
AcDbEntity
8
1
62
256
6
ByLayer
370
18
48
1
60
0
100
AcDbSpline
70
4
71
3
72
8
73
4
40
0
40
0
40
0
40
0
40
1
40
1
40
1
40
1
41
1
10
16
20
-3.95064457137013
30
0
41
1
10
16.220537283786
20
-4.06892169137967
30
0
41
1
10
16.454277819562
20
-4.15919282395882
30
0
41
1
10
16.701115140935
20
-4.22373186339519
30
0
0
SPLINE
5
18B
100
AcDbEntity
8
1
62
256
6
ByLayer
370
18
48
1
60
0
100
AcDbSpline
70
4
71
3
72
14
73
10
40
0
40
0
40
0
40
0
40
0.274453468998227
40
0.274453468998227
40
0.637226734499114
40
0.637226734499114
40
0.818613367249557
40
0.818613367249557
40
1
40
1
40
1
40
1
41
1
10
89.7076317531594
20
6.99999732076063
30
0
41
1
10
90.078369394506
20
6.99999219433104
30
0
41
1
10
90.4489923094248
20
6.99388096181818
30
0
41
1
10
91.3094759856766
20
6.96546526503957
30
0
41
1
10
91.7995999608487
20
6.93865979409162
30
0
41
1
10
92.5348216598494
20
6.88272078464084
30
0
41
1
10
92.7798925832791
20
6.86145048974359
30
0
41
1
10
93.2699943665974
20
6.81368481914598
30
0
41
1
10
93.5146126523553
20
6.78696327215832
30
0
41
1
10
93.7597251334518
20
6.75792677072133
30
0
0
SPLINE
5
18C
100
AcDbEntity
8
1
62
256
6
ByLayer
370
18
48
1
60
0
100
AcDbSpline
70
4
71
1
72
4
73
2
40
0
40
0
40
1
40
1
41
1
10
91.3603822269132
20
0.834954127096751
30
0
41
1
10
91.3566869573947
20
0.839044737510818
30
0
0
SPLINE
5
18D
100
AcDbEntity
8
1
62
256
6
ByLayer
370
18
48
1
60
0
100
AcDbSpline
70
4
71
3
72
14
73
10
40
0
40
0
40
0
40
0
40
0.499999999999995
40
0.499999999999995
40
0.749999999999992
40
0.749999999999992
40
0.874999999999996
40
0.874999999999996
40
1
40
1
40
1
40
1
41
1
10
95.2665263774804
20
-2.48181172440678
30
0
41
1
10
95.1159008154192
20
-2.89783843446116
30
0
41
1
10
94.9674435864285
20
-3.31586160732428
30
0
41
1
10
94.7482060340755
20
-3.94607133318428
30
0
41
1
10
94.6757074105893
20
-4.15667578500944
30
0
41
1
10
94.5679243146052
20
-4.47347082519252
30
0
41
1
10
94.5321313607376
20
-4.57930023518338
30
0
41
1
10
94.4615099914695
20
-4.78942887748732
30
0
41
1
10
94.4266066343073
20
-4.89394699040756
30
0
41
1
10
94.3921302094204
20
-4.99789260233612
30
0
0
SPLINE
5
18E
100
AcDbEntity
8
1
62
256
6
ByLayer
370
18
48
1
60
0
100
AcDbSpline
70
4
71
3
72
8
73
4
40
0
40
0
40
0
40
0
40
1
40
1
40
1
40
1
41
1
10
93.9949942434802
20
2.3507923404427
30
0
41
1
10
93.9850433526252
20
2.35019915409603
30
0
41
1
10
93.9755347433832
20
2.3464684572825
30
0
41
1
10
93.9674579332514
20
2.3405992382022
30
0
0
SPLINE
5
18F
100
AcDbEntity
8
1
62
256
6
ByLayer
370
18
48
1
60
0
100
AcDbSpline
70
4
71
3
72
8
73
4
40
0
40
0
40
0
40
0
40
1
40
1
40
1
40
1
41
1
10
94.3921302053681
20
-4.9978926016116
30
0
41
1
10
94.2197086444889
20
-5.51773956117052
30
0
41
1
10
94.0449739409859
20
-6.0404782283787
30
0
41
1
10
93.8678603440994
20
-6.56619078799562
30
0
0
LINE
5
70
100
AcDbEntity
8
81
62
256
6
ByLayer
370
18
48
1
60
0
100
AcDbLine
10
87.3
20
0
30
0
11
92.3
21
0
31
0
39
0
210
0
220
0
230
1
0
LINE
5
71
100
AcDbEntity
8
1
62
256
6
ByLayer
370
18
48
1
60
0
100
AcDbLine
10
5.0009
20
12.5
30
0
11
0.2
21
12.5
31
0
39
0
210
0
220
0
230
1
0
LINE
5
73
100
AcDbEntity
8
1
62
256
6
ByLayer
370
18
48
1
60
0
100
AcDbLine
10
0.2
20
-12.5
30
0
11
5.0009
21
-12.5
31
0
39
0
210
0
220
0
230
1
0
LINE
5
74
100
AcDbEntity
8
1
62
256
6
ByLayer
370
18
48
1
60
0
100
AcDbLine
10
0.2
20
12.5
30
0
11
0
21
12.3
31
0
39
0
210
0
220
0
230
1
0
LINE
5
75
100
AcDbEntity
8
1
62
256
6
ByLayer
370
18
48
1
60
0
100
AcDbLine
10
0
20
-12.3
30
0
11
0.2
21
-12.5
31
0
39
0
210
0
220
0
230
1
0
LINE
5
76
100
AcDbEntity
8
SK1
62
256
6
ByLayer
370
18
48
1
60
0
100
AcDbLine
10
-49
20
9.99675
30
0
11
-50
21
8.99675
31
0
39
0
210
0
220
0
230
1
0
LINE
5
78
100
AcDbEntity
8
SK1
62
256
6
ByLayer
370
18
48
1
60
0
100
AcDbLine
10
-50
20
-8.99675
30
0
11
-49
21
-9.99675
31
0
39
0
210
0
220
0
230
1
0
LINE
5
79
100
AcDbEntity
8
SK1
62
256
6
ByLayer
370
18
48
1
60
0
100
AcDbLine
10
-1.6
20
-9.99675
30
0
11
-1.144243
21
-9.784227
31
0
39
0
210
0
220
0
230
1
0
LINE
5
7A
100
AcDbEntity
8
SK1
62
256
6
ByLayer
370
18
48
1
60
0
100
AcDbLine
10
-1.144243
20
9.784227
30
0
11
-1.6
21
9.99675
31
0
39
0
210
0
220
0
230
1
0
LINE
5
7B
100
AcDbEntity
8
SK1
62
256
6
ByLayer
370
18
48
1
60
0
100
AcDbLine
10
-1.6
20
9.99675
30
0
11
-47.3
21
9.99675
31
0
39
0
210
0
220
0
230
1
0
LINE
5
7C
100
AcDbEntity
8
SK1
62
256
6
ByLayer
370
18
48
1
60
0
100
AcDbLine
10
-47.3
20
-9.99675
30
0
11
-1.6
21
-9.99675
31
0
39
0
210
0
220
0
230
1
0
LINE
5
7D
100
AcDbEntity
8
SK1
62
256
6
ByLayer
370
18
48
1
60
0
100
AcDbLine
10
-48.6
20
9.99675
30
0
11
-49
21
9.99675
31
0
39
0
210
0
220
0
230
1
0
LINE
5
7E
100
AcDbEntity
8
SK1
62
256
6
ByLayer
370
18
48
1
60
0
100
AcDbLine
10
-49
20
-9.99675
30
0
11
-48.6
21
-9.99675
31
0
39
0
210
0
220
0
230
1
0
LINE
5
7F
100
AcDbEntity
8
SK1
62
256
6
ByLayer
370
18
48
1
60
0
100
AcDbLine
10
-48.6
20
-9.99675
30
0
11
-48.449692
21
-9.875033
31
0
39
0
210
0
220
0
230
1
0
LINE
5
80
100
AcDbEntity
8
SK1
62
256
6
ByLayer
370
18
48
1
60
0
100
AcDbLine
10
-48.449692
20
9.875033
30
0
11
-48.6
21
9.99675
31
0
39
0
210
0
220
0
230
1
0
LINE
5
81
100
AcDbEntity
8
SK1
62
256
6
ByLayer
370
18
48
1
60
0
100
AcDbLine
10
-47.3
20
9.99675
30
0
11
-47.426311
21
9.888738
31
0
39
0
210
0
220
0
230
1
0
LINE
5
82
100
AcDbEntity
8
SK1
62
256
6
ByLayer
370
18
48
1
60
0
100
AcDbLine
10
-47.426311
20
-9.888738
30
0
11
-47.3
21
-9.99675
31
0
39
0
210
0
220
0
230
1
0
LINE
5
83
100
AcDbEntity
8
SK1
62
256
6
ByLayer
370
18
48
1
60
0
100
AcDbLine
10
-0.975195
20
-9.74675
30
0
11
-0.15
21
-9.74675
31
0
39
0
210
0
220
0
230
1
0
LINE
5
84
100
AcDbEntity
8
SK1
62
256
6
ByLayer
370
18
48
1
60
0
100
AcDbLine
10
-0.15
20
9.74675
30
0
11
-0.975195
21
9.74675
31
0
39
0
210
0
220
0
230
1
0
LINE
5
85
100
AcDbEntity
8
1
62
256
6
ByLayer
370
18
48
1
60
0
100
AcDbLine
10
12.416726
20
-7.936462
30
0
11
12.497924
21
-7.878094
31
0
39
0
210
0
220
0
230
1
0
LINE
5
86
100
AcDbEntity
8
1
62
256
6
ByLayer
370
18
48
1
60
0
100
AcDbLine
10
12.497924
20
7.878094
30
0
11
12.416726
21
7.936462
31
0
39
0
210
0
220
0
230
1
0
LINE
5
87
100
AcDbEntity
8
1
62
256
6
ByLayer
370
18
48
1
60
0
100
AcDbLine
10
19.36
20
6.85
30
0
11
17.4
21
6.85
31
0
39
0
210
0
220
0
230
1
0
LINE
5
88
100
AcDbEntity
8
1
62
256
6
ByLayer
370
18
48
1
60
0
100
AcDbLine
10
16
20
-6.75
30
0
11
17.4
21
-6.85
31
0
39
0
210
0
220
0
230
1
0
LINE
5
89
100
AcDbEntity
8
1
62
256
6
ByLayer
370
18
48
1
60
0
100
AcDbLine
10
17.4
20
-6.85
30
0
11
19.36
21
-6.85
31
0
39
0
210
0
220
0
230
1
0
LINE
5
8A
100
AcDbEntity
8
1
62
256
6
ByLayer
370
18
48
1
60
0
100
AcDbLine
10
17.4
20
6.85
30
0
11
16
21
6.75
31
0
39
0
210
0
220
0
230
1
0
LINE
5
8B
100
AcDbEntity
8
1
62
256
6
ByLayer
370
18
48
1
60
0
100
AcDbLine
10
89.707555
20
7
30
0
11
88.428248
21
7
31
0
39
0
210
0
220
0
230
1
0
LINE
5
8C
100
AcDbEntity
8
1
62
256
6
ByLayer
370
18
48
1
60
0
100
AcDbLine
10
88.428248
20
-7
30
0
11
89.707555
21
-7
31
0
39
0
210
0
220
0
230
1
0
LINE
5
8D
100
AcDbEntity
8
80
62
256
6
ByLayer
370
18
48
1
60
0
100
AcDbLine
10
0
20
0
30
0
11
-5
21
0
31
0
39
0
210
0
220
0
230
1
0
LINE
5
8E
100
AcDbEntity
8
4
62
256
6
ByLayer
370
18
48
0.05
60
0
100
AcDbLine
10
87.3
20
0
30
0
11
0
21
0
31
0
39
0
210
0
220
0
230
1
0
LINE
5
90
100
AcDbEntity
8
SK4
62
256
6
ByLayer
370
18
48
0.05
60
0
100
AcDbLine
10
101
20
0
30
0
11
-55
21
0
31
0
39
0
210
0
220
0
230
1
0
LINE
5
92
100
AcDbEntity
8
SK1
62
256
6
ByLayer
370
18
48
1
60
0
100
AcDbLine
10
-48.6
20
-9.99675
30
0
11
-48.6
21
9.99675
31
0
39
0
210
0
220
0
230
1
0
LINE
5
93
100
AcDbEntity
8
SK1
62
256
6
ByLayer
370
18
48
1
60
0
100
AcDbLine
10
-47.3
20
0
30
0
11
-47.3
21
-9.99675
31
0
39
0
210
0
220
0
230
1
0
LINE
5
94
100
AcDbEntity
8
SK1
62
256
6
ByLayer
370
18
48
1
60
0
100
AcDbLine
10
-47.3
20
9.99675
30
0
11
-47.3
21
0
31
0
39
0
210
0
220
0
230
1
0
LINE
5
95
100
AcDbEntity
8
SK1
62
256
6
ByLayer
370
18
48
1
60
0
100
AcDbLine
10
-6.5
20
5.922852
30
0
11
-43.5
21
5.922852
31
0
39
0
210
0
220
0
230
1
0
LINE
5
96
100
AcDbEntity
8
SK1
62
256
6
ByLayer
370
18
48
1
60
0
100
AcDbLine
10
-1.6
20
-9.99675
30
0
11
-1.6
21
0
31
0
39
0
210
0
220
0
230
1
0
LINE
5
97
100
AcDbEntity
8
SK1
62
256
6
ByLayer
370
18
48
1
60
0
100
AcDbLine
10
-1.6
20
0
30
0
11
-1.6
21
9.99675
31
0
39
0
210
0
220
0
230
1
0
LINE
5
98
100
AcDbEntity
8
SK1
62
256
6
ByLayer
370
13
48
1
60
0
100
AcDbLine
10
-6.5
20
-5.922852
30
0
11
-6.5
21
5.922852
31
0
39
0
210
0
220
0
230
1
0
LINE
5
99
100
AcDbEntity
8
SK1
62
256
6
ByLayer
370
18
48
1
60
0
100
AcDbLine
10
-49
20
0
30
0
11
-49
21
-9.99675
31
0
39
0
210
0
220
0
230
1
0
LINE
5
9A
100
AcDbEntity
8
SK1
62
256
6
ByLayer
370
18
48
1
60
0
100
AcDbLine
10
-49
20
9.99675
30
0
11
-49
21
0
31
0
39
0
210
0
220
0
230
1
0
LINE
5
9B
100
AcDbEntity
8
SK1
62
256
6
ByLayer
370
18
48
1
60
0
100
AcDbLine
10
-43.5
20
-5.922852
30
0
11
-6.5
21
-5.922852
31
0
39
0
210
0
220
0
230
1
0
LINE
5
9C
100
AcDbEntity
8
SK1
62
256
6
ByLayer
370
13
48
1
60
0
100
AcDbLine
10
-1.144243
20
0
30
0
11
-1.144243
21
-9.784227
31
0
39
0
210
0
220
0
230
1
0
LINE
5
9D
100
AcDbEntity
8
SK1
62
256
6
ByLayer
370
13
48
1
60
0
100
AcDbLine
10
-1.144243
20
9.784227
30
0
11
-1.144243
21
0
31
0
39
0
210
0
220
0
230
1
0
LINE
5
9E
100
AcDbEntity
8
SK1
62
256
6
ByLayer
370
13
48
1
60
0
100
AcDbLine
10
-43.5
20
5.922852
30
0
11
-43.5
21
-5.922852
31
0
39
0
210
0
220
0
230
1
0
LINE
5
9F
100
AcDbEntity
8
SK1
62
256
6
ByLayer
370
13
48
1
60
0
100
AcDbLine
10
-0.975195
20
9.74675
30
0
11
-0.975195
21
-9.74675
31
0
39
0
210
0
220
0
230
1
0
LINE
5
A0
100
AcDbEntity
8
SK1
62
256
6
ByLayer
370
18
48
1
60
0
100
AcDbLine
10
-50
20
0
30
0
11
-50
21
-8.99675
31
0
39
0
210
0
220
0
230
1
0
LINE
5
A1
100
AcDbEntity
8
SK1
62
256
6
ByLayer
370
18
48
1
60
0
100
AcDbLine
10
-50
20
8.99675
30
0
11
-50
21
0
31
0
39
0
210
0
220
0
230
1
0
LINE
5
A2
100
AcDbEntity
8
SK1
62
256
6
ByLayer
370
13
48
1
60
0
100
AcDbLine
10
-0.15
20
0
30
0
11
-0.15
21
-9.74675
31
0
39
0
210
0
220
0
230
1
0
LINE
5
A3
100
AcDbEntity
8
SK1
62
256
6
ByLayer
370
13
48
1
60
0
100
AcDbLine
10
-0.15
20
9.74675
30
0
11
-0.15
21
0
31
0
39
0
210
0
220
0
230
1
0
LINE
5
A4
100
AcDbEntity
8
SK1
62
256
6
ByLayer
370
13
48
1
60
0
100
AcDbLine
10
-47.426311
20
-9.888738
30
0
11
-47.426311
21
0
31
0
39
0
210
0
220
0
230
1
0
LINE
5
A5
100
AcDbEntity
8
SK1
62
256
6
ByLayer
370
13
48
1
60
0
100
AcDbLine
10
-47.426311
20
0
30
0
11
-47.426311
21
9.888738
31
0
39
0
210
0
220
0
230
1
0
LINE
5
A6
100
AcDbEntity
8
SK1
62
256
6
ByLayer
370
13
48
1
60
0
100
AcDbLine
10
-48.449692
20
-9.875033
30
0
11
-48.449692
21
0
31
0
39
0
210
0
220
0
230
1
0
LINE
5
A7
100
AcDbEntity
8
SK1
62
256
6
ByLayer
370
13
48
1
60
0
100
AcDbLine
10
-48.449692
20
0
30
0
11
-48.449692
21
9.875033
31
0
39
0
210
0
220
0
230
1
0
LINE
5
A8
100
AcDbEntity
8
1
62
256
6
ByLayer
370
18
48
1
60
0
100
AcDbLine
10
95.929856
20
-0.247667
30
0
11
95.829324
21
-0.651887
31
0
39
0
210
0
220
0
230
1
0
LINE
5
A9
100
AcDbEntity
8
1
62
256
6
ByLayer
370
18
48
1
60
0
100
AcDbLine
10
87.879495
20
-6.950593
30
0
11
87.879495
21
-6.995523
31
0
39
0
210
0
220
0
230
1
0
LINE
5
AA
100
AcDbEntity
8
1
62
256
6
ByLayer
370
13
48
1
60
0
100
AcDbLine
10
90.921614
20
-1.970602
30
0
11
89.480155
21
-1.908825
31
0
39
0
210
0
220
0
230
1
0
LINE
5
AB
100
AcDbEntity
8
1
62
256
6
ByLayer
370
18
48
1
60
0
100
AcDbLine
10
87.33
20
-6.782755
30
0
11
87.33
21
-6.568296
31
0
39
0
210
0
220
0
230
1
0
LINE
5
AC
100
AcDbEntity
8
1
62
256
6
ByLayer
370
13
48
1
60
0
100
AcDbLine
10
87.33
20
-6.568296
30
0
11
87.467349
21
-6.616583
31
0
39
0
210
0
220
0
230
1
0
LINE
5
AD
100
AcDbEntity
8
1
62
256
6
ByLayer
370
18
48
1
60
0
100
AcDbLine
10
92.262286
20
-5.767736
30
0
11
92.265798
21
-5.761233
31
0
39
0
210
0
220
0
230
1
0
LINE
5
AE
100
AcDbEntity
8
1
62
256
6
ByLayer
370
13
48
1
60
0
100
AcDbLine
10
12.416726
20
-2.547757
30
0
11
12.416726
21
-7.936462
31
0
39
0
210
0
220
0
230
1
0
LINE
5
AF
100
AcDbEntity
8
1
62
256
6
ByLayer
370
13
48
1
60
0
100
AcDbLine
10
87.1
20
2.25
30
0
11
87.30718
21
2.25
31
0
39
0
210
0
220
0
230
1
0
LINE
5
B0
100
AcDbEntity
8
1
62
256
6
ByLayer
370
13
48
1
60
0
100
AcDbLine
10
12.497924
20
-2.564545
30
0
11
12.497924
21
-7.878094
31
0
39
0
210
0
220
0
230
1
0
LINE
5
B1
100
AcDbEntity
8
1
62
256
6
ByLayer
370
18
48
1
60
0
100
AcDbLine
10
95.988057
20
0.049713
30
0
11
96
21
0
31
0
39
0
210
0
220
0
230
1
0
LINE
5
B2
100
AcDbEntity
8
1
62
256
6
ByLayer
370
18
48
1
60
0
100
AcDbLine
10
17.4
20
-6.85
30
0
11
17.4
21
-4.387197
31
0
39
0
210
0
220
0
230
1
0
LINE
5
B3
100
AcDbEntity
8
1
62
256
6
ByLayer
370
18
48
1
60
0
100
AcDbLine
10
87.3
20
-6.446898
30
0
11
87.3
21
-6.686824
31
0
39
0
210
0
220
0
230
1
0
LINE
5
B4
100
AcDbEntity
8
1
62
256
6
ByLayer
370
18
48
1
60
0
100
AcDbLine
10
92.265798
20
-2.341407
30
0
11
92.265647
21
-2.3398
31
0
39
0
210
0
220
0
230
1
0
LINE
5
B5
100
AcDbEntity
8
1
62
256
6
ByLayer
370
18
48
1
60
0
100
AcDbLine
10
90.81085
20
-2.024167
30
0
11
90.921614
21
-1.970602
31
0
39
0
210
0
220
0
230
1
0
LINE
5
B6
100
AcDbEntity
8
1
62
256
6
ByLayer
370
18
48
1
60
0
100
AcDbLine
10
88.272887
20
-6.254821
30
0
11
91.703356
21
-6.254821
31
0
39
0
210
0
220
0
230
1
0
LINE
5
B7
100
AcDbEntity
8
1
62
256
6
ByLayer
370
18
48
1
60
0
100
AcDbLine
10
91.709198
20
-6.252327
30
0
11
92.262286
21
-5.767736
31
0
39
0
210
0
220
0
230
1
0
LINE
5
B8
100
AcDbEntity
8
1
62
256
6
ByLayer
370
13
48
1
60
0
100
AcDbLine
10
5.0009
20
0
30
0
11
5.0009
21
-12.5
31
0
39
0
210
0
220
0
230
1
0
LINE
5
B9
100
AcDbEntity
8
1
62
256
6
ByLayer
370
13
48
1
60
0
100
AcDbLine
10
5.0009
20
12.5
30
0
11
5.0009
21
0
31
0
39
0
210
0
220
0
230
1
0
LINE
5
BA
100
AcDbEntity
8
1
62
256
6
ByLayer
370
18
48
1
60
0
100
AcDbLine
10
95.918338
20
-0.236587
30
0
11
96
21
0
31
0
39
0
210
0
220
0
230
1
0
LINE
5
BB
100
AcDbEntity
8
1
62
256
6
ByLayer
370
13
48
1
60
0
100
AcDbLine
10
95.097519
20
-1.908759
30
0
11
94.224658
21
-1.336228
31
0
39
0
210
0
220
0
230
1
0
LINE
5
BC
100
AcDbEntity
8
1
62
256
6
ByLayer
370
18
48
1
60
0
100
AcDbLine
10
95.303923
20
-2.371138
30
0
11
95.266526
21
-2.481812
31
0
39
0
210
0
220
0
230
1
0
LINE
5
BD
100
AcDbEntity
8
1
62
256
6
ByLayer
370
18
48
1
60
0
100
AcDbLine
10
17.4
20
6.85
30
0
11
17.4
21
5.025565
31
0
39
0
210
0
220
0
230
1
0
LINE
5
BE
100
AcDbEntity
8
1
62
256
6
ByLayer
370
13
48
1
60
0
100
AcDbLine
10
95.200961
20
0.654813
30
0
11
95.954371
21
0.160634
31
0
39
0
210
0
220
0
230
1
0
LINE
5
BF
100
AcDbEntity
8
1
62
256
6
ByLayer
370
18
48
1
60
0
100
AcDbLine
10
93.641355
20
-6.833315
30
0
11
95.67178
21
-0.950897
31
0
39
0
210
0
220
0
230
1
0
LINE
5
C0
100
AcDbEntity
8
1
62
256
6
ByLayer
370
13
48
1
60
0
100
AcDbLine
10
95.929856
20
0.247667
30
0
11
95.248889
21
0.694329
31
0
39
0
210
0
220
0
230
1
0
LINE
5
C1
100
AcDbEntity
8
1
62
256
6
ByLayer
370
18
48
1
60
0
100
AcDbLine
10
91.72422
20
-5.219655
30
0
11
92.265798
21
-5.761233
31
0
39
0
210
0
220
0
230
1
0
LINE
5
C2
100
AcDbEntity
8
1
62
256
6
ByLayer
370
18
48
1
60
0
100
AcDbLine
10
90.301687
20
0.03246
30
0
11
90.166184
21
-0.033068
31
0
39
0
210
0
220
0
230
1
0
LINE
5
C3
100
AcDbEntity
8
1
62
256
6
ByLayer
370
18
48
1
60
0
100
AcDbLine
10
92.265798
20
-5.761233
30
0
11
92.265798
21
-2.341407
31
0
39
0
210
0
220
0
230
1
0
LINE
5
C4
100
AcDbEntity
8
1
62
256
6
ByLayer
370
18
48
1
60
0
100
AcDbLine
10
87.33
20
-6.533578
30
0
11
87.33
21
-6.39025
31
0
39
0
210
0
220
0
230
1
0
LINE
5
C5
100
AcDbEntity
8
1
62
256
6
ByLayer
370
13
48
1
60
0
100
AcDbLine
10
94.476989
20
2.38577
30
0
11
95.303923
21
2.371138
31
0
39
0
210
0
220
0
230
1
0
LINE
5
C6
100
AcDbEntity
8
1
62
256
6
ByLayer
370
18
48
1
60
0
100
AcDbLine
10
16
20
6.75
30
0
11
16
21
4.706602
31
0
39
0
210
0
220
0
230
1
0
LINE
5
C7
100
AcDbEntity
8
1
62
256
6
ByLayer
370
13
48
1
60
0
100
AcDbLine
10
12.416726
20
7.936462
30
0
11
12.416726
21
3.929504
31
0
39
0
210
0
220
0
230
1
0
LINE
5
C8
100
AcDbEntity
8
1
62
256
6
ByLayer
370
18
48
1
60
0
100
AcDbLine
10
87.30718
20
1.845643
30
0
11
87.30718
21
2.25
31
0
39
0
210
0
220
0
230
1
0
LINE
5
C9
100
AcDbEntity
8
1
62
256
6
ByLayer
370
18
48
1
60
0
100
AcDbLine
10
79.699792
20
-0.322401
30
0
11
79.699792
21
3.924615
31
0
39
0
210
0
220
0
230
1
0
LINE
5
CA
100
AcDbEntity
8
1
62
256
6
ByLayer
370
18
48
1
60
0
100
AcDbLine
10
91.703356
20
-6.254821
30
0
11
91.709198
21
-6.252327
31
0
39
0
210
0
220
0
230
1
0
LINE
5
CB
100
AcDbEntity
8
1
62
256
6
ByLayer
370
13
48
1
60
0
100
AcDbLine
10
95.248889
20
0.694329
30
0
11
95.829324
21
0.651887
31
0
39
0
210
0
220
0
230
1
0
LINE
5
CC
100
AcDbEntity
8
1
62
256
6
ByLayer
370
13
48
1
60
0
100
AcDbLine
10
89.268626
20
-2.024162
30
0
11
89.480155
21
-1.908825
31
0
39
0
210
0
220
0
230
1
0
LINE
5
CD
100
AcDbEntity
8
1
62
256
6
ByLayer
370
18
48
1
60
0
100
AcDbLine
10
90.972656
20
-2.3398
30
0
11
92.265647
21
-2.3398
31
0
39
0
210
0
220
0
230
1
0
LINE
5
CE
100
AcDbEntity
8
1
62
256
6
ByLayer
370
18
48
1
60
0
100
AcDbLine
10
0.2
20
0
30
0
11
0.2
21
-12.5
31
0
39
0
210
0
220
0
230
1
0
LINE
5
CF
100
AcDbEntity
8
1
62
256
6
ByLayer
370
18
48
1
60
0
100
AcDbLine
10
0.2
20
12.5
30
0
11
0.2
21
0
31
0
39
0
210
0
220
0
230
1
0
LINE
5
D0
100
AcDbEntity
8
1
62
256
6
ByLayer
370
13
48
1
60
0
100
AcDbLine
10
12.497924
20
7.878094
30
0
11
12.497924
21
3.933177
31
0
39
0
210
0
220
0
230
1
0
LINE
5
D1
100
AcDbEntity
8
1
62
256
6
ByLayer
370
18
48
1
60
0
100
AcDbLine
10
92.265647
20
-2.3398
30
0
11
91.360378
21
0.834959
31
0
39
0
210
0
220
0
230
1
0
LINE
5
D2
100
AcDbEntity
8
1
62
256
6
ByLayer
370
18
48
1
60
0
100
AcDbLine
10
19.36
20
-6.85
30
0
11
19.36
21
-4.671164
31
0
39
0
210
0
220
0
230
1
0
LINE
5
D3
100
AcDbEntity
8
1
62
256
6
ByLayer
370
18
48
1
60
0
100
AcDbLine
10
88.13
20
-6.29971
30
0
11
88.13
21
-6.241158
31
0
39
0
210
0
220
0
230
1
0
LINE
5
D4
100
AcDbEntity
8
1
62
256
6
ByLayer
370
18
48
1
60
0
100
AcDbLine
10
88.13
20
1.330153
30
0
11
88.13
21
1.458774
31
0
39
0
210
0
220
0
230
1
0
LINE
5
D5
100
AcDbEntity
8
1
62
256
6
ByLayer
370
18
48
1
60
0
100
AcDbLine
10
87.2
20
-6.790492
30
0
11
87.2
21
-6.542408
31
0
39
0
210
0
220
0
230
1
0
LINE
5
D6
100
AcDbEntity
8
1
62
256
6
ByLayer
370
18
48
1
60
0
100
AcDbLine
10
87.33
20
-6.568296
30
0
11
87.33
21
-6.533578
31
0
39
0
210
0
220
0
230
1
0
LINE
5
D7
100
AcDbEntity
8
1
62
256
6
ByLayer
370
18
48
1
60
0
100
AcDbLine
10
93.827405
20
-3.403557
30
0
11
95.097519
21
-1.908759
31
0
39
0
210
0
220
0
230
1
0
LINE
5
D8
100
AcDbEntity
8
1
62
256
6
ByLayer
370
18
48
1
60
0
100
AcDbLine
10
19.36
20
6.85
30
0
11
19.36
21
6.80867
31
0
39
0
210
0
220
0
230
1
0
LINE
5
D9
100
AcDbEntity
8
1
62
256
6
ByLayer
370
18
48
1
60
0
100
AcDbLine
10
95.303923
20
2.371138
30
0
11
95.266526
21
2.481812
31
0
39
0
210
0
220
0
230
1
0
LINE
5
DA
100
AcDbEntity
8
1
62
256
6
ByLayer
370
18
48
1
60
0
100
AcDbLine
10
95.929856
20
0.247667
30
0
11
95.829324
21
0.651887
31
0
39
0
210
0
220
0
230
1
0
LINE
5
DB
100
AcDbEntity
8
1
62
256
6
ByLayer
370
18
48
1
60
0
100
AcDbLine
10
87.3
20
1.610158
30
0
11
87.3
21
1.831257
31
0
39
0
210
0
220
0
230
1
0
LINE
5
DC
100
AcDbEntity
8
1
62
256
6
ByLayer
370
18
48
1
60
0
100
AcDbLine
10
16
20
-6.75
30
0
11
16
21
-3.950645
31
0
39
0
210
0
220
0
230
1
0
LINE
5
DD
100
AcDbEntity
8
1
62
256
6
ByLayer
370
18
48
1
60
0
100
AcDbLine
10
90.810761
20
-2.024162
30
0
11
89.268626
21
-2.024162
31
0
39
0
210
0
220
0
230
1
0
LINE
5
DE
100
AcDbEntity
8
1
62
256
6
ByLayer
370
18
48
1
60
0
100
AcDbLine
10
96
20
0
30
0
11
95.988057
21
-0.049713
31
0
39
0
210
0
220
0
230
1
0
LINE
5
DF
100
AcDbEntity
8
1
62
256
6
ByLayer
370
18
48
1
60
0
100
AcDbLine
10
0
20
12.3
30
0
11
0
21
-12.3
31
0
39
0
210
0
220
0
230
1
0
LINE
5
E0
100
AcDbEntity
8
1
62
256
6
ByLayer
370
18
48
1
60
0
100
AcDbLine
10
92.63289
20
-6.299713
30
0
11
93.618777
21
-3.648116
31
0
39
0
210
0
220
0
230
1
0
LINE
5
E1
100
AcDbEntity
8
1
62
256
6
ByLayer
370
18
48
1
60
0
100
AcDbLine
10
89.268626
20
-0.047669
30
0
11
90.031937
21
-0.047669
31
0
39
0
210
0
220
0
230
1
0
LINE
5
E2
100
AcDbEntity
8
1
62
256
6
ByLayer
370
18
48
1
60
0
100
AcDbLine
10
87.3
20
3.25
30
0
11
87.3
21
2.68589
31
0
39
0
210
0
220
0
230
1
0
LINE
5
E3
100
AcDbEntity
8
1
62
256
6
ByLayer
370
13
48
1
60
0
100
AcDbLine
10
93.827405
20
-3.403557
30
0
11
94.224658
21
-1.336228
31
0
39
0
210
0
220
0
230
1
0
MTEXT
5
190
100
AcDbEntity
8
SK6
62
256
6
ByLayer
370
13
48
1
60
0
100
AcDbMText
10
3.982603
20
29.375134
30
0
210
0
220
0
230
1
1
\W0.7185;870-1400-14L20-5
40
3.5
41
0
44
1.084337
50
0
71
7
72
5
7
iso_b_vert
0
DIMENSION
5
19E
100
AcDbEntity
8
2
62
256
6
ByLayer
370
13
48
1
60
0
100
AcDbDimension
2
DimnDraft3D1
10
16
20
-20
30
0
11
56
21
-20
31
0
70
32
71
5
72
1
41
1
210
0
220
0
230
1
3
Standard
100
AcDbAlignedDimension
13
96
23
-1.5875
33
0
14
16
24
-8.5875
34
0
50
0
100
AcDbRotatedDimension
1001
ACAD
1000
DSTYLE
1002
{
1070
   279
1070
     0
1070
   172
1070
     1
1070
   173
1070
     1
1070
   340
1005
191
1070
   271
1070
     1
1070
   272
1070
     2
1070
    77
1070
     1
1070
    73
1070
     0
1070
   171
1070
     3
1070
   274
1070
     4
1070
   177
1070
     7
1070
   176
1070
     7
1070
   178
1070
     7
1070
    48
1040
-0.005
1070
    41
1041
3.5
1070
   147
1041
1.5
1070
    42
1041
1.5875
1070
    44
1041
2.0
1070
   140
1041
3.0
1070
   343
1005
0
1070
   344
1005
0
1002
}
0
DIMENSION
5
1A8
100
AcDbEntity
8
2
62
256
6
ByLayer
370
13
48
1
60
0
100
AcDbDimension
2
DimnDraft3D2
10
18.73
20
14
30
0
11
57.365
21
14
31
0
70
32
71
5
72
1
41
1
210
0
220
0
230
1
3
Standard
100
AcDbAlignedDimension
13
96
23
1.5875
33
0
14
18.73
24
8.5875
34
0
50
0
100
AcDbRotatedDimension
1001
ACAD
1000
DSTYLE
1002
{
1070
   279
1070
     0
1070
   172
1070
     1
1070
   173
1070
     1
1070
   340
1005
191
1070
   271
1070
     1
1070
   272
1070
     2
1070
    77
1070
     1
1070
    73
1070
     0
1070
   171
1070
     3
1070
   274
1070
     4
1070
   177
1070
     7
1070
   176
1070
     7
1070
   178
1070
     7
1070
    48
1040
-0.005
1070
    41
1041
3.5
1070
   147
1041
1.5
1070
    42
1041
1.5875
1070
    44
1041
2.0
1070
   140
1041
3.0
1070
   343
1005
0
1070
   344
1005
0
1002
}
0
DIMENSION
5
1B3
100
AcDbEntity
8
SK2
62
256
6
ByLayer
370
13
48
1
60
0
100
AcDbDimension
2
DimnDraft3D3
10
0
20
-33
30
0
11
-25
21
-33
31
0
70
32
71
5
72
1
41
1
210
0
220
0
230
1
3
Standard
100
AcDbAlignedDimension
13
-50
23
-11.5875
33
0
14
0
24
-14.0875
34
0
50
0
100
AcDbRotatedDimension
1001
ACAD
1000
DSTYLE
1002
{
1070
   279
1070
     0
1070
   172
1070
     1
1070
   173
1070
     1
1070
   340
1005
191
1070
   271
1070
     1
1070
   272
1070
     2
1070
    77
1070
     1
1070
    73
1070
     0
1070
   171
1070
     3
1070
   274
1070
     4
1070
   177
1070
     7
1070
   176
1070
     7
1070
   178
1070
     7
1070
    48
1040
-0.005
1070
    41
1041
3.5
1070
   147
1041
1.5
1070
    42
1041
1.5875
1070
    44
1041
2.0
1070
   140
1041
3.0
1070
   343
1005
0
1070
   344
1005
0
1002
}
0
DIMENSION
5
1BD
100
AcDbEntity
8
2
62
256
6
ByLayer
370
13
48
1
60
0
100
AcDbDimension
2
DimnDraft3D4
10
96
20
-33
30
0
11
48
21
-33
31
0
70
32
71
5
72
1
41
1
210
0
220
0
230
1
3
Standard
100
AcDbAlignedDimension
13
0
23
-14.0875
33
0
14
96
24
-1.5875
34
0
50
0
100
AcDbRotatedDimension
1001
ACAD
1000
DSTYLE
1002
{
1070
   279
1070
     0
1070
   172
1070
     1
1070
   173
1070
     1
1070
   340
1005
191
1070
   271
1070
     1
1070
   272
1070
     2
1070
    77
1070
     1
1070
    73
1070
     0
1070
   171
1070
     3
1070
   274
1070
     4
1070
   177
1070
     7
1070
   176
1070
     7
1070
   178
1070
     7
1070
    48
1040
-0.005
1070
    41
1041
3.5
1070
   147
1041
1.5
1070
    42
1041
1.5875
1070
    44
1041
2.0
1070
   140
1041
3.0
1070
   343
1005
0
1070
   344
1005
0
1002
}
0
DIMENSION
5
1C8
100
AcDbEntity
8
SK2
62
256
6
ByLayer
370
13
48
1
60
0
100
AcDbDimension
2
DimnDraft3D5
10
-58.25
20
-10
30
0
11
-58.5
21
-0.520456
31
0
70
33
71
5
72
1
41
1
210
0
220
0
230
1
3
Standard
100
AcDbAlignedDimension
13
-51.5875
23
10
33
0
14
-51.5875
24
-10
34
0
1001
ACAD
1000
DSTYLE
1002
{
1070
   279
1070
     0
1070
    74
1070
     0
1070
   173
1070
     1
1070
   340
1005
191
1070
   271
1070
     1
1070
   272
1070
     2
1070
    77
1070
     1
1070
    73
1070
     0
1070
   171
1070
     3
1070
   274
1070
     4
1070
   177
1070
     7
1070
   176
1070
     7
1070
   178
1070
     7
1070
    48
1040
-0.005
1070
    41
1041
3.5
1070
   147
1041
1.5
1070
    42
1041
1.5875
1070
    44
1041
2.0
1070
   140
1041
3.0
1070
   343
1005
0
1070
   344
1005
0
1002
}
0
ENDSEC
0
SECTION
2
OBJECTS
0
DICTIONARY
5
233
330
0
100
AcDbDictionary
280
0
281
1
3
ACAD_GROUP
350
234
3
ACAD_MLINESTYLE
350
235
0
DICTIONARY
5
234
330
0
100
AcDbDictionary
280
0
281
1
0
DICTIONARY
5
235
330
0
100
AcDbDictionary
280
0
281
1
3
Standard
350
18
0
MLINESTYLE
5
18
330
235
100
AcDbMlineStyle
2
Standard
70
0
3

62
256
51
90
52
90
71
2
49
-0.5
62
256
6
ByLayer
49
0.5
62
256
6
ByLayer
0
RASTERVARIABLES
5
221
330

100
AcDbRasterVariables
90
0
70
1
71
1
72
1
0
ENDSEC
0
EOF
