0
SECTION
2
HEADER
9
$ACADVER
1
AC1015
9
$DWGCODEPAGE
3
ANSI_1252
9
$HANDSEED
5
23d
9
$ANGBASE
50
0
9
$ANGDIR
70
0
9
$ATTMODE
70
1
9
$AUNITS
70
0
9
$AUPREC
70
0
9
$CECOLOR
62
256
9
$CELTSCALE
40
1
9
$CELTYPE
6
ByLayer
9
$CELWEIGHT
370
18
9
$CLAYER
8
0
9
$CMLJUST
70
0
9
$CMLSCALE
40
1
9
$CMLSTYLE
2
Standard
9
$DIMSTYLE
2
Standard
9
$TEXTSIZE
40
0.2
9
$TEXTSTYLE
7
Standard
9
$LUNITS
70
2
9
$LUPREC
70
4
9
$EXTNAMES
290
1
9
$INSUNITS
70
4
9
$LTSCALE
40
1
9
$LWDISPLAY
290
1
9
$PDMODE
70
0
9
$PDSIZE
40
0
9
$PLINEGEN
70
0
0
ENDSEC
0
SECTION
2
CLASSES
0
CLASS
1
RASTERVARIABLES
2
AcDbRasterVariables
3
ISM
90
0
280
0
281
0
0
ENDSEC
0
SECTION
2
TABLES
0
TABLE
2
VPORT
5
233
100
AcDbSymbolTable
0
VPORT
5
1
100
AcDbSymbolTableRecord
100
AcDbViewportTableRecord
2
*Active
70
0
10
0
20
0
11
1
21
1
12
-1
22
1
13
0
23
0
14
0.5
24
0.5
15
10
25
10
16
0
26
0
36
1
17
0
27
0
37
0
0
ENDTAB
0
TABLE
2
LTYPE
5
234
100
AcDbSymbolTable
0
LTYPE
5
14
100
AcDbSymbolTableRecord
100
AcDbLinetypeTableRecord
70
0
2
ByBlock
3

72
65
73
0
40
0
0
LTYPE
5
15
100
AcDbSymbolTableRecord
100
AcDbLinetypeTableRecord
70
0
2
ByLayer
3

72
65
73
0
40
0
0
LTYPE
5
16
100
AcDbSymbolTableRecord
100
AcDbLinetypeTableRecord
70
0
2
CONTINUOUS
3
Solid line
72
65
73
0
40
0
0
LTYPE
5
6A
100
AcDbSymbolTableRecord
100
AcDbLinetypeTableRecord
70
0
2
CENTER
3
____ _ ____ _ ____ _ ____
72
65
73
4
40
47.5
49
22
74
0
49
-8.5
74
0
49
8.5
74
0
49
-8.5
74
0
0
LTYPE
5
6B
100
AcDbSymbolTableRecord
100
AcDbLinetypeTableRecord
70
0
2
DASHED
3
__ __ __ __ __ __ __ __ __
72
65
73
2
40
25.72
49
12.86
74
0
49
-12.86
74
0
0
ENDTAB
0
TABLE
2
LAYER
5
235
100
AcDbSymbolTable
0
LAYER
5
10
100
AcDbSymbolTableRecord
100
AcDbLayerTableRecord
2
0
70
0
62
7
6
CONTINUOUS
290
1
370
-3
390
0
0
LAYER
5
6D
100
AcDbSymbolTableRecord
100
AcDbLayerTableRecord
2
80
70
0
62
-6
6
CONTINUOUS
290
1
370
-3
390
0
0
LAYER
5
6F
100
AcDbSymbolTableRecord
100
AcDbLayerTableRecord
2
81
70
0
62
-3
6
CONTINUOUS
290
1
370
-3
390
0
0
LAYER
5
72
100
AcDbSymbolTableRecord
100
AcDbLayerTableRecord
2
1
70
0
62
4
6
CONTINUOUS
290
1
370
-3
390
0
0
LAYER
5
8F
100
AcDbSymbolTableRecord
100
AcDbLayerTableRecord
2
4
70
0
62
-2
6
CENTER
290
1
370
-3
390
0
0
LAYER
5
193
100
AcDbSymbolTableRecord
100
AcDbLayerTableRecord
2
2
70
0
62
7
6
CONTINUOUS
290
1
370
-3
390
0
0
LAYER
5
21f
100
AcDbSymbolTableRecord
100
AcDbLayerTableRecord
2
SK1
70
0
62
4
6
CONTINUOUS
290
1
370
-3
390
0
0
LAYER
5
220
100
AcDbSymbolTableRecord
100
AcDbLayerTableRecord
2
SK4
70
0
62
2
6
CENTER
290
1
370
-3
390
0
0
LAYER
5
221
100
AcDbSymbolTableRecord
100
AcDbLayerTableRecord
2
SK6
70
0
62
5
6
CONTINUOUS
290
1
370
-3
390
0
0
LAYER
5
222
100
AcDbSymbolTableRecord
100
AcDbLayerTableRecord
2
SK2
70
0
62
7
6
CONTINUOUS
290
1
370
-3
390
0
0
ENDTAB
0
TABLE
2
STYLE
5
236
100
AcDbSymbolTable
0
STYLE
5
11
100
AcDbSymbolTableRecord
100
AcDbTextStyleTableRecord
2
Standard
3
txt
70
0
71
0
40
0
41
1
42
0
50
0
0
STYLE
5
18E
100
AcDbSymbolTableRecord
100
AcDbTextStyleTableRecord
2
iso_b_vert
3
simplex.shx
70
0
71
0
40
0
41
1
42
0
50
0
0
STYLE
5
18F
100
AcDbSymbolTableRecord
100
AcDbTextStyleTableRecord
2
DWGDirectTextStyle
3
simplex
70
0
71
0
40
0
41
1
42
0
50
0
0
ENDTAB
0
TABLE
2
DIMSTYLE
5
237
100
AcDbSymbolTable
100
AcDbDimStyleTable
0
DIMSTYLE
105
27
100
AcDbSymbolTableRecord
100
AcDbDimStyleTableRecord
2
Standard
70
0
3
<>
41
0.18
42
0.0625
44
0.18
140
0.18
147
0.09
73
0
74
0
77
1
271
2
275
0
278
52
280
0
340
11
0
ENDTAB
0
TABLE
2
VIEW
5
238
100
AcDbSymbolTable
0
ENDTAB
0
TABLE
2
UCS
5
239
100
AcDbSymbolTable
0
ENDTAB
0
TABLE
2
APPID
5
23a
100
AcDbSymbolTable
0
APPID
5
12
100
AcDbSymbolTableRecord
100
AcDbRegAppTableRecord
2
ACAD
70
0
0
ENDTAB
0
TABLE
2
BLOCK_RECORD
5
23b
100
AcDbSymbolTable
0
BLOCK_RECORD
5
1F
100
AcDbSymbolTableRecord
100
AcDbBlockTableRecord
2
*Model_Space
340
0
70
0
0
BLOCK_RECORD
5
1B
100
AcDbSymbolTableRecord
100
AcDbBlockTableRecord
2
*Paper_Space
340
0
70
0
0
BLOCK_RECORD
5
23
100
AcDbSymbolTableRecord
100
AcDbBlockTableRecord
2
*Paper_Space0
340
0
70
0
0
BLOCK_RECORD
5
191
100
AcDbSymbolTableRecord
100
AcDbBlockTableRecord
2
DimnDraft3D1
340
0
70
0
0
BLOCK_RECORD
5
19C
100
AcDbSymbolTableRecord
100
AcDbBlockTableRecord
2
DimnDraft3D2
340
0
70
0
0
BLOCK_RECORD
5
1A6
100
AcDbSymbolTableRecord
100
AcDbBlockTableRecord
2
DimnDraft3D3
340
0
70
0
0
BLOCK_RECORD
5
1B1
100
AcDbSymbolTableRecord
100
AcDbBlockTableRecord
2
DimnDraft3D4
340
0
70
0
0
BLOCK_RECORD
5
1BB
100
AcDbSymbolTableRecord
100
AcDbBlockTableRecord
2
DimnDraft3D5
340
0
70
0
0
ENDTAB
0
ENDSEC
0
SECTION
2
BLOCKS
0
BLOCK
5
20
100
AcDbEntity
8
0
100
AcDbBlockBegin
2
*Model_Space
70
0
10
0
20
0
30
0
3
*Model_Space
0
ENDBLK
5
21
100
AcDbEntity
8
0
100
AcDbBlockEnd
0
BLOCK
5
1C
100
AcDbEntity
8
0
100
AcDbBlockBegin
2
*Paper_Space
70
0
10
0
20
0
30
0
3
*Paper_Space
0
ENDBLK
5
1D
100
AcDbEntity
8
0
100
AcDbBlockEnd
0
BLOCK
5
24
100
AcDbEntity
8
0
100
AcDbBlockBegin
2
*Paper_Space0
70
0
10
0
20
0
30
0
3
*Paper_Space0
0
ENDBLK
5
25
100
AcDbEntity
8
0
100
AcDbBlockEnd
0
BLOCK
5
199
100
AcDbEntity
8
0
100
AcDbBlockBegin
2
DimnDraft3D1
70
0
10
0
20
0
30
0
3
DimnDraft3D1
0
MTEXT
5
192
100
AcDbEntity
8
2
62
256
6
ByLayer
370
13
48
1
60
0
100
AcDbMText
10
43.229544
20
-18.249886
30
0
210
0
220
0
230
1
1
\W0.7346;66.0
40
3
41
0
44
1.084337
50
0
71
7
72
5
7
iso_b_vert
0
LINE
5
194
100
AcDbEntity
8
2
62
256
6
ByLayer
370
13
48
1
60
0
100
AcDbLine
10
79
20
-1.5875
30
0
11
79
21
-21
31
0
39
0
210
0
220
0
230
1
0
LINE
5
195
100
AcDbEntity
8
2
62
256
6
ByLayer
370
13
48
1
60
0
100
AcDbLine
10
13
20
-7.5875
30
0
11
13
21
-21
31
0
39
0
210
0
220
0
230
1
0
LINE
5
196
100
AcDbEntity
8
2
62
256
6
ByLayer
370
13
48
1
60
0
100
AcDbLine
10
79
20
-19
30
0
11
13
21
-19
31
0
39
0
210
0
220
0
230
1
0
SOLID
5
197
100
AcDbEntity
8
2
62
256
6
ByLayer
370
13
48
1
60
0
100
AcDbTrace
10
79
20
-19
30
0
11
75.500002
21
-19.460784
31
0
12
75.499998
22
-18.539216
32
0
13
79
23
-19
33
0
39
0
210
0
220
0
230
1
0
SOLID
5
198
100
AcDbEntity
8
2
62
256
6
ByLayer
370
13
48
1
60
0
100
AcDbTrace
10
13
20
-19
30
0
11
16.499998
21
-18.539216
31
0
12
16.500002
22
-19.460784
32
0
13
13
23
-19
33
0
39
0
210
0
220
0
230
1
0
ENDBLK
5
19A
100
AcDbEntity
8
0
100
AcDbBlockEnd
0
BLOCK
5
1A3
100
AcDbEntity
8
0
100
AcDbBlockBegin
2
DimnDraft3D2
70
0
10
0
20
0
30
0
3
DimnDraft3D2
0
MTEXT
5
19D
100
AcDbEntity
8
2
62
256
6
ByLayer
370
13
48
1
60
0
100
AcDbMText
10
43.722158
20
13.750114
30
0
210
0
220
0
230
1
1
\W0.7865;64.4
40
3
41
0
44
1.084337
50
0
71
7
72
5
7
iso_b_vert
0
LINE
5
19E
100
AcDbEntity
8
2
62
256
6
ByLayer
370
13
48
1
60
0
100
AcDbLine
10
79
20
1.5875
30
0
11
79
21
15
31
0
39
0
210
0
220
0
230
1
0
LINE
5
19F
100
AcDbEntity
8
2
62
256
6
ByLayer
370
13
48
1
60
0
100
AcDbLine
10
14.617
20
7.5875
30
0
11
14.617
21
15
31
0
39
0
210
0
220
0
230
1
0
LINE
5
1A0
100
AcDbEntity
8
2
62
256
6
ByLayer
370
13
48
1
60
0
100
AcDbLine
10
79
20
13
30
0
11
14.617
21
13
31
0
39
0
210
0
220
0
230
1
0
SOLID
5
1A1
100
AcDbEntity
8
2
62
256
6
ByLayer
370
13
48
1
60
0
100
AcDbTrace
10
79
20
13
30
0
11
75.500002
21
12.539216
31
0
12
75.499998
22
13.460784
32
0
13
79
23
13
33
0
39
0
210
0
220
0
230
1
0
SOLID
5
1A2
100
AcDbEntity
8
2
62
256
6
ByLayer
370
13
48
1
60
0
100
AcDbTrace
10
14.617
20
13
30
0
11
18.116998
21
13.460784
31
0
12
18.117002
22
12.539216
32
0
13
14.617
23
13
33
0
39
0
210
0
220
0
230
1
0
ENDBLK
5
1A4
100
AcDbEntity
8
0
100
AcDbBlockEnd
0
BLOCK
5
1AE
100
AcDbEntity
8
0
100
AcDbBlockBegin
2
DimnDraft3D3
70
0
10
0
20
0
30
0
3
DimnDraft3D3
0
MTEXT
5
1A7
100
AcDbEntity
8
SK2
62
256
6
ByLayer
370
13
48
1
60
0
100
AcDbMText
10
-26.928399
20
-30.249886
30
0
210
0
220
0
230
1
1
\W0.7640;48.0
40
3
41
0
44
1.084337
50
0
71
7
72
5
7
iso_b_vert
0
LINE
5
1A9
100
AcDbEntity
8
SK2
62
256
6
ByLayer
370
13
48
1
60
0
100
AcDbLine
10
-48
20
-9.5875
30
0
11
-48
21
-33
31
0
39
0
210
0
220
0
230
1
0
LINE
5
1AA
100
AcDbEntity
8
SK2
62
256
6
ByLayer
370
13
48
1
60
0
100
AcDbLine
10
0
20
-11.5875
30
0
11
0
21
-33
31
0
39
0
210
0
220
0
230
1
0
LINE
5
1AB
100
AcDbEntity
8
SK2
62
256
6
ByLayer
370
13
48
1
60
0
100
AcDbLine
10
-48
20
-31
30
0
11
0
21
-31
31
0
39
0
210
0
220
0
230
1
0
SOLID
5
1AC
100
AcDbEntity
8
SK2
62
256
6
ByLayer
370
13
48
1
60
0
100
AcDbTrace
10
-48
20
-31
30
0
11
-44.500002
21
-30.539216
31
0
12
-44.499998
22
-31.460784
32
0
13
-48
23
-31
33
0
39
0
210
0
220
0
230
1
0
SOLID
5
1AD
100
AcDbEntity
8
SK2
62
256
6
ByLayer
370
13
48
1
60
0
100
AcDbTrace
10
0
20
-31
30
0
11
-3.499998
21
-31.460784
31
0
12
-3.500002
22
-30.539216
32
0
13
0
23
-31
33
0
39
0
210
0
220
0
230
1
0
ENDBLK
5
1AF
100
AcDbEntity
8
0
100
AcDbBlockEnd
0
BLOCK
5
1B8
100
AcDbEntity
8
0
100
AcDbBlockBegin
2
DimnDraft3D4
70
0
10
0
20
0
30
0
3
DimnDraft3D4
0
MTEXT
5
1B2
100
AcDbEntity
8
2
62
256
6
ByLayer
370
13
48
1
60
0
100
AcDbMText
10
36.729544
20
-30.249886
30
0
210
0
220
0
230
1
1
\W0.7346;79.0
40
3
41
0
44
1.084337
50
0
71
7
72
5
7
iso_b_vert
0
LINE
5
1B3
100
AcDbEntity
8
2
62
256
6
ByLayer
370
13
48
1
60
0
100
AcDbLine
10
0
20
-11.5875
30
0
11
0
21
-33
31
0
39
0
210
0
220
0
230
1
0
LINE
5
1B4
100
AcDbEntity
8
2
62
256
6
ByLayer
370
13
48
1
60
0
100
AcDbLine
10
79
20
-1.5875
30
0
11
79
21
-33
31
0
39
0
210
0
220
0
230
1
0
LINE
5
1B5
100
AcDbEntity
8
2
62
256
6
ByLayer
370
13
48
1
60
0
100
AcDbLine
10
0
20
-31
30
0
11
79
21
-31
31
0
39
0
210
0
220
0
230
1
0
SOLID
5
1B6
100
AcDbEntity
8
2
62
256
6
ByLayer
370
13
48
1
60
0
100
AcDbTrace
10
0
20
-31
30
0
11
3.499998
21
-30.539216
31
0
12
3.500002
22
-31.460784
32
0
13
0
23
-31
33
0
39
0
210
0
220
0
230
1
0
SOLID
5
1B7
100
AcDbEntity
8
2
62
256
6
ByLayer
370
13
48
1
60
0
100
AcDbTrace
10
79
20
-31
30
0
11
75.500002
21
-31.460784
31
0
12
75.499998
22
-30.539216
32
0
13
79
23
-31
33
0
39
0
210
0
220
0
230
1
0
ENDBLK
5
1B9
100
AcDbEntity
8
0
100
AcDbBlockEnd
0
BLOCK
5
1C3
100
AcDbEntity
8
0
100
AcDbBlockBegin
2
DimnDraft3D5
70
0
10
0
20
0
30
0
3
DimnDraft3D5
0
MTEXT
5
1BC
100
AcDbEntity
8
SK2
62
256
6
ByLayer
370
13
48
1
60
0
100
AcDbMText
10
-55.750114
20
0.604486
30
0
210
0
220
0
230
1
1
\W0.6563;16.0
40
3
41
0
44
1.084337
50
90
71
7
72
5
7
iso_b_vert
0
MTEXT
5
1BD
100
AcDbEntity
8
SK2
62
256
6
ByLayer
370
13
48
1
60
0
100
AcDbMText
10
-55.750114
20
-3.872076
30
0
210
0
220
0
230
1
1
%%c
40
3
41
0
44
1.084337
50
90
71
7
72
5
7
iso_b_vert
0
LINE
5
1BE
100
AcDbEntity
8
SK2
62
256
6
ByLayer
370
13
48
1
60
0
100
AcDbLine
10
-49.5875
20
8
30
0
11
-56.25
21
8
31
0
39
0
210
0
220
0
230
1
0
LINE
5
1BF
100
AcDbEntity
8
SK2
62
256
6
ByLayer
370
13
48
1
60
0
100
AcDbLine
10
-49.5875
20
-8
30
0
11
-56.25
21
-8
31
0
39
0
210
0
220
0
230
1
0
LINE
5
1C0
100
AcDbEntity
8
SK2
62
256
6
ByLayer
370
13
48
1
60
0
100
AcDbLine
10
-54.25
20
8
30
0
11
-54.25
21
-8
31
0
39
0
210
0
220
0
230
1
0
SOLID
5
1C1
100
AcDbEntity
8
SK2
62
256
6
ByLayer
370
13
48
1
60
0
100
AcDbTrace
10
-54.25
20
8
30
0
11
-53.789216
21
4.500002
31
0
12
-54.710784
22
4.499998
32
0
13
-54.25
23
8
33
0
39
0
210
0
220
0
230
1
0
SOLID
5
1C2
100
AcDbEntity
8
SK2
62
256
6
ByLayer
370
13
48
1
60
0
100
AcDbTrace
10
-54.25
20
-8
30
0
11
-54.710784
21
-4.500002
31
0
12
-53.789216
22
-4.499998
32
0
13
-54.25
23
-8
33
0
39
0
210
0
220
0
230
1
0
ENDBLK
5
1C4
100
AcDbEntity
8
0
100
AcDbBlockEnd
0
ENDSEC
0
SECTION
2
ENTITIES
0
ARC
5
E0
100
AcDbEntity
8
SK1
62
256
6
ByLayer
370
18
48
1
60
0
100
AcDbCircle
39
0
10
46.069726
20
-8.59725
30
0
40
0.800000000000008
210
0
220
0
230
-1
100
AcDbArc
50
51
51
110.978152
0
ARC
5
E1
100
AcDbEntity
8
SK1
62
256
6
ByLayer
370
18
48
1
60
0
100
AcDbCircle
39
0
10
46.069726
20
8.59725
30
0
40
0.800000000000008
210
0
220
0
230
-1
100
AcDbArc
50
249.021848
51
309
0
ARC
5
E2
100
AcDbEntity
8
SK1
62
256
6
ByLayer
370
18
48
1
60
0
100
AcDbCircle
39
0
10
0.975195
20
8.14725
30
0
40
0.4
210
0
220
0
230
-1
100
AcDbArc
50
270
51
295
0
ARC
5
E3
100
AcDbEntity
8
SK1
62
256
6
ByLayer
370
18
48
1
60
0
100
AcDbCircle
39
0
10
0.975195
20
-8.14725
30
0
40
0.4
210
0
220
0
230
-1
100
AcDbArc
50
65
51
90
0
ARC
5
E4
100
AcDbEntity
8
1
62
256
6
ByLayer
370
18
48
1
60
0
100
AcDbCircle
39
0
10
-13
20
-9.75
30
0
40
3.99999999999999
210
0
220
0
230
-1
100
AcDbArc
50
54.688336
51
90
0
ARC
5
E5
100
AcDbEntity
8
1
62
256
6
ByLayer
370
18
48
1
60
0
100
AcDbCircle
39
0
10
-13
20
9.75
30
0
40
3.99999999999999
210
0
220
0
230
-1
100
AcDbArc
50
270
51
305.311664
0
ARC
5
E6
100
AcDbEntity
8
SK1
62
256
6
ByLayer
370
18
48
1
60
0
100
AcDbCircle
39
0
10
0.15
20
8.14725
30
0
40
0.4
210
0
220
0
230
-1
100
AcDbArc
50
247.975687
51
270
0
ARC
5
E7
100
AcDbEntity
8
SK1
62
256
6
ByLayer
370
18
48
1
60
0
100
AcDbCircle
39
0
10
0.15
20
-8.14725
30
0
40
0.4
210
0
220
0
230
-1
100
AcDbArc
50
90
51
112.024313
0
ELLIPSE
5
E8
100
AcDbEntity
8
1
62
256
6
ByLayer
370
18
48
1
60
0
100
AcDbEllipse
10
13.847
20
0.314192
30
0
11
-0.796431444056549
21
-3.91991032485668
31
0
210
0
220
0
230
1
40
0.010388
41
0.470861780733729
42
0.471447709774607
0
ELLIPSE
5
E9
100
AcDbEntity
8
1
62
256
6
ByLayer
370
13
48
1
60
0
100
AcDbEllipse
10
13.847
20
0.314192
30
0
11
0.208136735474698
21
3.99458121701712
31
0
210
0
220
0
230
1
40
0.706146
41
0.591736466018259
42
2.57956908991899
0
ELLIPSE
5
EA
100
AcDbEntity
8
1
62
256
6
ByLayer
370
18
48
1
60
0
100
AcDbEllipse
10
79
20
0
30
0
11
2.10793399296187
21
5.99863078360837
31
0
210
0
220
0
230
1
40
0.060808
41
-2.85825948707044
42
-2.76741896509342
0
ELLIPSE
5
EB
100
AcDbEntity
8
1
62
256
6
ByLayer
370
18
48
1
60
0
100
AcDbEllipse
10
68.71
20
-2.670098
30
0
11
1.05000000000001
21
0
31
0
210
0
220
0
230
1
40
0.702153
41
-2.38741409195185
42
-0.561461225386799
0
ELLIPSE
5
EC
100
AcDbEntity
8
1
62
256
6
ByLayer
370
13
48
1
60
0
100
AcDbEllipse
10
13.847
20
0.314192
30
0
11
-0.796431444056549
21
-3.91991032485668
31
0
210
0
220
0
230
1
40
0.010388
41
0.471447709774607
42
2.56484343379512
0
ELLIPSE
5
ED
100
AcDbEntity
8
1
62
256
6
ByLayer
370
18
48
1
60
0
100
AcDbEllipse
10
62.780822
20
-3.2E-05
30
0
11
0.63060418518473
21
5.84585197019201
31
0
210
0
220
0
230
1
40
0.347886
41
-2.49436145457778
42
-2.47923150636431
0
ELLIPSE
5
EE
100
AcDbEntity
8
1
62
256
6
ByLayer
370
18
48
1
60
0
100
AcDbEllipse
10
13.990075
20
0.990103
30
0
11
2.99972645213817
21
15.4759484553468
31
0
210
0
220
0
230
1
40
0.002635
41
-1.40101075060329
42
-1.37275623272885
0
ELLIPSE
5
EF
100
AcDbEntity
8
1
62
256
6
ByLayer
370
18
48
1
60
0
100
AcDbEllipse
10
78.973107
20
0.12451
30
0
11
0.0472765640675731
21
-0.150392792098836
31
0
210
0
220
0
230
1
40
0.048492
41
-2.46903554432574
42
-1.77666834871058
0
ELLIPSE
5
F0
100
AcDbEntity
8
1
62
256
6
ByLayer
370
18
48
1
60
0
100
AcDbEllipse
10
72.588836
20
-0.669198
30
0
11
1.06990244467348
21
0.253109904346592
31
0
210
0
220
0
230
1
40
0.80323
41
1.90056189515874
42
-1.7608167835196
0
ELLIPSE
5
F1
100
AcDbEntity
8
1
62
256
6
ByLayer
370
18
48
1
60
0
100
AcDbEllipse
10
13.847
20
0.314192
30
0
11
-0.796431444056549
21
-3.91991032485668
31
0
210
0
220
0
230
1
40
0.010388
41
2.56484343379512
42
2.56568038722617
0
ELLIPSE
5
F2
100
AcDbEntity
8
1
62
256
6
ByLayer
370
18
48
1
60
0
100
AcDbEllipse
10
79
20
0
30
0
11
2.10793395168683
21
-5.99863065839973
31
0
210
0
220
0
230
1
40
0.060808
41
2.76741896122517
42
2.85825948419455
0
ELLIPSE
5
F3
100
AcDbEntity
8
1
62
256
6
ByLayer
370
18
48
1
60
0
100
AcDbEllipse
10
74.23443
20
-0.728439
30
0
11
0.267044015668702
21
-0.905202292800279
31
0
210
0
220
0
230
1
40
0.3161
41
0.0343795254210297
42
2.96834087959118
0
ELLIPSE
5
F4
100
AcDbEntity
8
1
62
256
6
ByLayer
370
18
48
1
60
0
100
AcDbEllipse
10
62.324256
20
-78.370489
30
0
11
78.7596232998886
21
-0.139323965682424
31
0
210
0
220
0
230
1
40
0.930421
41
1.45400394712351
42
1.45567405657253
0
ELLIPSE
5
F5
100
AcDbEntity
8
1
62
256
6
ByLayer
370
13
48
1
60
0
100
AcDbEllipse
10
62.9
20
5.983812
30
0
11
-0.179669172907321
21
-3.99596283620191
31
0
210
0
220
0
230
1
40
0.3394
41
0.853313032224318
42
1.17684068332601
0
ELLIPSE
5
F6
100
AcDbEntity
8
1
62
256
6
ByLayer
370
18
48
1
60
0
100
AcDbEllipse
10
68.87
20
-2.670098
30
0
11
-1.51
21
1.84915559427179E-16
31
0
210
0
220
0
230
1
40
0.702153
41
0.707937884581754
42
2.43885707275255
0
ELLIPSE
5
F7
100
AcDbEntity
8
1
62
256
6
ByLayer
370
18
48
1
60
0
100
AcDbEllipse
10
62.780805
20
-8.3E-05
30
0
11
0.630589538675573
21
-5.84597059979255
31
0
210
0
220
0
230
1
40
0.347885
41
2.47923908630325
42
2.49436885080615
0
ELLIPSE
5
F8
100
AcDbEntity
8
1
62
256
6
ByLayer
370
18
48
1
60
0
100
AcDbEllipse
10
13.662844
20
-0.575202
30
0
11
2.99980929008336
21
14.4639308702533
31
0
210
0
220
0
230
1
40
0.002271
41
-1.78645883803231
42
-1.75160619282596
0
ELLIPSE
5
F9
100
AcDbEntity
8
1
62
256
6
ByLayer
370
18
48
1
60
0
100
AcDbEllipse
10
62.9
20
5.983812
30
0
11
-0.179669172907321
21
-3.99596283620191
31
0
210
0
220
0
230
1
40
0.3394
41
1.17684068332601
42
1.17949716654798
0
ELLIPSE
5
FA
100
AcDbEntity
8
1
62
256
6
ByLayer
370
18
48
1
60
0
100
AcDbEllipse
10
71.25
20
1.65
30
0
11
0.242982770888179
21
-0.058816435717895
31
0
210
0
220
0
230
1
40
1
41
-0.257442149941773
42
0.237491976281976
0
ELLIPSE
5
FB
100
AcDbEntity
8
1
62
256
6
ByLayer
370
18
48
1
60
0
100
AcDbEllipse
10
78.973107
20
-0.12451
30
0
11
0.0472765640554556
21
0.150392792064656
31
0
210
0
220
0
230
1
40
0.048492
41
1.77666834855461
42
2.46903554429418
0
ELLIPSE
5
FC
100
AcDbEntity
8
1
62
256
6
ByLayer
370
18
48
1
60
0
100
AcDbEllipse
10
83.17536
20
0
30
0
11
7.93287431226106
21
5.37728592275028
31
0
210
0
220
0
230
1
40
0.290406
41
2.82738709265889
42
3.11562294582722
0
POINT
5
6C
100
AcDbEntity
8
80
62
256
6
ByLayer
370
18
48
1
60
0
100
AcDbPoint
10
0
20
0
30
0
39
0
210
0
220
0
230
1
50
360
0
POINT
5
6E
100
AcDbEntity
8
81
62
256
6
ByLayer
370
18
48
1
60
0
100
AcDbPoint
10
71.5
20
0
30
0
39
0
210
0
220
0
230
1
50
360
0
SPLINE
5
FD
100
AcDbEntity
8
1
62
256
6
ByLayer
370
18
48
1
60
0
100
AcDbSpline
70
4
71
3
72
13
73
9
40
0
40
0
40
0
40
0
40
0.195006905389322
40
0.388336032145768
40
0.576168714485778
40
0.718850980442211
40
0.858649117226825
40
1
40
1
40
1
40
1
41
1
10
10.6063029829973
20
6.54372262728376
30
0
41
1
10
10.2097335103855
20
6.83696561171124
30
0
41
1
10
9.41757717783648
20
7.41776074901574
30
0
41
1
10
8.26059873993296
20
8.3035593794516
30
0
41
1
10
7.15655748024656
20
9.04061841957952
30
0
41
1
10
6.09513296589626
20
9.58225970768308
30
0
41
1
10
5.06849335806498
20
9.92089583229702
30
0
41
1
10
4.36288764260732
20
9.99586184999336
30
0
41
1
10
4.0001
20
10
30
0
0
SPLINE
5
FE
100
AcDbEntity
8
1
62
256
6
ByLayer
370
18
48
1
60
0
100
AcDbSpline
70
4
71
3
72
13
73
9
40
0
40
0
40
0
40
0
40
0.135021054837986
40
0.26838627187302
40
0.404147775942016
40
0.543836133013847
40
0.770241928222267
40
1
40
1
40
1
40
1
41
1
10
4.0001
20
-10
30
0
41
1
10
4.34631166838818
20
-9.99652490123484
30
0
41
1
10
5.02028918970097
20
-9.92789706955296
30
0
41
1
10
6.00294957284416
20
-9.61807554084422
30
0
41
1
10
6.932902686533
20
-9.16165461933392
30
0
41
1
10
8.00959172860911
20
-8.48582695935193
30
0
41
1
10
9.21103035037586
20
-7.57455498541148
30
0
41
1
10
10.1418051446847
20
-6.8930095951774
30
0
41
1
10
10.6063029829973
20
-6.54372262728376
30
0
0
SPLINE
5
FF
100
AcDbEntity
8
1
62
256
6
ByLayer
370
18
48
1
60
0
100
AcDbSpline
70
4
71
3
72
32
73
28
40
0
40
0
40
0
40
0
40
0.0165188324771204
40
0.0402743545706929
40
0.0652215901575556
40
0.106047071945923
40
0.150835722343137
40
0.198753948279214
40
0.249808732779032
40
0.303767142331463
40
0.342511916828306
40
0.37503200041536
40
0.401326387044375
40
0.421396388995565
40
0.439164513304673
40
0.478508587552222
40
0.528506042064844
40
0.588449811546351
40
0.65111633502828
40
0.682761299853287
40
0.714612832526893
40
0.746669869143223
40
0.779974741343166
40
0.822235193096611
40
0.874997111273261
40
0.938233869172714
40
1
40
1
40
1
40
1
41
1
10
40.0227003245104
20
5.59546622720495
30
0
41
1
10
39.9284210345755
20
5.59362913590587
30
0
41
1
10
39.6825467324417
20
5.58772879092177
30
0
41
1
10
39.2005943907762
20
5.56366059941124
30
0
41
1
10
38.491912450053
20
5.54635656952109
30
0
41
1
10
37.6051671149592
20
5.55895564695547
30
0
41
1
10
36.5453170468548
20
5.57025588506144
30
0
41
1
10
35.4006242205338
20
5.58031064596361
30
0
41
1
10
34.183701425444
20
5.58810537737872
30
0
41
1
10
33.0394129544542
20
5.59305208084024
30
0
41
1
10
32.0423831668055
20
5.59554722701597
30
0
41
1
10
31.2652044552602
20
5.59651705225571
30
0
41
1
10
30.6363991953418
20
5.59675961832747
30
0
41
1
10
30.1246966688451
20
5.59668710595847
30
0
41
1
10
29.5081565946539
20
5.59646015926202
30
0
41
1
10
28.6522250328192
20
5.59611707251165
30
0
41
1
10
27.4590378496093
20
5.59579412617958
30
0
41
1
10
26.0793648629636
20
5.59571978703403
30
0
41
1
10
24.8463489397409
20
5.59598918830619
30
0
41
1
10
23.8379034894203
20
5.59639683728165
30
0
41
1
10
23.0741413339645
20
5.59678365539665
30
0
41
1
10
22.2971329266758
20
5.5972363492688
30
0
41
1
10
21.4369669907938
20
5.59777328276334
30
0
41
1
10
20.4112648260368
20
5.59840058099749
30
0
41
1
10
19.1462955762277
20
5.59912644137503
30
0
41
1
10
17.7253893823633
20
5.59979171413053
30
0
41
1
10
16.7262111874232
20
5.59995768826948
30
0
41
1
10
16.2324969248332
20
5.59997817152771
30
0
0
SPLINE
5
100
100
AcDbEntity
8
1
62
256
6
ByLayer
370
18
48
1
60
0
100
AcDbSpline
70
4
71
2
72
6
73
3
40
0
40
0
40
0
40
1
40
1
40
1
41
1
10
39.7133002071177
20
-0.510690790745144
30
0
41
1
10
39.7940021185883
20
-0.524818921761636
30
0
41
1
10
39.8747010396149
20
-0.540863711567539
30
0
0
SPLINE
5
101
100
AcDbEntity
8
1
62
256
6
ByLayer
370
18
48
1
60
0
100
AcDbSpline
70
4
71
2
72
6
73
3
40
0
40
0
40
0
40
1
40
1
40
1
41
1
10
65.6821000886727
20
2.78505561611615
30
0
41
1
10
65.6821031966201
20
2.78528857165773
30
0
41
1
10
65.6821063045677
20
2.7855213566701
30
0
0
SPLINE
5
102
100
AcDbEntity
8
1
62
256
6
ByLayer
370
18
48
1
60
0
100
AcDbSpline
70
4
71
3
72
28
73
24
40
0
40
0
40
0
40
0
40
0.0854461318231164
40
0.158789461212196
40
0.219983849928054
40
0.268998415760362
40
0.30762611099903
40
0.344806540133738
40
0.381748621448877
40
0.418451121003909
40
0.491133080454007
40
0.560657132223008
40
0.618645237507681
40
0.664277327021736
40
0.684865527173793
40
0.708109081862843
40
0.738557386312166
40
0.776211966391345
40
0.821071666254625
40
0.870442695671329
40
0.917854620470187
40
0.995431299696124
40
1
40
1
40
1
40
1
41
1
10
15.9469999999113
20
-5.59998324535835
30
0
41
1
10
16.5358810829047
20
-5.59998656603256
30
0
41
1
10
17.6302250822668
20
-5.59983627035555
30
0
41
1
10
19.1462955762277
20
-5.59912644137509
30
0
41
1
10
20.4112648260367
20
-5.59840058099735
30
0
41
1
10
21.436966990794
20
-5.59777328276371
30
0
41
1
10
22.2971329266754
20
-5.59723634926775
30
0
41
1
10
23.0741413339657
20
-5.59678365540049
30
0
41
1
10
23.8379034894159
20
-5.59639683726749
30
0
41
1
10
24.8463489397638
20
-5.59598918838034
30
0
41
1
10
26.0793648627849
20
-5.59571978645425
30
0
41
1
10
27.459037850187
20
-5.59579412805474
30
0
41
1
10
28.6522250312132
20
-5.59611706729891
30
0
41
1
10
29.5080212354976
20
-5.59646011659447
30
0
41
1
10
30.1241914888278
20
-5.59668690263698
30
0
41
1
10
30.6351920787406
20
-5.59675964977009
30
0
41
1
10
31.2629990852923
20
-5.59651819166265
30
0
41
1
10
32.0388828550171
20
-5.59555462417174
30
0
41
1
10
32.9442621550342
20
-5.59328627478695
30
0
41
1
10
33.9163765644241
20
-5.58934521441114
30
0
41
1
10
35.1126593624404
20
-5.58231142601284
30
0
41
1
10
36.0024850642534
20
-5.57578291934695
30
0
41
1
10
36.5651979452673
20
-5.56965468939021
30
0
41
1
10
36.5964912603618
20
-5.56930866931069
30
0
0
SPLINE
5
103
100
AcDbEntity
8
1
62
256
6
ByLayer
370
18
48
1
60
0
100
AcDbSpline
70
4
71
3
72
9
73
5
40
0
40
0
40
0
40
0
40
0.410370862773807
40
1
40
1
40
1
40
1
41
1
10
39.4708346198927
20
-5.577162750019
30
0
41
1
10
39.5566675049431
20
-5.58087872610818
30
0
41
1
10
39.7586193691049
20
-5.58960455171174
30
0
41
1
10
39.9344795011847
20
-5.59382328096578
30
0
41
1
10
40.0312953079231
20
-5.59569712390467
30
0
0
SPLINE
5
104
100
AcDbEntity
8
1
62
256
6
ByLayer
370
18
48
1
60
0
100
AcDbSpline
70
4
71
3
72
11
73
7
40
0
40
0
40
0
40
0
40
0.204840465030439
40
0.456492393017499
40
0.755716741142523
40
1
40
1
40
1
40
1
41
1
10
73.54273794163
20
-5.85000101200947
30
0
41
1
10
73.7659197249204
20
-5.84988252146613
30
0
41
1
10
74.2639280028406
20
-5.84967455590206
30
0
41
1
10
75.0923771708274
20
-5.8493674568231
30
0
41
1
10
75.963303905605
20
-5.84969810803057
30
0
41
1
10
76.5578729648885
20
-5.84988291984718
30
0
41
1
10
76.8249746098467
20
-5.84999224176894
30
0
0
SPLINE
5
105
100
AcDbEntity
8
1
62
256
6
ByLayer
370
18
48
1
60
0
100
AcDbSpline
70
4
71
2
72
6
73
3
40
0
40
0
40
0
40
1
40
1
40
1
41
1
10
76.8184060015558
20
5.85001247669109
30
0
41
1
10
76.6955527684383
20
5.8500066549862
30
0
41
1
10
76.5727000017949
20
5.85000164877314
30
0
0
SPLINE
5
106
100
AcDbEntity
8
1
62
256
6
ByLayer
370
18
48
1
60
0
100
AcDbSpline
70
4
71
3
72
10
73
6
40
0
40
0
40
0
40
0
40
0.609662915508746
40
0.939311590367666
40
1
40
1
40
1
40
1
41
1
10
71.47
20
1.48995664873777
30
0
41
1
10
71.4697069166272
20
1.46518879235515
30
0
41
1
10
71.4626116035057
20
1.4295189172488
30
0
41
1
10
71.4435876885157
20
1.39468318962071
30
0
41
1
10
71.4346590323478
20
1.38218512011139
30
0
41
1
10
71.4332350005944
20
1.38026930514272
30
0
0
SPLINE
5
107
100
AcDbEntity
8
1
62
256
6
ByLayer
370
18
48
1
60
0
100
AcDbSpline
70
4
71
3
72
8
73
4
40
0
40
0
40
0
40
0
40
1
40
1
40
1
40
1
41
1
10
77.28031769829
20
2.04680248411776
30
0
41
1
10
77.2703057894502
20
2.04619874431495
30
0
41
1
10
77.2607498938608
20
2.04241002844964
30
0
41
1
10
77.2526418499771
20
2.03648218305972
30
0
0
SPLINE
5
108
100
AcDbEntity
8
1
62
256
6
ByLayer
370
18
48
1
60
0
100
AcDbSpline
70
4
71
3
72
8
73
4
40
0
40
0
40
0
40
0
40
1
40
1
40
1
40
1
41
1
10
10.6063029829973
20
-2.82550279752761
30
0
41
1
10
10.6335181399399
20
-2.82897661911275
30
0
41
1
10
10.6607189710297
20
-2.83242617908073
30
0
41
1
10
10.6879049767048
20
-2.83585133160375
30
0
0
SPLINE
5
109
100
AcDbEntity
8
1
62
256
6
ByLayer
370
18
48
1
60
0
100
AcDbSpline
70
4
71
3
72
16
73
12
40
0
40
0
40
0
40
0
40
0.323337111647117
40
0.323337111647117
40
0.646674223294234
40
0.646674223294234
40
0.808342779117792
40
0.808342779117792
40
0.970011334941351
40
0.970011334941351
40
1
40
1
40
1
40
1
41
1
10
64.7732799072032
20
4.39102476548476
30
0
41
1
10
64.7551775770463
20
4.23622470415438
30
0
41
1
10
64.7325792657977
20
4.08661789935368
30
0
41
1
10
64.679708351483
20
3.80017611158903
30
0
41
1
10
64.649378484798
20
3.66288866427547
30
0
41
1
10
64.598379333007
20
3.46594290328636
30
0
41
1
10
64.580458520224
20
3.40179614922548
30
0
41
1
10
64.5427881648473
20
3.27657484552628
30
0
41
1
10
64.5229798889148
20
3.21535503929718
30
0
41
1
10
64.4987535822816
20
3.14561276402037
30
0
41
1
10
64.4949396743226
20
3.13477563642846
30
0
41
1
10
64.4911027301259
20
3.12401380154205
30
0
0
SPLINE
5
10A
100
AcDbEntity
8
1
62
256
6
ByLayer
370
18
48
1
60
0
100
AcDbSpline
70
4
71
3
72
43
73
39
40
0
40
0
40
0
40
0
40
0.0156249999999992
40
0.0234374999999992
40
0.0234374999999992
40
0.0273437499999992
40
0.0273437499999992
40
0.0312499999999992
40
0.0312499999999992
40
0.0625000000000007
40
0.0625000000000007
40
0.0937500000000022
40
0.0937500000000022
40
0.109375000000003
40
0.109375000000003
40
0.125000000000003
40
0.125000000000003
40
0.187500000000003
40
0.187500000000003
40
0.250000000000003
40
0.250000000000003
40
0.375000000000002
40
0.375000000000002
40
0.437500000000002
40
0.437500000000002
40
0.500000000000002
40
0.500000000000002
40
0.562500000000001
40
0.562500000000001
40
0.625000000000001
40
0.625000000000001
40
0.687500000000001
40
0.687500000000001
40
0.750000000000001
40
0.750000000000001
40
0.875
40
0.875
40
1
40
1
40
1
40
1
41
1
10
63.5040298429573
20
-4.79587913378074
30
0
41
1
10
63.2583268482836
20
-4.74620425491608
30
0
41
1
10
62.8898605672719
20
-4.66934762065375
30
0
41
1
10
62.5214954213021
20
-4.58904795534753
30
0
41
1
10
62.3373275075736
20
-4.54832916356369
30
0
41
1
10
62.2761100741578
20
-4.5342529314371
30
0
41
1
10
62.1524982948741
20
-4.50875248196391
30
0
41
1
10
62.0906177103622
20
-4.49610484097255
30
0
41
1
10
61.5330601012803
20
-4.38315955854009
30
0
41
1
10
61.0330143499492
20
-4.28905588464986
30
0
41
1
10
60.0271743121555
20
-4.10996851177558
30
0
41
1
10
59.5213597471782
20
-4.02496740328192
30
0
41
1
10
58.7596590808014
20
-3.90241110957382
30
0
41
1
10
58.5052542989692
20
-3.86239195389078
30
0
41
1
10
57.9955903461401
20
-3.78378732941707
30
0
41
1
10
57.7400891915623
20
-3.7459206663311
30
0
41
1
10
56.4644858427056
20
-3.54862672325999
30
0
41
1
10
55.443394276656
20
-3.3846222152743
30
0
41
1
10
53.4024800293883
20
-3.04614613793976
30
0
41
1
10
52.382288088043
20
-2.87170639308502
30
0
41
1
10
49.3219408510073
20
-2.33554360084932
30
0
41
1
10
47.282014459581
20
-1.96098207432632
30
0
41
1
10
44.220705736391
20
-1.3828490668123
30
0
41
1
10
43.200038956636
20
-1.18739544306419
30
0
41
1
10
41.1579874504993
20
-0.792266296885828
30
0
41
1
10
40.136387674105
20
-0.592546998600739
30
0
41
1
10
38.0946417253722
20
-0.190401023868418
30
0
41
1
10
37.0742651964885
20
0.012184980476917
30
0
41
1
10
35.0341995488919
20
0.418758092940323
30
0
41
1
10
34.0141850118542
20
0.621084512140612
30
0
41
1
10
31.9737502503843
20
1.02160895936453
30
0
41
1
10
30.9533370865283
20
1.21984331527983
30
0
41
1
10
28.911766402246
20
1.61051417372298
30
0
41
1
10
27.8903299264138
20
1.80298368619114
30
0
41
1
10
24.8266615653876
20
2.36894558719891
30
0
41
1
10
22.7854621024558
20
2.73077865830638
30
0
41
1
10
18.7033647633385
20
3.41342584153219
30
0
41
1
10
16.6624663112985
20
3.73429692249314
30
0
41
1
10
14.6208801318977
20
4.03015782731549
30
0
0
SPLINE
5
10B
100
AcDbEntity
8
1
62
256
6
ByLayer
370
18
48
1
60
0
100
AcDbSpline
70
4
71
1
72
4
73
2
40
0
40
0
40
1
40
1
41
1
10
75.2809779819116
20
-4.33820123517191
30
0
41
1
10
75.1482286703542
20
-4.40200621506492
30
0
0
SPLINE
5
10C
100
AcDbEntity
8
1
62
256
6
ByLayer
370
18
48
1
60
0
100
AcDbSpline
70
4
71
3
72
8
73
4
40
0
40
0
40
0
40
0
40
1
40
1
40
1
40
1
41
1
10
77.6040559296005
20
-4.33614329781946
30
0
41
1
10
77.4615932011671
20
-4.76534959315757
30
0
41
1
10
77.3173342265164
20
-5.19676267075934
30
0
41
1
10
77.1712363250787
20
-5.63043496282845
30
0
0
SPLINE
5
10D
100
AcDbEntity
8
1
62
256
6
ByLayer
370
18
48
1
60
0
100
AcDbSpline
70
4
71
3
72
8
73
4
40
0
40
0
40
0
40
0
40
1
40
1
40
1
40
1
41
1
10
64.1920193664891
20
4.42994330459729
30
0
41
1
10
64.1602537950574
20
4.43268131858102
30
0
41
1
10
64.1273016178706
20
4.43255281844949
30
0
41
1
10
64.0930552504236
20
4.42940620846213
30
0
0
SPLINE
5
10E
100
AcDbEntity
8
1
62
256
6
ByLayer
370
18
48
1
60
0
100
AcDbSpline
70
4
71
3
72
10
73
6
40
0
40
0
40
0
40
0
40
0.705908103655423
40
0.705908103655423
40
1
40
1
40
1
40
1
41
1
10
71.6373239356
20
-5.78712880681147
30
0
41
1
10
72.0946995835203
20
-5.81663274755442
30
0
41
1
10
72.552624925332
20
-5.83573005269432
30
0
41
1
10
73.200992455623
20
-5.84810941638062
30
0
41
1
10
73.3916497738761
20
-5.84995478375697
30
0
41
1
10
73.5823042714551
20
-5.85000285808923
30
0
0
SPLINE
5
10F
100
AcDbEntity
8
1
62
256
6
ByLayer
370
18
48
1
60
0
100
AcDbSpline
70
4
71
3
72
9
73
5
40
0
40
0
40
0
40
0
40
0.623839771056699
40
1
40
1
40
1
40
1
41
1
10
74.7390451019669
20
-2.34256055482677
30
0
41
1
10
74.7128450074181
20
-2.34482079010738
30
0
41
1
10
74.6708468922541
20
-2.3484438923613
30
0
41
1
10
74.6288757093249
20
-2.35171882169425
30
0
41
1
10
74.6130878195453
20
-2.35295071986189
30
0
0
SPLINE
5
110
100
AcDbEntity
8
1
62
256
6
ByLayer
370
18
48
1
60
0
100
AcDbSpline
70
4
71
2
72
6
73
3
40
0
40
0
40
0
40
1
40
1
40
1
41
0.500000015772708
10
14.6208801318977
20
4.0301578273155
30
0
41
0.499999984227292
10
14.6205665988529
20
4.02868757621528
30
0
41
0.500000015772708
10
14.6202528798079
20
4.02721635643775
30
0
0
SPLINE
5
111
100
AcDbEntity
8
1
62
256
6
ByLayer
370
18
48
1
60
0
100
AcDbSpline
70
4
71
3
72
12
73
8
40
0
40
0
40
0
40
0
40
0.500000000000006
40
0.500000000000006
40
0.750000000000003
40
0.750000000000003
40
1
40
1
40
1
40
1
41
1
10
78.3610680988909
20
-2.15907883948438
30
0
41
1
10
78.2307834143558
20
-2.51874441569242
30
0
41
1
10
78.1023117088562
20
-2.88030151292713
30
0
41
1
10
77.9124891561315
20
-3.42564714869377
30
0
41
1
10
77.8497006826996
20
-3.60793578008645
30
0
41
1
10
77.7252002348375
20
-3.97363617803057
30
0
41
1
10
77.6637974407095
20
-4.15615634653776
30
0
41
1
10
77.6040559306972
20
-4.33614329802205
30
0
0
SPLINE
5
112
100
AcDbEntity
8
1
62
256
6
ByLayer
370
18
48
1
60
0
100
AcDbSpline
70
4
71
3
72
17
73
13
40
0
40
0
40
0
40
0
40
0.250000000000004
40
0.250000000000004
40
0.375000000000003
40
0.375000000000003
40
0.500000000000002
40
0.625000000000002
40
0.625000000000002
40
0.750000000000001
40
0.750000000000001
40
1
40
1
40
1
40
1
41
1
10
74.0562026913636
20
0.258299150954997
30
0
41
1
10
74.1532275447466
20
0.19552506865989
30
0
41
1
10
74.2460405167386
20
0.155644673693018
30
0
41
1
10
74.3784300166124
20
0.132948328346913
30
0
41
1
10
74.4214701737151
20
0.13171032424728
30
0
41
1
10
74.5031050424079
20
0.142102496849248
30
0
41
1
10
74.580844344016
20
0.165202962421546
30
0
41
1
10
74.6508307068374
20
0.213595411249315
30
0
41
1
10
74.7168584304508
20
0.274901909745353
30
0
41
1
10
74.7480643782807
20
0.312317547404405
30
0
41
1
10
74.8337871911274
20
0.442061021016031
30
0
41
1
10
74.8807564912953
20
0.551476548008395
30
0
41
1
10
74.9180709850252
20
0.682631119101018
30
0
0
SPLINE
5
113
100
AcDbEntity
8
1
62
256
6
ByLayer
370
18
48
1
60
0
100
AcDbSpline
70
4
71
3
72
12
73
8
40
0
40
0
40
0
40
0
40
0.500000000000008
40
0.500000000000008
40
0.750000000000004
40
0.750000000000004
40
1
40
1
40
1
40
1
41
1
10
13
20
3.87728082066175
30
0
41
1
10
13.1929293198568
20
3.93954952403678
30
0
41
1
10
13.3896531786175
20
3.98590236338657
30
0
41
1
10
13.69002047276
20
4.03403692085709
30
0
41
1
10
13.7910317968791
20
4.04647317895845
30
0
41
1
10
13.9948681566773
20
4.06403370683068
30
0
41
1
10
14.0976872722421
20
4.06912329246614
30
0
41
1
10
14.2
20
4.07037971724935
30
0
0
SPLINE
5
114
100
AcDbEntity
8
1
62
256
6
ByLayer
370
18
48
1
60
0
100
AcDbSpline
70
4
71
2
72
6
73
3
40
0
40
0
40
0
40
1
40
1
40
1
41
0.500023345641018
10
72.4174973235357
20
0.127451824617169
30
0
41
0.499976654358982
10
72.8663892696004
20
0.126221834582626
30
0
41
0.500023345641018
10
73.3153111698425
20
0.12499183338335
30
0
0
SPLINE
5
115
100
AcDbEntity
8
1
62
256
6
ByLayer
370
18
48
1
60
0
100
AcDbSpline
70
4
71
3
72
8
73
4
40
0
40
0
40
0
40
0
40
1
40
1
40
1
40
1
41
1
10
61.5593576979918
20
3.73073179189049
30
0
41
1
10
61.5575031590041
20
3.72568700075212
30
0
41
1
10
61.5556513425054
20
3.72063346752051
30
0
41
1
10
61.5538022504169
20
3.71557118602675
30
0
0
SPLINE
5
116
100
AcDbEntity
8
1
62
256
6
ByLayer
370
13
48
1
60
0
100
AcDbSpline
70
4
71
2
72
6
73
3
40
0
40
0
40
0
40
1
40
1
40
1
41
0.996031993239127
10
78.301896769678
20
0.58249491388431
30
0
41
0.88903095407829
10
77.6173266668692
20
-0.290102364227106
30
0
41
1
10
77.5725774765664
20
-1.19477072595751
30
0
0
SPLINE
5
117
100
AcDbEntity
8
1
62
256
6
ByLayer
370
18
48
1
60
0
100
AcDbSpline
70
4
71
3
72
15
73
11
40
0
40
0
40
0
40
0
40
0.524948530012469
40
0.612375277858032
40
0.699819357018035
40
0.787288607682377
40
0.841045875716451
40
0.894815298646562
40
0.948598314948129
40
1
40
1
40
1
40
1
41
1.10374900959774
10
47.8514026445369
20
-0.0045607648664068
30
0
41
1.10374900959774
10
50.22415144772
20
-0.449691702435512
30
0
41
1.10374900959774
10
52.9900860009502
20
-0.968776716935519
30
0
41
1.10374900959774
10
56.141565993368
20
-1.54120945503748
30
0
41
1.10374900959774
10
57.321027936326
20
-1.75670175443556
30
0
41
1.10374900959774
10
58.3502495731259
20
-1.9272276052392
30
0
41
1.10374900959774
10
59.2207686764725
20
-2.1104298824842
30
0
41
1.10374900959774
10
59.9421310055152
20
-2.25373609679983
30
0
41
1.10374900959774
10
60.652651464123
20
-2.39455487828649
30
0
41
1.10374900959774
10
61.1227767403591
20
-2.48647191946378
30
0
41
1.10374900959774
10
61.3524974716753
20
-2.53107490689829
30
0
0
SPLINE
5
118
100
AcDbEntity
8
1
62
256
6
ByLayer
370
18
48
1
60
0
100
AcDbSpline
70
2053
71
3
72
39
73
35
40
0
40
0
40
0
40
0
40
0.0302919767633372
40
0.0624397629667063
40
0.0935913283677068
40
0.1249140695888
40
0.156192435872108
40
0.187413800264777
40
0.219480305480118
40
0.249883118420122
40
0.280268928106252
40
0.312377498966369
40
0.343592231343938
40
0.374917929240919
40
0.406104936573231
40
0.437445167238732
40
0.46961602370317
40
0.499883429763287
40
0.530170958446034
40
0.562399822530248
40
0.593716158160875
40
0.624963553310987
40
0.65621224298758
40
0.687548212041735
40
0.719654045525154
40
0.750006762737291
40
0.78035885453658
40
0.812408681166919
40
0.843713036190474
40
0.874886336703798
40
0.906238295322058
40
0.937446918582018
40
0.969681960940327
40
1
40
1
40
1
40
1
41
1
10
68.87
20
-2.8921058583621
30
0
41
1
10
68.7736939047661
20
-2.8921056995672
30
0
41
1
10
68.5751817508284
20
-2.90978863225408
30
0
41
1
10
68.289644983879
20
-2.98788636084964
30
0
41
1
10
68.0252752961606
20
-3.11423080104157
30
0
41
1
10
67.7962027375833
20
-3.27718679524995
30
0
41
1
10
67.6078093520944
20
-3.46880112000528
30
0
41
1
10
67.4659128906912
20
-3.68060837356117
30
0
41
1
10
67.3793626790655
20
-3.89840593115139
30
0
41
1
10
67.3506890103006
20
-4.11185315848269
30
0
41
1
10
67.3789213686267
20
-4.31316188260641
30
0
41
1
10
67.4650781958929
20
-4.49689338148917
30
0
41
1
10
67.6067485065053
20
-4.6563480275245
30
0
41
1
10
67.7946846173783
20
-4.78639124463993
30
0
41
1
10
68.0237044189411
20
-4.88764953189522
30
0
41
1
10
68.2881150752588
20
-4.96040825075309
30
0
41
1
10
68.574166142723
20
-5.00344412567793
30
0
41
1
10
68.8689400389509
20
-5.01700649623464
30
0
41
1
10
69.1639466581252
20
-5.00361877456021
30
0
41
1
10
69.4502771356694
20
-4.96075422863603
30
0
41
1
10
69.7151031682694
20
-4.88807375667906
30
0
41
1
10
69.9442086400869
20
-4.78699796401872
30
0
41
1
10
70.1325702046219
20
-4.65695726256541
30
0
41
1
10
70.2745344575705
20
-4.4975455922588
30
0
41
1
10
70.3609046903851
20
-4.31369924069225
30
0
41
1
10
70.3892855894522
20
-4.11263864472005
30
0
41
1
10
70.3608972463286
20
-3.89943504295314
30
0
41
1
10
70.2746378059649
20
-3.68161477187019
30
0
41
1
10
70.1330158316441
20
-3.469817996252
30
0
41
1
10
69.9448273578745
20
-3.27809246292424
30
0
41
1
10
69.7160173021593
20
-3.11496719374426
30
0
41
1
10
69.4512894666034
20
-2.98819202197177
30
0
41
1
10
69.1652616548819
20
-2.90983693932643
30
0
41
1
10
68.9663889540718
20
-2.89210601729362
30
0
41
1
10
68.87
20
-2.8921058583621
30
0
0
SPLINE
5
119
100
AcDbEntity
8
1
62
256
6
ByLayer
370
18
48
1
60
0
100
AcDbSpline
70
4
71
3
72
8
73
4
40
0
40
0
40
0
40
0
40
1
40
1
40
1
40
1
41
1
10
71.4034875848836
20
4.87514493123459
30
0
41
1
10
71.4022430271615
20
5.17765731416489
30
0
41
1
10
71.4009834614419
20
5.47867235132873
30
0
41
1
10
71.3997092424445
20
5.77812765524493
30
0
0
SPLINE
5
11A
100
AcDbEntity
8
1
62
256
6
ByLayer
370
18
48
1
60
0
100
AcDbSpline
70
4
71
3
72
16
73
12
40
0
40
0
40
0
40
0
40
0.249999999999994
40
0.249999999999994
40
0.499999999999989
40
0.499999999999989
40
0.624999999999986
40
0.624999999999986
40
0.749999999999983
40
0.749999999999983
40
1
40
1
40
1
40
1
41
1
10
78.1361442347978
20
-1.56442767759171
30
0
41
1
10
78.19440487977
20
-1.51624048647119
30
0
41
1
10
78.2535329990768
20
-1.45963607321653
30
0
41
1
10
78.3740160223995
20
-1.32482045005904
30
0
41
1
10
78.435831964329
20
-1.24570919555569
30
0
41
1
10
78.5256602844183
20
-1.11247443382845
30
0
41
1
10
78.555293593495
20
-1.06545848637961
30
0
41
1
10
78.6138710887223
20
-0.965627136100778
30
0
41
1
10
78.6431054296326
20
-0.912227179870541
30
0
41
1
10
78.7272824681427
20
-0.746747539298212
30
0
41
1
10
78.7782947721817
20
-0.630648453720909
30
0
41
1
10
78.8243360273768
20
-0.508922483270169
30
0
0
SPLINE
5
11B
100
AcDbEntity
8
1
62
256
6
ByLayer
370
18
48
1
60
0
100
AcDbSpline
70
4
71
3
72
14
73
10
40
0
40
0
40
0
40
0
40
0.5
40
0.5
40
0.625
40
0.625
40
0.75
40
0.75
40
1
40
1
40
1
40
1
41
1
10
71.3
20
2.84999999999999
30
0
41
1
10
71.3
20
2.54833410079703
30
0
41
1
10
71.3000000000001
20
2.27801616901689
30
0
41
1
10
71.3
20
1.97731046171145
30
0
41
1
10
71.3000000000001
20
1.91905892378696
30
0
41
1
10
71.3
20
1.80640506869165
30
0
41
1
10
71.3
20
1.75192243350892
30
0
41
1
10
71.3
20
1.59591539615661
30
0
41
1
10
71.3
20
1.50129673234181
30
0
41
1
10
71.3
20
1.41614452697431
30
0
0
SPLINE
5
11C
100
AcDbEntity
8
1
62
256
6
ByLayer
370
18
48
1
60
0
100
AcDbSpline
70
4
71
3
72
8
73
4
40
0
40
0
40
0
40
0
40
1
40
1
40
1
40
1
41
1
10
71.6373239356
20
-5.78712880681147
30
0
41
1
10
71.6373239356
20
-5.75428943591433
30
0
41
1
10
71.6373239356001
20
-5.70879865356181
30
0
41
1
10
71.6373239356001
20
-5.65064852810261
30
0
0
SPLINE
5
11D
100
AcDbEntity
8
1
62
256
6
ByLayer
370
18
48
1
60
0
100
AcDbSpline
70
4
71
3
72
25
73
21
40
0
40
0
40
0
40
0
40
0.0467979072688933
40
0.0932777695663098
40
0.139440567487662
40
0.185287301976208
40
0.230818994822886
40
0.276036689178965
40
0.320941450081769
40
0.365534364993717
40
0.409816544354983
40
0.453789122149989
40
0.497453256488006
40
0.54081013019812
40
0.583860951438771
40
0.66844752292289
40
0.752344629922716
40
0.835562232612473
40
0.918110537157359
40
1
40
1
40
1
40
1
41
1
10
75.1482294258527
20
-4.40202494171788
30
0
41
1
10
75.1377099663978
20
-4.3758581030157
30
0
41
1
10
75.1167425391718
20
-4.32370225902218
30
0
41
1
10
75.0860766046725
20
-4.24337901534247
30
0
41
1
10
75.0561236273396
20
-4.16193720235137
30
0
41
1
10
75.0269312673775
20
-4.07926788630223
30
0
41
1
10
74.998486884954
20
-3.99547686675575
30
0
41
1
10
74.9707938320644
20
-3.91061218271048
30
0
41
1
10
74.9438512200315
20
-3.82473633889612
30
0
41
1
10
74.9176592838263
20
-3.7379071080492
30
0
41
1
10
74.8922179639659
20
-3.65018260252512
30
0
41
1
10
74.8675272662202
20
-3.56161982936686
30
0
41
1
10
74.8435872265724
20
-3.47227528133792
30
0
41
1
10
74.8203976976857
20
-3.3822038603183
30
0
41
1
10
74.7906900728406
20
-3.26206586329181
30
0
41
1
10
74.755387445137
20
-3.11033629762727
30
0
41
1
10
74.7157010562669
20
-2.92519430732136
30
0
41
1
10
74.6787410783542
20
-2.73717008958562
30
0
41
1
10
74.6442802161521
20
-2.54690618251726
30
0
41
1
10
74.6234486340323
20
-2.41749192009016
30
0
41
1
10
74.6130745752194
20
-2.3530440465712
30
0
0
SPLINE
5
11E
100
AcDbEntity
8
1
62
256
6
ByLayer
370
18
48
1
60
0
100
AcDbSpline
70
4
71
1
72
4
73
2
40
0
40
0
40
1
40
1
41
1
10
63.4079879546458
20
4.3258332785131
30
0
41
1
10
63.5342456471375
20
4.74464803360911
30
0
0
SPLINE
5
11F
100
AcDbEntity
8
1
62
256
6
ByLayer
370
13
48
1
60
0
100
AcDbSpline
70
4
71
3
72
16
73
12
40
0
40
0
40
0
40
0
40
0.381189199980924
40
0.381189199980924
40
0.571783799971386
40
0.571783799971386
40
0.762378399961849
40
0.762378399961849
40
0.952972999952311
40
0.952972999952311
40
1
40
1
40
1
40
1
41
1
10
77.5725774765664
20
-1.19477072595751
30
0
41
1
10
77.4088864507876
20
-1.0874018566563
30
0
41
1
10
77.2006242332662
20
-0.928183004101953
30
0
41
1
10
76.9645129413359
20
-0.714549135227202
30
0
41
1
10
76.8609478221908
20
-0.612900770511089
30
0
41
1
10
76.7067828648005
20
-0.447474612436252
30
0
41
1
10
76.6036861806651
20
-0.326767224496024
30
0
41
1
10
76.4543057493695
20
-0.133651017742181
30
0
41
1
10
76.3544851458285
20
0.0088289088551505
30
0
41
1
10
76.2680185497402
20
0.146918732255898
30
0
41
1
10
76.2494183689072
20
0.177734216926723
30
0
41
1
10
76.2301728208252
20
0.210569641336406
30
0
0
SPLINE
5
120
100
AcDbEntity
8
1
62
256
6
ByLayer
370
18
48
1
60
0
100
AcDbSpline
70
4
71
3
72
8
73
4
40
0
40
0
40
0
40
0
40
1
40
1
40
1
40
1
41
1
10
13
20
-3.66231530393725
30
0
41
1
10
13.0176379672735
20
-3.66737753957602
30
0
41
1
10
13.035300395539
20
-3.67229169629371
30
0
41
1
10
13.0529869812597
20
-3.67705981576404
30
0
0
SPLINE
5
121
100
AcDbEntity
8
1
62
256
6
ByLayer
370
18
48
1
60
0
100
AcDbSpline
70
4
71
3
72
10
73
6
40
0
40
0
40
0
40
0
40
0.5
40
0.5
40
1
40
1
40
1
40
1
41
1
10
73.785401568518
20
0.17952947268094
30
0
41
1
10
73.8210548741488
20
0.18330792217813
30
0
41
1
10
73.8590526370799
20
0.184402523695638
30
0
41
1
10
73.9379549147884
20
0.183330664080302
30
0
41
1
10
73.9791198999663
20
0.181104820060057
30
0
41
1
10
74.0207097216029
20
0.177762965646366
30
0
0
SPLINE
5
122
100
AcDbEntity
8
1
62
256
6
ByLayer
370
13
48
1
60
0
100
AcDbSpline
70
4
71
3
72
8
73
4
40
0
40
0
40
0
40
0
40
1
40
1
40
1
40
1
41
1
10
78.35010178428
20
0.621797404598198
30
0
41
1
10
78.3334134940986
20
0.614350030459434
30
0
41
1
10
78.316077583392
20
0.60021572357897
30
0
41
1
10
78.301896769678
20
0.582494913884346
30
0
0
SPLINE
5
123
100
AcDbEntity
8
1
62
256
6
ByLayer
370
18
48
1
60
0
100
AcDbSpline
70
4
71
3
72
11
73
7
40
0
40
0
40
0
40
0
40
0.2449564276924
40
0.493275351392545
40
0.744957238032398
40
1
40
1
40
1
40
1
41
1
10
71.5000000410641
20
4.56059372593222
30
0
41
1
10
71.492918190793
20
4.58641015989366
30
0
41
1
10
71.4786572782956
20
4.63839740780548
30
0
41
1
10
71.4552987814485
20
4.71664276620069
30
0
41
1
10
71.4304106980046
20
4.79573146008389
30
0
41
1
10
71.4125015664159
20
4.84855700109037
30
0
41
1
10
71.4034876090382
20
4.87514495554998
30
0
0
SPLINE
5
124
100
AcDbEntity
8
1
62
256
6
ByLayer
370
18
48
1
60
0
100
AcDbSpline
70
4
71
3
72
12
73
8
40
0
40
0
40
0
40
0
40
0.500000000000002
40
0.500000000000002
40
0.750000000000001
40
0.750000000000001
40
1
40
1
40
1
40
1
41
1
10
63.5342456471375
20
-4.74464803360911
30
0
41
1
10
64.8456065335272
20
-5.01533434879815
30
0
41
1
10
66.1533642983499
20
-5.23993148215342
30
0
41
1
10
68.1174131717789
20
-5.49964787689649
30
0
41
1
10
68.7726016961697
20
-5.57334159396294
30
0
41
1
10
70.0847668628408
20
-5.6949834154037
30
0
41
1
10
70.7419894709149
20
-5.74298129630023
30
0
41
1
10
71.39970927248
20
-5.77812765665718
30
0
0
SPLINE
5
125
100
AcDbEntity
8
1
62
256
6
ByLayer
370
18
48
1
60
0
100
AcDbSpline
70
4
71
3
72
20
73
16
40
0
40
0
40
0
40
0
40
0.0138681989490248
40
0.0138681989490248
40
0.137134674080399
40
0.137134674080399
40
0.198767911646085
40
0.198767911646085
40
0.260401149211771
40
0.260401149211771
40
0.506934099474514
40
0.506934099474514
40
0.753467049737257
40
0.753467049737257
40
1
40
1
40
1
40
1
41
1
10
39.7133022408706
20
-0.510686868195194
30
0
41
1
10
39.5968645392384
20
-0.490123006913876
30
0
41
1
10
39.4804265597195
20
-0.469541327057982
30
0
41
1
10
38.329035362642
20
-0.265856959560409
30
0
41
1
10
37.2945178328067
20
-0.081654163629338
30
0
41
1
10
35.7430893711105
20
0.194393377632025
30
0
41
1
10
35.2259735260583
20
0.286263899175168
30
0
41
1
10
34.1916955273241
20
0.469365416962944
30
0
41
1
10
33.6745478448464
20
0.560640433770232
30
0
41
1
10
31.0887155696295
20
1.01535532705637
30
0
41
1
10
29.0195460010668
20
1.37417825031997
30
0
41
1
10
24.8798983112488
20
2.07001230069972
30
0
41
1
10
22.8113996969386
20
2.40670934819772
30
0
41
1
10
18.6747701690109
20
3.03874052110251
30
0
41
1
10
16.6066627250649
20
3.33427559812941
30
0
41
1
10
14.5368052325744
20
3.59550487369958
30
0
0
SPLINE
5
126
100
AcDbEntity
8
1
62
256
6
ByLayer
370
13
48
1
60
0
100
AcDbSpline
70
4
71
3
72
8
73
4
40
0
40
0
40
0
40
0
40
1
40
1
40
1
40
1
41
1
10
78.3730235437798
20
0.607095958063809
30
0
41
1
10
78.3563192686061
20
0.599610488766729
30
0
41
1
10
78.3389546877293
20
0.585247775056359
30
0
41
1
10
78.3248127509665
20
0.567219509562705
30
0
0
SPLINE
5
127
100
AcDbEntity
8
1
62
256
6
ByLayer
370
18
48
1
60
0
100
AcDbSpline
70
4
71
3
72
8
73
4
40
0
40
0
40
0
40
0
40
1
40
1
40
1
40
1
41
1
10
71.5
20
1.71770933837985
30
0
41
1
10
71.7638820616792
20
1.55267307391665
30
0
41
1
10
72.0306397725781
20
1.39750067142378
30
0
41
1
10
72.3
20
1.25125524916993
30
0
0
SPLINE
5
128
100
AcDbEntity
8
1
62
256
6
ByLayer
370
18
48
1
60
0
100
AcDbSpline
70
4
71
3
72
34
73
30
40
0
40
0
40
0
40
0
40
0.208286800651698
40
0.208286800651698
40
0.340239000543071
40
0.340239000543071
40
0.472191200434445
40
0.472191200434445
40
0.736095600217191
40
0.736095600217191
40
0.802071700162879
40
0.802071700162879
40
0.835059750135722
40
0.835059750135722
40
0.868047800108566
40
0.868047800108566
40
0.884541825094988
40
0.884541825094988
40
0.90103585008141
40
0.90103585008141
40
0.903097603204713
40
0.903097603204713
40
0.905159356328016
40
0.905159356328016
40
0.909282862574625
40
0.917529875067841
40
0.934023900054272
40
0.934023900054272
40
1
40
1
40
1
40
1
41
1
10
40.0212305816735
20
5.59805274622241
30
0
41
1
10
41.5244011637675
20
5.59155865005451
30
0
41
1
10
43.0282143261891
20
5.56320680329571
30
0
41
1
10
45.4861201017435
20
5.48396433037013
30
0
41
1
10
46.4399737885917
20
5.44509549448901
30
0
41
1
10
48.3468150035167
20
5.3514067381974
30
0
41
1
10
49.2996953122941
20
5.29658913566794
30
0
41
1
10
52.1567751697529
20
5.10781877208976
30
0
41
1
10
54.0593553272556
20
4.94974186102507
30
0
41
1
10
56.435302454128
20
4.70706740694533
30
0
41
1
10
56.9092156749105
20
4.65361140336603
30
0
41
1
10
57.6166626697042
20
4.56085292666393
30
0
41
1
10
57.8519168559924
20
4.52779847678164
30
0
41
1
10
58.320766283573
20
4.45537471290845
30
0
41
1
10
58.5543933740525
20
4.41612815647201
30
0
41
1
10
58.9026048771419
20
4.34936587837012
30
0
41
1
10
59.018299121429
20
4.32577809103063
30
0
41
1
10
59.248515600784
20
4.27446982371353
30
0
41
1
10
59.363075355624
20
4.24686539839669
30
0
41
1
10
59.4906800556488
20
4.21140091946859
30
0
41
1
10
59.504839541899
20
4.20739555416122
30
0
41
1
10
59.5331159676762
20
4.19923873878574
30
0
41
1
10
59.5470772936561
20
4.19461599261632
30
0
41
1
10
59.5903453640106
20
4.1849088559334
30
0
41
1
10
59.6768852442965
20
4.16543794002138
30
0
41
1
10
59.8788378574126
20
4.11961045649429
30
0
41
1
10
60.0519828668176
20
4.07966049951645
30
0
41
1
10
60.6292283360233
20
3.9450255295101
30
0
41
1
10
61.0913375275804
20
3.83261784684584
30
0
41
1
10
61.5538022504169
20
3.71557118602675
30
0
0
SPLINE
5
129
100
AcDbEntity
8
1
62
256
6
ByLayer
370
18
48
1
60
0
100
AcDbSpline
70
4
71
3
72
8
73
4
40
0
40
0
40
0
40
0
40
1
40
1
40
1
40
1
41
1
10
14.2
20
-3.95824226334446
30
0
41
1
10
13.8173505051362
20
-3.86715975434933
30
0
41
1
10
13.4346596244369
20
-3.77527034173846
30
0
41
1
10
13.0518944347507
20
-3.68268758261672
30
0
0
SPLINE
5
12A
100
AcDbEntity
8
1
62
256
6
ByLayer
370
18
48
1
60
0
100
AcDbSpline
70
4
71
3
72
8
73
4
40
0
40
0
40
0
40
0
40
1
40
1
40
1
40
1
41
1
10
10.6879049767048
20
3.42749261862414
30
0
41
1
10
10.6607189710297
20
3.42648768591073
30
0
41
1
10
10.6335181399399
20
3.42545628650453
30
0
41
1
10
10.6063029829973
20
3.42439861227081
30
0
0
SPLINE
5
12B
100
AcDbEntity
8
1
62
256
6
ByLayer
370
18
48
1
60
0
100
AcDbSpline
70
4
71
3
72
8
73
4
40
0
40
0
40
0
40
0
40
1
40
1
40
1
40
1
41
1
10
78.9893044423296
20
-0.0445202038415005
30
0
41
1
10
78.9782189172251
20
-0.0808544510477702
30
0
41
1
10
78.9672190449488
20
-0.117016876434434
30
0
41
1
10
78.9563039114628
20
-0.153009313585329
30
0
0
SPLINE
5
12C
100
AcDbEntity
8
1
62
256
6
ByLayer
370
18
48
1
60
0
100
AcDbSpline
70
4
71
3
72
38
73
34
40
0
40
0
40
0
40
0
40
0.0625
40
0.0625
40
0.125
40
0.125
40
0.1875
40
0.1875
40
0.25
40
0.25
40
0.3125
40
0.3125
40
0.375
40
0.375
40
0.4375
40
0.4375
40
0.5
40
0.5
40
0.5625
40
0.5625
40
0.625
40
0.625
40
0.6875
40
0.6875
40
0.75
40
0.75
40
0.8125
40
0.8125
40
0.875
40
0.875
40
0.9375
40
0.9375
40
1
40
1
40
1
40
1
41
1
10
72.417497323535
20
0.127451824617168
30
0
41
1
10
72.3565992928276
20
0.127618688762425
30
0
41
1
10
72.2966902692981
20
0.121940556934021
30
0
41
1
10
72.1787285366873
20
0.0996119128872408
30
0
41
1
10
72.1201697575506
20
0.0827469250657202
30
0
41
1
10
72.0074812674573
20
0.0384880144967497
30
0
41
1
10
71.9538569364481
20
0.0114167855139442
30
0
41
1
10
71.8519551869429
20
-0.0524400925271209
30
0
41
1
10
71.8032410987765
20
-0.0897058650710392
30
0
41
1
10
71.7149597058343
20
-0.171689354874133
30
0
41
1
10
71.6750814737308
20
-0.216452443794339
30
0
41
1
10
71.6041397892819
20
-0.313760136633647
30
0
41
1
10
71.5730769370743
20
-0.366656715361188
30
0
41
1
10
71.5232470112423
20
-0.475647610814661
30
0
41
1
10
71.5039991249749
20
-0.5322804822232
30
0
41
1
10
71.4775515797007
20
-0.650065667224681
30
0
41
1
10
71.4707244257845
20
-0.710128245189992
30
0
41
1
10
71.4700260399269
20
-0.82917188930503
30
0
41
1
10
71.4761979329766
20
-0.889344807145903
30
0
41
1
10
71.5012705653774
20
-1.00622548972134
30
0
41
1
10
71.5199007077089
20
-1.06250174355836
30
0
41
1
10
71.5689274559284
20
-1.17092661738582
30
0
41
1
10
71.5994545189999
20
-1.22293683107469
30
0
41
1
10
71.6694270464856
20
-1.31853802566431
30
0
41
1
10
71.7093335080182
20
-1.3629521459236
30
0
41
1
10
71.7977654750665
20
-1.44385782620964
30
0
41
1
10
71.8453375412569
20
-1.47955743664636
30
0
41
1
10
71.9468740630557
20
-1.54202562448458
30
0
41
1
10
72.0014305581378
20
-1.56896700494121
30
0
41
1
10
72.1134524359823
20
-1.61204375216201
30
0
41
1
10
72.1710385246079
20
-1.62839436065605
30
0
41
1
10
72.2893920779912
20
-1.65069584113058
30
0
41
1
10
72.3503504640832
20
-1.65656828002852
30
0
41
1
10
72.4112586223003
20
-1.65672822377653
30
0
0
SPLINE
5
12D
100
AcDbEntity
8
1
62
256
6
ByLayer
370
18
48
1
60
0
100
AcDbSpline
70
4
71
3
72
8
73
4
40
0
40
0
40
0
40
0
40
1
40
1
40
1
40
1
41
1
10
62.8433533014426
20
3.59559086628869
30
0
41
1
10
63.5592136855464
20
3.4044237853816
30
0
41
1
10
64.2746585609565
20
3.20244131760177
30
0
41
1
10
64.9905518224826
20
2.9916390559643
30
0
0
SPLINE
5
12E
100
AcDbEntity
8
1
62
256
6
ByLayer
370
18
48
1
60
0
100
AcDbSpline
70
4
71
3
72
8
73
4
40
0
40
0
40
0
40
0
40
1
40
1
40
1
40
1
41
1
10
12.4463200911103
20
3.71157071291194
30
0
41
1
10
12.4527620393311
20
3.71309049096774
30
0
41
1
10
12.4592157650934
20
3.71460336691507
30
0
41
1
10
12.4656813362187
20
3.71610943067648
30
0
0
SPLINE
5
12F
100
AcDbEntity
8
1
62
256
6
ByLayer
370
13
48
1
60
0
100
AcDbSpline
70
4
71
3
72
8
73
4
40
0
40
0
40
0
40
0
40
1
40
1
40
1
40
1
41
1
10
61.3253719227174
20
-2.63859258187549
30
0
41
1
10
61.334385993179
20
-2.60282575149273
30
0
41
1
10
61.3434281648746
20
-2.56698676824897
30
0
41
1
10
61.3524974716752
20
-2.53107490689828
30
0
0
SPLINE
5
130
100
AcDbEntity
8
1
62
256
6
ByLayer
370
18
48
1
60
0
100
AcDbSpline
70
4
71
3
72
8
73
4
40
0
40
0
40
0
40
0
40
1
40
1
40
1
40
1
41
1
10
71.6373239356
20
-5.78712880681147
30
0
41
1
10
71.7749370443121
20
-5.84556719344837
30
0
41
1
10
71.9123214739624
20
-5.90317855211467
30
0
41
1
10
72.0494954838909
20
-5.95991749942942
30
0
0
SPLINE
5
131
100
AcDbEntity
8
1
62
256
6
ByLayer
370
18
48
1
60
0
100
AcDbSpline
70
4
71
3
72
32
73
28
40
0
40
0
40
0
40
0
40
0.0625000000000043
40
0.0625000000000043
40
0.125000000000008
40
0.125000000000008
40
0.250000000000017
40
0.250000000000017
40
0.312500000000018
40
0.312500000000018
40
0.375000000000018
40
0.375000000000018
40
0.437500000000019
40
0.437500000000019
40
0.500000000000019
40
0.500000000000019
40
0.625000000000014
40
0.625000000000014
40
0.687500000000012
40
0.687500000000012
40
0.75000000000001
40
0.75000000000001
40
0.812500000000007
40
0.812500000000007
40
0.875000000000005
40
0.875000000000005
40
1
40
1
40
1
40
1
41
1
10
61.3524974716753
20
-2.53107490689828
30
0
41
1
10
61.4654974353403
20
-2.55301518164219
30
0
41
1
10
61.5792400271716
20
-2.56894777973474
30
0
41
1
10
61.8081874298477
20
-2.58915599909795
30
0
41
1
10
61.923911167781
20
-2.59341624176238
30
0
41
1
10
62.2695083569553
20
-2.58845738884321
30
0
41
1
10
62.4957259713833
20
-2.56205934018422
30
0
41
1
10
62.8289013212433
20
-2.48765510440981
30
0
41
1
10
62.9396023179844
20
-2.45673092438534
30
0
41
1
10
63.1549791797487
20
-2.38361468670112
30
0
41
1
10
63.2595591806889
20
-2.34155752466265
30
0
41
1
10
63.4626293352011
20
-2.24631428362878
30
0
41
1
10
63.5611193203928
20
-2.19312885321474
30
0
41
1
10
63.7518955823299
20
-2.07499432704412
30
0
41
1
10
63.8445259905868
20
-2.00967698717795
30
0
41
1
10
64.1061782893408
20
-1.79997283794651
30
0
41
1
10
64.2613209544023
20
-1.64091880001058
30
0
41
1
10
64.4650114204181
20
-1.37105314812121
30
0
41
1
10
64.527454663413
20
-1.2764393035784
30
0
41
1
10
64.6394771788666
20
-1.08183365594638
30
0
41
1
10
64.6894733222743
20
-0.981302680012078
30
0
41
1
10
64.7779520415138
20
-0.773867703046733
30
0
41
1
10
64.8164327792307
20
-0.666963227912277
30
0
41
1
10
64.8820881788443
20
-0.446709226704542
30
0
41
1
10
64.9087898314217
20
-0.33479480287491
30
0
41
1
10
64.9714358787149
20
0.0020310258133804
30
0
41
1
10
64.9905518967624
20
0.229680482959253
30
0
41
1
10
64.9905518230931
20
0.459963585398015
30
0
0
SPLINE
5
132
100
AcDbEntity
8
1
62
256
6
ByLayer
370
18
48
1
60
0
100
AcDbSpline
70
4
71
1
72
4
73
2
40
0
40
0
40
1
40
1
41
1
10
14.6208801318977
20
4.03015782731549
30
0
41
1
10
14.5368052325739
20
3.59550487369717
30
0
0
SPLINE
5
133
100
AcDbEntity
8
1
62
256
6
ByLayer
370
13
48
1
60
0
100
AcDbSpline
70
4
71
3
72
10
73
6
40
0
40
0
40
0
40
0
40
0.0018223711969968
40
0.0018223711969968
40
1
40
1
40
1
40
1
41
1
10
78.3730235437775
20
0.607095958064804
30
0
41
1
10
78.3730095492604
20
0.607104797661549
30
0
41
1
10
78.3729955546392
20
0.607113637313859
30
0
41
1
10
78.3653163406228
20
0.61196438960593
30
0
41
1
10
78.357689116842
20
0.616855725714458
30
0
41
1
10
78.3501017842816
20
0.621797404597089
30
0
0
SPLINE
5
134
100
AcDbEntity
8
1
62
256
6
ByLayer
370
18
48
1
60
0
100
AcDbSpline
70
4
71
3
72
18
73
14
40
0
40
0
40
0
40
0
40
0.124999999999992
40
0.124999999999992
40
0.249999999999984
40
0.249999999999984
40
0.499999999999979
40
0.499999999999979
40
0.624999999999976
40
0.624999999999976
40
0.749999999999974
40
0.749999999999974
40
1
40
1
40
1
40
1
41
1
10
76.090981246126
20
0.766793668982217
30
0
41
1
10
76.1188017198472
20
0.817032870124365
30
0
41
1
10
76.1498285429093
20
0.86844888864897
30
0
41
1
10
76.2182217950591
20
0.973733035623411
30
0
41
1
10
76.2555393006197
20
1.0274826216756
30
0
41
1
10
76.3745070634014
20
1.18905693701282
30
0
41
1
10
76.4637391897941
20
1.29830769086715
30
0
41
1
10
76.6125632365051
20
1.46353914408635
30
0
41
1
10
76.664943895342
20
1.51906481883242
30
0
41
1
10
76.7727561527895
20
1.62798026771344
30
0
41
1
10
76.8283795473487
20
1.68160495532996
30
0
41
1
10
77.000563098847
20
1.83954106799015
30
0
41
1
10
77.1222208837635
20
1.94113050289496
30
0
41
1
10
77.2526418506927
20
2.0364821835829
30
0
0
SPLINE
5
135
100
AcDbEntity
8
1
62
256
6
ByLayer
370
18
48
1
60
0
100
AcDbSpline
70
4
71
3
72
12
73
8
40
0
40
0
40
0
40
0
40
0.499999999999996
40
0.499999999999996
40
0.749999999999998
40
0.749999999999998
40
1
40
1
40
1
40
1
41
1
10
12.4463200911103
20
3.71157071291194
30
0
41
1
10
12.1303823915201
20
3.63703500315725
30
0
41
1
10
11.8265629229513
20
3.57158274608324
30
0
41
1
10
11.3832853834755
20
3.49628628650456
30
0
41
1
10
11.238687529446
20
3.4752489424809
30
0
41
1
10
10.9576292099847
20
3.44333699884336
30
0
41
1
10
10.8208266229241
20
3.43240607712176
30
0
41
1
10
10.6879049767045
20
3.42749261862377
30
0
0
SPLINE
5
136
100
AcDbEntity
8
1
62
256
6
ByLayer
370
18
48
1
60
0
100
AcDbSpline
70
4
71
3
72
8
73
4
40
0
40
0
40
0
40
0
40
1
40
1
40
1
40
1
41
1
10
74.0562026913637
20
0.258299150954571
30
0
41
1
10
74.0444325115232
20
0.231311928091316
30
0
41
1
10
74.0326018275584
20
0.204465819406494
30
0
41
1
10
74.0207097216029
20
0.177762965646366
30
0
0
SPLINE
5
137
100
AcDbEntity
8
1
62
256
6
ByLayer
370
18
48
1
60
0
100
AcDbSpline
70
4
71
3
72
18
73
14
40
0
40
0
40
0
40
0
40
0.250000000000008
40
0.250000000000008
40
0.500000000000009
40
0.500000000000009
40
0.625000000000007
40
0.625000000000007
40
0.750000000000005
40
0.750000000000005
40
0.875000000000002
40
0.875000000000002
40
1
40
1
40
1
40
1
41
1
10
77.2589888508795
20
-2.28485956084907
30
0
41
1
10
77.1593130501979
20
-2.08293373951255
30
0
41
1
10
77.061457485788
20
-1.8801350345482
30
0
41
1
10
76.8724114682316
20
-1.47134140960606
30
0
41
1
10
76.7819680936431
20
-1.26485840473674
30
0
41
1
10
76.6511844622945
20
-0.95341773017708
30
0
41
1
10
76.6090921813928
20
-0.849038510690889
30
0
41
1
10
76.5265062431847
20
-0.639678126804768
30
0
41
1
10
76.4859024397533
20
-0.53473843677051
30
0
41
1
10
76.4082262987864
20
-0.323529320333449
30
0
41
1
10
76.3708910343624
20
-0.217358896287209
30
0
41
1
10
76.298163488155
20
-0.0042864385015378
30
0
41
1
10
76.2631517309778
20
0.102758877779166
30
0
41
1
10
76.2301728192331
20
0.210569640643001
30
0
0
SPLINE
5
138
100
AcDbEntity
8
1
62
256
6
ByLayer
370
18
48
1
60
0
100
AcDbSpline
70
4
71
3
72
8
73
4
40
0
40
0
40
0
40
0
40
1
40
1
40
1
40
1
41
1
10
76.9856814993537
20
5.83575538081382
30
0
41
1
10
76.9268367890531
20
5.84586765898302
30
0
41
1
10
76.8697908276388
20
5.85069042977784
30
0
41
1
10
76.8145997216757
20
5.85005870291425
30
0
0
SPLINE
5
139
100
AcDbEntity
8
1
62
256
6
ByLayer
370
18
48
1
60
0
100
AcDbSpline
70
4
71
3
72
12
73
8
40
0
40
0
40
0
40
0
40
0.499999999999991
40
0.499999999999991
40
0.749999999999995
40
0.749999999999995
40
1
40
1
40
1
40
1
41
1
10
13.1557109410278
20
-3.1828980213445
30
0
41
1
10
12.983070968625
20
-3.16070822659117
30
0
41
1
10
12.8133339889716
20
-3.13322684218403
30
0
41
1
10
12.5632360344865
20
-3.08380711288214
30
0
41
1
10
12.4810903142534
20
-3.06603732476668
30
0
41
1
10
12.3214454529637
20
-3.02845185703416
30
0
41
1
10
12.2435985495589
20
-3.00856881036506
30
0
41
1
10
12.1676980858947
20
-2.98761402663695
30
0
0
SPLINE
5
13A
100
AcDbEntity
8
1
62
256
6
ByLayer
370
18
48
1
60
0
100
AcDbSpline
70
4
71
3
72
8
73
4
40
0
40
0
40
0
40
0
40
1
40
1
40
1
40
1
41
1
10
71.5
20
-5.50817574156815
30
0
41
1
10
71.4666666666667
20
-5.54010719514247
30
0
41
1
10
71.4333333333333
20
-5.57203864871678
30
0
41
1
10
71.4
20
-5.6039701022911
30
0
0
SPLINE
5
13B
100
AcDbEntity
8
1
62
256
6
ByLayer
370
18
48
1
60
0
100
AcDbSpline
70
4
71
3
72
8
73
4
40
0
40
0
40
0
40
0
40
1
40
1
40
1
40
1
41
1
10
78.8243360273774
20
-0.50892248327051
30
0
41
1
10
78.8493040876514
20
-0.437538571974272
30
0
41
1
10
78.8742257023637
20
-0.365327773957858
30
0
41
1
10
78.8986378893919
20
-0.293659856771512
30
0
0
SPLINE
5
13C
100
AcDbEntity
8
1
62
256
6
ByLayer
370
18
48
1
60
0
100
AcDbSpline
70
4
71
3
72
8
73
4
40
0
40
0
40
0
40
0
40
1
40
1
40
1
40
1
41
1
10
10.6879049767048
20
-2.83585133160375
30
0
41
1
10
10.8532197909974
20
-2.85667927006728
30
0
41
1
10
11.0234234005313
20
-2.88561099199387
30
0
41
1
10
11.1982370190575
20
-2.92063025246864
30
0
0
SPLINE
5
13D
100
AcDbEntity
8
1
62
256
6
ByLayer
370
18
48
1
60
0
100
AcDbSpline
70
4
71
3
72
8
73
4
40
0
40
0
40
0
40
0
40
1
40
1
40
1
40
1
41
1
10
77.2589888508795
20
-2.28485956084904
30
0
41
1
10
77.3488751928393
20
-2.21351571395431
30
0
41
1
10
77.4389583620062
20
-2.14106785922044
30
0
41
1
10
77.5294722455449
20
-2.06620411874775
30
0
0
SPLINE
5
13E
100
AcDbEntity
8
1
62
256
6
ByLayer
370
18
48
1
60
0
100
AcDbSpline
70
4
71
3
72
34
73
30
40
0
40
0
40
0
40
0
40
0.131072334080853
40
0.131072334080853
40
0.262144668161707
40
0.262144668161707
40
0.39321700224256
40
0.39321700224256
40
0.458753169282987
40
0.458753169282987
40
0.524289336323414
40
0.524289336323414
40
0.655361670404267
40
0.655361670404267
40
0.78643400448512
40
0.78643400448512
40
0.917506338565974
40
0.917506338565974
40
0.933890380326081
40
0.933890380326081
40
0.950274422086187
40
0.950274422086187
40
0.966658463846294
40
0.966658463846294
40
0.983042505606401
40
0.983042505606401
40
0.999426547366508
40
0.999426547366508
40
1
40
1
40
1
40
1
41
1
10
13.15594402127
20
-3.18185979247994
30
0
41
1
10
15.1837019220402
20
-3.46390283633343
30
0
41
1
10
17.2112600483742
20
-3.72577236063705
30
0
41
1
10
21.2671895548211
20
-4.20176581445918
30
0
41
1
10
23.2954156730434
20
-4.41583919251832
30
0
41
1
10
27.3485820346651
20
-4.77977371448696
30
0
41
1
10
29.3742159256513
20
-4.92935798682322
30
0
41
1
10
32.4133604795724
20
-5.09020396223806
30
0
41
1
10
33.426533831011
20
-5.13322165933542
30
0
41
1
10
35.4536061978837
20
-5.19561142693939
30
0
41
1
10
36.4676504402229
20
-5.21831121309779
30
0
41
1
10
39.5099506869175
20
-5.26567616819008
30
0
41
1
10
41.537822833429
20
-5.26759103735199
30
0
41
1
10
45.5944586299029
20
-5.20392193467822
30
0
41
1
10
47.6226516642415
20
-5.13815810594591
30
0
41
1
10
51.6781915429465
20
-4.9277720276373
30
0
41
1
10
53.7071257243736
20
-4.78266604392678
30
0
41
1
10
55.987051658178
20
-4.57207569228683
30
0
41
1
10
56.2404397433868
20
-4.54825084835167
30
0
41
1
10
56.7463455801351
20
-4.4962330532876
30
0
41
1
10
56.9989045447149
20
-4.46865621536776
30
0
41
1
10
57.5030215234317
20
-4.40930972443314
30
0
41
1
10
57.7545877689513
20
-4.37754623387082
30
0
41
1
10
58.256407616229
20
-4.30786255246622
30
0
41
1
10
58.5066709328254
20
-4.27002428996502
30
0
41
1
10
59.0052153452016
20
-4.18440389394192
30
0
41
1
10
59.2536248957291
20
-4.13693443545694
30
0
41
1
10
59.5088223051632
20
-4.07625223858042
30
0
41
1
10
59.5174497347095
20
-4.07418581272157
30
0
41
1
10
59.5260746656255
20
-4.07210370526909
30
0
0
SPLINE
5
13F
100
AcDbEntity
8
1
62
256
6
ByLayer
370
18
48
1
60
0
100
AcDbSpline
70
4
71
3
72
8
73
4
40
0
40
0
40
0
40
0
40
1
40
1
40
1
40
1
41
1
10
14.6202528798079
20
4.02721635643775
30
0
41
1
10
14.4819812979887
20
4.04885360176596
30
0
41
1
10
14.3419059483516
20
4.0632068093461
30
0
41
1
10
14.2
20
4.07037971724935
30
0
0
SPLINE
5
140
100
AcDbEntity
8
1
62
256
6
ByLayer
370
18
48
1
60
0
100
AcDbSpline
70
4
71
3
72
8
73
4
40
0
40
0
40
0
40
0
40
1
40
1
40
1
40
1
41
1
10
76.9856814993538
20
-5.83575538081379
30
0
41
1
10
77.0211924831225
20
-5.80898361283772
30
0
41
1
10
77.0692352593912
20
-5.74511505165282
30
0
41
1
10
77.129675758528
20
-5.64454657211991
30
0
0
SPLINE
5
141
100
AcDbEntity
8
1
62
256
6
ByLayer
370
18
48
1
60
0
100
AcDbSpline
70
4
71
3
72
8
73
4
40
0
40
0
40
0
40
0
40
1
40
1
40
1
40
1
41
1
10
77.6671676625622
20
2.07500456464024
30
0
41
1
10
77.8995963636934
20
2.0953201581824
30
0
41
1
10
78.1312438183801
20
2.12097244676318
30
0
41
1
10
78.3610680988909
20
2.15907883948438
30
0
0
SPLINE
5
142
100
AcDbEntity
8
1
62
256
6
ByLayer
370
18
48
1
60
0
100
AcDbSpline
70
4
71
3
72
8
73
4
40
0
40
0
40
0
40
0
40
1
40
1
40
1
40
1
41
1
10
77.280317741715
20
2.04680248673679
30
0
41
1
10
77.4094105909114
20
2.05458706566313
30
0
41
1
10
77.5383802415907
20
2.06374780983325
30
0
41
1
10
77.6671676625622
20
2.07500456464024
30
0
0
SPLINE
5
143
100
AcDbEntity
8
1
62
256
6
ByLayer
370
18
48
1
60
0
100
AcDbSpline
70
4
71
3
72
21
73
17
40
0
40
0
40
0
40
0
40
0.0286276818107028
40
0.0571779389437866
40
0.0857222398541645
40
0.114332097633606
40
0.143078536116865
40
0.214417394779325
40
0.285244962110869
40
0.356737423854104
40
0.427170546059342
40
0.568173532672522
40
0.708506781809546
40
0.848394269538234
40
0.988025778522661
40
1
40
1
40
1
40
1
41
1
10
71.4000062750396
20
-5.60397010280079
30
0
41
1
10
71.4002267770123
20
-5.59958061624855
30
0
41
1
10
71.4006671846016
20
-5.59081351468097
30
0
41
1
10
71.4042006519129
20
-5.57727483346548
30
0
41
1
10
71.4098407592112
20
-5.56349885981717
30
0
41
1
10
71.4177899980722
20
-5.54945993484983
30
0
41
1
10
71.4330141268918
20
-5.52816251106378
30
0
41
1
10
71.4606542958877
20
-5.4993542678497
30
0
41
1
10
71.5083942807496
20
-5.46331276557666
30
0
41
1
10
71.5681212694774
20
-5.42816804232095
30
0
41
1
10
71.6631237656018
20
-5.38384047296296
30
0
41
1
10
71.8085252451833
20
-5.33537250898027
30
0
41
1
10
72.016619575171
20
-5.29754491757137
30
0
41
1
10
72.2416769654402
20
-5.28786491075277
30
0
41
1
10
72.3956069991743
20
-5.30213935355326
30
0
41
1
10
72.4701988635813
20
-5.31466226942391
30
0
41
1
10
72.4760903262728
20
-5.31565136243324
30
0
0
SPLINE
5
144
100
AcDbEntity
8
1
62
256
6
ByLayer
370
18
48
1
60
0
100
AcDbSpline
70
4
71
3
72
12
73
8
40
0
40
0
40
0
40
0
40
0.25
40
0.25
40
0.5
40
0.5
40
1
40
1
40
1
40
1
41
1
10
71.4034876174432
20
4.87514493099712
30
0
41
1
10
70.8497640725562
20
4.86896265059903
30
0
41
1
10
70.2964732422825
20
4.85616557960984
30
0
41
1
10
69.1902463804643
20
4.81345546388161
30
0
41
1
10
68.6372490892818
20
4.78351877689587
30
0
41
1
10
66.9802884727799
20
4.6640406778819
30
0
41
1
10
65.8774031247037
20
4.54416708727339
30
0
41
1
10
64.7732799072033
20
4.39102476548402
30
0
0
SPLINE
5
145
100
AcDbEntity
8
1
62
256
6
ByLayer
370
18
48
1
60
0
100
AcDbSpline
70
4
71
3
72
12
73
8
40
0
40
0
40
0
40
0
40
0.5
40
0.5
40
0.75
40
0.75
40
1
40
1
40
1
40
1
41
1
10
72.3000000000001
20
1.2512552491699
30
0
41
1
10
72.9311063274214
20
1.1648023729891
30
0
41
1
10
73.5623744871008
20
1.07962587583529
30
0
41
1
10
74.5103603735752
20
0.960407907257832
30
0
41
1
10
74.8264944267938
20
0.921762973459266
30
0
41
1
10
75.4587010241287
20
0.84398798052743
30
0
41
1
10
75.774820497242
20
0.805228052715478
30
0
41
1
10
76.0909812461298
20
0.766793668980199
30
0
0
SPLINE
5
146
100
AcDbEntity
8
1
62
256
6
ByLayer
370
18
48
1
60
0
100
AcDbSpline
70
4
71
3
72
12
73
8
40
0
40
0
40
0
40
0
40
0.5
40
0.5
40
0.75
40
0.75
40
1
40
1
40
1
40
1
41
1
10
63.5342456471375
20
4.74464803360911
30
0
41
1
10
64.8456087585434
20
5.01533480807785
30
0
41
1
10
66.1533687356629
20
5.23993224352361
30
0
41
1
10
68.1174209504632
20
5.49964881821106
30
0
41
1
10
68.7726105929129
20
5.57334255032882
30
0
41
1
10
70.084778003525
20
5.69498431656808
30
0
41
1
10
70.7420687594124
20
5.74298553321404
30
0
41
1
10
71.39970927248
20
5.77812765665718
30
0
0
SPLINE
5
147
100
AcDbEntity
8
1
62
256
6
ByLayer
370
13
48
1
60
0
100
AcDbSpline
70
4
71
3
72
18
73
14
40
0
40
0
40
0
40
0
40
0.125
40
0.125
40
0.25
40
0.25
40
0.375
40
0.375
40
0.5
40
0.5
40
0.75
40
0.75
40
1
40
1
40
1
40
1
41
1
10
77.2526418393633
20
2.03648218323389
30
0
41
1
10
77.272298237239
20
1.95440881783745
30
0
41
1
10
77.2967386624035
20
1.87417562443616
30
0
41
1
10
77.3529127210527
20
1.71953102920907
30
0
41
1
10
77.3847211931006
20
1.64507429033048
30
0
41
1
10
77.4553963453786
20
1.5014565364805
30
0
41
1
10
77.494310281898
20
1.43192152822954
30
0
41
1
10
77.5770242750186
20
1.29964975321835
30
0
41
1
10
77.6208298274308
20
1.23673095719258
30
0
41
1
10
77.7587615022326
20
1.05649979771636
30
0
41
1
10
77.8597490730733
20
0.947100318426465
30
0
41
1
10
78.0732730243697
20
0.749496860049334
30
0
41
1
10
78.1855137755978
20
0.661371164969694
30
0
41
1
10
78.301896769678
20
0.582494913884346
30
0
0
SPLINE
5
148
100
AcDbEntity
8
1
62
256
6
ByLayer
370
18
48
1
60
0
100
AcDbSpline
70
4
71
3
72
14
73
10
40
0
40
0
40
0
40
0
40
0.374947467443312
40
0.374947467443312
40
0.562421201164968
40
0.562421201164968
40
0.749894934886624
40
0.749894934886624
40
1
40
1
40
1
40
1
41
1
10
15.9469999999088
20
-5.84090557723982
30
0
41
1
10
15.9469999999085
20
-5.83092210479808
30
0
41
1
10
15.9588770043189
20
-5.81286776987557
30
0
41
1
10
15.9965618030501
20
-5.77453024664919
30
0
41
1
10
16.0124461166478
20
-5.75987273021752
30
0
41
1
10
16.051375564867
20
-5.72692317895388
30
0
41
1
10
16.0745672331855
20
-5.70852315385531
30
0
41
1
10
16.1369491985069
20
-5.66212638062612
30
0
41
1
10
16.1786571790823
20
-5.6331196679547
30
0
41
1
10
16.2265669552412
20
-5.60212910753791
30
0
0
SPLINE
5
149
100
AcDbEntity
8
1
62
256
6
ByLayer
370
18
48
1
60
0
100
AcDbSpline
70
4
71
3
72
8
73
4
40
0
40
0
40
0
40
0
40
1
40
1
40
1
40
1
41
1
10
78.9893044423294
20
0.0445202038421257
30
0
41
1
10
78.978218917225
20
0.0808544510481966
30
0
41
1
10
78.9672190449488
20
0.117016876434633
30
0
41
1
10
78.9563039114628
20
0.153009313585329
30
0
0
SPLINE
5
14A
100
AcDbEntity
8
1
62
256
6
ByLayer
370
18
48
1
60
0
100
AcDbSpline
70
4
71
3
72
8
73
4
40
0
40
0
40
0
40
0
40
1
40
1
40
1
40
1
41
1
10
12.4656813362187
20
3.71610943067648
30
0
41
1
10
12.635466711975
20
3.77639144747562
30
0
41
1
10
12.8135441341117
20
3.82884908820788
30
0
41
1
10
12.9999999999995
20
3.87728082066204
30
0
0
SPLINE
5
14B
100
AcDbEntity
8
1
62
256
6
ByLayer
370
18
48
1
60
0
100
AcDbSpline
70
4
71
3
72
8
73
4
40
0
40
0
40
0
40
0
40
1
40
1
40
1
40
1
41
1
10
71.6306287870596
20
-5.60636194676835
30
0
41
1
10
71.635055397889
20
-5.62172211666848
30
0
41
1
10
71.6373239356004
20
-5.63649431931009
30
0
41
1
10
71.6373239356001
20
-5.65064852810286
30
0
0
SPLINE
5
14C
100
AcDbEntity
8
1
62
256
6
ByLayer
370
18
48
1
60
0
100
AcDbSpline
70
4
71
3
72
8
73
4
40
0
40
0
40
0
40
0
40
1
40
1
40
1
40
1
41
1
10
63.4079879546458
20
4.32583327851313
30
0
41
1
10
63.6383123308004
20
4.36671720038203
30
0
41
1
10
63.8686100604656
20
4.40614261735772
30
0
41
1
10
64.0989051783978
20
4.44400346838734
30
0
0
SPLINE
5
14D
100
AcDbEntity
8
1
62
256
6
ByLayer
370
18
48
1
60
0
100
AcDbSpline
70
4
71
1
72
4
73
2
40
0
40
0
40
1
40
1
41
1
10
74.3300219728729
20
-1.66176663640238
30
0
41
1
10
74.4659364512887
20
-1.64906953038215
30
0
0
SPLINE
5
14E
100
AcDbEntity
8
1
62
256
6
ByLayer
370
18
48
1
60
0
100
AcDbSpline
70
4
71
3
72
8
73
4
40
0
40
0
40
0
40
0
40
1
40
1
40
1
40
1
41
1
10
73.7854015685181
20
0.17952947268094
30
0
41
1
10
73.6229689689827
20
0.162315265942425
30
0
41
1
10
73.4662413585874
20
0.144141236541003
30
0
41
1
10
73.3153111698431
20
0.124991833383348
30
0
0
SPLINE
5
14F
100
AcDbEntity
8
1
62
256
6
ByLayer
370
18
48
1
60
0
100
AcDbSpline
70
4
71
3
72
8
73
4
40
0
40
0
40
0
40
0
40
1
40
1
40
1
40
1
41
1
10
78.8986378893915
20
-0.293659856771427
30
0
41
1
10
78.9342624266133
20
-0.180029986538187
30
0
41
1
10
78.9644365424329
20
-0.0661813725067191
30
0
41
1
10
78.9893044423214
20
0.0445202038423815
30
0
0
SPLINE
5
150
100
AcDbEntity
8
1
62
256
6
ByLayer
370
18
48
1
60
0
100
AcDbSpline
70
4
71
3
72
12
73
8
40
0
40
0
40
0
40
0
40
0.416574252269957
40
0.416574252269957
40
0.708286876557625
40
0.708286876557625
40
1
40
1
40
1
40
1
41
1
10
71.4999999907986
20
-5.67192970484425
30
0
41
1
10
71.4861367149935
20
-5.68668155633532
30
0
41
1
10
71.4722638841918
20
-5.70142903406341
30
0
41
1
10
71.4486604936164
20
-5.72649652265062
30
0
41
1
10
71.4389346918618
20
-5.73681867974258
30
0
41
1
10
71.4194740358734
20
-5.75745901732085
30
0
41
1
10
71.4097391774596
20
-5.7677772022144
30
0
41
1
10
71.3999998663441
20
-5.77809345084026
30
0
0
SPLINE
5
151
100
AcDbEntity
8
1
62
256
6
ByLayer
370
18
48
1
60
0
100
AcDbSpline
70
4
71
3
72
8
73
4
40
0
40
0
40
0
40
0
40
1
40
1
40
1
40
1
41
1
10
64.093055250444
20
4.42940620846397
30
0
41
1
10
64.0950053657551
20
4.43427146497089
30
0
41
1
10
64.0969553417235
20
4.4391372184453
30
0
41
1
10
64.0989051783978
20
4.44400346838736
30
0
0
SPLINE
5
152
100
AcDbEntity
8
1
62
256
6
ByLayer
370
18
48
1
60
0
100
AcDbSpline
70
4
71
3
72
8
73
4
40
0
40
0
40
0
40
0
40
1
40
1
40
1
40
1
41
1
10
72.0494954838791
20
5.99696829541773
30
0
41
1
10
71.86672261975
20
5.92788812422032
30
0
41
1
10
71.6835708653974
20
5.85708907545347
30
0
41
1
10
71.5
20
5.78468195467909
30
0
0
SPLINE
5
153
100
AcDbEntity
8
1
62
256
6
ByLayer
370
18
48
1
60
0
100
AcDbSpline
70
4
71
3
72
42
73
38
40
0
40
0
40
0
40
0
40
0.129992525604098
40
0.129992525604098
40
0.259985051208196
40
0.259985051208196
40
0.389977576812294
40
0.389977576812294
40
0.454973839614343
40
0.454973839614343
40
0.519970102416392
40
0.519970102416392
40
0.649962628020491
40
0.649962628020491
40
0.714958890822541
40
0.714958890822541
40
0.77995515362459
40
0.77995515362459
40
0.909947679228689
40
0.909947679228689
40
0.942445810629714
40
0.942445810629714
40
0.958694876330226
40
0.958694876330226
40
0.974943942030739
40
0.974943942030739
40
0.983068474880995
40
0.983068474880995
40
0.991193007731252
40
0.991193007731252
40
0.992208574337534
40
0.992208574337534
40
0.993224140943816
40
0.993224140943816
40
0.99525527415638
40
0.999317540581507
40
1
40
1
40
1
40
1
41
1
10
15.9469999999328
20
-3.93432481164527
30
0
41
1
10
17.8527155176636
20
-4.19386047187544
30
0
41
1
10
19.7586614447915
20
-4.423048457411
30
0
41
1
10
23.5723434046025
20
-4.82280120537192
30
0
41
1
10
25.4801679358927
20
-4.99358695934384
30
0
41
1
10
29.2938441742856
20
-5.2765397669755
30
0
41
1
10
31.2009232902158
20
-5.38897812489648
30
0
41
1
10
34.0582170490375
20
-5.50807638276481
30
0
41
1
10
35.0097640629508
20
-5.53946445591288
30
0
41
1
10
36.9132955128477
20
-5.5828832666277
30
0
41
1
10
37.8651462318051
20
-5.59518943455763
30
0
41
1
10
40.7213538937029
20
-5.60526255451663
30
0
41
1
10
42.6264296456895
20
-5.57616027449185
30
0
41
1
10
45.4861201017435
20
-5.48396433037013
30
0
41
1
10
46.4399737885917
20
-5.44509549448901
30
0
41
1
10
48.3468150035167
20
-5.3514067381974
30
0
41
1
10
49.2996953122941
20
-5.29658913566792
30
0
41
1
10
52.156775169753
20
-5.10781877208976
30
0
41
1
10
54.0593553272557
20
-4.94974186102516
30
0
41
1
10
56.435302454128
20
-4.7070674069453
30
0
41
1
10
56.9092156749105
20
-4.65361140336603
30
0
41
1
10
57.6166626697042
20
-4.56085292666393
30
0
41
1
10
57.8519168559924
20
-4.52779847678167
30
0
41
1
10
58.3207662835729
20
-4.45537471290848
30
0
41
1
10
58.5543933740526
20
-4.41612815647204
30
0
41
1
10
58.902604877142
20
-4.34936587837012
30
0
41
1
10
59.018299121429
20
-4.3257780910306
30
0
41
1
10
59.248515600784
20
-4.27446982371353
30
0
41
1
10
59.3630753556241
20
-4.24686539839669
30
0
41
1
10
59.4906800556489
20
-4.21140091946859
30
0
41
1
10
59.504839541899
20
-4.20739555416122
30
0
41
1
10
59.5331159676761
20
-4.19923873878574
30
0
41
1
10
59.5470772936561
20
-4.19461599261632
30
0
41
1
10
59.5903453640106
20
-4.1849088559334
30
0
41
1
10
59.6768852442965
20
-4.16543794002138
30
0
41
1
10
59.7731300705863
20
-4.14359787505114
30
0
41
1
10
59.8405310066039
20
-4.12820314725431
30
0
41
1
10
59.8502257796475
20
-4.12598674426306
30
0
0
SPLINE
5
154
100
AcDbEntity
8
1
62
256
6
ByLayer
370
18
48
1
60
0
100
AcDbSpline
70
4
71
3
72
8
73
4
40
0
40
0
40
0
40
0
40
1
40
1
40
1
40
1
41
1
10
77.6040559296005
20
4.33614329781946
30
0
41
1
10
77.4615932011671
20
4.76534959315757
30
0
41
1
10
77.3173342265164
20
5.19676267075934
30
0
41
1
10
77.1712363250787
20
5.63043496282845
30
0
0
SPLINE
5
155
100
AcDbEntity
8
1
62
256
6
ByLayer
370
18
48
1
60
0
100
AcDbSpline
70
4
71
4
72
10
73
5
40
0
40
0
40
0
40
0
40
0
40
1
40
1
40
1
40
1
40
1
41
1
10
71.5
20
5.78468195467909
30
0
41
1
10
71.5
20
5.50718898168529
30
0
41
1
10
71.5
20
5.22969600869152
30
0
41
1
10
71.5
20
4.95220303569772
30
0
41
1
10
71.5
20
4.67471006270395
30
0
0
SPLINE
5
156
100
AcDbEntity
8
1
62
256
6
ByLayer
370
18
48
1
60
0
100
AcDbSpline
70
4
71
3
72
12
73
8
40
0
40
0
40
0
40
0
40
0.416574252269974
40
0.416574252269974
40
0.708286876557785
40
0.708286876557785
40
1
40
1
40
1
40
1
41
1
10
71.4999999907986
20
5.67192970484425
30
0
41
1
10
71.4861367149935
20
5.68668155633532
30
0
41
1
10
71.4722638841918
20
5.70142903406341
30
0
41
1
10
71.4486604936164
20
5.72649652265062
30
0
41
1
10
71.4389346918618
20
5.73681867974258
30
0
41
1
10
71.4194740358734
20
5.75745901732085
30
0
41
1
10
71.4097391774596
20
5.7677772022144
30
0
41
1
10
71.3999998663442
20
5.77809345084026
30
0
0
SPLINE
5
157
100
AcDbEntity
8
1
62
256
6
ByLayer
370
18
48
1
60
0
100
AcDbSpline
70
4
71
3
72
11
73
7
40
0
40
0
40
0
40
0
40
0.269498496522449
40
0.536626857156297
40
0.801425874364803
40
1
40
1
40
1
40
1
41
1
10
71.507179874076
20
1.29070885300817
30
0
41
1
10
71.5093417284446
20
1.28259381460558
30
0
41
1
10
71.5136464245021
20
1.26643510644993
30
0
41
1
10
71.5230753612714
20
1.2429285189755
30
0
41
1
10
71.5336741359968
20
1.2219346807606
30
0
41
1
10
71.541616926598
20
1.20888748459484
30
0
41
1
10
71.5452407375141
20
1.20334616207293
30
0
0
SPLINE
5
158
100
AcDbEntity
8
1
62
256
6
ByLayer
370
18
48
1
60
0
100
AcDbSpline
70
4
71
3
72
14
73
10
40
0
40
0
40
0
40
0
40
0.25
40
0.25
40
0.5
40
0.5
40
0.75
40
0.75
40
1
40
1
40
1
40
1
41
1
10
77.1712363250787
20
5.63043496282845
30
0
41
1
10
76.7436045820282
20
5.69702434840138
30
0
41
1
10
76.316832059655
20
5.75492629145367
30
0
41
1
10
75.4633646738701
20
5.85241339786359
30
0
41
1
10
75.0367877520037
20
5.892134537803
30
0
41
1
10
74.1842371046434
20
5.95360923947132
30
0
41
1
10
73.7581489451206
20
5.97524440155405
30
0
41
1
10
72.9044512429119
20
5.99992970608309
30
0
41
1
10
72.4771640272326
20
6.00309879177411
30
0
41
1
10
72.0494954838672
20
5.99696829542188
30
0
0
SPLINE
5
159
100
AcDbEntity
8
1
62
256
6
ByLayer
370
18
48
1
60
0
100
AcDbSpline
70
4
71
3
72
28
73
24
40
0
40
0
40
0
40
0
40
0.125
40
0.125
40
0.1875
40
0.1875
40
0.25
40
0.25
40
0.375
40
0.375
40
0.4375
40
0.4375
40
0.5
40
0.5
40
0.625
40
0.625
40
0.75
40
0.75
40
0.875
40
0.875
40
0.9375
40
0.9375
40
1
40
1
40
1
40
1
41
1
10
15.9469999999088
20
5.84090557723982
30
0
41
1
10
15.9469999999085
20
5.83092210479808
30
0
41
1
10
15.9588770043189
20
5.81286776987557
30
0
41
1
10
15.9965618030501
20
5.77453024664919
30
0
41
1
10
16.0124461166478
20
5.75987273021752
30
0
41
1
10
16.051375564867
20
5.72692317895388
30
0
41
1
10
16.0745672331855
20
5.70852315385528
30
0
41
1
10
16.1547469401559
20
5.64888925705955
30
0
41
1
10
16.2218031413985
20
5.60354180853761
30
0
41
1
10
16.3435461519764
20
5.52968086436329
30
0
41
1
10
16.3876668685824
20
5.50408531347836
30
0
41
1
10
16.4832987406247
20
5.45137086475248
30
0
41
1
10
16.5350736538765
20
5.42413045679333
30
0
41
1
10
16.6985681062054
20
5.34254202483831
30
0
41
1
10
16.8190785937605
20
5.28790652681181
30
0
41
1
10
17.0829950888847
20
5.1821630819515
30
0
41
1
10
17.2277681145359
20
5.13071297277432
30
0
41
1
10
17.5301666110582
20
5.03883753549809
30
0
41
1
10
17.6885953832223
20
4.9979661765548
30
0
41
1
10
17.9371284416039
20
4.94650827509901
30
0
41
1
10
18.0220892548238
20
4.93095869178677
30
0
41
1
10
18.1939688568287
20
4.90383759651056
30
0
41
1
10
18.2809170262322
20
4.89224284854757
30
0
41
1
10
18.3688777019206
20
4.88272852357292
30
0
0
SPLINE
5
15A
100
AcDbEntity
8
1
62
256
6
ByLayer
370
18
48
1
60
0
100
AcDbSpline
70
4
71
3
72
14
73
10
40
0
40
0
40
0
40
0
40
0.499999999999998
40
0.499999999999998
40
0.625
40
0.625
40
0.750000000000002
40
0.750000000000002
40
1
40
1
40
1
40
1
41
1
10
76.1150242432701
20
-5.36161496180159
30
0
41
1
10
76.2124615240206
20
-5.5560529979935
30
0
41
1
10
76.3359164059824
20
-5.68914168300725
30
0
41
1
10
76.5192597689374
20
-5.78706232411076
30
0
41
1
10
76.5574027203493
20
-5.80317011151212
30
0
41
1
10
76.636636213903
20
-5.8284352846479
30
0
41
1
10
76.6777578581041
20
-5.8375722067145
30
0
41
1
10
76.8041244400612
20
-5.8543996818409
30
0
41
1
10
76.8927904328102
20
-5.85171841809481
30
0
41
1
10
76.9856814993537
20
-5.83575538081379
30
0
0
SPLINE
5
15B
100
AcDbEntity
8
1
62
256
6
ByLayer
370
18
48
1
60
0
100
AcDbSpline
70
4
71
3
72
8
73
4
40
0
40
0
40
0
40
0
40
1
40
1
40
1
40
1
41
1
10
72.4729189830263
20
-6.00000384395707
30
0
41
1
10
72.3318207423198
20
-6.00000245420634
30
0
41
1
10
72.1906788919216
20
-5.99899211592844
30
0
41
1
10
72.0494954838672
20
-5.99696829542188
30
0
0
SPLINE
5
15C
100
AcDbEntity
8
1
62
256
6
ByLayer
370
18
48
1
60
0
100
AcDbSpline
70
4
71
1
72
4
73
2
40
0
40
0
40
1
40
1
41
1
10
13.15594402127
20
-3.18185979247994
30
0
41
1
10
13.0518944347507
20
-3.68268758261672
30
0
0
SPLINE
5
15D
100
AcDbEntity
8
1
62
256
6
ByLayer
370
18
48
1
60
0
100
AcDbSpline
70
4
71
3
72
8
73
4
40
0
40
0
40
0
40
0
40
1
40
1
40
1
40
1
41
1
10
71.4087170191171
20
1.4097076103651
30
0
41
1
10
71.3724772242247
20
1.41183988970241
30
0
41
1
10
71.336238214844
20
1.41398556103275
30
0
41
1
10
71.3
20
1.41614452697431
30
0
0
SPLINE
5
15E
100
AcDbEntity
8
1
62
256
6
ByLayer
370
18
48
1
60
0
100
AcDbSpline
70
4
71
2
72
6
73
3
40
0
40
0
40
0
40
1
40
1
40
1
41
0.500027437389793
10
74.3300219725775
20
-1.6617665394376
30
0
41
0.499972562610207
10
73.3707062147656
20
-1.65924771621259
30
0
41
0.500027437389793
10
72.4112586223016
20
-1.65672822377618
30
0
0
SPLINE
5
15F
100
AcDbEntity
8
1
62
256
6
ByLayer
370
18
48
1
60
0
100
AcDbSpline
70
4
71
3
72
8
73
4
40
0
40
0
40
0
40
0
40
1
40
1
40
1
40
1
41
1
10
14.2
20
-3.95824226334446
30
0
41
1
10
14.7823054644866
20
-4.04473943624288
30
0
41
1
10
15.3646271516237
20
-4.12843247727497
30
0
41
1
10
15.9469999999309
20
-4.20926832940768
30
0
0
SPLINE
5
160
100
AcDbEntity
8
1
62
256
6
ByLayer
370
18
48
1
60
0
100
AcDbSpline
70
4
71
3
72
12
73
8
40
0
40
0
40
0
40
0
40
0.34080976120033
40
0.34080976120033
40
0.681619522400661
40
0.681619522400661
40
1
40
1
40
1
40
1
41
1
10
74.0562026913497
20
0.258299150959317
30
0
41
1
10
73.1225375852131
20
0.551524953498102
30
0
41
1
10
72.1881957805552
20
0.844485525812502
30
0
41
1
10
70.3173284310952
20
1.42212105127652
30
0
41
1
10
69.382309151461
20
1.7064395357593
30
0
41
1
10
67.573276673991
20
2.24370991624929
30
0
41
1
10
66.6990003691246
20
2.49796507953363
30
0
41
1
10
65.825466732273
20
2.74465330995704
30
0
0
SPLINE
5
161
100
AcDbEntity
8
1
62
256
6
ByLayer
370
13
48
1
60
0
100
AcDbSpline
70
4
71
3
72
8
73
4
40
0
40
0
40
0
40
0
40
1
40
1
40
1
40
1
41
1
10
78.301896769678
20
0.582494913884318
30
0
41
1
10
78.309492431001
20
0.577349152964018
30
0
41
1
10
78.3171317735286
20
0.572257646862283
30
0
41
1
10
78.3248127509643
20
0.567219509563472
30
0
0
SPLINE
5
162
100
AcDbEntity
8
1
62
256
6
ByLayer
370
18
48
1
60
0
100
AcDbSpline
70
4
71
3
72
17
73
13
40
0
40
0
40
0
40
0
40
0.206398029665441
40
0.309597044498157
40
0.309597044498157
40
0.361196551914515
40
0.361196551914515
40
0.412796059330872
40
0.412796059330872
40
0.825592118661776
40
0.825592118661776
40
1
40
1
40
1
40
1
41
1
10
63.5040298429573
20
4.79587913378074
30
0
41
1
10
63.2583268482837
20
4.74620425491608
30
0
41
1
10
62.889860567272
20
4.66934762065375
30
0
41
1
10
62.5214954213021
20
4.58904795534753
30
0
41
1
10
62.3373275075737
20
4.54832916356369
30
0
41
1
10
62.2761100741578
20
4.5342529314371
30
0
41
1
10
62.1524982948742
20
4.50875248196391
30
0
41
1
10
62.0906177103623
20
4.49610484097255
30
0
41
1
10
61.5330601012803
20
4.38315955854014
30
0
41
1
10
61.0330143499492
20
4.28905588464986
30
0
41
1
10
60.317608739207
20
4.16167965527609
30
0
41
1
10
60.1046064436333
20
4.1246580052719
30
0
41
1
10
59.8911559767966
20
4.0883532990097
30
0
0
SPLINE
5
163
100
AcDbEntity
8
1
62
256
6
ByLayer
370
18
48
1
60
0
100
AcDbSpline
70
4
71
3
72
8
73
4
40
0
40
0
40
0
40
0
40
1
40
1
40
1
40
1
41
1
10
72.3
20
-5.36160229505555
30
0
41
1
10
73.5716747461493
20
-5.36168817883694
30
0
41
1
10
74.8433494850625
20
-5.36164054190536
30
0
41
1
10
76.1150242432701
20
-5.36161496180159
30
0
0
SPLINE
5
164
100
AcDbEntity
8
1
62
256
6
ByLayer
370
18
48
1
60
0
100
AcDbSpline
70
4
71
3
72
24
73
20
40
0
40
0
40
0
40
0
40
0.48088441008156
40
0.48088441008156
40
0.601105512601947
40
0.601105512601947
40
0.631160788232049
40
0.631160788232049
40
0.638674607139578
40
0.638674607139578
40
0.646188426047107
40
0.646188426047107
40
0.661216063862164
40
0.661216063862164
40
0.721326615122358
40
0.721326615122358
40
0.961768820163145
40
0.961768820163145
40
1
40
1
40
1
40
1
41
1
10
64.0833762797236
20
4.393677168778
30
0
41
1
10
63.5816618197845
20
4.31089320112693
30
0
41
1
10
63.0801518938746
20
4.22252115687954
30
0
41
1
10
62.4533455685759
20
4.10436195442955
30
0
41
1
10
62.3279911683599
20
4.0804437345094
30
0
41
1
10
62.1713106345911
20
4.05026856077075
30
0
41
1
10
62.1399737185049
20
4.04418377428527
30
0
41
1
10
62.1007963407114
20
4.03640694793867
30
0
41
1
10
62.0929632570944
20
4.03477088336206
30
0
41
1
10
62.0772858102414
20
4.03176233600689
30
0
41
1
10
62.0694287840167
20
4.03073114358926
30
0
41
1
10
62.0458777262112
20
4.02704526569926
30
0
41
1
10
62.0301730986833
20
4.02461689118496
30
0
41
1
10
61.951631198762
20
4.0125435579221
30
0
41
1
10
61.8887375107641
20
4.00314423948771
30
0
41
1
10
61.5739167369206
20
3.95573546829783
30
0
41
1
10
61.3209432759942
20
3.91677961569104
30
0
41
1
10
61.0268067335368
20
3.87242192189493
30
0
41
1
10
60.9864336964369
20
3.86634763892638
30
0
41
1
10
60.9460407828243
20
3.8602846912066
30
0
0
SPLINE
5
165
100
AcDbEntity
8
1
62
256
6
ByLayer
370
18
48
1
60
0
100
AcDbSpline
70
4
71
3
72
9
73
5
40
0
40
0
40
0
40
0
40
0.494744874703986
40
1
40
1
40
1
40
1
41
1
10
74.9052331377763
20
0.69302358962355
30
0
41
1
10
74.5125758467476
20
0.740054908809554
30
0
41
1
10
73.7189197401258
20
0.835116670114616
30
0
41
1
10
72.925338706315
20
0.930796356869763
30
0
41
1
10
72.5243778216444
20
0.979139008989534
30
0
0
SPLINE
5
166
100
AcDbEntity
8
1
62
256
6
ByLayer
370
18
48
1
60
0
100
AcDbSpline
70
4
71
3
72
8
73
4
40
0
40
0
40
0
40
0
40
1
40
1
40
1
40
1
41
1
10
76.2301728208252
20
0.210569641336406
30
0
41
1
10
76.1739942931903
20
0.39422184811923
30
0
41
1
10
76.127071456691
20
0.579535501241054
30
0
41
1
10
76.0909812461271
20
0.766793668979687
30
0
0
SPLINE
5
167
100
AcDbEntity
8
1
62
256
6
ByLayer
370
18
48
1
60
0
100
AcDbSpline
70
4
71
3
72
66
73
62
40
0
40
0
40
0
40
0
40
0.0625000000000004
40
0.0625000000000004
40
0.125000000000001
40
0.125000000000001
40
0.187500000000001
40
0.187500000000001
40
0.250000000000002
40
0.250000000000002
40
0.281250000000001
40
0.281250000000001
40
0.312500000000001
40
0.312500000000001
40
0.343750000000001
40
0.343750000000001
40
0.375000000000001
40
0.375000000000001
40
0.390625
40
0.390625
40
0.40625
40
0.40625
40
0.421875
40
0.421875
40
0.4375
40
0.4375
40
0.46875
40
0.46875
40
0.484375000000001
40
0.484375000000001
40
0.500000000000001
40
0.500000000000001
40
0.515625000000001
40
0.515625000000001
40
0.531250000000001
40
0.531250000000001
40
0.546875000000001
40
0.546875000000001
40
0.562500000000002
40
0.562500000000002
40
0.593750000000002
40
0.593750000000002
40
0.625000000000001
40
0.625000000000001
40
0.640625000000001
40
0.640625000000001
40
0.656250000000001
40
0.656250000000001
40
0.687500000000001
40
0.687500000000001
40
0.718750000000001
40
0.718750000000001
40
0.750000000000001
40
0.750000000000001
40
0.812500000000001
40
0.812500000000001
40
0.875
40
0.875
40
0.9375
40
0.9375
40
1
40
1
40
1
40
1
41
1
10
10.6063029829973
20
-2.82550279752761
30
0
41
1
10
10.3179992757455
20
-2.78870287594569
30
0
41
1
10
10.0320312491559
20
-2.75411839234616
30
0
41
1
10
9.46014524504307
20
-2.68389465191373
30
0
41
1
10
9.17423491907243
20
-2.6482837975046
30
0
41
1
10
8.59734484417802
20
-2.56827201811157
30
0
41
1
10
8.30636655979706
20
-2.52396696823723
30
0
41
1
10
7.71355375564849
20
-2.41491492999296
30
0
41
1
10
7.4115674605269
20
-2.35026163705612
30
0
41
1
10
6.95179687204026
20
-2.22460935390254
30
0
41
1
10
6.79726291368905
20
-2.17785152658294
30
0
41
1
10
6.48560061981854
20
-2.07082317829415
30
0
41
1
10
6.3281796722878
20
-2.01036386074426
30
0
41
1
10
6.01741874269715
20
-1.8735912456398
30
0
41
1
10
5.86341213799068
20
-1.79710267018388
30
0
41
1
10
5.56055212595916
20
-1.62279146098257
30
0
41
1
10
5.41166782218099
20
-1.52502847984536
30
0
41
1
10
5.19511832323116
20
-1.35674341857231
30
0
41
1
10
5.12385389821839
20
-1.29675264648841
30
0
41
1
10
4.98742363077366
20
-1.17114827310616
30
0
41
1
10
4.92189620188719
20
-1.10528890722693
30
0
41
1
10
4.7969504413266
20
-0.96685696545245
30
0
41
1
10
4.73752874590443
20
-0.894287816700825
30
0
41
1
10
4.62572626332505
20
-0.741646205514655
30
0
41
1
10
4.5732533548678
20
-0.661262562676086
30
0
41
1
10
4.43198368743407
20
-0.414609133716596
30
0
41
1
10
4.35755234409041
20
-0.2410066704266
30
0
41
1
10
4.27990928986327
20
0.0349115231601331
30
0
41
1
10
4.25980483680863
20
0.129876619274938
30
0
41
1
10
4.23299059942445
20
0.318688944638637
30
0
41
1
10
4.22600629777912
20
0.413305231822818
30
0
41
1
10
4.22486269146924
20
0.602962141500711
30
0
41
1
10
4.23070187802091
20
0.698002730279768
30
0
41
1
10
4.25567934194692
20
0.888519802902351
30
0
41
1
10
4.27456781732076
20
0.981944830893497
30
0
41
1
10
4.32413110475122
20
1.16446510956248
30
0
41
1
10
4.35483042622565
20
1.25370988360353
30
0
41
1
10
4.4276278877573
20
1.42825246584837
30
0
41
1
10
4.46995742610818
20
1.5138015328225
30
0
41
1
10
4.60985668891726
20
1.75824017520222
30
0
41
1
10
4.72127695956894
20
1.90758884269883
30
0
41
1
10
4.97250214644228
20
2.18045122913449
30
0
41
1
10
5.10852976671637
20
2.30007396714606
30
0
41
1
10
5.32338950272811
20
2.4597591104683
30
0
41
1
10
5.39683825661828
20
2.50966418321417
30
0
41
1
10
5.54681890548486
20
2.60347372980729
30
0
41
1
10
5.6235773411762
20
2.64747516377429
30
0
41
1
10
5.85423785982155
20
2.76956636046629
30
0
41
1
10
6.00947346996455
20
2.83852920334053
30
0
41
1
10
6.32076895015251
20
2.95811457569872
30
0
41
1
10
6.47684630371458
20
3.0086977108565
30
0
41
1
10
6.78872479795288
20
3.09599330558836
30
0
41
1
10
6.94482601380486
20
3.13271965580665
30
0
41
1
10
7.40654339859307
20
3.22620726008594
30
0
41
1
10
7.70747030025649
20
3.26726215445439
30
0
41
1
10
8.30002796778587
20
3.32785030569434
30
0
41
1
10
8.59180738625147
20
3.34715143076352
30
0
41
1
10
9.17043895864776
20
3.37627709715022
30
0
41
1
10
9.45710799003047
20
3.38601808864635
30
0
41
1
10
10.0304900272337
20
3.40447671321348
30
0
41
1
10
10.3171940557338
20
3.41316284891491
30
0
41
1
10
10.6063029829973
20
3.42439861227081
30
0
0
SPLINE
5
168
100
AcDbEntity
8
1
62
256
6
ByLayer
370
18
48
1
60
0
100
AcDbSpline
70
4
71
3
72
12
73
8
40
0
40
0
40
0
40
0
40
0.5
40
0.5
40
0.75
40
0.75
40
1
40
1
40
1
40
1
41
1
10
78.3610680988909
20
2.15907883948438
30
0
41
1
10
78.2307834143559
20
2.51874441569205
30
0
41
1
10
78.1023117088563
20
2.88030151292637
30
0
41
1
10
77.9124891561318
20
3.42564714869241
30
0
41
1
10
77.8497006827001
20
3.60793578008491
30
0
41
1
10
77.7252002348382
20
3.97363617802867
30
0
41
1
10
77.6637974407095
20
4.15615634653796
30
0
41
1
10
77.6040559306972
20
4.33614329802205
30
0
0
SPLINE
5
169
100
AcDbEntity
8
1
62
256
6
ByLayer
370
18
48
1
60
0
100
AcDbSpline
70
4
71
4
72
10
73
5
40
0
40
0
40
0
40
0
40
0
40
1
40
1
40
1
40
1
40
1
41
1
10
71.5
20
4.67471006270395
30
0
41
1
10
71.5
20
3.8142854759048
30
0
41
0.990212222612487
10
71.5
20
2.88957837917358
30
0
41
0.997193150436816
10
71.5
20
2.16806467756814
30
0
41
0.999463384848372
10
71.5
20
1.7176993598036
30
0
0
SPLINE
5
16A
100
AcDbEntity
8
1
62
256
6
ByLayer
370
18
48
1
60
0
100
AcDbSpline
70
4
71
3
72
8
73
4
40
0
40
0
40
0
40
0
40
1
40
1
40
1
40
1
41
1
10
72.0494954838791
20
-5.99696829541773
30
0
41
1
10
71.8667226197499
20
-5.92788812422032
30
0
41
1
10
71.6835708653974
20
-5.85708907545347
30
0
41
1
10
71.5
20
-5.78468195467909
30
0
0
SPLINE
5
16B
100
AcDbEntity
8
1
62
256
6
ByLayer
370
18
48
1
60
0
100
AcDbSpline
70
4
71
2
72
7
73
4
40
0
40
0
40
0
40
0.488556024861127
40
1
40
1
40
1
41
1
10
74.7390448893408
20
-2.34256873206951
30
0
41
1
10
74.8307546653091
20
-2.90419641840128
30
0
41
1
10
75.103170727972
20
-3.91791495266301
30
0
41
1
10
75.2809679632801
20
-4.33820605756836
30
0
0
SPLINE
5
16C
100
AcDbEntity
8
1
62
256
6
ByLayer
370
18
48
1
60
0
100
AcDbSpline
70
4
71
2
72
6
73
3
40
0
40
0
40
0
40
1
40
1
40
1
41
1
10
71.4087155793393
20
1.40970932258199
30
0
41
1
10
71.4597916902468
20
1.3489684400769
30
0
41
1
10
71.5071869160189
20
1.29070891492358
30
0
0
SPLINE
5
16D
100
AcDbEntity
8
1
62
256
6
ByLayer
370
18
48
1
60
0
100
AcDbSpline
70
4
71
3
72
16
73
12
40
0
40
0
40
0
40
0
40
0.277874189433759
40
0.277874189433759
40
0.555748378867518
40
0.555748378867518
40
0.833622568301278
40
0.833622568301278
40
0.972559663018157
40
0.972559663018157
40
1
40
1
40
1
40
1
41
1
10
72.0494954838909
20
-5.95991749942942
30
0
41
1
10
72.4684336370805
20
-5.98173915072914
30
0
41
1
10
72.8877312861454
20
-5.99461617869332
30
0
41
1
10
73.7259667055435
20
-6.00265831508557
30
0
41
1
10
74.1449485774988
20
-5.99776794632854
30
0
41
1
10
74.9828615011666
20
-5.97015764748329
30
0
41
1
10
75.4018781571888
20
-5.94745482421638
30
0
41
1
10
76.0305691121218
20
-5.90026857574384
30
0
41
1
10
76.2401680016968
20
-5.88236451059757
30
0
41
1
10
76.4910244745822
20
-5.85825240584194
30
0
41
1
10
76.5323923481605
20
-5.85418741897485
30
0
41
1
10
76.5737578744471
20
-5.85003617017418
30
0
0
SPLINE
5
16E
100
AcDbEntity
8
1
62
256
6
ByLayer
370
18
48
1
60
0
100
AcDbSpline
70
4
71
3
72
8
73
4
40
0
40
0
40
0
40
0
40
1
40
1
40
1
40
1
41
1
10
77.0105729857265
20
-5.80308393506056
30
0
41
1
10
77.0330739121881
20
-5.80051010470345
30
0
41
1
10
77.0555773652787
20
-5.7979128144282
30
0
41
1
10
77.0780838424554
20
-5.79529237886206
30
0
0
SPLINE
5
16F
100
AcDbEntity
8
1
62
256
6
ByLayer
370
18
48
1
60
0
100
AcDbSpline
70
4
71
3
72
34
73
30
40
0
40
0
40
0
40
0
40
0.125
40
0.125
40
0.25
40
0.25
40
0.374999999999999
40
0.374999999999999
40
0.499999999999999
40
0.499999999999999
40
0.624999999999999
40
0.624999999999999
40
0.749999999999999
40
0.749999999999999
40
0.812499999999999
40
0.812499999999999
40
0.874999999999998
40
0.874999999999998
40
0.906249999999999
40
0.906249999999999
40
0.921874999999999
40
0.921874999999999
40
0.937499999999999
40
0.937499999999999
40
0.953124999999999
40
0.953124999999999
40
0.96875
40
0.96875
40
1
40
1
40
1
40
1
41
1
10
18.3688777019206
20
4.88272852357292
30
0
41
1
10
20.1601822777017
20
4.68897087301883
30
0
41
1
10
21.9510837514057
20
4.46901761331048
30
0
41
1
10
25.5340423117048
20
3.98316612307744
30
0
41
1
10
27.3244698972573
20
3.71750734947648
30
0
41
1
10
30.9048884103928
20
3.14913589761761
30
0
41
1
10
32.6949609858308
20
2.84644950762888
30
0
41
1
10
36.2768947702961
20
2.21312802630848
30
0
41
1
10
38.0682679570567
20
1.88220101498996
30
0
41
1
10
41.6486578451047
20
1.20484934560713
30
0
41
1
10
43.438464626718
20
0.858381113477122
30
0
41
1
10
47.0191434123726
20
0.159195785097012
30
0
41
1
10
48.8108934459075
20
-0.193679132828521
30
0
41
1
10
51.496874841623
20
-0.718267660916467
30
0
41
1
10
52.3919556146001
20
-0.892344460598451
30
0
41
1
10
54.1819031375193
20
-1.23755635978281
30
0
41
1
10
55.0769058245011
20
-1.40804697687844
30
0
41
1
10
56.4189153327271
20
-1.66314887042751
30
0
41
1
10
56.8659859636761
20
-1.74892721462501
30
0
41
1
10
57.5378072018481
20
-1.87112849825559
30
0
41
1
10
57.761962562231
20
-1.9107363018914
30
0
41
1
10
58.2095639110215
20
-1.99303737651127
30
0
41
1
10
58.4329464925638
20
-2.03602633550358
30
0
41
1
10
58.8781632391127
20
-2.12889654334074
30
0
41
1
10
59.1002280729482
20
-2.17769097913467
30
0
41
1
10
59.5449913421368
20
-2.27199580234569
30
0
41
1
10
59.7675602241025
20
-2.31811659736107
30
0
41
1
10
60.4351558247907
20
-2.4564973690791
30
0
41
1
10
60.8801842547547
20
-2.54824478524014
30
0
41
1
10
61.3253719227174
20
-2.63859258187549
30
0
0
SPLINE
5
170
100
AcDbEntity
8
1
62
256
6
ByLayer
370
18
48
1
60
0
100
AcDbSpline
70
4
71
3
72
14
73
10
40
0
40
0
40
0
40
0
40
0.25
40
0.25
40
0.5
40
0.5
40
0.75
40
0.75
40
1
40
1
40
1
40
1
41
1
10
14.5371399081685
20
3.59729854518554
30
0
41
1
10
14.3544167465196
20
3.61763343846036
30
0
41
1
10
14.1720174460608
20
3.6374727920014
30
0
41
1
10
13.8076022350608
20
3.67430257448598
30
0
41
1
10
13.6242113903003
20
3.69122736963786
30
0
41
1
10
13.2725148638229
20
3.7162883714374
30
0
41
1
10
13.1023033153178
20
3.72462337327377
30
0
41
1
10
12.7715569578814
20
3.72958237145494
30
0
41
1
10
12.6143825224694
20
3.72612576430743
30
0
41
1
10
12.4656813362187
20
3.71610943067651
30
0
0
SPLINE
5
171
100
AcDbEntity
8
1
62
256
6
ByLayer
370
18
48
1
60
0
100
AcDbSpline
70
4
71
3
72
12
73
8
40
0
40
0
40
0
40
0
40
0.302697831007785
40
0.302697831007785
40
0.605395662015586
40
0.605395662015586
40
1
40
1
40
1
40
1
41
1
10
64.0851957445243
20
4.40342264986444
30
0
41
1
10
64.0859892167333
20
4.40604423486343
30
0
41
1
10
64.0867825515674
20
4.40866586144543
30
0
41
1
10
64.0883689465339
20
4.41390919771385
30
0
41
1
10
64.0891620066684
20
4.41653090740746
30
0
41
1
10
64.0909886031542
20
4.42257043800751
30
0
41
1
10
64.0920220434593
20
4.42598828797475
30
0
41
1
10
64.093055250444
20
4.429406208464
30
0
0
SPLINE
5
172
100
AcDbEntity
8
1
62
256
6
ByLayer
370
18
48
1
60
0
100
AcDbSpline
70
4
71
3
72
12
73
8
40
0
40
0
40
0
40
0
40
0.5
40
0.5
40
0.75
40
0.75
40
1
40
1
40
1
40
1
41
1
10
64.9905518225738
20
3.00413300750137
30
0
41
1
10
66.3774945933088
20
2.57108676927538
30
0
41
1
10
67.7610858363962
20
2.10521452381877
30
0
41
1
10
69.8396987956271
20
1.37848979655175
30
0
41
1
10
70.5329776660208
20
1.13125251116281
30
0
41
1
10
71.9220961526252
20
0.631536878933389
30
0
41
1
10
72.6183768690615
20
0.378722263618471
30
0
41
1
10
73.315311169843
20
0.124991833383376
30
0
0
SPLINE
5
173
100
AcDbEntity
8
1
62
256
6
ByLayer
370
18
48
1
60
0
100
AcDbSpline
70
4
71
2
72
6
73
3
40
0
40
0
40
0
40
1
40
1
40
1
41
1
10
74.4659364652795
20
-1.64906981244099
30
0
41
1
10
74.5959818730643
20
-1.97664142762957
30
0
41
1
10
74.7358699846263
20
-2.28980034787327
30
0
0
SPLINE
5
174
100
AcDbEntity
8
1
62
256
6
ByLayer
370
18
48
1
60
0
100
AcDbSpline
70
4
71
3
72
8
73
4
40
0
40
0
40
0
40
0
40
1
40
1
40
1
40
1
41
1
10
74.9180709850252
20
0.682631119101018
30
0
41
1
10
74.9137910770441
20
0.686091205794355
30
0
41
1
10
74.9095118504079
20
0.689555356749992
30
0
41
1
10
74.9052333113244
20
0.693023568786742
30
0
0
SPLINE
5
175
100
AcDbEntity
8
1
62
256
6
ByLayer
370
18
48
1
60
0
100
AcDbSpline
70
4
71
3
72
12
73
8
40
0
40
0
40
0
40
0
40
0.5
40
0.5
40
0.75
40
0.75
40
1
40
1
40
1
40
1
41
1
10
62.8433533014426
20
3.59559086628866
30
0
41
1
10
62.6249021637086
20
3.57635315263769
30
0
41
1
10
62.407803028932
20
3.57849513062504
30
0
41
1
10
62.0841264555081
20
3.61278826679555
30
0
41
1
10
61.975947816943
20
3.62959172137852
30
0
41
1
10
61.7643298325054
20
3.67301272680626
30
0
41
1
10
61.6607377526115
20
3.69957471748987
30
0
41
1
10
61.5593576979945
20
3.73073179189791
30
0
0
SPLINE
5
176
100
AcDbEntity
8
1
62
256
6
ByLayer
370
18
48
1
60
0
100
AcDbSpline
70
4
71
3
72
8
73
4
40
0
40
0
40
0
40
0
40
1
40
1
40
1
40
1
41
1
10
64.0851957445195
20
4.40342264986339
30
0
41
1
10
64.1209709992067
20
4.41136263422382
30
0
41
1
10
64.1565795454746
20
4.42020103716766
30
0
41
1
10
64.1920193664891
20
4.42994330459732
30
0
0
SPLINE
5
177
100
AcDbEntity
8
1
62
256
6
ByLayer
370
18
48
1
60
0
100
AcDbSpline
70
4
71
3
72
13
73
9
40
0
40
0
40
0
40
0
40
0.172076787079975
40
0.341985430642015
40
0.509728912573559
40
0.675310331830548
40
0.838732910459652
40
1
40
1
40
1
40
1
41
1
10
74.6130868988164
20
-2.35312402882892
30
0
41
1
10
74.5963685731007
20
-2.31450122660155
30
0
41
1
10
74.5631425702416
20
-2.23774226406826
30
0
41
1
10
74.514269924783
20
-2.12178149724062
30
0
41
1
10
74.4665053511951
20
-2.00625266740187
30
0
41
1
10
74.4199081623458
20
-1.89110200739287
30
0
41
1
10
74.3744135967911
20
-1.7765218702653
30
0
41
1
10
74.3447535530091
20
-1.69984868953747
30
0
41
1
10
74.3300219818959
20
-1.66176660096505
30
0
0
SPLINE
5
178
100
AcDbEntity
8
1
62
256
6
ByLayer
370
18
48
1
60
0
100
AcDbSpline
70
4
71
3
72
8
73
4
40
0
40
0
40
0
40
0
40
1
40
1
40
1
40
1
41
1
10
15.9469999999328
20
-3.93434025573421
30
0
41
1
10
15.9469999999322
20
-4.02593581211627
30
0
41
1
10
15.9469999999316
20
-4.11757851627272
30
0
41
1
10
15.9469999999309
20
-4.20926832940765
30
0
0
SPLINE
5
179
100
AcDbEntity
8
1
62
256
6
ByLayer
370
18
48
1
60
0
100
AcDbSpline
70
4
71
3
72
8
73
4
40
0
40
0
40
0
40
0
40
1
40
1
40
1
40
1
41
1
10
71.6306287870708
20
-5.60636194677139
30
0
41
1
10
71.856277484944
20
-5.53909847279593
30
0
41
1
10
72.0794589862938
20
-5.45783959233324
30
0
41
1
10
72.3
20
-5.36160229505555
30
0
0
SPLINE
5
17A
100
AcDbEntity
8
1
62
256
6
ByLayer
370
18
48
1
60
0
100
AcDbSpline
70
2053
71
3
72
39
73
35
40
0
40
0
40
0
40
0
40
0.031095614334483
40
0.0621975501045263
40
0.0932879162925378
40
0.124587962869751
40
0.155788519270164
40
0.187201012927807
40
0.218580343258169
40
0.249993225895374
40
0.281505775643335
40
0.312842294623518
40
0.34428636619092
40
0.37556208290402
40
0.406757504374349
40
0.437954990867224
40
0.469005509711775
40
0.500115847473028
40
0.531156159781988
40
0.562199398370753
40
0.593421000572164
40
0.624556487923321
40
0.655909695588181
40
0.687232443141937
40
0.718621187619057
40
0.750117771228006
40
0.781472647671213
40
0.812977340675951
40
0.844306220502497
40
0.875611548655892
40
0.90688198384805
40
0.937915245406487
40
0.969068880672709
40
1
40
1
40
1
40
1
41
1
10
68.87
20
-2.87593847145539
30
0
41
1
10
68.9745572357522
20
-2.87593895255186
30
0
41
1
10
69.1836974245256
20
-2.89504635221979
30
0
41
1
10
69.4838925509997
20
-2.97860958555859
30
0
41
1
10
69.7593276750798
20
-3.11087442200952
30
0
41
1
10
69.9997680193375
20
-3.28306692165782
30
0
41
1
10
70.1974705933501
20
-3.48568168393265
30
0
41
1
10
70.344867563114
20
-3.70777629255412
30
0
41
1
10
70.4361671279806
20
-3.93878399896462
30
0
41
1
10
70.4671337072759
20
-4.16760805347653
30
0
41
1
10
70.4361082450017
20
-4.38393412502472
30
0
41
1
10
70.3446029871737
20
-4.57984559383613
30
0
41
1
10
70.1970032987763
20
-4.74931356553441
30
0
41
1
10
69.9991177421439
20
-4.88940310613833
30
0
41
1
10
69.75836703116
20
-4.99867794301178
30
0
41
1
10
69.4829625381906
20
-5.0767362620046
30
0
41
1
10
69.1824689194592
20
-5.12358590686767
30
0
41
1
10
68.869053238484
20
-5.13913423960898
30
0
41
1
10
68.5557184950826
20
-5.12338854398607
30
0
41
1
10
68.2554969705416
20
-5.0764068593418
30
0
41
1
10
67.9803802250642
20
-4.99821695639261
30
0
41
1
10
67.7397191050474
20
-4.88874873412976
30
0
41
1
10
67.5422816217051
20
-4.74865814975291
30
0
41
1
10
67.3949111215829
20
-4.57906208008959
30
0
41
1
10
67.303673900373
20
-4.38324618664669
30
0
41
1
10
67.2728913710517
20
-4.16690730798268
30
0
41
1
10
67.3040340779631
20
-3.93794701710277
30
0
41
1
10
67.395542070045
20
-3.70697234298984
30
0
41
1
10
67.5433961713661
20
-3.48460541036576
30
0
41
1
10
67.7413133348049
20
-3.28211122907865
30
0
41
1
10
67.9820323056979
20
-3.1100971772841
30
0
41
1
10
68.2574951732926
20
-2.97808875168315
30
0
41
1
10
68.5572438410321
20
-2.89490793086207
30
0
41
1
10
68.7659958693598
20
-2.8759379929039
30
0
41
1
10
68.87
20
-2.87593847145539
30
0
0
SPLINE
5
17B
100
AcDbEntity
8
1
62
256
6
ByLayer
370
18
48
1
60
0
100
AcDbSpline
70
4
71
3
72
14
73
10
40
0
40
0
40
0
40
0
40
0.279051884940724
40
0.279051884940724
40
0.639525942470357
40
0.639525942470357
40
0.819762971235178
40
0.819762971235178
40
1
40
1
40
1
40
1
41
1
10
73.5908344461025
20
5.99999801309835
30
0
41
1
10
73.9152406902625
20
5.99999425957515
30
0
41
1
10
74.2395804785494
20
5.99464970457058
30
0
41
1
10
74.9828615011688
20
5.97015764748363
30
0
41
1
10
75.4018781571905
20
5.94745482421666
30
0
41
1
10
76.0305691121231
20
5.90026857574412
30
0
41
1
10
76.2401680016982
20
5.88236451059794
30
0
41
1
10
76.6591343143485
20
5.842093835085
30
0
41
1
10
76.8684779320614
20
5.81969685487692
30
0
41
1
10
77.0780838424555
20
5.79529237886186
30
0
0
SPLINE
5
17C
100
AcDbEntity
8
1
62
256
6
ByLayer
370
18
48
1
60
0
100
AcDbSpline
70
4
71
3
72
14
73
10
40
0
40
0
40
0
40
0
40
0.249999999999999
40
0.249999999999999
40
0.5
40
0.5
40
0.75
40
0.75
40
1
40
1
40
1
40
1
41
1
10
78.8491216586903
20
0.572283050048867
30
0
41
1
10
78.8279696132629
20
0.657331366522726
30
0
41
1
10
78.8017907363009
20
0.755072346177627
30
0
41
1
10
78.7404267762138
20
0.972029107408815
30
0
41
1
10
78.7052434869386
20
1.09123847787703
30
0
41
1
10
78.6272831711266
20
1.34634557316079
30
0
41
1
10
78.5845082422669
20
1.48223643382525
30
0
41
1
10
78.4930817234476
20
1.76525116261547
30
0
41
1
10
78.4444334647504
20
1.91236483442989
30
0
41
1
10
78.3938216471333
20
2.06214699199498
30
0
0
SPLINE
5
17D
100
AcDbEntity
8
1
62
256
6
ByLayer
370
18
48
1
60
0
100
AcDbSpline
70
4
71
3
72
8
73
4
40
0
40
0
40
0
40
0
40
1
40
1
40
1
40
1
41
1
10
71.3
20
2.84999999999999
30
0
41
1
10
71.3666601681023
20
2.84999999999999
30
0
41
1
10
71.4333269783413
20
2.84999999999999
30
0
41
1
10
71.5000000000001
20
2.84999999999999
30
0
0
SPLINE
5
17E
100
AcDbEntity
8
1
62
256
6
ByLayer
370
18
48
1
60
0
100
AcDbSpline
70
4
71
3
72
10
73
6
40
0
40
0
40
0
40
0
40
0.509808528510392
40
0.509808528510392
40
1
40
1
40
1
40
1
41
1
10
77.0780838424553
20
-5.79529237886206
30
0
41
1
10
77.0868611225561
20
-5.76966706293331
30
0
41
1
10
77.0956333884914
20
-5.74404573300234
30
0
41
1
10
77.1128303397765
20
-5.69379735812683
30
0
41
1
10
77.121255441624
20
-5.66916990091264
30
0
41
1
10
77.1296757585279
20
-5.64454657211991
30
0
0
SPLINE
5
17F
100
AcDbEntity
8
1
62
256
6
ByLayer
370
13
48
1
60
0
100
AcDbSpline
70
4
71
3
72
14
73
10
40
0
40
0
40
0
40
0
40
0.25702144250449
40
0.385532163756735
40
0.449787524382858
40
0.514042885008981
40
0.771064327513471
40
0.899575048765716
40
1
40
1
40
1
40
1
41
1
10
71.5
20
4.67471006270395
30
0
41
1
10
72.02311707421
20
4.68907629872598
30
0
41
1
10
72.8077015228916
20
4.69135646769689
30
0
41
1
10
73.7225836290066
20
4.66493766708109
30
0
41
1
10
74.2454846481319
20
4.64308346757508
30
0
41
1
10
75.0301271521042
20
4.60239423779996
30
0
41
1
10
75.945366550802
20
4.52912241961639
30
0
41
1
10
76.9339236940016
20
4.42231028768413
30
0
41
1
10
77.3997258685442
20
4.36351087078751
30
0
41
1
10
77.6040559309886
20
4.33614329716332
30
0
0
SPLINE
5
180
100
AcDbEntity
8
1
62
256
6
ByLayer
370
18
48
1
60
0
100
AcDbSpline
70
4
71
3
72
12
73
8
40
0
40
0
40
0
40
0
40
0.250000000000014
40
0.250000000000014
40
0.500000000000028
40
0.500000000000028
40
1
40
1
40
1
40
1
41
1
10
64.1920193664891
20
4.42994330459729
30
0
41
1
10
64.2439302576024
20
4.43591344246803
30
0
41
1
10
64.295520745034
20
4.43986513928238
30
0
41
1
10
64.3980440757804
20
4.44322732112124
30
0
41
1
10
64.448697958214
20
4.44259083721886
30
0
41
1
10
64.5953414709655
20
4.43339947302138
30
0
41
1
10
64.6874245645274
20
4.4177311285116
30
0
41
1
10
64.7732799072037
20
4.39102476548481
30
0
0
SPLINE
5
181
100
AcDbEntity
8
1
62
256
6
ByLayer
370
18
48
1
60
0
100
AcDbSpline
70
4
71
3
72
18
73
14
40
0
40
0
40
0
40
0
40
0.124999999999994
40
0.124999999999994
40
0.249999999999989
40
0.249999999999989
40
0.499999999999984
40
0.499999999999984
40
0.624999999999986
40
0.624999999999986
40
0.749999999999988
40
0.749999999999988
40
1
40
1
40
1
40
1
41
1
10
11.1982370190574
20
-2.92063025246864
30
0
41
1
10
11.2490166722894
20
-2.97371735204169
30
0
41
1
10
11.3036678733411
20
-3.02289613574661
30
0
41
1
10
11.4209446529306
20
-3.11453171996291
30
0
41
1
10
11.4839095015389
20
-3.15715689856583
30
0
41
1
10
11.681250755258
20
-3.27437519575076
30
0
41
1
10
11.8246280282266
20
-3.33918011885785
30
0
41
1
10
12.0569013977438
20
-3.42454439490308
30
0
41
1
10
12.13742158437
20
-3.45103419717299
30
0
41
1
10
12.3011749595901
20
-3.50019287261085
30
0
41
1
10
12.3847393291959
20
-3.52299574363266
30
0
41
1
10
12.6402568122869
20
-3.58768161679069
30
0
41
1
10
12.8169931036418
20
-3.62591289051173
30
0
41
1
10
13
20
-3.66231530393728
30
0
0
SPLINE
5
182
100
AcDbEntity
8
1
62
256
6
ByLayer
370
18
48
1
60
0
100
AcDbSpline
70
4
71
3
72
8
73
4
40
0
40
0
40
0
40
0
40
1
40
1
40
1
40
1
41
1
10
63.504029842939
20
4.79587913377867
30
0
41
1
10
63.4718112371512
20
4.639633992407
30
0
41
1
10
63.4397949434129
20
4.48295701611377
30
0
41
1
10
63.4079879546458
20
4.3258332785131
30
0
0
SPLINE
5
183
100
AcDbEntity
8
1
62
256
6
ByLayer
370
18
48
1
60
0
100
AcDbSpline
70
4
71
3
72
32
73
28
40
0
40
0
40
0
40
0
40
0.124999999999991
40
0.124999999999991
40
0.187499999999991
40
0.187499999999991
40
0.24999999999999
40
0.24999999999999
40
0.31249999999999
40
0.31249999999999
40
0.374999999999989
40
0.374999999999989
40
0.499999999999988
40
0.499999999999988
40
0.56249999999999
40
0.56249999999999
40
0.624999999999992
40
0.624999999999992
40
0.687499999999995
40
0.687499999999995
40
0.749999999999997
40
0.749999999999997
40
0.874999999999998
40
0.874999999999998
40
0.937499999999999
40
0.937499999999999
40
1
40
1
40
1
40
1
41
1
10
61.3253719227174
20
-2.63859258187551
30
0
41
1
10
61.5514736742999
20
-2.6844783881117
30
0
41
1
10
61.779051892121
20
-2.70616321176061
30
0
41
1
10
62.122553105901
20
-2.70438626278133
30
0
41
1
10
62.2376689243185
20
-2.69797620284044
30
0
41
1
10
62.4675711513861
20
-2.67314345596014
30
0
41
1
10
62.580635631604
20
-2.65493311938383
30
0
41
1
10
62.8031233469466
20
-2.60715418181957
30
0
41
1
10
62.912546187431
20
-2.57758469361241
30
0
41
1
10
63.1277342329198
20
-2.50675763502579
30
0
41
1
10
63.2339193482169
20
-2.46530653366321
30
0
41
1
10
63.543935421915
20
-2.32336794067689
30
0
41
1
10
63.734929535396
20
-2.20778574279896
30
0
41
1
10
63.9984247441156
20
-2.00134064655208
30
0
41
1
10
64.0828443707977
20
-1.92648581213172
30
0
41
1
10
64.2413925826542
20
-1.76693053005806
30
0
41
1
10
64.3149782788742
20
-1.68290121712297
30
0
41
1
10
64.4512171339142
20
-1.50636966513645
30
0
41
1
10
64.5138684776284
20
-1.41386684620585
30
0
41
1
10
64.6283206916231
20
-1.22015505422556
30
0
41
1
10
64.6804280911591
20
-1.11817001979904
30
0
41
1
10
64.8173425337457
20
-0.805178721488119
30
0
41
1
10
64.8832713160697
20
-0.587674817972641
30
0
41
1
10
64.9485291695103
20
-0.249052421307709
30
0
41
1
10
64.964599315933
20
-0.133850599397533
30
0
41
1
10
64.9855469435379
20
0.0962373089779192
30
0
41
1
10
64.9905518232125
20
0.211644884711404
30
0
41
1
10
64.990551823195
20
0.327381866755644
30
0
0
SPLINE
5
184
100
AcDbEntity
8
1
62
256
6
ByLayer
370
18
48
1
60
0
100
AcDbSpline
70
4
71
3
72
10
73
6
40
0
40
0
40
0
40
0
40
0.0906216281518668
40
0.583775089294172
40
1
40
1
40
1
40
1
41
1
10
71.5116541978618
20
-5.46238273656502
30
0
41
1
10
71.5109517165269
20
-5.4638039921274
30
0
41
1
10
71.5066162551551
20
-5.47294625555117
30
0
41
1
10
71.5012670465711
20
-5.48845954832868
30
0
41
1
10
71.5003978387452
20
-5.50198314250682
30
0
41
1
10
71.5000000000007
20
-5.50817292769796
30
0
0
SPLINE
5
185
100
AcDbEntity
8
1
62
256
6
ByLayer
370
18
48
1
60
0
100
AcDbSpline
70
4
71
3
72
22
73
18
40
0
40
0
40
0
40
0
40
0.0190859776125751
40
0.0382778226862919
40
0.106708775794353
40
0.176049647408741
40
0.2449580474304
40
0.314477662498868
40
0.452771664989605
40
0.590840123080735
40
0.659389408772435
40
0.728426922512767
40
0.796216585547672
40
0.864636275177484
40
0.909545627631599
40
0.954592955123858
40
1
40
1
40
1
40
1
41
1
10
72.5243862819364
20
0.979139856943618
30
0
41
1
10
72.5149968399181
20
0.978622233430372
30
0
41
1
10
72.4961658738554
20
0.977584115212892
30
0
41
1
10
72.4426633845642
20
0.97612069531192
30
0
41
1
10
72.3616397680617
20
0.977517509287168
30
0
41
1
10
72.2526262110223
20
0.986366663213147
30
0
41
1
10
72.1430489854861
20
1.00112684073488
30
0
41
1
10
72.0000798912385
20
1.02780319871721
30
0
41
1
10
71.8309302267594
20
1.07233869626793
30
0
41
1
10
71.6868992780621
20
1.12856057626084
30
0
41
1
10
71.5916345918404
20
1.17948292832219
30
0
41
1
10
71.5312700636283
20
1.22039267633974
30
0
41
1
10
71.4821609526389
20
1.26406836560378
30
0
41
1
10
71.4492513420934
20
1.30499803370344
30
0
41
1
10
71.4281795441802
20
1.34240901794485
30
0
41
1
10
71.4151276403408
20
1.37537896424513
30
0
41
1
10
71.4108584828867
20
1.39823462422609
30
0
41
1
10
71.4087154154039
20
1.40970790021328
30
0
0
SPLINE
5
186
100
AcDbEntity
8
1
62
256
6
ByLayer
370
18
48
1
60
0
100
AcDbSpline
70
4
71
2
72
6
73
3
40
0
40
0
40
0
40
1
40
1
40
1
41
0.50000005043745
10
13.0518944347507
20
-3.68268758261671
30
0
41
0.49999994956255
10
13.0524403792765
20
-3.67987522389085
30
0
41
0.50000005043745
10
13.0529869812597
20
-3.67705981576403
30
0
0
SPLINE
5
187
100
AcDbEntity
8
1
62
256
6
ByLayer
370
13
48
1
60
0
100
AcDbSpline
70
4
71
3
72
18
73
14
40
0
40
0
40
0
40
0
40
0.25
40
0.25
40
0.5
40
0.5
40
0.625
40
0.625
40
0.75
40
0.75
40
0.875
40
0.875
40
1
40
1
40
1
40
1
41
1
10
78.3501017842799
20
0.621797404598198
30
0
41
1
10
78.2324172207346
20
0.698446123737654
30
0
41
1
10
78.1184151913324
20
0.784361616464025
30
0
41
1
10
77.9014357188382
20
0.977005812124588
30
0
41
1
10
77.7985840489532
20
1.08375957269001
30
0
41
1
10
77.6577984979401
20
1.26007684931898
30
0
41
1
10
77.613002328717
20
1.32167222040755
30
0
41
1
10
77.5283752935719
20
1.45138510254605
30
0
41
1
10
77.488483905592
20
1.51962499383669
30
0
41
1
10
77.4160287190269
20
1.66079982457958
30
0
41
1
10
77.3832707961752
20
1.73403533504097
30
0
41
1
10
77.3255042457544
20
1.88646157664641
30
0
41
1
10
77.3004601476186
20
1.96568553328811
30
0
41
1
10
77.2803177002014
20
2.04680247641127
30
0
0
SPLINE
5
188
100
AcDbEntity
8
1
62
256
6
ByLayer
370
18
48
1
60
0
100
AcDbSpline
70
4
71
1
72
4
73
2
40
0
40
0
40
1
40
1
41
1
10
74.7358698509256
20
-2.28980037091364
30
0
41
1
10
74.7390459868244
20
-2.34257545301162
30
0
0
SPLINE
5
189
100
AcDbEntity
8
1
62
256
6
ByLayer
370
18
48
1
60
0
100
AcDbSpline
70
4
71
3
72
14
73
10
40
0
40
0
40
0
40
0
40
0.250000000000002
40
0.250000000000002
40
0.375000000000003
40
0.375000000000003
40
0.500000000000003
40
0.500000000000003
40
1
40
1
40
1
40
1
41
1
10
11.1982370190575
20
-2.92063025246861
30
0
41
1
10
11.2571908945094
20
-2.90574351773984
30
0
41
1
10
11.3213409894027
20
-2.89468212817806
30
0
41
1
10
11.426549550176
20
-2.88563498274635
30
0
41
1
10
11.4631218359853
20
-2.8838786216408
30
0
41
1
10
11.5395445487104
20
-2.88319854099382
30
0
41
1
10
11.5796237828902
20
-2.88429605796083
30
0
41
1
10
11.785392663728
20
-2.89734871490603
30
0
41
1
10
11.9673557640986
20
-2.9323030335002
30
0
41
1
10
12.1676980858949
20
-2.98761402663729
30
0
0
SPLINE
5
18A
100
AcDbEntity
8
1
62
256
6
ByLayer
370
18
48
1
60
0
100
AcDbSpline
70
4
71
3
72
14
73
10
40
0
40
0
40
0
40
0
40
0.249999999999999
40
0.249999999999999
40
0.5
40
0.5
40
0.75
40
0.75
40
1
40
1
40
1
40
1
41
1
10
78.8491216586903
20
-0.572283050048867
30
0
41
1
10
78.8279696132629
20
-0.657331366522726
30
0
41
1
10
78.8017907363009
20
-0.755072346177627
30
0
41
1
10
78.7404267762138
20
-0.972029107408815
30
0
41
1
10
78.7052434869386
20
-1.09123847787703
30
0
41
1
10
78.6272831711266
20
-1.34634557316079
30
0
41
1
10
78.5845082422669
20
-1.48223643382525
30
0
41
1
10
78.4930817234476
20
-1.76525116261547
30
0
41
1
10
78.4444334647504
20
-1.91236483442989
30
0
41
1
10
78.3938216471333
20
-2.06214699199498
30
0
0
SPLINE
5
18B
100
AcDbEntity
8
SK1
62
256
6
ByLayer
370
18
48
1
60
0
100
AcDbSpline
70
4
71
3
72
68
73
64
40
0
40
0
40
0
40
0
40
0.031249999999999
40
0.031249999999999
40
0.0624999999999979
40
0.0624999999999979
40
0.0937499999999969
40
0.0937499999999969
40
0.124999999999996
40
0.124999999999996
40
0.156249999999995
40
0.156249999999995
40
0.187499999999994
40
0.187499999999994
40
0.203124999999994
40
0.203124999999994
40
0.218749999999993
40
0.218749999999993
40
0.249999999999994
40
0.249999999999994
40
0.281249999999994
40
0.281249999999994
40
0.312499999999995
40
0.312499999999995
40
0.374999999999996
40
0.374999999999996
40
0.406249999999996
40
0.406249999999996
40
0.437499999999997
40
0.437499999999997
40
0.499999999999998
40
0.499999999999998
40
0.531249999999998
40
0.531249999999998
40
0.562499999999999
40
0.562499999999999
40
0.625
40
0.625
40
0.687500000000001
40
0.687500000000001
40
0.718750000000002
40
0.718750000000002
40
0.750000000000002
40
0.750000000000002
40
0.781250000000002
40
0.781250000000002
40
0.796875000000002
40
0.796875000000002
40
0.812500000000002
40
0.812500000000002
40
0.875000000000001
40
0.875000000000001
40
0.890625000000002
40
0.890625000000002
40
0.906250000000002
40
0.906250000000002
40
0.937500000000001
40
0.937500000000001
40
0.953125
40
0.953125
40
0.96875
40
0.96875
40
1
40
1
40
1
40
1
41
1
10
-6.5
20
-5.22687526156881
30
0
41
1
10
-6.34394845902597
20
-5.22687526156881
30
0
41
1
10
-6.19042122799681
20
-5.21639296166188
30
0
41
1
10
-5.88813127356264
20
-5.17538167389498
30
0
41
1
10
-5.73937086802019
20
-5.14484388887027
30
0
41
1
10
-5.44668791013001
20
-5.06264474621489
30
0
41
1
10
-5.30640369525707
20
-5.01193969825908
30
0
41
1
10
-5.03894522260001
20
-4.89264595737453
30
0
41
1
10
-4.9114150500626
20
-4.82393877072775
30
0
41
1
10
-4.66819142451462
20
-4.66792077701672
30
0
41
1
10
-4.55453796065879
20
-4.58183100628238
30
0
41
1
10
-4.34341957458059
20
-4.39591890548189
30
0
41
1
10
-4.24555238453496
20
-4.29582260896419
30
0
41
1
10
-4.10907609706425
20
-4.13515213531713
30
0
41
1
10
-4.06534402103676
20
-4.07984985855634
30
0
41
1
10
-3.98215786603771
20
-3.9672120524713
30
0
41
1
10
-3.94255192832321
20
-3.90970415853502
30
0
41
1
10
-3.82916464826297
20
-3.73374973224327
30
0
41
1
10
-3.76079493452551
20
-3.61187897183513
30
0
41
1
10
-3.63624704359682
20
-3.35953204614827
30
0
41
1
10
-3.58007582712935
20
-3.22905393387657
30
0
41
1
10
-3.4782218447136
20
-2.95982853214917
30
0
41
1
10
-3.43270898082483
20
-2.82135737017342
30
0
41
1
10
-3.31172877897703
20
-2.40192639130166
30
0
41
1
10
-3.25058974448933
20
-2.11444591958698
30
0
41
1
10
-3.17964256237119
20
-1.67264361464774
30
0
41
1
10
-3.15951387424582
20
-1.52360098026489
30
0
41
1
10
-3.12548630669414
20
-1.22203846790575
30
0
41
1
10
-3.111569150642
20
-1.06905861372326
30
0
41
1
10
-3.07879446769871
20
-0.610864071414824
30
0
41
1
10
-3.06851117613567
20
-0.30500095518957
30
0
41
1
10
-3.06855405803267
20
0.154369885010055
30
0
41
1
10
-3.07118881096969
20
0.307590124534158
30
0
41
1
10
-3.08188606588456
20
0.61422697188965
30
0
41
1
10
-3.08996887021809
20
0.767936726458487
30
0
41
1
10
-3.12302468043902
20
1.22746192774332
30
0
41
1
10
-3.15628163406512
20
1.52726901543855
30
0
41
1
10
-3.25044943178841
20
2.11347343178804
30
0
41
1
10
-3.31128420063564
20
2.39987709805374
30
0
41
1
10
-3.43173287409903
20
2.81822348190337
30
0
41
1
10
-3.47692542817427
20
2.95611071389945
30
0
41
1
10
-3.5789463395341
20
3.2263526489771
30
0
41
1
10
-3.63520900785142
20
3.35725729466213
30
0
41
1
10
-3.7599345985283
20
3.6103048347239
30
0
41
1
10
-3.82839078776152
20
3.73244962227668
30
0
41
1
10
-3.94187917539884
20
3.90870910519672
30
0
41
1
10
-3.98151393492188
20
3.9663010269658
30
0
41
1
10
-4.06474193989283
20
4.07907314613499
30
0
41
1
10
-4.10849213670588
20
4.13443194322988
30
0
41
1
10
-4.33594792759203
20
4.40237304536254
30
0
41
1
10
-4.54466702410224
20
4.58831633060635
30
0
41
1
10
-4.84790367859867
20
4.78328857284635
30
0
41
1
10
-4.91085818148966
20
4.82044609497191
30
0
41
1
10
-5.03890746797549
20
4.88957371735646
30
0
41
1
10
-5.10426107134134
20
4.92172722181593
30
0
41
1
10
-5.30435113991214
20
5.01112499993621
30
0
41
1
10
-5.44309556549268
20
5.06134953831224
30
0
41
1
10
-5.65972848213716
20
5.12261167611467
30
0
41
1
10
-5.73336359710802
20
5.14067671547696
30
0
41
1
10
-5.88363874833243
20
5.17194619308157
30
0
41
1
10
-5.95993020834322
20
5.18505308835799
30
0
41
1
10
-6.18918677634795
20
5.21636047859616
30
0
41
1
10
-6.34372076022839
20
5.22687526156881
30
0
41
1
10
-6.5
20
5.22687526156881
30
0
0
SPLINE
5
18C
100
AcDbEntity
8
SK1
62
256
6
ByLayer
370
18
48
1
60
0
100
AcDbSpline
70
4
71
3
72
68
73
64
40
0
40
0
40
0
40
0
40
0.0312500000000001
40
0.0312500000000001
40
0.0625000000000002
40
0.0625000000000002
40
0.0937500000000003
40
0.0937500000000003
40
0.125
40
0.125
40
0.156250000000001
40
0.156250000000001
40
0.187500000000001
40
0.187500000000001
40
0.203125000000001
40
0.203125000000001
40
0.218750000000001
40
0.218750000000001
40
0.250000000000001
40
0.250000000000001
40
0.28125
40
0.28125
40
0.3125
40
0.3125
40
0.375
40
0.375
40
0.40625
40
0.40625
40
0.4375
40
0.4375
40
0.5
40
0.5
40
0.53125
40
0.53125
40
0.5625
40
0.5625
40
0.625
40
0.625
40
0.6875
40
0.6875
40
0.71875
40
0.71875
40
0.75
40
0.75
40
0.78125
40
0.78125
40
0.796875
40
0.796875
40
0.8125
40
0.8125
40
0.874999999999999
40
0.874999999999999
40
0.890625
40
0.890625
40
0.90625
40
0.90625
40
0.9375
40
0.9375
40
0.953125
40
0.953125
40
0.96875
40
0.96875
40
1
40
1
40
1
40
1
41
1
10
-41.5
20
5.22687526156881
30
0
41
1
10
-41.656051540974
20
5.22687526156881
30
0
41
1
10
-41.8095787720032
20
5.21639296166188
30
0
41
1
10
-42.1118687264374
20
5.17538167389498
30
0
41
1
10
-42.2606291319798
20
5.14484388887027
30
0
41
1
10
-42.55331208987
20
5.06264474621489
30
0
41
1
10
-42.6935963047429
20
5.01193969825908
30
0
41
1
10
-42.9610547774
20
4.8926459573745
30
0
41
1
10
-43.0885849499374
20
4.82393877072772
30
0
41
1
10
-43.3318085754853
20
4.66792077701672
30
0
41
1
10
-43.4454620393412
20
4.58183100628238
30
0
41
1
10
-43.6565804254194
20
4.39591890548189
30
0
41
1
10
-43.754447615465
20
4.29582260896419
30
0
41
1
10
-43.8909239029357
20
4.13515213531713
30
0
41
1
10
-43.9346559789632
20
4.07984985855634
30
0
41
1
10
-44.0178421339623
20
3.9672120524713
30
0
41
1
10
-44.0574480716768
20
3.90970415853502
30
0
41
1
10
-44.170835351737
20
3.73374973224327
30
0
41
1
10
-44.2392050654745
20
3.61187897183513
30
0
41
1
10
-44.3637529564031
20
3.35953204614827
30
0
41
1
10
-44.4199241728707
20
3.22905393387657
30
0
41
1
10
-44.5217781552864
20
2.95982853214917
30
0
41
1
10
-44.5672910191751
20
2.82135737017342
30
0
41
1
10
-44.688271221023
20
2.40192639130166
30
0
41
1
10
-44.7494102555106
20
2.11444591958698
30
0
41
1
10
-44.8203574376288
20
1.67264361464774
30
0
41
1
10
-44.8404861257542
20
1.52360098026489
30
0
41
1
10
-44.8745136933059
20
1.22203846790575
30
0
41
1
10
-44.888430849358
20
1.06905861372326
30
0
41
1
10
-44.9212055323013
20
0.610864071414824
30
0
41
1
10
-44.9314888238643
20
0.30500095518957
30
0
41
1
10
-44.9314459419673
20
-0.154369885010055
30
0
41
1
10
-44.9288111890303
20
-0.307590124534158
30
0
41
1
10
-44.9181139341154
20
-0.614226971889622
30
0
41
1
10
-44.9100311297819
20
-0.767936726458487
30
0
41
1
10
-44.876975319561
20
-1.22746192774332
30
0
41
1
10
-44.8437183659349
20
-1.52726901543855
30
0
41
1
10
-44.7495505682116
20
-2.11347343178804
30
0
41
1
10
-44.6887157993644
20
-2.39987709805374
30
0
41
1
10
-44.568267125901
20
-2.81822348190337
30
0
41
1
10
-44.5230745718257
20
-2.95611071389945
30
0
41
1
10
-44.4210536604659
20
-3.2263526489771
30
0
41
1
10
-44.3647909921486
20
-3.35725729466213
30
0
41
1
10
-44.2400654014717
20
-3.6103048347239
30
0
41
1
10
-44.1716092122385
20
-3.73244962227668
30
0
41
1
10
-44.0581208246012
20
-3.90870910519672
30
0
41
1
10
-44.0184860650781
20
-3.96630102696577
30
0
41
1
10
-43.9352580601072
20
-4.07907314613499
30
0
41
1
10
-43.8915078632941
20
-4.13443194322986
30
0
41
1
10
-43.664052072408
20
-4.40237304536254
30
0
41
1
10
-43.4553329758977
20
-4.58831633060635
30
0
41
1
10
-43.1520963214013
20
-4.78328857284635
30
0
41
1
10
-43.0891418185103
20
-4.82044609497191
30
0
41
1
10
-42.9610925320245
20
-4.88957371735646
30
0
41
1
10
-42.8957389286587
20
-4.92172722181593
30
0
41
1
10
-42.6956488600879
20
-5.01112499993621
30
0
41
1
10
-42.5569044345073
20
-5.06134953831224
30
0
41
1
10
-42.3402715178628
20
-5.12261167611467
30
0
41
1
10
-42.2666364028919
20
-5.14067671547696
30
0
41
1
10
-42.1163612516675
20
-5.17194619308157
30
0
41
1
10
-42.0400697916568
20
-5.18505308835799
30
0
41
1
10
-41.810813223652
20
-5.21636047859616
30
0
41
1
10
-41.6562792397716
20
-5.22687526156881
30
0
41
1
10
-41.5
20
-5.22687526156881
30
0
0
LINE
5
70
100
AcDbEntity
8
81
62
256
6
ByLayer
370
18
48
1
60
0
100
AcDbLine
10
71.5
20
0
30
0
11
76.5
21
0
31
0
39
0
210
0
220
0
230
1
0
LINE
5
71
100
AcDbEntity
8
1
62
256
6
ByLayer
370
18
48
1
60
0
100
AcDbLine
10
0.2
20
10
30
0
11
0
21
9.8
31
0
39
0
210
0
220
0
230
1
0
LINE
5
73
100
AcDbEntity
8
1
62
256
6
ByLayer
370
18
48
1
60
0
100
AcDbLine
10
0
20
-9.8
30
0
11
0.2
21
-10
31
0
39
0
210
0
220
0
230
1
0
LINE
5
74
100
AcDbEntity
8
1
62
256
6
ByLayer
370
18
48
1
60
0
100
AcDbLine
10
4.0001
20
10
30
0
11
0.2
21
10
31
0
39
0
210
0
220
0
230
1
0
LINE
5
75
100
AcDbEntity
8
1
62
256
6
ByLayer
370
18
48
1
60
0
100
AcDbLine
10
0.2
20
-10
30
0
11
4.0001
21
-10
31
0
39
0
210
0
220
0
230
1
0
LINE
5
76
100
AcDbEntity
8
SK1
62
256
6
ByLayer
370
18
48
1
60
0
100
AcDbLine
10
-1.6
20
-7.99725
30
0
11
-1.144243
21
-7.784727
31
0
39
0
210
0
220
0
230
1
0
LINE
5
78
100
AcDbEntity
8
SK1
62
256
6
ByLayer
370
18
48
1
60
0
100
AcDbLine
10
-1.144243
20
7.784727
30
0
11
-1.6
21
7.99725
31
0
39
0
210
0
220
0
230
1
0
LINE
5
79
100
AcDbEntity
8
SK1
62
256
6
ByLayer
370
18
48
1
60
0
100
AcDbLine
10
-47
20
7.99725
30
0
11
-48
21
6.99725
31
0
39
0
210
0
220
0
230
1
0
LINE
5
7A
100
AcDbEntity
8
SK1
62
256
6
ByLayer
370
18
48
1
60
0
100
AcDbLine
10
-48
20
-6.99725
30
0
11
-47
21
-7.99725
31
0
39
0
210
0
220
0
230
1
0
LINE
5
7B
100
AcDbEntity
8
SK1
62
256
6
ByLayer
370
18
48
1
60
0
100
AcDbLine
10
-46.6
20
-7.99725
30
0
11
-46.573182
21
-7.975533
31
0
39
0
210
0
220
0
230
1
0
LINE
5
7C
100
AcDbEntity
8
SK1
62
256
6
ByLayer
370
18
48
1
60
0
100
AcDbLine
10
-46.573182
20
7.975533
30
0
11
-46.6
21
7.99725
31
0
39
0
210
0
220
0
230
1
0
LINE
5
7D
100
AcDbEntity
8
SK1
62
256
6
ByLayer
370
18
48
1
60
0
100
AcDbLine
10
-1.6
20
7.99725
30
0
11
-45.4
21
7.99725
31
0
39
0
210
0
220
0
230
1
0
LINE
5
7E
100
AcDbEntity
8
SK1
62
256
6
ByLayer
370
18
48
1
60
0
100
AcDbLine
10
-45.4
20
-7.99725
30
0
11
-1.6
21
-7.99725
31
0
39
0
210
0
220
0
230
1
0
LINE
5
7F
100
AcDbEntity
8
SK1
62
256
6
ByLayer
370
18
48
1
60
0
100
AcDbLine
10
-46.6
20
7.99725
30
0
11
-47
21
7.99725
31
0
39
0
210
0
220
0
230
1
0
LINE
5
80
100
AcDbEntity
8
SK1
62
256
6
ByLayer
370
18
48
1
60
0
100
AcDbLine
10
-47
20
-7.99725
30
0
11
-46.6
21
-7.99725
31
0
39
0
210
0
220
0
230
1
0
LINE
5
81
100
AcDbEntity
8
SK1
62
256
6
ByLayer
370
18
48
1
60
0
100
AcDbLine
10
-45.4
20
7.99725
30
0
11
-45.783316
21
7.850276
31
0
39
0
210
0
220
0
230
1
0
LINE
5
82
100
AcDbEntity
8
SK1
62
256
6
ByLayer
370
18
48
1
60
0
100
AcDbLine
10
-45.783316
20
-7.850276
30
0
11
-45.4
21
-7.99725
31
0
39
0
210
0
220
0
230
1
0
LINE
5
83
100
AcDbEntity
8
SK1
62
256
6
ByLayer
370
18
48
1
60
0
100
AcDbLine
10
-0.975195
20
-7.74725
30
0
11
-0.15
21
-7.74725
31
0
39
0
210
0
220
0
230
1
0
LINE
5
84
100
AcDbEntity
8
SK1
62
256
6
ByLayer
370
18
48
1
60
0
100
AcDbLine
10
-0.15
20
7.74725
30
0
11
-0.975195
21
7.74725
31
0
39
0
210
0
220
0
230
1
0
LINE
5
85
100
AcDbEntity
8
1
62
256
6
ByLayer
370
18
48
1
60
0
100
AcDbLine
10
10.606303
20
-6.543723
30
0
11
10.687905
21
-6.48592
31
0
39
0
210
0
220
0
230
1
0
LINE
5
86
100
AcDbEntity
8
1
62
256
6
ByLayer
370
18
48
1
60
0
100
AcDbLine
10
15.947
20
5.85
30
0
11
14.2
21
5.85
31
0
39
0
210
0
220
0
230
1
0
LINE
5
87
100
AcDbEntity
8
1
62
256
6
ByLayer
370
18
48
1
60
0
100
AcDbLine
10
10.687905
20
6.48592
30
0
11
10.606303
21
6.543723
31
0
39
0
210
0
220
0
230
1
0
LINE
5
88
100
AcDbEntity
8
1
62
256
6
ByLayer
370
18
48
1
60
0
100
AcDbLine
10
13
20
-5.75
30
0
11
14.2
21
-5.85
31
0
39
0
210
0
220
0
230
1
0
LINE
5
89
100
AcDbEntity
8
1
62
256
6
ByLayer
370
18
48
1
60
0
100
AcDbLine
10
14.2
20
5.85
30
0
11
13
21
5.75
31
0
39
0
210
0
220
0
230
1
0
LINE
5
8A
100
AcDbEntity
8
1
62
256
6
ByLayer
370
18
48
1
60
0
100
AcDbLine
10
14.2
20
-5.85
30
0
11
15.947
21
-5.85
31
0
39
0
210
0
220
0
230
1
0
LINE
5
8B
100
AcDbEntity
8
1
62
256
6
ByLayer
370
18
48
1
60
0
100
AcDbLine
10
73.590754
20
6
30
0
11
72.472132
21
6
31
0
39
0
210
0
220
0
230
1
0
LINE
5
8C
100
AcDbEntity
8
1
62
256
6
ByLayer
370
18
48
1
60
0
100
AcDbLine
10
72.472132
20
-6
30
0
11
73.590754
21
-6
31
0
39
0
210
0
220
0
230
1
0
LINE
5
8D
100
AcDbEntity
8
80
62
256
6
ByLayer
370
18
48
1
60
0
100
AcDbLine
10
0
20
0
30
0
11
-5
21
0
31
0
39
0
210
0
220
0
230
1
0
LINE
5
8E
100
AcDbEntity
8
4
62
256
6
ByLayer
370
18
48
0.05
60
0
100
AcDbLine
10
71.5
20
0
30
0
11
0
21
0
31
0
39
0
210
0
220
0
230
1
0
LINE
5
90
100
AcDbEntity
8
SK4
62
256
6
ByLayer
370
18
48
0.05
60
0
100
AcDbLine
10
84
20
0
30
0
11
-53
21
0
31
0
39
0
210
0
220
0
230
1
0
LINE
5
92
100
AcDbEntity
8
1
62
256
6
ByLayer
370
18
48
1
60
0
100
AcDbLine
10
75.762286
20
-4.829539
30
0
11
75.765798
21
-4.823036
31
0
39
0
210
0
220
0
230
1
0
LINE
5
93
100
AcDbEntity
8
1
62
256
6
ByLayer
370
18
48
1
60
0
100
AcDbLine
10
15.947
20
5.85
30
0
11
15.947
21
5.840906
31
0
39
0
210
0
220
0
230
1
0
LINE
5
94
100
AcDbEntity
8
1
62
256
6
ByLayer
370
13
48
1
60
0
100
AcDbLine
10
71.3
20
1.85
30
0
11
71.50718
21
1.85
31
0
39
0
210
0
220
0
230
1
0
LINE
5
95
100
AcDbEntity
8
1
62
256
6
ByLayer
370
18
48
1
60
0
100
AcDbLine
10
0
20
9.8
30
0
11
0
21
-9.8
31
0
39
0
210
0
220
0
230
1
0
LINE
5
96
100
AcDbEntity
8
1
62
256
6
ByLayer
370
18
48
1
60
0
100
AcDbLine
10
75.204611
20
-5.315652
30
0
11
75.210138
21
-5.313307
31
0
39
0
210
0
220
0
230
1
0
LINE
5
97
100
AcDbEntity
8
1
62
256
6
ByLayer
370
18
48
1
60
0
100
AcDbLine
10
13
20
5.75
30
0
11
13
21
3.877281
31
0
39
0
210
0
220
0
230
1
0
LINE
5
98
100
AcDbEntity
8
1
62
256
6
ByLayer
370
18
48
1
60
0
100
AcDbLine
10
77.529472
20
-2.066204
30
0
11
78.136144
21
-1.564428
31
0
39
0
210
0
220
0
230
1
0
LINE
5
99
100
AcDbEntity
8
1
62
256
6
ByLayer
370
18
48
1
60
0
100
AcDbLine
10
64.990552
20
0.327382
30
0
11
64.990552
21
3.004133
31
0
39
0
210
0
220
0
230
1
0
LINE
5
9A
100
AcDbEntity
8
1
62
256
6
ByLayer
370
18
48
1
60
0
100
AcDbLine
10
75.765798
20
-2.291407
30
0
11
75.765647
21
-2.2898
31
0
39
0
210
0
220
0
230
1
0
LINE
5
9B
100
AcDbEntity
8
1
62
256
6
ByLayer
370
13
48
1
60
0
100
AcDbLine
10
77.529472
20
-2.066204
30
0
11
77.572577
21
-1.194771
31
0
39
0
210
0
220
0
230
1
0
LINE
5
9C
100
AcDbEntity
8
1
62
256
6
ByLayer
370
18
48
1
60
0
100
AcDbLine
10
76.115024
20
-5.361615
30
0
11
77.258989
21
-2.28486
31
0
39
0
210
0
220
0
230
1
0
LINE
5
9D
100
AcDbEntity
8
1
62
256
6
ByLayer
370
18
48
1
60
0
100
AcDbLine
10
75.765798
20
-4.823036
30
0
11
75.765798
21
-2.291407
31
0
39
0
210
0
220
0
230
1
0
LINE
5
9E
100
AcDbEntity
8
1
62
256
6
ByLayer
370
13
48
1
60
0
100
AcDbLine
10
71.637324
20
-5.650649
30
0
11
71.5
21
-5.60237
31
0
39
0
210
0
220
0
230
1
0
LINE
5
9F
100
AcDbEntity
8
1
62
256
6
ByLayer
370
18
48
1
60
0
100
AcDbLine
10
78.898638
20
-0.29366
30
0
11
79
21
0
31
0
39
0
210
0
220
0
230
1
0
LINE
5
A0
100
AcDbEntity
8
1
62
256
6
ByLayer
370
13
48
1
60
0
100
AcDbLine
10
72.411259
20
-1.656728
30
0
11
72.5864
21
-1.560914
31
0
39
0
210
0
220
0
230
1
0
LINE
5
A1
100
AcDbEntity
8
1
62
256
6
ByLayer
370
13
48
1
60
0
100
AcDbLine
10
74.511152
20
-1.630205
30
0
11
72.5864
21
-1.560914
31
0
39
0
210
0
220
0
230
1
0
LINE
5
A2
100
AcDbEntity
8
1
62
256
6
ByLayer
370
13
48
1
60
0
100
AcDbLine
10
78.324813
20
0.56722
30
0
11
78.956304
21
0.153009
31
0
39
0
210
0
220
0
230
1
0
LINE
5
A3
100
AcDbEntity
8
1
62
256
6
ByLayer
370
18
48
1
60
0
100
AcDbLine
10
78.989304
20
0.04452
30
0
11
79
21
0
31
0
39
0
210
0
220
0
230
1
0
LINE
5
A4
100
AcDbEntity
8
1
62
256
6
ByLayer
370
13
48
1
60
0
100
AcDbLine
10
78.136144
20
-1.564428
30
0
11
77.572577
21
-1.194771
31
0
39
0
210
0
220
0
230
1
0
LINE
5
A5
100
AcDbEntity
8
1
62
256
6
ByLayer
370
18
48
1
60
0
100
AcDbLine
10
71.47
20
1.335635
30
0
11
71.47
21
1.531257
31
0
39
0
210
0
220
0
230
1
0
LINE
5
A6
100
AcDbEntity
8
1
62
256
6
ByLayer
370
18
48
1
60
0
100
AcDbLine
10
75.28097
20
-4.338208
30
0
11
75.765798
21
-4.823036
31
0
39
0
210
0
220
0
230
1
0
LINE
5
A7
100
AcDbEntity
8
1
62
256
6
ByLayer
370
18
48
1
60
0
100
AcDbLine
10
74.73587
20
-2.2898
30
0
11
75.765647
21
-2.2898
31
0
39
0
210
0
220
0
230
1
0
LINE
5
A8
100
AcDbEntity
8
1
62
256
6
ByLayer
370
18
48
1
60
0
100
AcDbLine
10
78.393822
20
-2.062147
30
0
11
78.361068
21
-2.159079
31
0
39
0
210
0
220
0
230
1
0
LINE
5
A9
100
AcDbEntity
8
1
62
256
6
ByLayer
370
18
48
1
60
0
100
AcDbLine
10
71.5
20
-5.784682
30
0
11
71.5
21
-5.60237
31
0
39
0
210
0
220
0
230
1
0
LINE
5
AA
100
AcDbEntity
8
1
62
256
6
ByLayer
370
18
48
1
60
0
100
AcDbLine
10
74.465936
20
-1.64907
30
0
11
74.511152
21
-1.630205
31
0
39
0
210
0
220
0
230
1
0
LINE
5
AB
100
AcDbEntity
8
1
62
256
6
ByLayer
370
18
48
1
60
0
100
AcDbLine
10
14.2
20
5.85
30
0
11
14.2
21
4.07038
31
0
39
0
210
0
220
0
230
1
0
LINE
5
AC
100
AcDbEntity
8
1
62
256
6
ByLayer
370
13
48
1
60
0
100
AcDbLine
10
10.687905
20
6.48592
30
0
11
10.687905
21
3.427493
31
0
39
0
210
0
220
0
230
1
0
LINE
5
AD
100
AcDbEntity
8
1
62
256
6
ByLayer
370
18
48
1
60
0
100
AcDbLine
10
14.2
20
-5.85
30
0
11
14.2
21
-3.958242
31
0
39
0
210
0
220
0
230
1
0
LINE
5
AE
100
AcDbEntity
8
1
62
256
6
ByLayer
370
18
48
1
60
0
100
AcDbLine
10
78.393822
20
2.062147
30
0
11
78.361068
21
2.159079
31
0
39
0
210
0
220
0
230
1
0
LINE
5
AF
100
AcDbEntity
8
1
62
256
6
ByLayer
370
13
48
1
60
0
100
AcDbLine
10
77.667168
20
2.075005
30
0
11
78.393822
21
2.062147
31
0
39
0
210
0
220
0
230
1
0
LINE
5
B0
100
AcDbEntity
8
1
62
256
6
ByLayer
370
18
48
1
60
0
100
AcDbLine
10
71.5
20
-5.60237
30
0
11
71.5
21
-5.591971
31
0
39
0
210
0
220
0
230
1
0
LINE
5
B1
100
AcDbEntity
8
1
62
256
6
ByLayer
370
18
48
1
60
0
100
AcDbLine
10
71.5
20
1.65
30
0
11
71.5
21
1.717671
31
0
39
0
210
0
220
0
230
1
0
LINE
5
B2
100
AcDbEntity
8
1
62
256
6
ByLayer
370
13
48
1
60
0
100
AcDbLine
10
78.931583
20
0.240724
30
0
11
78.373024
21
0.607096
31
0
39
0
210
0
220
0
230
1
0
LINE
5
B3
100
AcDbEntity
8
1
62
256
6
ByLayer
370
18
48
1
60
0
100
AcDbLine
10
72.049495
20
-5.996968
30
0
11
72.049495
21
-5.959917
31
0
39
0
210
0
220
0
230
1
0
LINE
5
B4
100
AcDbEntity
8
1
62
256
6
ByLayer
370
13
48
1
60
0
100
AcDbLine
10
78.373024
20
0.607096
30
0
11
78.849122
21
0.572283
31
0
39
0
210
0
220
0
230
1
0
LINE
5
B5
100
AcDbEntity
8
1
62
256
6
ByLayer
370
18
48
1
60
0
100
AcDbLine
10
75.210138
20
-5.313307
30
0
11
75.762286
21
-4.829539
31
0
39
0
210
0
220
0
230
1
0
LINE
5
B6
100
AcDbEntity
8
1
62
256
6
ByLayer
370
13
48
1
60
0
100
AcDbLine
10
10.606303
20
-2.825503
30
0
11
10.606303
21
-6.543723
31
0
39
0
210
0
220
0
230
1
0
LINE
5
B7
100
AcDbEntity
8
1
62
256
6
ByLayer
370
13
48
1
60
0
100
AcDbLine
10
10.606303
20
6.543723
30
0
11
10.606303
21
3.424399
31
0
39
0
210
0
220
0
230
1
0
LINE
5
B8
100
AcDbEntity
8
1
62
256
6
ByLayer
370
18
48
1
60
0
100
AcDbLine
10
13
20
-5.75
30
0
11
13
21
-3.662315
31
0
39
0
210
0
220
0
230
1
0
LINE
5
B9
100
AcDbEntity
8
1
62
256
6
ByLayer
370
18
48
1
60
0
100
AcDbLine
10
72.476092
20
-5.315652
30
0
11
75.204611
21
-5.315652
31
0
39
0
210
0
220
0
230
1
0
LINE
5
BA
100
AcDbEntity
8
1
62
256
6
ByLayer
370
18
48
1
60
0
100
AcDbLine
10
72.3
20
-5.361602
30
0
11
72.3
21
-5.29816
31
0
39
0
210
0
220
0
230
1
0
LINE
5
BB
100
AcDbEntity
8
1
62
256
6
ByLayer
370
18
48
1
60
0
100
AcDbLine
10
72.3
20
0.984984
30
0
11
72.3
21
1.251255
31
0
39
0
210
0
220
0
230
1
0
LINE
5
BC
100
AcDbEntity
8
1
62
256
6
ByLayer
370
18
48
1
60
0
100
AcDbLine
10
76.985681
20
-5.835755
30
0
11
78.824336
21
-0.508922
31
0
39
0
210
0
220
0
230
1
0
LINE
5
BD
100
AcDbEntity
8
1
62
256
6
ByLayer
370
18
48
1
60
0
100
AcDbLine
10
71.5
20
-5.508176
30
0
11
71.5
21
-5.539937
31
0
39
0
210
0
220
0
230
1
0
LINE
5
BE
100
AcDbEntity
8
1
62
256
6
ByLayer
370
18
48
1
60
0
100
AcDbLine
10
78.931583
20
-0.240724
30
0
11
78.849122
21
-0.572283
31
0
39
0
210
0
220
0
230
1
0
LINE
5
BF
100
AcDbEntity
8
1
62
256
6
ByLayer
370
13
48
1
60
0
100
AcDbLine
10
10.687905
20
-2.835851
30
0
11
10.687905
21
-6.48592
31
0
39
0
210
0
220
0
230
1
0
LINE
5
C0
100
AcDbEntity
8
1
62
256
6
ByLayer
370
18
48
1
60
0
100
AcDbLine
10
75.765647
20
-2.2898
30
0
11
74.918071
21
0.682631
31
0
39
0
210
0
220
0
230
1
0
LINE
5
C1
100
AcDbEntity
8
1
62
256
6
ByLayer
370
18
48
1
60
0
100
AcDbLine
10
15.947
20
-5.85
30
0
11
15.947
21
-4.209268
31
0
39
0
210
0
220
0
230
1
0
LINE
5
C2
100
AcDbEntity
8
1
62
256
6
ByLayer
370
18
48
1
60
0
100
AcDbLine
10
79
20
0
30
0
11
78.989304
21
-0.04452
31
0
39
0
210
0
220
0
230
1
0
LINE
5
C3
100
AcDbEntity
8
1
62
256
6
ByLayer
370
18
48
1
60
0
100
AcDbLine
10
0.2
20
0
30
0
11
0.2
21
-10
31
0
39
0
210
0
220
0
230
1
0
LINE
5
C4
100
AcDbEntity
8
1
62
256
6
ByLayer
370
18
48
1
60
0
100
AcDbLine
10
0.2
20
10
30
0
11
0.2
21
0
31
0
39
0
210
0
220
0
230
1
0
LINE
5
C5
100
AcDbEntity
8
1
62
256
6
ByLayer
370
18
48
1
60
0
100
AcDbLine
10
71.5
20
-5.591971
30
0
11
71.5
21
-5.539937
31
0
39
0
210
0
220
0
230
1
0
LINE
5
C6
100
AcDbEntity
8
1
62
256
6
ByLayer
370
18
48
1
60
0
100
AcDbLine
10
78.931583
20
0.240724
30
0
11
78.849122
21
0.572283
31
0
39
0
210
0
220
0
230
1
0
LINE
5
C7
100
AcDbEntity
8
1
62
256
6
ByLayer
370
18
48
1
60
0
100
AcDbLine
10
71.4
20
-5.778093
30
0
11
71.4
21
-5.60397
31
0
39
0
210
0
220
0
230
1
0
LINE
5
C8
100
AcDbEntity
8
1
62
256
6
ByLayer
370
13
48
1
60
0
100
AcDbLine
10
4.0001
20
0
30
0
11
4.0001
21
-10
31
0
39
0
210
0
220
0
230
1
0
LINE
5
C9
100
AcDbEntity
8
1
62
256
6
ByLayer
370
13
48
1
60
0
100
AcDbLine
10
4.0001
20
10
30
0
11
4.0001
21
0
31
0
39
0
210
0
220
0
230
1
0
LINE
5
CA
100
AcDbEntity
8
SK1
62
256
6
ByLayer
370
18
48
1
60
0
100
AcDbLine
10
-1.6
20
-7.99725
30
0
11
-1.6
21
0
31
0
39
0
210
0
220
0
230
1
0
LINE
5
CB
100
AcDbEntity
8
SK1
62
256
6
ByLayer
370
18
48
1
60
0
100
AcDbLine
10
-1.6
20
0
30
0
11
-1.6
21
7.99725
31
0
39
0
210
0
220
0
230
1
0
LINE
5
CC
100
AcDbEntity
8
SK1
62
256
6
ByLayer
370
13
48
1
60
0
100
AcDbLine
10
-41.5
20
5.226875
30
0
11
-41.5
21
-5.226875
31
0
39
0
210
0
220
0
230
1
0
LINE
5
CD
100
AcDbEntity
8
SK1
62
256
6
ByLayer
370
13
48
1
60
0
100
AcDbLine
10
-46.573182
20
-7.975533
30
0
11
-46.573182
21
0
31
0
39
0
210
0
220
0
230
1
0
LINE
5
CE
100
AcDbEntity
8
SK1
62
256
6
ByLayer
370
13
48
1
60
0
100
AcDbLine
10
-46.573182
20
0
30
0
11
-46.573182
21
7.975533
31
0
39
0
210
0
220
0
230
1
0
LINE
5
CF
100
AcDbEntity
8
SK1
62
256
6
ByLayer
370
13
48
1
60
0
100
AcDbLine
10
-0.15
20
0
30
0
11
-0.15
21
-7.74725
31
0
39
0
210
0
220
0
230
1
0
LINE
5
D0
100
AcDbEntity
8
SK1
62
256
6
ByLayer
370
13
48
1
60
0
100
AcDbLine
10
-0.15
20
7.74725
30
0
11
-0.15
21
0
31
0
39
0
210
0
220
0
230
1
0
LINE
5
D1
100
AcDbEntity
8
SK1
62
256
6
ByLayer
370
13
48
1
60
0
100
AcDbLine
10
-45.783316
20
-7.850276
30
0
11
-45.783316
21
0
31
0
39
0
210
0
220
0
230
1
0
LINE
5
D2
100
AcDbEntity
8
SK1
62
256
6
ByLayer
370
13
48
1
60
0
100
AcDbLine
10
-45.783316
20
0
30
0
11
-45.783316
21
7.850276
31
0
39
0
210
0
220
0
230
1
0
LINE
5
D3
100
AcDbEntity
8
SK1
62
256
6
ByLayer
370
18
48
1
60
0
100
AcDbLine
10
-47
20
0
30
0
11
-47
21
-7.99725
31
0
39
0
210
0
220
0
230
1
0
LINE
5
D4
100
AcDbEntity
8
SK1
62
256
6
ByLayer
370
18
48
1
60
0
100
AcDbLine
10
-47
20
7.99725
30
0
11
-47
21
0
31
0
39
0
210
0
220
0
230
1
0
LINE
5
D5
100
AcDbEntity
8
SK1
62
256
6
ByLayer
370
13
48
1
60
0
100
AcDbLine
10
-1.144243
20
0
30
0
11
-1.144243
21
-7.784727
31
0
39
0
210
0
220
0
230
1
0
LINE
5
D6
100
AcDbEntity
8
SK1
62
256
6
ByLayer
370
13
48
1
60
0
100
AcDbLine
10
-1.144243
20
7.784727
30
0
11
-1.144243
21
0
31
0
39
0
210
0
220
0
230
1
0
LINE
5
D7
100
AcDbEntity
8
SK1
62
256
6
ByLayer
370
13
48
1
60
0
100
AcDbLine
10
-0.975195
20
7.74725
30
0
11
-0.975195
21
-7.74725
31
0
39
0
210
0
220
0
230
1
0
LINE
5
D8
100
AcDbEntity
8
SK1
62
256
6
ByLayer
370
18
48
1
60
0
100
AcDbLine
10
-41.5
20
-5.226875
30
0
11
-6.5
21
-5.226875
31
0
39
0
210
0
220
0
230
1
0
LINE
5
D9
100
AcDbEntity
8
SK1
62
256
6
ByLayer
370
18
48
1
60
0
100
AcDbLine
10
-45.4
20
0
30
0
11
-45.4
21
-7.99725
31
0
39
0
210
0
220
0
230
1
0
LINE
5
DA
100
AcDbEntity
8
SK1
62
256
6
ByLayer
370
18
48
1
60
0
100
AcDbLine
10
-45.4
20
7.99725
30
0
11
-45.4
21
0
31
0
39
0
210
0
220
0
230
1
0
LINE
5
DB
100
AcDbEntity
8
SK1
62
256
6
ByLayer
370
18
48
1
60
0
100
AcDbLine
10
-48
20
0
30
0
11
-48
21
-6.99725
31
0
39
0
210
0
220
0
230
1
0
LINE
5
DC
100
AcDbEntity
8
SK1
62
256
6
ByLayer
370
18
48
1
60
0
100
AcDbLine
10
-48
20
6.99725
30
0
11
-48
21
0
31
0
39
0
210
0
220
0
230
1
0
LINE
5
DD
100
AcDbEntity
8
SK1
62
256
6
ByLayer
370
13
48
1
60
0
100
AcDbLine
10
-6.5
20
-5.226875
30
0
11
-6.5
21
5.226875
31
0
39
0
210
0
220
0
230
1
0
LINE
5
DE
100
AcDbEntity
8
SK1
62
256
6
ByLayer
370
18
48
1
60
0
100
AcDbLine
10
-6.5
20
5.226875
30
0
11
-41.5
21
5.226875
31
0
39
0
210
0
220
0
230
1
0
LINE
5
DF
100
AcDbEntity
8
SK1
62
256
6
ByLayer
370
18
48
1
60
0
100
AcDbLine
10
-46.6
20
-7.99725
30
0
11
-46.6
21
7.99725
31
0
39
0
210
0
220
0
230
1
0
MTEXT
5
18D
100
AcDbEntity
8
SK6
62
256
6
ByLayer
370
13
48
1
60
0
100
AcDbMText
10
-2.71143
20
28.375134
30
0
210
0
220
0
230
1
1
\W0.6899;870-1200-10L16-5
40
3.5
41
0
44
1.084337
50
0
71
7
72
5
7
iso_b_vert
0
DIMENSION
5
19B
100
AcDbEntity
8
2
62
256
6
ByLayer
370
13
48
1
60
0
100
AcDbDimension
2
DimnDraft3D1
10
13
20
-19
30
0
11
46
21
-19
31
0
70
32
71
5
72
1
41
1
210
0
220
0
230
1
3
Standard
100
AcDbAlignedDimension
13
79
23
-1.5875
33
0
14
13
24
-7.5875
34
0
50
0
100
AcDbRotatedDimension
1001
ACAD
1000
DSTYLE
1002
{
1070
   279
1070
     0
1070
   172
1070
     1
1070
   173
1070
     1
1070
   340
1005
18E
1070
   271
1070
     1
1070
   272
1070
     2
1070
    77
1070
     1
1070
    73
1070
     0
1070
   171
1070
     3
1070
   274
1070
     4
1070
   177
1070
     7
1070
   176
1070
     7
1070
   178
1070
     7
1070
    48
1040
-0.005
1070
    41
1041
3.5
1070
   147
1041
1.5
1070
    42
1041
1.5875
1070
    44
1041
2.0
1070
   140
1041
3.0
1070
   343
1005
0
1070
   344
1005
0
1002
}
0
DIMENSION
5
1A5
100
AcDbEntity
8
2
62
256
6
ByLayer
370
13
48
1
60
0
100
AcDbDimension
2
DimnDraft3D2
10
14.617
20
13
30
0
11
46.8085
21
13
31
0
70
32
71
5
72
1
41
1
210
0
220
0
230
1
3
Standard
100
AcDbAlignedDimension
13
79
23
1.5875
33
0
14
14.617
24
7.5875
34
0
50
0
100
AcDbRotatedDimension
1001
ACAD
1000
DSTYLE
1002
{
1070
   279
1070
     0
1070
   172
1070
     1
1070
   173
1070
     1
1070
   340
1005
18E
1070
   271
1070
     1
1070
   272
1070
     2
1070
    77
1070
     1
1070
    73
1070
     0
1070
   171
1070
     3
1070
   274
1070
     4
1070
   177
1070
     7
1070
   176
1070
     7
1070
   178
1070
     7
1070
    48
1040
-0.005
1070
    41
1041
3.5
1070
   147
1041
1.5
1070
    42
1041
1.5875
1070
    44
1041
2.0
1070
   140
1041
3.0
1070
   343
1005
0
1070
   344
1005
0
1002
}
0
DIMENSION
5
1B0
100
AcDbEntity
8
SK2
62
256
6
ByLayer
370
13
48
1
60
0
100
AcDbDimension
2
DimnDraft3D3
10
0
20
-31
30
0
11
-24
21
-31
31
0
70
32
71
5
72
1
41
1
210
0
220
0
230
1
3
Standard
100
AcDbAlignedDimension
13
-48
23
-9.5875
33
0
14
0
24
-11.5875
34
0
50
0
100
AcDbRotatedDimension
1001
ACAD
1000
DSTYLE
1002
{
1070
   279
1070
     0
1070
   172
1070
     1
1070
   173
1070
     1
1070
   340
1005
18E
1070
   271
1070
     1
1070
   272
1070
     2
1070
    77
1070
     1
1070
    73
1070
     0
1070
   171
1070
     3
1070
   274
1070
     4
1070
   177
1070
     7
1070
   176
1070
     7
1070
   178
1070
     7
1070
    48
1040
-0.005
1070
    41
1041
3.5
1070
   147
1041
1.5
1070
    42
1041
1.5875
1070
    44
1041
2.0
1070
   140
1041
3.0
1070
   343
1005
0
1070
   344
1005
0
1002
}
0
DIMENSION
5
1BA
100
AcDbEntity
8
2
62
256
6
ByLayer
370
13
48
1
60
0
100
AcDbDimension
2
DimnDraft3D4
10
79
20
-31
30
0
11
39.5
21
-31
31
0
70
32
71
5
72
1
41
1
210
0
220
0
230
1
3
Standard
100
AcDbAlignedDimension
13
0
23
-11.5875
33
0
14
79
24
-1.5875
34
0
50
0
100
AcDbRotatedDimension
1001
ACAD
1000
DSTYLE
1002
{
1070
   279
1070
     0
1070
   172
1070
     1
1070
   173
1070
     1
1070
   340
1005
18E
1070
   271
1070
     1
1070
   272
1070
     2
1070
    77
1070
     1
1070
    73
1070
     0
1070
   171
1070
     3
1070
   274
1070
     4
1070
   177
1070
     7
1070
   176
1070
     7
1070
   178
1070
     7
1070
    48
1040
-0.005
1070
    41
1041
3.5
1070
   147
1041
1.5
1070
    42
1041
1.5875
1070
    44
1041
2.0
1070
   140
1041
3.0
1070
   343
1005
0
1070
   344
1005
0
1002
}
0
DIMENSION
5
1C5
100
AcDbEntity
8
SK2
62
256
6
ByLayer
370
13
48
1
60
0
100
AcDbDimension
2
DimnDraft3D5
10
-56.25
20
-8
30
0
11
-56.5
21
-0.145514
31
0
70
33
71
5
72
1
41
1
210
0
220
0
230
1
3
Standard
100
AcDbAlignedDimension
13
-49.5875
23
8
33
0
14
-49.5875
24
-8
34
0
1001
ACAD
1000
DSTYLE
1002
{
1070
   279
1070
     0
1070
    74
1070
     0
1070
   173
1070
     1
1070
   340
1005
18E
1070
   271
1070
     1
1070
   272
1070
     2
1070
    77
1070
     1
1070
    73
1070
     0
1070
   171
1070
     3
1070
   274
1070
     4
1070
   177
1070
     7
1070
   176
1070
     7
1070
   178
1070
     7
1070
    48
1040
-0.005
1070
    41
1041
3.5
1070
   147
1041
1.5
1070
    42
1041
1.5875
1070
    44
1041
2.0
1070
   140
1041
3.0
1070
   343
1005
0
1070
   344
1005
0
1002
}
0
ENDSEC
0
SECTION
2
OBJECTS
0
DICTIONARY
5
230
330
0
100
AcDbDictionary
280
0
281
1
3
ACAD_GROUP
350
231
3
ACAD_MLINESTYLE
350
232
0
DICTIONARY
5
231
330
0
100
AcDbDictionary
280
0
281
1
0
DICTIONARY
5
232
330
0
100
AcDbDictionary
280
0
281
1
3
Standard
350
18
0
MLINESTYLE
5
18
330
232
100
AcDbMlineStyle
2
Standard
70
0
3

62
256
51
90
52
90
71
2
49
-0.5
62
256
6
ByLayer
49
0.5
62
256
6
ByLayer
0
RASTERVARIABLES
5
21e
330

100
AcDbRasterVariables
90
0
70
1
71
1
72
1
0
ENDSEC
0
EOF
