0
SECTION
2
HEADER
9
$ACADVER
1
AC1015
9
$DWGCODEPAGE
3
ANSI_1252
9
$HANDSEED
5
241
9
$ANGBASE
50
0
9
$ANGDIR
70
0
9
$ATTMODE
70
1
9
$AUNITS
70
0
9
$AUPREC
70
0
9
$CECOLOR
62
256
9
$CELTSCALE
40
1
9
$CELTYPE
6
ByLayer
9
$CELWEIGHT
370
18
9
$CLAYER
8
0
9
$CMLJUST
70
0
9
$CMLSCALE
40
1
9
$CMLSTYLE
2
Standard
9
$DIMSTYLE
2
Standard
9
$TEXTSIZE
40
0.2
9
$TEXTSTYLE
7
Standard
9
$LUNITS
70
2
9
$LUPREC
70
4
9
$EXTNAMES
290
1
9
$INSUNITS
70
4
9
$LTSCALE
40
1
9
$LWDISPLAY
290
1
9
$PDMODE
70
0
9
$PDSIZE
40
0
9
$PLINEGEN
70
0
0
ENDSEC
0
SECTION
2
CLASSES
0
CLASS
1
RASTERVARIABLES
2
AcDbRasterVariables
3
ISM
90
0
280
0
281
0
0
ENDSEC
0
SECTION
2
TABLES
0
TABLE
2
VPORT
5
237
100
AcDbSymbolTable
0
VPORT
5
1
100
AcDbSymbolTableRecord
100
AcDbViewportTableRecord
2
*Active
70
0
10
0
20
0
11
1
21
1
12
-1
22
1
13
0
23
0
14
0.5
24
0.5
15
10
25
10
16
0
26
0
36
1
17
0
27
0
37
0
0
ENDTAB
0
TABLE
2
LTYPE
5
238
100
AcDbSymbolTable
0
LTYPE
5
14
100
AcDbSymbolTableRecord
100
AcDbLinetypeTableRecord
70
0
2
ByBlock
3

72
65
73
0
40
0
0
LTYPE
5
15
100
AcDbSymbolTableRecord
100
AcDbLinetypeTableRecord
70
0
2
ByLayer
3

72
65
73
0
40
0
0
LTYPE
5
16
100
AcDbSymbolTableRecord
100
AcDbLinetypeTableRecord
70
0
2
CONTINUOUS
3
Solid line
72
65
73
0
40
0
0
LTYPE
5
6A
100
AcDbSymbolTableRecord
100
AcDbLinetypeTableRecord
70
0
2
CENTER
3
____ _ ____ _ ____ _ ____
72
65
73
4
40
47.5
49
22
74
0
49
-8.5
74
0
49
8.5
74
0
49
-8.5
74
0
0
LTYPE
5
6B
100
AcDbSymbolTableRecord
100
AcDbLinetypeTableRecord
70
0
2
DASHED
3
__ __ __ __ __ __ __ __ __
72
65
73
2
40
25.72
49
12.86
74
0
49
-12.86
74
0
0
ENDTAB
0
TABLE
2
LAYER
5
239
100
AcDbSymbolTable
0
LAYER
5
10
100
AcDbSymbolTableRecord
100
AcDbLayerTableRecord
2
0
70
0
62
7
6
CONTINUOUS
290
1
370
-3
390
0
0
LAYER
5
6D
100
AcDbSymbolTableRecord
100
AcDbLayerTableRecord
2
80
70
0
62
-6
6
CONTINUOUS
290
1
370
-3
390
0
0
LAYER
5
6F
100
AcDbSymbolTableRecord
100
AcDbLayerTableRecord
2
81
70
0
62
-3
6
CONTINUOUS
290
1
370
-3
390
0
0
LAYER
5
72
100
AcDbSymbolTableRecord
100
AcDbLayerTableRecord
2
1
70
0
62
4
6
CONTINUOUS
290
1
370
-3
390
0
0
LAYER
5
8D
100
AcDbSymbolTableRecord
100
AcDbLayerTableRecord
2
4
70
0
62
-2
6
CENTER
290
1
370
-3
390
0
0
LAYER
5
197
100
AcDbSymbolTableRecord
100
AcDbLayerTableRecord
2
2
70
0
62
7
6
CONTINUOUS
290
1
370
-3
390
0
0
LAYER
5
223
100
AcDbSymbolTableRecord
100
AcDbLayerTableRecord
2
SK1
70
0
62
4
6
CONTINUOUS
290
1
370
-3
390
0
0
LAYER
5
224
100
AcDbSymbolTableRecord
100
AcDbLayerTableRecord
2
SK4
70
0
62
2
6
CENTER
290
1
370
-3
390
0
0
LAYER
5
225
100
AcDbSymbolTableRecord
100
AcDbLayerTableRecord
2
SK6
70
0
62
5
6
CONTINUOUS
290
1
370
-3
390
0
0
LAYER
5
226
100
AcDbSymbolTableRecord
100
AcDbLayerTableRecord
2
SK2
70
0
62
7
6
CONTINUOUS
290
1
370
-3
390
0
0
ENDTAB
0
TABLE
2
STYLE
5
23a
100
AcDbSymbolTable
0
STYLE
5
11
100
AcDbSymbolTableRecord
100
AcDbTextStyleTableRecord
2
Standard
3
txt
70
0
71
0
40
0
41
1
42
0
50
0
0
STYLE
5
192
100
AcDbSymbolTableRecord
100
AcDbTextStyleTableRecord
2
iso_b_vert
3
simplex.shx
70
0
71
0
40
0
41
1
42
0
50
0
0
STYLE
5
193
100
AcDbSymbolTableRecord
100
AcDbTextStyleTableRecord
2
DWGDirectTextStyle
3
simplex
70
0
71
0
40
0
41
1
42
0
50
0
0
ENDTAB
0
TABLE
2
DIMSTYLE
5
23b
100
AcDbSymbolTable
100
AcDbDimStyleTable
0
DIMSTYLE
105
27
100
AcDbSymbolTableRecord
100
AcDbDimStyleTableRecord
2
Standard
70
0
3
<>
41
0.18
42
0.0625
44
0.18
140
0.18
147
0.09
73
0
74
0
77
1
271
2
275
0
278
52
280
0
340
11
0
ENDTAB
0
TABLE
2
VIEW
5
23c
100
AcDbSymbolTable
0
ENDTAB
0
TABLE
2
UCS
5
23d
100
AcDbSymbolTable
0
ENDTAB
0
TABLE
2
APPID
5
23e
100
AcDbSymbolTable
0
APPID
5
12
100
AcDbSymbolTableRecord
100
AcDbRegAppTableRecord
2
ACAD
70
0
0
ENDTAB
0
TABLE
2
BLOCK_RECORD
5
23f
100
AcDbSymbolTable
0
BLOCK_RECORD
5
1F
100
AcDbSymbolTableRecord
100
AcDbBlockTableRecord
2
*Model_Space
340
0
70
0
0
BLOCK_RECORD
5
1B
100
AcDbSymbolTableRecord
100
AcDbBlockTableRecord
2
*Paper_Space
340
0
70
0
0
BLOCK_RECORD
5
23
100
AcDbSymbolTableRecord
100
AcDbBlockTableRecord
2
*Paper_Space0
340
0
70
0
0
BLOCK_RECORD
5
195
100
AcDbSymbolTableRecord
100
AcDbBlockTableRecord
2
DimnDraft3D1
340
0
70
0
0
BLOCK_RECORD
5
1A0
100
AcDbSymbolTableRecord
100
AcDbBlockTableRecord
2
DimnDraft3D2
340
0
70
0
0
BLOCK_RECORD
5
1AA
100
AcDbSymbolTableRecord
100
AcDbBlockTableRecord
2
DimnDraft3D3
340
0
70
0
0
BLOCK_RECORD
5
1B5
100
AcDbSymbolTableRecord
100
AcDbBlockTableRecord
2
DimnDraft3D4
340
0
70
0
0
BLOCK_RECORD
5
1BF
100
AcDbSymbolTableRecord
100
AcDbBlockTableRecord
2
DimnDraft3D5
340
0
70
0
0
ENDTAB
0
ENDSEC
0
SECTION
2
BLOCKS
0
BLOCK
5
20
100
AcDbEntity
8
0
100
AcDbBlockBegin
2
*Model_Space
70
0
10
0
20
0
30
0
3
*Model_Space
0
ENDBLK
5
21
100
AcDbEntity
8
0
100
AcDbBlockEnd
0
BLOCK
5
1C
100
AcDbEntity
8
0
100
AcDbBlockBegin
2
*Paper_Space
70
0
10
0
20
0
30
0
3
*Paper_Space
0
ENDBLK
5
1D
100
AcDbEntity
8
0
100
AcDbBlockEnd
0
BLOCK
5
24
100
AcDbEntity
8
0
100
AcDbBlockBegin
2
*Paper_Space0
70
0
10
0
20
0
30
0
3
*Paper_Space0
0
ENDBLK
5
25
100
AcDbEntity
8
0
100
AcDbBlockEnd
0
BLOCK
5
19D
100
AcDbEntity
8
0
100
AcDbBlockBegin
2
DimnDraft3D1
70
0
10
0
20
0
30
0
3
DimnDraft3D1
0
MTEXT
5
196
100
AcDbEntity
8
2
62
256
6
ByLayer
370
13
48
1
60
0
100
AcDbMText
10
54.229544
20
-17.249886
30
0
210
0
220
0
230
1
1
\W0.7346;88.0
40
3
41
0
44
1.084337
50
0
71
7
72
5
7
iso_b_vert
0
LINE
5
198
100
AcDbEntity
8
2
62
256
6
ByLayer
370
13
48
1
60
0
100
AcDbLine
10
101
20
-1.5875
30
0
11
101
21
-20
31
0
39
0
210
0
220
0
230
1
0
LINE
5
199
100
AcDbEntity
8
2
62
256
6
ByLayer
370
13
48
1
60
0
100
AcDbLine
10
13
20
-6.5875
30
0
11
13
21
-20
31
0
39
0
210
0
220
0
230
1
0
LINE
5
19A
100
AcDbEntity
8
2
62
256
6
ByLayer
370
13
48
1
60
0
100
AcDbLine
10
101
20
-18
30
0
11
13
21
-18
31
0
39
0
210
0
220
0
230
1
0
SOLID
5
19B
100
AcDbEntity
8
2
62
256
6
ByLayer
370
13
48
1
60
0
100
AcDbTrace
10
101
20
-18
30
0
11
97.500002
21
-18.460784
31
0
12
97.499998
22
-17.539216
32
0
13
101
23
-18
33
0
39
0
210
0
220
0
230
1
0
SOLID
5
19C
100
AcDbEntity
8
2
62
256
6
ByLayer
370
13
48
1
60
0
100
AcDbTrace
10
13
20
-18
30
0
11
16.499998
21
-17.539216
31
0
12
16.500002
22
-18.460784
32
0
13
13
23
-18
33
0
39
0
210
0
220
0
230
1
0
ENDBLK
5
19E
100
AcDbEntity
8
0
100
AcDbBlockEnd
0
BLOCK
5
1A7
100
AcDbEntity
8
0
100
AcDbBlockBegin
2
DimnDraft3D2
70
0
10
0
20
0
30
0
3
DimnDraft3D2
0
MTEXT
5
1A1
100
AcDbEntity
8
2
62
256
6
ByLayer
370
13
48
1
60
0
100
AcDbMText
10
55.559986
20
12.750114
30
0
210
0
220
0
230
1
1
\W0.7208;86.1
40
3
41
0
44
1.084337
50
0
71
7
72
5
7
iso_b_vert
0
LINE
5
1A2
100
AcDbEntity
8
2
62
256
6
ByLayer
370
13
48
1
60
0
100
AcDbLine
10
101
20
1.5875
30
0
11
101
21
14
31
0
39
0
210
0
220
0
230
1
0
LINE
5
1A3
100
AcDbEntity
8
2
62
256
6
ByLayer
370
13
48
1
60
0
100
AcDbLine
10
14.911
20
6.5875
30
0
11
14.911
21
14
31
0
39
0
210
0
220
0
230
1
0
LINE
5
1A4
100
AcDbEntity
8
2
62
256
6
ByLayer
370
13
48
1
60
0
100
AcDbLine
10
101
20
12
30
0
11
14.911
21
12
31
0
39
0
210
0
220
0
230
1
0
SOLID
5
1A5
100
AcDbEntity
8
2
62
256
6
ByLayer
370
13
48
1
60
0
100
AcDbTrace
10
101
20
12
30
0
11
97.500002
21
11.539216
31
0
12
97.499998
22
12.460784
32
0
13
101
23
12
33
0
39
0
210
0
220
0
230
1
0
SOLID
5
1A6
100
AcDbEntity
8
2
62
256
6
ByLayer
370
13
48
1
60
0
100
AcDbTrace
10
14.911
20
12
30
0
11
18.410998
21
12.460784
31
0
12
18.411002
22
11.539216
32
0
13
14.911
23
12
33
0
39
0
210
0
220
0
230
1
0
ENDBLK
5
1A8
100
AcDbEntity
8
0
100
AcDbBlockEnd
0
BLOCK
5
1B2
100
AcDbEntity
8
0
100
AcDbBlockBegin
2
DimnDraft3D3
70
0
10
0
20
0
30
0
3
DimnDraft3D3
0
MTEXT
5
1AB
100
AcDbEntity
8
SK2
62
256
6
ByLayer
370
13
48
1
60
0
100
AcDbMText
10
-26.928399
20
-30.249886
30
0
210
0
220
0
230
1
1
\W0.7640;48.0
40
3
41
0
44
1.084337
50
0
71
7
72
5
7
iso_b_vert
0
LINE
5
1AD
100
AcDbEntity
8
SK2
62
256
6
ByLayer
370
13
48
1
60
0
100
AcDbLine
10
-48
20
-9.5875
30
0
11
-48
21
-33
31
0
39
0
210
0
220
0
230
1
0
LINE
5
1AE
100
AcDbEntity
8
SK2
62
256
6
ByLayer
370
13
48
1
60
0
100
AcDbLine
10
0
20
-11.5875
30
0
11
0
21
-33
31
0
39
0
210
0
220
0
230
1
0
LINE
5
1AF
100
AcDbEntity
8
SK2
62
256
6
ByLayer
370
13
48
1
60
0
100
AcDbLine
10
-48
20
-31
30
0
11
0
21
-31
31
0
39
0
210
0
220
0
230
1
0
SOLID
5
1B0
100
AcDbEntity
8
SK2
62
256
6
ByLayer
370
13
48
1
60
0
100
AcDbTrace
10
-48
20
-31
30
0
11
-44.500002
21
-30.539216
31
0
12
-44.499998
22
-31.460784
32
0
13
-48
23
-31
33
0
39
0
210
0
220
0
230
1
0
SOLID
5
1B1
100
AcDbEntity
8
SK2
62
256
6
ByLayer
370
13
48
1
60
0
100
AcDbTrace
10
0
20
-31
30
0
11
-3.499998
21
-31.460784
31
0
12
-3.500002
22
-30.539216
32
0
13
0
23
-31
33
0
39
0
210
0
220
0
230
1
0
ENDBLK
5
1B3
100
AcDbEntity
8
0
100
AcDbBlockEnd
0
BLOCK
5
1BC
100
AcDbEntity
8
0
100
AcDbBlockBegin
2
DimnDraft3D4
70
0
10
0
20
0
30
0
3
DimnDraft3D4
0
MTEXT
5
1B6
100
AcDbEntity
8
2
62
256
6
ByLayer
370
13
48
1
60
0
100
AcDbMText
10
47.358515
20
-30.249886
30
0
210
0
220
0
230
1
1
\W0.6261;101.0
40
3
41
0
44
1.084337
50
0
71
7
72
5
7
iso_b_vert
0
LINE
5
1B7
100
AcDbEntity
8
2
62
256
6
ByLayer
370
13
48
1
60
0
100
AcDbLine
10
0
20
-11.5875
30
0
11
0
21
-33
31
0
39
0
210
0
220
0
230
1
0
LINE
5
1B8
100
AcDbEntity
8
2
62
256
6
ByLayer
370
13
48
1
60
0
100
AcDbLine
10
101
20
-1.5875
30
0
11
101
21
-33
31
0
39
0
210
0
220
0
230
1
0
LINE
5
1B9
100
AcDbEntity
8
2
62
256
6
ByLayer
370
13
48
1
60
0
100
AcDbLine
10
0
20
-31
30
0
11
101
21
-31
31
0
39
0
210
0
220
0
230
1
0
SOLID
5
1BA
100
AcDbEntity
8
2
62
256
6
ByLayer
370
13
48
1
60
0
100
AcDbTrace
10
0
20
-31
30
0
11
3.499998
21
-30.539216
31
0
12
3.500002
22
-31.460784
32
0
13
0
23
-31
33
0
39
0
210
0
220
0
230
1
0
SOLID
5
1BB
100
AcDbEntity
8
2
62
256
6
ByLayer
370
13
48
1
60
0
100
AcDbTrace
10
101
20
-31
30
0
11
97.500002
21
-31.460784
31
0
12
97.499998
22
-30.539216
32
0
13
101
23
-31
33
0
39
0
210
0
220
0
230
1
0
ENDBLK
5
1BD
100
AcDbEntity
8
0
100
AcDbBlockEnd
0
BLOCK
5
1C7
100
AcDbEntity
8
0
100
AcDbBlockBegin
2
DimnDraft3D5
70
0
10
0
20
0
30
0
3
DimnDraft3D5
0
MTEXT
5
1C0
100
AcDbEntity
8
SK2
62
256
6
ByLayer
370
13
48
1
60
0
100
AcDbMText
10
-55.750114
20
0.604486
30
0
210
0
220
0
230
1
1
\W0.6563;16.0
40
3
41
0
44
1.084337
50
90
71
7
72
5
7
iso_b_vert
0
MTEXT
5
1C1
100
AcDbEntity
8
SK2
62
256
6
ByLayer
370
13
48
1
60
0
100
AcDbMText
10
-55.750114
20
-3.872076
30
0
210
0
220
0
230
1
1
%%c
40
3
41
0
44
1.084337
50
90
71
7
72
5
7
iso_b_vert
0
LINE
5
1C2
100
AcDbEntity
8
SK2
62
256
6
ByLayer
370
13
48
1
60
0
100
AcDbLine
10
-49.5875
20
8
30
0
11
-56.25
21
8
31
0
39
0
210
0
220
0
230
1
0
LINE
5
1C3
100
AcDbEntity
8
SK2
62
256
6
ByLayer
370
13
48
1
60
0
100
AcDbLine
10
-49.5875
20
-8
30
0
11
-56.25
21
-8
31
0
39
0
210
0
220
0
230
1
0
LINE
5
1C4
100
AcDbEntity
8
SK2
62
256
6
ByLayer
370
13
48
1
60
0
100
AcDbLine
10
-54.25
20
8
30
0
11
-54.25
21
-8
31
0
39
0
210
0
220
0
230
1
0
SOLID
5
1C5
100
AcDbEntity
8
SK2
62
256
6
ByLayer
370
13
48
1
60
0
100
AcDbTrace
10
-54.25
20
8
30
0
11
-53.789216
21
4.500002
31
0
12
-54.710784
22
4.499998
32
0
13
-54.25
23
8
33
0
39
0
210
0
220
0
230
1
0
SOLID
5
1C6
100
AcDbEntity
8
SK2
62
256
6
ByLayer
370
13
48
1
60
0
100
AcDbTrace
10
-54.25
20
-8
30
0
11
-54.710784
21
-4.500002
31
0
12
-53.789216
22
-4.499998
32
0
13
-54.25
23
-8
33
0
39
0
210
0
220
0
230
1
0
ENDBLK
5
1C8
100
AcDbEntity
8
0
100
AcDbBlockEnd
0
ENDSEC
0
SECTION
2
ENTITIES
0
ARC
5
D8
100
AcDbEntity
8
SK1
62
256
6
ByLayer
370
18
48
1
60
0
100
AcDbCircle
39
0
10
46.069726
20
-8.59725
30
0
40
0.800000000000008
210
0
220
0
230
-1
100
AcDbArc
50
51
51
110.978152
0
ARC
5
D9
100
AcDbEntity
8
SK1
62
256
6
ByLayer
370
18
48
1
60
0
100
AcDbCircle
39
0
10
0.975195
20
-8.14725
30
0
40
0.4
210
0
220
0
230
-1
100
AcDbArc
50
65
51
90
0
ARC
5
DA
100
AcDbEntity
8
SK1
62
256
6
ByLayer
370
18
48
1
60
0
100
AcDbCircle
39
0
10
0.15
20
8.14725
30
0
40
0.4
210
0
220
0
230
-1
100
AcDbArc
50
247.975687
51
270
0
ARC
5
DB
100
AcDbEntity
8
SK1
62
256
6
ByLayer
370
18
48
1
60
0
100
AcDbCircle
39
0
10
0.15
20
-8.14725
30
0
40
0.4
210
0
220
0
230
-1
100
AcDbArc
50
90
51
112.024313
0
ARC
5
DC
100
AcDbEntity
8
SK1
62
256
6
ByLayer
370
18
48
1
60
0
100
AcDbCircle
39
0
10
46.069726
20
8.59725
30
0
40
0.800000000000008
210
0
220
0
230
-1
100
AcDbArc
50
249.021848
51
309
0
ARC
5
DD
100
AcDbEntity
8
SK1
62
256
6
ByLayer
370
18
48
1
60
0
100
AcDbCircle
39
0
10
0.975195
20
8.14725
30
0
40
0.4
210
0
220
0
230
-1
100
AcDbArc
50
270
51
295
0
ELLIPSE
5
DE
100
AcDbEntity
8
1
62
256
6
ByLayer
370
18
48
1
60
0
100
AcDbEllipse
10
94.55
20
1.45
30
0
11
0.0584573325756491
21
0.24306941437416
31
0
210
0
220
0
230
1
40
1
41
-1.77511692384369
42
-1.33478198187268
0
ELLIPSE
5
DF
100
AcDbEntity
8
1
62
256
6
ByLayer
370
18
48
1
60
0
100
AcDbEllipse
10
100.975255
20
-0.115875
30
0
11
0.0472765640783078
21
0.150392792129202
31
0
210
0
220
0
230
1
40
0.048492
41
1.77666834879281
42
2.46903554426557
0
ELLIPSE
5
E0
100
AcDbEntity
8
1
62
256
6
ByLayer
370
18
48
1
60
0
100
AcDbEllipse
10
12.985864
20
4.114814
30
0
11
2.23728520096159
21
1.9986382688116
31
0
210
0
220
0
230
1
40
0.072428
41
1.57665878495094
42
2.67384746646781
0
ELLIPSE
5
E1
100
AcDbEntity
8
1
62
256
6
ByLayer
370
13
48
1
60
0
100
AcDbEllipse
10
100.486942
20
2.557021
30
0
11
7.27567271180789
21
-3.00715695203474
31
0
210
0
220
0
230
1
40
0.491689
41
-2.13204084409797
42
-2.08876572172095
0
ELLIPSE
5
E2
100
AcDbEntity
8
1
62
256
6
ByLayer
370
18
48
1
60
0
100
AcDbEllipse
10
87.152092
20
-0.000359
30
0
11
0.806151088402553
21
-4.89335937212819
31
0
210
0
220
0
230
1
40
0.325127
41
2.36450084563081
42
2.37688913034721
0
ELLIPSE
5
E3
100
AcDbEntity
8
1
62
256
6
ByLayer
370
18
48
1
60
0
100
AcDbEllipse
10
92.745
20
-2.214401
30
0
11
-1.36000000000001
21
1.66546464119845E-16
31
0
210
0
220
0
230
1
40
0.702153
41
0.652567538405327
42
2.48882809315239
0
ELLIPSE
5
E4
100
AcDbEntity
8
1
62
256
6
ByLayer
370
18
48
1
60
0
100
AcDbEllipse
10
104.319003
20
0
30
0
11
6.64462976594343
21
4.5040514567454
31
0
210
0
220
0
230
1
40
0.290406
41
2.78325069673375
42
3.0826697047978
0
ELLIPSE
5
E5
100
AcDbEntity
8
1
62
256
6
ByLayer
370
18
48
1
60
0
100
AcDbEllipse
10
101
20
0
30
0
11
1.75661163467996
21
4.99885890708947
31
0
210
0
220
0
230
1
40
0.060808
41
-2.87030958143419
42
-2.77857667057522
0
ELLIPSE
5
E6
100
AcDbEntity
8
1
62
256
6
ByLayer
370
18
48
1
60
0
100
AcDbEllipse
10
100.975255
20
0.115875
30
0
11
0.0472765640799344
21
-0.150392792133828
31
0
210
0
220
0
230
1
40
0.048492
41
-2.46903554426418
42
-1.77666834881035
0
ELLIPSE
5
E7
100
AcDbEntity
8
1
62
256
6
ByLayer
370
18
48
1
60
0
100
AcDbEllipse
10
94.666165
20
-0.558711
30
0
11
0.897038425591426
21
0.206109625945515
31
0
210
0
220
0
230
1
40
0.799654
41
1.89672421407327
42
-1.75518117252583
0
ELLIPSE
5
E8
100
AcDbEntity
8
1
62
256
6
ByLayer
370
18
48
1
60
0
100
AcDbEllipse
10
92.55
20
-2.214401
30
0
11
0.899999999999998
21
0
31
0
210
0
220
0
230
1
40
0.702153
41
-2.43767977704495
42
-0.414494739110346
0
ELLIPSE
5
E9
100
AcDbEntity
8
1
62
256
6
ByLayer
370
18
48
1
60
0
100
AcDbEllipse
10
87.152227
20
-0.00058
30
0
11
0.806221948172968
21
4.89237975717933
31
0
210
0
220
0
230
1
40
0.325128
41
-2.37681133122479
42
-2.3644214709494
0
ELLIPSE
5
EA
100
AcDbEntity
8
1
62
256
6
ByLayer
370
18
48
1
60
0
100
AcDbEllipse
10
96.782917
20
-0.639349
30
0
11
0.221950513799894
21
-0.754812249050583
31
0
210
0
220
0
230
1
40
0.315781
41
0.138737087117766
42
-3.10577289042279
0
ELLIPSE
5
EB
100
AcDbEntity
8
1
62
256
6
ByLayer
370
18
48
1
60
0
100
AcDbEllipse
10
80.481023
20
-3E-06
30
0
11
19.6524203172863
21
-4.87492615165794
31
0
210
0
220
0
230
1
40
0.025188
41
-1.44344634375982
42
-1.42193746723999
0
ELLIPSE
5
EC
100
AcDbEntity
8
1
62
256
6
ByLayer
370
18
48
1
60
0
100
AcDbEllipse
10
101
20
-1E-06
30
0
11
1.75661181593469
21
-4.99885945604887
31
0
210
0
220
0
230
1
40
0.060808
41
2.77857669033125
42
2.8703095959811
0
ELLIPSE
5
ED
100
AcDbEntity
8
1
62
256
6
ByLayer
370
18
48
1
60
0
100
AcDbEllipse
10
85.600666
20
-77.510446
30
0
11
78.8214801605911
21
-0.0474454647262603
31
0
210
0
220
0
230
1
40
0.931079
41
1.45117737147112
42
1.4543791956286
0
POINT
5
6C
100
AcDbEntity
8
80
62
256
6
ByLayer
370
18
48
1
60
0
100
AcDbPoint
10
0
20
0
30
0
39
0
210
0
220
0
230
1
50
360
0
POINT
5
6E
100
AcDbEntity
8
81
62
256
6
ByLayer
370
18
48
1
60
0
100
AcDbPoint
10
94.8
20
0
30
0
39
0
210
0
220
0
230
1
50
360
0
SPLINE
5
EE
100
AcDbEntity
8
1
62
256
6
ByLayer
370
18
48
1
60
0
100
AcDbSpline
70
4
71
3
72
8
73
4
40
0
40
0
40
0
40
0
40
1
40
1
40
1
40
1
41
1
10
9.01092345124965
20
7.04521151234735
30
0
41
1
10
8.95542996348186
20
7.10140042047726
30
0
41
1
10
8.89960154531633
20
7.15719896304833
30
0
41
1
10
8.84346714352631
20
7.21264874219588
30
0
0
SPLINE
5
EF
100
AcDbEntity
8
1
62
256
6
ByLayer
370
18
48
1
60
0
100
AcDbSpline
70
4
71
3
72
12
73
8
40
0
40
0
40
0
40
0
40
0.0691911627612259
40
0.306731090499295
40
0.537418563979836
40
0.765769986377275
40
1
40
1
40
1
40
1
41
1
10
7.15010614791765
20
8.73291899357244
30
0
41
1
10
7.08732436977184
20
8.78212660529374
30
0
41
1
10
6.80647351760919
20
8.99704058629473
30
0
41
1
10
6.29208213352933
20
9.34471828398975
30
0
41
1
10
5.57330523178808
20
9.70776353935548
30
0
41
1
10
4.80360085419176
20
9.9462195089572
30
0
41
1
10
4.27424522888586
20
9.99871803450242
30
0
41
1
10
4.00040000000001
20
10
30
0
0
SPLINE
5
F0
100
AcDbEntity
8
1
62
256
6
ByLayer
370
18
48
1
60
0
100
AcDbSpline
70
4
71
3
72
14
73
10
40
0
40
0
40
0
40
0
40
0.138128277637913
40
0.272830381058584
40
0.409067699521757
40
0.549507482201145
40
0.694931972855964
40
0.992416466184206
40
1
40
1
40
1
40
1
41
1
10
4.00039999999998
20
-10
30
0
41
1
10
4.27923077065731
20
-9.99860258044041
30
0
41
1
10
4.81795745355052
20
-9.94427933904498
30
0
41
1
10
5.60065189258574
20
-9.69724817290955
30
0
41
1
10
6.33088465682238
20
-9.32236621356964
30
0
41
1
10
7.0241080007761
20
-8.84548611424825
30
0
41
1
10
7.92120402501726
20
-8.10747338314596
30
0
41
1
10
8.55510308662701
20
-7.47247067075227
30
0
41
1
10
8.99933453678074
20
-7.05893793590363
30
0
41
1
10
9.01037376640835
20
-7.04865402939151
30
0
0
SPLINE
5
F1
100
AcDbEntity
8
1
62
256
6
ByLayer
370
18
48
1
60
0
100
AcDbSpline
70
4
71
3
72
25
73
21
40
0
40
0
40
0
40
0
40
0.0762324515843831
40
0.146978030943532
40
0.205158598141619
40
0.251246738730482
40
0.295038595915774
40
0.3429105496099
40
0.394980472006308
40
0.445534083068569
40
0.499701445475348
40
0.543429754170056
40
0.582711742647343
40
0.622031666166431
40
0.661531430015437
40
0.729858890863143
40
0.804461556759449
40
0.878920891412491
40
0.956692999812054
40
1
40
1
40
1
40
1
41
1
10
36.6377495688288
20
4.697187555629
30
0
41
1
10
36.2905214731413
20
4.69690743023244
30
0
41
1
10
35.6198690372938
20
4.69632861249062
30
0
41
1
10
34.6814538245173
20
4.69487823650698
30
0
41
1
10
33.8771148777172
20
4.69439968305119
30
0
41
1
10
33.2015940184382
20
4.69663741927977
30
0
41
1
10
32.5753888271124
20
4.69725152914589
30
0
41
1
10
31.9166238508331
20
4.69646897314533
30
0
41
1
10
31.2264169925069
20
4.69583547769213
30
0
41
1
10
30.5073080552957
20
4.69585567542134
30
0
41
1
10
29.8264608087881
20
4.69579477015927
30
0
41
1
10
29.197313927723
20
4.69437578904675
30
0
41
1
10
28.6362550266078
20
4.69299942628373
30
0
41
1
10
28.0946176177568
20
4.69217908729033
30
0
41
1
10
27.4196363180339
20
4.69182228438206
30
0
41
1
10
26.5837863171292
20
4.69255705867852
30
0
41
1
10
25.5899682713032
20
4.69420775883654
30
0
41
1
10
24.5480241299342
20
4.69358346107151
30
0
41
1
10
23.6547115400673
20
4.69316785780106
30
0
41
1
10
23.1032323258887
20
4.69272764699568
30
0
41
1
10
22.9061047368521
20
4.69241847973603
30
0
0
SPLINE
5
F2
100
AcDbEntity
8
1
62
256
6
ByLayer
370
18
48
1
60
0
100
AcDbSpline
70
4
71
3
72
26
73
22
40
0
40
0
40
0
40
0
40
0.0348687858444531
40
0.0725620826797845
40
0.120001048498244
40
0.174563806231116
40
0.231083516101476
40
0.281259193035666
40
0.325088190304866
40
0.36268448617956
40
0.396634388767976
40
0.432081536839677
40
0.476640898737763
40
0.530391241947002
40
0.574035091540661
40
0.610820021128526
40
0.693467310662608
40
0.777377775463313
40
0.859652031064944
40
0.942765545211113
40
1
40
1
40
1
40
1
41
1
10
77.2002733100632
20
4.69914558003089
30
0
41
1
10
77.064087660744
20
4.69756048098043
30
0
41
1
10
76.7689461118094
20
4.69384114471524
30
0
41
1
10
76.2257958321946
20
4.68154402406424
30
0
41
1
10
75.576862346765
20
4.67760376762408
30
0
41
1
10
74.8457627687792
20
4.68497602920962
30
0
41
1
10
74.1125276873656
20
4.69213368109814
30
0
41
1
10
73.4226360802922
20
4.69404352657352
30
0
41
1
10
72.8178210517166
20
4.69454500645202
30
0
41
1
10
72.2853051761319
20
4.69446521217705
30
0
41
1
10
71.7900349772897
20
4.69459310743656
30
0
41
1
10
71.2626377019631
20
4.69521750803622
30
0
41
1
10
70.6435580503576
20
4.69641006011292
30
0
41
1
10
69.9864260013148
20
4.69700215213396
30
0
41
1
10
69.3653020245389
20
4.69605366821924
30
0
41
1
10
68.6104452445052
20
4.69470379788291
30
0
41
1
10
67.6689005312329
20
4.69341840120012
30
0
41
1
10
66.5183240546563
20
4.69410853118387
30
0
41
1
10
65.3641633395918
20
4.69438215684053
30
0
41
1
10
64.3339105595277
20
4.69114300476664
30
0
41
1
10
63.6867790953899
20
4.69101231502719
30
0
41
1
10
63.4238533356329
20
4.69054138701122
30
0
0
SPLINE
5
F3
100
AcDbEntity
8
1
62
256
6
ByLayer
370
18
48
1
60
0
100
AcDbSpline
70
4
71
2
72
6
73
3
40
0
40
0
40
0
40
1
40
1
40
1
41
1
10
51.8486730792369
20
1.79075234753435
30
0
41
1
10
51.6828081209228
20
1.83870129677308
30
0
41
1
10
51.5171909250777
20
1.89575104902377
30
0
0
SPLINE
5
F4
100
AcDbEntity
8
1
62
256
6
ByLayer
370
18
48
1
60
0
100
AcDbSpline
70
4
71
2
72
6
73
3
40
0
40
0
40
0
40
1
40
1
40
1
41
1
10
81.0570987159994
20
-1.6715767420647
30
0
41
1
10
81.2598860122774
20
-1.73183896462447
30
0
41
1
10
81.4624606089238
20
-1.80360114325308
30
0
0
SPLINE
5
F5
100
AcDbEntity
8
1
62
256
6
ByLayer
370
18
48
1
60
0
100
AcDbSpline
70
4
71
2
72
6
73
3
40
0
40
0
40
0
40
1
40
1
40
1
41
1
10
40.5969821124027
20
-1.67335899736778
30
0
41
1
10
40.7997762360106
20
-1.73378194550136
30
0
41
1
10
41.0023421602352
20
-1.80564522203488
30
0
0
SPLINE
5
F6
100
AcDbEntity
8
1
62
256
6
ByLayer
370
18
48
1
60
0
100
AcDbSpline
70
4
71
3
72
26
73
22
40
0
40
0
40
0
40
0
40
0.0737142588038454
40
0.138587177091518
40
0.196290691665583
40
0.249591186302326
40
0.298838215292875
40
0.360315955157872
40
0.421995581683662
40
0.478587671404756
40
0.511604499412796
40
0.544475594909408
40
0.577360521617147
40
0.615750243817558
40
0.663424738185874
40
0.71836724840575
40
0.766455515352718
40
0.809549874589585
40
0.859379706922508
40
0.924661393199424
40
1
40
1
40
1
40
1
41
1
10
19.2335976003598
20
-4.69197656300034
30
0
41
1
10
19.6551887187353
20
-4.69208206213062
30
0
41
1
10
20.4508610911764
20
-4.69234127816705
30
0
41
1
10
21.5984464766175
20
-4.68777491841263
30
0
41
1
10
22.612004481092
20
-4.6924386674842
30
0
41
1
10
23.5378115266544
20
-4.69308558230628
30
0
41
1
10
24.4881958910055
20
-4.69350612217596
30
0
41
1
10
25.492563096522
20
-4.69433337071376
30
0
41
1
10
26.5355425228624
20
-4.6926220975449
30
0
41
1
10
27.4146542773011
20
-4.69180289918771
30
0
41
1
10
28.127405732015
20
-4.69220309780621
30
0
41
1
10
28.7020470247435
20
-4.69312439267617
30
0
41
1
10
29.3079878134093
20
-4.69467992626005
30
0
41
1
10
30.0000372836512
20
-4.69600188240074
30
0
41
1
10
30.8204803132382
20
-4.69572290506036
30
0
41
1
10
31.6971023413203
20
-4.69610635725849
30
0
41
1
10
32.5478844053802
20
-4.6974935997078
30
0
41
1
10
33.359070165316
20
-4.69594219355895
30
0
41
1
10
34.2802482572449
20
-4.69412657269635
30
0
41
1
10
35.3876193432047
20
-4.69606006498782
30
0
41
1
10
36.2016317245988
20
-4.6966711086265
30
0
41
1
10
36.6369084142893
20
-4.69717653087761
30
0
0
SPLINE
5
F7
100
AcDbEntity
8
1
62
256
6
ByLayer
370
18
48
1
60
0
100
AcDbSpline
70
4
71
3
72
10
73
6
40
0
40
0
40
0
40
0
40
0.287675525039876
40
0.65434172103644
40
1
40
1
40
1
40
1
41
1
10
96.5319349831253
20
-4.89999513735546
30
0
41
1
10
96.7850092785046
20
-4.89979377824994
30
0
41
1
10
97.361268381871
20
-4.89946641846396
30
0
41
1
10
98.2470012103198
20
-4.89952822006532
30
0
41
1
10
98.8755834223856
20
-4.89977504158489
30
0
41
1
10
99.1805547454608
20
-4.89996121608581
30
0
0
SPLINE
5
F8
100
AcDbEntity
8
1
62
256
6
ByLayer
370
18
48
1
60
0
100
AcDbSpline
70
4
71
2
72
6
73
3
40
0
40
0
40
0
40
1
40
1
40
1
41
1
10
99.1716106834653
20
4.89997768326907
30
0
41
1
10
98.9984986680612
20
4.89996685029999
30
0
41
1
10
98.8253926839656
20
4.89995915878444
30
0
0
SPLINE
5
F9
100
AcDbEntity
8
1
62
256
6
ByLayer
370
18
48
1
60
0
100
AcDbSpline
70
4
71
3
72
10
73
6
40
0
40
0
40
0
40
0
40
0.548827477946208
40
0.845814331144584
40
1
40
1
40
1
40
1
41
1
10
94.77
20
1.29008333508438
30
0
41
1
10
94.7696999050315
20
1.26528368561665
30
0
41
1
10
94.7626034127653
20
1.22957382167897
30
0
41
1
10
94.7414850620619
20
1.19088634307067
30
0
41
1
10
94.7294870837061
20
1.17524536252907
30
0
41
1
10
94.7251095189323
20
1.17012892794421
30
0
0
SPLINE
5
FA
100
AcDbEntity
8
1
62
256
6
ByLayer
370
18
48
1
60
0
100
AcDbSpline
70
4
71
3
72
31
73
27
40
0
40
0
40
0
40
0
40
0.0386619252103161
40
0.0733927330656029
40
0.105156335350855
40
0.159191801791544
40
0.205527505881992
40
0.244270593327709
40
0.283806313106487
40
0.310448988751065
40
0.340280112512251
40
0.37710437272295
40
0.421051753950539
40
0.469863285746152
40
0.516196819433526
40
0.554362670448549
40
0.595851202764256
40
0.636843885100781
40
0.675053937465361
40
0.709185031213488
40
0.742304979265294
40
0.777680719682579
40
0.816726374217172
40
0.866795877339344
40
0.929582436121651
40
1
40
1
40
1
40
1
41
1
10
59.6956966022756
20
-4.69337546334037
30
0
41
1
10
59.8967935579211
20
-4.69187623187446
30
0
41
1
10
60.2899812154801
20
-4.68815579685048
30
0
41
1
10
60.8843312993168
20
-4.673868451206
30
0
41
1
10
61.5981607862029
20
-4.66945872382865
30
0
41
1
10
62.3440319705659
20
-4.68774967081396
30
0
41
1
10
63.1407430243913
20
-4.69036737490606
30
0
41
1
10
63.8643437297938
20
-4.691029874284
30
0
41
1
10
64.4783180923005
20
-4.6916103286253
30
0
41
1
10
65.0403291747791
20
-4.69322773080629
30
0
41
1
10
65.586151474495
20
-4.69475848746174
30
0
41
1
10
66.2334578044145
20
-4.69471762210969
30
0
41
1
10
66.9918326318012
20
-4.69358410801601
30
0
41
1
10
67.8058943227113
20
-4.69374080979873
30
0
41
1
10
68.5861442216173
20
-4.69466089129781
30
0
41
1
10
69.3235420871771
20
-4.69599033207729
30
0
41
1
10
70.0296813816686
20
-4.69707553846695
30
0
41
1
10
70.7360732740578
20
-4.6962323117134
30
0
41
1
10
71.399419490699
20
-4.69499130813483
30
0
41
1
10
72.0166258242425
20
-4.69449095916013
30
0
41
1
10
72.6174729571591
20
-4.69447648421533
30
0
41
1
10
73.2430046859919
20
-4.69447475191274
30
0
41
1
10
73.9613272573912
20
-4.69121251458191
30
0
41
1
10
74.8540628800126
20
-4.69195277628208
30
0
41
1
10
75.9239501974978
20
-4.69589113988619
30
0
41
1
10
76.6993450993342
20
-4.69781818450687
30
0
41
1
10
77.1082796004584
20
-4.69889311938792
30
0
0
SPLINE
5
FB
100
AcDbEntity
8
SK1
62
256
6
ByLayer
370
18
48
1
60
0
100
AcDbSpline
70
4
71
3
72
68
73
64
40
0
40
0
40
0
40
0
40
0.031249999999999
40
0.031249999999999
40
0.0624999999999979
40
0.0624999999999979
40
0.0937499999999969
40
0.0937499999999969
40
0.124999999999996
40
0.124999999999996
40
0.156249999999995
40
0.156249999999995
40
0.187499999999994
40
0.187499999999994
40
0.203124999999994
40
0.203124999999994
40
0.218749999999993
40
0.218749999999993
40
0.249999999999994
40
0.249999999999994
40
0.281249999999994
40
0.281249999999994
40
0.312499999999995
40
0.312499999999995
40
0.374999999999996
40
0.374999999999996
40
0.406249999999996
40
0.406249999999996
40
0.437499999999997
40
0.437499999999997
40
0.499999999999998
40
0.499999999999998
40
0.531249999999998
40
0.531249999999998
40
0.562499999999999
40
0.562499999999999
40
0.625
40
0.625
40
0.687500000000001
40
0.687500000000001
40
0.718750000000002
40
0.718750000000002
40
0.750000000000002
40
0.750000000000002
40
0.781250000000002
40
0.781250000000002
40
0.796875000000002
40
0.796875000000002
40
0.812500000000002
40
0.812500000000002
40
0.875000000000001
40
0.875000000000001
40
0.890625000000002
40
0.890625000000002
40
0.906250000000002
40
0.906250000000002
40
0.937500000000001
40
0.937500000000001
40
0.953125
40
0.953125
40
0.96875
40
0.96875
40
1
40
1
40
1
40
1
41
1
10
-6.5
20
-5.22687526156881
30
0
41
1
10
-6.34394845902597
20
-5.22687526156881
30
0
41
1
10
-6.19042122799681
20
-5.21639296166188
30
0
41
1
10
-5.88813127356264
20
-5.17538167389498
30
0
41
1
10
-5.73937086802019
20
-5.14484388887027
30
0
41
1
10
-5.44668791013001
20
-5.06264474621489
30
0
41
1
10
-5.30640369525707
20
-5.01193969825908
30
0
41
1
10
-5.03894522260001
20
-4.89264595737453
30
0
41
1
10
-4.9114150500626
20
-4.82393877072775
30
0
41
1
10
-4.66819142451462
20
-4.66792077701672
30
0
41
1
10
-4.55453796065879
20
-4.58183100628238
30
0
41
1
10
-4.34341957458059
20
-4.39591890548189
30
0
41
1
10
-4.24555238453496
20
-4.29582260896419
30
0
41
1
10
-4.10907609706425
20
-4.13515213531713
30
0
41
1
10
-4.06534402103676
20
-4.07984985855634
30
0
41
1
10
-3.98215786603771
20
-3.9672120524713
30
0
41
1
10
-3.94255192832321
20
-3.90970415853502
30
0
41
1
10
-3.82916464826297
20
-3.73374973224327
30
0
41
1
10
-3.76079493452551
20
-3.61187897183513
30
0
41
1
10
-3.63624704359682
20
-3.35953204614827
30
0
41
1
10
-3.58007582712935
20
-3.22905393387657
30
0
41
1
10
-3.4782218447136
20
-2.95982853214917
30
0
41
1
10
-3.43270898082483
20
-2.82135737017342
30
0
41
1
10
-3.31172877897703
20
-2.40192639130166
30
0
41
1
10
-3.25058974448933
20
-2.11444591958698
30
0
41
1
10
-3.17964256237119
20
-1.67264361464774
30
0
41
1
10
-3.15951387424582
20
-1.52360098026489
30
0
41
1
10
-3.12548630669414
20
-1.22203846790575
30
0
41
1
10
-3.111569150642
20
-1.06905861372326
30
0
41
1
10
-3.07879446769871
20
-0.610864071414824
30
0
41
1
10
-3.06851117613567
20
-0.30500095518957
30
0
41
1
10
-3.06855405803267
20
0.154369885010055
30
0
41
1
10
-3.07118881096969
20
0.307590124534158
30
0
41
1
10
-3.08188606588456
20
0.61422697188965
30
0
41
1
10
-3.08996887021809
20
0.767936726458487
30
0
41
1
10
-3.12302468043902
20
1.22746192774332
30
0
41
1
10
-3.15628163406512
20
1.52726901543855
30
0
41
1
10
-3.25044943178841
20
2.11347343178804
30
0
41
1
10
-3.31128420063564
20
2.39987709805374
30
0
41
1
10
-3.43173287409903
20
2.81822348190337
30
0
41
1
10
-3.47692542817427
20
2.95611071389945
30
0
41
1
10
-3.5789463395341
20
3.2263526489771
30
0
41
1
10
-3.63520900785142
20
3.35725729466213
30
0
41
1
10
-3.7599345985283
20
3.6103048347239
30
0
41
1
10
-3.82839078776152
20
3.73244962227668
30
0
41
1
10
-3.94187917539884
20
3.90870910519672
30
0
41
1
10
-3.98151393492188
20
3.9663010269658
30
0
41
1
10
-4.06474193989283
20
4.07907314613499
30
0
41
1
10
-4.10849213670588
20
4.13443194322988
30
0
41
1
10
-4.33594792759203
20
4.40237304536254
30
0
41
1
10
-4.54466702410224
20
4.58831633060635
30
0
41
1
10
-4.84790367859867
20
4.78328857284635
30
0
41
1
10
-4.91085818148966
20
4.82044609497191
30
0
41
1
10
-5.03890746797549
20
4.88957371735646
30
0
41
1
10
-5.10426107134134
20
4.92172722181593
30
0
41
1
10
-5.30435113991214
20
5.01112499993621
30
0
41
1
10
-5.44309556549268
20
5.06134953831224
30
0
41
1
10
-5.65972848213716
20
5.12261167611467
30
0
41
1
10
-5.73336359710802
20
5.14067671547696
30
0
41
1
10
-5.88363874833243
20
5.17194619308157
30
0
41
1
10
-5.95993020834322
20
5.18505308835799
30
0
41
1
10
-6.18918677634795
20
5.21636047859616
30
0
41
1
10
-6.34372076022839
20
5.22687526156881
30
0
41
1
10
-6.5
20
5.22687526156881
30
0
0
SPLINE
5
FC
100
AcDbEntity
8
SK1
62
256
6
ByLayer
370
18
48
1
60
0
100
AcDbSpline
70
4
71
3
72
68
73
64
40
0
40
0
40
0
40
0
40
0.0312500000000001
40
0.0312500000000001
40
0.0625000000000002
40
0.0625000000000002
40
0.0937500000000003
40
0.0937500000000003
40
0.125
40
0.125
40
0.156250000000001
40
0.156250000000001
40
0.187500000000001
40
0.187500000000001
40
0.203125000000001
40
0.203125000000001
40
0.218750000000001
40
0.218750000000001
40
0.250000000000001
40
0.250000000000001
40
0.28125
40
0.28125
40
0.3125
40
0.3125
40
0.375
40
0.375
40
0.40625
40
0.40625
40
0.4375
40
0.4375
40
0.5
40
0.5
40
0.53125
40
0.53125
40
0.5625
40
0.5625
40
0.625
40
0.625
40
0.6875
40
0.6875
40
0.71875
40
0.71875
40
0.75
40
0.75
40
0.78125
40
0.78125
40
0.796875
40
0.796875
40
0.8125
40
0.8125
40
0.874999999999999
40
0.874999999999999
40
0.890625
40
0.890625
40
0.90625
40
0.90625
40
0.9375
40
0.9375
40
0.953125
40
0.953125
40
0.96875
40
0.96875
40
1
40
1
40
1
40
1
41
1
10
-41.5
20
5.22687526156881
30
0
41
1
10
-41.656051540974
20
5.22687526156881
30
0
41
1
10
-41.8095787720032
20
5.21639296166188
30
0
41
1
10
-42.1118687264374
20
5.17538167389498
30
0
41
1
10
-42.2606291319798
20
5.14484388887027
30
0
41
1
10
-42.55331208987
20
5.06264474621489
30
0
41
1
10
-42.6935963047429
20
5.01193969825908
30
0
41
1
10
-42.9610547774
20
4.8926459573745
30
0
41
1
10
-43.0885849499374
20
4.82393877072772
30
0
41
1
10
-43.3318085754853
20
4.66792077701672
30
0
41
1
10
-43.4454620393412
20
4.58183100628238
30
0
41
1
10
-43.6565804254194
20
4.39591890548189
30
0
41
1
10
-43.754447615465
20
4.29582260896419
30
0
41
1
10
-43.8909239029357
20
4.13515213531713
30
0
41
1
10
-43.9346559789632
20
4.07984985855634
30
0
41
1
10
-44.0178421339623
20
3.9672120524713
30
0
41
1
10
-44.0574480716768
20
3.90970415853502
30
0
41
1
10
-44.170835351737
20
3.73374973224327
30
0
41
1
10
-44.2392050654745
20
3.61187897183513
30
0
41
1
10
-44.3637529564031
20
3.35953204614827
30
0
41
1
10
-44.4199241728707
20
3.22905393387657
30
0
41
1
10
-44.5217781552864
20
2.95982853214917
30
0
41
1
10
-44.5672910191751
20
2.82135737017342
30
0
41
1
10
-44.688271221023
20
2.40192639130166
30
0
41
1
10
-44.7494102555106
20
2.11444591958698
30
0
41
1
10
-44.8203574376288
20
1.67264361464774
30
0
41
1
10
-44.8404861257542
20
1.52360098026489
30
0
41
1
10
-44.8745136933059
20
1.22203846790575
30
0
41
1
10
-44.888430849358
20
1.06905861372326
30
0
41
1
10
-44.9212055323013
20
0.610864071414824
30
0
41
1
10
-44.9314888238643
20
0.30500095518957
30
0
41
1
10
-44.9314459419673
20
-0.154369885010055
30
0
41
1
10
-44.9288111890303
20
-0.307590124534158
30
0
41
1
10
-44.9181139341154
20
-0.614226971889622
30
0
41
1
10
-44.9100311297819
20
-0.767936726458487
30
0
41
1
10
-44.876975319561
20
-1.22746192774332
30
0
41
1
10
-44.8437183659349
20
-1.52726901543855
30
0
41
1
10
-44.7495505682116
20
-2.11347343178804
30
0
41
1
10
-44.6887157993644
20
-2.39987709805374
30
0
41
1
10
-44.568267125901
20
-2.81822348190337
30
0
41
1
10
-44.5230745718257
20
-2.95611071389945
30
0
41
1
10
-44.4210536604659
20
-3.2263526489771
30
0
41
1
10
-44.3647909921486
20
-3.35725729466213
30
0
41
1
10
-44.2400654014717
20
-3.6103048347239
30
0
41
1
10
-44.1716092122385
20
-3.73244962227668
30
0
41
1
10
-44.0581208246012
20
-3.90870910519672
30
0
41
1
10
-44.0184860650781
20
-3.96630102696577
30
0
41
1
10
-43.9352580601072
20
-4.07907314613499
30
0
41
1
10
-43.8915078632941
20
-4.13443194322986
30
0
41
1
10
-43.664052072408
20
-4.40237304536254
30
0
41
1
10
-43.4553329758977
20
-4.58831633060635
30
0
41
1
10
-43.1520963214013
20
-4.78328857284635
30
0
41
1
10
-43.0891418185103
20
-4.82044609497191
30
0
41
1
10
-42.9610925320245
20
-4.88957371735646
30
0
41
1
10
-42.8957389286587
20
-4.92172722181593
30
0
41
1
10
-42.6956488600879
20
-5.01112499993621
30
0
41
1
10
-42.5569044345073
20
-5.06134953831224
30
0
41
1
10
-42.3402715178628
20
-5.12261167611467
30
0
41
1
10
-42.2666364028919
20
-5.14067671547696
30
0
41
1
10
-42.1163612516675
20
-5.17194619308157
30
0
41
1
10
-42.0400697916568
20
-5.18505308835799
30
0
41
1
10
-41.810813223652
20
-5.21636047859616
30
0
41
1
10
-41.6562792397716
20
-5.22687526156881
30
0
41
1
10
-41.5
20
-5.22687526156881
30
0
0
SPLINE
5
FD
100
AcDbEntity
8
1
62
256
6
ByLayer
370
18
48
1
60
0
100
AcDbSpline
70
4
71
3
72
12
73
8
40
0
40
0
40
0
40
0
40
0.499999999999995
40
0.499999999999995
40
0.749999999999997
40
0.749999999999997
40
1
40
1
40
1
40
1
41
1
10
87.6929403942108
20
-3.67217765137838
30
0
41
1
10
88.85900376497
20
-3.96743893672445
30
0
41
1
10
90.022412569049
20
-4.21531883861385
30
0
41
1
10
91.7742796915817
20
-4.50352229305517
30
0
41
1
10
92.3588713702671
20
-4.58552341571689
30
0
41
1
10
93.527931829313
20
-4.72131197523791
30
0
41
1
10
94.112738076699
20
-4.77518381377286
30
0
41
1
10
94.6981221491061
20
-4.8150974452995
30
0
0
SPLINE
5
FE
100
AcDbEntity
8
1
62
256
6
ByLayer
370
18
48
1
60
0
100
AcDbSpline
70
4
71
3
72
8
73
4
40
0
40
0
40
0
40
0
40
1
40
1
40
1
40
1
41
1
10
97.421512468347
20
-2.29263620251686
30
0
41
1
10
97.3823566264143
20
-2.29579861768298
30
0
41
1
10
97.3432007844816
20
-2.29896103284906
30
0
41
1
10
97.304044942549
20
-2.30212344801518
30
0
0
SPLINE
5
FF
100
AcDbEntity
8
1
62
256
6
ByLayer
370
18
48
1
60
0
100
AcDbSpline
70
4
71
3
72
14
73
10
40
0
40
0
40
0
40
0
40
0.25
40
0.25
40
0.5
40
0.5
40
0.75
40
0.75
40
1
40
1
40
1
40
1
41
1
10
99.4658046289931
20
4.71101357225734
30
0
41
1
10
99.1224155805767
20
4.76211596081615
30
0
41
1
10
98.7795429523489
20
4.80663419036466
30
0
41
1
10
98.0936954896279
20
4.88189640224275
30
0
41
1
10
97.7508392493715
20
4.91275734395393
30
0
41
1
10
97.0655917944486
20
4.96100220655686
30
0
41
1
10
96.7230530365607
20
4.97827599867452
30
0
41
1
10
96.0368094293706
20
4.99884043180995
30
0
41
1
10
95.6933182631471
20
5.00221319039906
30
0
41
1
10
95.3494954838909
20
4.99859764389319
30
0
0
SPLINE
5
100
100
AcDbEntity
8
1
62
256
6
ByLayer
370
18
48
1
60
0
100
AcDbSpline
70
4
71
3
72
12
73
8
40
0
40
0
40
0
40
0
40
0.290391335012693
40
0.290391335012693
40
0.580782670025387
40
0.580782670025387
40
1
40
1
40
1
40
1
41
1
10
95.349495483869
20
-4.97053379204868
30
0
41
1
10
95.6860478991529
20
-4.98674765048469
30
0
41
1
10
96.0228014636774
20
-4.99625457553998
30
0
41
1
10
96.6961946471471
20
-5.00193475288449
30
0
41
1
10
97.0327002647843
20
-4.99808129706125
30
0
41
1
10
97.8551186529824
20
-4.9722741283567
30
0
41
1
10
98.3412202245548
20
-4.94313942445547
30
0
41
1
10
98.8272278578382
20
-4.90029622880388
30
0
0
SPLINE
5
101
100
AcDbEntity
8
1
62
256
6
ByLayer
370
18
48
1
60
0
100
AcDbSpline
70
4
71
3
72
8
73
4
40
0
40
0
40
0
40
0
40
1
40
1
40
1
40
1
41
1
10
99.3425747374322
20
-4.84973138412371
30
0
41
1
10
99.3580785116768
20
-4.84805585402978
30
0
41
1
10
99.3735820703397
20
-4.84636643239168
30
0
41
1
10
99.3890854025943
20
-4.84466312505799
30
0
0
SPLINE
5
102
100
AcDbEntity
8
1
62
256
6
ByLayer
370
18
48
1
60
0
100
AcDbSpline
70
4
71
3
72
8
73
4
40
0
40
0
40
0
40
0
40
1
40
1
40
1
40
1
41
1
10
95.6
20
-4.43192193556214
30
0
41
1
10
96.5853122180749
20
-4.43193178474149
30
0
41
1
10
97.5706244358838
20
-4.43193132005595
30
0
41
1
10
98.5559366537487
20
-4.43191985704067
30
0
0
SPLINE
5
103
100
AcDbEntity
8
1
62
256
6
ByLayer
370
18
48
1
60
0
100
AcDbSpline
70
4
71
1
72
4
73
2
40
0
40
0
40
1
40
1
41
1
10
97.4175902059827
20
-2.24980235770346
30
0
41
1
10
97.4215129938087
20
-2.29264217975015
30
0
0
SPLINE
5
104
100
AcDbEntity
8
1
62
256
6
ByLayer
370
18
48
1
60
0
100
AcDbSpline
70
4
71
3
72
10
73
6
40
0
40
0
40
0
40
0
40
0.509687447369386
40
0.509687447369386
40
1
40
1
40
1
40
1
41
1
10
99.3890854025943
20
-4.84466312505802
30
0
41
1
10
99.3949540588499
20
-4.82756628307499
30
0
41
1
10
99.4008201500492
20
-4.81047128770271
30
0
41
1
10
99.4123242288483
20
-4.77693499935919
30
0
41
1
10
99.4179624237622
20
-4.76049352182636
30
0
41
1
10
99.4235981824587
20
-4.74405393974101
30
0
0
SPLINE
5
105
100
AcDbEntity
8
1
62
256
6
ByLayer
370
18
48
1
60
0
100
AcDbSpline
70
4
71
3
72
8
73
4
40
0
40
0
40
0
40
0
40
1
40
1
40
1
40
1
41
1
10
87.6718447077405
20
3.71208737468766
30
0
41
1
10
87.6242968518631
20
3.59004656877198
30
0
41
1
10
87.5769513193203
20
3.46739029060197
30
0
41
1
10
87.5298171091679
20
3.34409116484127
30
0
0
SPLINE
5
106
100
AcDbEntity
8
1
62
256
6
ByLayer
370
18
48
1
60
0
100
AcDbSpline
70
4
71
3
72
30
73
26
40
0
40
0
40
0
40
0
40
0.125000000000004
40
0.125000000000004
40
0.187500000000005
40
0.187500000000005
40
0.250000000000006
40
0.250000000000006
40
0.312500000000007
40
0.312500000000007
40
0.375000000000007
40
0.375000000000007
40
0.500000000000009
40
0.500000000000009
40
0.625000000000011
40
0.625000000000011
40
0.687500000000011
40
0.687500000000011
40
0.750000000000012
40
0.750000000000012
40
0.812500000000013
40
0.812500000000013
40
0.875000000000013
40
0.875000000000013
40
1
40
1
40
1
40
1
41
1
10
87
20
1.73294932083542
30
0
41
1
10
87
20
1.51569546120891
30
0
41
1
10
86.9787499782256
20
1.29673163216057
30
0
41
1
10
86.9099020398832
20
0.966950929790642
30
0
41
1
10
86.8804493683371
20
0.855978310333029
30
0
41
1
10
86.8093839568828
20
0.638779271405838
30
0
41
1
10
86.7678995228536
20
0.532549044193956
30
0
41
1
10
86.6728740713654
20
0.324997936360688
30
0
41
1
10
86.6193349270644
20
0.223675918382099
30
0
41
1
10
86.4996680160196
20
0.0262756633215702
30
0
41
1
10
86.4333981805307
20
-0.0697857464864455
30
0
41
1
10
86.2209948344487
20
-0.341827707749587
30
0
41
1
10
86.0594489690652
20
-0.505091397760225
30
0
41
1
10
85.6976366554683
20
-0.793204819969759
30
0
41
1
10
85.5034308650944
20
-0.913417583917351
30
0
41
1
10
85.1925070733183
20
-1.05990396265332
30
0
41
1
10
85.0848614123271
20
-1.10324510909004
30
0
41
1
10
84.8665957321008
20
-1.17685215991079
30
0
41
1
10
84.7561304900921
20
-1.20717784048026
30
0
41
1
10
84.5325816598588
20
-1.25527855296272
30
0
41
1
10
84.4194979839846
20
-1.2730528671224
30
0
41
1
10
84.1906604214403
20
-1.29591128516117
30
0
41
1
10
84.0742096847391
20
-1.30095313324716
30
0
41
1
10
83.7276355662707
20
-1.2962904070979
30
0
41
1
10
83.4994799386344
20
-1.2675112832905
30
0
41
1
10
83.274234313201
20
-1.21253982881694
30
0
0
SPLINE
5
107
100
AcDbEntity
8
1
62
256
6
ByLayer
370
18
48
1
60
0
100
AcDbSpline
70
4
71
3
72
12
73
8
40
0
40
0
40
0
40
0
40
0.41830869007064
40
0.41830869007064
40
0.70915391711865
40
0.70915391711865
40
1
40
1
40
1
40
1
41
1
10
94.7999999785751
20
4.70442983895762
30
0
41
1
10
94.7858230056455
20
4.71946961426949
30
0
41
1
10
94.7716358363201
20
4.73450436633459
30
0
41
1
10
94.7475676936846
20
4.75998442789728
30
0
41
1
10
94.7376918286255
20
4.77043224057726
30
0
41
1
10
94.7179306651834
20
4.79132337289621
30
0
41
1
10
94.708045359498
20
4.80176670020688
30
0
41
1
10
94.6981554385159
20
4.8122078342264
30
0
0
SPLINE
5
108
100
AcDbEntity
8
1
62
256
6
ByLayer
370
18
48
1
60
0
100
AcDbSpline
70
4
71
3
72
8
73
4
40
0
40
0
40
0
40
0
40
1
40
1
40
1
40
1
41
1
10
86.6695847770197
20
3.45960321325023
30
0
41
1
10
86.7772784759915
20
3.4289293593111
30
0
41
1
10
86.8874228228249
20
3.40254836358429
30
0
41
1
10
87
20
3.38079049709131
30
0
0
SPLINE
5
109
100
AcDbEntity
8
1
62
256
6
ByLayer
370
18
48
1
60
0
100
AcDbSpline
70
4
71
3
72
8
73
4
40
0
40
0
40
0
40
0
40
1
40
1
40
1
40
1
41
1
10
94.7761522368915
20
1.34343937993342
30
0
41
1
10
94.7742060898037
20
1.33930909693635
30
0
41
1
10
94.7721540583581
20
1.33524747677481
30
0
41
1
10
94.7699999999962
20
1.33125657912257
30
0
0
SPLINE
5
10A
100
AcDbEntity
8
1
62
256
6
ByLayer
370
18
48
1
60
0
100
AcDbSpline
70
4
71
3
72
8
73
4
40
0
40
0
40
0
40
0
40
1
40
1
40
1
40
1
41
1
10
12.358880633629
20
1.49445460286702
30
0
41
1
10
12.3447862186011
20
1.48150546150859
30
0
41
1
10
12.3307798665779
20
1.4657873005672
30
0
41
1
10
12.3164778705036
20
1.44745417943639
30
0
0
SPLINE
5
10B
100
AcDbEntity
8
1
62
256
6
ByLayer
370
18
48
1
60
0
100
AcDbSpline
70
4
71
3
72
17
73
13
40
0
40
0
40
0
40
0
40
0.250000000000001
40
0.250000000000001
40
0.375000000000001
40
0.375000000000001
40
0.500000000000001
40
0.625
40
0.625
40
0.75
40
0.75
40
1
40
1
40
1
40
1
41
1
10
96.5778987796378
20
0.586459848123354
30
0
41
1
10
96.6595122116282
20
0.504021232190922
30
0
41
1
10
96.7386611551337
20
0.439915107400168
30
0
41
1
10
96.8534403999292
20
0.373095262033388
30
0
41
1
10
96.8912477192752
20
0.355717456471751
30
0
41
1
10
96.9643594126683
20
0.331799830925519
30
0
41
1
10
97.0346904720337
20
0.318570619413322
30
0
41
1
10
97.0995080887043
20
0.326534401185853
30
0
41
1
10
97.1615128568741
20
0.345310425452538
30
0
41
1
10
97.1912157563371
20
0.360183716431521
30
0
41
1
10
97.2751862994098
20
0.421313081431634
30
0
41
1
10
97.3231051865955
20
0.482738342930958
30
0
41
1
10
97.3633457178201
20
0.563853509325838
30
0
0
SPLINE
5
10C
100
AcDbEntity
8
1
62
256
6
ByLayer
370
18
48
1
60
0
100
AcDbSpline
70
4
71
3
72
9
73
5
40
0
40
0
40
0
40
0
40
0.460519480049534
40
1
40
1
40
1
40
1
41
1
10
16.0985437391054
20
-4.55784575657384
30
0
41
1
10
16.5811221141046
20
-4.59762756849108
30
0
41
1
10
17.6284103113631
20
-4.66415941663908
30
0
41
1
10
18.6734948877297
20
-4.69070303595097
30
0
41
1
10
19.2371359436602
20
-4.69198478060292
30
0
0
SPLINE
5
10D
100
AcDbEntity
8
1
62
256
6
ByLayer
370
18
48
1
60
0
100
AcDbSpline
70
4
71
3
72
11
73
7
40
0
40
0
40
0
40
0
40
0.114292525275799
40
0.557968397287074
40
0.82417392049384
40
1
40
1
40
1
40
1
41
1
10
79.9191182980351
20
-0.0011571723612747
30
0
41
1
10
80.0393542623638
20
-0.0451345562372012
30
0
41
1
10
80.6263405271744
20
-0.25989180606166
30
0
41
1
10
81.4930962164964
20
-0.576386598907305
30
0
41
1
10
82.4244786215501
20
-0.911390376494438
30
0
41
1
10
82.8896572381301
20
-1.07647937211215
30
0
41
1
10
83.0747304896153
20
-1.14176704974798
30
0
0
SPLINE
5
10E
100
AcDbEntity
8
1
62
256
6
ByLayer
370
18
48
1
60
0
100
AcDbSpline
70
4
71
3
72
8
73
4
40
0
40
0
40
0
40
0
40
1
40
1
40
1
40
1
41
1
10
94.6981554767727
20
4.81220777709817
30
0
41
1
10
94.6971036373965
20
4.81310023689065
30
0
41
1
10
94.6960518117754
20
4.81399245550162
30
0
41
1
10
94.6950000000001
20
4.81488443281538
30
0
0
SPLINE
5
10F
100
AcDbEntity
8
1
62
256
6
ByLayer
370
18
48
1
60
0
100
AcDbSpline
70
4
71
3
72
66
73
62
40
0
40
0
40
0
40
0
40
0.0625000000000013
40
0.0625000000000013
40
0.125000000000003
40
0.125000000000003
40
0.187500000000004
40
0.187500000000004
40
0.250000000000005
40
0.250000000000005
40
0.281250000000006
40
0.281250000000006
40
0.312500000000007
40
0.312500000000007
40
0.328125000000008
40
0.328125000000008
40
0.343750000000009
40
0.343750000000009
40
0.375000000000009
40
0.375000000000009
40
0.390625000000009
40
0.390625000000009
40
0.406250000000008
40
0.406250000000008
40
0.421875000000008
40
0.421875000000008
40
0.437500000000008
40
0.437500000000008
40
0.453125000000007
40
0.453125000000007
40
0.468750000000007
40
0.468750000000007
40
0.484375000000007
40
0.484375000000007
40
0.500000000000006
40
0.500000000000006
40
0.515625000000006
40
0.515625000000006
40
0.531250000000006
40
0.531250000000006
40
0.546875000000005
40
0.546875000000005
40
0.562500000000005
40
0.562500000000005
40
0.593750000000004
40
0.593750000000004
40
0.625000000000003
40
0.625000000000003
40
0.656250000000003
40
0.656250000000003
40
0.687500000000002
40
0.687500000000002
40
0.750000000000002
40
0.750000000000002
40
0.812500000000001
40
0.812500000000001
40
0.875000000000001
40
0.875000000000001
40
0.9375
40
0.9375
40
1
40
1
40
1
40
1
41
1
10
10.3046113611254
20
5.84001113848237
30
0
41
1
10
10.019019708304
20
6.08894103514214
30
0
41
1
10
9.74156081251397
20
6.34686353274435
30
0
41
1
10
9.1927900494656
20
6.86956698549352
30
0
41
1
10
8.92152867471728
20
7.13439853282995
30
0
41
1
10
8.37512393018289
20
7.65949020468159
30
0
41
1
10
8.09969723656945
20
7.92011777487787
30
0
41
1
10
7.53546455207282
20
8.42136153082546
30
0
41
1
10
7.2467482208333
20
8.6620581025611
30
0
41
1
10
6.79482982771219
20
8.99308308222078
30
0
41
1
10
6.64103127049287
20
9.09837413020102
30
0
41
1
10
6.32537955729677
20
9.29539093598672
30
0
41
1
10
6.16294353703628
20
9.38729752013901
30
0
41
1
10
5.91787785194401
20
9.50890736994526
30
0
41
1
10
5.83578467413031
20
9.54685593927763
30
0
41
1
10
5.67096017453855
20
9.61704480649649
30
0
41
1
10
5.58798176779817
20
9.64937088945615
30
0
41
1
10
5.34016669441968
20
9.73633144105958
30
0
41
1
10
5.17880657623903
20
9.7801505509151
30
0
41
1
10
4.94720127804308
20
9.82368043572845
30
0
41
1
10
4.87155494977841
20
9.83451246003028
30
0
41
1
10
4.72581415431384
20
9.84844927713112
30
0
41
1
10
4.65707529230471
20
9.85144722033348
30
0
41
1
10
4.52877561340622
20
9.85017009609996
30
0
41
1
10
4.46920667357836
20
9.84589925891382
30
0
41
1
10
4.36053145577469
20
9.8304854084958
30
0
41
1
10
4.31229364804071
20
9.81941843283579
30
0
41
1
10
4.23020193911233
20
9.79193733890813
30
0
41
1
10
4.19599595846364
20
9.77547733363909
30
0
41
1
10
4.14183450507682
20
9.73762445340913
30
0
41
1
10
4.1220497941639
20
9.71615868010679
30
0
41
1
10
4.09832624603578
20
9.67026506488014
30
0
41
1
10
4.09406844119826
20
9.64565979764876
30
0
41
1
10
4.10038542065803
20
9.59320484106058
30
0
41
1
10
4.11114172169675
20
9.56524944884151
30
0
41
1
10
4.14621393573083
20
9.50766332990554
30
0
41
1
10
4.17050989517961
20
9.47782214697921
30
0
41
1
10
4.23170267458659
20
9.4155904281034
30
0
41
1
10
4.26885756500045
20
9.38303600944269
30
0
41
1
10
4.35297472786527
20
9.31639012364045
30
0
41
1
10
4.40007052742797
20
9.28212466993546
30
0
41
1
10
4.50320057717258
20
9.21101213402812
30
0
41
1
10
4.55956824829804
20
9.17395659429167
30
0
41
1
10
4.73838592980096
20
9.05930421564585
30
0
41
1
10
4.86926657727565
20
8.9788491163919
30
0
41
1
10
5.14645996717678
20
8.80536932701503
30
0
41
1
10
5.29399714022404
20
8.71151955738085
30
0
41
1
10
5.58971561915922
20
8.51450810607398
30
0
41
1
10
5.73870902944034
20
8.41092252147601
30
0
41
1
10
6.03611462292912
20
8.19289875591357
30
0
41
1
10
6.18480044851111
20
8.07827329296879
30
0
41
1
10
6.62632591146021
20
7.72001034047952
30
0
41
1
10
6.90729830877402
20
7.46804735516602
30
0
41
1
10
7.44974153671566
20
6.94489101999375
30
0
41
1
10
7.71132216593915
20
6.67381102166181
30
0
41
1
10
8.22276315616909
20
6.12008118543292
30
0
41
1
10
8.47271833674245
20
5.83736763578918
30
0
41
1
10
8.96680781027101
20
5.26687840537261
30
0
41
1
10
9.21064243834905
20
4.97947418789062
30
0
41
1
10
9.69708003700603
20
4.40388909102373
30
0
41
1
10
9.93968493181853
20
4.11570929364973
30
0
41
1
10
10.1831781607136
20
3.8281455267614
30
0
0
SPLINE
5
110
100
AcDbEntity
8
1
62
256
6
ByLayer
370
18
48
1
60
0
100
AcDbSpline
70
4
71
3
72
8
73
4
40
0
40
0
40
0
40
0
40
1
40
1
40
1
40
1
41
1
10
94.8
20
-4.59652314255024
30
0
41
1
10
94.7683333333333
20
-4.62681587224446
30
0
41
1
10
94.7366666666667
20
-4.65710860193869
30
0
41
1
10
94.705
20
-4.68740133163294
30
0
0
SPLINE
5
111
100
AcDbEntity
8
1
62
256
6
ByLayer
370
18
48
1
60
0
100
AcDbSpline
70
4
71
3
72
8
73
4
40
0
40
0
40
0
40
0
40
1
40
1
40
1
40
1
41
1
10
99.8086992614238
20
-3.68835651851052
30
0
41
1
10
99.6956788236072
20
-4.02777055967479
30
0
41
1
10
99.5813896103544
20
-4.3686458769005
30
0
41
1
10
99.4658046289931
20
-4.71101357225734
30
0
0
SPLINE
5
112
100
AcDbEntity
8
1
62
256
6
ByLayer
370
18
48
1
60
0
100
AcDbSpline
70
4
71
3
72
8
73
4
40
0
40
0
40
0
40
0
40
1
40
1
40
1
40
1
41
1
10
99.3127946401689
20
4.88806400478046
30
0
41
1
10
99.2630907117707
20
4.8966041475187
30
0
41
1
10
99.2149208869286
20
4.90064844119661
30
0
41
1
10
99.1683355918523
20
4.90004910659323
30
0
0
SPLINE
5
113
100
AcDbEntity
8
1
62
256
6
ByLayer
370
13
48
1
60
0
100
AcDbSpline
70
4
71
3
72
8
73
4
40
0
40
0
40
0
40
0
40
1
40
1
40
1
40
1
41
1
10
100.423746757908
20
0.495386535284325
30
0
41
1
10
100.431327471522
20
0.490222045380335
30
0
41
1
10
100.438959755119
20
0.485121322626782
30
0
41
1
10
100.446640787031
20
0.480083149595771
30
0
0
SPLINE
5
114
100
AcDbEntity
8
1
62
256
6
ByLayer
370
18
48
1
60
0
100
AcDbSpline
70
4
71
3
72
40
73
36
40
0
40
0
40
0
40
0
40
0.0503974162509487
40
0.0503974162509487
40
0.118044978785572
40
0.118044978785572
40
0.151868760052883
40
0.151868760052883
40
0.185692541320195
40
0.185692541320195
40
0.25334010385482
40
0.25334010385482
40
0.320987666389446
40
0.320987666389446
40
0.388635228924071
40
0.388635228924071
40
0.456282791458696
40
0.456282791458696
40
0.523930353993322
40
0.523930353993322
40
0.591577916527947
40
0.591577916527947
40
0.659225479062573
40
0.659225479062573
40
0.726873041597198
40
0.726873041597198
40
0.794520604131823
40
0.794520604131823
40
0.862168166666449
40
0.862168166666449
40
0.929815729201074
40
0.929815729201074
40
0.997463291735699
40
0.997463291735699
40
1
40
1
40
1
40
1
41
1
10
86.2329124749666
20
-3.34463077734537
30
0
41
1
10
85.656199765732
20
-3.4594906908095
30
0
41
1
10
85.0799859372793
20
-3.56279477595962
30
0
41
1
10
83.7301861449373
20
-3.77586963640005
30
0
41
1
10
82.9563786238461
20
-3.87475770234786
30
0
41
1
10
81.7941623894148
20
-3.99722399016275
30
0
41
1
10
81.4064269452776
20
-4.03398109909057
30
0
41
1
10
80.6307508603857
20
-4.0963645045118
30
0
41
1
10
80.2429812404223
20
-4.12228902148388
30
0
41
1
10
79.0794431691481
20
-4.18339644359091
30
0
41
1
10
78.3027382744937
20
-4.20176875501079
30
0
41
1
10
76.7515464112882
20
-4.19369026348193
30
0
41
1
10
75.9768384139219
20
-4.16674440520887
30
0
41
1
10
74.426965994562
20
-4.0661044474576
30
0
41
1
10
73.651683781333
20
-3.99246033791923
30
0
41
1
10
72.0990413395446
20
-3.80522902831638
30
0
41
1
10
71.3236395589616
20
-3.69143166048508
30
0
41
1
10
69.7716388403685
20
-3.42373789823668
30
0
41
1
10
68.9955244140094
20
-3.27004881676788
30
0
41
1
10
67.4432440639115
20
-2.93003293545405
30
0
41
1
10
66.6666003076991
20
-2.74312931449552
30
0
41
1
10
65.1142851136814
20
-2.3404552776193
30
0
41
1
10
64.3374429160592
20
-2.12459325360257
30
0
41
1
10
62.7866021242709
20
-1.67333564172256
30
0
41
1
10
62.0123135001519
20
-1.43752216885318
30
0
41
1
10
60.4630585948796
20
-0.952562158755512
30
0
41
1
10
59.687893784127
20
-0.703595786816777
30
0
41
1
10
58.134879155252
20
-0.200846788903135
30
0
41
1
10
57.3589815035734
20
0.052530401213545
30
0
41
1
10
55.8061322861562
20
0.556301350172845
30
0
41
1
10
55.029762155821
20
0.806237014571934
30
0
41
1
10
53.4776556593601
20
1.29663743189778
30
0
41
1
10
52.7015334354156
20
1.53737106648086
30
0
41
1
10
51.8966269132618
20
1.77653346597228
30
0
41
1
10
51.8675335469911
20
1.78516339438698
30
0
41
1
10
51.8384390952988
20
1.79377888323799
30
0
0
SPLINE
5
115
100
AcDbEntity
8
1
62
256
6
ByLayer
370
18
48
1
60
0
100
AcDbSpline
70
4
71
3
72
10
73
6
40
0
40
0
40
0
40
0
40
0.640513006751474
40
0.640513006751474
40
1
40
1
40
1
40
1
41
1
10
10.3046113611254
20
-5.84001113848237
30
0
41
1
10
10.019019708304
20
-6.08894103514214
30
0
41
1
10
9.74156081251394
20
-6.34686353274432
30
0
41
1
10
9.31317703477336
20
-6.75489853534344
30
0
41
1
10
9.16016270047123
20
-6.90267795492574
30
0
41
1
10
9.00723696950166
20
-7.05053421064699
30
0
0
SPLINE
5
116
100
AcDbEntity
8
1
62
256
6
ByLayer
370
18
48
1
60
0
100
AcDbSpline
70
4
71
3
72
8
73
4
40
0
40
0
40
0
40
0
40
1
40
1
40
1
40
1
41
1
10
94.7033950840546
20
3.86529687899596
30
0
41
1
10
94.7016786886359
20
4.18369648199646
30
0
41
1
10
94.6999323779984
20
4.49937668225564
30
0
41
1
10
94.6981563214015
20
4.81220706055211
30
0
0
SPLINE
5
117
100
AcDbEntity
8
1
62
256
6
ByLayer
370
18
48
1
60
0
100
AcDbSpline
70
4
71
3
72
10
73
6
40
0
40
0
40
0
40
0
40
0.5
40
0.5
40
1
40
1
40
1
40
1
41
1
10
95.6042679455134
20
0.998879693655454
30
0
41
1
10
96.061828887239
20
0.929638014812383
30
0
41
1
10
96.5194975744766
20
0.861128716163762
30
0
41
1
10
97.4356590819788
20
0.729712010727212
30
0
41
1
10
97.8938654055879
20
0.664857195899373
30
0
41
1
10
98.3519262238491
20
0.599013335374877
30
0
0
SPLINE
5
118
100
AcDbEntity
8
1
62
256
6
ByLayer
370
18
48
1
60
0
100
AcDbSpline
70
4
71
3
72
8
73
4
40
0
40
0
40
0
40
0
40
1
40
1
40
1
40
1
41
1
10
99.5694044532452
20
1.7198036536937
30
0
41
1
10
99.7575388947515
20
1.72926629409193
30
0
41
1
10
99.9454313617412
20
1.74144702589416
30
0
41
1
10
100.132845764821
20
1.75929234274963
30
0
0
SPLINE
5
119
100
AcDbEntity
8
1
62
256
6
ByLayer
370
18
48
1
60
0
100
AcDbSpline
70
4
71
3
72
8
73
4
40
0
40
0
40
0
40
0
40
1
40
1
40
1
40
1
41
1
10
10.3046113611254
20
-5.84001113848237
30
0
41
1
10
10.3298016329127
20
-5.81805457325746
30
0
41
1
10
10.3549905689391
20
-5.7960947053499
30
0
41
1
10
10.3801781083426
20
-5.77413149218501
30
0
0
SPLINE
5
11A
100
AcDbEntity
8
1
62
256
6
ByLayer
370
13
48
1
60
0
100
AcDbSpline
70
4
71
2
72
6
73
3
40
0
40
0
40
0
40
1
40
1
40
1
41
0.996035837477101
10
100.423746757908
20
0.495386535284306
30
0
41
0.88902896071627
10
99.7391556071078
20
-0.377220444964728
30
0
41
1
10
99.6944055126203
20
-1.28190708591703
30
0
0
SPLINE
5
11B
100
AcDbEntity
8
1
62
256
6
ByLayer
370
18
48
1
60
0
100
AcDbSpline
70
4
71
3
72
8
73
4
40
0
40
0
40
0
40
0
40
1
40
1
40
1
40
1
41
1
10
14
20
0.820648244559351
30
0
41
1
10
13.6671782245339
20
0.95449385794916
30
0
41
1
10
13.3339218012171
20
1.08454762500625
30
0
41
1
10
13
20
1.21041447991254
30
0
0
SPLINE
5
11C
100
AcDbEntity
8
1
62
256
6
ByLayer
370
18
48
1
60
0
100
AcDbSpline
70
4
71
3
72
12
73
8
40
0
40
0
40
0
40
0
40
0.419047181213971
40
0.419047181213971
40
0.838094362427941
40
0.838094362427941
40
1
40
1
40
1
40
1
41
1
10
96.5778987796378
20
0.586459848123354
30
0
41
1
10
95.8224854718685
20
0.836482975739528
30
0
41
1
10
95.066066074918
20
1.08099125059445
30
0
41
1
10
93.5533939790092
20
1.55142608901798
30
0
41
1
10
92.7967700805537
20
1.77773641753717
30
0
41
1
10
91.7462091756667
20
2.0760375787554
30
0
41
1
10
91.4532765589839
20
2.15755099242495
30
0
41
1
10
91.1602691347955
20
2.23729834576565
30
0
0
SPLINE
5
11D
100
AcDbEntity
8
1
62
256
6
ByLayer
370
18
48
1
60
0
100
AcDbSpline
70
4
71
3
72
11
73
7
40
0
40
0
40
0
40
0
40
0.252142353018301
40
0.502850275676069
40
0.752133020594174
40
1
40
1
40
1
40
1
41
1
10
96.4189584732316
20
0.0958632371368253
30
0
41
1
10
96.4111596942807
20
0.124856319364852
30
0
41
1
10
96.3956065034012
20
0.182677543036846
30
0
41
1
10
96.3730138386919
20
0.269273155798459
30
0
41
1
10
96.3510012559624
20
0.355421070162237
30
0
41
1
10
96.3368255507077
20
0.412705354791285
30
0
41
1
10
96.3297578826179
20
0.441265931019558
30
0
0
SPLINE
5
11E
100
AcDbEntity
8
1
62
256
6
ByLayer
370
18
48
1
60
0
100
AcDbSpline
70
4
71
3
72
12
73
8
40
0
40
0
40
0
40
0
40
0.5
40
0.5
40
0.75
40
0.75
40
1
40
1
40
1
40
1
41
1
10
100.468652728244
20
-1.79772716181918
30
0
41
1
10
100.355377406695
20
-2.10895398648674
30
0
41
1
10
100.243534130653
20
-2.42238665821196
30
0
41
1
10
100.078033982446
20
-2.89602419118131
30
0
41
1
10
100.023248738098
20
-3.05449096767217
30
0
41
1
10
99.9145244368383
20
-3.37272794296851
30
0
41
1
10
99.8609091972276
20
-3.53156375153054
30
0
41
1
10
99.8086992562463
20
-3.68835651744763
30
0
0
SPLINE
5
11F
100
AcDbEntity
8
1
62
256
6
ByLayer
370
18
48
1
60
0
100
AcDbSpline
70
4
71
3
72
21
73
17
40
0
40
0
40
0
40
0
40
0.0242947539310364
40
0.13480951669563
40
0.190066898077927
40
0.245324279460224
40
0.355839042224817
40
0.411096423607113
40
0.46635380498941
40
0.576868567754003
40
0.6321259491363
40
0.687383330518596
40
0.79789809328319
40
0.853155474665487
40
0.908412856047784
40
1
40
1
40
1
40
1
41
1
10
39.4566675393907
20
-0.0029806167342201
30
0
41
1
10
39.6209639048984
20
-0.0627753858534277
30
0
41
1
10
40.5327623994715
20
-0.394652142249356
30
0
41
1
10
41.8176227276126
20
-0.859689138382407
30
0
41
1
10
43.3100042503764
20
-1.38670494980724
30
0
41
1
10
44.8049801052313
20
-1.90072246613559
30
0
41
1
10
46.2985811200891
20
-2.38836434484602
30
0
41
1
10
47.7906789487304
20
-2.83742165729206
30
0
41
1
10
49.2858408384078
20
-3.25471166310129
30
0
41
1
10
50.7800344829633
20
-3.62593878378362
30
0
41
1
10
52.2724278049035
20
-3.94411557841582
30
0
41
1
10
53.7674033524757
20
-4.21763561899576
30
0
41
1
10
55.2609903174944
20
-4.43184297047389
30
0
41
1
10
56.7530661097703
20
-4.58137073352754
30
0
41
1
10
58.1201692516789
20
-4.66906198619068
30
0
41
1
10
59.112917971273
20
-4.69356548166078
30
0
41
1
10
59.7317196861986
20
-4.69338226678309
30
0
0
SPLINE
5
120
100
AcDbEntity
8
1
62
256
6
ByLayer
370
18
48
1
60
0
100
AcDbSpline
70
4
71
3
72
18
73
14
40
0
40
0
40
0
40
0
40
0.250000000000007
40
0.250000000000007
40
0.500000000000014
40
0.500000000000014
40
0.62500000000001
40
0.62500000000001
40
0.750000000000007
40
0.750000000000007
40
0.875000000000003
40
0.875000000000003
40
1
40
1
40
1
40
1
41
1
10
99.3916196147496
20
-2.18430481140027
30
0
41
1
10
99.3073866258537
20
-2.01284442326377
30
0
41
1
10
99.2245816179159
20
-1.84069096434408
30
0
41
1
10
99.0645936984459
20
-1.49365536112677
30
0
41
1
10
98.9880255132456
20
-1.31849890119454
30
0
41
1
10
98.8768317913135
20
-1.05451563065867
30
0
41
1
10
98.8409732510841
20
-0.966053339590616
30
0
41
1
10
98.7706192253437
20
-0.788599975336268
30
0
41
1
10
98.7360230965897
20
-0.699647945591664
30
0
41
1
10
98.6690808834894
20
-0.520871006068916
30
0
41
1
10
98.6370937660246
20
-0.430906839028751
30
0
41
1
10
98.5745053491149
20
-0.250440892057497
30
0
41
1
10
98.5438562184153
20
-0.159957667736563
30
0
41
1
10
98.5150019304125
20
-0.068778153890122
30
0
0
SPLINE
5
121
100
AcDbEntity
8
1
62
256
6
ByLayer
370
18
48
1
60
0
100
AcDbSpline
70
4
71
1
72
4
73
2
40
0
40
0
40
1
40
1
41
1
10
96.9179817366617
20
-1.39226078844703
30
0
41
1
10
96.9537445864473
20
-1.38889999883335
30
0
0
SPLINE
5
122
100
AcDbEntity
8
1
62
256
6
ByLayer
370
18
48
1
60
0
100
AcDbSpline
70
4
71
3
72
12
73
8
40
0
40
0
40
0
40
0
40
0.500000000000005
40
0.500000000000005
40
0.750000000000002
40
0.750000000000002
40
1
40
1
40
1
40
1
41
1
10
98.5559366537487
20
-4.43191985704053
30
0
41
1
10
98.6363519023228
20
-4.61633082578513
30
0
41
1
10
98.7418955956663
20
-4.74329064564256
30
0
41
1
10
98.9339511428932
20
-4.85659061626109
30
0
41
1
10
99.0040648347959
20
-4.88123811226583
30
0
41
1
10
99.1521821027034
20
-4.90389573263138
30
0
41
1
10
99.2304658873404
20
-4.90220975388482
30
0
41
1
10
99.3127946401689
20
-4.88806400478055
30
0
0
SPLINE
5
123
100
AcDbEntity
8
1
62
256
6
ByLayer
370
18
48
1
60
0
100
AcDbSpline
70
4
71
3
72
8
73
4
40
0
40
0
40
0
40
0
40
1
40
1
40
1
40
1
41
1
10
100.991108125085
20
0.0370123836445657
30
0
41
1
10
100.980136947533
20
0.0729740724112844
30
0
41
1
10
100.969251744051
20
0.108760671341486
30
0
41
1
10
100.958451512734
20
0.144374220859675
30
0
0
SPLINE
5
124
100
AcDbEntity
8
1
62
256
6
ByLayer
370
18
48
1
60
0
100
AcDbSpline
70
4
71
3
72
16
73
12
40
0
40
0
40
0
40
0
40
0.25
40
0.25
40
0.5
40
0.5
40
0.75
40
0.75
40
0.875
40
0.875
40
1
40
1
40
1
40
1
41
1
10
100.137771442527
20
-1.57272143171389
30
0
41
1
10
100.192284093867
20
-1.52763419401072
30
0
41
1
10
100.247557814938
20
-1.47516219259904
30
0
41
1
10
100.360020907952
20
-1.35163036730609
30
0
41
1
10
100.417839744729
20
-1.27957087952726
30
0
41
1
10
100.530496971204
20
-1.11832802182462
30
0
41
1
10
100.585776707823
20
-1.02887955656081
30
0
41
1
10
100.666750109402
20
-0.878328185033126
30
0
41
1
10
100.692960697937
20
-0.826184339834754
30
0
41
1
10
100.742845476151
20
-0.719992454009088
30
0
41
1
10
100.766682134007
20
-0.665644899485386
30
0
41
1
10
100.789426301129
20
-0.610060720704553
30
0
0
SPLINE
5
125
100
AcDbEntity
8
1
62
256
6
ByLayer
370
18
48
1
60
0
100
AcDbSpline
70
4
71
3
72
30
73
26
40
0
40
0
40
0
40
0
40
0.0899885482381473
40
0.0899885482381473
40
0.179977096476295
40
0.179977096476295
40
0.269965644714442
40
0.269965644714442
40
0.359954192952589
40
0.359954192952589
40
0.449942741190737
40
0.449942741190737
40
0.539931289428884
40
0.539931289428884
40
0.629919837667031
40
0.629919837667031
40
0.674914111786106
40
0.674914111786106
40
0.71990838590518
40
0.71990838590518
40
0.809896934143329
40
0.809896934143329
40
0.899885482381478
40
0.899885482381478
40
1
40
1
40
1
40
1
41
1
10
82.8552019726616
20
-1.11015171370647
30
0
41
1
10
82.1562338939459
20
-0.85157258374673
30
0
41
1
10
81.4584015150606
20
-0.587991438919346
30
0
41
1
10
80.0628531675483
20
-0.056420473373322
30
0
41
1
10
79.3644465812349
20
0.211226306609603
30
0
41
1
10
77.9660766545634
20
0.740291815591178
30
0
41
1
10
77.2699651014637
20
1.00114788378002
30
0
41
1
10
75.8820066140631
20
1.51066081306621
30
0
41
1
10
75.190188669723
20
1.7593650269807
30
0
41
1
10
73.8082383048184
20
2.23806620475753
30
0
41
1
10
73.1184377382173
20
2.46893003331454
30
0
41
1
10
71.7392965834233
20
2.9088863856511
30
0
41
1
10
71.0498901824007
20
3.11776906623726
30
0
41
1
10
69.6679983226997
20
3.50591280997827
30
0
41
1
10
68.9755273264239
20
3.68528449113523
30
0
41
1
10
67.9335028730231
20
3.9302146791911
30
0
41
1
10
67.5855902521672
20
4.00779890463087
30
0
41
1
10
66.8883699909408
20
4.15434517153733
30
0
41
1
10
66.5386110692443
20
4.22340563650084
30
0
41
1
10
65.4901049545716
20
4.41609407705599
30
0
41
1
10
64.7940751954501
20
4.52489742856892
30
0
41
1
10
63.4070467441257
20
4.70275198648039
30
0
41
1
10
62.7159224681822
20
4.77151864443675
30
0
41
1
10
61.257836587091
20
4.87221393997737
30
0
41
1
10
60.4907906228701
20
4.89912252530127
30
0
41
1
10
59.7233729773897
20
4.90000122398476
30
0
0
SPLINE
5
126
100
AcDbEntity
8
1
62
256
6
ByLayer
370
18
48
1
60
0
100
AcDbSpline
70
4
71
3
72
14
73
10
40
0
40
0
40
0
40
0
40
0.0774805365110132
40
0.0774805365110132
40
0.384987024340675
40
0.384987024340675
40
0.692493512170339
40
0.692493512170339
40
1
40
1
40
1
40
1
41
1
10
22.9231284163199
20
-4.6988275453447
30
0
41
1
10
22.7470438465591
20
-4.71780342832417
30
0
41
1
10
22.5710178345587
20
-4.73546156512134
30
0
41
1
10
21.6972136346258
20
-4.81649593071256
30
0
41
1
10
21.0007986714783
20
-4.86015119749712
30
0
41
1
10
19.6086974466549
20
-4.90479193085699
30
0
41
1
10
18.9133403837404
20
-4.90585724468266
30
0
41
1
10
17.5217496813354
20
-4.8647140576945
30
0
41
1
10
16.8254652628827
20
-4.82242257474098
30
0
41
1
10
16.1269328411476
20
-4.75902875845298
30
0
0
SPLINE
5
127
100
AcDbEntity
8
1
62
256
6
ByLayer
370
18
48
1
60
0
100
AcDbSpline
70
4
71
3
72
10
73
6
40
0
40
0
40
0
40
0
40
0.60014766360698
40
0.60014766360698
40
1
40
1
40
1
40
1
41
1
10
89.1093224947706
20
3.4486617699919
30
0
41
1
10
89.1006976832201
20
3.33025010097367
30
0
41
1
10
89.0884545412509
20
3.21583946220505
30
0
41
1
10
89.0623317851635
20
3.03197553152646
30
0
41
1
10
89.0502778030245
20
2.95993283777253
30
0
41
1
10
89.0368241791973
20
2.89036358962238
30
0
0
SPLINE
5
128
100
AcDbEntity
8
1
62
256
6
ByLayer
370
18
48
1
60
0
100
AcDbSpline
70
4
71
2
72
6
73
3
40
0
40
0
40
0
40
1
40
1
40
1
41
0.500000066284442
10
96.9179817347277
20
-1.39226025107274
30
0
41
0.499999933715558
10
95.7131635515828
20
-1.38845579804365
30
0
41
0.500000066284442
10
94.508050196371
20
-1.38464952400429
30
0
0
SPLINE
5
129
100
AcDbEntity
8
1
62
256
6
ByLayer
370
18
48
1
60
0
100
AcDbSpline
70
4
71
3
72
62
73
58
40
0
40
0
40
0
40
0
40
0.0445791758409743
40
0.0445791758409743
40
0.0891583516819486
40
0.0891583516819486
40
0.133737527522923
40
0.133737527522923
40
0.15602711544341
40
0.15602711544341
40
0.178316703363897
40
0.178316703363897
40
0.22289587920487
40
0.22289587920487
40
0.267475055045843
40
0.267475055045843
40
0.289764642966329
40
0.289764642966329
40
0.312054230886815
40
0.312054230886815
40
0.356633406727787
40
0.356633406727787
40
0.401212582568759
40
0.401212582568759
40
0.445791758409731
40
0.445791758409731
40
0.490370934250703
40
0.490370934250703
40
0.512660522171189
40
0.512660522171189
40
0.534950110091675
40
0.534950110091675
40
0.579529285932648
40
0.579529285932648
40
0.624108461773621
40
0.624108461773621
40
0.646398049694107
40
0.646398049694107
40
0.668687637614594
40
0.668687637614594
40
0.713266813455566
40
0.713266813455566
40
0.757845989296538
40
0.757845989296538
40
0.80242516513751
40
0.80242516513751
40
0.847004340978482
40
0.847004340978482
40
0.891583516819454
40
0.891583516819454
40
0.91387310473994
40
0.91387310473994
40
0.936162692660427
40
0.936162692660427
40
0.9807418685014
40
0.9807418685014
40
1
40
1
40
1
40
1
41
1
10
86.6695847806399
20
-3.45960321221912
30
0
41
1
10
85.924815360177
20
-3.6443532762444
30
0
41
1
10
85.181931224297
20
-3.80995977967569
30
0
41
1
10
83.6970556545372
20
-4.10080118847515
30
0
41
1
10
82.9549098140485
20
-4.22586964532832
30
0
41
1
10
81.471023099914
20
-4.43513893284455
30
0
41
1
10
80.7295764938335
20
-4.5195210692554
30
0
41
1
10
79.614307757538
20
-4.61125225678549
30
0
41
1
10
79.2418041924613
20
-4.63608764726729
30
0
41
1
10
78.4969432859772
20
-4.67372033212712
30
0
41
1
10
78.1249181067374
20
-4.68652460733361
30
0
41
1
10
77.00964739426
20
-4.70683042593836
30
0
41
1
10
76.2672075520768
20
-4.69633602613933
30
0
41
1
10
74.7813494686883
20
-4.62963624029666
30
0
41
1
10
74.0379364993527
20
-4.57328597890606
30
0
41
1
10
72.9209606896769
20
-4.45533605013776
30
0
41
1
10
72.548186367935
20
-4.41036878929123
30
0
41
1
10
71.804068133355
20
-4.30957394916666
30
0
41
1
10
71.4324193738501
20
-4.25377883135857
30
0
41
1
10
70.3180950419754
20
-4.07070821781147
30
0
41
1
10
69.5759730379113
20
-3.92761674389192
30
0
41
1
10
68.0904678001493
20
-3.60262382770776
30
0
41
1
10
67.3471848834313
20
-3.42075203824726
30
0
41
1
10
65.8565634689105
20
-3.02518607844135
30
0
41
1
10
65.1124260474524
20
-2.81223545883412
30
0
41
1
10
63.6257710774103
20
-2.36128039368697
30
0
41
1
10
62.8833829939897
20
-2.12247374947958
30
0
41
1
10
61.7690173295569
20
-1.74900956060807
30
0
41
1
10
61.397408206402
20
-1.62202513877526
30
0
41
1
10
60.6534237964079
20
-1.3640745848482
30
0
41
1
10
60.2807300132243
20
-1.23303010776598
30
0
41
1
10
59.1638804110977
20
-0.836289935350237
30
0
41
1
10
58.4208916352857
20
-0.566855937130612
30
0
41
1
10
56.935070502364
20
-0.0264468841203325
30
0
41
1
10
56.1922169196076
20
0.244474091371046
30
0
41
1
10
55.0764144137584
20
0.647451423547807
30
0
41
1
10
54.7042487770176
20
0.78127123061293
30
0
41
1
10
53.9593275420942
20
1.04754995937458
30
0
41
1
10
53.586782150088
20
1.18006431656519
30
0
41
1
10
52.4711043071658
20
1.57237811114251
30
0
41
1
10
51.7288618075951
20
1.82732901487154
30
0
41
1
10
50.2440213132401
20
2.31463837999129
30
0
41
1
10
49.5014784311285
20
2.54726505151166
30
0
41
1
10
48.0135606884296
20
2.98514673663263
30
0
41
1
10
47.2675722563779
20
3.19012408397512
30
0
41
1
10
45.7795904556526
20
3.56540268403393
30
0
41
1
10
45.0365709589402
20
3.73639828786935
30
0
41
1
10
43.551279406815
20
4.04195863571027
30
0
41
1
10
42.8087178897562
20
4.17571149145977
30
0
41
1
10
41.6922439827116
20
4.34280613793331
30
0
41
1
10
41.3195174708539
20
4.39297904804297
30
0
41
1
10
40.5752790920477
20
4.4818622204356
30
0
41
1
10
40.2034772686484
20
4.52062645972549
30
0
41
1
10
39.0886189130459
20
4.61994336682329
30
0
41
1
10
38.3459563159689
20
4.66319722101346
30
0
41
1
10
37.2814754274635
20
4.69240896806355
30
0
41
1
10
36.9602191451134
20
4.69700034642236
30
0
41
1
10
36.6387929781059
20
4.69730620476452
30
0
0
SPLINE
5
12A
100
AcDbEntity
8
1
62
256
6
ByLayer
370
18
48
1
60
0
100
AcDbSpline
70
4
71
3
72
12
73
8
40
0
40
0
40
0
40
0
40
0.499999999999996
40
0.499999999999996
40
0.749999999999998
40
0.749999999999998
40
1
40
1
40
1
40
1
41
1
10
86.9999999999999
20
3.45722688360968
30
0
41
1
10
88.561675032364
20
3.054587581432
30
0
41
1
10
90.1126804347323
20
2.58412241270224
30
0
41
1
10
92.4399007655934
20
1.81686817121965
30
0
41
1
10
93.215623913166
20
1.55056396795177
30
0
41
1
10
94.769951957993
20
1.00442372967655
30
0
41
1
10
95.5489471491151
20
0.724452780365851
30
0
41
1
10
96.329757896574
20
0.441265941731103
30
0
0
SPLINE
5
12B
100
AcDbEntity
8
1
62
256
6
ByLayer
370
18
48
1
60
0
100
AcDbSpline
70
4
71
3
72
8
73
4
40
0
40
0
40
0
40
0
40
1
40
1
40
1
40
1
41
1
10
94.7999999999998
20
-4.78756981197705
30
0
41
1
10
94.9836457568946
20
-4.85982456744782
30
0
41
1
10
95.1667917171963
20
-4.93021967809895
30
0
41
1
10
95.349495483891
20
-4.99859764389319
30
0
0
SPLINE
5
12C
100
AcDbEntity
8
1
62
256
6
ByLayer
370
18
48
1
60
0
100
AcDbSpline
70
4
71
3
72
12
73
8
40
0
40
0
40
0
40
0
40
0.448394790639929
40
0.448394790639929
40
0.724197077790234
40
0.724197077790234
40
1
40
1
40
1
40
1
41
1
10
94.7999999821802
20
-4.71357156440107
30
0
41
1
10
94.7858224813127
20
-4.72861350694512
30
0
41
1
10
94.7716347993751
20
-4.74365042308301
30
0
41
1
10
94.7487044639955
20
-4.76792856655271
30
0
41
1
10
94.7399679529786
20
-4.77717280479985
30
0
41
1
10
94.7224875452539
20
-4.79565774647483
30
0
41
1
10
94.7137436434944
20
-4.80489845521549
30
0
41
1
10
94.7049961191118
20
-4.81413743338965
30
0
0
SPLINE
5
12D
100
AcDbEntity
8
1
62
256
6
ByLayer
370
18
48
1
60
0
100
AcDbSpline
70
4
71
1
72
4
73
2
40
0
40
0
40
1
40
1
41
1
10
94.8
20
3.95513195092505
30
0
41
1
10
94.8
20
4.78756981197711
30
0
0
SPLINE
5
12E
100
AcDbEntity
8
1
62
256
6
ByLayer
370
18
48
1
60
0
100
AcDbSpline
70
4
71
1
72
4
73
2
40
0
40
0
40
1
40
1
41
1
10
87.5565089189882
20
3.30228110151665
30
0
41
1
10
87.6929403942082
20
3.67217765137124
30
0
0
SPLINE
5
12F
100
AcDbEntity
8
1
62
256
6
ByLayer
370
18
48
1
60
0
100
AcDbSpline
70
4
71
3
72
32
73
28
40
0
40
0
40
0
40
0
40
0.124999999999993
40
0.124999999999993
40
0.187499999999997
40
0.187499999999997
40
0.25
40
0.25
40
0.312500000000004
40
0.312500000000004
40
0.375000000000008
40
0.375000000000008
40
0.500000000000016
40
0.500000000000016
40
0.562500000000014
40
0.562500000000014
40
0.625000000000012
40
0.625000000000012
40
0.68750000000001
40
0.68750000000001
40
0.750000000000008
40
0.750000000000008
40
0.812500000000006
40
0.812500000000006
40
0.875000000000004
40
0.875000000000004
40
1
40
1
40
1
40
1
41
1
10
83.274234313201
20
-1.19041684554259
30
0
41
1
10
83.4997618308329
20
-1.24537440406144
30
0
41
1
10
83.7280042817133
20
-1.27401914561688
30
0
41
1
10
84.0744109388513
20
-1.27855142356256
30
0
41
1
10
84.1911408180065
20
-1.27347269010173
30
0
41
1
10
84.4206707146443
20
-1.25044732573787
30
0
41
1
10
84.5339843372635
20
-1.23257140497296
30
0
41
1
10
84.7577796304367
20
-1.18430408270905
30
0
41
1
10
84.8682611757632
20
-1.15391348550119
30
0
41
1
10
85.0863581649878
20
-1.08027906273759
30
0
41
1
10
85.194286823541
20
-1.03680034692269
30
0
41
1
10
85.50590103124
20
-0.889826895102317
30
0
41
1
10
85.700162939955
20
-0.769354932843214
30
0
41
1
10
85.9711982423784
20
-0.55321611366449
30
0
41
1
10
86.0573275984767
20
-0.475739421795481
30
0
41
1
10
86.2187715146344
20
-0.312331622842038
30
0
41
1
10
86.2945020779916
20
-0.226075180504438
30
0
41
1
10
86.4359679175942
20
-0.0443556858710394
30
0
41
1
10
86.5021148358339
20
0.0518330336790029
30
0
41
1
10
86.6217311547115
20
0.249909485564672
30
0
41
1
10
86.6751607143134
20
0.351501452628128
30
0
41
1
10
86.7698620973092
20
0.559418266261758
30
0
41
1
10
86.8111317453653
20
0.665744424177575
30
0
41
1
10
86.8817276655406
20
0.882918546103554
30
0
41
1
10
86.9109673613026
20
0.993920932046308
30
0
41
1
10
86.9791664990531
20
1.32330885192459
30
0
41
1
10
87
20
1.54140070843584
30
0
41
1
10
87
20
1.7571248994183
30
0
0
SPLINE
5
130
100
AcDbEntity
8
1
62
256
6
ByLayer
370
18
48
1
60
0
100
AcDbSpline
70
4
71
3
72
10
73
6
40
0
40
0
40
0
40
0
40
0.5
40
0.5
40
1
40
1
40
1
40
1
41
1
10
88.6486982182805
20
3.43975582870954
30
0
41
1
10
88.7304039048249
20
3.45238208616126
30
0
41
1
10
88.8097782238059
20
3.45992052824698
30
0
41
1
10
88.9637977933929
20
3.46350523802283
30
0
41
1
10
89.0391358887655
20
3.45940439179344
30
0
41
1
10
89.1093224947637
20
3.44866176999139
30
0
0
SPLINE
5
131
100
AcDbEntity
8
1
62
256
6
ByLayer
370
18
48
1
60
0
100
AcDbSpline
70
4
71
3
72
8
73
4
40
0
40
0
40
0
40
0
40
1
40
1
40
1
40
1
41
1
10
100.929915477225
20
-0.203044419619005
30
0
41
1
10
100.952999351332
20
-0.122401344026486
30
0
41
1
10
100.973424997986
20
-0.0417737916869214
30
0
41
1
10
100.991108125074
20
0.0370123836449068
30
0
0
SPLINE
5
132
100
AcDbEntity
8
1
62
256
6
ByLayer
370
18
48
1
60
0
100
AcDbSpline
70
4
71
3
72
38
73
34
40
0
40
0
40
0
40
0
40
0.0625
40
0.0625
40
0.125
40
0.125
40
0.1875
40
0.1875
40
0.25
40
0.25
40
0.3125
40
0.3125
40
0.375
40
0.375
40
0.4375
40
0.4375
40
0.5
40
0.5
40
0.5625
40
0.5625
40
0.625
40
0.625
40
0.6875
40
0.6875
40
0.75
40
0.75
40
0.8125
40
0.8125
40
0.875
40
0.875
40
0.9375
40
0.9375
40
1
40
1
40
1
40
1
41
1
10
94.5146029397783
20
0.102140151480995
30
0
41
1
10
94.4637909302087
20
0.102307646681027
30
0
41
1
10
94.4137991840017
20
0.0976110816558844
30
0
41
1
10
94.3153543982991
20
0.0790923445972851
30
0
41
1
10
94.2664868613522
20
0.0650958600564024
30
0
41
1
10
94.172382799313
20
0.0283275511346233
30
0
41
1
10
94.1275915794671
20
0.0058304783432845
30
0
41
1
10
94.0424528911669
20
-0.047247283572375
30
0
41
1
10
94.0017325782625
20
-0.0782302628861942
30
0
41
1
10
93.9278715469961
20
-0.146448446980855
30
0
41
1
10
93.8944944968794
20
-0.183701729959694
30
0
41
1
10
93.8350890478681
20
-0.264695602784911
30
0
41
1
10
93.8090340261138
20
-0.308770386580704
30
0
41
1
10
93.7672080409214
20
-0.399614112952662
30
0
41
1
10
93.7510371004892
20
-0.446818925443438
30
0
41
1
10
93.7287712165647
20
-0.544996224972351
30
0
41
1
10
93.722977670714
20
-0.595159937918879
30
0
41
1
10
93.7222707390528
20
-0.69448740757781
30
0
41
1
10
93.7273764717743
20
-0.74467293554946
30
0
41
1
10
93.7482733496097
20
-0.842240876553547
30
0
41
1
10
93.7638294252411
20
-0.889199869077515
30
0
41
1
10
93.8047807834486
20
-0.979644588022381
30
0
41
1
10
93.830295497118
20
-1.02303298501369
30
0
41
1
10
93.8887712104273
20
-1.10275723101685
30
0
41
1
10
93.9221153325358
20
-1.13978036539129
30
0
41
1
10
93.9959905714064
20
-1.20721220572713
30
0
41
1
10
94.0357245094748
20
-1.23695969168961
30
0
41
1
10
94.1205107097817
20
-1.28900832104247
30
0
41
1
10
94.1660540116351
20
-1.31145189589145
30
0
41
1
10
94.2595506154
20
-1.34734358408934
30
0
41
1
10
94.3076085274674
20
-1.36097188347989
30
0
41
1
10
94.406368126113
20
-1.37957695580735
30
0
41
1
10
94.4572287310887
20
-1.38448900763231
30
0
41
1
10
94.5080501963701
20
-1.38464952400457
30
0
0
SPLINE
5
133
100
AcDbEntity
8
1
62
256
6
ByLayer
370
18
48
1
60
0
100
AcDbSpline
70
4
71
3
72
12
73
8
40
0
40
0
40
0
40
0
40
0.500000000000005
40
0.500000000000005
40
0.750000000000003
40
0.750000000000003
40
1
40
1
40
1
40
1
41
1
10
87.6929403942108
20
3.67217765137838
30
0
41
1
10
88.8584632099447
20
3.96730206168354
30
0
41
1
10
90.0213341270287
20
4.2150892416926
30
0
41
1
10
91.7723825643856
20
4.50323622818209
30
0
41
1
10
92.3567102142557
20
4.58523364598435
30
0
41
1
10
93.5252719338743
20
4.72104161129678
30
0
41
1
10
94.1098411425442
20
4.77493633486142
30
0
41
1
10
94.6949999999999
20
4.81488443281538
30
0
0
SPLINE
5
134
100
AcDbEntity
8
1
62
256
6
ByLayer
370
18
48
1
60
0
100
AcDbSpline
70
4
71
3
72
8
73
4
40
0
40
0
40
0
40
0
40
1
40
1
40
1
40
1
41
1
10
95.0747364049838
20
-4.73303256310351
30
0
41
1
10
95.0747364049845
20
-4.70810732359692
30
0
41
1
10
95.0664451975421
20
-4.68086339663461
30
0
41
1
10
95.0506002424428
20
-4.65150614806058
30
0
0
SPLINE
5
135
100
AcDbEntity
8
1
62
256
6
ByLayer
370
18
48
1
60
0
100
AcDbSpline
70
4
71
3
72
11
73
7
40
0
40
0
40
0
40
0
40
0.243207707286144
40
0.490964546837884
40
0.743240019890564
40
1
40
1
40
1
40
1
41
1
10
94.8000000910165
20
3.59701960839584
30
0
41
1
10
94.7928948528323
20
3.6189029662377
30
0
41
1
10
94.7785514749674
20
3.66307900402037
30
0
41
1
10
94.7551774764178
20
3.72968218876034
30
0
41
1
10
94.7302669966109
20
3.79728044059738
30
0
41
1
10
94.7124048903179
20
3.84249202409993
30
0
41
1
10
94.7033951562649
20
3.86529696864497
30
0
0
SPLINE
5
136
100
AcDbEntity
8
1
62
256
6
ByLayer
370
13
48
1
60
0
100
AcDbSpline
70
4
71
3
72
8
73
4
40
0
40
0
40
0
40
0
40
1
40
1
40
1
40
1
41
1
10
100.471950769727
20
0.53458906980083
30
0
41
1
10
100.455265206408
20
0.52714892825864
30
0
41
1
10
100.437934188885
20
0.513054254661739
30
0
41
1
10
100.423746757908
20
0.495386535284354
30
0
0
SPLINE
5
137
100
AcDbEntity
8
1
62
256
6
ByLayer
370
18
48
1
60
0
100
AcDbSpline
70
2053
71
3
72
39
73
35
40
0
40
0
40
0
40
0
40
0.0310422890429925
40
0.062137435089637
40
0.0931976494649759
40
0.124491520652037
40
0.155718568752029
40
0.187122979661025
40
0.218567232112693
40
0.249975193791719
40
0.28153380030644
40
0.312904737227083
40
0.344353796791015
40
0.375680283698453
40
0.406829832384821
40
0.438027589753698
40
0.469007085727293
40
0.500075614979104
40
0.531095613336937
40
0.562101193570228
40
0.593310094927763
40
0.62445113726036
40
0.655800739092614
40
0.687167526421109
40
0.71855889241901
40
0.750100351365986
40
0.781486031112471
40
0.813017496509804
40
0.844394403953937
40
0.875685028234598
40
0.906966439201742
40
0.937972630139814
40
0.969094297892592
40
1
40
1
40
1
40
1
41
1
10
92.7449999999999
20
-2.3075594621536
30
0
41
1
10
92.8396004456401
20
-2.30755983665892
30
0
41
1
10
93.0289657344777
20
-2.32526469757474
30
0
41
1
10
93.3005476778941
20
-2.40258332629554
30
0
41
1
10
93.5495563027266
20
-2.52466094743889
30
0
41
1
10
93.7668338936618
20
-2.68310475470454
30
0
41
1
10
93.9454978679116
20
-2.86900002563345
30
0
41
1
10
94.0788657822758
20
-3.07230058746782
30
0
41
1
10
94.1615057759299
20
-3.28303838905896
30
0
41
1
10
94.1895640267268
20
-3.49112014705659
30
0
41
1
10
94.1614796425996
20
-3.6868754342635
30
0
41
1
10
94.0786260463316
20
-3.86318954259687
30
0
41
1
10
93.945078875314
20
-4.01478910609228
30
0
41
1
10
93.766238586929
20
-4.13923239784117
30
0
41
1
10
93.5486475720134
20
-4.23576082739223
30
0
41
1
10
93.2998592855753
20
-4.30432843003445
30
0
41
1
10
93.0280918546674
20
-4.34536937193528
30
0
41
1
10
92.7444482055862
20
-4.35899566653478
30
0
41
1
10
92.4607599126151
20
-4.34525331984048
30
0
41
1
10
92.1890889706345
20
-4.30411469343829
30
0
41
1
10
91.9403445442202
20
-4.23540636871871
30
0
41
1
10
91.7228514627622
20
-4.13873097862341
30
0
41
1
10
91.5443328836431
20
-4.01425024887612
30
0
41
1
10
91.4110219567233
20
-3.86262348194589
30
0
41
1
10
91.3283760887163
20
-3.68639615848835
30
0
41
1
10
91.3004480736258
20
-3.49063816823264
30
0
41
1
10
91.3286343064957
20
-3.28243834119718
30
0
41
1
10
91.411475736403
20
-3.07161209728454
30
0
41
1
10
91.545212467094
20
-2.86809892848243
30
0
41
1
10
91.724124208211
20
-2.68225170733078
30
0
41
1
10
91.941590853109
20
-2.52398755265656
30
0
41
1
10
92.1906094842834
20
-2.40214589030919
30
0
41
1
10
92.4617925450018
20
-2.32515333201269
30
0
41
1
10
92.6508157989529
20
-2.30755908929613
30
0
41
1
10
92.7449999999999
20
-2.3075594621536
30
0
0
SPLINE
5
138
100
AcDbEntity
8
1
62
256
6
ByLayer
370
18
48
1
60
0
100
AcDbSpline
70
4
71
3
72
8
73
4
40
0
40
0
40
0
40
0
40
1
40
1
40
1
40
1
41
1
10
99.3127946401689
20
-4.88806400478055
30
0
41
1
10
99.3405739712515
20
-4.86712171843888
30
0
41
1
10
99.3775364319505
20
-4.81903575831316
30
0
41
1
10
99.4235981824588
20
-4.74405393974101
30
0
0
SPLINE
5
139
100
AcDbEntity
8
1
62
256
6
ByLayer
370
18
48
1
60
0
100
AcDbSpline
70
4
71
3
72
16
73
12
40
0
40
0
40
0
40
0
40
0.25
40
0.25
40
0.5
40
0.5
40
0.625
40
0.625
40
0.75
40
0.75
40
1
40
1
40
1
40
1
41
1
10
94.6
20
2.59999999999999
30
0
41
1
10
94.6
20
2.44578638242467
30
0
41
1
10
94.5999999999999
20
2.30050925846018
30
0
41
1
10
94.5999999999999
20
2.02677962562964
30
0
41
1
10
94.6000000000001
20
1.89833104630523
30
0
41
1
10
94.6000000000001
20
1.71860213041231
30
0
41
1
10
94.6000000000001
20
1.66096266286792
30
0
41
1
10
94.6
20
1.55220848562092
30
0
41
1
10
94.5999999999999
20
1.50081051798352
30
0
41
1
10
94.6
20
1.35545796166107
30
0
41
1
10
94.6
20
1.27027143463647
30
0
41
1
10
94.6
20
1.19738753313615
30
0
0
SPLINE
5
13A
100
AcDbEntity
8
1
62
256
6
ByLayer
370
18
48
1
60
0
100
AcDbSpline
70
4
71
2
72
6
73
3
40
0
40
0
40
0
40
1
40
1
40
1
41
0.499995891691149
10
94.5146029397776
20
0.10214015148099
30
0
41
0.500004108308851
10
95.4666839004665
20
0.099001740063728
30
0
41
0.499995891691149
10
96.4189584744888
20
0.0958632473825563
30
0
0
SPLINE
5
13B
100
AcDbEntity
8
1
62
256
6
ByLayer
370
18
48
1
60
0
100
AcDbSpline
70
4
71
3
72
9
73
5
40
0
40
0
40
0
40
0
40
0.523564531394448
40
1
40
1
40
1
40
1
41
1
10
96.9537445864472
20
-1.38889999883338
30
0
41
1
10
96.9680865289147
20
-1.38737214827938
30
0
41
1
10
96.9954794129002
20
-1.38445397781067
30
0
41
1
10
97.0227198581193
20
-1.37955178058206
30
0
41
1
10
97.0356981724024
20
-1.37721619994824
30
0
0
SPLINE
5
13C
100
AcDbEntity
8
1
62
256
6
ByLayer
370
18
48
1
60
0
100
AcDbSpline
70
4
71
3
72
8
73
4
40
0
40
0
40
0
40
0
40
1
40
1
40
1
40
1
41
1
10
95.6164485621375
20
-5.00000194526504
30
0
41
1
10
95.5274868626318
20
-5.00000125961347
30
0
41
1
10
95.4385022849148
20
-4.99953361511982
30
0
41
1
10
95.349495483891
20
-4.99859764389319
30
0
0
SPLINE
5
13D
100
AcDbEntity
8
1
62
256
6
ByLayer
370
18
48
1
60
0
100
AcDbSpline
70
4
71
3
72
22
73
18
40
0
40
0
40
0
40
0
40
0.0695551205658591
40
0.138688669848809
40
0.207402597151888
40
0.275698887711919
40
0.343579563411728
40
0.411046683503518
40
0.478102345343296
40
0.544748685136184
40
0.610987878692486
40
0.676822142194269
40
0.74225373297225
40
0.807284950292706
40
0.871918136154122
40
0.936155676093221
40
1
40
1
40
1
40
1
41
1
10
97.6376795297225
20
-3.54118731768654
30
0
41
1
10
97.6285202440215
20
-3.51622705368186
30
0
41
1
10
97.6102571867468
20
-3.4664578090063
30
0
41
1
10
97.5836596684732
20
-3.38978846112022
30
0
41
1
10
97.5577533483208
20
-3.31200307504491
30
0
41
1
10
97.5325885130871
20
-3.23299885125903
30
0
41
1
10
97.5081518119476
20
-3.15287812322328
30
0
41
1
10
97.4844467885902
20
-3.07168817178783
30
0
41
1
10
97.4614725083918
20
-2.9894902434846
30
0
41
1
10
97.4392291989174
20
-2.90634123718945
30
0
41
1
10
97.4177168785459
20
-2.82229831016824
30
0
41
1
10
97.3969352539044
20
-2.73741839818936
30
0
41
1
10
97.3768854727978
20
-2.65175540018427
30
0
41
1
10
97.3575632773862
20
-2.56537162174035
30
0
41
1
10
97.338984419672
20
-2.47829500759838
30
0
41
1
10
97.3210906528708
20
-2.39067724187268
30
0
41
1
10
97.3097270565327
20
-2.33151753351154
30
0
41
1
10
97.3040627016931
20
-2.30202849057113
30
0
0
SPLINE
5
13E
100
AcDbEntity
8
1
62
256
6
ByLayer
370
18
48
1
60
0
100
AcDbSpline
70
4
71
1
72
4
73
2
40
0
40
0
40
1
40
1
41
1
10
96.5400947165625
20
0.107207963906717
30
0
41
1
10
96.4189584744303
20
0.095863231856498
30
0
0
SPLINE
5
13F
100
AcDbEntity
8
1
62
256
6
ByLayer
370
13
48
1
60
0
100
AcDbSpline
70
4
71
3
72
18
73
14
40
0
40
0
40
0
40
0
40
0.125
40
0.125
40
0.25
40
0.25
40
0.375
40
0.375
40
0.5
40
0.5
40
0.75
40
0.75
40
1
40
1
40
1
40
1
41
1
10
99.5413547175888
20
1.71011484028779
30
0
41
1
10
99.5585197232238
20
1.64170416685482
30
0
41
1
10
99.5795352436953
20
1.57480832057127
30
0
41
1
10
99.6274796691332
20
1.44596046841627
30
0
41
1
10
99.6545247869821
20
1.38389369644915
30
0
41
1
10
99.7143662991705
20
1.26409249118706
30
0
41
1
10
99.7471962731015
20
1.20608838180164
30
0
41
1
10
99.8167731418001
20
1.09580649156982
30
0
41
1
10
99.8535638719943
20
1.04328883293334
30
0
41
1
10
99.969314174278
20
0.892744387378599
30
0
41
1
10
100.053917293981
20
0.801192606593077
30
0
41
1
10
100.232596895811
20
0.635669490511333
30
0
41
1
10
100.326464951622
20
0.561697695347505
30
0
41
1
10
100.423746757908
20
0.495386535284354
30
0
0
SPLINE
5
140
100
AcDbEntity
8
1
62
256
6
ByLayer
370
13
48
1
60
0
100
AcDbSpline
70
4
71
3
72
18
73
14
40
0
40
0
40
0
40
0
40
0.25
40
0.25
40
0.5
40
0.5
40
0.625
40
0.625
40
0.75
40
0.75
40
0.875
40
0.875
40
1
40
1
40
1
40
1
41
1
10
100.471950769727
20
0.534589069800859
30
0
41
1
10
100.373396979828
20
0.598691906875587
30
0
41
1
10
100.277878883076
20
0.670412669763323
30
0
41
1
10
100.095885905707
20
0.830949351090169
30
0
41
1
10
100.009474948561
20
0.919827528454647
30
0
41
1
10
99.8909581222425
20
1.06640989823464
30
0
41
1
10
99.8531955186228
20
1.11757858597485
30
0
41
1
10
99.781748986009
20
1.22525050981181
30
0
41
1
10
99.7479450125036
20
1.28192940730409
30
0
41
1
10
99.6863338541079
20
1.39922215787732
30
0
41
1
10
99.6583512978315
20
1.46003606138811
30
0
41
1
10
99.6087648393773
20
1.58656121854452
30
0
41
1
10
99.5870915422531
20
1.65239754995898
30
0
41
1
10
99.5694044549269
20
1.71980363570992
30
0
0
SPLINE
5
141
100
AcDbEntity
8
1
62
256
6
ByLayer
370
18
48
1
60
0
100
AcDbSpline
70
4
71
3
72
30
73
26
40
0
40
0
40
0
40
0
40
0.08648273626972
40
0.08648273626972
40
0.17296547253944
40
0.17296547253944
40
0.25944820880916
40
0.25944820880916
40
0.34593094507888
40
0.34593094507888
40
0.4324136813486
40
0.4324136813486
40
0.51889641761832
40
0.51889641761832
40
0.60537915388804
40
0.60537915388804
40
0.69186189015776
40
0.69186189015776
40
0.77834462642748
40
0.77834462642748
40
0.8648273626972
40
0.8648273626972
40
0.95131009896692
40
0.95131009896692
40
1
40
1
40
1
40
1
41
1
10
14.0780089963431
20
4.24756625333913
30
0
41
1
10
14.8413009964301
20
4.26254380960663
30
0
41
1
10
15.6033223398523
20
4.25239256481714
30
0
41
1
10
17.1278922768474
20
4.18223414742306
30
0
41
1
10
17.8906313882269
20
4.12205489956443
30
0
41
1
10
19.4182493665412
20
3.97128976873438
30
0
41
1
10
20.1832959316443
20
3.87985555071717
30
0
41
1
10
21.7129142836118
20
3.6584297275169
30
0
41
1
10
22.4787497995919
20
3.52814020803325
30
0
41
1
10
24.008603337179
20
3.23307414131077
30
0
41
1
10
24.7726094264721
20
3.06908887246692
30
0
41
1
10
26.3008316016639
20
2.70830105614925
30
0
41
1
10
27.0651766309408
20
2.51155081128241
30
0
41
1
10
28.5961492028548
20
2.09359807077962
30
0
41
1
10
29.3611617697167
20
1.87324503995907
30
0
41
1
10
30.8914935409895
20
1.4141862195751
30
0
41
1
10
31.6570199916201
20
1.17563194677459
30
0
41
1
10
33.1878058981574
20
0.690055302662472
30
0
41
1
10
33.9537450610312
20
0.442661621716411
30
0
41
1
10
35.4845696907069
20
-0.0542799582586042
30
0
41
1
10
36.2505816209713
20
-0.303800063709673
30
0
41
1
10
37.7807235752079
20
-0.797016092834753
30
0
41
1
10
38.5445670167945
20
-1.04170276063624
30
0
41
1
10
39.73851945841
20
-1.41360663232882
30
0
41
1
10
40.1686403500515
20
-1.5452485712882
30
0
41
1
10
40.5990512009965
20
-1.67392408901227
30
0
0
SPLINE
5
142
100
AcDbEntity
8
1
62
256
6
ByLayer
370
18
48
1
60
0
100
AcDbSpline
70
4
71
3
72
8
73
4
40
0
40
0
40
0
40
0
40
1
40
1
40
1
40
1
41
1
10
13
20
1.21041447991254
30
0
41
1
10
12.7725601669842
20
1.29227559779687
30
0
41
1
10
12.5444025710327
20
1.37040795808704
30
0
41
1
10
12.3164778705035
20
1.44745417943636
30
0
0
SPLINE
5
143
100
AcDbEntity
8
1
62
256
6
ByLayer
370
18
48
1
60
0
100
AcDbSpline
70
4
71
3
72
8
73
4
40
0
40
0
40
0
40
0
40
1
40
1
40
1
40
1
41
1
10
98.5150019339022
20
-0.0687781523305375
30
0
41
1
10
98.445456778156
20
0.150984452261213
30
0
41
1
10
98.3913178171505
20
0.37362260458832
30
0
41
1
10
98.3519262238491
20
0.599013335375247
30
0
0
SPLINE
5
144
100
AcDbEntity
8
1
62
256
6
ByLayer
370
18
48
1
60
0
100
AcDbSpline
70
4
71
3
72
8
73
4
40
0
40
0
40
0
40
0
40
1
40
1
40
1
40
1
41
1
10
12.2334383231766
20
1.53287035089485
30
0
41
1
10
12.2753971575175
20
1.51912758339571
30
0
41
1
10
12.3172152012666
20
1.50634150591276
30
0
41
1
10
12.3588806336291
20
1.49445460286699
30
0
0
SPLINE
5
145
100
AcDbEntity
8
1
62
256
6
ByLayer
370
18
48
1
60
0
100
AcDbSpline
70
4
71
3
72
8
73
4
40
0
40
0
40
0
40
0
40
1
40
1
40
1
40
1
41
1
10
96.329757884066
20
0.441265914351163
30
0
41
1
10
96.3709444063462
20
0.437963036257685
30
0
41
1
10
96.4121310234377
20
0.434920644912069
30
0
41
1
10
96.4533176589052
20
0.432137433534365
30
0
0
SPLINE
5
146
100
AcDbEntity
8
1
62
256
6
ByLayer
370
18
48
1
60
0
100
AcDbSpline
70
4
71
3
72
16
73
12
40
0
40
0
40
0
40
0
40
0.117700081608875
40
0.233748406986097
40
0.348146784039241
40
0.460897100155039
40
0.572001326820213
40
0.681461524575334
40
0.789279848330197
40
0.895458553071885
40
1
40
1
40
1
40
1
41
1
10
97.3040497222862
20
-2.30196485091182
30
0
41
1
10
97.288244030108
20
-2.26797162287971
30
0
41
1
10
97.2568544565625
20
-2.20046221428629
30
0
41
1
10
97.21065902559
20
-2.09818349891702
30
0
41
1
10
97.1655397230251
20
-1.99618621299004
30
0
41
1
10
97.1215345190686
20
-1.89443932723233
30
0
41
1
10
97.078634378648
20
-1.79306509424626
30
0
41
1
10
97.0368382787998
20
-1.69214723010146
30
0
41
1
10
96.9961588336972
20
-1.59174995820132
30
0
41
1
10
96.9565476725658
20
-1.49202728687024
30
0
41
1
10
96.9307703197439
20
-1.4253434472534
30
0
41
1
10
96.9179817860389
20
-1.39226058818639
30
0
0
SPLINE
5
147
100
AcDbEntity
8
1
62
256
6
ByLayer
370
18
48
1
60
0
100
AcDbSpline
70
4
71
3
72
10
73
6
40
0
40
0
40
0
40
0
40
0.5
40
0.5
40
1
40
1
40
1
40
1
41
1
10
10.3801781083426
20
5.77413149218501
30
0
41
1
10
10.5331866285315
20
5.64071001376618
30
0
41
1
10
10.6935846372071
20
5.52079008882268
30
0
41
1
10
11.0285643120088
20
5.30588170290125
30
0
41
1
10
11.2031395256922
20
5.21088451823348
30
0
41
1
10
11.3852867947993
20
5.12845048304325
30
0
0
SPLINE
5
148
100
AcDbEntity
8
1
62
256
6
ByLayer
370
18
48
1
60
0
100
AcDbSpline
70
4
71
3
72
10
73
6
40
0
40
0
40
0
40
0
40
0.5
40
0.5
40
1
40
1
40
1
40
1
41
1
10
14
20
-4.84666519311133
30
0
41
1
10
13.8358245342796
20
-4.82390457215365
30
0
41
1
10
13.6703967312578
20
-4.80284218662732
30
0
41
1
10
13.3370702221861
20
-4.76535350682053
30
0
41
1
10
13.1691711413959
20
-4.74892302551032
30
0
41
1
10
13
20
-4.73485404029026
30
0
0
SPLINE
5
149
100
AcDbEntity
8
1
62
256
6
ByLayer
370
18
48
1
60
0
100
AcDbSpline
70
4
71
3
72
12
73
8
40
0
40
0
40
0
40
0
40
0.5
40
0.5
40
0.75
40
0.75
40
1
40
1
40
1
40
1
41
1
10
100.468652728244
20
1.79772716181918
30
0
41
1
10
100.355377406695
20
2.10895398648674
30
0
41
1
10
100.243534130653
20
2.42238665821196
30
0
41
1
10
100.078033982446
20
2.89602419118128
30
0
41
1
10
100.023248738098
20
3.05449096767217
30
0
41
1
10
99.9145244368382
20
3.37272794296851
30
0
41
1
10
99.8609091972276
20
3.53156375153054
30
0
41
1
10
99.8086992562463
20
3.68835651744763
30
0
0
SPLINE
5
14A
100
AcDbEntity
8
1
62
256
6
ByLayer
370
18
48
1
60
0
100
AcDbSpline
70
4
71
3
72
8
73
4
40
0
40
0
40
0
40
0
40
1
40
1
40
1
40
1
41
1
10
99.8086992614238
20
3.68835651851052
30
0
41
1
10
99.6956788236072
20
4.02777055967479
30
0
41
1
10
99.5813896103544
20
4.3686458769005
30
0
41
1
10
99.4658046289931
20
4.71101357225734
30
0
0
SPLINE
5
14B
100
AcDbEntity
8
1
62
256
6
ByLayer
370
18
48
1
60
0
100
AcDbSpline
70
4
71
3
72
14
73
10
40
0
40
0
40
0
40
0
40
0.25
40
0.25
40
0.5
40
0.5
40
0.75
40
0.75
40
1
40
1
40
1
40
1
41
1
10
100.868937854645
20
-0.492605927356948
30
0
41
1
10
100.851042475342
20
-0.564559814167922
30
0
41
1
10
100.828894217909
20
-0.647252145919339
30
0
41
1
10
100.776978135303
20
-0.83080524650353
30
0
41
1
10
100.747211825954
20
-0.931660597770787
30
0
41
1
10
100.681254638851
20
-1.14749023160272
30
0
41
1
10
100.645065533445
20
-1.26245871457533
30
0
41
1
10
100.56771546185
20
-1.50189919439606
30
0
41
1
10
100.52655731145
20
-1.62636257283776
30
0
41
1
10
100.48373792185
20
-1.75308358108941
30
0
0
SPLINE
5
14C
100
AcDbEntity
8
1
62
256
6
ByLayer
370
18
48
1
60
0
100
AcDbSpline
70
4
71
3
72
14
73
10
40
0
40
0
40
0
40
0
40
0.500000000000011
40
0.500000000000011
40
0.625000000000008
40
0.625000000000008
40
0.750000000000006
40
0.750000000000006
40
1
40
1
40
1
40
1
41
1
10
13
20
4.73485404029026
30
0
41
1
10
12.7067477262305
20
4.73765088182356
30
0
41
1
10
12.4235638799777
20
4.77743076106563
30
0
41
1
10
12.0813840041389
20
4.86481623157903
30
0
41
1
10
12.013320291223
20
4.88426825745827
30
0
41
1
10
11.8803732379501
20
4.92610749703292
30
0
41
1
10
11.8153056550792
20
4.94852762121238
30
0
41
1
10
11.6241575525867
20
5.01967185510142
30
0
41
1
10
11.5021101454464
20
5.07229055109593
30
0
41
1
10
11.3852867948045
20
5.12845048304146
30
0
0
SPLINE
5
14D
100
AcDbEntity
8
1
62
256
6
ByLayer
370
13
48
1
60
0
100
AcDbSpline
70
4
71
3
72
13
73
9
40
0
40
0
40
0
40
0
40
0.265003523256914
40
0.397505284885372
40
0.530007046513829
40
0.795010569770743
40
0.9275123313992
40
1
40
1
40
1
40
1
41
1
10
94.8
20
3.95513195092505
30
0
41
1
10
95.2425754572426
20
3.96721297083246
30
0
41
1
10
95.906352317342
20
3.96905632713362
30
0
41
1
10
96.7910324803918
20
3.94369708153465
30
0
41
1
10
97.6760702795822
20
3.9027601077523
30
0
41
1
10
98.5609469288326
20
3.83128780004259
30
0
41
1
10
99.3454524126412
20
3.74645677027814
30
0
41
1
10
99.6876795643768
20
3.70402306508015
30
0
41
1
10
99.8086992548782
20
3.68835652157316
30
0
0
SPLINE
5
14E
100
AcDbEntity
8
1
62
256
6
ByLayer
370
18
48
1
60
0
100
AcDbSpline
70
4
71
3
72
18
73
14
40
0
40
0
40
0
40
0
40
0.249999999999997
40
0.249999999999997
40
0.374999999999996
40
0.374999999999996
40
0.499999999999995
40
0.499999999999995
40
0.750000000000003
40
0.750000000000003
40
0.875000000000002
40
0.875000000000002
40
1
40
1
40
1
40
1
41
1
10
11.3852867948059
20
5.12845048305491
30
0
41
1
10
11.4733015089289
20
5.01528812106332
30
0
41
1
10
11.5677738758953
20
4.9082078103871
30
0
41
1
10
11.7232393828529
20
4.7605419189336
30
0
41
1
10
11.7773709560384
20
4.71349403629864
30
0
41
1
10
11.8911339565005
20
4.62455443904898
30
0
41
1
10
11.9511802844045
20
4.58245903818278
30
0
41
1
10
12.1356880045797
20
4.46827339937425
30
0
41
1
10
12.2655543791842
20
4.40738064802173
30
0
41
1
10
12.4707326221022
20
4.33804486202541
30
0
41
1
10
12.5411510678461
20
4.31851494043272
30
0
41
1
10
12.6834678779235
20
4.28670740262507
30
0
41
1
10
12.7553824146243
20
4.27437359003321
30
0
41
1
10
12.8279920700654
20
4.26513783145967
30
0
0
SPLINE
5
14F
100
AcDbEntity
8
1
62
256
6
ByLayer
370
18
48
1
60
0
100
AcDbSpline
70
4
71
2
72
6
73
3
40
0
40
0
40
0
40
1
40
1
40
1
41
1
10
96.4533176563612
20
0.432137468646403
30
0
41
1
10
96.4946122946116
20
0.269943036054684
30
0
41
1
10
96.5400947157805
20
0.107207968765408
30
0
0
SPLINE
5
150
100
AcDbEntity
8
1
62
256
6
ByLayer
370
18
48
1
60
0
100
AcDbSpline
70
4
71
3
72
8
73
4
40
0
40
0
40
0
40
0
40
1
40
1
40
1
40
1
41
1
10
94.6981398718335
20
-4.81509867661109
30
0
41
1
10
94.7004282693865
20
-4.81477886900538
30
0
41
1
10
94.7027166669395
20
-4.81445816580319
30
0
41
1
10
94.7050050644925
20
-4.81413656718345
30
0
0
SPLINE
5
151
100
AcDbEntity
8
1
62
256
6
ByLayer
370
18
48
1
60
0
100
AcDbSpline
70
4
71
3
72
12
73
8
40
0
40
0
40
0
40
0
40
0.250000000000004
40
0.250000000000004
40
0.500000000000008
40
0.500000000000008
40
1
40
1
40
1
40
1
41
1
10
12.8279920700561
20
4.26513783146001
30
0
41
1
10
12.9323850022847
20
4.25912931922187
30
0
41
1
10
13.0372499530855
20
4.25427667504925
30
0
41
1
10
13.2479311198719
20
4.24686579961974
30
0
41
1
10
13.3542785959293
20
4.24430283420594
30
0
41
1
10
13.670723511219
20
4.24010361802067
30
0
41
1
10
13.8768143029665
20
4.24191901749933
30
0
41
1
10
14.0780089963057
20
4.24756625299207
30
0
0
SPLINE
5
152
100
AcDbEntity
8
1
62
256
6
ByLayer
370
18
48
1
60
0
100
AcDbSpline
70
4
71
3
72
8
73
4
40
0
40
0
40
0
40
0
40
1
40
1
40
1
40
1
41
1
10
88.6486982206795
20
3.43975582908027
30
0
41
1
10
88.3397859775558
20
3.38181725015863
30
0
41
1
10
88.0308810808422
20
3.32110547077087
30
0
41
1
10
87.7219212802342
20
3.25787571317704
30
0
0
SPLINE
5
153
100
AcDbEntity
8
1
62
256
6
ByLayer
370
18
48
1
60
0
100
AcDbSpline
70
4
71
3
72
36
73
32
40
0
40
0
40
0
40
0
40
0.0236100622583762
40
0.0236100622583762
40
0.0933522006684921
40
0.0933522006684921
40
0.163094339078608
40
0.163094339078608
40
0.232836477488724
40
0.232836477488724
40
0.30257861589884
40
0.30257861589884
40
0.372320754308956
40
0.372320754308956
40
0.442062892719072
40
0.442062892719072
40
0.511805031129188
40
0.511805031129188
40
0.581547169539304
40
0.581547169539304
40
0.65128930794942
40
0.65128930794942
40
0.721031446359536
40
0.721031446359536
40
0.790773584769652
40
0.790773584769652
40
0.860515723179768
40
0.860515723179768
40
0.930257861589884
40
0.930257861589884
40
1
40
1
40
1
40
1
41
1
10
45.7340450025682
20
-3.32772708947258
30
0
41
1
10
45.471414476378
20
-3.37965674921142
30
0
41
1
10
45.2087018780059
20
-3.42963314497897
30
0
41
1
10
44.1695946791403
20
-3.61952311608786
30
0
41
1
10
43.3941796115277
20
-3.74399779762152
30
0
41
1
10
41.8420957138055
20
-3.94969818503751
30
0
41
1
10
41.0660840858002
20
-4.03069466327904
30
0
41
1
10
39.5138211462422
20
-4.14858282703293
30
0
41
1
10
38.7372640102775
20
-4.18518094998078
30
0
41
1
10
37.1850363489232
20
-4.21048520098006
30
0
41
1
10
36.408240134852
20
-4.19916598320606
30
0
41
1
10
34.8576059753194
20
-4.13442385066446
30
0
41
1
10
34.0833763091618
20
-4.08078902031218
30
0
41
1
10
32.5341300500708
20
-3.92859819995485
30
0
41
1
10
31.7587689869472
20
-3.8300482604885
30
0
41
1
10
30.2058407254125
20
-3.59309696962541
30
0
41
1
10
29.4299234663762
20
-3.45459356151116
30
0
41
1
10
27.8769210397315
20
-3.1396366147664
30
0
41
1
10
27.1010136596222
20
-2.96356161124538
30
0
41
1
10
25.5512251346529
20
-2.58295427392642
30
0
41
1
10
24.7769749753527
20
-2.37802440994528
30
0
41
1
10
23.2267172582668
20
-1.94364411971946
30
0
41
1
10
22.4500611654892
20
-1.71419486568095
30
0
41
1
10
20.8977346322012
20
-1.24060561755476
30
0
41
1
10
20.1211413628047
20
-0.995900797886293
30
0
41
1
10
18.568214694102
20
-0.498778839331834
30
0
41
1
10
17.7917159717164
20
-0.246632861796257
30
0
41
1
10
16.2384515713744
20
0.258091993822006
30
0
41
1
10
15.4628050604971
20
0.510832390669833
30
0
41
1
10
13.9115778110069
20
1.01002664117073
30
0
41
1
10
13.1358986726119
20
1.25606341409963
30
0
41
1
10
12.3588806336283
20
1.49445460286722
30
0
0
SPLINE
5
154
100
AcDbEntity
8
1
62
256
6
ByLayer
370
18
48
1
60
0
100
AcDbSpline
70
4
71
3
72
8
73
4
40
0
40
0
40
0
40
0
40
1
40
1
40
1
40
1
41
1
10
97.3633457178212
20
0.563853509321945
30
0
41
1
10
97.3608388606247
20
0.565584647966858
30
0
41
1
10
97.3583322180708
20
0.567317759631351
30
0
41
1
10
97.355825792314
20
0.569052841703979
30
0
0
SPLINE
5
155
100
AcDbEntity
8
1
62
256
6
ByLayer
370
18
48
1
60
0
100
AcDbSpline
70
4
71
3
72
8
73
4
40
0
40
0
40
0
40
0
40
1
40
1
40
1
40
1
41
1
10
87.6718447077583
20
3.71208737469132
30
0
41
1
10
87.3448576806753
20
3.63115568219399
30
0
41
1
10
87.018364418183
20
3.54639133228673
30
0
41
1
10
86.6921798168729
20
3.45812218019827
30
0
0
SPLINE
5
156
100
AcDbEntity
8
1
62
256
6
ByLayer
370
18
48
1
60
0
100
AcDbSpline
70
4
71
3
72
48
73
44
40
0
40
0
40
0
40
0
40
0.0196845823569053
40
0.0196845823569053
40
0.0741465500037438
40
0.0741465500037438
40
0.128608517650582
40
0.128608517650582
40
0.183070485297421
40
0.183070485297421
40
0.23753245294426
40
0.23753245294426
40
0.291994420591098
40
0.291994420591098
40
0.319225404414518
40
0.319225404414518
40
0.346456388237937
40
0.346456388237937
40
0.400918355884776
40
0.400918355884776
40
0.455380323531614
40
0.455380323531614
40
0.509842291178453
40
0.509842291178453
40
0.564304258825291
40
0.564304258825291
40
0.591535242648711
40
0.591535242648711
40
0.61876622647213
40
0.61876622647213
40
0.673228194118969
40
0.673228194118969
40
0.727690161765807
40
0.727690161765807
40
0.782152129412646
40
0.782152129412646
40
0.836614097059485
40
0.836614097059485
40
0.891076064706323
40
0.891076064706323
40
0.945538032353161
40
0.945538032353161
40
1
40
1
40
1
40
1
41
1
10
56.3777222181956
20
-4.89999787024715
30
0
41
1
10
56.0992374979144
20
-4.89994288259612
30
0
41
1
10
55.8207528768445
20
-4.89645191850965
30
0
41
1
10
54.7743957251216
20
-4.87061762730008
30
0
41
1
10
54.0090867779899
20
-4.8258611680441
30
0
41
1
10
52.4829299060021
20
-4.68643180168374
30
0
41
1
10
51.7218523908123
20
-4.59183075165299
30
0
41
1
10
50.2005153770076
20
-4.35614389717654
30
0
41
1
10
49.4406810901731
20
-4.21459245665747
30
0
41
1
10
47.9196031491843
20
-3.88725467352552
30
0
41
1
10
47.1580874868284
20
-3.70178026627093
30
0
41
1
10
45.6286438068485
20
-3.29549311398566
30
0
41
1
10
44.8613012167331
20
-3.07370968653311
30
0
41
1
10
43.7048765444426
20
-2.71534169452155
30
0
41
1
10
43.3197711389595
20
-2.5920656947043
30
0
41
1
10
42.5518502690247
20
-2.33972444369528
30
0
41
1
10
42.168673617094
20
-2.21066802111335
30
0
41
1
10
41.0210599326022
20
-1.81600588059703
30
0
41
1
10
40.2588492201606
20
-1.54209480942634
30
0
41
1
10
38.7373522317915
20
-0.980050598970735
30
0
41
1
10
37.9778755164306
20
-0.692405699288088
30
0
41
1
10
36.4565670013855
20
-0.117237676329353
30
0
41
1
10
35.6952965359713
20
0.17178503134906
30
0
41
1
10
34.1698948493713
20
0.748278589423791
30
0
41
1
10
33.4056330588222
20
1.03540735992783
30
0
41
1
10
32.2540776679258
20
1.45656512582403
30
0
41
1
10
31.869451142562
20
1.59560264292554
30
0
41
1
10
31.0983849399703
20
1.87026245107333
30
0
41
1
10
30.7138394418243
20
2.0051890475325
30
0
41
1
10
29.5630755524629
20
2.40106575173601
30
0
41
1
10
28.7994680591793
20
2.65289115723914
30
0
41
1
10
27.2741554836139
20
3.12100893976728
30
0
41
1
10
26.5129008120988
20
3.33855551042029
30
0
41
1
10
24.9917528970134
20
3.73801672838334
30
0
41
1
10
24.2317772843413
20
3.91962560242092
30
0
41
1
10
22.7091101201698
20
4.23978781414675
30
0
41
1
10
21.9467774725338
20
4.37899379660035
30
0
41
1
10
20.4178175740956
20
4.61138053996695
30
0
41
1
10
19.6507361423065
20
4.70426443221459
30
0
41
1
10
18.1083674460048
20
4.83786370123707
30
0
41
1
10
17.3376505615933
20
4.87853802618432
30
0
41
1
10
15.7977977349475
20
4.9085256640966
30
0
41
1
10
15.0285974045388
20
4.89750218911058
30
0
41
1
10
14.2583178088809
20
4.85957502575519
30
0
0
SPLINE
5
157
100
AcDbEntity
8
1
62
256
6
ByLayer
370
18
48
1
60
0
100
AcDbSpline
70
4
71
3
72
8
73
4
40
0
40
0
40
0
40
0
40
1
40
1
40
1
40
1
41
1
10
95.0506002424428
20
-4.65150614806058
30
0
41
1
10
95.235914176328
20
-4.59012989773595
30
0
41
1
10
95.4191014663016
20
-4.51722802327146
30
0
41
1
10
95.6
20
-4.43192193556214
30
0
0
SPLINE
5
158
100
AcDbEntity
8
1
62
256
6
ByLayer
370
18
48
1
60
0
100
AcDbSpline
70
4
71
3
72
56
73
52
40
0
40
0
40
0
40
0
40
0.0321240320482207
40
0.0321240320482207
40
0.126468079720866
40
0.126468079720866
40
0.173640103557188
40
0.173640103557188
40
0.197226115475349
40
0.197226115475349
40
0.22081212739351
40
0.22081212739351
40
0.267984151229832
40
0.267984151229832
40
0.315156175066154
40
0.315156175066154
40
0.338742186984314
40
0.338742186984314
40
0.362328198902474
40
0.362328198902474
40
0.409500222738795
40
0.409500222738795
40
0.456672246575116
40
0.456672246575116
40
0.480258258493277
40
0.480258258493277
40
0.503844270411438
40
0.503844270411438
40
0.55101629424776
40
0.55101629424776
40
0.598188318084082
40
0.598188318084082
40
0.621774330002243
40
0.621774330002243
40
0.645360341920404
40
0.645360341920404
40
0.692532365756727
40
0.692532365756727
40
0.739704389593049
40
0.739704389593049
40
0.786876413429372
40
0.786876413429372
40
0.834048437265695
40
0.834048437265695
40
0.881220461102017
40
0.881220461102017
40
0.92839248493834
40
0.92839248493834
40
0.975564508774662
40
0.975564508774662
40
1
40
1
40
1
40
1
41
1
10
63.4375444506088
20
-4.69274345970598
30
0
41
1
10
62.9661990935892
20
-4.74447818011618
30
0
41
1
10
62.4957437873275
20
-4.78672416670943
30
0
41
1
10
60.6452925540145
20
-4.91451618241874
30
0
41
1
10
59.2675548036423
20
-4.92543126479717
30
0
41
1
10
57.1944996654785
20
-4.81597181512592
30
0
41
1
10
56.5021273846068
20
-4.75861797981676
30
0
41
1
10
55.460424575003
20
-4.64147470819998
30
0
41
1
10
55.1127104992017
20
-4.59719156985551
30
0
41
1
10
54.4159730258758
20
-4.49825992293816
30
0
41
1
10
54.0666359490117
20
-4.44355921474329
30
0
41
1
10
53.0182724737609
20
-4.26465326997993
30
0
41
1
10
52.3209245851643
20
-4.12614136714348
30
0
41
1
10
50.9263403566113
20
-3.81556375438839
30
0
41
1
10
50.2293839294118
20
-3.64311458615566
30
0
41
1
10
49.1829358511849
20
-3.36134959696781
30
0
41
1
10
48.8339584667896
20
-3.26356319952214
30
0
41
1
10
48.135338667737
20
-3.06090096776651
30
0
41
1
10
47.7853910043884
20
-2.9560119220472
30
0
41
1
10
46.7363571812009
20
-2.63225126435722
30
0
41
1
10
46.0387790188458
20
-2.40374300094479
30
0
41
1
10
44.6448644772626
20
-1.92656150340238
30
0
41
1
10
43.9484930494936
20
-1.67793439008011
30
0
41
1
10
42.9020694442986
20
-1.29676853263524
30
0
41
1
10
42.5529776709688
20
-1.1682867390881
30
0
41
1
10
41.8541011779852
20
-0.908797370283622
30
0
41
1
10
41.5040912224747
20
-0.77773124279193
30
0
41
1
10
40.4557027776282
20
-0.383000832086594
30
0
41
1
10
39.7582311744354
20
-0.117329694348229
30
0
41
1
10
38.3635230028407
20
0.411940069685073
30
0
41
1
10
37.6663113226567
20
0.675611331766845
30
0
41
1
10
36.6197944524259
20
1.06723423349211
30
0
41
1
10
36.2707893880739
20
1.19699654188554
30
0
41
1
10
35.5720623554094
20
1.45394897715477
30
0
41
1
10
35.2224665235952
20
1.5811214779456
30
0
41
1
10
34.1768471228118
20
1.9552192413079
30
0
41
1
10
33.4822287786127
20
2.19496892935354
30
0
41
1
10
32.0964607525583
20
2.6523933868734
30
0
41
1
10
31.4052897546135
20
2.86997631562272
30
0
41
1
10
30.024296827291
20
3.27842866578129
30
0
41
1
10
29.3341952756179
20
3.46875789577271
30
0
41
1
10
27.953822568419
20
3.81965653955629
30
0
41
1
10
27.2635555865959
20
3.98013716036891
30
0
41
1
10
25.879982083886
20
4.26573166069511
30
0
41
1
10
25.1864671474592
20
4.39055682278354
30
0
41
1
10
23.7937098822657
20
4.60106069005207
30
0
41
1
10
23.0931072288702
20
4.6870443306274
30
0
41
1
10
21.6972136346259
20
4.81649593071256
30
0
41
1
10
21.0007986714784
20
4.86015119749712
30
0
41
1
10
19.9441881922483
20
4.89403369528353
30
0
41
1
10
19.5838144272371
20
4.89989240685634
30
0
41
1
10
19.2234694404309
20
4.89999462174876
30
0
0
SPLINE
5
159
100
AcDbEntity
8
1
62
256
6
ByLayer
370
18
48
1
60
0
100
AcDbSpline
70
4
71
3
72
21
73
17
40
0
40
0
40
0
40
0
40
0.0286660336270261
40
0.0572686125785804
40
0.0858778479367224
40
0.114563801977215
40
0.143395977701576
40
0.214778856575474
40
0.285977297179846
40
0.357476991435317
40
0.428321834408176
40
0.569649013112829
40
0.710191291732099
40
0.850181166702643
40
0.989812956208095
40
1
40
1
40
1
40
1
41
1
10
94.7050127043061
20
-4.68740133298269
30
0
41
1
10
94.7052311868705
20
-4.68296620973331
30
0
41
1
10
94.7056676683699
20
-4.67410578075274
30
0
41
1
10
94.709151493052
20
-4.66034781791404
30
0
41
1
10
94.7147090863584
20
-4.64629121583383
30
0
41
1
10
94.7225416388738
20
-4.6319056225789
30
0
41
1
10
94.7375129100365
20
-4.61002485830196
30
0
41
1
10
94.7647631235224
20
-4.58021660327466
30
0
41
1
10
94.8116292687464
20
-4.54263939366132
30
0
41
1
10
94.8703932177808
20
-4.50564889791625
30
0
41
1
10
94.9638039257853
20
-4.45867030153161
30
0
41
1
10
95.1069515804594
20
-4.40662116248618
30
0
41
1
10
95.3125769758672
20
-4.36511653640449
30
0
41
1
10
95.5360424617123
20
-4.35378349129462
30
0
41
1
10
95.6881294926505
20
-4.36869448329705
30
0
41
1
10
95.7614145540676
20
-4.38171465829993
30
0
41
1
10
95.7663976267128
20
-4.38259997485201
30
0
0
SPLINE
5
15A
100
AcDbEntity
8
1
62
256
6
ByLayer
370
18
48
1
60
0
100
AcDbSpline
70
4
71
3
72
20
73
16
40
0
40
0
40
0
40
0
40
0.25
40
0.25
40
0.375
40
0.375
40
0.5
40
0.5
40
0.625
40
0.625
40
0.75
40
0.75
40
0.875
40
0.875
40
1
40
1
40
1
40
1
41
1
10
10.3801781083426
20
3.11733689258909
30
0
41
1
10
10.4664334340313
20
2.91345052300966
30
0
41
1
10
10.5755344324968
20
2.72207141234662
30
0
41
1
10
10.7728809791872
20
2.45441155493464
30
0
41
1
10
10.8447078369784
20
2.36813619828257
30
0
41
1
10
10.995640647399
20
2.20672561808513
30
0
41
1
10
11.0751441769321
20
2.13095242106567
30
0
41
1
10
11.2421688102706
20
1.9886357566414
30
0
41
1
10
11.3299633851905
20
1.92191354660415
30
0
41
1
10
11.5126652752743
20
1.79838951873234
30
0
41
1
10
11.6067011190401
20
1.74213003880351
30
0
41
1
10
11.8001351975718
20
1.64003689502755
30
0
41
1
10
11.8995335642544
20
1.59420616868184
30
0
41
1
10
12.1038862330807
20
1.51291102738338
30
0
41
1
10
12.2093931841563
20
1.47730288258478
30
0
41
1
10
12.3164778705035
20
1.44745417943639
30
0
0
SPLINE
5
15B
100
AcDbEntity
8
1
62
256
6
ByLayer
370
13
48
1
60
0
100
AcDbSpline
70
4
71
3
72
10
73
6
40
0
40
0
40
0
40
0
40
0.0018294100804643
40
0.0018294100804643
40
1
40
1
40
1
40
1
41
1
10
100.494851579844
20
0.519959598095767
30
0
41
1
10
100.494837532326
20
0.519968412632949
30
0
41
1
10
100.494823484686
20
0.519977227234762
30
0
41
1
10
100.487144858851
20
0.524795643574947
30
0
41
1
10
100.479524432663
20
0.529662894138255
30
0
41
1
10
100.47195076973
20
0.534589069799267
30
0
0
SPLINE
5
15C
100
AcDbEntity
8
1
62
256
6
ByLayer
370
18
48
1
60
0
100
AcDbSpline
70
4
71
3
72
8
73
4
40
0
40
0
40
0
40
0
40
1
40
1
40
1
40
1
41
1
10
99.3372074869004
20
4.86527265313569
30
0
41
1
10
99.328406305318
20
4.87483115170224
30
0
41
1
10
99.3202681455682
20
4.88242987739335
30
0
41
1
10
99.3127946401689
20
4.88806400478046
30
0
0
SPLINE
5
15D
100
AcDbEntity
8
1
62
256
6
ByLayer
370
18
48
1
60
0
100
AcDbSpline
70
4
71
3
72
8
73
4
40
0
40
0
40
0
40
0
40
1
40
1
40
1
40
1
41
1
10
100.789426301131
20
-0.61006072070515
30
0
41
1
10
100.837069752828
20
-0.475458098960956
30
0
41
1
10
100.884584297524
20
-0.337713941742663
30
0
41
1
10
100.929915477226
20
-0.203044419619204
30
0
0
SPLINE
5
15E
100
AcDbEntity
8
1
62
256
6
ByLayer
370
18
48
1
60
0
100
AcDbSpline
70
4
71
1
72
4
73
2
40
0
40
0
40
1
40
1
41
1
10
14.2583178088809
20
4.85957502575519
30
0
41
1
10
14.0780090110921
20
4.24756625362852
30
0
0
SPLINE
5
15F
100
AcDbEntity
8
1
62
256
6
ByLayer
370
18
48
1
60
0
100
AcDbSpline
70
4
71
3
72
8
73
4
40
0
40
0
40
0
40
0
40
1
40
1
40
1
40
1
41
1
10
95.3494954838712
20
-4.97053379204166
30
0
41
1
10
95.2580279291839
20
-4.93303191295902
30
0
41
1
10
95.1664445392538
20
-4.89507358382002
30
0
41
1
10
95.0747364049838
20
-4.85667860778904
30
0
0
SPLINE
5
160
100
AcDbEntity
8
1
62
256
6
ByLayer
370
18
48
1
60
0
100
AcDbSpline
70
4
71
3
72
8
73
4
40
0
40
0
40
0
40
0
40
1
40
1
40
1
40
1
41
1
10
94.8
20
1.46305243842934
30
0
41
1
10
94.9859382724242
20
1.34598486909354
30
0
41
1
10
95.1735818786697
20
1.2348037637517
30
0
41
1
10
95.3627764116876
20
1.1289761408128
30
0
0
SPLINE
5
161
100
AcDbEntity
8
1
62
256
6
ByLayer
370
18
48
1
60
0
100
AcDbSpline
70
4
71
3
72
53
73
49
40
0
40
0
40
0
40
0
40
0.0217391304347825
40
0.0434782608695651
40
0.0652173913043476
40
0.0869565217391305
40
0.108695652173913
40
0.130434782608695
40
0.152173913043478
40
0.173913043478261
40
0.195652173913044
40
0.217391304347826
40
0.239130434782609
40
0.260869565217391
40
0.282608695652174
40
0.304347826086956
40
0.326086956521739
40
0.347826086956522
40
0.369565217391304
40
0.391304347826087
40
0.413043478260869
40
0.434782608695652
40
0.456521739130434
40
0.478260869565218
40
0.5
40
0.521739130434782
40
0.543478260869565
40
0.565217391304348
40
0.586956521739131
40
0.608695652173913
40
0.630434782608696
40
0.652173913043478
40
0.673913043478261
40
0.695652173913043
40
0.717391304347826
40
0.739130434782609
40
0.760869565217391
40
0.782608695652174
40
0.804347826086957
40
0.826086956521739
40
0.847826086956522
40
0.869565217391304
40
0.891304347826087
40
0.91304347826087
40
0.934782608695652
40
0.956521739130435
40
0.978260869565217
40
1
40
1
40
1
40
1
41
1
10
13.1010000000008
20
1.25026721077984
30
0
41
1
10
13.1103482094662
20
1.26109111316305
30
0
41
1
10
13.129044628397
20
1.28273891792946
30
0
41
1
10
13.1570683768265
20
1.31776897431521
30
0
41
1
10
13.1850503808681
20
1.3546393135714
30
0
41
1
10
13.2129698071805
20
1.39350790172924
30
0
41
1
10
13.2408058690135
20
1.4342961177698
30
0
41
1
10
13.2685378416833
20
1.47698690612839
30
0
41
1
10
13.2961450780038
20
1.5215449153545
30
0
41
1
10
13.3236070236582
20
1.56793792661608
30
0
41
1
10
13.3509032325023
20
1.61613114298933
30
0
41
1
10
13.3780133817876
20
1.66608875197352
30
0
41
1
10
13.4049172872916
20
1.71777354042166
30
0
41
1
10
13.431594918346
20
1.77114703257018
30
0
41
1
10
13.4580264127496
20
1.82616948912394
30
0
41
1
10
13.4841920915566
20
1.88279994476406
30
0
41
1
10
13.5100724737277
20
1.94099623652545
30
0
41
1
10
13.5356482906348
20
2.00071503575677
30
0
41
1
10
13.5609005004064
20
2.06191188022748
30
0
41
1
10
13.5858103021053
20
2.1245412072719
30
0
41
1
10
13.6103591497259
20
2.18855638770094
30
0
41
1
10
13.6345287660027
20
2.25390976052168
30
0
41
1
10
13.6583011560177
20
2.32055266842144
30
0
41
1
10
13.6816586205987
20
2.38843549399462
30
0
41
1
10
13.704583769496
20
2.45750769668416
30
0
41
1
10
13.7270595343308
20
2.52771785041037
30
0
41
1
10
13.7490691813022
20
2.59901368185888
30
0
41
1
10
13.7705963236466
20
2.67134210939957
30
0
41
1
10
13.7916249338379
20
2.7446492826073
30
0
41
1
10
13.8121393555201
20
2.8188806223549
30
0
41
1
10
13.8321243151644
20
2.89398086144877
30
0
41
1
10
13.8515649334402
20
2.96989408577682
30
0
41
1
10
13.8704467362942
20
3.04656377593807
30
0
41
1
10
13.888755665723
20
3.12393284932207
30
0
41
1
10
13.9064780902539
20
3.20194370261206
30
0
41
1
10
13.9236008150397
20
3.28053825465767
30
0
41
1
10
13.940111091886
20
3.35965798977236
30
0
41
1
10
13.9559966279837
20
3.4392440010968
30
0
41
1
10
13.9712455978914
20
3.51923703521416
30
0
41
1
10
13.9858466417811
20
3.5995775334386
30
0
41
1
10
13.9997889132975
20
3.68020568670968
30
0
41
1
10
14.0130619405878
20
3.76106144074385
30
0
41
1
10
14.0256561828786
20
3.84208468770618
30
0
41
1
10
14.0375609895021
20
3.92321476250169
30
0
41
1
10
14.0487722513563
20
4.00439253482432
30
0
41
1
10
14.059263877918
20
4.08555281411287
30
0
41
1
10
14.0690942773231
20
4.16665290747747
30
0
41
1
10
14.0750374233116
20
4.22059513782054
30
0
41
1
10
14.0780089963058
20
4.24756625299207
30
0
0
SPLINE
5
162
100
AcDbEntity
8
1
62
256
6
ByLayer
370
18
48
1
60
0
100
AcDbSpline
70
4
71
3
72
8
73
4
40
0
40
0
40
0
40
0
40
1
40
1
40
1
40
1
41
1
10
10.3046113611254
20
3.31705090846523
30
0
41
1
10
10.24456269002
20
3.4961157843052
30
0
41
1
10
10.2069872163878
20
3.66617525878831
30
0
41
1
10
10.1831781607136
20
3.82814552676138
30
0
0
SPLINE
5
163
100
AcDbEntity
8
1
62
256
6
ByLayer
370
18
48
1
60
0
100
AcDbSpline
70
4
71
3
72
10
73
6
40
0
40
0
40
0
40
0
40
0.5
40
0.5
40
1
40
1
40
1
40
1
41
1
10
10.3801781083426
20
-5.77413149218501
30
0
41
1
10
10.5331866285316
20
-5.64071001376615
30
0
41
1
10
10.6935846372071
20
-5.52079008882268
30
0
41
1
10
11.0285643120088
20
-5.30588170290122
30
0
41
1
10
11.2031395256922
20
-5.21088451823346
30
0
41
1
10
11.3852867947994
20
-5.12845048304322
30
0
0
SPLINE
5
164
100
AcDbEntity
8
1
62
256
6
ByLayer
370
18
48
1
60
0
100
AcDbSpline
70
4
71
3
72
16
73
12
40
0
40
0
40
0
40
0
40
0.25
40
0.25
40
0.5
40
0.5
40
0.625
40
0.625
40
0.75
40
0.75
40
1
40
1
40
1
40
1
41
1
10
98.3519262238491
20
0.599013335374877
30
0
41
1
10
98.415596719575
20
0.680990608627894
30
0
41
1
10
98.4913295170199
20
0.770200150446954
30
0
41
1
10
98.6594300258284
20
0.95396156501252
30
0
41
1
10
98.7519966199177
20
1.04892758727871
30
0
41
1
10
98.9041526203966
20
1.19457314707199
30
0
41
1
10
98.9571483509889
20
1.24365757837768
30
0
41
1
10
99.0655395546036
20
1.34044437913417
30
0
41
1
10
99.1212055872963
20
1.38841186548259
30
0
41
1
10
99.2928637935165
20
1.5304489862489
30
0
41
1
10
99.4139928792715
20
1.6231882149863
30
0
41
1
10
99.5413547395062
20
1.71011480723226
30
0
0
SPLINE
5
165
100
AcDbEntity
8
1
62
256
6
ByLayer
370
18
48
1
60
0
100
AcDbSpline
70
4
71
3
72
14
73
10
40
0
40
0
40
0
40
0
40
0.499999999999994
40
0.499999999999994
40
0.624999999999993
40
0.624999999999993
40
0.749999999999992
40
0.749999999999992
40
1
40
1
40
1
40
1
41
1
10
13
20
-4.73485404029026
30
0
41
1
10
12.7067477262305
20
-4.73765088182356
30
0
41
1
10
12.4235638799777
20
-4.77743076106563
30
0
41
1
10
12.081384004139
20
-4.864816231579
30
0
41
1
10
12.013320291223
20
-4.88426825745825
30
0
41
1
10
11.8803732379502
20
-4.92610749703289
30
0
41
1
10
11.8153056550793
20
-4.94852762121238
30
0
41
1
10
11.6241575525868
20
-5.01967185510139
30
0
41
1
10
11.5021101454464
20
-5.07229055109588
30
0
41
1
10
11.3852867948046
20
-5.12845048304143
30
0
0
SPLINE
5
166
100
AcDbEntity
8
1
62
256
6
ByLayer
370
18
48
1
60
0
100
AcDbSpline
70
4
71
3
72
56
73
52
40
0
40
0
40
0
40
0
40
0.0553020864930747
40
0.0553020864930747
40
0.082953129739612
40
0.082953129739612
40
0.110604172986149
40
0.110604172986149
40
0.138255216232687
40
0.138255216232687
40
0.165906259479224
40
0.165906259479224
40
0.2212083459723
40
0.2212083459723
40
0.276510432465377
40
0.276510432465377
40
0.304161475711915
40
0.304161475711915
40
0.331812518958453
40
0.331812518958453
40
0.38711460545153
40
0.38711460545153
40
0.442416691944606
40
0.442416691944606
40
0.470067735191144
40
0.470067735191144
40
0.497718778437682
40
0.497718778437682
40
0.525369821684221
40
0.525369821684221
40
0.553020864930759
40
0.553020864930759
40
0.608322951423835
40
0.608322951423835
40
0.663625037916912
40
0.663625037916912
40
0.718927124409988
40
0.718927124409988
40
0.746578167656526
40
0.746578167656526
40
0.774229210903065
40
0.774229210903065
40
0.829531297396141
40
0.829531297396141
40
0.884833383889217
40
0.884833383889217
40
0.940135470382294
40
0.940135470382294
40
0.99543755687537
40
0.99543755687537
40
1
40
1
40
1
40
1
41
1
10
87.6718447077581
20
-3.71208737469124
30
0
41
1
10
86.9024791536015
20
-3.52166374534272
30
0
41
1
10
86.1358471327729
20
-3.31002211664679
30
0
41
1
10
84.9863827028896
20
-2.96713857259172
30
0
41
1
10
84.6033424350402
20
-2.84853864422394
30
0
41
1
10
83.8361181664617
20
-2.60582926854411
30
0
41
1
10
83.4519297635931
20
-2.48178294362771
30
0
41
1
10
82.6832235290736
20
-2.2265065873577
30
0
41
1
10
82.2985688599329
20
-2.09557318008078
30
0
41
1
10
81.5283521147724
20
-1.82776040208034
30
0
41
1
10
81.1423418015779
20
-1.69070842549684
30
0
41
1
10
79.9881116031272
20
-1.27445138226659
30
0
41
1
10
79.2220801130457
20
-0.990352577762849
30
0
41
1
10
77.6946315829336
20
-0.41532598745394
30
0
41
1
10
76.9334735267012
20
-0.12368809499776
30
0
41
1
10
75.7927993817048
20
0.312231413048721
30
0
41
1
10
75.4127217193034
20
0.457200285730892
30
0
41
1
10
74.6521485957259
20
0.744541333009352
30
0
41
1
10
74.2716287138751
20
0.88685081372472
30
0
41
1
10
73.1294661095289
20
1.30998096927351
30
0
41
1
10
72.3672384430874
20
1.5870456243579
30
0
41
1
10
70.8387839907283
20
2.12456730824582
30
0
41
1
10
70.0722370386809
20
2.38418157715208
30
0
41
1
10
68.9169876407673
20
2.75470371077461
30
0
41
1
10
68.5312521912649
20
2.87509867451342
30
0
41
1
10
67.763007627096
20
3.10733200499044
30
0
41
1
10
67.3798655381067
20
3.21940796057794
30
0
41
1
10
66.6149598960773
20
3.43424688076493
30
0
41
1
10
66.233202226806
20
3.5370184865981
30
0
41
1
10
65.4703657806776
20
3.73206320792494
30
0
41
1
10
65.0892317936794
20
3.82425906212441
30
0
41
1
10
63.946684025436
20
4.08522695543007
30
0
41
1
10
63.1861955337404
20
4.23846595261162
30
0
41
1
10
61.6653952156305
20
4.50011648532472
30
0
41
1
10
60.9047951906424
20
4.60812619845456
30
0
41
1
10
59.3803017476382
20
4.77525158567639
30
0
41
1
10
58.616780690784
20
4.83464056747599
30
0
41
1
10
57.4670773190826
20
4.88475983987362
30
0
41
1
10
57.0830729162971
20
4.89496002593873
30
0
41
1
10
56.3128628413749
20
4.90212458566987
30
0
41
1
10
55.9272477999912
20
4.89908125100132
30
0
41
1
10
54.7743957251214
20
4.87061762730005
30
0
41
1
10
54.0090867779898
20
4.8258611680441
30
0
41
1
10
52.482929906002
20
4.68643180168374
30
0
41
1
10
51.7218523908121
20
4.59183075165296
30
0
41
1
10
50.2005153770074
20
4.35614389717651
30
0
41
1
10
49.440681090173
20
4.21459245665744
30
0
41
1
10
47.919603149184
20
3.88725467352546
30
0
41
1
10
47.1580874868283
20
3.70178026627087
30
0
41
1
10
46.3302758048022
20
3.48187726799685
30
0
41
1
10
46.2671681251214
20
3.46499097721022
30
0
41
1
10
46.2040420538861
20
3.44797866638964
30
0
0
SPLINE
5
167
100
AcDbEntity
8
1
62
256
6
ByLayer
370
18
48
1
60
0
100
AcDbSpline
70
4
71
3
72
8
73
4
40
0
40
0
40
0
40
0
40
1
40
1
40
1
40
1
41
1
10
15.9211237642978
20
-4.89998792432877
30
0
41
1
10
15.366965374287
20
-4.9002433759766
30
0
41
1
10
14.8129213393778
20
-4.88688269275977
30
0
41
1
10
14.2583178088809
20
-4.85957502575519
30
0
0
SPLINE
5
168
100
AcDbEntity
8
1
62
256
6
ByLayer
370
18
48
1
60
0
100
AcDbSpline
70
4
71
2
72
6
73
3
40
0
40
0
40
0
40
1
40
1
40
1
41
1
10
97.0356982690864
20
-1.37721703480128
30
0
41
1
10
97.216084701906
20
-1.83173100113578
30
0
41
1
10
97.4175910267068
20
-2.24980214177842
30
0
0
SPLINE
5
169
100
AcDbEntity
8
1
62
256
6
ByLayer
370
18
48
1
60
0
100
AcDbSpline
70
4
71
3
72
8
73
4
40
0
40
0
40
0
40
0
40
1
40
1
40
1
40
1
41
1
10
14
20
4.84666519311133
30
0
41
1
10
14.088151598486
20
4.85066619398313
30
0
41
1
10
14.1742392237212
20
4.85505157843437
30
0
41
1
10
14.2583178088809
20
4.85957502575519
30
0
0
SPLINE
5
16A
100
AcDbEntity
8
1
62
256
6
ByLayer
370
18
48
1
60
0
100
AcDbSpline
70
4
71
3
72
8
73
4
40
0
40
0
40
0
40
0
40
1
40
1
40
1
40
1
41
1
10
14
20
-4.84666519311133
30
0
41
1
10
14.088151598486
20
-4.85066619398313
30
0
41
1
10
14.1742392237212
20
-4.85505157843437
30
0
41
1
10
14.2583178088809
20
-4.85957502575519
30
0
0
SPLINE
5
16B
100
AcDbEntity
8
1
62
256
6
ByLayer
370
18
48
1
60
0
100
AcDbSpline
70
4
71
3
72
8
73
4
40
0
40
0
40
0
40
0
40
1
40
1
40
1
40
1
41
1
10
88.6487181330224
20
3.43990458440038
30
0
41
1
10
88.6288232828404
20
3.29126749553024
30
0
41
1
10
88.6046441524506
20
3.14817676547111
30
0
41
1
10
88.5765383245134
20
3.01246712627761
30
0
0
SPLINE
5
16C
100
AcDbEntity
8
1
62
256
6
ByLayer
370
18
48
1
60
0
100
AcDbSpline
70
4
71
3
72
8
73
4
40
0
40
0
40
0
40
0
40
1
40
1
40
1
40
1
41
1
10
99.3916196147496
20
-2.18430481140032
30
0
41
1
10
99.4809464741887
20
-2.11367966872024
30
0
41
1
10
99.5704763702911
20
-2.04192935209301
30
0
41
1
10
99.6604940184451
20
-1.967476046304
30
0
0
SPLINE
5
16D
100
AcDbEntity
8
1
62
256
6
ByLayer
370
18
48
1
60
0
100
AcDbSpline
70
4
71
1
72
4
73
2
40
0
40
0
40
1
40
1
41
1
10
97.7562556150115
20
-3.48339908339068
30
0
41
1
10
97.6376720864002
20
-3.54110217315332
30
0
0
SPLINE
5
16E
100
AcDbEntity
8
1
62
256
6
ByLayer
370
18
48
1
60
0
100
AcDbSpline
70
4
71
3
72
14
73
10
40
0
40
0
40
0
40
0
40
0.25
40
0.25
40
0.5
40
0.5
40
0.75
40
0.75
40
1
40
1
40
1
40
1
41
1
10
100.868937854645
20
0.492605927356948
30
0
41
1
10
100.851042475342
20
0.564559814167922
30
0
41
1
10
100.828894217909
20
0.647252145919339
30
0
41
1
10
100.776978135303
20
0.83080524650353
30
0
41
1
10
100.747211825954
20
0.931660597770787
30
0
41
1
10
100.681254638851
20
1.14749023160272
30
0
41
1
10
100.645065533445
20
1.26245871457533
30
0
41
1
10
100.56771546185
20
1.50189919439606
30
0
41
1
10
100.52655731145
20
1.62636257283776
30
0
41
1
10
100.48373792185
20
1.75308358108941
30
0
0
SPLINE
5
16F
100
AcDbEntity
8
1
62
256
6
ByLayer
370
18
48
1
60
0
100
AcDbSpline
70
4
71
3
72
18
73
14
40
0
40
0
40
0
40
0
40
0.124999999999999
40
0.124999999999999
40
0.249999999999997
40
0.249999999999997
40
0.499999999999998
40
0.499999999999998
40
0.624999999999998
40
0.624999999999998
40
0.749999999999999
40
0.749999999999999
40
1
40
1
40
1
40
1
41
1
10
15.3009999999957
20
-3.50798087288968
30
0
41
1
10
15.3009999999944
20
-3.57692983687883
30
0
41
1
10
15.3049399234452
20
-3.64306573354719
30
0
41
1
10
15.3212211078213
20
-3.76976631466957
30
0
41
1
10
15.3336187119318
20
-3.83033102799803
30
0
41
1
10
15.3833007326181
20
-4.00081098437715
30
0
41
1
10
15.4330789067625
20
-4.10070719384831
30
0
41
1
10
15.5342587726007
20
-4.23187427383252
30
0
41
1
10
15.5726959441394
20
-4.27268696990345
30
0
41
1
10
15.6574303615292
20
-4.34703664447278
30
0
41
1
10
15.7036345542605
20
-4.38060598656895
30
0
41
1
10
15.8535112998628
20
-4.47176046950631
30
0
41
1
10
15.9683605933305
20
-4.5198283636349
30
0
41
1
10
16.0985437391057
20
-4.55784575657387
30
0
0
SPLINE
5
170
100
AcDbEntity
8
1
62
256
6
ByLayer
370
18
48
1
60
0
100
AcDbSpline
70
4
71
3
72
8
73
4
40
0
40
0
40
0
40
0
40
1
40
1
40
1
40
1
41
1
10
82.8552019726616
20
-1.1101517137065
30
0
41
1
10
82.9234530668159
20
-1.11901706729151
30
0
41
1
10
82.9966245745283
20
-1.12955392612071
30
0
41
1
10
83.0747304061007
20
-1.1417670249497
30
0
0
SPLINE
5
171
100
AcDbEntity
8
1
62
256
6
ByLayer
370
18
48
1
60
0
100
AcDbSpline
70
4
71
3
72
16
73
12
40
0
40
0
40
0
40
0
40
0.249999999999999
40
0.249999999999999
40
0.374999999999999
40
0.374999999999999
40
0.499999999999999
40
0.499999999999999
40
0.749999999999999
40
0.749999999999999
40
1
40
1
40
1
40
1
41
1
10
11.0529941367119
20
2.25702009559859
30
0
41
1
10
10.9331181533967
20
2.37522216488728
30
0
41
1
10
10.8248408470656
20
2.49979957934914
30
0
41
1
10
10.678718419864
20
2.69576150467998
30
0
41
1
10
10.6334116972565
20
2.7617522841314
30
0
41
1
10
10.5501017910318
20
2.89307829787489
30
0
41
1
10
10.5118101260568
20
2.95880370025108
30
0
41
1
10
10.4056584499897
20
3.1569548690963
30
0
41
1
10
10.3462831516886
20
3.29103472247937
30
0
41
1
10
10.2495045125063
20
3.55819330233098
30
0
41
1
10
10.2115819297543
20
3.6921652383553
30
0
41
1
10
10.1831781607136
20
3.8281455267614
30
0
0
SPLINE
5
172
100
AcDbEntity
8
1
62
256
6
ByLayer
370
18
48
1
60
0
100
AcDbSpline
70
4
71
3
72
10
73
6
40
0
40
0
40
0
40
0
40
0.232953167894489
40
0.641663876595133
40
1
40
1
40
1
40
1
41
1
10
94.8174764485094
20
-4.53890249626906
30
0
41
1
10
94.8147952015443
20
-4.54354464073003
30
0
41
1
10
94.8082245570997
20
-4.55625180602988
30
0
41
1
10
94.8013926159657
20
-4.57571439459144
30
0
41
1
10
94.8004434264847
20
-4.5898943914668
30
0
41
1
10
94.8000000000017
20
-4.59651876549131
30
0
0
SPLINE
5
173
100
AcDbEntity
8
1
62
256
6
ByLayer
370
18
48
1
60
0
100
AcDbSpline
70
4
71
3
72
8
73
4
40
0
40
0
40
0
40
0
40
1
40
1
40
1
40
1
41
1
10
10.3046113611254
20
5.84001113848237
30
0
41
1
10
10.3298016329127
20
5.81805457325746
30
0
41
1
10
10.3549905689391
20
5.7960947053499
30
0
41
1
10
10.3801781083426
20
5.77413149218501
30
0
0
SPLINE
5
174
100
AcDbEntity
8
1
62
256
6
ByLayer
370
18
48
1
60
0
100
AcDbSpline
70
4
71
3
72
50
73
46
40
0
40
0
40
0
40
0
40
0.0472289991476163
40
0.0472289991476163
40
0.114408194178988
40
0.114408194178988
40
0.181587389210359
40
0.181587389210359
40
0.248766584241731
40
0.248766584241731
40
0.282356181757417
40
0.282356181757417
40
0.315945779273102
40
0.315945779273102
40
0.383124974304474
40
0.383124974304474
40
0.41671457182016
40
0.41671457182016
40
0.450304169335846
40
0.450304169335846
40
0.517483364367219
40
0.517483364367219
40
0.551072961882905
40
0.551072961882905
40
0.584662559398591
40
0.584662559398591
40
0.651841754429962
40
0.651841754429962
40
0.685431351945648
40
0.685431351945648
40
0.719020949461333
40
0.719020949461333
40
0.786200144492703
40
0.786200144492703
40
0.819789742008388
40
0.819789742008388
40
0.853379339524074
40
0.853379339524074
40
0.920558534555443
40
0.920558534555443
40
0.954148132071127
40
0.954148132071127
40
0.98773772958681
40
0.98773772958681
40
1
40
1
40
1
40
1
41
1
10
46.8781688620581
20
3.27569373452914
30
0
41
1
10
47.4163784751934
20
3.38497140287987
30
0
41
1
10
47.9545761808348
20
3.48657433687535
30
0
41
1
10
49.2577540231494
20
3.70993847436137
30
0
41
1
10
50.023498717901
20
3.82117185835074
30
0
41
1
10
51.5541889530829
20
3.99993364070232
30
0
41
1
10
52.3185602988347
20
4.06933878461152
30
0
41
1
10
53.8472148729534
20
4.16357510555113
30
0
41
1
10
54.6115972633455
20
4.18736962338377
30
0
41
1
10
55.7598407409784
20
4.1897255868133
30
0
41
1
10
56.1429016321187
20
4.18517590775363
30
0
41
1
10
56.9084216646143
20
4.16644988882737
30
0
41
1
10
57.2910462909192
20
4.15200105787679
30
0
41
1
10
58.4390685645741
20
4.09194637299245
30
0
41
1
10
59.2048800422302
20
4.02908103775903
30
0
41
1
10
60.3532143788919
20
3.90247760222704
30
0
41
1
10
60.7360409082045
20
3.85501940616121
30
0
41
1
10
61.5019585392967
20
3.75077748118576
30
0
41
1
10
61.8849899098154
20
3.69379254211603
30
0
41
1
10
63.0335360105018
20
3.50787001392624
30
0
41
1
10
63.7994952808666
20
3.36343911248284
30
0
41
1
10
64.9479274204098
20
3.12103326052096
30
0
41
1
10
65.3304283143415
20
3.03607350850322
30
0
41
1
10
66.0950289339655
20
2.85926238952328
30
0
41
1
10
66.4771275690567
20
2.76724875385054
30
0
41
1
10
67.6233363117783
20
2.48044163926872
30
0
41
1
10
68.387407217035
20
2.2746820356634
30
0
41
1
10
69.5355840129146
20
1.9493008341652
30
0
41
1
10
69.9187929196118
20
1.83805073286058
30
0
41
1
10
70.6848002790863
20
1.61152959440204
30
0
41
1
10
71.0677069068722
20
1.49613771997028
30
0
41
1
10
72.21653596293
20
1.14421677779842
30
0
41
1
10
72.9830892743682
20
0.901759601142999
30
0
41
1
10
74.1307772681762
20
0.533317841224175
30
0
41
1
10
74.5131348379577
20
0.409683427991212
30
0
41
1
10
75.2776231162203
20
0.161397798564195
30
0
41
1
10
75.6597518960936
20
0.0367352706678332
30
0
41
1
10
76.8063298788573
20
-0.33721030584465
30
0
41
1
10
77.571367578615
20
-0.586426660646765
30
0
41
1
10
78.7204822977632
20
-0.952715557351354
30
0
41
1
10
79.1034263090484
20
-1.07342583168526
30
0
41
1
10
79.8693490072787
20
-1.31181002260629
30
0
41
1
10
80.2523171690621
20
-1.42950115010589
30
0
41
1
10
80.7753041905168
20
-1.58737569429724
30
0
41
1
10
80.9151630390696
20
-1.62930847718155
30
0
41
1
10
81.0550193865098
20
-1.67093532344293
30
0
0
SPLINE
5
175
100
AcDbEntity
8
1
62
256
6
ByLayer
370
18
48
1
60
0
100
AcDbSpline
70
4
71
3
72
8
73
4
40
0
40
0
40
0
40
0
40
1
40
1
40
1
40
1
41
1
10
95.6
20
0.937805084816432
30
0
41
1
10
95.6
20
0.958365919411534
30
0
41
1
10
95.6013643905467
20
0.978732420195314
30
0
41
1
10
95.6042679455134
20
0.998879693655482
30
0
0
SPLINE
5
176
100
AcDbEntity
8
1
62
256
6
ByLayer
370
18
48
1
60
0
100
AcDbSpline
70
4
71
3
72
8
73
4
40
0
40
0
40
0
40
0
40
1
40
1
40
1
40
1
41
1
10
14
20
0.820648244559351
30
0
41
1
10
14.4344905510773
20
0.657154528346524
30
0
41
1
10
14.8679872631096
20
0.492028817390036
30
0
41
1
10
15.3009999999779
20
0.326659530647618
30
0
0
SPLINE
5
177
100
AcDbEntity
8
1
62
256
6
ByLayer
370
18
48
1
60
0
100
AcDbSpline
70
4
71
3
72
8
73
4
40
0
40
0
40
0
40
0
40
1
40
1
40
1
40
1
41
1
10
100.132845764821
20
1.75929234274963
30
0
41
1
10
100.2450751643
20
1.76997865693247
30
0
41
1
10
100.357059076495
20
1.7824411109506
30
0
41
1
10
100.468652728244
20
1.79772716181918
30
0
0
SPLINE
5
178
100
AcDbEntity
8
1
62
256
6
ByLayer
370
18
48
1
60
0
100
AcDbSpline
70
4
71
3
72
8
73
4
40
0
40
0
40
0
40
0
40
1
40
1
40
1
40
1
41
1
10
96.5778987796378
20
0.586459848123326
30
0
41
1
10
96.5369978953216
20
0.533328485859641
30
0
41
1
10
96.4954799667041
20
0.481863086157801
30
0
41
1
10
96.453317665411
20
0.432137433101019
30
0
0
SPLINE
5
179
100
AcDbEntity
8
1
62
256
6
ByLayer
370
13
48
1
60
0
100
AcDbSpline
70
4
71
3
72
16
73
12
40
0
40
0
40
0
40
0
40
0.395083770010393
40
0.395083770010393
40
0.592625655015591
40
0.592625655015591
40
0.790167540020788
40
0.790167540020788
40
0.987709425025986
40
0.987709425025986
40
1
40
1
40
1
40
1
41
1
10
99.6944055126203
20
-1.28190708591703
30
0
41
1
10
99.5489853831357
20
-1.18652253564648
30
0
41
1
10
99.3582438533249
20
-1.040698725949
30
0
41
1
10
99.1470928171746
20
-0.849648193296673
30
0
41
1
10
99.051624396338
20
-0.755946189226222
30
0
41
1
10
98.9131509515295
20
-0.607356373267123
30
0
41
1
10
98.8176737459034
20
-0.495567790979493
30
0
41
1
10
98.6828483775844
20
-0.321265389147271
30
0
41
1
10
98.589917457011
20
-0.188618150585569
30
0
41
1
10
98.5231040022128
20
-0.0819137553575331
30
0
41
1
10
98.5190943270843
20
-0.0754440454924179
30
0
41
1
10
98.5150019339022
20
-0.0687781523305091
30
0
0
SPLINE
5
17A
100
AcDbEntity
8
1
62
256
6
ByLayer
370
18
48
1
60
0
100
AcDbSpline
70
4
71
3
72
8
73
4
40
0
40
0
40
0
40
0
40
1
40
1
40
1
40
1
41
1
10
100.991108125086
20
-0.037012383641212
30
0
41
1
10
100.980136947533
20
-0.0729740724090391
30
0
41
1
10
100.969251744052
20
-0.108760671340377
30
0
41
1
10
100.958451512734
20
-0.144374220859675
30
0
0
SPLINE
5
17B
100
AcDbEntity
8
1
62
256
6
ByLayer
370
18
48
1
60
0
100
AcDbSpline
70
4
71
3
72
12
73
8
40
0
40
0
40
0
40
0
40
0.249999999999997
40
0.249999999999997
40
0.499999999999993
40
0.499999999999993
40
1
40
1
40
1
40
1
41
1
10
94.7033951920989
20
3.86529687928513
30
0
41
1
10
94.2353614613462
20
3.85993951240374
30
0
41
1
10
93.7678912204213
20
3.84951445119339
30
0
41
1
10
92.8336702326744
20
3.81434036313752
30
0
41
1
10
92.3670584607075
20
3.78956984697231
30
0
41
1
10
90.9694052196528
20
3.68908756173079
30
0
41
1
10
90.0398776073823
20
3.58548102234508
30
0
41
1
10
89.1093224947616
20
3.4486617699917
30
0
0
SPLINE
5
17C
100
AcDbEntity
8
1
62
256
6
ByLayer
370
18
48
1
60
0
100
AcDbSpline
70
4
71
3
72
8
73
4
40
0
40
0
40
0
40
0
40
1
40
1
40
1
40
1
41
1
10
99.56940445027
20
1.71980365354
30
0
41
1
10
99.5593547045249
20
1.71929817921938
30
0
41
1
10
99.5496768846989
20
1.71579480987066
30
0
41
1
10
99.5413547287045
20
1.71011479985992
30
0
0
SPLINE
5
17D
100
AcDbEntity
8
1
62
256
6
ByLayer
370
18
48
1
60
0
100
AcDbSpline
70
4
71
3
72
8
73
4
40
0
40
0
40
0
40
0
40
1
40
1
40
1
40
1
41
1
10
94.6
20
2.59999999999999
30
0
41
1
10
94.6666514972953
20
2.59999999999999
30
0
41
1
10
94.7333185051955
20
2.59999999999999
30
0
41
1
10
94.8
20
2.59999999999999
30
0
0
SPLINE
5
17E
100
AcDbEntity
8
1
62
256
6
ByLayer
370
18
48
1
60
0
100
AcDbSpline
70
4
71
3
72
16
73
12
40
0
40
0
40
0
40
0
40
0.249999999999999
40
0.249999999999999
40
0.374999999999999
40
0.374999999999999
40
0.499999999999999
40
0.499999999999999
40
0.75
40
0.75
40
1
40
1
40
1
40
1
41
1
10
16.1269328411464
20
-4.75902875845244
30
0
41
1
10
15.992305447284
20
-4.72041467703011
30
0
41
1
10
15.8737383773988
20
-4.67193765173485
30
0
41
1
10
15.7190801333988
20
-4.58063491085184
30
0
41
1
10
15.6714164174684
20
-4.547094569287
30
0
41
1
10
15.5839971816387
20
-4.47300692438051
30
0
41
1
10
15.5440239661713
20
-4.43216215938676
30
0
41
1
10
15.4382747769164
20
-4.30009728528111
30
0
41
1
10
15.3865939858835
20
-4.19996627035965
30
0
41
1
10
15.317869131016
20
-3.97354754459732
30
0
41
1
10
15.3010000006781
20
-3.84616702356047
30
0
41
1
10
15.3010000006818
20
-3.70819310878366
30
0
0
SPLINE
5
17F
100
AcDbEntity
8
1
62
256
6
ByLayer
370
18
48
1
60
0
100
AcDbSpline
70
4
71
3
72
8
73
4
40
0
40
0
40
0
40
0
40
1
40
1
40
1
40
1
41
1
10
10.3046113611254
20
3.3170509084652
30
0
41
1
10
10.326909329266
20
3.25055846453444
30
0
41
1
10
10.3519927933405
20
3.18396004316392
30
0
41
1
10
10.3801781083426
20
3.11733689258909
30
0
0
SPLINE
5
180
100
AcDbEntity
8
1
62
256
6
ByLayer
370
18
48
1
60
0
100
AcDbSpline
70
4
71
3
72
10
73
6
40
0
40
0
40
0
40
0
40
0.282524144948865
40
0.282524144948865
40
1
40
1
40
1
40
1
41
1
10
96.5740678315493
20
4.999998321032
30
0
41
1
10
96.839177996609
20
4.99999467706868
30
0
41
1
10
97.1042015382901
20
4.9958376149516
30
0
41
1
10
98.0423687713828
20
4.96639829259186
30
0
41
1
10
98.7159405042285
20
4.91861965413545
30
0
41
1
10
99.3890854025558
20
4.84466312512026
30
0
0
SPLINE
5
181
100
AcDbEntity
8
1
62
256
6
ByLayer
370
18
48
1
60
0
100
AcDbSpline
70
4
71
3
72
10
73
6
40
0
40
0
40
0
40
0
40
0.5
40
0.5
40
1
40
1
40
1
40
1
41
1
10
14
20
4.84666519311133
30
0
41
1
10
13.8358245342796
20
4.82390457215365
30
0
41
1
10
13.6703967312578
20
4.80284218662729
30
0
41
1
10
13.3370702221861
20
4.76535350682053
30
0
41
1
10
13.1691711413959
20
4.74892302551029
30
0
41
1
10
13
20
4.73485404029026
30
0
0
SPLINE
5
182
100
AcDbEntity
8
1
62
256
6
ByLayer
370
18
48
1
60
0
100
AcDbSpline
70
4
71
3
72
12
73
8
40
0
40
0
40
0
40
0
40
0.499999999999994
40
0.499999999999994
40
0.749999999999997
40
0.749999999999997
40
1
40
1
40
1
40
1
41
1
10
12.2334383231762
20
1.532870350895
30
0
41
1
10
12.0092455567697
20
1.60583507512808
30
0
41
1
10
11.7981345560842
20
1.70384520391173
30
0
41
1
10
11.5003842368816
20
1.88679378878692
30
0
41
1
10
11.4037090901766
20
1.95435129455231
30
0
41
1
10
11.2207974763924
20
2.09885847741421
30
0
41
1
10
11.134439755867
20
2.1757435655694
30
0
41
1
10
11.0529941367119
20
2.25702009559871
30
0
0
SPLINE
5
183
100
AcDbEntity
8
1
62
256
6
ByLayer
370
18
48
1
60
0
100
AcDbSpline
70
4
71
3
72
8
73
4
40
0
40
0
40
0
40
0
40
1
40
1
40
1
40
1
41
1
10
15.3009999999995
20
0.398652126073358
30
0
41
1
10
15.3009999999994
20
0.375013807467582
30
0
41
1
10
15.3009999999994
20
0.351016163091828
30
0
41
1
10
15.3009999999993
20
0.326659530640541
30
0
0
SPLINE
5
184
100
AcDbEntity
8
1
62
256
6
ByLayer
370
18
48
1
60
0
100
AcDbSpline
70
2053
71
3
72
39
73
35
40
0
40
0
40
0
40
0
40
0.0302687200067422
40
0.062441090535784
40
0.0935859141436228
40
0.124929550981305
40
0.156189878636898
40
0.187441562414896
40
0.219501099309408
40
0.249900529874992
40
0.280271836621125
40
0.312374534865289
40
0.343615589599136
40
0.374934325332826
40
0.406136743546561
40
0.437484801600024
40
0.469676322816809
40
0.499923832398105
40
0.530163541465658
40
0.562385793202937
40
0.59372294923284
40
0.624934267434531
40
0.656230352360705
40
0.687553676870894
40
0.719665936453333
40
0.750024639656083
40
0.780381195943451
40
0.812418732064368
40
0.843697442240217
40
0.874893811489275
40
0.906249457830749
40
0.937448249853173
40
0.969695957922439
40
1
40
1
40
1
40
1
41
1
10
92.745
20
-2.3249472627799
30
0
41
1
10
92.6582390525715
20
-2.3249468849201
30
0
41
1
10
92.4792609442892
20
-2.34126530962425
30
0
41
1
10
92.222016005592
20
-2.41317628378812
30
0
41
1
10
91.9839694150065
20
-2.52925951698859
30
0
41
1
10
91.7778963817683
20
-2.67843402611248
30
0
41
1
10
91.6083042600971
20
-2.85337825389519
30
0
41
1
10
91.4804874612395
20
-3.04616987365651
30
0
41
1
10
91.4024439651984
20
-3.24381258412851
30
0
41
1
10
91.3766000178976
20
-3.43668673830038
30
0
41
1
10
91.4020954339271
20
-3.61765113041099
30
0
41
1
10
91.4798122301511
20
-3.78184374400001
30
0
41
1
10
91.6074706336952
20
-3.92328917109953
30
0
41
1
10
91.7766893528395
20
-4.03782211125161
30
0
41
1
10
91.9827896939981
20
-4.1263835222218
30
0
41
1
10
92.2209145980064
20
-4.18966106878315
30
0
41
1
10
92.4786811671995
20
-4.22694215378803
30
0
41
1
10
92.7443155018497
20
-4.2385853347177
30
0
41
1
10
93.0100662062907
20
-4.22704645306811
30
0
41
1
10
93.2679457011474
20
-4.18989641163896
30
0
41
1
10
93.5062552655443
20
-4.12670636824825
30
0
41
1
10
93.7124484354741
20
-4.03828255006763
30
0
41
1
10
93.8819710866063
20
-3.92378633701023
30
0
41
1
10
94.0098954035504
20
-3.78232566566999
30
0
41
1
10
94.0877863237063
20
-3.61804094879994
30
0
41
1
10
94.1133848122479
20
-3.43720497362716
30
0
41
1
10
94.0877257417553
20
-3.24450114221054
30
0
41
1
10
94.0099228151884
20
-3.04695259180261
30
0
41
1
10
93.8823694047446
20
-2.8542252653335
30
0
41
1
10
93.7130123052908
20
-2.67923817234743
30
0
41
1
10
93.5071164253886
20
-2.52989446285278
30
0
41
1
10
93.268825837714
20
-2.41346148810283
30
0
41
1
10
93.0111581481289
20
-2.34131562486084
30
0
41
1
10
92.8318621930817
20
-2.32494764108065
30
0
41
1
10
92.745
20
-2.3249472627799
30
0
0
SPLINE
5
185
100
AcDbEntity
8
1
62
256
6
ByLayer
370
18
48
1
60
0
100
AcDbSpline
70
4
71
2
72
7
73
4
40
0
40
0
40
0
40
0.48390267151465
40
1
40
1
40
1
41
1
10
97.4215119110197
20
-2.29263673367012
30
0
41
1
10
97.4852826383936
20
-2.61338345095916
30
0
41
1
10
97.6529041028632
20
-3.21636806810966
30
0
41
1
10
97.756225187926
20
-3.4834139111492
30
0
0
SPLINE
5
186
100
AcDbEntity
8
1
62
256
6
ByLayer
370
18
48
1
60
0
100
AcDbSpline
70
4
71
3
72
8
73
4
40
0
40
0
40
0
40
0
40
1
40
1
40
1
40
1
41
1
10
95.3627764116876
20
1.1289761408128
30
0
41
1
10
95.4422713612467
20
1.08450994290902
30
0
41
1
10
95.5227961520776
20
1.04120654140857
30
0
41
1
10
95.6042679455135
20
0.998879693655482
30
0
0
SPLINE
5
187
100
AcDbEntity
8
1
62
256
6
ByLayer
370
18
48
1
60
0
100
AcDbSpline
70
4
71
3
72
8
73
4
40
0
40
0
40
0
40
0
40
1
40
1
40
1
40
1
41
1
10
95.0747364049838
20
-4.85667860778912
30
0
41
1
10
95.5720702789458
20
-4.88548298032686
30
0
41
1
10
96.0697539401694
20
-4.89992281801648
30
0
41
1
10
96.5673063516702
20
-4.90002283726534
30
0
0
SPLINE
5
188
100
AcDbEntity
8
1
62
256
6
ByLayer
370
18
48
1
60
0
100
AcDbSpline
70
4
71
3
72
8
73
4
40
0
40
0
40
0
40
0
40
1
40
1
40
1
40
1
41
1
10
94.8
20
4.78756981197716
30
0
41
1
10
94.9836457568947
20
4.8598245674479
30
0
41
1
10
95.1667917171964
20
4.93021967809898
30
0
41
1
10
95.3494954838909
20
4.99859764389319
30
0
0
SPLINE
5
189
100
AcDbEntity
8
1
62
256
6
ByLayer
370
18
48
1
60
0
100
AcDbSpline
70
4
71
3
72
8
73
4
40
0
40
0
40
0
40
0
40
1
40
1
40
1
40
1
41
1
10
95.0747364049838
20
-4.73303256310328
30
0
41
1
10
95.0747364049838
20
-4.78753469227601
30
0
41
1
10
95.0747364049838
20
-4.82874684202622
30
0
41
1
10
95.0747364049838
20
-4.85667860778904
30
0
0
SPLINE
5
18A
100
AcDbEntity
8
1
62
256
6
ByLayer
370
18
48
1
60
0
100
AcDbSpline
70
4
71
3
72
8
73
4
40
0
40
0
40
0
40
0
40
1
40
1
40
1
40
1
41
1
10
83.0747304049826
20
-1.14176702909555
30
0
41
1
10
83.1412353688344
20
-1.15799586042155
30
0
41
1
10
83.2077368071286
20
-1.17421243456999
30
0
41
1
10
83.274234313201
20
-1.19041684554259
30
0
0
SPLINE
5
18B
100
AcDbEntity
8
1
62
256
6
ByLayer
370
18
48
1
60
0
100
AcDbSpline
70
4
71
3
72
9
73
5
40
0
40
0
40
0
40
0
40
0.581805628458586
40
1
40
1
40
1
40
1
41
1
10
97.3558258388012
20
0.569052834822514
30
0
41
1
10
97.1000815311795
20
0.606826845787936
30
0
41
1
10
96.660511518254
20
0.671752327972598
30
0
41
1
10
96.2209613998031
20
0.736808252464101
30
0
41
1
10
96.0371450597201
20
0.764021128723215
30
0
0
SPLINE
5
18C
100
AcDbEntity
8
1
62
256
6
ByLayer
370
13
48
1
60
0
100
AcDbSpline
70
4
71
3
72
8
73
4
40
0
40
0
40
0
40
0
40
1
40
1
40
1
40
1
41
1
10
100.494851579847
20
0.519959598094374
30
0
41
1
10
100.478147304674
20
0.512474128797152
30
0
41
1
10
100.460782723796
20
0.498111415087863
30
0
41
1
10
100.446640787034
20
0.480083149594719
30
0
0
SPLINE
5
18D
100
AcDbEntity
8
1
62
256
6
ByLayer
370
18
48
1
60
0
100
AcDbSpline
70
4
71
2
72
11
73
8
40
0
40
0
40
0
40
0.25
40
0.25
40
0.5
40
0.75
40
0.75
40
1
40
1
40
1
41
1
10
94.8
20
1.46302384591317
30
0
41
1
10
94.8
20
1.65882559371232
30
0
41
1
10
94.8
20
1.92473807793164
30
0
41
1
10
94.8
20
2.1972022538805
30
0
41
1
10
94.8
20
2.85630104429004
30
0
41
1
10
94.8
20
3.22262300716463
30
0
41
1
10
94.8
20
3.57879496393665
30
0
41
1
10
94.8
20
3.95513195092505
30
0
0
SPLINE
5
18E
100
AcDbEntity
8
1
62
256
6
ByLayer
370
18
48
1
60
0
100
AcDbSpline
70
4
71
3
72
18
73
14
40
0
40
0
40
0
40
0
40
0.234274523095126
40
0.234274523095126
40
0.468549046190251
40
0.468549046190251
40
0.702823569285377
40
0.702823569285377
40
0.81996083083294
40
0.81996083083294
40
0.937098092380502
40
0.937098092380502
40
1
40
1
40
1
40
1
41
1
10
86.6695847806399
20
3.45960321221912
30
0
41
1
10
85.9248153601771
20
3.6443532762444
30
0
41
1
10
85.181931224297
20
3.80995977967569
30
0
41
1
10
83.6970556545372
20
4.10080118847515
30
0
41
1
10
82.9549098140485
20
4.22586964532829
30
0
41
1
10
81.4710230999139
20
4.43513893284455
30
0
41
1
10
80.7295764938336
20
4.5195210692554
30
0
41
1
10
79.614307757538
20
4.61125225678549
30
0
41
1
10
79.2418041924613
20
4.63608764726729
30
0
41
1
10
78.4969432859772
20
4.67372033212712
30
0
41
1
10
78.1249181067374
20
4.68652460733361
30
0
41
1
10
77.5535302898065
20
4.69692790873282
30
0
41
1
10
77.3539767996959
20
4.6988301551041
30
0
41
1
10
77.1544704755671
20
4.69902271764397
30
0
0
SPLINE
5
18F
100
AcDbEntity
8
1
62
256
6
ByLayer
370
18
48
1
60
0
100
AcDbSpline
70
4
71
3
72
40
73
36
40
0
40
0
40
0
40
0
40
0.0613040722638547
40
0.0613040722638547
40
0.133511451320482
40
0.133511451320482
40
0.169615140848795
40
0.169615140848795
40
0.205718830377108
40
0.205718830377108
40
0.277926209433735
40
0.277926209433735
40
0.350133588490362
40
0.350133588490362
40
0.422340967546989
40
0.422340967546989
40
0.494548346603616
40
0.494548346603616
40
0.530652036131929
40
0.530652036131929
40
0.566755725660241
40
0.566755725660241
40
0.638963104716867
40
0.638963104716867
40
0.711170483773493
40
0.711170483773493
40
0.747274173301806
40
0.747274173301806
40
0.78337786283012
40
0.78337786283012
40
0.855585241886746
40
0.855585241886746
40
0.927792620943373
40
0.927792620943373
40
1
40
1
40
1
40
1
41
1
10
46.1866180973175
20
-3.46162004029233
30
0
41
1
10
45.555207242053
20
-3.6166279916817
30
0
41
1
10
44.9244315233234
20
-3.75946807837931
30
0
41
1
10
43.5512794068149
20
-4.04195863571027
30
0
41
1
10
42.8087178897563
20
-4.17571149145977
30
0
41
1
10
41.6922439827116
20
-4.34280613793331
30
0
41
1
10
41.3195174708539
20
-4.39297904804297
30
0
41
1
10
40.5752790920477
20
-4.4818622204356
30
0
41
1
10
40.2034772686483
20
-4.52062645972549
30
0
41
1
10
39.0886189130459
20
-4.61994336682329
30
0
41
1
10
38.3459563159689
20
-4.66319722101346
30
0
41
1
10
36.8592494767968
20
-4.70399579672534
30
0
41
1
10
36.1152058222988
20
-4.70177681146725
30
0
41
1
10
34.6247191674835
20
-4.65050371731067
30
0
41
1
10
33.8818191919153
20
-4.60110731667504
30
0
41
1
10
32.3968802525069
20
-4.45516749175869
30
0
41
1
10
31.6547336591567
20
-4.35899220011046
30
0
41
1
10
30.5400664728257
20
-4.18337924067117
30
0
41
1
10
30.1683025177203
20
-4.11955888024605
30
0
41
1
10
29.4239181730461
20
-3.98188976852651
30
0
41
1
10
29.0510271195785
20
-3.90797378191772
30
0
41
1
10
27.9338520332192
20
-3.67280674854308
30
0
41
1
10
27.1904264545352
20
-3.49829216685785
30
0
41
1
10
25.7052340016025
20
-3.11545415130263
30
0
41
1
10
24.9637016237754
20
-2.90636866998389
30
0
41
1
10
23.8500540985764
20
-2.57122503551486
30
0
41
1
10
23.4786018895078
20
-2.45599024662343
30
0
41
1
10
22.7347941077713
20
-2.21966629847012
30
0
41
1
10
22.3621178670285
20
-2.09844799274293
30
0
41
1
10
21.2451617581509
20
-1.72814424400934
30
0
41
1
10
20.5022672634779
20
-1.47219132856773
30
0
41
1
10
19.017044752013
20
-0.95010349874488
30
0
41
1
10
18.2746596953821
20
-0.684170049133485
30
0
41
1
10
16.7888912827578
20
-0.146468594548338
30
0
41
1
10
16.0458186828617
20
0.126192169486728
30
0
41
1
10
15.3009999999994
20
0.398652624563084
30
0
0
SPLINE
5
190
100
AcDbEntity
8
1
62
256
6
ByLayer
370
18
48
1
60
0
100
AcDbSpline
70
4
71
3
72
8
73
4
40
0
40
0
40
0
40
0
40
1
40
1
40
1
40
1
41
1
10
16.0985437391057
20
-4.55784575657387
30
0
41
1
10
16.1076729778303
20
-4.6249089337156
30
0
41
1
10
16.1171202753918
20
-4.69197033036889
30
0
41
1
10
16.1269328411462
20
-4.75902875843732
30
0
0
LINE
5
70
100
AcDbEntity
8
81
62
256
6
ByLayer
370
18
48
1
60
0
100
AcDbLine
10
94.8
20
0
30
0
11
99.8
21
0
31
0
39
0
210
0
220
0
230
1
0
LINE
5
71
100
AcDbEntity
8
1
62
256
6
ByLayer
370
18
48
1
60
0
100
AcDbLine
10
0.2
20
10
30
0
11
0
21
9.8
31
0
39
0
210
0
220
0
230
1
0
LINE
5
73
100
AcDbEntity
8
1
62
256
6
ByLayer
370
18
48
1
60
0
100
AcDbLine
10
0
20
-9.8
30
0
11
0.2
21
-10
31
0
39
0
210
0
220
0
230
1
0
LINE
5
74
100
AcDbEntity
8
1
62
256
6
ByLayer
370
18
48
1
60
0
100
AcDbLine
10
4.0004
20
10
30
0
11
0.2
21
10
31
0
39
0
210
0
220
0
230
1
0
LINE
5
75
100
AcDbEntity
8
1
62
256
6
ByLayer
370
18
48
1
60
0
100
AcDbLine
10
0.2
20
-10
30
0
11
4.0004
21
-10
31
0
39
0
210
0
220
0
230
1
0
LINE
5
76
100
AcDbEntity
8
SK1
62
256
6
ByLayer
370
18
48
1
60
0
100
AcDbLine
10
-46.6
20
7.99725
30
0
11
-47
21
7.99725
31
0
39
0
210
0
220
0
230
1
0
LINE
5
78
100
AcDbEntity
8
SK1
62
256
6
ByLayer
370
18
48
1
60
0
100
AcDbLine
10
-47
20
-7.99725
30
0
11
-46.6
21
-7.99725
31
0
39
0
210
0
220
0
230
1
0
LINE
5
79
100
AcDbEntity
8
SK1
62
256
6
ByLayer
370
18
48
1
60
0
100
AcDbLine
10
-1.6
20
7.99725
30
0
11
-45.4
21
7.99725
31
0
39
0
210
0
220
0
230
1
0
LINE
5
7A
100
AcDbEntity
8
SK1
62
256
6
ByLayer
370
18
48
1
60
0
100
AcDbLine
10
-45.4
20
-7.99725
30
0
11
-1.6
21
-7.99725
31
0
39
0
210
0
220
0
230
1
0
LINE
5
7B
100
AcDbEntity
8
SK1
62
256
6
ByLayer
370
18
48
1
60
0
100
AcDbLine
10
-1.6
20
-7.99725
30
0
11
-1.144243
21
-7.784727
31
0
39
0
210
0
220
0
230
1
0
LINE
5
7C
100
AcDbEntity
8
SK1
62
256
6
ByLayer
370
18
48
1
60
0
100
AcDbLine
10
-1.144243
20
7.784727
30
0
11
-1.6
21
7.99725
31
0
39
0
210
0
220
0
230
1
0
LINE
5
7D
100
AcDbEntity
8
SK1
62
256
6
ByLayer
370
18
48
1
60
0
100
AcDbLine
10
-46.6
20
-7.99725
30
0
11
-46.573182
21
-7.975533
31
0
39
0
210
0
220
0
230
1
0
LINE
5
7E
100
AcDbEntity
8
SK1
62
256
6
ByLayer
370
18
48
1
60
0
100
AcDbLine
10
-46.573182
20
7.975533
30
0
11
-46.6
21
7.99725
31
0
39
0
210
0
220
0
230
1
0
LINE
5
7F
100
AcDbEntity
8
SK1
62
256
6
ByLayer
370
18
48
1
60
0
100
AcDbLine
10
-47
20
7.99725
30
0
11
-48
21
6.99725
31
0
39
0
210
0
220
0
230
1
0
LINE
5
80
100
AcDbEntity
8
SK1
62
256
6
ByLayer
370
18
48
1
60
0
100
AcDbLine
10
-48
20
-6.99725
30
0
11
-47
21
-7.99725
31
0
39
0
210
0
220
0
230
1
0
LINE
5
81
100
AcDbEntity
8
SK1
62
256
6
ByLayer
370
18
48
1
60
0
100
AcDbLine
10
-45.4
20
7.99725
30
0
11
-45.783316
21
7.850276
31
0
39
0
210
0
220
0
230
1
0
LINE
5
82
100
AcDbEntity
8
SK1
62
256
6
ByLayer
370
18
48
1
60
0
100
AcDbLine
10
-45.783316
20
-7.850276
30
0
11
-45.4
21
-7.99725
31
0
39
0
210
0
220
0
230
1
0
LINE
5
83
100
AcDbEntity
8
SK1
62
256
6
ByLayer
370
18
48
1
60
0
100
AcDbLine
10
-0.975195
20
-7.74725
30
0
11
-0.15
21
-7.74725
31
0
39
0
210
0
220
0
230
1
0
LINE
5
84
100
AcDbEntity
8
SK1
62
256
6
ByLayer
370
18
48
1
60
0
100
AcDbLine
10
-0.15
20
7.74725
30
0
11
-0.975195
21
7.74725
31
0
39
0
210
0
220
0
230
1
0
LINE
5
85
100
AcDbEntity
8
1
62
256
6
ByLayer
370
18
48
1
60
0
100
AcDbLine
10
15.908931
20
-4.9
30
0
11
19.215083
21
-4.9
31
0
39
0
210
0
220
0
230
1
0
LINE
5
86
100
AcDbEntity
8
1
62
256
6
ByLayer
370
18
48
1
60
0
100
AcDbLine
10
59.683947
20
4.9
30
0
11
56.384318
21
4.9
31
0
39
0
210
0
220
0
230
1
0
LINE
5
87
100
AcDbEntity
8
1
62
256
6
ByLayer
370
18
48
1
60
0
100
AcDbLine
10
56.384318
20
-4.9
30
0
11
59.683947
21
-4.9
31
0
39
0
210
0
220
0
230
1
0
LINE
5
88
100
AcDbEntity
8
1
62
256
6
ByLayer
370
18
48
1
60
0
100
AcDbLine
10
19.215083
20
4.9
30
0
11
15.908931
21
4.9
31
0
39
0
210
0
220
0
230
1
0
LINE
5
89
100
AcDbEntity
8
1
62
256
6
ByLayer
370
18
48
1
60
0
100
AcDbLine
10
96.574048
20
5
30
0
11
95.615828
21
5
31
0
39
0
210
0
220
0
230
1
0
LINE
5
8A
100
AcDbEntity
8
1
62
256
6
ByLayer
370
18
48
1
60
0
100
AcDbLine
10
95.615828
20
-5
30
0
11
96.574048
21
-5
31
0
39
0
210
0
220
0
230
1
0
LINE
5
8B
100
AcDbEntity
8
80
62
256
6
ByLayer
370
18
48
1
60
0
100
AcDbLine
10
0
20
0
30
0
11
-5
21
0
31
0
39
0
210
0
220
0
230
1
0
LINE
5
8C
100
AcDbEntity
8
4
62
256
6
ByLayer
370
18
48
0.05
60
0
100
AcDbLine
10
94.8
20
0
30
0
11
0
21
0
31
0
39
0
210
0
220
0
230
1
0
LINE
5
8E
100
AcDbEntity
8
SK4
62
256
6
ByLayer
370
18
48
0.05
60
0
100
AcDbLine
10
106
20
0
30
0
11
-53
21
0
31
0
39
0
210
0
220
0
230
1
0
LINE
5
90
100
AcDbEntity
8
SK1
62
256
6
ByLayer
370
13
48
1
60
0
100
AcDbLine
10
-0.975195
20
7.74725
30
0
11
-0.975195
21
-7.74725
31
0
39
0
210
0
220
0
230
1
0
LINE
5
91
100
AcDbEntity
8
SK1
62
256
6
ByLayer
370
13
48
1
60
0
100
AcDbLine
10
-46.573182
20
-7.975533
30
0
11
-46.573182
21
0
31
0
39
0
210
0
220
0
230
1
0
LINE
5
92
100
AcDbEntity
8
SK1
62
256
6
ByLayer
370
13
48
1
60
0
100
AcDbLine
10
-46.573182
20
0
30
0
11
-46.573182
21
7.975533
31
0
39
0
210
0
220
0
230
1
0
LINE
5
93
100
AcDbEntity
8
SK1
62
256
6
ByLayer
370
13
48
1
60
0
100
AcDbLine
10
-1.144243
20
0
30
0
11
-1.144243
21
-7.784727
31
0
39
0
210
0
220
0
230
1
0
LINE
5
94
100
AcDbEntity
8
SK1
62
256
6
ByLayer
370
13
48
1
60
0
100
AcDbLine
10
-1.144243
20
7.784727
30
0
11
-1.144243
21
0
31
0
39
0
210
0
220
0
230
1
0
LINE
5
95
100
AcDbEntity
8
SK1
62
256
6
ByLayer
370
13
48
1
60
0
100
AcDbLine
10
-45.783316
20
-7.850276
30
0
11
-45.783316
21
0
31
0
39
0
210
0
220
0
230
1
0
LINE
5
96
100
AcDbEntity
8
SK1
62
256
6
ByLayer
370
13
48
1
60
0
100
AcDbLine
10
-45.783316
20
0
30
0
11
-45.783316
21
7.850276
31
0
39
0
210
0
220
0
230
1
0
LINE
5
97
100
AcDbEntity
8
SK1
62
256
6
ByLayer
370
18
48
1
60
0
100
AcDbLine
10
-45.4
20
0
30
0
11
-45.4
21
-7.99725
31
0
39
0
210
0
220
0
230
1
0
LINE
5
98
100
AcDbEntity
8
SK1
62
256
6
ByLayer
370
18
48
1
60
0
100
AcDbLine
10
-45.4
20
7.99725
30
0
11
-45.4
21
0
31
0
39
0
210
0
220
0
230
1
0
LINE
5
99
100
AcDbEntity
8
SK1
62
256
6
ByLayer
370
13
48
1
60
0
100
AcDbLine
10
-0.15
20
0
30
0
11
-0.15
21
-7.74725
31
0
39
0
210
0
220
0
230
1
0
LINE
5
9A
100
AcDbEntity
8
SK1
62
256
6
ByLayer
370
13
48
1
60
0
100
AcDbLine
10
-0.15
20
7.74725
30
0
11
-0.15
21
0
31
0
39
0
210
0
220
0
230
1
0
LINE
5
9B
100
AcDbEntity
8
SK1
62
256
6
ByLayer
370
18
48
1
60
0
100
AcDbLine
10
-1.6
20
-7.99725
30
0
11
-1.6
21
0
31
0
39
0
210
0
220
0
230
1
0
LINE
5
9C
100
AcDbEntity
8
SK1
62
256
6
ByLayer
370
18
48
1
60
0
100
AcDbLine
10
-1.6
20
0
30
0
11
-1.6
21
7.99725
31
0
39
0
210
0
220
0
230
1
0
LINE
5
9D
100
AcDbEntity
8
SK1
62
256
6
ByLayer
370
13
48
1
60
0
100
AcDbLine
10
-6.5
20
-5.226875
30
0
11
-6.5
21
5.226875
31
0
39
0
210
0
220
0
230
1
0
LINE
5
9E
100
AcDbEntity
8
SK1
62
256
6
ByLayer
370
18
48
1
60
0
100
AcDbLine
10
-46.6
20
-7.99725
30
0
11
-46.6
21
7.99725
31
0
39
0
210
0
220
0
230
1
0
LINE
5
9F
100
AcDbEntity
8
SK1
62
256
6
ByLayer
370
18
48
1
60
0
100
AcDbLine
10
-48
20
0
30
0
11
-48
21
-6.99725
31
0
39
0
210
0
220
0
230
1
0
LINE
5
A0
100
AcDbEntity
8
SK1
62
256
6
ByLayer
370
18
48
1
60
0
100
AcDbLine
10
-48
20
6.99725
30
0
11
-48
21
0
31
0
39
0
210
0
220
0
230
1
0
LINE
5
A1
100
AcDbEntity
8
SK1
62
256
6
ByLayer
370
18
48
1
60
0
100
AcDbLine
10
-47
20
0
30
0
11
-47
21
-7.99725
31
0
39
0
210
0
220
0
230
1
0
LINE
5
A2
100
AcDbEntity
8
SK1
62
256
6
ByLayer
370
18
48
1
60
0
100
AcDbLine
10
-47
20
7.99725
30
0
11
-47
21
0
31
0
39
0
210
0
220
0
230
1
0
LINE
5
A3
100
AcDbEntity
8
SK1
62
256
6
ByLayer
370
18
48
1
60
0
100
AcDbLine
10
-6.5
20
5.226875
30
0
11
-41.5
21
5.226875
31
0
39
0
210
0
220
0
230
1
0
LINE
5
A4
100
AcDbEntity
8
SK1
62
256
6
ByLayer
370
18
48
1
60
0
100
AcDbLine
10
-41.5
20
-5.226875
30
0
11
-6.5
21
-5.226875
31
0
39
0
210
0
220
0
230
1
0
LINE
5
A5
100
AcDbEntity
8
SK1
62
256
6
ByLayer
370
13
48
1
60
0
100
AcDbLine
10
-41.5
20
5.226875
30
0
11
-41.5
21
-5.226875
31
0
39
0
210
0
220
0
230
1
0
LINE
5
A6
100
AcDbEntity
8
1
62
256
6
ByLayer
370
18
48
1
60
0
100
AcDbLine
10
101
20
0
30
0
11
100.991108
21
-0.037012
31
0
39
0
210
0
220
0
230
1
0
LINE
5
A7
100
AcDbEntity
8
1
62
256
6
ByLayer
370
13
48
1
60
0
100
AcDbLine
10
10.380178
20
3.117337
30
0
11
10.380178
21
-5.774131
31
0
39
0
210
0
220
0
230
1
0
LINE
5
A8
100
AcDbEntity
8
1
62
256
6
ByLayer
370
18
48
1
60
0
100
AcDbLine
10
94.705
20
-4.814137
30
0
11
94.705
21
-4.687401
31
0
39
0
210
0
220
0
230
1
0
LINE
5
A9
100
AcDbEntity
8
1
62
256
6
ByLayer
370
13
48
1
60
0
100
AcDbLine
10
96.953745
20
-1.3889
30
0
11
94.663724
21
-1.301661
31
0
39
0
210
0
220
0
230
1
0
LINE
5
AA
100
AcDbEntity
8
1
62
256
6
ByLayer
370
13
48
1
60
0
100
AcDbLine
10
100.137771
20
-1.572721
30
0
11
99.694406
21
-1.281907
31
0
39
0
210
0
220
0
230
1
0
LINE
5
AB
100
AcDbEntity
8
1
62
256
6
ByLayer
370
13
48
1
60
0
100
AcDbLine
10
94.6
20
1.6
30
0
11
94.80718
21
1.6
31
0
39
0
210
0
220
0
230
1
0
LINE
5
AC
100
AcDbEntity
8
1
62
256
6
ByLayer
370
18
48
1
60
0
100
AcDbLine
10
15.301
20
-3.708193
30
0
11
15.301
21
0.32666
31
0
39
0
210
0
220
0
230
1
0
LINE
5
AD
100
AcDbEntity
8
1
62
256
6
ByLayer
370
18
48
1
60
0
100
AcDbLine
10
99.660494
20
-1.967476
30
0
11
100.137771
21
-1.572721
31
0
39
0
210
0
220
0
230
1
0
LINE
5
AE
100
AcDbEntity
8
1
62
256
6
ByLayer
370
18
48
1
60
0
100
AcDbLine
10
0.2
20
0
30
0
11
0.2
21
-10
31
0
39
0
210
0
220
0
230
1
0
LINE
5
AF
100
AcDbEntity
8
1
62
256
6
ByLayer
370
18
48
1
60
0
100
AcDbLine
10
0.2
20
10
30
0
11
0.2
21
0
31
0
39
0
210
0
220
0
230
1
0
LINE
5
B0
100
AcDbEntity
8
1
62
256
6
ByLayer
370
13
48
1
60
0
100
AcDbLine
10
100.494852
20
0.51996
30
0
11
100.868938
21
0.492606
31
0
39
0
210
0
220
0
230
1
0
LINE
5
B1
100
AcDbEntity
8
1
62
256
6
ByLayer
370
18
48
1
60
0
100
AcDbLine
10
14
20
-4.846665
30
0
11
14
21
0.820648
31
0
39
0
210
0
220
0
230
1
0
LINE
5
B2
100
AcDbEntity
8
1
62
256
6
ByLayer
370
13
48
1
60
0
100
AcDbLine
10
94.776152
20
1.165444
30
0
11
94.776152
21
1.343439
31
0
39
0
210
0
220
0
230
1
0
LINE
5
B3
100
AcDbEntity
8
1
62
256
6
ByLayer
370
18
48
1
60
0
100
AcDbLine
10
87
20
1.732949
30
0
11
87
21
3.457227
31
0
39
0
210
0
220
0
230
1
0
LINE
5
B4
100
AcDbEntity
8
1
62
256
6
ByLayer
370
18
48
1
60
0
100
AcDbLine
10
100.483738
20
1.753084
30
0
11
100.468653
21
1.797727
31
0
39
0
210
0
220
0
230
1
0
LINE
5
B5
100
AcDbEntity
8
1
62
256
6
ByLayer
370
18
48
1
60
0
100
AcDbLine
10
99.312795
20
-4.888064
30
0
11
100.789426
21
-0.610061
31
0
39
0
210
0
220
0
230
1
0
LINE
5
B6
100
AcDbEntity
8
1
62
256
6
ByLayer
370
13
48
1
60
0
100
AcDbLine
10
10.304611
20
3.317051
30
0
11
10.304611
21
-5.840011
31
0
39
0
210
0
220
0
230
1
0
LINE
5
B7
100
AcDbEntity
8
1
62
256
6
ByLayer
370
18
48
1
60
0
100
AcDbLine
10
97.608878
20
-4.3826
30
0
11
97.612707
21
-4.381007
31
0
39
0
210
0
220
0
230
1
0
LINE
5
B8
100
AcDbEntity
8
1
62
256
6
ByLayer
370
18
48
1
60
0
100
AcDbLine
10
100.991108
20
0.037012
30
0
11
101
21
0
31
0
39
0
210
0
220
0
230
1
0
LINE
5
B9
100
AcDbEntity
8
1
62
256
6
ByLayer
370
18
48
1
60
0
100
AcDbLine
10
96.552573
20
0.112469
30
0
11
96.540095
21
0.107208
31
0
39
0
210
0
220
0
230
1
0
LINE
5
BA
100
AcDbEntity
8
1
62
256
6
ByLayer
370
18
48
1
60
0
100
AcDbLine
10
100.93373
20
-0.232089
30
0
11
100.868938
21
-0.492606
31
0
39
0
210
0
220
0
230
1
0
LINE
5
BB
100
AcDbEntity
8
1
62
256
6
ByLayer
370
13
48
1
60
0
100
AcDbLine
10
94.50805
20
-1.38465
30
0
11
94.663724
21
-1.301661
31
0
39
0
210
0
220
0
230
1
0
LINE
5
BC
100
AcDbEntity
8
1
62
256
6
ByLayer
370
13
48
1
60
0
100
AcDbLine
10
100.132846
20
1.759292
30
0
11
100.483738
21
1.753084
31
0
39
0
210
0
220
0
230
1
0
LINE
5
BD
100
AcDbEntity
8
1
62
256
6
ByLayer
370
13
48
1
60
0
100
AcDbLine
10
83.274234
20
-1.190417
30
0
11
83.274234
21
-1.21254
31
0
39
0
210
0
220
0
230
1
0
LINE
5
BE
100
AcDbEntity
8
1
62
256
6
ByLayer
370
18
48
1
60
0
100
AcDbLine
10
94.77
20
1.331257
30
0
11
94.77
21
1.16734
31
0
39
0
210
0
220
0
230
1
0
LINE
5
BF
100
AcDbEntity
8
1
62
256
6
ByLayer
370
18
48
1
60
0
100
AcDbLine
10
100.93373
20
0.232089
30
0
11
100.868938
21
0.492606
31
0
39
0
210
0
220
0
230
1
0
LINE
5
C0
100
AcDbEntity
8
1
62
256
6
ByLayer
370
13
48
1
60
0
100
AcDbLine
10
4.0004
20
0
30
0
11
4.0004
21
-10
31
0
39
0
210
0
220
0
230
1
0
LINE
5
C1
100
AcDbEntity
8
1
62
256
6
ByLayer
370
13
48
1
60
0
100
AcDbLine
10
4.0004
20
10
30
0
11
4.0004
21
0
31
0
39
0
210
0
220
0
230
1
0
LINE
5
C2
100
AcDbEntity
8
1
62
256
6
ByLayer
370
18
48
1
60
0
100
AcDbLine
10
98.162286
20
-3.899489
30
0
11
98.165798
21
-3.892987
31
0
39
0
210
0
220
0
230
1
0
LINE
5
C3
100
AcDbEntity
8
1
62
256
6
ByLayer
370
18
48
1
60
0
100
AcDbLine
10
97.612707
20
-4.381007
30
0
11
98.162286
21
-3.899489
31
0
39
0
210
0
220
0
230
1
0
LINE
5
C4
100
AcDbEntity
8
1
62
256
6
ByLayer
370
18
48
1
60
0
100
AcDbLine
10
95.6
20
-4.431922
30
0
11
95.6
21
-4.365388
31
0
39
0
210
0
220
0
230
1
0
LINE
5
C5
100
AcDbEntity
8
1
62
256
6
ByLayer
370
18
48
1
60
0
100
AcDbLine
10
98.165647
20
-2.2498
30
0
11
97.363346
21
0.563854
31
0
39
0
210
0
220
0
230
1
0
LINE
5
C6
100
AcDbEntity
8
1
62
256
6
ByLayer
370
18
48
1
60
0
100
AcDbLine
10
100.483738
20
-1.753084
30
0
11
100.468653
21
-1.797727
31
0
39
0
210
0
220
0
230
1
0
LINE
5
C7
100
AcDbEntity
8
1
62
256
6
ByLayer
370
18
48
1
60
0
100
AcDbLine
10
95.349495
20
-4.970534
30
0
11
95.349495
21
-4.998598
31
0
39
0
210
0
220
0
230
1
0
LINE
5
C8
100
AcDbEntity
8
1
62
256
6
ByLayer
370
18
48
1
60
0
100
AcDbLine
10
98.165798
20
-3.892987
30
0
11
98.165798
21
-2.251407
31
0
39
0
210
0
220
0
230
1
0
LINE
5
C9
100
AcDbEntity
8
1
62
256
6
ByLayer
370
18
48
1
60
0
100
AcDbLine
10
97.756225
20
-3.483414
30
0
11
98.165798
21
-3.892987
31
0
39
0
210
0
220
0
230
1
0
LINE
5
CA
100
AcDbEntity
8
1
62
256
6
ByLayer
370
18
48
1
60
0
100
AcDbLine
10
98.165798
20
-2.251407
30
0
11
98.165647
21
-2.2498
31
0
39
0
210
0
220
0
230
1
0
LINE
5
CB
100
AcDbEntity
8
1
62
256
6
ByLayer
370
18
48
1
60
0
100
AcDbLine
10
98.555937
20
-4.43192
30
0
11
99.39162
21
-2.184305
31
0
39
0
210
0
220
0
230
1
0
LINE
5
CC
100
AcDbEntity
8
1
62
256
6
ByLayer
370
18
48
1
60
0
100
AcDbLine
10
100.929915
20
-0.203044
30
0
11
101
21
0
31
0
39
0
210
0
220
0
230
1
0
LINE
5
CD
100
AcDbEntity
8
1
62
256
6
ByLayer
370
13
48
1
60
0
100
AcDbLine
10
94.8
20
-4.636444
30
0
11
95.074736
21
-4.733033
31
0
39
0
210
0
220
0
230
1
0
LINE
5
CE
100
AcDbEntity
8
1
62
256
6
ByLayer
370
13
48
1
60
0
100
AcDbLine
10
99.660494
20
-1.967476
30
0
11
99.694406
21
-1.281907
31
0
39
0
210
0
220
0
230
1
0
LINE
5
CF
100
AcDbEntity
8
1
62
256
6
ByLayer
370
18
48
1
60
0
100
AcDbLine
10
94.8
20
1.463038
30
0
11
94.8
21
1.45
31
0
39
0
210
0
220
0
230
1
0
LINE
5
D0
100
AcDbEntity
8
1
62
256
6
ByLayer
370
18
48
1
60
0
100
AcDbLine
10
95.7664
20
-4.3826
30
0
11
97.608878
21
-4.3826
31
0
39
0
210
0
220
0
230
1
0
LINE
5
D1
100
AcDbEntity
8
1
62
256
6
ByLayer
370
13
48
1
60
0
100
AcDbLine
10
100.93373
20
0.232089
30
0
11
100.494852
21
0.51996
31
0
39
0
210
0
220
0
230
1
0
LINE
5
D2
100
AcDbEntity
8
1
62
256
6
ByLayer
370
18
48
1
60
0
100
AcDbLine
10
94.8
20
-4.78757
30
0
11
94.8
21
-4.709001
31
0
39
0
210
0
220
0
230
1
0
LINE
5
D3
100
AcDbEntity
8
1
62
256
6
ByLayer
370
18
48
1
60
0
100
AcDbLine
10
97.41759
20
-2.2498
30
0
11
98.165647
21
-2.2498
31
0
39
0
210
0
220
0
230
1
0
LINE
5
D4
100
AcDbEntity
8
1
62
256
6
ByLayer
370
18
48
1
60
0
100
AcDbLine
10
0
20
9.8
30
0
11
0
21
-9.8
31
0
39
0
210
0
220
0
230
1
0
LINE
5
D5
100
AcDbEntity
8
1
62
256
6
ByLayer
370
18
48
1
60
0
100
AcDbLine
10
13
20
-4.734854
30
0
11
13
21
1.210414
31
0
39
0
210
0
220
0
230
1
0
LINE
5
D6
100
AcDbEntity
8
1
62
256
6
ByLayer
370
13
48
1
60
0
100
AcDbLine
10
100.446641
20
0.480083
30
0
11
100.958452
21
0.144374
31
0
39
0
210
0
220
0
230
1
0
LINE
5
D7
100
AcDbEntity
8
1
62
256
6
ByLayer
370
18
48
1
60
0
100
AcDbLine
10
94.8
20
-4.596523
30
0
11
94.8
21
-4.713572
31
0
39
0
210
0
220
0
230
1
0
MTEXT
5
191
100
AcDbEntity
8
SK6
62
256
6
ByLayer
370
13
48
1
60
0
100
AcDbMText
10
9.15887
20
27.375134
30
0
210
0
220
0
230
1
1
\W0.7004;870-1000-6L16-8
40
3.5
41
0
44
1.084337
50
0
71
7
72
5
7
iso_b_vert
0
DIMENSION
5
19F
100
AcDbEntity
8
2
62
256
6
ByLayer
370
13
48
1
60
0
100
AcDbDimension
2
DimnDraft3D1
10
13
20
-18
30
0
11
57
21
-18
31
0
70
32
71
5
72
1
41
1
210
0
220
0
230
1
3
Standard
100
AcDbAlignedDimension
13
101
23
-1.5875
33
0
14
13
24
-6.5875
34
0
50
0
100
AcDbRotatedDimension
1001
ACAD
1000
DSTYLE
1002
{
1070
   279
1070
     0
1070
   172
1070
     1
1070
   173
1070
     1
1070
   340
1005
192
1070
   271
1070
     1
1070
   272
1070
     2
1070
    77
1070
     1
1070
    73
1070
     0
1070
   171
1070
     3
1070
   274
1070
     4
1070
   177
1070
     7
1070
   176
1070
     7
1070
   178
1070
     7
1070
    48
1040
-0.005
1070
    41
1041
3.5
1070
   147
1041
1.5
1070
    42
1041
1.5875
1070
    44
1041
2.0
1070
   140
1041
3.0
1070
   343
1005
0
1070
   344
1005
0
1002
}
0
DIMENSION
5
1A9
100
AcDbEntity
8
2
62
256
6
ByLayer
370
13
48
1
60
0
100
AcDbDimension
2
DimnDraft3D2
10
14.911
20
12
30
0
11
57.9555
21
12
31
0
70
32
71
5
72
1
41
1
210
0
220
0
230
1
3
Standard
100
AcDbAlignedDimension
13
101
23
1.5875
33
0
14
14.911
24
6.5875
34
0
50
0
100
AcDbRotatedDimension
1001
ACAD
1000
DSTYLE
1002
{
1070
   279
1070
     0
1070
   172
1070
     1
1070
   173
1070
     1
1070
   340
1005
192
1070
   271
1070
     1
1070
   272
1070
     2
1070
    77
1070
     1
1070
    73
1070
     0
1070
   171
1070
     3
1070
   274
1070
     4
1070
   177
1070
     7
1070
   176
1070
     7
1070
   178
1070
     7
1070
    48
1040
-0.005
1070
    41
1041
3.5
1070
   147
1041
1.5
1070
    42
1041
1.5875
1070
    44
1041
2.0
1070
   140
1041
3.0
1070
   343
1005
0
1070
   344
1005
0
1002
}
0
DIMENSION
5
1B4
100
AcDbEntity
8
SK2
62
256
6
ByLayer
370
13
48
1
60
0
100
AcDbDimension
2
DimnDraft3D3
10
0
20
-31
30
0
11
-24
21
-31
31
0
70
32
71
5
72
1
41
1
210
0
220
0
230
1
3
Standard
100
AcDbAlignedDimension
13
-48
23
-9.5875
33
0
14
0
24
-11.5875
34
0
50
0
100
AcDbRotatedDimension
1001
ACAD
1000
DSTYLE
1002
{
1070
   279
1070
     0
1070
   172
1070
     1
1070
   173
1070
     1
1070
   340
1005
192
1070
   271
1070
     1
1070
   272
1070
     2
1070
    77
1070
     1
1070
    73
1070
     0
1070
   171
1070
     3
1070
   274
1070
     4
1070
   177
1070
     7
1070
   176
1070
     7
1070
   178
1070
     7
1070
    48
1040
-0.005
1070
    41
1041
3.5
1070
   147
1041
1.5
1070
    42
1041
1.5875
1070
    44
1041
2.0
1070
   140
1041
3.0
1070
   343
1005
0
1070
   344
1005
0
1002
}
0
DIMENSION
5
1BE
100
AcDbEntity
8
2
62
256
6
ByLayer
370
13
48
1
60
0
100
AcDbDimension
2
DimnDraft3D4
10
101
20
-31
30
0
11
50.5
21
-31
31
0
70
32
71
5
72
1
41
1
210
0
220
0
230
1
3
Standard
100
AcDbAlignedDimension
13
0
23
-11.5875
33
0
14
101
24
-1.5875
34
0
50
0
100
AcDbRotatedDimension
1001
ACAD
1000
DSTYLE
1002
{
1070
   279
1070
     0
1070
   172
1070
     1
1070
   173
1070
     1
1070
   340
1005
192
1070
   271
1070
     1
1070
   272
1070
     2
1070
    77
1070
     1
1070
    73
1070
     0
1070
   171
1070
     3
1070
   274
1070
     4
1070
   177
1070
     7
1070
   176
1070
     7
1070
   178
1070
     7
1070
    48
1040
-0.005
1070
    41
1041
3.5
1070
   147
1041
1.5
1070
    42
1041
1.5875
1070
    44
1041
2.0
1070
   140
1041
3.0
1070
   343
1005
0
1070
   344
1005
0
1002
}
0
DIMENSION
5
1C9
100
AcDbEntity
8
SK2
62
256
6
ByLayer
370
13
48
1
60
0
100
AcDbDimension
2
DimnDraft3D5
10
-56.25
20
-8
30
0
11
-56.5
21
-0.145514
31
0
70
33
71
5
72
1
41
1
210
0
220
0
230
1
3
Standard
100
AcDbAlignedDimension
13
-49.5875
23
8
33
0
14
-49.5875
24
-8
34
0
1001
ACAD
1000
DSTYLE
1002
{
1070
   279
1070
     0
1070
    74
1070
     0
1070
   173
1070
     1
1070
   340
1005
192
1070
   271
1070
     1
1070
   272
1070
     2
1070
    77
1070
     1
1070
    73
1070
     0
1070
   171
1070
     3
1070
   274
1070
     4
1070
   177
1070
     7
1070
   176
1070
     7
1070
   178
1070
     7
1070
    48
1040
-0.005
1070
    41
1041
3.5
1070
   147
1041
1.5
1070
    42
1041
1.5875
1070
    44
1041
2.0
1070
   140
1041
3.0
1070
   343
1005
0
1070
   344
1005
0
1002
}
0
ENDSEC
0
SECTION
2
OBJECTS
0
DICTIONARY
5
234
330
0
100
AcDbDictionary
280
0
281
1
3
ACAD_GROUP
350
235
3
ACAD_MLINESTYLE
350
236
0
DICTIONARY
5
235
330
0
100
AcDbDictionary
280
0
281
1
0
DICTIONARY
5
236
330
0
100
AcDbDictionary
280
0
281
1
3
Standard
350
18
0
MLINESTYLE
5
18
330
236
100
AcDbMlineStyle
2
Standard
70
0
3

62
256
51
90
52
90
71
2
49
-0.5
62
256
6
ByLayer
49
0.5
62
256
6
ByLayer
0
RASTERVARIABLES
5
222
330

100
AcDbRasterVariables
90
0
70
1
71
1
72
1
0
ENDSEC
0
EOF
