0
SECTION
2
HEADER
9
$ACADVER
1
AC1015
9
$DWGCODEPAGE
3
ANSI_1252
9
$HANDSEED
5
1a6
9
$ANGBASE
50
0
9
$ANGDIR
70
0
9
$ATTMODE
70
1
9
$AUNITS
70
0
9
$AUPREC
70
0
9
$CECOLOR
62
256
9
$CELTSCALE
40
1
9
$CELTYPE
6
ByLayer
9
$CELWEIGHT
370
18
9
$CLAYER
8
0
9
$CMLJUST
70
0
9
$CMLSCALE
40
1
9
$CMLSTYLE
2
Standard
9
$DIMSTYLE
2
Standard
9
$TEXTSIZE
40
0.2
9
$TEXTSTYLE
7
Standard
9
$LUNITS
70
2
9
$LUPREC
70
4
9
$EXTNAMES
290
1
9
$INSUNITS
70
4
9
$LTSCALE
40
1
9
$LWDISPLAY
290
1
9
$PDMODE
70
0
9
$PDSIZE
40
0
9
$PLINEGEN
70
0
0
ENDSEC
0
SECTION
2
CLASSES
0
CLASS
1
RASTERVARIABLES
2
AcDbRasterVariables
3
ISM
90
0
280
0
281
0
0
ENDSEC
0
SECTION
2
TABLES
0
TABLE
2
VPORT
5
19c
100
AcDbSymbolTable
0
VPORT
5
1
100
AcDbSymbolTableRecord
100
AcDbViewportTableRecord
2
*Active
70
0
10
0
20
0
11
1
21
1
12
-1
22
1
13
0
23
0
14
0.5
24
0.5
15
10
25
10
16
0
26
0
36
1
17
0
27
0
37
0
0
ENDTAB
0
TABLE
2
LTYPE
5
19d
100
AcDbSymbolTable
0
LTYPE
5
14
100
AcDbSymbolTableRecord
100
AcDbLinetypeTableRecord
70
0
2
ByBlock
3

72
65
73
0
40
0
0
LTYPE
5
15
100
AcDbSymbolTableRecord
100
AcDbLinetypeTableRecord
70
0
2
ByLayer
3

72
65
73
0
40
0
0
LTYPE
5
16
100
AcDbSymbolTableRecord
100
AcDbLinetypeTableRecord
70
0
2
CONTINUOUS
3
Solid line
72
65
73
0
40
0
0
LTYPE
5
6A
100
AcDbSymbolTableRecord
100
AcDbLinetypeTableRecord
70
0
2
CENTER
3
____ _ ____ _ ____ _ ____
72
65
73
4
40
47.5
49
22
74
0
49
-8.5
74
0
49
8.5
74
0
49
-8.5
74
0
0
LTYPE
5
6B
100
AcDbSymbolTableRecord
100
AcDbLinetypeTableRecord
70
0
2
DASHED
3
__ __ __ __ __ __ __ __ __
72
65
73
2
40
25.72
49
12.86
74
0
49
-12.86
74
0
0
ENDTAB
0
TABLE
2
LAYER
5
19e
100
AcDbSymbolTable
0
LAYER
5
10
100
AcDbSymbolTableRecord
100
AcDbLayerTableRecord
2
0
70
0
62
7
6
CONTINUOUS
290
1
370
-3
390
0
0
LAYER
5
6D
100
AcDbSymbolTableRecord
100
AcDbLayerTableRecord
2
81
70
0
62
-3
6
CONTINUOUS
290
1
370
-3
390
0
0
LAYER
5
6F
100
AcDbSymbolTableRecord
100
AcDbLayerTableRecord
2
80
70
0
62
-6
6
CONTINUOUS
290
1
370
-3
390
0
0
LAYER
5
74
100
AcDbSymbolTableRecord
100
AcDbLayerTableRecord
2
2
70
0
62
7
6
CONTINUOUS
290
1
370
-3
390
0
0
LAYER
5
78
100
AcDbSymbolTableRecord
100
AcDbLayerTableRecord
2
1
70
0
62
4
6
CONTINUOUS
290
1
370
-3
390
0
0
LAYER
5
8C
100
AcDbSymbolTableRecord
100
AcDbLayerTableRecord
2
4
70
0
62
-2
6
CENTER
290
1
370
-3
390
0
0
LAYER
5
188
100
AcDbSymbolTableRecord
100
AcDbLayerTableRecord
2
SK2
70
0
62
7
6
CONTINUOUS
290
1
370
-3
390
0
0
LAYER
5
189
100
AcDbSymbolTableRecord
100
AcDbLayerTableRecord
2
SK1
70
0
62
4
6
CONTINUOUS
290
1
370
-3
390
0
0
LAYER
5
18a
100
AcDbSymbolTableRecord
100
AcDbLayerTableRecord
2
SK4
70
0
62
2
6
CENTER
290
1
370
-3
390
0
0
LAYER
5
18b
100
AcDbSymbolTableRecord
100
AcDbLayerTableRecord
2
SK6
70
0
62
5
6
CONTINUOUS
290
1
370
-3
390
0
0
ENDTAB
0
TABLE
2
STYLE
5
19f
100
AcDbSymbolTable
0
STYLE
5
11
100
AcDbSymbolTableRecord
100
AcDbTextStyleTableRecord
2
Standard
3
txt
70
0
71
0
40
0
41
1
42
0
50
0
0
STYLE
5
E4
100
AcDbSymbolTableRecord
100
AcDbTextStyleTableRecord
2
iso_b_vert
3
simplex.shx
70
0
71
0
40
0
41
1
42
0
50
0
0
STYLE
5
E5
100
AcDbSymbolTableRecord
100
AcDbTextStyleTableRecord
2
DWGDirectTextStyle
3
simplex
70
0
71
0
40
0
41
1
42
0
50
0
0
ENDTAB
0
TABLE
2
DIMSTYLE
5
1a0
100
AcDbSymbolTable
100
AcDbDimStyleTable
0
DIMSTYLE
105
27
100
AcDbSymbolTableRecord
100
AcDbDimStyleTableRecord
2
Standard
70
0
3
<>
41
0.18
42
0.0625
44
0.18
140
0.18
147
0.09
73
0
74
0
77
1
271
2
275
0
278
52
280
0
340
11
0
ENDTAB
0
TABLE
2
VIEW
5
1a1
100
AcDbSymbolTable
0
ENDTAB
0
TABLE
2
UCS
5
1a2
100
AcDbSymbolTable
0
ENDTAB
0
TABLE
2
APPID
5
1a3
100
AcDbSymbolTable
0
APPID
5
12
100
AcDbSymbolTableRecord
100
AcDbRegAppTableRecord
2
ACAD
70
0
0
ENDTAB
0
TABLE
2
BLOCK_RECORD
5
1a4
100
AcDbSymbolTable
0
BLOCK_RECORD
5
1F
100
AcDbSymbolTableRecord
100
AcDbBlockTableRecord
2
*Model_Space
340
0
70
0
0
BLOCK_RECORD
5
1B
100
AcDbSymbolTableRecord
100
AcDbBlockTableRecord
2
*Paper_Space
340
0
70
0
0
BLOCK_RECORD
5
23
100
AcDbSymbolTableRecord
100
AcDbBlockTableRecord
2
*Paper_Space0
340
0
70
0
0
BLOCK_RECORD
5
E7
100
AcDbSymbolTableRecord
100
AcDbBlockTableRecord
2
DimnDraft3D1
340
0
70
0
0
BLOCK_RECORD
5
F1
100
AcDbSymbolTableRecord
100
AcDbBlockTableRecord
2
DimnDraft3D2
340
0
70
0
0
BLOCK_RECORD
5
FB
100
AcDbSymbolTableRecord
100
AcDbBlockTableRecord
2
DimnDraft3D3
340
0
70
0
0
BLOCK_RECORD
5
105
100
AcDbSymbolTableRecord
100
AcDbBlockTableRecord
2
DimnDraft3D4
340
0
70
0
0
BLOCK_RECORD
5
10F
100
AcDbSymbolTableRecord
100
AcDbBlockTableRecord
2
DimnDraft3D5
340
0
70
0
0
BLOCK_RECORD
5
119
100
AcDbSymbolTableRecord
100
AcDbBlockTableRecord
2
DimnDraft3D6
340
0
70
0
0
BLOCK_RECORD
5
124
100
AcDbSymbolTableRecord
100
AcDbBlockTableRecord
2
DimnDraft3D7
340
0
70
0
0
ENDTAB
0
ENDSEC
0
SECTION
2
BLOCKS
0
BLOCK
5
20
100
AcDbEntity
8
0
100
AcDbBlockBegin
2
*Model_Space
70
0
10
0
20
0
30
0
3
*Model_Space
0
ENDBLK
5
21
100
AcDbEntity
8
0
100
AcDbBlockEnd
0
BLOCK
5
1C
100
AcDbEntity
8
0
100
AcDbBlockBegin
2
*Paper_Space
70
0
10
0
20
0
30
0
3
*Paper_Space
0
ENDBLK
5
1D
100
AcDbEntity
8
0
100
AcDbBlockEnd
0
BLOCK
5
24
100
AcDbEntity
8
0
100
AcDbBlockBegin
2
*Paper_Space0
70
0
10
0
20
0
30
0
3
*Paper_Space0
0
ENDBLK
5
25
100
AcDbEntity
8
0
100
AcDbBlockEnd
0
BLOCK
5
EE
100
AcDbEntity
8
0
100
AcDbBlockBegin
2
DimnDraft3D1
70
0
10
0
20
0
30
0
3
DimnDraft3D1
0
MTEXT
5
E8
100
AcDbEntity
8
SK2
62
256
6
ByLayer
370
13
48
1
60
0
100
AcDbMText
10
7.449275
20
-10.413398
30
0
210
0
220
0
230
1
1
\W0.7317;25,65
40
3.5
41
0
44
1.084337
50
0
71
7
72
5
7
iso_b_vert
0
LINE
5
E9
100
AcDbEntity
8
SK2
62
256
6
ByLayer
370
13
48
1
60
0
100
AcDbLine
10
0
20
-1.5875
30
0
11
0
21
-13.288398
31
0
39
0
210
0
220
0
230
1
0
LINE
5
EA
100
AcDbEntity
8
SK2
62
256
6
ByLayer
370
13
48
1
60
0
100
AcDbLine
10
25.6479
20
-2.6625
30
0
11
25.6479
21
-13.288398
31
0
39
0
210
0
220
0
230
1
0
LINE
5
EB
100
AcDbEntity
8
SK2
62
256
6
ByLayer
370
13
48
1
60
0
100
AcDbLine
10
0
20
-11.288398
30
0
11
25.6479
21
-11.288398
31
0
39
0
210
0
220
0
230
1
0
SOLID
5
EC
100
AcDbEntity
8
SK2
62
256
6
ByLayer
370
13
48
1
60
0
100
AcDbTrace
10
0
20
-11.288398
30
0
11
3.499998
21
-10.827615
31
0
12
3.500002
22
-11.749182
32
0
13
0
23
-11.288398
33
0
39
0
210
0
220
0
230
1
0
SOLID
5
ED
100
AcDbEntity
8
SK2
62
256
6
ByLayer
370
13
48
1
60
0
100
AcDbTrace
10
25.6479
20
-11.288398
30
0
11
22.147902
21
-11.749182
31
0
12
22.147898
22
-10.827615
32
0
13
25.6479
23
-11.288398
33
0
39
0
210
0
220
0
230
1
0
ENDBLK
5
EF
100
AcDbEntity
8
0
100
AcDbBlockEnd
0
BLOCK
5
F8
100
AcDbEntity
8
0
100
AcDbBlockBegin
2
DimnDraft3D2
70
0
10
0
20
0
30
0
3
DimnDraft3D2
0
MTEXT
5
F2
100
AcDbEntity
8
SK2
62
256
6
ByLayer
370
13
48
1
60
0
100
AcDbMText
10
-13.959484
20
-29.317985
30
0
210
0
220
0
230
1
1
\W0.7317;73,00
40
3.5
41
0
44
1.084337
50
0
71
7
72
5
7
iso_b_vert
0
LINE
5
F3
100
AcDbEntity
8
SK2
62
256
6
ByLayer
370
13
48
1
60
0
100
AcDbLine
10
-47
20
-3.0875
30
0
11
-47
21
-32.192985
31
0
39
0
210
0
220
0
230
1
0
LINE
5
F4
100
AcDbEntity
8
SK2
62
256
6
ByLayer
370
13
48
1
60
0
100
AcDbLine
10
26
20
-1.5875
30
0
11
26
21
-32.192985
31
0
39
0
210
0
220
0
230
1
0
LINE
5
F5
100
AcDbEntity
8
SK2
62
256
6
ByLayer
370
13
48
1
60
0
100
AcDbLine
10
-47
20
-30.192985
30
0
11
26
21
-30.192985
31
0
39
0
210
0
220
0
230
1
0
SOLID
5
F6
100
AcDbEntity
8
SK2
62
256
6
ByLayer
370
13
48
1
60
0
100
AcDbTrace
10
-47
20
-30.192985
30
0
11
-43.500002
21
-29.732202
31
0
12
-43.499998
22
-30.653769
32
0
13
-47
23
-30.192985
33
0
39
0
210
0
220
0
230
1
0
SOLID
5
F7
100
AcDbEntity
8
SK2
62
256
6
ByLayer
370
13
48
1
60
0
100
AcDbTrace
10
26
20
-30.192985
30
0
11
22.500002
21
-30.653769
31
0
12
22.499998
22
-29.732202
32
0
13
26
23
-30.192985
33
0
39
0
210
0
220
0
230
1
0
ENDBLK
5
F9
100
AcDbEntity
8
0
100
AcDbBlockEnd
0
BLOCK
5
102
100
AcDbEntity
8
0
100
AcDbBlockBegin
2
DimnDraft3D3
70
0
10
0
20
0
30
0
3
DimnDraft3D3
0
MTEXT
5
FC
100
AcDbEntity
8
SK2
62
256
6
ByLayer
370
13
48
1
60
0
100
AcDbMText
10
13.213816
20
13.559119
30
0
210
0
220
0
230
1
1
\W0.6713;17,55
40
3.5
41
0
44
1.084337
50
0
71
7
72
5
7
iso_b_vert
0
LINE
5
FD
100
AcDbEntity
8
SK2
62
256
6
ByLayer
370
13
48
1
60
0
100
AcDbLine
10
8.45
20
2.6625
30
0
11
8.45
21
14.684119
31
0
39
0
210
0
220
0
230
1
0
LINE
5
FE
100
AcDbEntity
8
SK2
62
256
6
ByLayer
370
13
48
1
60
0
100
AcDbLine
10
26
20
1.5875
30
0
11
26
21
14.684119
31
0
39
0
210
0
220
0
230
1
0
LINE
5
FF
100
AcDbEntity
8
SK2
62
256
6
ByLayer
370
13
48
1
60
0
100
AcDbLine
10
8.45
20
12.684119
30
0
11
26
21
12.684119
31
0
39
0
210
0
220
0
230
1
0
SOLID
5
100
100
AcDbEntity
8
SK2
62
256
6
ByLayer
370
13
48
1
60
0
100
AcDbTrace
10
8.45
20
12.684119
30
0
11
11.949998
21
13.144903
31
0
12
11.950002
22
12.223335
32
0
13
8.45
23
12.684119
33
0
39
0
210
0
220
0
230
1
0
SOLID
5
101
100
AcDbEntity
8
SK2
62
256
6
ByLayer
370
13
48
1
60
0
100
AcDbTrace
10
26
20
12.684119
30
0
11
22.500002
21
12.223335
31
0
12
22.499998
22
13.144903
32
0
13
26
23
12.684119
33
0
39
0
210
0
220
0
230
1
0
ENDBLK
5
103
100
AcDbEntity
8
0
100
AcDbBlockEnd
0
BLOCK
5
10C
100
AcDbEntity
8
0
100
AcDbBlockBegin
2
DimnDraft3D4
70
0
10
0
20
0
30
0
3
DimnDraft3D4
0
MTEXT
5
106
100
AcDbEntity
8
SK2
62
256
6
ByLayer
370
13
48
1
60
0
100
AcDbMText
10
32.840636
20
-13.002503
30
0
210
0
220
0
230
1
1
\W0.7150;0,35
40
3.5
41
0
44
1.084337
50
0
71
7
72
5
7
iso_b_vert
0
LINE
5
107
100
AcDbEntity
8
SK2
62
256
6
ByLayer
370
13
48
1
60
0
100
AcDbLine
10
26
20
-1.5875
30
0
11
26
21
-15.877503
31
0
39
0
210
0
220
0
230
1
0
LINE
5
108
100
AcDbEntity
8
SK2
62
256
6
ByLayer
370
13
48
1
60
0
100
AcDbLine
10
25.6479
20
-2.6625
30
0
11
25.6479
21
-15.877503
31
0
39
0
210
0
220
0
230
1
0
LINE
5
109
100
AcDbEntity
8
SK2
62
256
6
ByLayer
370
13
48
1
60
0
100
AcDbLine
10
16.8979
20
-13.877503
30
0
11
39.997215
21
-13.877503
31
0
39
0
210
0
220
0
230
1
0
SOLID
5
10A
100
AcDbEntity
8
SK2
62
256
6
ByLayer
370
13
48
1
60
0
100
AcDbTrace
10
26
20
-13.877503
30
0
11
29.499998
21
-13.416719
31
0
12
29.500002
22
-14.338287
32
0
13
26
23
-13.877503
33
0
39
0
210
0
220
0
230
1
0
SOLID
5
10B
100
AcDbEntity
8
SK2
62
256
6
ByLayer
370
13
48
1
60
0
100
AcDbTrace
10
25.6479
20
-13.877503
30
0
11
22.147902
21
-14.338287
31
0
12
22.147898
22
-13.416719
32
0
13
25.6479
23
-13.877503
33
0
39
0
210
0
220
0
230
1
0
ENDBLK
5
10D
100
AcDbEntity
8
0
100
AcDbBlockEnd
0
BLOCK
5
116
100
AcDbEntity
8
0
100
AcDbBlockBegin
2
DimnDraft3D5
70
0
10
0
20
0
30
0
3
DimnDraft3D5
0
MTEXT
5
110
100
AcDbEntity
8
SK2
62
256
6
ByLayer
370
13
48
1
60
0
100
AcDbMText
10
-17.040108
20
-18.968428
30
0
210
0
220
0
230
1
1
\W0.7317;72,65
40
3.5
41
0
44
1.084337
50
0
71
7
72
5
7
iso_b_vert
0
LINE
5
111
100
AcDbEntity
8
SK2
62
256
6
ByLayer
370
13
48
1
60
0
100
AcDbLine
10
-47
20
-3.0875
30
0
11
-47
21
-21.843428
31
0
39
0
210
0
220
0
230
1
0
LINE
5
112
100
AcDbEntity
8
SK2
62
256
6
ByLayer
370
13
48
1
60
0
100
AcDbLine
10
25.6479
20
-2.6625
30
0
11
25.6479
21
-21.843428
31
0
39
0
210
0
220
0
230
1
0
LINE
5
113
100
AcDbEntity
8
SK2
62
256
6
ByLayer
370
13
48
1
60
0
100
AcDbLine
10
-47
20
-19.843428
30
0
11
25.6479
21
-19.843428
31
0
39
0
210
0
220
0
230
1
0
SOLID
5
114
100
AcDbEntity
8
SK2
62
256
6
ByLayer
370
13
48
1
60
0
100
AcDbTrace
10
-47
20
-19.843428
30
0
11
-43.500002
21
-19.382645
31
0
12
-43.499998
22
-20.304212
32
0
13
-47
23
-19.843428
33
0
39
0
210
0
220
0
230
1
0
SOLID
5
115
100
AcDbEntity
8
SK2
62
256
6
ByLayer
370
13
48
1
60
0
100
AcDbTrace
10
25.6479
20
-19.843428
30
0
11
22.147902
21
-20.304212
31
0
12
22.147898
22
-19.382645
32
0
13
25.6479
23
-19.843428
33
0
39
0
210
0
220
0
230
1
0
ENDBLK
5
117
100
AcDbEntity
8
0
100
AcDbBlockEnd
0
BLOCK
5
121
100
AcDbEntity
8
0
100
AcDbBlockBegin
2
DimnDraft3D6
70
0
10
0
20
0
30
0
3
DimnDraft3D6
0
MTEXT
5
11A
100
AcDbEntity
8
SK2
62
256
6
ByLayer
370
13
48
1
60
0
100
AcDbMText
10
-57.375163
20
20.84918
30
0
210
0
220
0
230
1
1
\W0.7317;3,000
40
3.5
41
0
44
1.084337
50
90
71
7
72
5
7
iso_b_vert
0
MTEXT
5
11B
100
AcDbEntity
8
SK2
62
256
6
ByLayer
370
13
48
1
60
0
100
AcDbMText
10
-57.375163
20
15.626524
30
0
210
0
220
0
230
1
1
%%c
40
3.5
41
0
44
1.084337
50
90
71
7
72
5
7
iso_b_vert
0
LINE
5
11C
100
AcDbEntity
8
SK2
62
256
6
ByLayer
370
13
48
1
60
0
100
AcDbLine
10
-48.5875
20
-1.5
30
0
11
-57.625163
21
-1.5
31
0
39
0
210
0
220
0
230
1
0
LINE
5
11D
100
AcDbEntity
8
SK2
62
256
6
ByLayer
370
13
48
1
60
0
100
AcDbLine
10
-48.5875
20
1.5
30
0
11
-57.625163
21
1.5
31
0
39
0
210
0
220
0
230
1
0
LINE
5
11E
100
AcDbEntity
8
SK2
62
256
6
ByLayer
370
13
48
1
60
0
100
AcDbLine
10
-55.625163
20
30.621549
30
0
11
-55.625163
21
-10.25
31
0
39
0
210
0
220
0
230
1
0
SOLID
5
11F
100
AcDbEntity
8
SK2
62
256
6
ByLayer
370
13
48
1
60
0
100
AcDbTrace
10
-55.625163
20
-1.5
30
0
11
-55.164379
21
-4.999998
31
0
12
-56.085946
22
-5.000002
32
0
13
-55.625163
23
-1.5
33
0
39
0
210
0
220
0
230
1
0
SOLID
5
120
100
AcDbEntity
8
SK2
62
256
6
ByLayer
370
13
48
1
60
0
100
AcDbTrace
10
-55.625163
20
1.5
30
0
11
-56.085946
21
4.999998
31
0
12
-55.164379
22
5.000002
32
0
13
-55.625163
23
1.5
33
0
39
0
210
0
220
0
230
1
0
ENDBLK
5
122
100
AcDbEntity
8
0
100
AcDbBlockEnd
0
BLOCK
5
12C
100
AcDbEntity
8
0
100
AcDbBlockBegin
2
DimnDraft3D7
70
0
10
0
20
0
30
0
3
DimnDraft3D7
0
MTEXT
5
125
100
AcDbEntity
8
2
62
256
6
ByLayer
370
13
48
1
60
0
100
AcDbMText
10
36.333343
20
19.017266
30
0
210
0
220
0
230
1
1
\W0.6713;2,150
40
3.5
41
0
44
1.084337
50
90
71
7
72
5
7
iso_b_vert
0
MTEXT
5
126
100
AcDbEntity
8
2
62
256
6
ByLayer
370
13
48
1
60
0
100
AcDbMText
10
36.333343
20
13.79461
30
0
210
0
220
0
230
1
1
%%c
40
3.5
41
0
44
1.084337
50
90
71
7
72
5
7
iso_b_vert
0
LINE
5
127
100
AcDbEntity
8
2
62
256
6
ByLayer
370
13
48
1
60
0
100
AcDbLine
10
27.2354
20
-1.075
30
0
11
40.083343
21
-1.075
31
0
39
0
210
0
220
0
230
1
0
LINE
5
128
100
AcDbEntity
8
2
62
256
6
ByLayer
370
13
48
1
60
0
100
AcDbLine
10
27.2354
20
1.075
30
0
11
40.083343
21
1.075
31
0
39
0
210
0
220
0
230
1
0
LINE
5
129
100
AcDbEntity
8
2
62
256
6
ByLayer
370
13
48
1
60
0
100
AcDbLine
10
38.083343
20
27.914635
30
0
11
38.083343
21
-9.825
31
0
39
0
210
0
220
0
230
1
0
SOLID
5
12A
100
AcDbEntity
8
2
62
256
6
ByLayer
370
13
48
1
60
0
100
AcDbTrace
10
38.083343
20
-1.075
30
0
11
38.544126
21
-4.574998
31
0
12
37.622559
22
-4.575002
32
0
13
38.083343
23
-1.075
33
0
39
0
210
0
220
0
230
1
0
SOLID
5
12B
100
AcDbEntity
8
2
62
256
6
ByLayer
370
13
48
1
60
0
100
AcDbTrace
10
38.083343
20
1.075
30
0
11
37.622559
21
4.574998
31
0
12
38.544126
22
4.575002
32
0
13
38.083343
23
1.075
33
0
39
0
210
0
220
0
230
1
0
ENDBLK
5
12D
100
AcDbEntity
8
0
100
AcDbBlockEnd
0
ENDSEC
0
SECTION
2
ENTITIES
0
ELLIPSE
5
A3
100
AcDbEntity
8
1
62
256
6
ByLayer
370
18
48
1
60
0
100
AcDbEllipse
10
26.000104
20
0.000245
30
0
11
0.398729687904849
21
1.07391353403944
31
0
210
0
220
0
230
-1
40
0.131755
41
2.75713948098853
42
2.94518872494886
0
ELLIPSE
5
A4
100
AcDbEntity
8
1
62
256
6
ByLayer
370
13
48
1
60
0
100
AcDbEllipse
10
6.176752
20
-1.065866
30
0
11
0.0353871543549498
21
-0.0935294034336741
31
0
210
0
220
0
230
1
40
0.526224
41
-2.82833080580565
42
-2.16652944570437
0
ELLIPSE
5
A5
100
AcDbEntity
8
1
62
256
6
ByLayer
370
18
48
1
60
0
100
AcDbEllipse
10
25.99231
20
0.05518
30
0
11
0.0188619867381936
21
-0.0589740674145453
31
0
210
0
220
0
230
-1
40
0.095759
41
1.20568562319034
42
2.42741609947763
0
ELLIPSE
5
A6
100
AcDbEntity
8
1
62
256
6
ByLayer
370
18
48
1
60
0
100
AcDbEllipse
10
25.99231
20
-0.05518
30
0
11
0.018861986734333
21
0.0589740674044851
31
0
210
0
220
0
230
-1
40
0.095759
41
-2.42741609953265
42
-1.20568562302459
0
ELLIPSE
5
A7
100
AcDbEntity
8
1
62
256
6
ByLayer
370
13
48
1
60
0
100
AcDbEllipse
10
6.250285
20
-1.058708
30
0
11
0.0146973537619876
21
0.0989140424428958
31
0
210
0
220
0
230
1
40
0.465001
41
0.305356660263894
42
1.47811322684098
0
ELLIPSE
5
A8
100
AcDbEntity
8
1
62
256
6
ByLayer
370
18
48
1
60
0
100
AcDbEllipse
10
26.000104
20
-0.000245
30
0
11
0.398729690418322
21
-1.07391354166031
31
0
210
0
220
0
230
-1
40
0.131755
41
-2.9451887256484
42
-2.75713948237244
0
POINT
5
6C
100
AcDbEntity
8
81
62
256
6
ByLayer
370
18
48
1
60
0
100
AcDbPoint
10
26
20
0
30
0
39
0
210
0
220
0
230
1
50
360
0
POINT
5
6E
100
AcDbEntity
8
80
62
256
6
ByLayer
370
18
48
1
60
0
100
AcDbPoint
10
0
20
0
30
0
39
0
210
0
220
0
230
1
50
360
0
POINT
5
70
100
AcDbEntity
8
SK2
62
256
6
ByLayer
370
18
48
1
60
1
100
AcDbPoint
10
-47
20
-1.5
30
0
39
0
210
0
220
0
230
1
50
360
0
POINT
5
72
100
AcDbEntity
8
SK2
62
256
6
ByLayer
370
18
48
1
60
1
100
AcDbPoint
10
-47
20
1.5
30
0
39
0
210
0
220
0
230
1
50
360
0
POINT
5
73
100
AcDbEntity
8
2
62
256
6
ByLayer
370
18
48
1
60
1
100
AcDbPoint
10
25.6479
20
-1.075
30
0
39
0
210
0
220
0
230
1
50
360
0
POINT
5
75
100
AcDbEntity
8
2
62
256
6
ByLayer
370
18
48
1
60
1
100
AcDbPoint
10
25.6479
20
1.075
30
0
39
0
210
0
220
0
230
1
50
360
0
SPLINE
5
A9
100
AcDbEntity
8
1
62
256
6
ByLayer
370
18
48
1
60
0
100
AcDbSpline
70
4
71
3
72
16
73
12
40
0
40
0
40
0
40
0
40
0.195580375214139
40
0.318094391624581
40
0.414811553954619
40
0.526884238078478
40
0.640879161199005
40
0.765754238117438
40
0.8743718718712
40
0.995417889970491
40
1
40
1
40
1
40
1
41
1
10
9.69221473624484
20
1.00128769471402
30
0
41
1
10
9.52996358852073
20
1.00040890018818
30
0
41
1
10
9.2660764609638
20
0.999726136116493
30
0
41
1
10
8.92195207365955
20
1.00010131560367
30
0
41
1
10
8.64710852747476
20
1.00172666543267
30
0
41
1
10
8.37932628289821
20
1.00076993946868
30
0
41
1
10
8.08819369862346
20
0.99926680874961
30
0
41
1
10
7.79991627778483
20
0.999629396554781
30
0
41
1
10
7.50578950062263
20
1.00016208628602
30
0
41
1
10
7.31146467855984
20
0.999589339794369
30
0
41
1
10
7.20724781550319
20
0.999378469834312
30
0
41
1
10
7.20344665311919
20
0.999370903110758
30
0
0
SPLINE
5
AA
100
AcDbEntity
8
1
62
256
6
ByLayer
370
18
48
1
60
0
100
AcDbSpline
70
4
71
3
72
16
73
12
40
0
40
0
40
0
40
0
40
0.151220629441483
40
0.254438805871463
40
0.347060029056641
40
0.453542754139862
40
0.550743532771422
40
0.646297914562776
40
0.728763468771445
40
0.833230167847791
40
1
40
1
40
1
40
1
41
1
10
6.77350117437862
20
-0.998850393360385
30
0
41
1
10
6.92061183192558
20
-0.998980597059813
30
0
41
1
10
7.16814026553647
20
-0.999166894527662
30
0
41
1
10
7.50578442545594
20
-1.00016209549955
30
0
41
1
10
7.79991414925428
20
-0.999629396302254
30
0
41
1
10
8.08818979806222
20
-0.999266827328938
30
0
41
1
10
8.37930796179535
20
-1.00076978182122
30
0
41
1
10
8.64706935619344
20
-1.0017266943984
30
0
41
1
10
8.92189360919113
20
-1.0001017161207
30
0
41
1
10
9.26600601305074
20
-0.999725670312785
30
0
41
1
10
9.52988723091826
20
-1.00040858224836
30
0
41
1
10
9.6921347627185
20
-1.00128755014231
30
0
0
SPLINE
5
AB
100
AcDbEntity
8
1
62
256
6
ByLayer
370
18
48
1
60
0
100
AcDbSpline
70
4
71
2
72
6
73
3
40
0
40
0
40
0
40
1
40
1
40
1
41
1
10
25.3229999361163
20
-1.00523629110285
30
0
41
1
10
25.4625239668532
20
-1.00792308901021
30
0
41
1
10
25.6022854136108
20
-1.00946569708131
30
0
0
SPLINE
5
AC
100
AcDbEntity
8
1
62
256
6
ByLayer
370
18
48
1
60
0
100
AcDbSpline
70
4
71
3
72
16
73
12
40
0
40
0
40
0
40
0
40
0.143808998192838
40
0.236424168465346
40
0.312045487759613
40
0.404112658971196
40
0.498779278992902
40
0.605794646050572
40
0.705688213944621
40
0.822813086727696
40
1
40
1
40
1
40
1
41
1
10
19.2726264742094
20
-1.00652116214013
30
0
41
1
10
19.4127633297757
20
-1.00671341359634
30
0
41
1
10
19.643154365083
20
-1.00707226808598
30
0
41
1
10
19.9472378991157
20
-1.00702424803941
30
0
41
1
10
20.2009164083365
20
-1.00797046757583
30
0
41
1
10
20.4565898117366
20
-1.00721535075368
30
0
41
1
10
20.7428600945373
20
-1.00590896515175
30
0
41
1
10
21.0367524874393
20
-1.0081108787497
30
0
41
1
10
21.3525355958009
20
-1.00878444481265
30
0
41
1
10
21.7366887331542
20
-1.00725699058651
30
0
41
1
10
22.0235056716754
20
-1.0076624919746
30
0
41
1
10
22.1961814728905
20
-1.00806224447979
30
0
0
SPLINE
5
AD
100
AcDbEntity
8
1
62
256
6
ByLayer
370
18
48
1
60
0
100
AcDbSpline
70
4
71
1
72
4
73
2
40
0
40
0
40
1
40
1
41
1
10
25.6022854136108
20
-1.00946569708131
30
0
41
1
10
25.627093813145
20
-1.00976017417949
30
0
0
SPLINE
5
AE
100
AcDbEntity
8
1
62
256
6
ByLayer
370
18
48
1
60
0
100
AcDbSpline
70
4
71
3
72
14
73
10
40
0
40
0
40
0
40
0
40
0.194068230920687
40
0.315803130891713
40
0.436646595740337
40
0.607036357357466
40
0.777182415048343
40
0.892322322582587
40
1
40
1
40
1
40
1
41
1
10
15.9428833294873
20
1.00536389200207
30
0
41
1
10
15.7813360420556
20
1.00406119072244
30
0
41
1
10
15.5184556313298
20
1.0026680042339
30
0
41
1
10
15.1550006528047
20
1.00605839401345
30
0
41
1
10
14.8112337895244
20
1.00351411098592
30
0
41
1
10
14.4271685136498
20
1.00411405615429
30
0
41
1
10
14.0478547263384
20
1.00261679444498
30
0
41
1
10
13.7207405198165
20
1.00399861612769
30
0
41
1
10
13.5352681111236
20
1.00352843663578
30
0
41
1
10
13.4456372830197
20
1.00334256059085
30
0
0
SPLINE
5
AF
100
AcDbEntity
8
1
62
256
6
ByLayer
370
18
48
1
60
0
100
AcDbSpline
70
4
71
3
72
15
73
11
40
0
40
0
40
0
40
0
40
0.14341313254794
40
0.236577448229003
40
0.335081537698242
40
0.480641862980652
40
0.626425340513399
40
0.729816733110373
40
0.833966221760158
40
1
40
1
40
1
40
1
41
1
10
13.0240002482593
20
-1.00256939422121
30
0
41
1
10
13.1635376748558
20
-1.00286996560482
30
0
41
1
10
13.3937224289687
20
-1.00316445482966
30
0
41
1
10
13.7197456914518
20
-1.00400286441871
30
0
41
1
10
14.0478711580381
20
-1.00261675299768
30
0
41
1
10
14.4271916091601
20
-1.00411405232262
30
0
41
1
10
14.8112711165544
20
-1.00351447510809
30
0
41
1
10
15.1550580730926
20
-1.00605814409133
30
0
41
1
10
15.5185261578632
20
-1.0026676369983
30
0
41
1
10
15.7814128301483
20
-1.00406123260774
30
0
41
1
10
15.9429639594058
20
-1.0053643908704
30
0
0
SPLINE
5
B0
100
AcDbEntity
8
1
62
256
6
ByLayer
370
18
48
1
60
0
100
AcDbSpline
70
4
71
3
72
16
73
12
40
0
40
0
40
0
40
0
40
0.206863293625196
40
0.343612868075731
40
0.460242780082691
40
0.585179431204453
40
0.695695551781966
40
0.803173825703915
40
0.891457164854917
40
0.999583634360127
40
1
40
1
40
1
40
1
41
1
10
22.1962612663519
20
1.00806250718747
30
0
41
1
10
22.0235795381026
20
1.00766246640905
30
0
41
1
10
21.7367461683217
20
1.00725665799845
30
0
41
1
10
21.3525686372337
20
1.00878448840754
30
0
41
1
10
21.0367654168862
20
1.00811097007872
30
0
41
1
10
20.7428651436715
20
1.00590897173444
30
0
41
1
10
20.4565992847906
20
1.0072152992924
30
0
41
1
10
20.2009323506635
20
1.00797045832127
30
0
41
1
10
19.9472558810228
20
1.00702430791043
30
0
41
1
10
19.7829621612858
20
1.00705020716532
30
0
41
1
10
19.6923599567966
20
1.00700338196558
30
0
41
1
10
19.6920124106447
20
1.00700320144958
30
0
0
SPLINE
5
B1
100
AcDbEntity
8
1
62
256
6
ByLayer
370
18
48
1
60
0
100
AcDbSpline
70
4
71
3
72
18
73
14
40
0
40
0
40
0
40
0
40
0.249999999999985
40
0.249999999999985
40
0.499999999999971
40
0.499999999999971
40
0.624999999999978
40
0.624999999999978
40
0.749999999999985
40
0.749999999999985
40
0.874999999999993
40
0.874999999999993
40
1
40
1
40
1
40
1
41
1
10
25.8541981606513
20
-0.364632294097646
30
0
41
1
10
25.8406075358337
20
-0.355418433667836
30
0
41
1
10
25.8204117775621
20
-0.364024696699545
30
0
41
1
10
25.7787398706862
20
-0.404283169284327
30
0
41
1
10
25.7558898392086
20
-0.437532599245316
30
0
41
1
10
25.730801252705
20
-0.499378228330471
30
0
41
1
10
25.7245186718766
20
-0.521171131327748
30
0
41
1
10
25.7191243993198
20
-0.559851262273867
30
0
41
1
10
25.7201678947625
20
-0.575887819179343
30
0
41
1
10
25.7279836632717
20
-0.597315089074016
30
0
41
1
10
25.7345855855909
20
-0.602959094569542
30
0
41
1
10
25.7503981711345
20
-0.605795505024503
30
0
41
1
10
25.7597155058172
20
-0.603078035194017
30
0
41
1
10
25.7696293523663
20
-0.596983185237207
30
0
0
SPLINE
5
B2
100
AcDbEntity
8
1
62
256
6
ByLayer
370
18
48
1
60
0
100
AcDbSpline
70
4
71
3
72
16
73
12
40
0
40
0
40
0
40
0
40
0.20785733163696
40
0.20785733163696
40
0.412652486818225
40
0.412652486818225
40
0.617447641999489
40
0.617447641999489
40
0.822242797180753
40
0.822242797180753
40
1
40
1
40
1
40
1
41
1
10
19.2939444193729
20
-1.00660878813963
30
0
41
1
10
19.1919311683062
20
-1.00663673333179
30
0
41
1
10
19.0899567579097
20
-1.00271840203669
30
0
41
1
10
18.8871335334716
20
-0.987330433260581
30
0
41
1
10
18.786274538015
20
-0.975907990774743
30
0
41
1
10
18.5836998993544
20
-0.94531633812548
30
0
41
1
10
18.481789533139
20
-0.926034379095711
30
0
41
1
10
18.2787326393216
20
-0.880550203250436
30
0
41
1
10
18.1773262408361
20
-0.854281420141291
30
0
41
1
10
17.987764687446
20
-0.799234863361562
30
0
41
1
10
17.8994205085656
20
-0.771182967109553
30
0
41
1
10
17.8112746467741
20
-0.741047238756522
30
0
0
SPLINE
5
B3
100
AcDbEntity
8
1
62
256
6
ByLayer
370
13
48
1
60
0
100
AcDbSpline
70
4
71
3
72
22
73
18
40
0
40
0
40
0
40
0
40
0.0103207274684956
40
0.0103207274684956
40
0.166666515649858
40
0.166666515649858
40
0.32301230383122
40
0.32301230383122
40
0.479358092012582
40
0.479358092012582
40
0.635703880193945
40
0.635703880193945
40
0.792049668375311
40
0.792049668375311
40
0.948395456556677
40
0.948395456556677
40
1
40
1
40
1
40
1
41
1
10
17.8112746467183
20
-0.741047238737423
30
0
41
1
10
17.7978671247112
20
-0.736463411057997
30
0
41
1
10
17.7844641910201
20
-0.731831371294589
30
0
41
1
10
17.5681242689455
20
-0.656273472543916
30
0
41
1
10
17.3669388763656
20
-0.574838300879975
30
0
41
1
10
16.9648661936146
20
-0.396559499441707
30
0
41
1
10
16.7636848727769
20
-0.300205029097441
30
0
41
1
10
16.3578391586111
20
-0.0989807162815737
30
0
41
1
10
16.1539621128392
20
0.0050855904331115
30
0
41
1
10
15.7475062066954
20
0.209068139632251
30
0
41
1
10
15.5447250809798
20
0.309055415294665
30
0
41
1
10
15.1380295110589
20
0.497015618779869
30
0
41
1
10
14.9367141849416
20
0.58362556973151
30
0
41
1
10
14.5345291594442
20
0.736452992267033
30
0
41
1
10
14.3335184067541
20
0.802418241451193
30
0
41
1
10
14.0639815493614
20
0.87323418506341
30
0
41
1
10
13.9968093006802
20
0.88944266432469
30
0
41
1
10
13.9297434088685
20
0.904102330664244
30
0
0
SPLINE
5
B4
100
AcDbEntity
8
1
62
256
6
ByLayer
370
13
48
1
60
0
100
AcDbSpline
70
4
71
3
72
8
73
4
40
0
40
0
40
0
40
0
40
1
40
1
40
1
40
1
41
1
10
6.79129637008089
20
-0.998858188796078
30
0
41
1
10
6.61194569395869
20
-0.998912046636946
30
0
41
1
10
6.43181528601656
20
-0.986832048003691
30
0
41
1
10
6.25047449635809
20
-0.962314727589444
30
0
0
SPLINE
5
B5
100
AcDbEntity
8
1
62
256
6
ByLayer
370
18
48
1
60
0
100
AcDbSpline
70
4
71
3
72
54
73
50
40
0
40
0
40
0
40
0
40
0.0068724941228778
40
0.0068724941228778
40
0.0446340754352033
40
0.0446340754352033
40
0.0823956567475288
40
0.0823956567475288
40
0.120157238059854
40
0.120157238059854
40
0.15791881937218
40
0.15791881937218
40
0.195680400684505
40
0.195680400684505
40
0.233441981996831
40
0.233441981996831
40
0.308965144621482
40
0.308965144621482
40
0.346726725933805
40
0.346726725933805
40
0.384488307246128
40
0.384488307246128
40
0.422249888558452
40
0.422249888558452
40
0.460011469870775
40
0.460011469870775
40
0.535534632495421
40
0.535534632495421
40
0.611057795120068
40
0.611057795120068
40
0.648819376432391
40
0.648819376432391
40
0.686580957744715
40
0.686580957744715
40
0.724342539057038
40
0.724342539057038
40
0.762104120369361
40
0.762104120369361
40
0.799865701681685
40
0.799865701681685
40
0.837627282994008
40
0.837627282994008
40
0.875388864306331
40
0.875388864306331
40
0.913150445618655
40
0.913150445618655
40
0.988673608243301
40
0.988673608243301
40
1
40
1
40
1
40
1
41
1
10
23.5032751470069
20
-0.789494545185846
30
0
41
1
10
23.4857815705371
20
-0.794963310869349
30
0
41
1
10
23.468284493043
20
-0.800349195710396
30
0
41
1
10
23.3546222561865
20
-0.83481091789244
30
0
41
1
10
23.2580537166141
20
-0.861409289315731
30
0
41
1
10
23.0662650931356
20
-0.908463554345587
30
0
41
1
10
22.9706815042263
20
-0.928863071486262
30
0
41
1
10
22.7802177963652
20
-0.962665848606576
30
0
41
1
10
22.6851574156721
20
-0.97582562744239
30
0
41
1
10
22.4951021218481
20
-0.995765069659399
30
0
41
1
10
22.3999595524659
20
-1.002638393121
30
0
41
1
10
22.2094976718356
20
-1.00913366416469
30
0
41
1
10
22.1139864701643
20
-1.00849769123224
30
0
41
1
10
21.9222686643557
20
-1.00064789529134
30
0
41
1
10
21.8256353682717
20
-0.993590250171849
30
0
41
1
10
21.5377889120813
20
-0.962583334401643
30
0
41
1
10
21.3475446560778
20
-0.928431485657654
30
0
41
1
10
21.0628016286665
20
-0.857412737084644
30
0
41
1
10
20.9678706321725
20
-0.830327487619826
30
0
41
1
10
20.7777165455611
20
-0.770728109310653
30
0
41
1
10
20.6823472600069
20
-0.738983666323179
30
0
41
1
10
20.4911474179148
20
-0.670403731966786
30
0
41
1
10
20.3948683254001
20
-0.633752160757808
30
0
41
1
10
20.2026884651028
20
-0.555679699229216
30
0
41
1
10
20.1071639583743
20
-0.514477153262618
30
0
41
1
10
19.8217843298605
20
-0.385526474667699
30
0
41
1
10
19.6322217729224
20
-0.295051138852415
30
0
41
1
10
19.2529459150275
20
-0.105768686530098
30
0
41
1
10
19.0625725446537
20
-0.0094562652061541
30
0
41
1
10
18.7745972582218
20
0.13577649811495
30
0
41
1
10
18.6785761512108
20
0.183850341970924
30
0
41
1
10
18.4881197910991
20
0.277774392120477
30
0
41
1
10
18.3932013768137
20
0.323543705506466
30
0
41
1
10
18.2036933381144
20
0.412636326302959
30
0
41
1
10
18.1089946544364
20
0.455625963103472
30
0
41
1
10
17.9194955054385
20
0.538982037923233
30
0
41
1
10
17.8246472414027
20
0.578994537340378
30
0
41
1
10
17.6346818610836
20
0.65528402348167
30
0
41
1
10
17.5394411968797
20
0.691405483238668
30
0
41
1
10
17.3481478862748
20
0.758432841607885
30
0
41
1
10
17.2518296646987
20
0.788930546795768
30
0
41
1
10
17.0604149044929
20
0.845213452329432
30
0
41
1
10
16.9650045148385
20
0.870531175219725
30
0
41
1
10
16.7747414394626
20
0.914497473460784
30
0
41
1
10
16.6797972961556
20
0.932837368211977
30
0
41
1
10
16.394867191233
20
0.980323530121211
30
0
41
1
10
16.2048239466296
20
1.00059174496164
30
0
41
1
10
15.9846039145453
20
1.00516743034285
30
0
41
1
10
15.9558179429721
20
1.00536533849382
30
0
41
1
10
15.9270000592775
20
1.00520700903269
30
0
0
SPLINE
5
B6
100
AcDbEntity
8
1
62
256
6
ByLayer
370
18
48
1
60
0
100
AcDbSpline
70
4
71
3
72
34
73
30
40
0
40
0
40
0
40
0
40
0.0375334764021754
40
0.0375334764021754
40
0.0976876341270398
40
0.0976876341270398
40
0.157841791851904
40
0.157841791851904
40
0.217995949576768
40
0.217995949576768
40
0.278150107301632
40
0.278150107301632
40
0.338304265026497
40
0.338304265026497
40
0.398458422751361
40
0.398458422751361
40
0.518766738201089
40
0.518766738201089
40
0.578920895925954
40
0.578920895925954
40
0.639075053650818
40
0.639075053650818
40
0.759383369100543
40
0.759383369100543
40
0.819537526825407
40
0.819537526825407
40
0.879691684550272
40
0.879691684550272
40
1
40
1
40
1
40
1
41
1
10
11.0260196949658
20
-0.778856491530007
30
0
41
1
10
10.9663649652867
20
-0.797861566458863
30
0
41
1
10
10.9068769096544
20
-0.815679486183541
30
0
41
1
10
10.7522814001354
20
-0.858437538798825
30
0
41
1
10
10.6573739417005
20
-0.881335261909982
30
0
41
1
10
10.4671917235922
20
-0.922515119370303
30
0
41
1
10
10.3721484128005
20
-0.9405215147805
30
0
41
1
10
10.1816419352058
20
-0.970004264272433
30
0
41
1
10
10.0862973242706
20
-0.981580126229005
30
0
41
1
10
9.89472067508518
20
-0.997106399579451
30
0
41
1
10
9.79829074615068
20
-1.00060444511379
30
0
41
1
10
9.60574042897136
20
-1.00175321297078
30
0
41
1
10
9.50992009898332
20
-0.999114638454529
30
0
41
1
10
9.31878863235707
20
-0.985999647098993
30
0
41
1
10
9.22356510481555
20
-0.975761312854786
30
0
41
1
10
8.93760378174522
20
-0.937083339291888
30
0
41
1
10
8.74728640291511
20
-0.899912209149647
30
0
41
1
10
8.45977315024601
20
-0.822695941192535
30
0
41
1
10
8.36341289868162
20
-0.793159321124023
30
0
41
1
10
8.17039631817585
20
-0.729309408092661
30
0
41
1
10
8.07437158091977
20
-0.695040126900466
30
0
41
1
10
7.78679921178946
20
-0.586644274697733
30
0
41
1
10
7.59629073703144
20
-0.506158686608188
30
0
41
1
10
7.30995050411434
20
-0.375407320799383
30
0
41
1
10
7.21448649317864
20
-0.329839514435378
30
0
41
1
10
7.02271678987793
20
-0.237150205349195
30
0
41
1
10
6.92661111251545
20
-0.18977542454806
30
0
41
1
10
6.6366170368602
20
-0.0459736414760243
30
0
41
1
10
6.44403614755174
20
0.0520220620904297
30
0
41
1
10
6.25100783020292
20
0.147883824651529
30
0
0
SPLINE
5
B7
100
AcDbEntity
8
1
62
256
6
ByLayer
370
13
48
1
60
0
100
AcDbSpline
70
4
71
3
72
10
73
6
40
0
40
0
40
0
40
0
40
0.5
40
0.5
40
1
40
1
40
1
40
1
41
1
10
6.25047449635983
20
-0.962314727589671
30
0
41
1
10
6.22911431792886
20
-0.960566215964491
30
0
41
1
10
6.20814260371486
20
-0.961420927384921
30
0
41
1
10
6.16704262917202
20
-0.968172893974668
30
0
41
1
10
6.14680921481786
20
-0.974168597118677
30
0
41
1
10
6.12792005151999
20
-0.982627168637691
30
0
0
SPLINE
5
B8
100
AcDbEntity
8
1
62
256
6
ByLayer
370
18
48
1
60
0
100
AcDbSpline
70
4
71
3
72
12
73
8
40
0
40
0
40
0
40
0
40
0.25
40
0.25
40
0.5
40
0.5
40
1
40
1
40
1
40
1
41
1
10
25.6205206548641
20
-1.00665596466993
30
0
41
1
10
25.6039253122669
20
-1.00280692572412
30
0
41
1
10
25.5883838751191
20
-0.996051719299686
30
0
41
1
10
25.5595458870716
20
-0.976350983200206
30
0
41
1
10
25.5461831780918
20
-0.963261662129241
30
0
41
1
10
25.510932178618
20
-0.915299979702951
30
0
41
1
10
25.4933559005669
20
-0.871781205078321
30
0
41
1
10
25.4824426177414
20
-0.815557977360783
30
0
0
SPLINE
5
B9
100
AcDbEntity
8
1
62
256
6
ByLayer
370
18
48
1
60
0
100
AcDbSpline
70
4
71
3
72
32
73
28
40
0
40
0
40
0
40
0
40
0.0927203346782678
40
0.0927203346782678
40
0.139080502017402
40
0.139080502017402
40
0.185440669356536
40
0.185440669356536
40
0.278161004034803
40
0.278161004034803
40
0.370881338713071
40
0.370881338713071
40
0.463601673391339
40
0.463601673391339
40
0.50996184073047
40
0.50996184073047
40
0.556322008069602
40
0.556322008069602
40
0.741762677426117
40
0.741762677426117
40
0.788122844765248
40
0.788122844765248
40
0.834483012104378
40
0.834483012104378
40
0.927203346782638
40
0.927203346782638
40
1
40
1
40
1
40
1
41
1
10
25.6366517087239
20
-1.06327443453836
30
0
41
1
10
25.4328574448815
20
-1.0794182622742
30
0
41
1
10
25.23002941046
20
-1.07855253498363
30
0
41
1
10
24.9243579052616
20
-1.05213736286632
30
0
41
1
10
24.8223752671979
20
-1.03911755459572
30
0
41
1
10
24.6198291057613
20
-1.0053101525526
30
0
41
1
10
24.5189636931359
20
-0.984506072578597
30
0
41
1
10
24.2167950644309
20
-0.911174249488255
30
0
41
1
10
24.015938885621
20
-0.847718590427064
30
0
41
1
10
23.6114757650681
20
-0.695570915777466
30
0
41
1
10
23.4066696539214
20
-0.606410804696111
30
0
41
1
10
23.0024078140364
20
-0.414574362302119
30
0
41
1
10
22.8016749629393
20
-0.311292302915604
30
0
41
1
10
22.4994168400415
20
-0.151191149447555
30
0
41
1
10
22.3984553246005
20
-0.0969932610921376
30
0
41
1
10
22.1956279675862
20
0.0121694259917717
30
0
41
1
10
22.0933506591182
20
0.0673549937333746
30
0
41
1
10
21.585122771497
20
0.339850350891822
30
0
41
1
10
21.1864895634284
20
0.544793676531214
30
0
41
1
10
20.6783037001343
20
0.750294071320042
30
0
41
1
10
20.5760508715487
20
0.788764336725848
30
0
41
1
10
20.3732026380284
20
0.858549167924622
30
0
41
1
10
20.2721956754101
20
0.890044030892568
30
0
41
1
10
19.9697571882173
20
0.973821788563725
30
0
41
1
10
19.7690094618578
20
1.01543177246251
30
0
41
1
10
19.4081174252741
20
1.06103475559593
30
0
41
1
10
19.2476994653894
20
1.07109911736225
30
0
41
1
10
19.0881299729906
20
1.07083890461976
30
0
0
SPLINE
5
BA
100
AcDbEntity
8
1
62
256
6
ByLayer
370
18
48
1
60
0
100
AcDbSpline
70
4
71
3
72
38
73
34
40
0
40
0
40
0
40
0
40
0.0040349104414043
40
0.0040349104414043
40
0.0916851201380195
40
0.0916851201380195
40
0.179335329834635
40
0.179335329834635
40
0.223160434682942
40
0.223160434682942
40
0.266985539531249
40
0.266985539531249
40
0.354635749227862
40
0.354635749227862
40
0.39846085407617
40
0.39846085407617
40
0.442285958924477
40
0.442285958924477
40
0.52993616862109
40
0.52993616862109
40
0.617586378317703
40
0.617586378317703
40
0.661411483166008
40
0.661411483166008
40
0.705236588014313
40
0.705236588014313
40
0.792886797710924
40
0.792886797710924
40
0.836711902559228
40
0.836711902559228
40
0.880537007407532
40
0.880537007407532
40
1
40
1
40
1
40
1
41
1
10
13.5226496394123
20
-1.00567690108113
30
0
41
1
10
13.513256398807
20
-1.00736076055526
30
0
41
1
10
13.5038585540378
20
-1.00901178400068
30
0
41
1
10
13.2902028938492
20
-1.04577633204909
30
0
41
1
10
13.0884818717912
20
-1.06450892533451
30
0
41
1
10
12.6853522373839
20
-1.06898451753031
30
0
41
1
10
12.4839551771659
20
-1.05486002230677
30
0
41
1
10
12.179620132787
20
-1.00913528347715
30
0
41
1
10
12.0773108306465
20
-0.989725382648572
30
0
41
1
10
11.8736154722411
20
-0.943500044124022
30
0
41
1
10
11.7722807477769
20
-0.916733155757299
30
0
41
1
10
11.4692071750265
20
-0.826252550103391
30
0
41
1
10
11.2681960634251
20
-0.752546059152792
30
0
41
1
10
10.9651139466945
20
-0.626051088407593
30
0
41
1
10
10.8638356029207
20
-0.581223660620736
30
0
41
1
10
10.660380993068
20
-0.486710824612686
30
0
41
1
10
10.557969486646
20
-0.437030520440032
30
0
41
1
10
10.253198357787
20
-0.284842376436615
30
0
41
1
10
10.0517118299212
20
-0.178546906553208
30
0
41
1
10
9.64863148006293
20
0.0370885010407562
30
0
41
1
10
9.44687293529711
20
0.146122138525072
30
0
41
1
10
9.14066426290577
20
0.305306224090657
30
0
41
1
10
9.03861311844861
20
0.35731505799194
30
0
41
1
10
8.83581556876305
20
0.45744567976223
30
0
41
1
10
8.73478771570259
20
0.505700663600265
30
0
41
1
10
8.43209206880093
20
0.643907251020238
30
0
41
1
10
8.23094592525294
20
0.727488196620357
30
0
41
1
10
7.92685556981047
20
0.834828033331945
30
0
41
1
10
7.82482872142921
20
0.867679254684447
30
0
41
1
10
7.62061477966304
20
0.926244300132737
30
0
41
1
10
7.51910981476331
20
0.95177392887615
30
0
41
1
10
7.14223679007239
20
1.03256619176895
30
0
41
1
10
6.86947852858447
20
1.06301134334242
30
0
41
1
10
6.59415495268007
20
1.06297096820853
30
0
0
SPLINE
5
BB
100
AcDbEntity
8
1
62
256
6
ByLayer
370
18
48
1
60
0
100
AcDbSpline
70
4
71
3
72
24
73
20
40
0
40
0
40
0
40
0
40
0.0625000000000012
40
0.0625000000000012
40
0.125000000000002
40
0.125000000000002
40
0.187500000000003
40
0.187500000000003
40
0.250000000000005
40
0.250000000000005
40
0.375000000000007
40
0.375000000000007
40
0.50000000000001
40
0.50000000000001
40
0.625000000000012
40
0.625000000000012
40
0.750000000000014
40
0.750000000000014
40
1
40
1
40
1
40
1
41
1
10
24.6008712251394
20
0.343773345220654
30
0
41
1
10
24.5950665562036
20
0.311869134643303
30
0
41
1
10
24.5916727959679
20
0.279182644221578
30
0
41
1
10
24.5899807650159
20
0.21215630390077
30
0
41
1
10
24.5917592286478
20
0.177704380831926
30
0
41
1
10
24.6002455381623
20
0.110044414411988
30
0
41
1
10
24.6069210393827
20
0.0764718094960699
30
0
41
1
10
24.6248000424807
20
0.0098057292219664
30
0
41
1
10
24.6360894380886
20
-0.0234004779891563
30
0
41
1
10
24.6749437986261
20
-0.119101271744654
30
0
41
1
10
24.7077739373361
20
-0.179086525368348
30
0
41
1
10
24.7833604284879
20
-0.292275566871126
30
0
41
1
10
24.8250198122498
20
-0.343918485476365
30
0
41
1
10
24.9139033696926
20
-0.44007715227022
30
0
41
1
10
24.9614147547561
20
-0.4847582539754
30
0
41
1
10
25.0598311975838
20
-0.5672663622166
30
0
41
1
10
25.1103487110606
20
-0.604823052199293
30
0
41
1
10
25.2649905828326
20
-0.70876903129215
30
0
41
1
10
25.3721383116677
20
-0.766620498989937
30
0
41
1
10
25.4824426177402
20
-0.815557977360214
30
0
0
SPLINE
5
BC
100
AcDbEntity
8
1
62
256
6
ByLayer
370
13
48
1
60
0
100
AcDbSpline
70
4
71
3
72
8
73
4
40
0
40
0
40
0
40
0
40
1
40
1
40
1
40
1
41
1
10
6.08298506783802
20
-1.00814893773861
30
0
41
1
10
6.09650069840578
20
-0.998587236815354
30
0
41
1
10
6.1114184615941
20
-0.990016584270563
30
0
41
1
10
6.12792005151999
20
-0.982627168637663
30
0
0
SPLINE
5
BD
100
AcDbEntity
8
1
62
256
6
ByLayer
370
18
48
1
60
0
100
AcDbSpline
70
4
71
3
72
48
73
44
40
0
40
0
40
0
40
0
40
0.0455435589897477
40
0.0455435589897477
40
0.0910871179794954
40
0.0910871179794954
40
0.136630676969243
40
0.136630676969243
40
0.182174235958991
40
0.182174235958991
40
0.227717794948739
40
0.227717794948739
40
0.273261353938486
40
0.273261353938486
40
0.318804912928234
40
0.318804912928234
40
0.364348471917982
40
0.364348471917982
40
0.409892030907729
40
0.409892030907729
40
0.455435589897477
40
0.455435589897477
40
0.500979148887225
40
0.500979148887225
40
0.546522707876972
40
0.546522707876972
40
0.59206626686672
40
0.59206626686672
40
0.637609825856468
40
0.637609825856468
40
0.683153384846216
40
0.683153384846216
40
0.728696943835963
40
0.728696943835963
40
0.774240502825711
40
0.774240502825711
40
0.819784061815459
40
0.819784061815459
40
0.910871179794954
40
0.910871179794954
40
0.956414738784702
40
0.956414738784702
40
1
40
1
40
1
40
1
41
1
10
5.6331737018576
20
1.0088546529756
30
0
41
1
10
5.73831960995045
20
1.02682456580209
30
0
41
1
10
5.84340255898451
20
1.04000707288856
30
0
41
1
10
6.05267396878048
20
1.05792004149117
30
0
41
1
10
6.15666628114093
20
1.06260192149532
30
0
41
1
10
6.36456775391869
20
1.06310719553449
30
0
41
1
10
6.46877352518024
20
1.05900990198032
30
0
41
1
10
6.67728926551826
20
1.04218736850308
30
0
41
1
10
6.78139981394472
20
1.02929539505743
30
0
41
1
10
6.99107480141288
20
0.995048843001939
30
0
41
1
10
7.09710249488435
20
0.973763855061662
30
0
41
1
10
7.30697156662313
20
0.923084568832309
30
0
41
1
10
7.4111186132119
20
0.893615333425174
30
0
41
1
10
7.61965825392417
20
0.828476552127398
30
0
41
1
10
7.72384374329107
20
0.792654023568957
30
0
41
1
10
7.93164163531202
20
0.713914085569002
30
0
41
1
10
8.03552338439715
20
0.671299205294218
30
0
41
1
10
8.24452387124543
20
0.581517851257217
30
0
41
1
10
8.34929887541409
20
0.533851435424339
30
0
41
1
10
8.55966203220277
20
0.433045032223333
30
0
41
1
10
8.6648816987294
20
0.380904880098086
30
0
41
1
10
8.87422424129326
20
0.275001324858465
30
0
41
1
10
8.97826513230967
20
0.220463511058625
30
0
41
1
10
9.186050744912
20
0.110016526149195
30
0
41
1
10
9.29013377854773
20
0.0547526889687049
30
0
41
1
10
9.49844810512855
20
-0.0562810455264184
30
0
41
1
10
9.60243169727841
20
-0.112534483136329
30
0
41
1
10
9.81164739005789
20
-0.22345878194983
30
0
41
1
10
9.91736695222065
20
-0.277970616353457
30
0
41
1
10
10.1279473519393
20
-0.385120345014087
30
0
41
1
10
10.2326632148713
20
-0.4377439672528
30
0
41
1
10
10.4429193025652
20
-0.537702186367738
30
0
41
1
10
10.5483774399942
20
-0.585383172030703
30
0
41
1
10
10.7589668855344
20
-0.676711602504753
30
0
41
1
10
10.8635112402425
20
-0.719565366211782
30
0
41
1
10
11.072535232015
20
-0.79788589142035
30
0
41
1
10
11.1766908952306
20
-0.833849786857229
30
0
41
1
10
11.4882143381397
20
-0.931827788427142
30
0
41
1
10
11.6963616251033
20
-0.982169440826482
30
0
41
1
10
12.0105150881319
20
-1.03358634209397
30
0
41
1
10
12.1163268637443
20
-1.04639817902614
30
0
41
1
10
12.3216613302691
20
-1.06278865513917
30
0
41
1
10
12.4213148339638
20
-1.06681555932417
30
0
41
1
10
12.5208605783074
20
-1.06677070614595
30
0
0
SPLINE
5
BE
100
AcDbEntity
8
1
62
256
6
ByLayer
370
18
48
1
60
0
100
AcDbSpline
70
4
71
3
72
54
73
50
40
0
40
0
40
0
40
0
40
0.0336108685266204
40
0.0336108685266204
40
0.0741065517944328
40
0.0741065517944328
40
0.114602235062245
40
0.114602235062245
40
0.155097918330057
40
0.155097918330057
40
0.19559360159787
40
0.19559360159787
40
0.236089284865682
40
0.236089284865682
40
0.276584968133494
40
0.276584968133494
40
0.317080651401307
40
0.317080651401307
40
0.357576334669119
40
0.357576334669119
40
0.398072017936931
40
0.398072017936931
40
0.438567701204744
40
0.438567701204744
40
0.479063384472556
40
0.479063384472556
40
0.519559067740368
40
0.519559067740368
40
0.560054751008181
40
0.560054751008181
40
0.600550434275993
40
0.600550434275993
40
0.641046117543805
40
0.641046117543805
40
0.681541800811618
40
0.681541800811618
40
0.72203748407943
40
0.72203748407943
40
0.762533167347242
40
0.762533167347242
40
0.843524533882867
40
0.843524533882867
40
0.884020217150679
40
0.884020217150679
40
0.924515900418492
40
0.924515900418492
40
0.965011583686304
40
0.965011583686304
40
1
40
1
40
1
40
1
41
1
10
17.2827054147825
20
0.7856157632975
30
0
41
1
10
17.3690797431827
20
0.817038534414792
30
0
41
1
10
17.4555147702695
20
0.846388958859393
30
0
41
1
10
17.646413279379
20
0.906137221991656
30
0
41
1
10
17.751655754229
20
0.935171368733648
30
0
41
1
10
17.9621340184078
20
0.98500644531498
30
0
41
1
10
18.066529296231
20
1.00598756357604
30
0
41
1
10
18.2746597999018
20
1.03932951837788
30
0
41
1
10
18.3787261261094
20
1.05156949852625
30
0
41
1
10
18.5865893064952
20
1.06757562978078
30
0
41
1
10
18.6901475852435
20
1.07131235890475
30
0
41
1
10
18.8981476746986
20
1.06986385977922
30
0
41
1
10
19.002738742615
20
1.06479875632792
30
0
41
1
10
19.2124317080265
20
1.04571753329148
30
0
41
1
10
19.3176237831474
20
1.0315085807631
30
0
41
1
10
19.5277888064489
20
0.995042018844885
30
0
41
1
10
19.6329253994732
20
0.972786377044343
30
0
41
1
10
19.8427705573328
20
0.9197140142781
30
0
41
1
10
19.9480567559839
20
0.888912311904846
30
0
41
1
10
20.1580513521746
20
0.821222331202904
30
0
41
1
10
20.262487997356
20
0.78400585777058
30
0
41
1
10
20.4703552551549
20
0.7029556202246
30
0
41
1
10
20.5741461409092
20
0.659603922231099
30
0
41
1
10
20.7820948985401
20
0.568382196088692
30
0
41
1
10
20.8858988825825
20
0.519957296290414
30
0
41
1
10
21.0939720859092
20
0.418609887369001
30
0
41
1
10
21.1985969362652
20
0.366329104762031
30
0
41
1
10
21.4089491459217
20
0.258408491211753
30
0
41
1
10
21.5138970354294
20
0.20246506469573
30
0
41
1
10
21.7225405299416
20
0.0906690314166667
30
0
41
1
10
21.8267950136488
20
0.0350530012875652
30
0
41
1
10
22.0345685820784
20
-0.0767857382994066
30
0
41
1
10
22.1379826841049
20
-0.133196366419867
30
0
41
1
10
22.3457523499113
20
-0.243442296772315
30
0
41
1
10
22.4500494369405
20
-0.297398576378271
30
0
41
1
10
22.6588208437865
20
-0.404159011029833
30
0
41
1
10
22.7638736097376
20
-0.456831242544297
30
0
41
1
10
22.9740066459027
20
-0.556383222566581
30
0
41
1
10
23.0785547302002
20
-0.603702545383896
30
0
41
1
10
23.3904390266549
20
-0.738639017168424
30
0
41
1
10
23.5978862171734
20
-0.816472685519187
30
0
41
1
10
23.9095667847011
20
-0.913404012950309
30
0
41
1
10
24.0139560344642
20
-0.941923795987066
30
0
41
1
10
24.2239297882211
20
-0.991201214673453
30
0
41
1
10
24.3291649174997
20
-1.01213595990836
30
0
41
1
10
24.5379333116708
20
-1.04493553673217
30
0
41
1
10
24.6421949057533
20
-1.05683908657679
30
0
41
1
10
24.8359094660817
20
-1.07110327885488
30
0
41
1
10
24.9253077447362
20
-1.07449459247303
30
0
41
1
10
25.0148881737387
20
-1.07457937209091
30
0
0
SPLINE
5
BF
100
AcDbEntity
8
1
62
256
6
ByLayer
370
18
48
1
60
0
100
AcDbSpline
70
4
71
3
72
26
73
22
40
0
40
0
40
0
40
0
40
0.24999999999998
40
0.24999999999998
40
0.374999999999984
40
0.374999999999984
40
0.499999999999987
40
0.499999999999987
40
0.62499999999999
40
0.62499999999999
40
0.749999999999993
40
0.749999999999993
40
0.874999999999996
40
0.874999999999996
40
0.937500000000009
40
0.937500000000009
40
0.968750000000005
40
0.968750000000005
40
0.984375000000002
40
0.984375000000002
40
1
40
1
40
1
40
1
41
1
10
24.6008712251393
20
0.34377334522091
30
0
41
1
10
24.6850468294122
20
0.294488303252564
30
0
41
1
10
24.771409246997
20
0.253133669859068
30
0
41
1
10
24.9046094763926
20
0.204362273733921
30
0
41
1
10
24.9497257342943
20
0.19040847587209
30
0
41
1
10
25.0394602679343
20
0.168103194130452
30
0
41
1
10
25.0842961924345
20
0.15959829900649
30
0
41
1
10
25.1739016770024
20
0.148194862872003
30
0
41
1
10
25.2186705189517
20
0.145356987278206
30
0
41
1
10
25.3081281767248
20
0.146441706750323
30
0
41
1
10
25.3528242045396
20
0.150363096831143
30
0
41
1
10
25.4400035948959
20
0.165471133281841
30
0
41
1
10
25.4828634622056
20
0.17673532216827
30
0
41
1
10
25.5452027524422
20
0.199678838079848
30
0
41
1
10
25.56564299639
20
0.208319019825865
30
0
41
1
10
25.595681251697
20
0.222738294529506
30
0
41
1
10
25.6056937814679
20
0.227583637289996
30
0
41
1
10
25.6202306319598
20
0.235854846495045
30
0
41
1
10
25.6245955669011
20
0.240284448897341
30
0
41
1
10
25.6267908107897
20
0.253136720111826
30
0
41
1
10
25.6246229759017
20
0.260140636484579
30
0
41
1
10
25.6233803289526
20
0.266901915315657
30
0
0
SPLINE
5
C0
100
AcDbEntity
8
1
62
256
6
ByLayer
370
13
48
1
60
0
100
AcDbSpline
70
4
71
3
72
26
73
22
40
0
40
0
40
0
40
0
40
0.236449334173397
40
0.236449334173397
40
0.360765646083722
40
0.360765646083722
40
0.485081957994048
40
0.485081957994048
40
0.547240113949214
40
0.547240113949214
40
0.60939826990438
40
0.60939826990438
40
0.733714581814712
40
0.733714581814712
40
0.858030893725045
40
0.858030893725045
40
0.920189049680211
40
0.920189049680211
40
0.982347205635377
40
0.982347205635377
40
1
40
1
40
1
40
1
41
1
10
25.5809615505512
20
-1.01021275216073
30
0
41
1
10
25.1958629388347
20
-1.01431342488934
30
0
41
1
10
24.817978525146
20
-0.961084610202136
30
0
41
1
10
24.2334303652285
20
-0.80465896451588
30
0
41
1
10
24.0293954232925
20
-0.736633414097525
30
0
41
1
10
23.6261443394027
20
-0.581339506313896
30
0
41
1
10
23.4256471076509
20
-0.494052551174661
30
0
41
1
10
23.1239893591718
20
-0.353605742139109
30
0
41
1
10
23.0232926151821
20
-0.305186461027176
30
0
41
1
10
22.8211320230575
20
-0.205936817056084
30
0
41
1
10
22.7192970592677
20
-0.154920696761451
30
0
41
1
10
22.4153006436773
20
-0.0016154847289442
30
0
41
1
10
22.214390175197
20
0.101092540941409
30
0
41
1
10
21.8126288949039
20
0.300705519598182
30
0
41
1
10
21.6116951926677
20
0.397483402984818
30
0
41
1
10
21.3073147265344
20
0.532331375765636
30
0
41
1
10
21.2055630526752
20
0.575494381115391
30
0
41
1
10
21.0035205887513
20
0.656412557965893
30
0
41
1
10
20.9028656470122
20
0.694235324497299
30
0
41
1
10
20.7738024508288
20
0.739283955179303
30
0
41
1
10
20.7452649784778
20
0.749021926837486
30
0
41
1
10
20.7167314182167
20
0.75852633610134
30
0
0
SPLINE
5
C1
100
AcDbEntity
8
1
62
256
6
ByLayer
370
18
48
1
60
0
100
AcDbSpline
70
4
71
3
72
8
73
4
40
0
40
0
40
0
40
0
40
1
40
1
40
1
40
1
41
1
10
20.7167314181277
20
0.758526336131041
30
0
41
1
10
20.5847125615141
20
0.80250126362904
30
0
41
1
10
20.4527774518197
20
0.841476272629876
30
0
41
1
10
20.3204159734741
20
0.874702539984582
30
0
0
SPLINE
5
C2
100
AcDbEntity
8
1
62
256
6
ByLayer
370
18
48
1
60
0
100
AcDbSpline
70
4
71
3
72
12
73
8
40
0
40
0
40
0
40
0
40
0.0937535108852855
40
0.0937535108852855
40
0.570850421040483
40
0.570850421040483
40
1
40
1
40
1
40
1
41
1
10
13.0386543693938
20
-1.00257724488978
30
0
41
1
10
12.9990818600581
20
-1.00253401052777
30
0
41
1
10
12.959477207102
20
-1.00190062637327
30
0
41
1
10
12.7180413189821
20
-0.994455513158158
30
0
41
1
10
12.5138173917903
20
-0.97272862051409
30
0
41
1
10
12.130288126098
20
-0.903393089921281
30
0
41
1
10
11.9496408604357
20
-0.859053325479692
30
0
41
1
10
11.768719395125
20
-0.804596485534319
30
0
0
SPLINE
5
C3
100
AcDbEntity
8
1
62
256
6
ByLayer
370
13
48
1
60
0
100
AcDbSpline
70
4
71
3
72
30
73
26
40
0
40
0
40
0
40
0
40
0.0138943775547177
40
0.0138943775547177
40
0.0830219436292352
40
0.0830219436292352
40
0.152149509703753
40
0.152149509703753
40
0.428659774001817
40
0.428659774001817
40
0.497787340076334
40
0.497787340076334
40
0.566914906150851
40
0.566914906150851
40
0.636042472225368
40
0.636042472225368
40
0.705170038299885
40
0.705170038299885
40
0.843425170448919
40
0.843425170448919
40
0.912552736523434
40
0.912552736523434
40
0.981680302597949
40
0.981680302597949
40
1
40
1
40
1
40
1
41
1
10
11.7687193950265
20
-0.804596485504618
30
0
41
1
10
11.7485056937231
20
-0.798512219633977
30
0
41
1
10
11.7282885696444
20
-0.792301664483745
30
0
41
1
10
11.6074559999729
20
-0.754449209580599
30
0
41
1
10
11.5066927712506
20
-0.719922213088097
30
0
41
1
10
11.3044540974449
20
-0.645340483765722
30
0
41
1
10
11.2026023549309
20
-0.605145359417094
30
0
41
1
10
10.6951263230914
20
-0.393905627853087
30
0
41
1
10
10.2967069261097
20
-0.192745166330468
30
0
41
1
10
9.78952810126032
20
0.0625507324665193
30
0
41
1
10
9.6876233166328
20
0.113782106965402
30
0
41
1
10
9.48460617776837
20
0.214617421095653
30
0
41
1
10
9.38320911810058
20
0.26431592063517
30
0
41
1
10
9.18009282765996
20
0.36123907261333
30
0
41
1
10
9.07814143918171
20
0.408630004547206
30
0
41
1
10
8.87531381176643
20
0.499443225355208
30
0
41
1
10
8.77432934603596
20
0.542892904773311
30
0
41
1
10
8.47199318344343
20
0.666176197825536
30
0
41
1
10
8.27130644412031
20
0.738907804439435
30
0
41
1
10
7.96873136556991
20
0.830034775964549
30
0
41
1
10
7.86761011123991
20
0.857412501123434
30
0
41
1
10
7.66436224921239
20
0.905516135025948
30
0
41
1
10
7.56263186347593
20
0.926115098551264
30
0
41
1
10
7.43473622720913
20
0.947331244730634
30
0
41
1
10
7.40796880091557
20
0.951510967764534
30
0
41
1
10
7.38122282030258
20
0.955425849220262
30
0
0
SPLINE
5
C4
100
AcDbEntity
8
1
62
256
6
ByLayer
370
18
48
1
60
0
100
AcDbSpline
70
4
71
3
72
14
73
10
40
0
40
0
40
0
40
0
40
0.25
40
0.25
40
0.5
40
0.5
40
0.75
40
0.75
40
1
40
1
40
1
40
1
41
1
10
25.8541981606505
20
-0.36463229409506
30
0
41
1
10
25.8560679789375
20
-0.370625840731776
30
0
41
1
10
25.8542821529418
20
-0.385749328330519
30
0
41
1
10
25.8435938424475
20
-0.428686708903825
30
0
41
1
10
25.8348952898625
20
-0.455669602319773
30
0
41
1
10
25.8157055561187
20
-0.50709114288901
30
0
41
1
10
25.805141057262
20
-0.531889588759071
30
0
41
1
10
25.7857237482506
20
-0.572060434865932
30
0
41
1
10
25.7767439495001
20
-0.587796817182607
30
0
41
1
10
25.7696293523692
20
-0.596983185237093
30
0
0
SPLINE
5
C5
100
AcDbEntity
8
1
62
256
6
ByLayer
370
18
48
1
60
0
100
AcDbSpline
70
4
71
3
72
12
73
8
40
0
40
0
40
0
40
0
40
0.494071231396194
40
0.494071231396194
40
0.988142462792388
40
0.988142462792388
40
1
40
1
40
1
40
1
41
1
10
5.6331737018576
20
-1.00885465297563
30
0
41
1
10
5.73831960995045
20
-1.02682456580209
30
0
41
1
10
5.84340255898448
20
-1.04000707288856
30
0
41
1
10
6.05267396878048
20
-1.05792004149117
30
0
41
1
10
6.15666628114093
20
-1.06260192149532
30
0
41
1
10
6.26311179894222
20
-1.06286062171523
30
0
41
1
10
6.26560672725046
20
-1.0628641794284
30
0
41
1
10
6.26810179964923
20
-1.06286523215147
30
0
0
SPLINE
5
C6
100
AcDbEntity
8
1
62
256
6
ByLayer
370
18
48
1
60
0
100
AcDbSpline
70
4
71
3
72
54
73
50
40
0
40
0
40
0
40
0
40
0.032974159925449
40
0.032974159925449
40
0.113893428469203
40
0.113893428469203
40
0.15435306274108
40
0.15435306274108
40
0.194812697012957
40
0.194812697012957
40
0.235272331284834
40
0.235272331284834
40
0.27573196555671
40
0.27573196555671
40
0.316191599828587
40
0.316191599828587
40
0.356651234100464
40
0.356651234100464
40
0.397110868372341
40
0.397110868372341
40
0.437570502644218
40
0.437570502644218
40
0.478030136916095
40
0.478030136916095
40
0.518489771187972
40
0.518489771187972
40
0.558949405459849
40
0.558949405459849
40
0.599409039731726
40
0.599409039731726
40
0.639868674003603
40
0.639868674003603
40
0.68032830827548
40
0.68032830827548
40
0.720787942547357
40
0.720787942547357
40
0.761247576819234
40
0.761247576819234
40
0.801707211091111
40
0.801707211091111
40
0.842166845362988
40
0.842166845362988
40
0.882626479634865
40
0.882626479634865
40
0.923086113906742
40
0.923086113906742
40
0.963545748178619
40
0.963545748178619
40
1
40
1
40
1
40
1
41
1
10
11.025994493146
20
0.780131947066366
30
0
41
1
10
11.1110643375597
20
0.811080206537923
30
0
41
1
10
11.1959026419684
20
0.83989212041152
30
0
41
1
10
11.4882143381397
20
0.931827788427114
30
0
41
1
10
11.6963616251033
20
0.982169440826482
30
0
41
1
10
12.0105150881319
20
1.03358634209397
30
0
41
1
10
12.1163268637443
20
1.04639817902614
30
0
41
1
10
12.3261728454882
20
1.06314877920252
30
0
41
1
10
12.4302682224844
20
1.0671693679069
30
0
41
1
10
12.6382874528991
20
1.06631061898361
30
0
41
1
10
12.7424274206626
20
1.06154070701791
30
0
41
1
10
12.9503581477932
20
1.04335823463873
30
0
41
1
10
13.0540445608655
20
1.02978976730262
30
0
41
1
10
13.262739841081
20
0.994447974034074
30
0
41
1
10
13.3676864876769
20
0.972766266994739
30
0
41
1
10
13.5781621788925
20
0.920566780137847
30
0
41
1
10
13.6828971672744
20
0.890329185755661
30
0
41
1
10
13.8919429601921
20
0.823861712538246
30
0
41
1
10
13.9961387234687
20
0.787318841539673
30
0
41
1
10
14.2037427262996
20
0.707387757670915
30
0
41
1
10
14.3074790393737
20
0.664411592077585
30
0
41
1
10
14.515748005563
20
0.57393206884754
30
0
41
1
10
14.6199224261461
20
0.525883566486584
30
0
41
1
10
14.8289139358031
20
0.424822863509831
30
0
41
1
10
14.934540163798
20
0.372252602411862
30
0
41
1
10
15.1446993275693
20
0.265139471070739
30
0
41
1
10
15.2489388839553
20
0.209994832859138
30
0
41
1
10
15.4570019605548
20
0.0989363467587907
30
0
41
1
10
15.5611052606873
20
0.0435549204679262
30
0
41
1
10
15.7689864432721
20
-0.0678054237564822
30
0
41
1
10
15.8725879566005
20
-0.124119695691491
30
0
41
1
10
16.0809070791459
20
-0.234602163293715
30
0
41
1
10
16.1856767266023
20
-0.288671693803963
30
0
41
1
10
16.3957325355771
20
-0.395805017948192
30
0
41
1
10
16.5008213678586
20
-0.448518929463461
30
0
41
1
10
16.710024583352
20
-0.54772175798567
30
0
41
1
10
16.814319829831
20
-0.594883409265918
30
0
41
1
10
17.0219610918058
20
-0.684852349659423
30
0
41
1
10
17.125592303428
20
-0.727173411073608
30
0
41
1
10
17.3336753747634
20
-0.804919834446565
30
0
41
1
10
17.4377794845523
20
-0.840838090375911
30
0
41
1
10
17.6464132793789
20
-0.906137221991685
30
0
41
1
10
17.751655754229
20
-0.935171368733648
30
0
41
1
10
17.9621340184078
20
-0.98500644531498
30
0
41
1
10
18.066529296231
20
-1.00598756357607
30
0
41
1
10
18.2746597999018
20
-1.03932951837788
30
0
41
1
10
18.3787261261094
20
-1.05156949852625
30
0
41
1
10
18.5763003907671
20
-1.06678335028565
30
0
41
1
10
18.6696400086104
20
-1.07053069712114
30
0
41
1
10
18.7632727500672
20
-1.07067223558042
30
0
0
SPLINE
5
C7
100
AcDbEntity
8
1
62
256
6
ByLayer
370
18
48
1
60
0
100
AcDbSpline
70
4
71
3
72
20
73
16
40
0
40
0
40
0
40
0
40
0.137943464651169
40
0.137943464651169
40
0.281619553875974
40
0.281619553875974
40
0.425295643100779
40
0.425295643100779
40
0.568971732325584
40
0.568971732325584
40
0.712647821550389
40
0.712647821550389
40
0.856323910775194
40
0.856323910775194
40
1
40
1
40
1
40
1
41
1
10
23.5065733751891
20
0.779015633676948
30
0
41
1
10
23.6062551648027
20
0.816006173907141
30
0
41
1
10
23.7059250540728
20
0.850072303095089
30
0
41
1
10
23.9095667847011
20
0.913404012950309
30
0
41
1
10
24.0139560344642
20
0.941923795987066
30
0
41
1
10
24.2239297882211
20
0.991201214673453
30
0
41
1
10
24.3291649174997
20
1.01213595990836
30
0
41
1
10
24.5379333116708
20
1.0449355367322
30
0
41
1
10
24.6421949057533
20
1.05683908657679
30
0
41
1
10
24.8500427445144
20
1.07214398431728
30
0
41
1
10
24.9534410629281
20
1.07548240750123
30
0
41
1
10
25.1609679859046
20
1.07326420467248
30
0
41
1
10
25.2651671532897
20
1.06783488337001
30
0
41
1
10
25.4737112021378
20
1.04807080891692
30
0
41
1
10
25.5782717997058
20
1.03359863807071
30
0
41
1
10
25.6835477733112
20
1.01498048011103
30
0
0
SPLINE
5
C8
100
AcDbEntity
8
1
62
256
6
ByLayer
370
18
48
1
60
0
100
AcDbSpline
70
4
71
3
72
14
73
10
40
0
40
0
40
0
40
0
40
0.290600457859284
40
0.290600457859284
40
0.61527185513026
40
0.61527185513026
40
0.939943252401236
40
0.939943252401236
40
1
40
1
40
1
40
1
41
1
10
5.63317370185757
20
1.0088546529756
30
0
41
1
10
5.63317370185757
20
0.950593053069326
30
0
41
1
10
5.63317370185757
20
0.892928340235954
30
0
41
1
10
5.63317370185757
20
0.774853710612774
30
0
41
1
10
5.63317370185757
20
0.714976702422916
30
0
41
1
10
5.63317370185757
20
0.599647406825625
30
0
41
1
10
5.63317370185757
20
0.543982948711374
30
0
41
1
10
5.63317370185757
20
0.481315232665651
30
0
41
1
10
5.63317370185757
20
0.471644150805019
30
0
41
1
10
5.63317370185757
20
0.462032652975609
30
0
0
SPLINE
5
C9
100
AcDbEntity
8
1
62
256
6
ByLayer
370
18
48
1
60
0
100
AcDbSpline
70
4
71
3
72
10
73
6
40
0
40
0
40
0
40
0
40
0.5
40
0.5
40
1
40
1
40
1
40
1
41
1
10
6.20584725667527
20
-1.04274810929147
30
0
41
1
10
6.18965105224885
20
-1.04106789202811
30
0
41
1
10
6.17385389495257
20
-1.03917843483748
30
0
41
1
10
6.14358484042484
20
-1.03470824282326
30
0
41
1
10
6.12908593028573
20
-1.03214855907328
30
0
41
1
10
6.11615665246359
20
-1.02879928365044
30
0
0
SPLINE
5
CA
100
AcDbEntity
8
1
62
256
6
ByLayer
370
18
48
1
60
0
100
AcDbSpline
70
4
71
3
72
18
73
14
40
0
40
0
40
0
40
0
40
0.170174372893164
40
0.170174372893164
40
0.342678845794749
40
0.342678845794749
40
0.496902510782372
40
0.496902510782372
40
0.639227288837964
40
0.639227288837964
40
0.864302713614817
40
0.864302713614817
40
1
40
1
40
1
40
1
41
1
10
25.6233803289526
20
0.266901915315629
30
0
41
1
10
25.622823463659
20
0.26993183586066
30
0
41
1
10
25.622620750943
20
0.273071171300756
30
0
41
1
10
25.6232322594819
20
0.279244477729321
30
0
41
1
10
25.6240858932799
20
0.282359497262149
30
0
41
1
10
25.6267817426717
20
0.287627421114251
30
0
41
1
10
25.6285476598777
20
0.289912544912284
30
0
41
1
10
25.6325242940971
20
0.293542666235709
30
0
41
1
10
25.6347291593177
20
0.294994390364565
30
0
41
1
10
25.6406936362338
20
0.297926123396081
30
0
41
1
10
25.64470781616
20
0.299007544478997
30
0
41
1
10
25.6511526253651
20
0.299897245668007
30
0
41
1
10
25.6536176813482
20
0.300045201020367
30
0
41
1
10
25.6560740540316
20
0.300041826483948
30
0
0
SPLINE
5
CB
100
AcDbEntity
8
1
62
256
6
ByLayer
370
18
48
1
60
0
100
AcDbSpline
70
4
71
3
72
10
73
6
40
0
40
0
40
0
40
0
40
0.5
40
0.5
40
1
40
1
40
1
40
1
41
1
10
6.11615665246359
20
-1.02879928365044
30
0
41
1
10
6.10660066816161
20
-1.02632384582603
30
0
41
1
10
6.09858114874166
20
-1.02344982591219
30
0
41
1
10
6.08662648844808
20
-1.01648568549643
30
0
41
1
10
6.08296615332969
20
-1.01251238733519
30
0
41
1
10
6.08298506783819
20
-1.00814893773199
30
0
0
SPLINE
5
CC
100
AcDbEntity
8
1
62
256
6
ByLayer
370
18
48
1
60
0
100
AcDbSpline
70
4
71
3
72
12
73
8
40
0
40
0
40
0
40
0
40
0.5
40
0.5
40
0.75
40
0.75
40
1
40
1
40
1
40
1
41
1
10
25.683547773311
20
-1.01498048011098
30
0
41
1
10
25.7221631070745
20
-0.897104578433328
30
0
41
1
10
25.762873598965
20
-0.778540148995432
30
0
41
1
10
25.8256570874946
20
-0.60012900375267
30
0
41
1
10
25.8468838051029
20
-0.540560398987793
30
0
41
1
10
25.8898115430911
20
-0.421267320256163
30
0
41
1
10
25.9116669119769
20
-0.361525195992357
30
0
41
1
10
25.9332604680815
20
-0.301795834470738
30
0
0
SPLINE
5
CD
100
AcDbEntity
8
1
62
256
6
ByLayer
370
13
48
1
60
0
100
AcDbSpline
70
4
71
3
72
22
73
18
40
0
40
0
40
0
40
0
40
0.125
40
0.125
40
0.25
40
0.25
40
0.375
40
0.375
40
0.5
40
0.5
40
0.625
40
0.625
40
0.75
40
0.75
40
0.875
40
0.875
40
1
40
1
40
1
40
1
41
1
10
6.25047449635977
20
-0.962314727589671
30
0
41
1
10
6.25051806916125
20
-0.946135767420344
30
0
41
1
10
6.25055595847985
20
-0.924861700431535
30
0
41
1
10
6.25062411636011
20
-0.872439611587822
30
0
41
1
10
6.25065461174782
20
-0.840910691824575
30
0
41
1
10
6.25070935827767
20
-0.769696540174721
30
0
41
1
10
6.25073376537608
20
-0.7300513439518
30
0
41
1
10
6.25077957463901
20
-0.642735378125366
30
0
41
1
10
6.25080107678136
20
-0.594730598721242
30
0
41
1
10
6.25084183947453
20
-0.493126741542625
30
0
41
1
10
6.25086129324916
20
-0.439098202034273
30
0
41
1
10
6.25089809292678
20
-0.328255455775775
30
0
41
1
10
6.25091559414369
20
-0.271075255488853
30
0
41
1
10
6.2509485179433
20
-0.153142092590372
30
0
41
1
10
6.25096384458237
20
-0.0925755312340755
30
0
41
1
10
6.25098978162939
20
0.0275590016853187
30
0
41
1
10
6.25100057897492
20
0.08780313958016
30
0
41
1
10
6.25100782994977
20
0.147883824147783
30
0
0
SPLINE
5
CE
100
AcDbEntity
8
1
62
256
6
ByLayer
370
18
48
1
60
0
100
AcDbSpline
70
4
71
3
72
8
73
4
40
0
40
0
40
0
40
0
40
1
40
1
40
1
40
1
41
1
10
25.6366517087234
20
1.06327443453839
30
0
41
1
10
25.5382029529117
20
1.07107318080472
30
0
41
1
10
25.4398112368895
20
1.07491073336291
30
0
41
1
10
25.3412474797898
20
1.07478519230256
30
0
0
SPLINE
5
CF
100
AcDbEntity
8
1
62
256
6
ByLayer
370
18
48
1
60
0
100
AcDbSpline
70
4
71
3
72
40
73
36
40
0
40
0
40
0
40
0
40
0.0187348135397514
40
0.0187348135397514
40
0.0630297324356142
40
0.0630297324356142
40
0.107324651331477
40
0.107324651331477
40
0.195914489123203
40
0.195914489123203
40
0.284504326914928
40
0.284504326914928
40
0.373094164706654
40
0.373094164706654
40
0.417389083602517
40
0.417389083602517
40
0.46168400249838
40
0.46168400249838
40
0.550273840290101
40
0.550273840290101
40
0.638863678081822
40
0.638863678081822
40
0.683158596977681
40
0.683158596977681
40
0.72745351587354
40
0.72745351587354
40
0.816043353665259
40
0.816043353665259
40
0.860338272561117
40
0.860338272561117
40
0.904633191456975
40
0.904633191456975
40
0.993223029248694
40
0.993223029248694
40
1
40
1
40
1
40
1
41
1
10
19.6978895250021
20
-1.02217433629576
30
0
41
1
10
19.6550577763678
20
-1.02904916824806
30
0
41
1
10
19.6121549130559
20
-1.03522518606954
30
0
41
1
10
19.46751305023
20
-1.05359090282965
30
0
41
1
10
19.3652099184173
20
-1.06244332647185
30
0
41
1
10
19.1623562614673
20
-1.07166716917931
30
0
41
1
10
19.0613827949862
20
-1.07209524642968
30
0
41
1
10
18.7589917251241
20
-1.06106231407054
30
0
41
1
10
18.5581052948936
20
-1.03730145183297
30
0
41
1
10
18.1538798333889
20
-0.958273654916297
30
0
41
1
10
17.949019115208
20
-0.902399119189511
30
0
41
1
10
17.5441685815093
20
-0.765801186078136
30
0
41
1
10
17.3430990042743
20
-0.685285766750894
30
0
41
1
10
17.0409476756007
20
-0.549987540241204
30
0
41
1
10
16.9400896819855
20
-0.502535113648378
30
0
41
1
10
16.7374869496851
20
-0.403881272515946
30
0
41
1
10
16.6354149172596
20
-0.35252042138211
30
0
41
1
10
16.3297559690441
20
-0.194598909738829
30
0
41
1
10
16.1281488673455
20
-0.0860091609350206
30
0
41
1
10
15.7253525608771
20
0.130351146561452
30
0
41
1
10
15.5241615308495
20
0.238115991843301
30
0
41
1
10
15.2194413110165
20
0.392986694351663
30
0
41
1
10
15.1170519627827
20
0.443693846897162
30
0
41
1
10
14.9137958650929
20
0.540544685388994
30
0
41
1
10
14.8126477492732
20
0.586777968316937
30
0
41
1
10
14.509949781161
20
0.717939737333666
30
0
41
1
10
14.3090200207149
20
0.795128835049837
30
0
41
1
10
14.0059781774922
20
0.891531466407514
30
0
41
1
10
13.9046673930507
20
0.920409385077051
30
0
41
1
10
13.7009356618716
20
0.970986718732661
30
0
41
1
10
13.5987053000521
20
0.992616392472627
30
0
41
1
10
13.2945114134325
20
1.04518133611774
30
0
41
1
10
13.0935107933266
20
1.06417532895176
30
0
41
1
10
12.8765515631801
20
1.06687934755354
30
0
41
1
10
12.861130752391
20
1.0669758031506
30
0
41
1
10
12.8457059865208
20
1.06697640915925
30
0
0
SPLINE
5
D0
100
AcDbEntity
8
1
62
256
6
ByLayer
370
18
48
1
60
0
100
AcDbSpline
70
4
71
3
72
10
73
6
40
0
40
0
40
0
40
0
40
0.434377736574942
40
0.434377736574942
40
1
40
1
40
1
40
1
41
1
10
7.28306360180073
20
-1.0001410533113
30
0
41
1
10
7.1282246760444
20
-1.02817431158147
30
0
41
1
10
6.97351143606681
20
-1.04716138666492
30
0
41
1
10
6.61527459580734
20
-1.06853083031055
30
0
41
1
10
6.4104661105346
20
-1.06397555997128
30
0
41
1
10
6.20584725667516
20
-1.04274810929144
30
0
0
SPLINE
5
D1
100
AcDbEntity
8
1
62
256
6
ByLayer
370
18
48
1
60
0
100
AcDbSpline
70
4
71
3
72
20
73
16
40
0
40
0
40
0
40
0
40
0.125
40
0.125
40
0.25
40
0.25
40
0.375
40
0.375
40
0.5
40
0.5
40
0.625
40
0.625
40
0.75
40
0.75
40
1
40
1
40
1
40
1
41
1
10
6.08298506783822
20
-1.00814893773202
30
0
41
1
10
6.08307440442451
20
-0.98753958951707
30
0
41
1
10
6.08315363125971
20
-0.961495342128643
30
0
41
1
10
6.08329705620071
20
-0.898617583017653
30
0
41
1
10
6.08336158073982
20
-0.861384053807143
30
0
41
1
10
6.08347587299085
20
-0.778749421501402
30
0
41
1
10
6.08352633499615
20
-0.733157077216816
30
0
41
1
10
6.0836190539373
20
-0.633343922660231
30
0
41
1
10
6.08366120919999
20
-0.579035081240619
30
0
41
1
10
6.08373802989578
20
-0.466111999406507
30
0
41
1
10
6.08377319684666
20
-0.4069878774811
30
0
41
1
10
6.08383953067514
20
-0.28327558848386
30
0
41
1
10
6.08387023043503
20
-0.219475658797165
30
0
41
1
10
6.08395374450012
20
-0.0272129498328866
30
0
41
1
10
6.08400035986506
20
0.106086380094411
30
0
41
1
10
6.08402425454167
20
0.232514631091902
30
0
0
SPLINE
5
D2
100
AcDbEntity
8
1
62
256
6
ByLayer
370
18
48
1
60
0
100
AcDbSpline
70
4
71
3
72
8
73
4
40
0
40
0
40
0
40
0
40
1
40
1
40
1
40
1
41
1
10
25.6205206548704
20
-1.00665596467138
30
0
41
1
10
25.6260310162249
20
-1.01073369825633
30
0
41
1
10
25.6327162636578
20
-1.01152944709909
30
0
41
1
10
25.6405484923494
20
-1.00912116188565
30
0
0
SPLINE
5
D3
100
AcDbEntity
8
1
62
256
6
ByLayer
370
18
48
1
60
0
100
AcDbSpline
70
4
71
3
72
8
73
4
40
0
40
0
40
0
40
0
40
1
40
1
40
1
40
1
41
1
10
6.08402425454167
20
0.232514631091874
30
0
41
1
10
5.93437256808616
20
0.310709045160877
30
0
41
1
10
5.78429798265074
20
0.386603103051442
30
0
41
1
10
5.63317370185757
20
0.459045149531221
30
0
0
SPLINE
5
D4
100
AcDbEntity
8
1
62
256
6
ByLayer
370
18
48
1
60
0
100
AcDbSpline
70
4
71
3
72
18
73
14
40
0
40
0
40
0
40
0
40
0.262372430635445
40
0.262372430635445
40
0.524744861270889
40
0.524744861270889
40
0.655931076588616
40
0.655931076588616
40
0.787117291906342
40
0.787117291906342
40
0.918303507224069
40
0.918303507224069
40
1
40
1
40
1
40
1
41
1
10
5.63317370185757
20
0.459045149531221
30
0
41
1
10
5.47870332763787
20
0.532349123708201
30
0
41
1
10
5.32691019194297
20
0.603724973015488
30
0
41
1
10
5.02798272237902
20
0.738855185700345
30
0
41
1
10
4.88079893547993
20
0.8026891198854
30
0
41
1
10
4.66395837156952
20
0.889180221816417
30
0
41
1
10
4.592818279081
20
0.91625765492185
30
0
41
1
10
4.45436047393829
20
0.965607811714932
30
0
41
1
10
4.38666864998009
20
0.987998746501432
30
0
41
1
10
4.25970410859429
20
1.02543514894103
30
0
41
1
10
4.19993918394465
20
1.04070940542545
30
0
41
1
10
4.11382279287901
20
1.05672747888889
30
0
41
1
10
4.08305591445807
20
1.06073780524986
30
0
41
1
10
4.05826542408397
20
1.06138032117937
30
0
0
SPLINE
5
D5
100
AcDbEntity
8
1
62
256
6
ByLayer
370
18
48
1
60
0
100
AcDbSpline
70
4
71
3
72
10
73
6
40
0
40
0
40
0
40
0
40
0.452991714661268
40
0.452991714661268
40
1
40
1
40
1
40
1
41
1
10
4.72238123907363
20
0.861363346446439
30
0
41
1
10
4.86549643026439
20
0.880485065611168
30
0
41
1
10
5.00649025182324
20
0.903246547860846
30
0
41
1
10
5.31076034109867
20
0.955261460722852
30
0
41
1
10
5.47323518580842
20
0.984723049830677
30
0
41
1
10
5.63317370185757
20
1.0088546529756
30
0
0
SPLINE
5
D6
100
AcDbEntity
8
1
62
256
6
ByLayer
370
18
48
1
60
0
100
AcDbSpline
70
4
71
3
72
8
73
4
40
0
40
0
40
0
40
0
40
1
40
1
40
1
40
1
41
1
10
25.6560740540316
20
0.300041826483465
30
0
41
1
10
25.7485952337077
20
0.299914721955105
30
0
41
1
10
25.8410599142334
20
0.300107521617917
30
0
41
1
10
25.9332604681016
20
0.301795834471818
30
0
0
SPLINE
5
D7
100
AcDbEntity
8
1
62
256
6
ByLayer
370
18
48
1
60
0
100
AcDbSpline
70
4
71
3
72
10
73
6
40
0
40
0
40
0
40
0
40
0.5
40
0.5
40
1
40
1
40
1
40
1
41
1
10
25.6405484923351
20
-1.00912116188601
30
0
41
1
10
25.6441091927298
20
-1.00802630339214
30
0
41
1
10
25.6462643002511
20
-1.01092742007009
30
0
41
1
10
25.6456691530379
20
-1.02852798669812
30
0
41
1
10
25.642474051403
20
-1.04418701367899
30
0
41
1
10
25.6366517087213
20
-1.06327443454916
30
0
0
SPLINE
5
D8
100
AcDbEntity
8
1
62
256
6
ByLayer
370
18
48
1
60
0
100
AcDbSpline
70
4
71
3
72
38
73
34
40
0
40
0
40
0
40
0
40
6.25409843146E-05
40
6.25409843146E-05
40
0.0833906625689193
40
0.0833906625689193
40
0.166718784153524
40
0.166718784153524
40
0.250046905738128
40
0.250046905738128
40
0.333375027322733
40
0.333375027322733
40
0.375039088115034
40
0.375039088115034
40
0.416703148907336
40
0.416703148907336
40
0.500031270491936
40
0.500031270491936
40
0.583359392076537
40
0.583359392076537
40
0.588567399675577
40
0.588567399675577
40
0.593775407274617
40
0.593775407274617
40
0.604191422472703
40
0.604191422472703
40
0.625023452868876
40
0.625023452868876
40
0.666687513661222
40
0.666687513661222
40
0.833343756830611
40
0.833343756830611
40
1
40
1
40
1
40
1
41
1
10
4.73640130789028
20
-0.860284936976029
30
0
41
1
10
4.73634705806938
20
-0.86030657702247
30
0
41
1
10
4.73629280861795
20
-0.86032821619969
30
0
41
1
10
4.66395837156551
20
-0.889180221817981
30
0
41
1
10
4.59281827907677
20
-0.916257654923413
30
0
41
1
10
4.45436047393369
20
-0.965607811716524
30
0
41
1
10
4.38666864997529
20
-0.987998746502996
30
0
41
1
10
4.25970410858929
20
-1.02543514894236
30
0
41
1
10
4.19993918393965
20
-1.04070940542664
30
0
41
1
10
4.09380295970752
20
-1.06045126659612
30
0
41
1
10
4.04661747196997
20
-1.0648123847738
30
0
41
1
10
4.0076119042491
20
-1.0554439201303
30
0
41
1
10
4.00016800747173
20
-1.0497730622244
30
0
41
1
10
3.99983500335833
20
-1.03239184097518
30
0
41
1
10
4.00705205064242
20
-1.02121175816228
30
0
41
1
10
4.04935928387104
20
-0.981745780793631
30
0
41
1
10
4.10324439841196
20
-0.949588450387637
30
0
41
1
10
4.22716480603145
20
-0.887459171321069
30
0
41
1
10
4.29838370870456
20
-0.856568601932963
30
0
41
1
10
4.37774112885609
20
-0.825099857437408
30
0
41
1
10
4.38260849645803
20
-0.823536432360527
30
0
41
1
10
4.39345736841278
20
-0.822196954734494
30
0
41
1
10
4.39901974332511
20
-0.822117272663235
30
0
41
1
10
4.41554919480458
20
-0.823159460123833
30
0
41
1
10
4.42634723518816
20
-0.824945580917472
30
0
41
1
10
4.45898440766487
20
-0.828960551274434
30
0
41
1
10
4.48074135811586
20
-0.831621540065612
30
0
41
1
10
4.54600755637864
20
-0.839556896756875
30
0
41
1
10
4.5895506569027
20
-0.844673604811277
30
0
41
1
10
4.80683484885461
20
-0.871071457740896
30
0
41
1
10
4.97788382147593
20
-0.8983562841305
30
0
41
1
10
5.31076034110171
20
-0.95526146072342
30
0
41
1
10
5.47323518580995
20
-0.984723049830905
30
0
41
1
10
5.63317370185757
20
-1.0088546529756
30
0
0
SPLINE
5
D9
100
AcDbEntity
8
1
62
256
6
ByLayer
370
18
48
1
60
0
100
AcDbSpline
70
4
71
3
72
10
73
6
40
0
40
0
40
0
40
0
40
0.5
40
0.5
40
1
40
1
40
1
40
1
41
1
10
6.25100782994983
20
0.14788382477721
30
0
41
1
10
6.2213793944378
20
0.162597904499108
30
0
41
1
10
6.19201280219397
20
0.176802866754713
30
0
41
1
10
6.13451679221063
20
0.205413097798896
30
0
41
1
10
6.1077928334991
20
0.21914026201793
30
0
41
1
10
6.08402425454167
20
0.232514631091874
30
0
0
SPLINE
5
DA
100
AcDbEntity
8
1
62
256
6
ByLayer
370
18
48
1
60
0
100
AcDbSpline
70
4
71
3
72
56
73
52
40
0
40
0
40
0
40
0
40
0.0031643327655323
40
0.0031643327655323
40
0.0408309004398048
40
0.0408309004398048
40
0.0784974681140773
40
0.0784974681140773
40
0.11616403578835
40
0.11616403578835
40
0.153830603462622
40
0.153830603462622
40
0.191497171136895
40
0.191497171136895
40
0.229163738811167
40
0.229163738811167
40
0.26683030648544
40
0.26683030648544
40
0.304496874159712
40
0.304496874159712
40
0.342163441833985
40
0.342163441833985
40
0.379830009508258
40
0.379830009508258
40
0.41749657718253
40
0.41749657718253
40
0.455163144856802
40
0.455163144856802
40
0.530496280205345
40
0.530496280205345
40
0.605829415553888
40
0.605829415553888
40
0.64349598322816
40
0.64349598322816
40
0.681162550902431
40
0.681162550902431
40
0.718829118576703
40
0.718829118576703
40
0.756495686250974
40
0.756495686250974
40
0.794162253925245
40
0.794162253925245
40
0.831828821599517
40
0.831828821599517
40
0.907161956948064
40
0.907161956948064
40
0.944828524622338
40
0.944828524622338
40
0.982495092296611
40
0.982495092296611
40
1
40
1
40
1
40
1
41
1
10
9.67024035904865
20
1.00125149081185
30
0
41
1
10
9.67832943957256
20
1.0012633153467
30
0
41
1
10
9.68641994158514
20
1.0012517520214
30
0
41
1
10
9.79083608419546
20
1.00080627146531
30
0
41
1
10
9.88725896056656
20
0.997501315303282
30
0
41
1
10
10.0789701070721
20
0.982368204534538
30
0
41
1
10
10.1743700201847
20
0.970957999831995
30
0
41
1
10
10.3649931070705
20
0.941788017430042
30
0
41
1
10
10.4600835772695
20
0.9239159084417
30
0
41
1
10
10.6503764111725
20
0.882978866600951
30
0
41
1
10
10.7453353735795
20
0.860182821452241
30
0
41
1
10
10.9358165282544
20
0.807838916167498
30
0
41
1
10
11.0312758249382
20
0.778065568917668
30
0
41
1
10
11.223306037337
20
0.713030211295347
30
0
41
1
10
11.3199584611534
20
0.67747572440868
30
0
41
1
10
11.5120748486934
20
0.60292745036628
30
0
41
1
10
11.6076953398169
20
0.563807916212681
30
0
41
1
10
11.7985854503888
20
0.482198589419966
30
0
41
1
10
11.893785189356
20
0.439268653964149
30
0
41
1
10
12.0842352743924
20
0.351166846197856
30
0
41
1
10
12.1793601379921
20
0.305747379139064
30
0
41
1
10
12.3699665003197
20
0.21306575622765
30
0
41
1
10
12.4654763459804
20
0.165472828556517
30
0
41
1
10
12.6575597674105
20
0.0693799606475807
30
0
41
1
10
12.7543417638167
20
0.0205693362432555
30
0
41
1
10
12.9469568081343
20
-0.076124813037751
30
0
41
1
10
13.0428257814011
20
-0.124271831845476
30
0
41
1
10
13.3296765226159
20
-0.267283442301448
30
0
41
1
10
13.5196265114774
20
-0.360641213973707
30
0
41
1
10
13.901432500373
20
-0.532282696656125
30
0
41
1
10
14.0937751849947
20
-0.611532764111814
30
0
41
1
10
14.383108624923
20
-0.719418208649017
30
0
41
1
10
14.479023130393
20
-0.75306292139166
30
0
41
1
10
14.6702154860073
20
-0.813475358917572
30
0
41
1
10
14.76552601966
20
-0.840567504137454
30
0
41
1
10
14.9558241290542
20
-0.890271069703971
30
0
41
1
10
15.0508163031223
20
-0.912423368409037
30
0
41
1
10
15.2411745416218
20
-0.948379761690688
30
0
41
1
10
15.336525085479
20
-0.962722722383063
30
0
41
1
10
15.5277585431825
20
-0.985227761110281
30
0
41
1
10
15.6237287655765
20
-0.993124608075561
30
0
41
1
10
15.8161673118144
20
-1.00393393933078
30
0
41
1
10
15.9125281933773
20
-1.0065109278419
30
0
41
1
10
16.199363305063
20
-1.00100115960134
30
0
41
1
10
16.3892104598955
20
-0.981041950792047
30
0
41
1
10
16.6739981843744
20
-0.933910993539797
30
0
41
1
10
16.7688995502728
20
-0.915705200659374
30
0
41
1
10
16.9591403738199
20
-0.872020013921372
30
0
41
1
10
17.0545512499037
20
-0.846826442686108
30
0
41
1
10
17.194787462461
20
-0.805749882256066
30
0
41
1
10
17.2394194072339
20
-0.792204075683657
30
0
41
1
10
17.2840608284956
20
-0.778081674463721
30
0
0
SPLINE
5
DB
100
AcDbEntity
8
1
62
256
6
ByLayer
370
18
48
1
60
0
100
AcDbSpline
70
4
71
3
72
22
73
18
40
0
40
0
40
0
40
0
40
0.0580482260172517
40
0.0580482260172517
40
0.175792197765095
40
0.175792197765095
40
0.293536169512939
40
0.293536169512939
40
0.411280141260782
40
0.411280141260782
40
0.529024113008626
40
0.529024113008626
40
0.64676808475647
40
0.64676808475647
40
0.764512056504313
40
0.764512056504313
40
1
40
1
40
1
40
1
41
1
10
22.1618328307663
20
1.00792095032409
30
0
41
1
10
22.2088719746765
20
1.00815918449612
30
0
41
1
10
22.2558432506136
20
1.00752746499506
30
0
41
1
10
22.3979107551484
20
1.00275876599559
30
0
41
1
10
22.4930123329765
20
0.995936184080222
30
0
41
1
10
22.6830455344736
20
0.976094273933825
30
0
41
1
10
22.7781247703844
20
0.962986232697318
30
0
41
1
10
22.968698070128
20
0.929265081423438
30
0
41
1
10
23.0643713835562
20
0.908891008182081
30
0
41
1
10
23.2564058922733
20
0.861850052217591
30
0
41
1
10
23.3530716369173
20
0.835253800663907
30
0
41
1
10
23.5454621569601
20
0.776976211225048
30
0
41
1
10
23.6415531840246
20
0.745427528593552
30
0
41
1
10
23.8336887575957
20
0.676433457597568
30
0
41
1
10
23.9299231282017
20
0.639220289096897
30
0
41
1
10
24.2192323462841
20
0.520742097460669
30
0
41
1
10
24.4105017416238
20
0.434651421048784
30
0
41
1
10
24.6008712251395
20
0.343773345220797
30
0
0
SPLINE
5
DC
100
AcDbEntity
8
1
62
256
6
ByLayer
370
18
48
1
60
0
100
AcDbSpline
70
4
71
3
72
12
73
8
40
0
40
0
40
0
40
0
40
0.5
40
0.5
40
0.75
40
0.75
40
1
40
1
40
1
40
1
41
1
10
25.6835477733112
20
1.01498048011098
30
0
41
1
10
25.7221627769568
20
0.897105586139958
30
0
41
1
10
25.7628731383743
20
0.778541479375804
30
0
41
1
10
25.8256566491394
20
0.600130238659546
30
0
41
1
10
25.8468834103484
20
0.540561501810316
30
0
41
1
10
25.8898112969249
20
0.421267998506238
30
0
41
1
10
25.9116668281423
20
0.361525427884857
30
0
41
1
10
25.9332604680837
20
0.301795834464713
30
0
0
SPLINE
5
DD
100
AcDbEntity
8
SK1
62
256
6
ByLayer
370
18
48
1
60
0
100
AcDbSpline
70
4
71
3
72
8
73
4
40
0
40
0
40
0
40
0
40
1
40
1
40
1
40
1
41
1
10
-47
20
0.160277456270819
30
0
41
1
10
-46.934558276025
20
0.227274402530725
30
0
41
1
10
-46.8675683018795
20
0.293834450758396
30
0
41
1
10
-46.8
20
0.360231301685104
30
0
0
SPLINE
5
DE
100
AcDbEntity
8
SK1
62
256
6
ByLayer
370
18
48
1
60
0
100
AcDbSpline
70
4
71
3
72
10
73
6
40
0
40
0
40
0
40
0
40
0.5
40
0.5
40
1
40
1
40
1
40
1
41
1
10
-46.711324865405
20
1.08166724216326
30
0
41
1
10
-46.7224443112054
20
1.08613301749031
30
0
41
1
10
-46.7371809222553
20
1.08021603655286
30
0
41
1
10
-46.7674097549521
20
1.06203106044231
30
0
41
1
10
-46.783372241806
20
1.04901514011931
30
0
41
1
10
-46.8
20
1.03267566211937
30
0
0
SPLINE
5
DF
100
AcDbEntity
8
SK1
62
256
6
ByLayer
370
18
48
1
60
0
100
AcDbSpline
70
4
71
3
72
8
73
4
40
0
40
0
40
0
40
0
40
1
40
1
40
1
40
1
41
1
10
-46.7
20
1.04833729190389
30
0
41
1
10
-46.7
20
1.06013471335748
30
0
41
1
10
-46.703864023103
20
1.07147607258966
30
0
41
1
10
-46.7113248654052
20
1.08166724216284
30
0
0
SPLINE
5
E0
100
AcDbEntity
8
SK1
62
256
6
ByLayer
370
18
48
1
60
0
100
AcDbSpline
70
4
71
3
72
8
73
4
40
0
40
0
40
0
40
0
40
1
40
1
40
1
40
1
41
1
10
-46.7113248654052
20
0.499625168145855
30
0
41
1
10
-46.7038639363162
20
0.513495079534891
30
0
41
1
10
-46.7
20
0.528633167675338
30
0
41
1
10
-46.7
20
0.544004021578189
30
0
0
SPLINE
5
E1
100
AcDbEntity
8
SK1
62
256
6
ByLayer
370
18
48
1
60
0
100
AcDbSpline
70
4
71
3
72
8
73
4
40
0
40
0
40
0
40
0
40
1
40
1
40
1
40
1
41
1
10
-46.8
20
1.03267566211937
30
0
41
1
10
-46.8675631421258
20
0.966283881490227
30
0
41
1
10
-46.9345514854925
20
0.89972571487445
30
0
41
1
10
-47
20
0.832721816705117
30
0
0
SPLINE
5
E2
100
AcDbEntity
8
SK1
62
256
6
ByLayer
370
18
48
1
60
0
100
AcDbSpline
70
4
71
3
72
10
73
6
40
0
40
0
40
0
40
0
40
0.5
40
0.5
40
1
40
1
40
1
40
1
41
1
10
-46.7999999999994
20
0.360231301682177
30
0
41
1
10
-46.7834418012375
20
0.37650242622189
30
0
41
1
10
-46.7675920063379
20
0.395908815505919
30
0
41
1
10
-46.7372567711648
20
0.4417829203841
30
0
41
1
10
-46.7223852117909
20
0.468398030906172
30
0
41
1
10
-46.7113248653912
20
0.499625168129853
30
0
0
LINE
5
76
100
AcDbEntity
8
81
62
256
6
ByLayer
370
18
48
1
60
0
100
AcDbLine
10
26
20
0
30
0
11
31
21
0
31
0
39
0
210
0
220
0
230
1
0
LINE
5
77
100
AcDbEntity
8
1
62
256
6
ByLayer
370
18
48
1
60
0
100
AcDbLine
10
0
20
-1.5
30
0
11
1.435062
21
-1.059845
31
0
39
0
210
0
220
0
230
1
0
LINE
5
79
100
AcDbEntity
8
1
62
256
6
ByLayer
370
18
48
1
60
0
100
AcDbLine
10
1.435062
20
1.059845
30
0
11
0
21
1.5
31
0
39
0
210
0
220
0
230
1
0
LINE
5
7A
100
AcDbEntity
8
1
62
256
6
ByLayer
370
18
48
1
60
0
100
AcDbLine
10
4.056152
20
1.061483
30
0
11
1.435062
21
1.059845
31
0
39
0
210
0
220
0
230
1
0
LINE
5
7B
100
AcDbEntity
8
1
62
256
6
ByLayer
370
18
48
1
60
0
100
AcDbLine
10
6.592947
20
1.063068
30
0
11
6.267668
21
1.062865
31
0
39
0
210
0
220
0
230
1
0
LINE
5
7C
100
AcDbEntity
8
1
62
256
6
ByLayer
370
18
48
1
60
0
100
AcDbLine
10
12.843977
20
1.066975
30
0
11
12.517618
21
1.066771
31
0
39
0
210
0
220
0
230
1
0
LINE
5
7D
100
AcDbEntity
8
1
62
256
6
ByLayer
370
18
48
1
60
0
100
AcDbLine
10
19.093867
20
1.070881
30
0
11
18.76646
21
1.070677
31
0
39
0
210
0
220
0
230
1
0
LINE
5
7E
100
AcDbEntity
8
1
62
256
6
ByLayer
370
18
48
1
60
0
100
AcDbLine
10
25.343214
20
1.074787
30
0
11
25.015425
21
1.074582
31
0
39
0
210
0
220
0
230
1
0
LINE
5
7F
100
AcDbEntity
8
1
62
256
6
ByLayer
370
18
48
1
60
0
100
AcDbLine
10
25.015425
20
-1.074582
30
0
11
25.343401
21
-1.074787
31
0
39
0
210
0
220
0
230
1
0
LINE
5
80
100
AcDbEntity
8
1
62
256
6
ByLayer
370
18
48
1
60
0
100
AcDbLine
10
18.76646
20
-1.070677
30
0
11
19.093109
21
-1.070881
31
0
39
0
210
0
220
0
230
1
0
LINE
5
81
100
AcDbEntity
8
1
62
256
6
ByLayer
370
18
48
1
60
0
100
AcDbLine
10
12.517618
20
-1.066771
30
0
11
12.842911
21
-1.066975
31
0
39
0
210
0
220
0
230
1
0
LINE
5
82
100
AcDbEntity
8
1
62
256
6
ByLayer
370
18
48
1
60
0
100
AcDbLine
10
6.267668
20
-1.062865
30
0
11
6.592979
21
-1.063068
31
0
39
0
210
0
220
0
230
1
0
LINE
5
83
100
AcDbEntity
8
1
62
256
6
ByLayer
370
18
48
1
60
0
100
AcDbLine
10
1.435062
20
-1.059845
30
0
11
4.056152
21
-1.061483
31
0
39
0
210
0
220
0
230
1
0
LINE
5
84
100
AcDbEntity
8
SK1
62
256
6
ByLayer
370
18
48
1
60
0
100
AcDbLine
10
0
20
1.5
30
0
11
-46.711325
21
1.5
31
0
39
0
210
0
220
0
230
1
0
LINE
5
86
100
AcDbEntity
8
SK1
62
256
6
ByLayer
370
18
48
1
60
0
100
AcDbLine
10
-46.711325
20
-1.5
30
0
11
0
21
-1.5
31
0
39
0
210
0
220
0
230
1
0
LINE
5
87
100
AcDbEntity
8
SK1
62
256
6
ByLayer
370
18
48
1
60
0
100
AcDbLine
10
-47
20
-1
30
0
11
-46.711325
21
-1.5
31
0
39
0
210
0
220
0
230
1
0
LINE
5
88
100
AcDbEntity
8
SK1
62
256
6
ByLayer
370
18
48
1
60
0
100
AcDbLine
10
-46.711325
20
1.5
30
0
11
-47
21
1
31
0
39
0
210
0
220
0
230
1
0
LINE
5
89
100
AcDbEntity
8
SK4
62
256
6
ByLayer
370
18
48
0.05
60
0
100
AcDbLine
10
31
20
0
30
0
11
-52
21
0
31
0
39
0
210
0
220
0
230
1
0
LINE
5
8B
100
AcDbEntity
8
4
62
256
6
ByLayer
370
18
48
0.05
60
0
100
AcDbLine
10
26
20
0
30
0
11
0
21
0
31
0
39
0
210
0
220
0
230
1
0
LINE
5
8D
100
AcDbEntity
8
80
62
256
6
ByLayer
370
18
48
1
60
0
100
AcDbLine
10
0
20
0
30
0
11
-5
21
0
31
0
39
0
210
0
220
0
230
1
0
LINE
5
8E
100
AcDbEntity
8
1
62
256
6
ByLayer
370
18
48
1
60
0
100
AcDbLine
10
25.93326
20
-0.301796
30
0
11
25.974359
21
-0.09856
31
0
39
0
210
0
220
0
230
1
0
LINE
5
8F
100
AcDbEntity
8
1
62
256
6
ByLayer
370
18
48
1
60
0
100
AcDbLine
10
26
20
0.015162
30
0
11
26
21
-0.015162
31
0
39
0
210
0
220
0
230
1
0
LINE
5
90
100
AcDbEntity
8
1
62
256
6
ByLayer
370
18
48
1
60
0
100
AcDbLine
10
25.99377
20
-0.032436
30
0
11
26
21
-0.015162
31
0
39
0
210
0
220
0
230
1
0
LINE
5
91
100
AcDbEntity
8
1
62
256
6
ByLayer
370
13
48
1
60
0
100
AcDbLine
10
25.62338
20
0.266902
30
0
11
25.99377
21
0.032436
31
0
39
0
210
0
220
0
230
1
0
LINE
5
92
100
AcDbEntity
8
1
62
256
6
ByLayer
370
13
48
1
60
0
100
AcDbLine
10
25.656074
20
0.300042
30
0
11
25.974359
21
0.09856
31
0
39
0
210
0
220
0
230
1
0
LINE
5
93
100
AcDbEntity
8
1
62
256
6
ByLayer
370
18
48
1
60
0
100
AcDbLine
10
25.482443
20
-0.815558
30
0
11
25.958801
21
-0.077238
31
0
39
0
210
0
220
0
230
1
0
LINE
5
94
100
AcDbEntity
8
1
62
256
6
ByLayer
370
18
48
1
60
0
100
AcDbLine
10
0
20
-1.5
30
0
11
0
21
1.5
31
0
39
0
210
0
220
0
230
1
0
LINE
5
95
100
AcDbEntity
8
1
62
256
6
ByLayer
370
18
48
1
60
0
100
AcDbLine
10
26
20
0.015162
30
0
11
25.958801
21
-0.077238
31
0
39
0
210
0
220
0
230
1
0
LINE
5
96
100
AcDbEntity
8
1
62
256
6
ByLayer
370
18
48
1
60
0
100
AcDbLine
10
1.435062
20
1.059845
30
0
11
1.435062
21
-1.059845
31
0
39
0
210
0
220
0
230
1
0
LINE
5
97
100
AcDbEntity
8
1
62
256
6
ByLayer
370
18
48
1
60
0
100
AcDbLine
10
25.99377
20
0.032436
30
0
11
26
21
0.015162
31
0
39
0
210
0
220
0
230
1
0
LINE
5
98
100
AcDbEntity
8
1
62
256
6
ByLayer
370
18
48
1
60
0
100
AcDbLine
10
25.769629
20
-0.596983
30
0
11
25.620521
21
-1.006656
31
0
39
0
210
0
220
0
230
1
0
LINE
5
99
100
AcDbEntity
8
1
62
256
6
ByLayer
370
18
48
1
60
0
100
AcDbLine
10
25.958801
20
-0.077238
30
0
11
25.854198
21
-0.364632
31
0
39
0
210
0
220
0
230
1
0
LINE
5
9A
100
AcDbEntity
8
1
62
256
6
ByLayer
370
18
48
1
60
0
100
AcDbLine
10
25.93326
20
0.301796
30
0
11
25.974359
21
0.09856
31
0
39
0
210
0
220
0
230
1
0
LINE
5
9B
100
AcDbEntity
8
SK1
62
256
6
ByLayer
370
18
48
1
60
0
100
AcDbLine
10
-46.711325
20
1.5
30
0
11
-46.711325
21
1.081667
31
0
39
0
210
0
220
0
230
1
0
LINE
5
9C
100
AcDbEntity
8
SK1
62
256
6
ByLayer
370
18
48
1
60
0
100
AcDbLine
10
-47
20
0.832722
30
0
11
-47
21
0.160291
31
0
39
0
210
0
220
0
230
1
0
LINE
5
9D
100
AcDbEntity
8
SK1
62
256
6
ByLayer
370
18
48
1
60
0
100
AcDbLine
10
-47
20
1
30
0
11
-47
21
0.832722
31
0
39
0
210
0
220
0
230
1
0
LINE
5
9E
100
AcDbEntity
8
SK1
62
256
6
ByLayer
370
18
48
1
60
0
100
AcDbLine
10
-46.7
20
0.544004
30
0
11
-46.7
21
1.048337
31
0
39
0
210
0
220
0
230
1
0
LINE
5
9F
100
AcDbEntity
8
SK1
62
256
6
ByLayer
370
18
48
1
60
0
100
AcDbLine
10
-46.711325
20
0.499625
30
0
11
-46.711325
21
-1.5
31
0
39
0
210
0
220
0
230
1
0
LINE
5
A0
100
AcDbEntity
8
SK1
62
256
6
ByLayer
370
18
48
1
60
0
100
AcDbLine
10
-47
20
0.160277
30
0
11
-47
21
-1
31
0
39
0
210
0
220
0
230
1
0
LINE
5
A1
100
AcDbEntity
8
SK1
62
256
6
ByLayer
370
13
48
1
60
0
100
AcDbLine
10
-46.8
20
1.032676
30
0
11
-46.8
21
0.360228
31
0
39
0
210
0
220
0
230
1
0
LINE
5
A2
100
AcDbEntity
8
SK1
62
256
6
ByLayer
370
18
48
1
60
0
100
AcDbLine
10
0
20
-1.5
30
0
11
0
21
1.5
31
0
39
0
210
0
220
0
230
1
0
MTEXT
5
E3
100
AcDbEntity
8
SK6
62
256
6
ByLayer
370
13
48
1
60
0
100
AcDbMText
10
-8.370831
20
33.457694
30
0
210
0
220
0
230
1
1
\W0.7216;862.1-0215-017A1-GM GC34
40
3.5
41
0
44
1.084337
50
0
71
8
72
5
7
iso_b_vert
0
DIMENSION
5
F0
100
AcDbEntity
8
SK2
62
256
6
ByLayer
370
13
48
1
60
0
100
AcDbDimension
2
DimnDraft3D1
10
25.6479
20
-11.288398
30
0
11
11.897959
21
-11.288398
31
0
70
32
71
5
72
1
41
1
210
0
220
0
230
1
3
Standard
100
AcDbAlignedDimension
13
0
23
-1.5875
33
0
14
25.6479
24
-2.6625
34
0
50
0
100
AcDbRotatedDimension
1001
ACAD
1000
DSTYLE
1002
{
1070
   279
1070
     0
1070
   172
1070
     1
1070
   173
1070
     1
1070
   340
1005
E4
1070
   271
1070
     2
1070
   272
1070
     2
1070
    77
1070
     1
1070
    73
1070
     0
1070
   171
1070
     3
1070
   274
1070
     4
1070
   177
1070
    35
1070
   176
1070
    35
1070
   178
1070
    35
1070
    48
1040
-0.005
1070
    41
1041
3.5
1070
   147
1041
1.75
1070
    42
1041
1.5875
1070
    44
1041
2.0
1070
   140
1041
3.5
1070
   343
1005
0
1070
   344
1005
0
1002
}
0
DIMENSION
5
FA
100
AcDbEntity
8
SK2
62
256
6
ByLayer
370
13
48
1
60
0
100
AcDbDimension
2
DimnDraft3D2
10
26
20
-30.192985
30
0
11
-9.5108
21
-30.192985
31
0
70
32
71
5
72
1
41
1
210
0
220
0
230
1
3
Standard
100
AcDbAlignedDimension
13
-47
23
-3.0875
33
0
14
26
24
-1.5875
34
0
50
0
100
AcDbRotatedDimension
1001
ACAD
1000
DSTYLE
1002
{
1070
   279
1070
     0
1070
   172
1070
     1
1070
   173
1070
     1
1070
   340
1005
E4
1070
   271
1070
     2
1070
   272
1070
     2
1070
    77
1070
     1
1070
    73
1070
     0
1070
   171
1070
     3
1070
   274
1070
     4
1070
   177
1070
    35
1070
   176
1070
    35
1070
   178
1070
    35
1070
    48
1040
-0.005
1070
    41
1041
3.5
1070
   147
1041
1.75
1070
    42
1041
1.5875
1070
    44
1041
2.0
1070
   140
1041
3.5
1070
   343
1005
0
1070
   344
1005
0
1002
}
0
DIMENSION
5
104
100
AcDbEntity
8
SK2
62
256
6
ByLayer
370
13
48
1
60
0
100
AcDbDimension
2
DimnDraft3D3
10
26
20
12.684119
30
0
11
17.225
21
12.684119
31
0
70
32
71
5
72
1
41
1
210
0
220
0
230
1
3
Standard
100
AcDbAlignedDimension
13
8.45
23
2.6625
33
0
14
26
24
1.5875
34
0
50
0
100
AcDbRotatedDimension
1001
ACAD
1000
DSTYLE
1002
{
1070
   279
1070
     0
1070
   172
1070
     1
1070
   173
1070
     1
1070
   340
1005
E4
1070
   271
1070
     2
1070
   272
1070
     2
1070
    77
1070
     1
1070
    73
1070
     0
1070
   171
1070
     3
1070
   274
1070
     4
1070
   177
1070
    35
1070
   176
1070
    35
1070
   178
1070
    35
1070
    48
1040
-0.005
1070
    41
1041
3.5
1070
   147
1041
1.75
1070
    42
1041
1.5875
1070
    44
1041
2.0
1070
   140
1041
3.5
1070
   343
1005
0
1070
   344
1005
0
1002
}
0
DIMENSION
5
10E
100
AcDbEntity
8
SK2
62
256
6
ByLayer
370
13
48
1
60
0
100
AcDbDimension
2
DimnDraft3D4
10
25.6479
20
-13.877503
30
0
11
35.981425
21
-13.877503
31
0
70
32
71
5
72
1
41
1
210
0
220
0
230
1
3
Standard
100
AcDbAlignedDimension
13
26
23
-1.5875
33
0
14
25.6479
24
-2.6625
34
0
50
0
100
AcDbRotatedDimension
1001
ACAD
1000
DSTYLE
1002
{
1070
   279
1070
     0
1070
   172
1070
     1
1070
   173
1070
     1
1070
   340
1005
E4
1070
   271
1070
     2
1070
   272
1070
     2
1070
    77
1070
     1
1070
    73
1070
     0
1070
   171
1070
     3
1070
   274
1070
     4
1070
   177
1070
    35
1070
   176
1070
    35
1070
   178
1070
    35
1070
    48
1040
-0.005
1070
    41
1041
3.5
1070
   147
1041
1.75
1070
    42
1041
1.5875
1070
    44
1041
2.0
1070
   140
1041
3.5
1070
   343
1005
0
1070
   344
1005
0
1002
}
0
DIMENSION
5
118
100
AcDbEntity
8
SK2
62
256
6
ByLayer
370
13
48
1
60
0
100
AcDbDimension
2
DimnDraft3D5
10
25.6479
20
-19.843428
30
0
11
-12.591424
21
-19.843428
31
0
70
32
71
5
72
1
41
1
210
0
220
0
230
1
3
Standard
100
AcDbAlignedDimension
13
-47
23
-3.0875
33
0
14
25.6479
24
-2.6625
34
0
50
0
100
AcDbRotatedDimension
1001
ACAD
1000
DSTYLE
1002
{
1070
   279
1070
     0
1070
   172
1070
     1
1070
   173
1070
     1
1070
   340
1005
E4
1070
   271
1070
     2
1070
   272
1070
     2
1070
    77
1070
     1
1070
    73
1070
     0
1070
   171
1070
     3
1070
   274
1070
     4
1070
   177
1070
    35
1070
   176
1070
    35
1070
   178
1070
    35
1070
    48
1040
-0.005
1070
    41
1041
3.5
1070
   147
1041
1.75
1070
    42
1041
1.5875
1070
    44
1041
2.0
1070
   140
1041
3.5
1070
   343
1005
0
1070
   344
1005
0
1002
}
0
DIMENSION
5
123
100
AcDbEntity
8
SK2
62
256
6
ByLayer
370
13
48
1
60
0
100
AcDbDimension
2
DimnDraft3D6
10
-57.625163
20
1.5
30
0
11
-58.250163
21
19.97418
31
0
70
33
71
5
72
1
41
1
210
0
220
0
230
1
3
Standard
100
AcDbAlignedDimension
13
-48.5875
23
-1.5
33
0
14
-48.5875
24
1.5
34
0
1001
ACAD
1000
DSTYLE
1002
{
1070
   279
1070
     0
1070
    74
1070
     0
1070
   173
1070
     1
1070
   340
1005
E4
1070
   271
1070
     3
1070
   272
1070
     2
1070
    77
1070
     1
1070
    73
1070
     0
1070
   171
1070
     3
1070
   274
1070
     4
1070
   177
1070
    35
1070
   176
1070
    35
1070
   178
1070
    35
1070
    48
1040
-0.005
1070
    41
1041
3.5
1070
   147
1041
1.75
1070
    42
1041
1.5875
1070
    44
1041
2.0
1070
   140
1041
3.5
1070
   343
1005
0
1070
   344
1005
0
1002
}
0
DIMENSION
5
12E
100
AcDbEntity
8
2
62
256
6
ByLayer
370
13
48
1
60
0
100
AcDbDimension
2
DimnDraft3D7
10
40.083343
20
1.075
30
0
11
35.458343
21
18.142266
31
0
70
33
71
5
72
1
41
1
210
0
220
0
230
1
3
Standard
100
AcDbAlignedDimension
13
27.2354
23
-1.075
33
0
14
27.2354
24
1.075
34
0
1001
ACAD
1000
DSTYLE
1002
{
1070
   279
1070
     0
1070
    74
1070
     0
1070
   173
1070
     1
1070
   340
1005
E4
1070
   271
1070
     3
1070
   272
1070
     2
1070
    77
1070
     1
1070
    73
1070
     0
1070
   171
1070
     3
1070
   274
1070
     4
1070
   177
1070
    35
1070
   176
1070
    35
1070
   178
1070
    35
1070
    48
1040
-0.005
1070
    41
1041
3.5
1070
   147
1041
1.75
1070
    42
1041
1.5875
1070
    44
1041
2.0
1070
   140
1041
3.5
1070
   343
1005
0
1070
   344
1005
0
1002
}
0
ENDSEC
0
SECTION
2
OBJECTS
0
DICTIONARY
5
199
330
0
100
AcDbDictionary
280
0
281
1
3
ACAD_GROUP
350
19a
3
ACAD_MLINESTYLE
350
19b
0
DICTIONARY
5
19a
330
0
100
AcDbDictionary
280
0
281
1
0
DICTIONARY
5
19b
330
0
100
AcDbDictionary
280
0
281
1
3
Standard
350
18
0
MLINESTYLE
5
18
330
19b
100
AcDbMlineStyle
2
Standard
70
0
3

62
256
51
90
52
90
71
2
49
-0.5
62
256
6
ByLayer
49
0.5
62
256
6
ByLayer
0
RASTERVARIABLES
5
187
330

100
AcDbRasterVariables
90
0
70
1
71
1
72
1
0
ENDSEC
0
EOF
