  0
SECTION
  2
HEADER
  9
$ACADVER
  1
AC1015
  9
$ACADMAINTVER
 70
    20
  9
$DWGCODEPAGE
  3
ANSI_1252
  9
$INSBASE
 10
0.0
 20
0.0
 30
0.0
  9
$EXTMIN
 10
-55.53235005766373
 20
-56.95755771625804
 30
-0.0000000000112498
  9
$EXTMAX
 10
164.4280805455086
 20
28.00340909373537
 30
0.0000000000002956
  9
$LIMMIN
 10
0.0
 20
0.0
  9
$LIMMAX
 10
12.0
 20
9.0
  9
$ORTHOMODE
 70
     0
  9
$REGENMODE
 70
     1
  9
$FILLMODE
 70
     1
  9
$QTEXTMODE
 70
     0
  9
$MIRRTEXT
 70
     1
  9
$LTSCALE
 40
1.0
  9
$ATTMODE
 70
     1
  9
$TEXTSIZE
 40
3.0
  9
$TRACEWID
 40
10.0
  9
$TEXTSTYLE
  7
SANDVIK_STYLE
  9
$CLAYER
  8
SK4
  9
$CELTYPE
  6
ByLayer
  9
$CECOLOR
 62
   256
  9
$CELTSCALE
 40
1.0
  9
$DISPSILH
 70
     0
  9
$DIMSCALE
 40
0.0
  9
$DIMASZ
 40
4.57
  9
$DIMEXO
 40
0.0
  9
$DIMDLI
 40
0.38
  9
$DIMRND
 40
0.0
  9
$DIMDLE
 40
0.0
  9
$DIMEXE
 40
5.0
  9
$DIMTP
 40
0.0
  9
$DIMTM
 40
0.0
  9
$DIMTXT
 40
4.5
  9
$DIMCEN
 40
0.09
  9
$DIMTSZ
 40
0.0
  9
$DIMTOL
 70
     0
  9
$DIMLIM
 70
     0
  9
$DIMTIH
 70
     0
  9
$DIMTOH
 70
     0
  9
$DIMSE1
 70
     0
  9
$DIMSE2
 70
     0
  9
$DIMTAD
 70
     1
  9
$DIMZIN
 70
     8
  9
$DIMBLK
  1

  9
$DIMASO
 70
     1
  9
$DIMSHO
 70
     1
  9
$DIMPOST
  1
 
  9
$DIMAPOST
  1
 
  9
$DIMALT
 70
     0
  9
$DIMALTD
 70
     2
  9
$DIMALTF
 40
25.4
  9
$DIMLFAC
 40
1.0
  9
$DIMTOFL
 70
     0
  9
$DIMTVP
 40
0.0
  9
$DIMTIX
 70
     0
  9
$DIMSOXD
 70
     0
  9
$DIMSAH
 70
     0
  9
$DIMBLK1
  1

  9
$DIMBLK2
  1

  9
$DIMSTYLE
  2
SANDVIK_DIM
  9
$DIMCLRD
 70
   256
  9
$DIMCLRE
 70
   256
  9
$DIMCLRT
 70
   256
  9
$DIMTFAC
 40
1.0
  9
$DIMGAP
 40
2.299999999999998
  9
$DIMJUST
 70
     0
  9
$DIMSD1
 70
     0
  9
$DIMSD2
 70
     0
  9
$DIMTOLJ
 70
     1
  9
$DIMTZIN
 70
     0
  9
$DIMALTZ
 70
     0
  9
$DIMALTTZ
 70
     0
  9
$DIMUPT
 70
     0
  9
$DIMDEC
 70
     2
  9
$DIMTDEC
 70
     2
  9
$DIMALTU
 70
     2
  9
$DIMALTTD
 70
     2
  9
$DIMTXSTY
  7
SANDVIK_STYLE
  9
$DIMAUNIT
 70
     0
  9
$DIMADEC
 70
     0
  9
$DIMALTRND
 40
0.0
  9
$DIMAZIN
 70
     0
  9
$DIMDSEP
 70
    46
  9
$DIMATFIT
 70
     3
  9
$DIMFRAC
 70
     0
  9
$DIMLDRBLK
  1

  9
$DIMLUNIT
 70
     2
  9
$DIMLWD
 70
    -2
  9
$DIMLWE
 70
    -2
  9
$DIMTMOVE
 70
     2
  9
$LUNITS
 70
     2
  9
$LUPREC
 70
     2
  9
$SKETCHINC
 40
0.0
  9
$FILLETRAD
 40
0.0
  9
$AUNITS
 70
     0
  9
$AUPREC
 70
     2
  9
$MENU
  1
acad
  9
$ELEVATION
 40
0.0
  9
$PELEVATION
 40
0.0
  9
$THICKNESS
 40
0.0
  9
$LIMCHECK
 70
     0
  9
$CHAMFERA
 40
0.0
  9
$CHAMFERB
 40
0.0
  9
$CHAMFERC
 40
0.0
  9
$CHAMFERD
 40
0.0
  9
$SKPOLY
 70
     0
  9
$TDCREATE
 40
2455817.646292060
  9
$TDUCREATE
 40
2455817.562958727
  9
$TDUPDATE
 40
2456818.536043322
  9
$TDUUPDATE
 40
2456818.452709988
  9
$TDINDWG
 40
0.1114795255
  9
$TDUSRTIMER
 40
0.1114792940
  9
$USRTIMER
 70
     1
  9
$ANGBASE
 50
0.0
  9
$ANGDIR
 70
     0
  9
$PDMODE
 70
     0
  9
$PDSIZE
 40
0.0
  9
$PLINEWID
 40
0.0
  9
$SPLFRAME
 70
     0
  9
$SPLINETYPE
 70
     6
  9
$SPLINESEGS
 70
     8
  9
$HANDSEED
  5
31E2
  9
$SURFTAB1
 70
     6
  9
$SURFTAB2
 70
     6
  9
$SURFTYPE
 70
     6
  9
$SURFU
 70
     6
  9
$SURFV
 70
     6
  9
$UCSBASE
  2

  9
$UCSNAME
  2

  9
$UCSORG
 10
0.0
 20
0.0
 30
0.0
  9
$UCSXDIR
 10
1.0
 20
0.0
 30
0.0
  9
$UCSYDIR
 10
0.0
 20
1.0
 30
0.0
  9
$UCSORTHOREF
  2

  9
$UCSORTHOVIEW
 70
     0
  9
$UCSORGTOP
 10
0.0
 20
0.0
 30
0.0
  9
$UCSORGBOTTOM
 10
0.0
 20
0.0
 30
0.0
  9
$UCSORGLEFT
 10
0.0
 20
0.0
 30
0.0
  9
$UCSORGRIGHT
 10
0.0
 20
0.0
 30
0.0
  9
$UCSORGFRONT
 10
0.0
 20
0.0
 30
0.0
  9
$UCSORGBACK
 10
0.0
 20
0.0
 30
0.0
  9
$PUCSBASE
  2

  9
$PUCSNAME
  2

  9
$PUCSORG
 10
0.0
 20
0.0
 30
0.0
  9
$PUCSXDIR
 10
1.0
 20
0.0
 30
0.0
  9
$PUCSYDIR
 10
0.0
 20
1.0
 30
0.0
  9
$PUCSORTHOREF
  2

  9
$PUCSORTHOVIEW
 70
     0
  9
$PUCSORGTOP
 10
0.0
 20
0.0
 30
0.0
  9
$PUCSORGBOTTOM
 10
0.0
 20
0.0
 30
0.0
  9
$PUCSORGLEFT
 10
0.0
 20
0.0
 30
0.0
  9
$PUCSORGRIGHT
 10
0.0
 20
0.0
 30
0.0
  9
$PUCSORGFRONT
 10
0.0
 20
0.0
 30
0.0
  9
$PUCSORGBACK
 10
0.0
 20
0.0
 30
0.0
  9
$USERI1
 70
     0
  9
$USERI2
 70
     0
  9
$USERI3
 70
     0
  9
$USERI4
 70
     0
  9
$USERI5
 70
     0
  9
$USERR1
 40
0.0
  9
$USERR2
 40
0.0
  9
$USERR3
 40
0.0
  9
$USERR4
 40
0.0
  9
$USERR5
 40
0.0
  9
$WORLDVIEW
 70
     1
  9
$SHADEDGE
 70
     3
  9
$SHADEDIF
 70
    70
  9
$TILEMODE
 70
     1
  9
$MAXACTVP
 70
    16
  9
$PINSBASE
 10
0.0
 20
0.0
 30
0.0
  9
$PLIMCHECK
 70
     0
  9
$PEXTMIN
 10
1.000000000000000E+20
 20
1.000000000000000E+20
 30
1.000000000000000E+20
  9
$PEXTMAX
 10
-1.000000000000000E+20
 20
-1.000000000000000E+20
 30
-1.000000000000000E+20
  9
$PLIMMIN
 10
0.0
 20
0.0
  9
$PLIMMAX
 10
12.0
 20
9.0
  9
$UNITMODE
 70
     0
  9
$VISRETAIN
 70
     0
  9
$PLINEGEN
 70
     0
  9
$PSLTSCALE
 70
     1
  9
$TREEDEPTH
 70
  3020
  9
$CMLSTYLE
  2
Standard
  9
$CMLJUST
 70
     0
  9
$CMLSCALE
 40
1.0
  9
$PROXYGRAPHICS
 70
     1
  9
$MEASUREMENT
 70
     0
  9
$CELWEIGHT
370
    -1
  9
$ENDCAPS
280
     0
  9
$JOINSTYLE
280
     0
  9
$LWDISPLAY
290
     0
  9
$INSUNITS
 70
     0
  9
$HYPERLINKBASE
  1

  9
$STYLESHEET
  1

  9
$XEDIT
290
     1
  9
$CEPSNTYPE
380
     0
  9
$PSTYLEMODE
290
     1
  9
$FINGERPRINTGUID
  2
{BC6BEBD7-5C89-4B2E-99DC-E3119A1637E9}
  9
$VERSIONGUID
  2
{14E3C7F3-5EBD-49AE-998D-8D22EAE91C89}
  9
$EXTNAMES
290
     1
  9
$PSVPSCALE
 40
0.0
  9
$OLESTARTUP
290
     0
  0
ENDSEC
  0
SECTION
  2
CLASSES
  0
CLASS
  1
ACDBDICTIONARYWDFLT
  2
AcDbDictionaryWithDefault
  3
ObjectDBX Classes
 90
        0
280
     0
281
     0
  0
CLASS
  1
MATERIAL
  2
AcDbMaterial
  3
ObjectDBX Classes
 90
     1153
280
     0
281
     0
  0
CLASS
  1
VISUALSTYLE
  2
AcDbVisualStyle
  3
ObjectDBX Classes
 90
     4095
280
     0
281
     0
  0
CLASS
  1
TABLESTYLE
  2
AcDbTableStyle
  3
ObjectDBX Classes
 90
     4095
280
     0
281
     0
  0
CLASS
  1
SCALE
  2
AcDbScale
  3
ObjectDBX Classes
 90
     1153
280
     0
281
     0
  0
CLASS
  1
MLEADERSTYLE
  2
AcDbMLeaderStyle
  3
ACDB_MLEADERSTYLE_CLASS
 90
     4095
280
     0
281
     0
  0
CLASS
  1
ACDBSECTIONVIEWSTYLE
  2
AcDbSectionViewStyle
  3
ObjectDBX Classes
 90
     1025
280
     0
281
     0
  0
CLASS
  1
ACDBDETAILVIEWSTYLE
  2
AcDbDetailViewStyle
  3
ObjectDBX Classes
 90
     1025
280
     0
281
     0
  0
CLASS
  1
EXACXREFPANELOBJECT
  2
ExAcXREFPanelObject
  3
EXAC_ESW
 90
     1025
280
     0
281
     0
  0
CLASS
  1
NPOCOLLECTION
  2
AcDbImpNonPersistentObjectsCollection
  3
ObjectDBX Classes
 90
     1153
280
     0
281
     0
  0
CLASS
  1
DICTIONARYVAR
  2
AcDbDictionaryVar
  3
ObjectDBX Classes
 90
        0
280
     0
281
     0
  0
CLASS
  1
CELLSTYLEMAP
  2
AcDbCellStyleMap
  3
ObjectDBX Classes
 90
     1152
280
     0
281
     0
  0
CLASS
  1
ACDBPLACEHOLDER
  2
AcDbPlaceHolder
  3
ObjectDBX Classes
 90
        0
280
     0
281
     0
  0
CLASS
  1
LAYOUT
  2
AcDbLayout
  3
ObjectDBX Classes
 90
        0
280
     0
281
     0
  0
ENDSEC
  0
SECTION
  2
TABLES
  0
TABLE
  2
VPORT
  5
BDF
330
0
100
AcDbSymbolTable
 70
     1
  0
VPORT
  5
30F4
330
BDF
100
AcDbSymbolTableRecord
100
AcDbViewportTableRecord
  2
*Active
 70
     0
 10
0.0
 20
0.0
 11
1.0
 21
1.0
 12
54.44786524392242
 22
-14.47707431126133
 13
0.0
 23
0.0
 14
1.0
 24
1.0
 15
0.0
 25
0.0
 16
0.0
 26
0.0
 36
1.0
 17
0.0
 27
0.0
 37
0.0
 40
111.4535378109535
 41
2.2
 42
50.0
 43
0.0
 44
0.0
 50
0.0
 51
0.0
 71
     0
 72
   100
 73
     1
 74
     1
 75
     0
 76
     0
 77
     0
 78
     0
281
     0
 65
     1
110
0.0
120
0.0
130
0.0
111
1.0
121
0.0
131
0.0
112
0.0
122
1.0
132
0.0
 79
     0
146
0.0
1001
ACAD_NAV_VCDISPLAY
1070
     3
  0
ENDTAB
  0
TABLE
  2
LTYPE
  5
BDC
330
0
100
AcDbSymbolTable
 70
     4
  0
LTYPE
  5
BEA
330
BDC
100
AcDbSymbolTableRecord
100
AcDbLinetypeTableRecord
  2
ByBlock
 70
     0
  3

 72
    65
 73
     0
 40
0.0
  0
LTYPE
  5
BEB
330
BDC
100
AcDbSymbolTableRecord
100
AcDbLinetypeTableRecord
  2
ByLayer
 70
     0
  3

 72
    65
 73
     0
 40
0.0
  0
LTYPE
  5
BEC
330
BDC
100
AcDbSymbolTableRecord
100
AcDbLinetypeTableRecord
  2
CONTINUOUS
 70
     0
  3
Solid line
 72
    65
 73
     0
 40
0.0
  0
LTYPE
  5
BFE
330
BDC
100
AcDbSymbolTableRecord
100
AcDbLinetypeTableRecord
  2
CENTER
 70
     0
  3
____ _ ____ _ ____ _ ____ _ ____ _ ____ _ ____
 72
    65
 73
     4
 40
5.059897
 49
3.162434999999998
 74
     0
 49
-0.6324870000000004
 74
     0
 49
0.6324870000000004
 74
     0
 49
-0.6324870000000004
 74
     0
  0
LTYPE
  5
BFF
330
BDC
100
AcDbSymbolTableRecord
100
AcDbLinetypeTableRecord
  2
DASHED
 70
     0
  3
__ __ __ __ __ __ __ __ __ __ __ __ __ __ __ __
 72
    65
 73
     2
 40
7.589844999999997
 49
5.059897
 74
     0
 49
-2.529948
 74
     0
  0
LTYPE
  5
3140
330
BDC
100
AcDbSymbolTableRecord
100
AcDbLinetypeTableRecord
  2
PHANTOM2
 70
     0
  3
Phantom (.5x) ___ _ _ ___ _ _ ___ _ _ ___ _ _
 72
    65
 73
     6
 40
1.25
 49
0.625
 74
     0
 49
-0.125
 74
     0
 49
0.125
 74
     0
 49
-0.125
 74
     0
 49
0.125
 74
     0
 49
-0.125
 74
     0
  0
ENDTAB
  0
TABLE
  2
LAYER
  5
BD9
330
0
100
AcDbSymbolTable
 70
    40
  0
LAYER
  5
BE7
102
{ACAD_XDICTIONARY
360
3148
102
}
330
BD9
100
AcDbSymbolTableRecord
100
AcDbLayerTableRecord
  2
0
 70
     0
 62
     7
  6
CONTINUOUS
370
    -3
390
BE6
  0
LAYER
  5
BFB
102
{ACAD_XDICTIONARY
360
314A
102
}
330
BD9
100
AcDbSymbolTableRecord
100
AcDbLayerTableRecord
  2
3
 70
     0
 62
     1
  6
DASHED
370
    -3
390
BE6
  0
LAYER
  5
C00
102
{ACAD_XDICTIONARY
360
314C
102
}
330
BD9
100
AcDbSymbolTableRecord
100
AcDbLayerTableRecord
  2
1
 70
     0
 62
     4
  6
CONTINUOUS
370
    -3
390
BE6
  0
LAYER
  5
C01
102
{ACAD_XDICTIONARY
360
314E
102
}
330
BD9
100
AcDbSymbolTableRecord
100
AcDbLayerTableRecord
  2
61
 70
     0
 62
     5
  6
CONTINUOUS
370
    -3
390
BE6
  0
LAYER
  5
C02
102
{ACAD_XDICTIONARY
360
3150
102
}
330
BD9
100
AcDbSymbolTableRecord
100
AcDbLayerTableRecord
  2
62
 70
     0
 62
    -5
  6
CONTINUOUS
370
    -3
390
BE6
  0
LAYER
  5
C03
102
{ACAD_XDICTIONARY
360
3152
102
}
330
BD9
100
AcDbSymbolTableRecord
100
AcDbLayerTableRecord
  2
63
 70
     0
 62
    -5
  6
CONTINUOUS
370
    -3
390
BE6
  0
LAYER
  5
C04
102
{ACAD_XDICTIONARY
360
3154
102
}
330
BD9
100
AcDbSymbolTableRecord
100
AcDbLayerTableRecord
  2
64
 70
     0
 62
    -5
  6
CONTINUOUS
370
    -3
390
BE6
  0
LAYER
  5
C05
102
{ACAD_XDICTIONARY
360
3156
102
}
330
BD9
100
AcDbSymbolTableRecord
100
AcDbLayerTableRecord
  2
65
 70
     0
 62
    -5
  6
CONTINUOUS
370
    -3
390
BE6
  0
LAYER
  5
C06
102
{ACAD_XDICTIONARY
360
3158
102
}
330
BD9
100
AcDbSymbolTableRecord
100
AcDbLayerTableRecord
  2
66
 70
     0
 62
    -5
  6
CONTINUOUS
370
    -3
390
BE6
  0
LAYER
  5
C07
102
{ACAD_XDICTIONARY
360
315A
102
}
330
BD9
100
AcDbSymbolTableRecord
100
AcDbLayerTableRecord
  2
67
 70
     0
 62
    -5
  6
CONTINUOUS
370
    -3
390
BE6
  0
LAYER
  5
C08
102
{ACAD_XDICTIONARY
360
315C
102
}
330
BD9
100
AcDbSymbolTableRecord
100
AcDbLayerTableRecord
  2
68
 70
     0
 62
    -5
  6
CONTINUOUS
370
    -3
390
BE6
  0
LAYER
  5
C09
102
{ACAD_XDICTIONARY
360
315E
102
}
330
BD9
100
AcDbSymbolTableRecord
100
AcDbLayerTableRecord
  2
69
 70
     0
 62
    -5
  6
CONTINUOUS
370
    -3
390
BE6
  0
LAYER
  5
C0A
102
{ACAD_XDICTIONARY
360
3160
102
}
330
BD9
100
AcDbSymbolTableRecord
100
AcDbLayerTableRecord
  2
70
 70
     0
 62
     5
  6
CONTINUOUS
370
    -3
390
BE6
  0
LAYER
  5
C0B
102
{ACAD_XDICTIONARY
360
3162
102
}
330
BD9
100
AcDbSymbolTableRecord
100
AcDbLayerTableRecord
  2
2
 70
     0
 62
     7
  6
CONTINUOUS
370
    -3
390
BE6
  0
LAYER
  5
C0C
102
{ACAD_XDICTIONARY
360
3164
102
}
330
BD9
100
AcDbSymbolTableRecord
100
AcDbLayerTableRecord
  2
4
 70
     0
 62
    -2
  6
CENTER
370
    -3
390
BE6
  0
LAYER
  5
C0D
102
{ACAD_XDICTIONARY
360
3166
102
}
330
BD9
100
AcDbSymbolTableRecord
100
AcDbLayerTableRecord
  2
5
 70
     0
 62
    -7
  6
CONTINUOUS
370
    -3
390
BE6
  0
LAYER
  5
C0E
102
{ACAD_XDICTIONARY
360
3168
102
}
330
BD9
100
AcDbSymbolTableRecord
100
AcDbLayerTableRecord
  2
SK1
 70
     0
 62
     4
  6
CONTINUOUS
370
    -3
390
BE6
  0
LAYER
  5
C0F
102
{ACAD_XDICTIONARY
360
316A
102
}
330
BD9
100
AcDbSymbolTableRecord
100
AcDbLayerTableRecord
  2
6
 70
     0
 62
     5
  6
CONTINUOUS
370
    -3
390
BE6
  0
LAYER
  5
C10
102
{ACAD_XDICTIONARY
360
316C
102
}
330
BD9
100
AcDbSymbolTableRecord
100
AcDbLayerTableRecord
  2
SK2
 70
     0
 62
     7
  6
CONTINUOUS
370
    -3
390
BE6
  0
LAYER
  5
C11
102
{ACAD_XDICTIONARY
360
316E
102
}
330
BD9
100
AcDbSymbolTableRecord
100
AcDbLayerTableRecord
  2
SK3
 70
     0
 62
     1
  6
DASHED
370
    -3
390
BE6
  0
LAYER
  5
C12
102
{ACAD_XDICTIONARY
360
3170
102
}
330
BD9
100
AcDbSymbolTableRecord
100
AcDbLayerTableRecord
  2
SK4
 70
     0
 62
     2
  6
CENTER
370
    -3
390
BE6
  0
LAYER
  5
C13
102
{ACAD_XDICTIONARY
360
3172
102
}
330
BD9
100
AcDbSymbolTableRecord
100
AcDbLayerTableRecord
  2
CUT
 70
     0
 62
     1
  6
CONTINUOUS
370
    -3
390
BE6
  0
LAYER
  5
C14
102
{ACAD_XDICTIONARY
360
3174
102
}
330
BD9
100
AcDbSymbolTableRecord
100
AcDbLayerTableRecord
  2
SK6
 70
     0
 62
     5
  6
CONTINUOUS
370
    -3
390
BE6
  0
LAYER
  5
C15
102
{ACAD_XDICTIONARY
360
3176
102
}
330
BD9
100
AcDbSymbolTableRecord
100
AcDbLayerTableRecord
  2
80
 70
     0
 62
    -2
  6
CENTER
370
    -3
390
BE6
  0
LAYER
  5
C16
102
{ACAD_XDICTIONARY
360
3178
102
}
330
BD9
100
AcDbSymbolTableRecord
100
AcDbLayerTableRecord
  2
81
 70
     0
 62
    -2
  6
CENTER
370
    -3
390
BE6
  0
LAYER
  5
C17
102
{ACAD_XDICTIONARY
360
317A
102
}
330
BD9
100
AcDbSymbolTableRecord
100
AcDbLayerTableRecord
  2
82
 70
     0
 62
    -2
  6
CENTER
370
    -3
390
BE6
  0
LAYER
  5
C18
102
{ACAD_XDICTIONARY
360
317C
102
}
330
BD9
100
AcDbSymbolTableRecord
100
AcDbLayerTableRecord
  2
NOCUT
 70
     0
 62
     7
  6
CONTINUOUS
370
    -3
390
BE6
  0
LAYER
  5
C19
102
{ACAD_XDICTIONARY
360
317E
102
}
330
BD9
100
AcDbSymbolTableRecord
100
AcDbLayerTableRecord
  2
50
 70
     0
 62
    -7
  6
CONTINUOUS
370
    -3
390
BE6
  0
LAYER
  5
C1A
102
{ACAD_XDICTIONARY
360
3180
102
}
330
BD9
100
AcDbSymbolTableRecord
100
AcDbLayerTableRecord
  2
51
 70
     0
 62
     7
  6
CONTINUOUS
370
    -3
390
BE6
  0
LAYER
  5
C1B
102
{ACAD_XDICTIONARY
360
3182
102
}
330
BD9
100
AcDbSymbolTableRecord
100
AcDbLayerTableRecord
  2
52
 70
     0
 62
    -7
  6
CONTINUOUS
370
    -3
390
BE6
  0
LAYER
  5
C1C
102
{ACAD_XDICTIONARY
360
3184
102
}
330
BD9
100
AcDbSymbolTableRecord
100
AcDbLayerTableRecord
  2
53
 70
     0
 62
    -7
  6
CONTINUOUS
370
    -3
390
BE6
  0
LAYER
  5
C1D
102
{ACAD_XDICTIONARY
360
3186
102
}
330
BD9
100
AcDbSymbolTableRecord
100
AcDbLayerTableRecord
  2
54
 70
     0
 62
    -7
  6
CONTINUOUS
370
    -3
390
BE6
  0
LAYER
  5
C1E
102
{ACAD_XDICTIONARY
360
3188
102
}
330
BD9
100
AcDbSymbolTableRecord
100
AcDbLayerTableRecord
  2
55
 70
     0
 62
    -7
  6
CONTINUOUS
370
    -3
390
BE6
  0
LAYER
  5
C1F
102
{ACAD_XDICTIONARY
360
318A
102
}
330
BD9
100
AcDbSymbolTableRecord
100
AcDbLayerTableRecord
  2
56
 70
     0
 62
    -7
  6
CONTINUOUS
370
    -3
390
BE6
  0
LAYER
  5
C20
102
{ACAD_XDICTIONARY
360
318C
102
}
330
BD9
100
AcDbSymbolTableRecord
100
AcDbLayerTableRecord
  2
57
 70
     0
 62
    -7
  6
CONTINUOUS
370
    -3
390
BE6
  0
LAYER
  5
C21
102
{ACAD_XDICTIONARY
360
318E
102
}
330
BD9
100
AcDbSymbolTableRecord
100
AcDbLayerTableRecord
  2
58
 70
     0
 62
    -7
  6
CONTINUOUS
370
    -3
390
BE6
  0
LAYER
  5
C22
102
{ACAD_XDICTIONARY
360
3190
102
}
330
BD9
100
AcDbSymbolTableRecord
100
AcDbLayerTableRecord
  2
2L
 70
     0
 62
     7
  6
CONTINUOUS
370
    -3
390
BE6
  0
LAYER
  5
C23
102
{ACAD_XDICTIONARY
360
3192
102
}
330
BD9
100
AcDbSymbolTableRecord
100
AcDbLayerTableRecord
  2
59
 70
     0
 62
    -7
  6
CONTINUOUS
370
    -3
390
BE6
  0
LAYER
  5
C24
330
BD9
100
AcDbSymbolTableRecord
100
AcDbLayerTableRecord
  2
DEFPOINTS
 70
     0
 62
     7
  6
CONTINUOUS
290
     0
370
    -3
390
BE6
  0
LAYER
  5
C42
102
{ACAD_XDICTIONARY
360
3194
102
}
330
BD9
100
AcDbSymbolTableRecord
100
AcDbLayerTableRecord
  2
TFR-TRI
 70
     0
 62
     7
  6
CONTINUOUS
370
    -3
390
BE6
  0
ENDTAB
  0
TABLE
  2
STYLE
  5
BDA
330
0
100
AcDbSymbolTable
 70
     2
  0
STYLE
  5
BE8
330
BDA
100
AcDbSymbolTableRecord
100
AcDbTextStyleTableRecord
  2
STANDARD
 70
     0
 40
0.0
 41
1.0
 50
0.0
 71
     0
 42
4.5
  3
simplex.shx
  4

  0
STYLE
  5
BFC
330
BDA
100
AcDbSymbolTableRecord
100
AcDbTextStyleTableRecord
  2
SANDVIK_STYLE
 70
     0
 40
3.0
 41
1.0
 50
0.0
 71
     0
 42
3.0
  3
simplex.shx
  4

  0
ENDTAB
  0
TABLE
  2
VIEW
  5
BDD
330
0
100
AcDbSymbolTable
 70
     0
  0
ENDTAB
  0
TABLE
  2
UCS
  5
BDE
330
0
100
AcDbSymbolTable
 70
     0
  0
ENDTAB
  0
TABLE
  2
APPID
  5
BE0
330
0
100
AcDbSymbolTable
 70
     4
  0
APPID
  5
BE9
330
BE0
100
AcDbSymbolTableRecord
100
AcDbRegAppTableRecord
  2
ACAD
 70
     0
  0
APPID
  5
3198
330
BE0
100
AcDbSymbolTableRecord
100
AcDbRegAppTableRecord
  2
DCO15
 70
     0
  0
APPID
  5
31A4
330
BE0
100
AcDbSymbolTableRecord
100
AcDbRegAppTableRecord
  2
ACAD_NAV_VCDISPLAY
 70
     0
  0
APPID
  5
31E1
330
BE0
100
AcDbSymbolTableRecord
100
AcDbRegAppTableRecord
  2
ACAD_MLEADERVER
 70
     0
  0
ENDTAB
  0
TABLE
  2
DIMSTYLE
  5
BE1
330
0
100
AcDbSymbolTable
 70
     2
100
AcDbDimStyleTable
 71
     1
340
C26
  0
DIMSTYLE
105
C25
330
BE1
100
AcDbSymbolTableRecord
100
AcDbDimStyleTableRecord
  2
STANDARD
 70
     0
  3
 
  4
 
 41
3.0
 42
2.5
 43
10.0
 44
2.5
 46
1.25
 73
     0
 74
     0
140
3.0
141
-3.0
143
0.039
145
1.5
146
0.75
147
1.5
271
     2
272
     2
279
     2
340
BFC
  0
DIMSTYLE
105
C26
102
{ACAD_REACTORS
330
2FBA
330
2FC7
330
2FD4
330
3010
330
3026
330
3033
330
3055
102
}
330
BE1
100
AcDbSymbolTableRecord
100
AcDbDimStyleTableRecord
  2
SANDVIK_DIM
 70
     0
  3
 
  4
 
 40
0.0
 41
4.57
 42
0.0
 44
5.0
 73
     0
 74
     0
 77
     1
 78
     8
140
4.5
147
2.299999999999998
176
   256
177
   256
178
   256
271
     2
272
     2
279
     2
340
BFC
  0
ENDTAB
  0
TABLE
  2
BLOCK_RECORD
  5
BD8
330
0
100
AcDbSymbolTable
 70
     9
  0
BLOCK_RECORD
  5
BF7
330
BD8
100
AcDbSymbolTableRecord
100
AcDbBlockTableRecord
  2
*Model_Space
340
BFA
  0
BLOCK_RECORD
  5
BF3
330
BD8
100
AcDbSymbolTableRecord
100
AcDbBlockTableRecord
  2
*Paper_Space
340
BF6
  0
BLOCK_RECORD
  5
C28
330
BD8
100
AcDbSymbolTableRecord
100
AcDbBlockTableRecord
  2
$MODEL_SPACE
340
0
  0
BLOCK_RECORD
  5
C2A
330
BD8
100
AcDbSymbolTableRecord
100
AcDbBlockTableRecord
  2
$PAPER_SPACE
340
0
  0
BLOCK_RECORD
  5
2FBB
330
BD8
100
AcDbSymbolTableRecord
100
AcDbBlockTableRecord
  2
*D2
340
0
  0
BLOCK_RECORD
  5
2FC8
330
BD8
100
AcDbSymbolTableRecord
100
AcDbBlockTableRecord
  2
*D3
340
0
  0
BLOCK_RECORD
  5
2FD5
330
BD8
100
AcDbSymbolTableRecord
100
AcDbBlockTableRecord
  2
*D4
340
0
  0
BLOCK_RECORD
  5
3011
330
BD8
100
AcDbSymbolTableRecord
100
AcDbBlockTableRecord
  2
*D5
340
0
  0
BLOCK_RECORD
  5
3027
330
BD8
100
AcDbSymbolTableRecord
100
AcDbBlockTableRecord
  2
*D6
340
0
  0
BLOCK_RECORD
  5
3034
330
BD8
100
AcDbSymbolTableRecord
100
AcDbBlockTableRecord
  2
*D7
340
0
  0
BLOCK_RECORD
  5
3056
330
BD8
100
AcDbSymbolTableRecord
100
AcDbBlockTableRecord
  2
*D8
340
0
  0
ENDTAB
  0
ENDSEC
  0
SECTION
  2
BLOCKS
  0
BLOCK
  5
BF8
330
BF7
100
AcDbEntity
  8
0
100
AcDbBlockBegin
  2
*Model_Space
 70
     0
 10
0.0
 20
0.0
 30
0.0
  3
*Model_Space
  1

  0
ENDBLK
  5
BF9
330
BF7
100
AcDbEntity
  8
0
100
AcDbBlockEnd
  0
BLOCK
  5
BF4
330
BF3
100
AcDbEntity
 67
     1
  8
0
100
AcDbBlockBegin
  2
*Paper_Space
 70
     0
 10
0.0
 20
0.0
 30
0.0
  3
*Paper_Space
  1

  0
ENDBLK
  5
BF5
330
BF3
100
AcDbEntity
 67
     1
  8
0
100
AcDbBlockEnd
  0
BLOCK
  5
C29
330
C28
100
AcDbEntity
  8
0
100
AcDbBlockBegin
  2
$MODEL_SPACE
 70
     0
 10
0.0
 20
0.0
 30
0.0
  3
$MODEL_SPACE
  1

  0
ENDBLK
  5
AEF
330
C28
100
AcDbEntity
  8
0
100
AcDbBlockEnd
  0
BLOCK
  5
C2B
330
C2A
100
AcDbEntity
  8
0
100
AcDbBlockBegin
  2
$PAPER_SPACE
 70
     0
 10
0.0
 20
0.0
 30
0.0
  3
$PAPER_SPACE
  1

  0
ENDBLK
  5
AEB
330
C2A
100
AcDbEntity
  8
0
100
AcDbBlockEnd
  0
BLOCK
  5
2FC5
330
2FBB
100
AcDbEntity
  8
0
100
AcDbBlockBegin
  2
*D2
 70
     1
 10
0.0
 20
0.0
 30
0.0
  3
*D2
  1

  0
LINE
  5
30BE
330
2FBB
100
AcDbEntity
  8
SK2
370
    -2
100
AcDbLine
 10
151.999961
 20
-0.0018209999999979
 30
0.0
 11
151.999961
 21
-56.95529533658707
 31
0.0
  0
LINE
  5
30BF
330
2FBB
100
AcDbEntity
  8
SK2
370
    -2
100
AcDbLine
 10
-39.99999299999999
 20
-4.374998999999998
 30
0.0
 11
-39.99999299999999
 21
-56.95529533658707
 31
0.0
  0
LINE
  5
30C0
330
2FBB
100
AcDbEntity
  8
SK2
370
    -2
100
AcDbLine
 10
147.429961
 20
-51.95529533658707
 30
0.0
 11
-35.42999299999999
 21
-51.95529533658707
 31
0.0
  0
SOLID
  5
30C1
330
2FBB
100
AcDbEntity
  8
SK2
100
AcDbTrace
 10
147.429961
 20
-51.19362866992041
 30
0.0
 11
147.429961
 21
-52.71696200325375
 31
0.0
 12
151.999961
 22
-51.95529533658707
 32
0.0
 13
151.999961
 23
-51.95529533658707
 33
0.0
  0
SOLID
  5
30C2
330
2FBB
100
AcDbEntity
  8
SK2
100
AcDbTrace
 10
-35.42999299999999
 20
-51.19362866992041
 30
0.0
 11
-35.42999299999999
 21
-52.71696200325375
 31
0.0
 12
-39.99999299999999
 22
-51.95529533658707
 32
0.0
 13
-39.99999299999999
 23
-51.95529533658707
 33
0.0
  0
MTEXT
  5
30C3
330
2FBB
100
AcDbEntity
  8
SK2
100
AcDbMText
 10
55.99998400000001
 20
-48.15529533658708
 30
0.0
 40
3.0
 41
0.0
 71
     5
 72
     1
  1
\A1;192 
  7
SANDVIK_STYLE
 73
     1
 44
1.0
1001
ACAD
1000
MTEXTBEGIN
1070
    73
1070
     1
1070
    44
1040
1.0
1070
    74
1070
     0
1000
MTEXTEND
  0
POINT
  5
30C4
330
2FBB
100
AcDbEntity
  8
DEFPOINTS
 62
     0
100
AcDbPoint
 10
151.999961
 20
-0.0018209999999979
 30
0.0
  0
POINT
  5
30C5
330
2FBB
100
AcDbEntity
  8
DEFPOINTS
 62
     0
100
AcDbPoint
 10
-39.99999299999999
 20
-4.374998999999998
 30
0.0
  0
POINT
  5
30C6
330
2FBB
100
AcDbEntity
  8
DEFPOINTS
 62
     0
100
AcDbPoint
 10
-39.99999299999999
 20
-51.95529533658707
 30
0.0
  0
ENDBLK
  5
2FC6
330
2FBB
100
AcDbEntity
  8
0
100
AcDbBlockEnd
  0
BLOCK
  5
2FD2
330
2FC8
100
AcDbEntity
  8
0
100
AcDbBlockBegin
  2
*D3
 70
     1
 10
0.0
 20
0.0
 30
0.0
  3
*D3
  1

  0
LINE
  5
30EA
330
2FC8
100
AcDbEntity
  8
2
370
    -2
100
AcDbLine
 10
151.999114
 20
0.0223010000000024
 30
0.0
 11
151.999114
 21
-44.12211874528593
 31
0.0
  0
LINE
  5
30EB
330
2FC8
100
AcDbEntity
  8
2
370
    -2
100
AcDbLine
 10
0.0
 20
-5.000001000000001
 30
0.0
 11
-0.0000000000000024
 21
-44.12211874528593
 31
0.0
  0
LINE
  5
30EC
330
2FC8
100
AcDbEntity
  8
2
370
    -2
100
AcDbLine
 10
147.429114
 20
-39.12211874528594
 30
0.0
 11
4.569999999999998
 21
-39.12211874528594
 31
0.0
  0
SOLID
  5
30ED
330
2FC8
100
AcDbEntity
  8
2
100
AcDbTrace
 10
147.429114
 20
-38.36045207861928
 30
0.0
 11
147.429114
 21
-39.8837854119526
 31
0.0
 12
151.999114
 22
-39.12211874528594
 32
0.0
 13
151.999114
 23
-39.12211874528594
 33
0.0
  0
SOLID
  5
30EE
330
2FC8
100
AcDbEntity
  8
2
100
AcDbTrace
 10
4.569999999999998
 20
-38.36045207861928
 30
0.0
 11
4.569999999999998
 21
-39.8837854119526
 31
0.0
 12
-0.0000000000000021
 22
-39.12211874528594
 32
0.0
 13
-0.0000000000000021
 23
-39.12211874528594
 33
0.0
  0
MTEXT
  5
30EF
330
2FC8
100
AcDbEntity
  8
2
100
AcDbMText
 10
75.99955699999998
 20
-35.32211874528594
 30
0.0
 40
3.0
 41
0.0
 71
     5
 72
     1
  1
\A1;152 
  7
SANDVIK_STYLE
 73
     1
 44
1.0
1001
ACAD
1000
MTEXTBEGIN
1070
    73
1070
     1
1070
    44
1040
1.0
1070
    74
1070
     0
1000
MTEXTEND
  0
POINT
  5
30F0
330
2FC8
100
AcDbEntity
  8
DEFPOINTS
 62
     0
100
AcDbPoint
 10
151.999114
 20
0.0223010000000024
 30
0.0
  0
POINT
  5
30F1
330
2FC8
100
AcDbEntity
  8
DEFPOINTS
 62
     0
100
AcDbPoint
 10
0.0
 20
-5.000001000000001
 30
0.0
  0
POINT
  5
30F2
330
2FC8
100
AcDbEntity
  8
DEFPOINTS
 62
     0
100
AcDbPoint
 10
-0.0000000000000021
 20
-39.12211874528594
 30
0.0
  0
ENDBLK
  5
2FD3
330
2FC8
100
AcDbEntity
  8
0
100
AcDbBlockEnd
  0
BLOCK
  5
2FDF
330
2FD5
100
AcDbEntity
  8
0
100
AcDbBlockBegin
  2
*D4
 70
     1
 10
0.0
 20
0.0
 30
0.0
  3
*D4
  1

  0
LINE
  5
3007
330
2FD5
100
AcDbEntity
  8
SK2
370
    -2
100
AcDbLine
 10
0.0
 20
-9.201135564908193
 30
0.0
 11
-0.0000000000000022
 21
-44.47011099626536
 31
0.0
  0
LINE
  5
3008
330
2FD5
100
AcDbEntity
  8
SK2
370
    -2
100
AcDbLine
 10
-39.99999299999999
 20
-11.27323356490819
 30
0.0
 11
-39.99999299999999
 21
-44.47011099626536
 31
0.0
  0
LINE
  5
3009
330
2FD5
100
AcDbEntity
  8
SK2
370
    -2
100
AcDbLine
 10
-4.570000000000002
 20
-39.47011099626536
 30
0.0
 11
-35.42999299999999
 21
-39.47011099626536
 31
0.0
  0
MTEXT
  5
300A
330
2FD5
100
AcDbEntity
  8
SK2
100
AcDbMText
 10
-19.99999649999999
 20
-34.82538707026129
 30
0.0
 40
3.0
 41
0.0
 71
     5
 72
     1
  1
\A1;40 
  7
SANDVIK_STYLE
 73
     1
 44
1.0
1001
ACAD
1000
MTEXTBEGIN
1070
    73
1070
     1
1070
    44
1040
1.0
1070
    74
1070
     0
1000
MTEXTEND
  0
SOLID
  5
300B
330
2FD5
100
AcDbEntity
  8
SK2
100
AcDbTrace
 10
-4.570000000000002
 20
-38.70844432959869
 30
0.0
 11
-4.570000000000002
 21
-40.23177766293203
 31
0.0
 12
-0.0000000000000019
 22
-39.47011099626536
 32
0.0
 13
-0.0000000000000019
 23
-39.47011099626536
 33
0.0
  0
SOLID
  5
300C
330
2FD5
100
AcDbEntity
  8
SK2
100
AcDbTrace
 10
-35.42999299999999
 20
-38.70844432959869
 30
0.0
 11
-35.42999299999999
 21
-40.23177766293203
 31
0.0
 12
-39.99999299999999
 22
-39.47011099626536
 32
0.0
 13
-39.99999299999999
 23
-39.47011099626536
 33
0.0
  0
POINT
  5
300D
330
2FD5
100
AcDbEntity
  8
DEFPOINTS
 62
     0
100
AcDbPoint
 10
0.0
 20
-9.201135564908193
 30
0.0
  0
POINT
  5
300E
330
2FD5
100
AcDbEntity
  8
DEFPOINTS
 62
     0
100
AcDbPoint
 10
-39.99999299999999
 20
-11.27323356490819
 30
0.0
  0
POINT
  5
300F
330
2FD5
100
AcDbEntity
  8
DEFPOINTS
 62
     0
100
AcDbPoint
 10
-39.99999299999999
 20
-39.47011099626536
 30
0.0
  0
ENDBLK
  5
2FE0
330
2FD5
100
AcDbEntity
  8
0
100
AcDbBlockEnd
  0
BLOCK
  5
301B
330
3011
100
AcDbEntity
  8
0
100
AcDbBlockBegin
  2
*D5
 70
     1
 10
0.0
 20
0.0
 30
0.0
  3
*D5
  1

  0
LINE
  5
3080
330
3011
100
AcDbEntity
  8
2
370
    -2
100
AcDbLine
 10
5.972907000000011
 20
3.544512
 30
0.0
 11
5.972907000000008
 21
-28.49281745308832
 31
0.0
  0
LINE
  5
3081
330
3011
100
AcDbEntity
  8
2
370
    -2
100
AcDbLine
 10
151.97489
 20
-0.0259429999999981
 30
0.0
 11
151.97489
 21
-28.49281745308832
 31
0.0
  0
LINE
  5
3082
330
3011
100
AcDbEntity
  8
2
370
    -2
100
AcDbLine
 10
10.54290700000001
 20
-23.49281745308832
 30
0.0
 11
147.40489
 21
-23.49281745308832
 31
0.0
  0
SOLID
  5
3083
330
3011
100
AcDbEntity
  8
2
100
AcDbTrace
 10
10.54290700000001
 20
-22.73115078642165
 30
0.0
 11
10.54290700000001
 21
-24.25448411975499
 31
0.0
 12
5.972907000000008
 22
-23.49281745308832
 32
0.0
 13
5.972907000000008
 23
-23.49281745308832
 33
0.0
  0
SOLID
  5
3084
330
3011
100
AcDbEntity
  8
2
100
AcDbTrace
 10
147.40489
 20
-22.73115078642165
 30
0.0
 11
147.40489
 21
-24.25448411975499
 31
0.0
 12
151.97489
 22
-23.49281745308832
 32
0.0
 13
151.97489
 23
-23.49281745308832
 33
0.0
  0
MTEXT
  5
3085
330
3011
100
AcDbEntity
  8
2
100
AcDbMText
 10
78.97389850000002
 20
-19.69281745308832
 30
0.0
 40
3.0
 41
0.0
 71
     5
 72
     1
  1
\A1;146 
  7
SANDVIK_STYLE
 73
     1
 44
1.0
1001
ACAD
1000
MTEXTBEGIN
1070
    73
1070
     1
1070
    44
1040
1.0
1070
    74
1070
     0
1000
MTEXTEND
  0
POINT
  5
3086
330
3011
100
AcDbEntity
  8
DEFPOINTS
 62
     0
100
AcDbPoint
 10
5.972907000000011
 20
3.544512
 30
0.0
  0
POINT
  5
3087
330
3011
100
AcDbEntity
  8
DEFPOINTS
 62
     0
100
AcDbPoint
 10
151.97489
 20
-0.0259429999999981
 30
0.0
  0
POINT
  5
3088
330
3011
100
AcDbEntity
  8
DEFPOINTS
 62
     0
100
AcDbPoint
 10
151.97489
 20
-23.49281745308832
 30
0.0
  0
ENDBLK
  5
301C
330
3011
100
AcDbEntity
  8
0
100
AcDbBlockEnd
  0
BLOCK
  5
3031
330
3027
100
AcDbEntity
  8
0
100
AcDbBlockBegin
  2
*D6
 70
     1
 10
0.0
 20
0.0
 30
0.0
  3
*D6
  1

  0
LINE
  5
3028
330
3027
100
AcDbEntity
  8
SK2
370
    -2
100
AcDbLine
 10
150.633742
 20
4.452325999999998
 30
0.0
 11
150.633742
 21
16.27928930484614
 31
0.0
  0
LINE
  5
3029
330
3027
100
AcDbEntity
  8
SK2
370
    -2
100
AcDbLine
 10
42.63374199999996
 20
4.452325999999998
 30
0.0
 11
42.63374199999996
 21
16.27928930484614
 31
0.0
  0
LINE
  5
302A
330
3027
100
AcDbEntity
  8
SK2
370
    -2
100
AcDbLine
 10
146.063742
 20
11.27928930484614
 30
0.0
 11
47.20374199999998
 21
11.27928930484614
 31
0.0
  0
SOLID
  5
302B
330
3027
100
AcDbEntity
  8
SK2
100
AcDbTrace
 10
146.063742
 20
12.04095597151281
 30
0.0
 11
146.063742
 21
10.51762263817948
 31
0.0
 12
150.633742
 22
11.27928930484614
 32
0.0
 13
150.633742
 23
11.27928930484614
 33
0.0
  0
SOLID
  5
302C
330
3027
100
AcDbEntity
  8
SK2
100
AcDbTrace
 10
47.20374199999998
 20
12.04095597151281
 30
0.0
 11
47.20374199999998
 21
10.51762263817948
 31
0.0
 12
42.63374199999996
 22
11.27928930484614
 32
0.0
 13
42.63374199999996
 23
11.27928930484614
 33
0.0
  0
MTEXT
  5
302D
330
3027
100
AcDbEntity
  8
SK2
100
AcDbMText
 10
96.63374199999999
 20
15.07928930484614
 30
0.0
 40
3.0
 41
0.0
 71
     5
 72
     1
  1
\A1;108 
  7
SANDVIK_STYLE
 73
     1
 44
1.0
1001
ACAD
1000
MTEXTBEGIN
1070
    73
1070
     1
1070
    44
1040
1.0
1070
    74
1070
     0
1000
MTEXTEND
  0
POINT
  5
302E
330
3027
100
AcDbEntity
  8
DEFPOINTS
 62
     0
100
AcDbPoint
 10
150.633742
 20
4.452325999999998
 30
0.0
  0
POINT
  5
302F
330
3027
100
AcDbEntity
  8
DEFPOINTS
 62
     0
100
AcDbPoint
 10
42.63374199999996
 20
4.452325999999998
 30
0.0
  0
POINT
  5
3030
330
3027
100
AcDbEntity
  8
DEFPOINTS
 62
     0
100
AcDbPoint
 10
42.63374199999996
 20
11.27928930484614
 30
0.0
  0
ENDBLK
  5
3032
330
3027
100
AcDbEntity
  8
0
100
AcDbBlockEnd
  0
BLOCK
  5
303F
330
3034
100
AcDbEntity
  8
0
100
AcDbBlockBegin
  2
*D7
 70
     1
 10
0.0
 20
0.0
 30
0.0
  3
*D7
  1

  0
LINE
  5
30DB
330
3034
100
AcDbEntity
  8
2
370
    -2
100
AcDbLine
 10
150.464251
 20
-4.497841999999998
 30
0.0
 11
164.3844795927721
 21
-4.497842000000002
 31
0.0
  0
LINE
  5
30DC
330
3034
100
AcDbEntity
  8
2
370
    -2
100
AcDbLine
 10
150.484671
 20
4.500001000000004
 30
0.0
 11
164.3844795927721
 21
4.500001000000001
 31
0.0
  0
LINE
  5
30DD
330
3034
100
AcDbEntity
  8
2
370
    -2
100
AcDbLine
 10
159.3844795927721
 20
-9.067842000000002
 30
0.0
 11
159.3844795927721
 21
-13.637842
 31
0.0
  0
LINE
  5
30DE
330
3034
100
AcDbEntity
  8
2
370
    -2
100
AcDbLine
 10
159.3844795927721
 20
9.070000999999999
 30
0.0
 11
159.3844795927721
 21
13.640001
 31
0.0
  0
MTEXT
  5
30DF
330
3034
100
AcDbEntity
  8
2
100
AcDbMText
 10
159.5845637122212
 20
-18.51883132695622
 30
0.0
 40
3.0
 41
0.0
 71
     5
 72
     1
  1
\A1;%%C 9 
  7
SANDVIK_STYLE
 11
0.0000000000000001
 21
1.0
 31
0.0
 73
     1
 44
1.0
1001
ACAD
1000
MTEXTBEGIN
1070
    73
1070
     1
1070
    44
1040
1.0
1070
    74
1070
     0
1000
MTEXTEND
  0
SOLID
  5
30E0
330
3034
100
AcDbEntity
  8
2
100
AcDbTrace
 10
158.6228129261054
 20
-9.067842000000002
 30
0.0
 11
160.1461462594387
 21
-9.067842000000002
 31
0.0
 12
159.3844795927721
 22
-4.497842000000001
 32
0.0
 13
159.3844795927721
 23
-4.497842000000001
 33
0.0
  0
SOLID
  5
30E1
330
3034
100
AcDbEntity
  8
2
100
AcDbTrace
 10
158.6228129261054
 20
9.070000999999999
 30
0.0
 11
160.1461462594387
 21
9.070000999999999
 31
0.0
 12
159.3844795927721
 22
4.500001000000001
 32
0.0
 13
159.3844795927721
 23
4.500001000000001
 33
0.0
  0
POINT
  5
30E2
330
3034
100
AcDbEntity
  8
DEFPOINTS
 62
     0
100
AcDbPoint
 10
150.464251
 20
-4.497841999999998
 30
0.0
  0
POINT
  5
30E3
330
3034
100
AcDbEntity
  8
DEFPOINTS
 62
     0
100
AcDbPoint
 10
150.484671
 20
4.500001000000004
 30
0.0
  0
POINT
  5
30E4
330
3034
100
AcDbEntity
  8
DEFPOINTS
 62
     0
100
AcDbPoint
 10
159.3844795927721
 20
4.500001000000001
 30
0.0
  0
ENDBLK
  5
3040
330
3034
100
AcDbEntity
  8
0
100
AcDbBlockEnd
  0
BLOCK
  5
3061
330
3056
100
AcDbEntity
  8
0
100
AcDbBlockBegin
  2
*D8
 70
     1
 10
0.0
 20
0.0
 30
0.0
  3
*D8
  1

  0
LINE
  5
30D1
330
3056
100
AcDbEntity
  8
SK2
370
    -2
100
AcDbLine
 10
-38.917464
 20
-5.000001000000001
 30
0.0
 11
-48.06805955568984
 21
-5.000000999999998
 31
0.0
  0
LINE
  5
30D2
330
3056
100
AcDbEntity
  8
SK2
370
    -2
100
AcDbLine
 10
-38.917464
 20
5.000001000000004
 30
0.0
 11
-48.06805955568984
 21
5.000001000000006
 31
0.0
  0
LINE
  5
30D3
330
3056
100
AcDbEntity
  8
SK2
370
    -2
100
AcDbLine
 10
-43.06805955568984
 20
-9.570000999999999
 30
0.0
 11
-43.06805955568984
 21
-14.140001
 31
0.0
  0
LINE
  5
30D4
330
3056
100
AcDbEntity
  8
SK2
370
    -2
100
AcDbLine
 10
-43.06805955568984
 20
9.570001000000003
 30
0.0
 11
-43.06805955568984
 21
14.140001
 31
0.0
  0
MTEXT
  5
30D5
330
3056
100
AcDbEntity
  8
SK2
100
AcDbMText
 10
-43.24912014856511
 20
-22.0117687895056
 30
0.0
 40
3.0
 41
0.0
 71
     5
 72
     1
  1
\A1;%%C 10 
  7
SANDVIK_STYLE
 11
0.0000000000000001
 21
1.0
 31
0.0
 73
     1
 44
1.0
1001
ACAD
1000
MTEXTBEGIN
1070
    73
1070
     1
1070
    44
1040
1.0
1070
    74
1070
     0
1000
MTEXTEND
  0
SOLID
  5
30D6
330
3056
100
AcDbEntity
  8
SK2
100
AcDbTrace
 10
-43.82972622235651
 20
-9.570000999999999
 30
0.0
 11
-42.30639288902317
 21
-9.570000999999999
 31
0.0
 12
-43.06805955568984
 22
-5.000001
 32
0.0
 13
-43.06805955568984
 23
-5.000001
 33
0.0
  0
SOLID
  5
30D7
330
3056
100
AcDbEntity
  8
SK2
100
AcDbTrace
 10
-43.82972622235651
 20
9.570001000000003
 30
0.0
 11
-42.30639288902317
 21
9.570001000000003
 31
0.0
 12
-43.06805955568984
 22
5.000001000000004
 32
0.0
 13
-43.06805955568984
 23
5.000001000000004
 33
0.0
  0
POINT
  5
30D8
330
3056
100
AcDbEntity
  8
DEFPOINTS
 62
     0
100
AcDbPoint
 10
-38.917464
 20
-5.000001000000001
 30
0.0
  0
POINT
  5
30D9
330
3056
100
AcDbEntity
  8
DEFPOINTS
 62
     0
100
AcDbPoint
 10
-38.917464
 20
5.000001000000004
 30
0.0
  0
POINT
  5
30DA
330
3056
100
AcDbEntity
  8
DEFPOINTS
 62
     0
100
AcDbPoint
 10
-43.06805955568984
 20
5.000001000000004
 30
0.0
  0
ENDBLK
  5
3062
330
3056
100
AcDbEntity
  8
0
100
AcDbBlockEnd
  0
ENDSEC
  0
SECTION
  2
ENTITIES
  0
TEXT
  5
62
330
BF7
100
AcDbEntity
  8
SK6
100
AcDbText
 10
-18.5
 20
25.0
 30
0.0
 40
3.0
  1
861.1-0900-108A1-GM
 41
0.7622144905660377
  7
SANDVIK_STYLE
 72
     5
 11
21.897368
 21
25.0
 31
0.0
100
AcDbText
  0
LINE
  5
2CC0
330
BF7
100
AcDbEntity
  8
SK1
100
AcDbLine
 10
0.0
 20
5.000001000000004
 30
0.0
 11
0.0
 21
-5.000001000000001
 31
0.0
  0
ARC
  5
2CC1
330
BF7
100
AcDbEntity
  8
1
100
AcDbCircle
 10
0.4989999999999954
 20
4.999000999999998
 30
0.0
 40
0.4989999740879369
100
AcDbArc
 50
180.0
 51
270.0
  0
ARC
  5
2CC2
330
BF7
100
AcDbEntity
  8
1
100
AcDbCircle
 10
0.4989999999999954
 20
-4.998999999999997
 30
0.0
 40
0.4989999740879369
100
AcDbArc
 50
90.0
 51
180.0
  0
LINE
  5
2CC3
330
BF7
100
AcDbEntity
  8
1
100
AcDbLine
 10
21.66977700000001
 20
1.638884000000004
 30
0.0
 11
18.40632500000001
 21
3.150002000000004
 31
0.0
  0
LINE
  5
2CC4
330
BF7
100
AcDbEntity
  8
1
100
AcDbLine
 10
23.749289
 20
0.4667349999999999
 30
0.0
 11
21.66977700000001
 21
1.638884000000004
 31
0.0
  0
LINE
  5
2CC5
330
BF7
100
AcDbEntity
  8
1
100
AcDbLine
 10
25.82881300000003
 20
-0.7428229999999978
 30
0.0
 11
23.749289
 21
0.4667349999999999
 31
0.0
  0
LINE
  5
2CC6
330
BF7
100
AcDbEntity
  8
1
100
AcDbLine
 10
27.90831300000002
 20
-1.892849999999999
 30
0.0
 11
25.82881300000003
 21
-0.7428229999999978
 31
0.0
  0
LINE
  5
2CC7
330
BF7
100
AcDbEntity
  8
1
100
AcDbLine
 10
29.98783700000002
 20
-2.891188999999997
 30
0.0
 11
27.90831300000002
 21
-1.892849999999999
 31
0.0
  0
LINE
  5
2CC8
330
BF7
100
AcDbEntity
  8
1
100
AcDbLine
 10
32.06733700000001
 20
-3.657811999999995
 30
0.0
 11
29.98783700000002
 21
-2.891188999999997
 31
0.0
  0
LINE
  5
2CC9
330
BF7
100
AcDbEntity
  8
1
100
AcDbLine
 10
34.14686099999997
 20
-4.131329
 30
0.0
 11
32.06733700000001
 21
-3.657811999999995
 31
0.0
  0
LINE
  5
2CCA
330
BF7
100
AcDbEntity
  8
1
100
AcDbLine
 10
36.07627400000001
 20
-4.263470999999999
 30
0.0
 11
34.14686099999997
 21
-4.131329
 31
0.0
  0
LINE
  5
2CCB
330
BF7
100
AcDbEntity
  8
1
100
AcDbLine
 10
67.41905500000001
 20
1.773116999999999
 30
0.0
 11
64.40380799999998
 21
3.150038000000001
 31
0.0
  0
LINE
  5
2CCC
330
BF7
100
AcDbEntity
  8
1
100
AcDbLine
 10
69.49855500000004
 20
0.6119600000000001
 30
0.0
 11
67.41905500000001
 21
1.773116999999999
 31
0.0
  0
LINE
  5
2CCD
330
BF7
100
AcDbEntity
  8
1
100
AcDbLine
 10
71.578079
 20
-0.5982369999999975
 30
0.0
 11
69.49855500000004
 21
0.6119600000000001
 31
0.0
  0
LINE
  5
2CCE
330
BF7
100
AcDbEntity
  8
1
100
AcDbLine
 10
73.657579
 20
-1.760499999999995
 30
0.0
 11
71.578079
 21
-0.5982369999999975
 31
0.0
  0
LINE
  5
2CCF
330
BF7
100
AcDbEntity
  8
1
100
AcDbLine
 10
75.73710300000001
 20
-2.781665999999995
 30
0.0
 11
73.657579
 21
-1.760499999999995
 31
0.0
  0
LINE
  5
2CD0
330
BF7
100
AcDbEntity
  8
1
100
AcDbLine
 10
77.81660300000004
 20
-3.579923
 30
0.0
 11
75.73710300000001
 21
-2.781665999999995
 31
0.0
  0
LINE
  5
2CD1
330
BF7
100
AcDbEntity
  8
1
100
AcDbLine
 10
79.89612699999998
 20
-4.091276
 30
0.0
 11
77.81660300000004
 21
-3.579923
 31
0.0
  0
LINE
  5
2CD2
330
BF7
100
AcDbEntity
  8
1
100
AcDbLine
 10
81.97562699999997
 20
-4.274774999999998
 30
0.0
 11
79.89612699999998
 21
-4.091276
 31
0.0
  0
LINE
  5
2CD3
330
BF7
100
AcDbEntity
  8
1
100
AcDbLine
 10
82.08036900000001
 20
-4.266761999999995
 30
0.0
 11
81.97562699999997
 21
-4.274774999999998
 31
0.0
  0
LINE
  5
2CD4
330
BF7
100
AcDbEntity
  8
1
100
AcDbLine
 10
113.168321
 20
1.905267999999999
 30
0.0
 11
110.471949
 21
3.127901000000001
 31
0.0
  0
LINE
  5
2CD5
330
BF7
100
AcDbEntity
  8
1
100
AcDbLine
 10
115.247845
 20
0.7564670000000007
 30
0.0
 11
113.168321
 21
1.905267999999999
 31
0.0
  0
LINE
  5
2CD6
330
BF7
100
AcDbEntity
  8
1
100
AcDbLine
 10
117.327345
 20
-0.4529519999999998
 30
0.0
 11
115.247845
 21
0.7564670000000007
 31
0.0
  0
LINE
  5
2CD7
330
BF7
100
AcDbEntity
  8
1
100
AcDbLine
 10
119.4068689999999
 20
-1.626078999999995
 30
0.0
 11
117.327345
 21
-0.4529519999999998
 31
0.0
  0
LINE
  5
2CD8
330
BF7
100
AcDbEntity
  8
1
100
AcDbLine
 10
121.4863689999999
 20
-2.668884999999999
 30
0.0
 11
119.4068689999999
 21
-1.626078999999995
 31
0.0
  0
LINE
  5
2CD9
330
BF7
100
AcDbEntity
  8
1
100
AcDbLine
 10
123.565893
 20
-3.497820999999998
 30
0.0
 11
121.4863689999999
 21
-2.668884999999999
 31
0.0
  0
LINE
  5
2CDA
330
BF7
100
AcDbEntity
  8
1
100
AcDbLine
 10
125.645393
 20
-4.046424999999998
 30
0.0
 11
123.565893
 21
-3.497820999999998
 31
0.0
  0
LINE
  5
2CDB
330
BF7
100
AcDbEntity
  8
1
100
AcDbLine
 10
127.724917
 20
-4.270768999999996
 30
0.0
 11
125.645393
 21
-4.046424999999998
 31
0.0
  0
LINE
  5
2CDC
330
BF7
100
AcDbEntity
  8
1
100
AcDbLine
 10
128.051351
 20
-4.252257999999994
 30
0.0
 11
127.724917
 21
-4.270768999999996
 31
0.0
  0
LINE
  5
2CDD
330
BF7
100
AcDbEntity
  8
1
100
AcDbLine
 10
9.192703999999991
 20
-2.988585999999997
 30
0.0
 11
9.192703999999991
 21
-3.695176
 31
0.0
  0
LINE
  5
2CDE
330
BF7
100
AcDbEntity
  8
1
100
AcDbLine
 10
17.20204999999998
 20
-3.695176
 30
0.0
 11
9.192703999999991
 21
-3.695176
 31
0.0
  0
LINE
  5
2CDF
330
BF7
100
AcDbEntity
  8
1
100
AcDbLine
 10
11.27221600000001
 20
-4.149535999999995
 30
0.0
 11
9.192703999999991
 21
-3.695176
 31
0.0
  0
LINE
  5
2CE0
330
BF7
100
AcDbEntity
  8
1
100
AcDbLine
 10
13.07863399999999
 20
-4.255368999999998
 30
0.0
 11
11.27221600000001
 21
-4.149535999999995
 31
0.0
  0
LINE
  5
2CE1
330
BF7
100
AcDbEntity
  8
1
100
AcDbLine
 10
44.54441
 20
1.706248999999996
 30
0.0
 11
41.47461200000001
 21
3.122456999999998
 31
0.0
  0
LINE
  5
2CE2
330
BF7
100
AcDbEntity
  8
1
100
AcDbLine
 10
46.62393399999999
 20
0.5394289999999984
 30
0.0
 11
44.54441
 21
1.706248999999996
 31
0.0
  0
LINE
  5
2CE3
330
BF7
100
AcDbEntity
  8
1
100
AcDbLine
 10
48.70343399999999
 20
-0.6706319999999977
 30
0.0
 11
46.62393399999999
 21
0.5394289999999984
 31
0.0
  0
LINE
  5
2CE4
330
BF7
100
AcDbEntity
  8
1
100
AcDbLine
 10
50.78295800000001
 20
-1.826940999999995
 30
0.0
 11
48.70343399999999
 21
-0.6706319999999977
 31
0.0
  0
LINE
  5
2CE5
330
BF7
100
AcDbEntity
  8
1
100
AcDbLine
 10
52.86245799999999
 20
-2.836841999999997
 30
0.0
 11
50.78295800000001
 21
-1.826940999999995
 31
0.0
  0
LINE
  5
2CE6
330
BF7
100
AcDbEntity
  8
1
100
AcDbLine
 10
54.94198199999999
 20
-3.619405999999997
 30
0.0
 11
52.86245799999999
 21
-2.836841999999997
 31
0.0
  0
LINE
  5
2CE7
330
BF7
100
AcDbEntity
  8
1
100
AcDbLine
 10
57.02148199999999
 20
-4.111909999999998
 30
0.0
 11
54.94198199999999
 21
-3.619405999999997
 31
0.0
  0
LINE
  5
2CE8
330
BF7
100
AcDbEntity
  8
1
100
AcDbLine
 10
59.05403700000002
 20
-4.271212999999998
 30
0.0
 11
57.02148199999999
 21
-4.111909999999998
 31
0.0
  0
LINE
  5
2CE9
330
BF7
100
AcDbEntity
  8
1
100
AcDbLine
 10
90.2937
 20
1.839461999999999
 30
0.0
 11
87.09013999999996
 21
3.268581000000001
 31
0.0
  0
LINE
  5
2CEA
330
BF7
100
AcDbEntity
  8
1
100
AcDbLine
 10
92.3732
 20
0.6843180000000011
 30
0.0
 11
90.2937
 21
1.839461999999999
 31
0.0
  0
LINE
  5
2CEB
330
BF7
100
AcDbEntity
  8
1
100
AcDbLine
 10
94.45272400000003
 20
-0.5256760000000007
 30
0.0
 11
92.3732
 21
0.6843180000000011
 31
0.0
  0
LINE
  5
2CEC
330
BF7
100
AcDbEntity
  8
1
100
AcDbLine
 10
96.53222400000004
 20
-1.693540999999995
 30
0.0
 11
94.45272400000003
 21
-0.5256760000000007
 31
0.0
  0
LINE
  5
2CED
330
BF7
100
AcDbEntity
  8
1
100
AcDbLine
 10
98.61174799999998
 20
-2.725671999999998
 30
0.0
 11
96.53222400000004
 21
-1.693540999999995
 31
0.0
  0
LINE
  5
2CEE
330
BF7
100
AcDbEntity
  8
1
100
AcDbLine
 10
100.6912479999999
 20
-3.539368999999997
 30
0.0
 11
98.61174799999998
 21
-2.725671999999998
 31
0.0
  0
LINE
  5
2CEF
330
BF7
100
AcDbEntity
  8
1
100
AcDbLine
 10
102.770772
 20
-4.069448000000001
 30
0.0
 11
100.6912479999999
 21
-3.539368999999997
 31
0.0
  0
LINE
  5
2CF0
330
BF7
100
AcDbEntity
  8
1
100
AcDbLine
 10
104.850272
 20
-4.273387999999997
 30
0.0
 11
102.770772
 21
-4.069448000000001
 31
0.0
  0
LINE
  5
2CF1
330
BF7
100
AcDbEntity
  8
1
100
AcDbLine
 10
105.075791
 20
-4.258366999999996
 30
0.0
 11
104.850272
 21
-4.273387999999997
 31
0.0
  0
LINE
  5
2CF2
330
BF7
100
AcDbEntity
  8
1
100
AcDbLine
 10
136.042966
 20
1.970515999999999
 30
0.0
 11
133.533599
 21
3.109215999999998
 31
0.0
  0
LINE
  5
2CF3
330
BF7
100
AcDbEntity
  8
1
100
AcDbLine
 10
138.122466
 20
0.8284020000000039
 30
0.0
 11
136.042966
 21
1.970515999999999
 31
0.0
  0
LINE
  5
2CF4
330
BF7
100
AcDbEntity
  8
1
100
AcDbLine
 10
140.2019899999999
 20
-0.3800969999999957
 30
0.0
 11
138.122466
 21
0.8284020000000039
 31
0.0
  0
LINE
  5
2CF5
330
BF7
100
AcDbEntity
  8
1
100
AcDbLine
 10
142.2814899999999
 20
-1.558134999999995
 30
0.0
 11
140.2019899999999
 21
-0.3800969999999957
 31
0.0
  0
LINE
  5
2CF6
330
BF7
100
AcDbEntity
  8
1
100
AcDbLine
 10
144.361014
 20
-2.611310999999997
 30
0.0
 11
142.2814899999999
 21
-1.558134999999995
 31
0.0
  0
LINE
  5
2CF7
330
BF7
100
AcDbEntity
  8
1
100
AcDbLine
 10
146.407037
 20
-3.443669999999998
 30
0.0
 11
144.361014
 21
-2.611310999999997
 31
0.0
  0
LINE
  5
2CF8
330
BF7
100
AcDbEntity
  8
1
100
AcDbLine
 10
148.453036
 20
-4.008810999999997
 30
0.0
 11
146.407037
 21
-3.443669999999998
 31
0.0
  0
LINE
  5
2CF9
330
BF7
100
AcDbEntity
  8
1
100
AcDbLine
 10
150.49906
 20
-4.262893999999998
 30
0.0
 11
148.453036
 21
-4.008810999999997
 31
0.0
  0
LINE
  5
2CFA
330
BF7
100
AcDbEntity
  8
1
100
AcDbLine
 10
8.955521000000002
 20
-3.746892999999996
 30
0.0
 11
8.775118000000018
 21
-3.889667999999995
 31
0.0
  0
LINE
  5
2CFB
330
BF7
100
AcDbEntity
  8
1
100
AcDbLine
 10
9.192703999999991
 20
-3.695176
 30
0.0
 11
8.955521000000002
 21
-3.746892999999996
 31
0.0
  0
LINE
  5
2CFC
330
BF7
100
AcDbEntity
  8
SK1
100
AcDbLine
 10
-39.99999299999999
 20
-1.926635999999998
 30
0.0
 11
-38.917464
 21
-2.041241999999996
 31
0.0
  0
LINE
  5
2CFD
330
BF7
100
AcDbEntity
  8
SK1
100
AcDbLine
 10
-38.917464
 20
-0.3207650000000015
 30
0.0
 11
-39.99999299999999
 21
-0.4353719999999976
 31
0.0
  0
LINE
  5
2CFE
330
BF7
100
AcDbEntity
  8
1
100
AcDbLine
 10
151.970482
 20
0.1354210000000044
 30
0.0
 11
150.479366
 21
1.389496000000004
 31
0.0
  0
LINE
  5
2CFF
330
BF7
100
AcDbEntity
  8
1
100
AcDbLine
 10
13.62246000000002
 20
-0.4128140000000009
 30
0.0
 11
16.94825
 21
-2.775680999999998
 31
0.0
  0
LINE
  5
2D00
330
BF7
100
AcDbEntity
  8
1
100
AcDbLine
 10
10.297155
 20
1.999851000000003
 30
0.0
 11
13.62246000000002
 21
-0.4128140000000009
 31
0.0
  0
LINE
  5
2D01
330
BF7
100
AcDbEntity
  8
1
100
AcDbLine
 10
6.982421999999985
 20
4.454999999999998
 30
0.0
 11
10.297155
 21
1.999851000000003
 31
0.0
  0
LINE
  5
2D02
330
BF7
100
AcDbEntity
  8
1
100
AcDbLine
 10
135.557797
 20
-0.9426809999999967
 30
0.0
 11
139.911625
 21
-1.126058
 31
0.0
  0
LINE
  5
2D03
330
BF7
100
AcDbEntity
  8
1
100
AcDbLine
 10
131.754395
 20
-0.4956460000000007
 30
0.0
 11
135.557797
 21
-0.9426809999999967
 31
0.0
  0
LINE
  5
2D04
330
BF7
100
AcDbEntity
  8
1
100
AcDbLine
 10
127.951018
 20
0.0820020000000028
 30
0.0
 11
131.754395
 21
-0.4956460000000007
 31
0.0
  0
LINE
  5
2D05
330
BF7
100
AcDbEntity
  8
1
100
AcDbLine
 10
124.147931
 20
0.6380429999999997
 30
0.0
 11
127.951018
 21
0.0820020000000028
 31
0.0
  0
LINE
  5
2D06
330
BF7
100
AcDbEntity
  8
1
100
AcDbLine
 10
123.437292
 20
0.7109670000000003
 30
0.0
 11
124.147931
 21
0.6380429999999997
 31
0.0
  0
LINE
  5
2D07
330
BF7
100
AcDbEntity
  8
1
100
AcDbLine
 10
86.53595899999997
 20
-0.6029279999999952
 30
0.0
 11
93.93109900000002
 21
-1.140149999999997
 31
0.0
  0
LINE
  5
2D08
330
BF7
100
AcDbEntity
  8
1
100
AcDbLine
 10
82.80820699999997
 20
-0.0518559999999972
 30
0.0
 11
86.53595899999997
 21
-0.6029279999999952
 31
0.0
  0
LINE
  5
2D09
330
BF7
100
AcDbEntity
  8
1
100
AcDbLine
 10
79.08101199999999
 20
0.5122299999999989
 30
0.0
 11
82.80820699999997
 21
-0.0518559999999972
 31
0.0
  0
LINE
  5
2D0A
330
BF7
100
AcDbEntity
  8
1
100
AcDbLine
 10
77.45267199999998
 20
0.7018799999999992
 30
0.0
 11
79.08101199999999
 21
0.5122299999999989
 31
0.0
  0
LINE
  5
2D0B
330
BF7
100
AcDbEntity
  8
1
100
AcDbLine
 10
49.36022499999999
 20
-1.105972999999994
 30
0.0
 11
49.58368499999998
 21
-1.093473999999996
 31
0.0
  0
LINE
  5
2D0C
330
BF7
100
AcDbEntity
  8
1
100
AcDbLine
 10
41.198514
 20
-0.688602999999997
 30
0.0
 11
47.91842800000003
 21
-1.118105999999995
 31
0.0
  0
LINE
  5
2D0D
330
BF7
100
AcDbEntity
  8
1
100
AcDbLine
 10
37.40315500000003
 20
-0.1447919999999954
 30
0.0
 11
41.198514
 21
-0.688602999999997
 31
0.0
  0
LINE
  5
2D0E
330
BF7
100
AcDbEntity
  8
1
100
AcDbLine
 10
33.95322000000002
 20
0.386722000000006
 30
0.0
 11
37.40315500000003
 21
-0.1447919999999954
 31
0.0
  0
LINE
  5
2D0F
330
BF7
100
AcDbEntity
  8
1
100
AcDbLine
 10
31.42508000000004
 20
0.7144400000000033
 30
0.0
 11
33.95322000000002
 21
0.386722000000006
 31
0.0
  0
LINE
  5
2D10
330
BF7
100
AcDbEntity
  8
1
100
AcDbLine
 10
150.405824
 20
1.311629999999998
 30
0.0
 11
150.410088
 21
1.290094999999998
 31
0.0
  0
LINE
  5
2D11
330
BF7
100
AcDbEntity
  8
1
100
AcDbLine
 10
150.407496
 20
1.337969000000001
 30
0.0
 11
150.405824
 21
1.311629999999998
 31
0.0
  0
LINE
  5
2D12
330
BF7
100
AcDbEntity
  8
1
100
AcDbLine
 10
150.415029
 20
1.356313000000002
 30
0.0
 11
150.407496
 21
1.337969000000001
 31
0.0
  0
LINE
  5
2D13
330
BF7
100
AcDbEntity
  8
1
100
AcDbLine
 10
150.430798
 20
1.373592999999999
 30
0.0
 11
150.415029
 21
1.356313000000002
 31
0.0
  0
LINE
  5
2D14
330
BF7
100
AcDbEntity
  8
1
100
AcDbLine
 10
150.451461
 20
1.384345000000003
 30
0.0
 11
150.430798
 21
1.373592999999999
 31
0.0
  0
LINE
  5
2D15
330
BF7
100
AcDbEntity
  8
1
100
AcDbLine
 10
150.479366
 20
1.389496000000004
 30
0.0
 11
150.451461
 21
1.384345000000003
 31
0.0
  0
LINE
  5
2D16
330
BF7
100
AcDbEntity
  8
1
100
AcDbLine
 10
146.968292
 20
0.6611359999999991
 30
0.0
 11
150.771282
 21
0.1098830000000035
 31
0.0
  0
LINE
  5
2D17
330
BF7
100
AcDbEntity
  8
1
100
AcDbLine
 10
146.4458669999999
 20
0.7129080000000024
 30
0.0
 11
146.968292
 21
0.6611359999999991
 31
0.0
  0
LINE
  5
2D18
330
BF7
100
AcDbEntity
  8
1
100
AcDbLine
 10
112.965959
 20
-0.9775109999999962
 30
0.0
 11
116.9396019999999
 21
-1.135985999999995
 31
0.0
  0
LINE
  5
2D19
330
BF7
100
AcDbEntity
  8
1
100
AcDbLine
 10
109.23857
 20
-0.5627770000000007
 30
0.0
 11
112.965959
 21
-0.9775109999999962
 31
0.0
  0
LINE
  5
2D1A
330
BF7
100
AcDbEntity
  8
1
100
AcDbLine
 10
105.4432109999999
 20
0.0052140000000023
 30
0.0
 11
109.23857
 21
-0.5627770000000007
 31
0.0
  0
LINE
  5
2D1B
330
BF7
100
AcDbEntity
  8
1
100
AcDbLine
 10
101.648263
 20
0.5717460000000047
 30
0.0
 11
105.4432109999999
 21
0.0052140000000023
 31
0.0
  0
LINE
  5
2D1C
330
BF7
100
AcDbEntity
  8
1
100
AcDbLine
 10
100.428861
 20
0.7055289999999986
 30
0.0
 11
101.648263
 21
0.5717460000000047
 31
0.0
  0
LINE
  5
2D1D
330
BF7
100
AcDbEntity
  8
1
100
AcDbLine
 10
63.96902299999999
 20
-0.6595679999999966
 30
0.0
 11
70.909781
 21
-1.123480999999997
 31
0.0
  0
LINE
  5
2D1E
330
BF7
100
AcDbEntity
  8
1
100
AcDbLine
 10
60.17344599999998
 20
-0.1089590000000022
 30
0.0
 11
63.96902299999999
 21
-0.6595679999999966
 31
0.0
  0
LINE
  5
2D1F
330
BF7
100
AcDbEntity
  8
1
100
AcDbLine
 10
56.37844999999998
 20
0.4701840000000034
 30
0.0
 11
60.17344599999998
 21
-0.1089590000000022
 31
0.0
  0
LINE
  5
2D20
330
BF7
100
AcDbEntity
  8
1
100
AcDbLine
 10
54.44198799999998
 20
0.7026220000000052
 30
0.0
 11
56.37844999999998
 21
0.4701840000000034
 31
0.0
  0
LINE
  5
2D21
330
BF7
100
AcDbEntity
  8
1
100
AcDbLine
 10
20.152997
 20
-0.9054349999999972
 30
0.0
 11
24.90614600000001
 21
-1.115199999999997
 31
0.0
  0
LINE
  5
2D22
330
BF7
100
AcDbEntity
  8
1
100
AcDbLine
 10
16.70304999999999
 20
-0.4886389999999994
 30
0.0
 11
20.152997
 21
-0.9054349999999972
 31
0.0
  0
LINE
  5
2D23
330
BF7
100
AcDbEntity
  8
1
100
AcDbLine
 10
13.25387800000001
 20
0.0331010000000021
 30
0.0
 11
16.70304999999999
 21
-0.4886389999999994
 31
0.0
  0
LINE
  5
2D24
330
BF7
100
AcDbEntity
  8
1
100
AcDbLine
 10
151.701918
 20
1.483576000000002
 30
0.0
 11
150.479366
 21
1.389496000000004
 31
0.0
  0
LINE
  5
2D25
330
BF7
100
AcDbEntity
  8
SK1
100
AcDbLine
 10
-39.99999299999999
 20
-2.747484999999997
 30
0.0
 11
-39.99999299999999
 21
-1.926635999999998
 31
0.0
  0
LINE
  5
2D26
330
BF7
100
AcDbEntity
  8
SK1
100
AcDbLine
 10
-39.99999299999999
 20
-3.432316999999997
 30
0.0
 11
-39.99999299999999
 21
-2.747484999999997
 31
0.0
  0
LINE
  5
2D27
330
BF7
100
AcDbEntity
  8
SK1
100
AcDbLine
 10
-39.99999299999999
 20
-3.947229
 30
0.0
 11
-39.99999299999999
 21
-3.432316999999997
 31
0.0
  0
LINE
  5
2D28
330
BF7
100
AcDbEntity
  8
SK1
100
AcDbLine
 10
-39.99999299999999
 20
-4.266728999999997
 30
0.0
 11
-39.99999299999999
 21
-3.947229
 31
0.0
  0
LINE
  5
2D29
330
BF7
100
AcDbEntity
  8
SK1
100
AcDbLine
 10
-39.99999299999999
 20
-4.374998999999998
 30
0.0
 11
-39.99999299999999
 21
-4.266728999999997
 31
0.0
  0
LINE
  5
2D2A
330
BF7
100
AcDbEntity
  8
SK1
100
AcDbLine
 10
-39.99999299999999
 20
-0.4353719999999976
 30
0.0
 11
-39.99999299999999
 21
-1.926635999999998
 31
0.0
  0
LINE
  5
2D2B
330
BF7
100
AcDbEntity
  8
SK1
100
AcDbLine
 10
-38.917464
 20
-4.868302999999997
 30
0.0
 11
-38.917464
 21
-5.000001000000001
 31
0.0
  0
LINE
  5
2D2C
330
BF7
100
AcDbEntity
  8
SK1
100
AcDbLine
 10
-38.917464
 20
-4.480076
 30
0.0
 11
-38.917464
 21
-4.868302999999997
 31
0.0
  0
LINE
  5
2D2D
330
BF7
100
AcDbEntity
  8
SK1
100
AcDbLine
 10
-38.917464
 20
-3.855771999999998
 30
0.0
 11
-38.917464
 21
-4.480076
 31
0.0
  0
LINE
  5
2D2E
330
BF7
100
AcDbEntity
  8
SK1
100
AcDbLine
 10
-38.917464
 20
-3.028293999999998
 30
0.0
 11
-38.917464
 21
-3.855771999999998
 31
0.0
  0
LINE
  5
2D2F
330
BF7
100
AcDbEntity
  8
SK1
100
AcDbLine
 10
-38.917464
 20
-2.041241999999996
 30
0.0
 11
-38.917464
 21
-3.028293999999998
 31
0.0
  0
LINE
  5
2D30
330
BF7
100
AcDbEntity
  8
SK1
100
AcDbLine
 10
0.0
 20
0.3087510000000009
 30
0.0
 11
0.0
 21
1.313758000000003
 31
0.0
  0
LINE
  5
2D31
330
BF7
100
AcDbEntity
  8
SK1
100
AcDbLine
 10
0.0
 20
-0.7090710000000016
 30
0.0
 11
0.0
 21
0.3087510000000009
 31
0.0
  0
LINE
  5
2D32
330
BF7
100
AcDbEntity
  8
SK1
100
AcDbLine
 10
0.0
 20
-1.697465
 30
0.0
 11
0.0
 21
-0.7090710000000016
 31
0.0
  0
LINE
  5
2D33
330
BF7
100
AcDbEntity
  8
SK1
100
AcDbLine
 10
0.0
 20
-2.615401999999996
 30
0.0
 11
0.0
 21
-1.697465
 31
0.0
  0
LINE
  5
2D34
330
BF7
100
AcDbEntity
  8
SK1
100
AcDbLine
 10
0.0
 20
-3.424784999999998
 30
0.0
 11
0.0
 21
-2.615401999999996
 31
0.0
  0
LINE
  5
2D35
330
BF7
100
AcDbEntity
  8
SK1
100
AcDbLine
 10
0.0
 20
-4.092020999999999
 30
0.0
 11
0.0
 21
-3.424784999999998
 31
0.0
  0
LINE
  5
2D36
330
BF7
100
AcDbEntity
  8
SK1
100
AcDbLine
 10
0.0
 20
-4.589413999999996
 30
0.0
 11
0.0
 21
-4.092020999999999
 31
0.0
  0
LINE
  5
2D37
330
BF7
100
AcDbEntity
  8
SK1
100
AcDbLine
 10
0.0
 20
-4.896318999999998
 30
0.0
 11
0.0
 21
-4.589413999999996
 31
0.0
  0
LINE
  5
2D38
330
BF7
100
AcDbEntity
  8
SK1
100
AcDbLine
 10
0.0
 20
-5.000001000000001
 30
0.0
 11
0.0
 21
-4.896318999999998
 31
0.0
  0
LINE
  5
2D39
330
BF7
100
AcDbEntity
  8
SK1
100
AcDbLine
 10
0.0
 20
4.882226999999998
 30
0.0
 11
0.0
 21
5.000001000000004
 31
0.0
  0
LINE
  5
2D3A
330
BF7
100
AcDbEntity
  8
SK1
100
AcDbLine
 10
0.0
 20
4.534424999999997
 30
0.0
 11
0.0
 21
4.882226999999998
 31
0.0
  0
LINE
  5
2D3B
330
BF7
100
AcDbEntity
  8
SK1
100
AcDbLine
 10
0.0
 20
3.972983000000001
 30
0.0
 11
0.0
 21
4.534424999999997
 31
0.0
  0
LINE
  5
2D3C
330
BF7
100
AcDbEntity
  8
SK1
100
AcDbLine
 10
0.0
 20
3.224349
 30
0.0
 11
0.0
 21
3.972983000000001
 31
0.0
  0
LINE
  5
2D3D
330
BF7
100
AcDbEntity
  8
SK1
100
AcDbLine
 10
0.0
 20
2.323795000000004
 30
0.0
 11
0.0
 21
3.224349
 31
0.0
  0
LINE
  5
2D3E
330
BF7
100
AcDbEntity
  8
SK1
100
AcDbLine
 10
0.0
 20
1.313758000000003
 30
0.0
 11
0.0
 21
2.323795000000004
 31
0.0
  0
LINE
  5
2D3F
330
BF7
100
AcDbEntity
  8
SK1
100
AcDbLine
 10
-38.917464
 20
1.378995000000003
 30
0.0
 11
-38.917464
 21
0.3207650000000051
 31
0.0
  0
LINE
  5
2D40
330
BF7
100
AcDbEntity
  8
SK1
100
AcDbLine
 10
-38.917464
 20
2.373594999999999
 30
0.0
 11
-38.917464
 21
1.378995000000003
 31
0.0
  0
LINE
  5
2D41
330
BF7
100
AcDbEntity
  8
SK1
100
AcDbLine
 10
-38.917464
 20
3.258666999999998
 30
0.0
 11
-38.917464
 21
2.373594999999999
 31
0.0
  0
LINE
  5
2D42
330
BF7
100
AcDbEntity
  8
SK1
100
AcDbLine
 10
-38.917464
 20
3.993378999999995
 30
0.0
 11
-38.917464
 21
3.258666999999998
 31
0.0
  0
LINE
  5
2D43
330
BF7
100
AcDbEntity
  8
SK1
100
AcDbLine
 10
-38.917464
 20
4.543823999999998
 30
0.0
 11
-38.917464
 21
3.993378999999995
 31
0.0
  0
LINE
  5
2D44
330
BF7
100
AcDbEntity
  8
SK1
100
AcDbLine
 10
-38.917464
 20
4.884606999999999
 30
0.0
 11
-38.917464
 21
4.543823999999998
 31
0.0
  0
LINE
  5
2D45
330
BF7
100
AcDbEntity
  8
SK1
100
AcDbLine
 10
-38.917464
 20
5.000001000000004
 30
0.0
 11
-38.917464
 21
4.884606999999999
 31
0.0
  0
LINE
  5
2D46
330
BF7
100
AcDbEntity
  8
SK1
100
AcDbLine
 10
-38.917464
 20
0.3207650000000051
 30
0.0
 11
-39.99999299999999
 21
0.4353720000000047
 31
0.0
  0
LINE
  5
2D47
330
BF7
100
AcDbEntity
  8
SK1
100
AcDbLine
 10
-39.99999299999999
 20
4.244133000000005
 30
0.0
 11
-39.99999299999999
 21
4.374998999999999
 31
0.0
  0
LINE
  5
2D48
330
BF7
100
AcDbEntity
  8
SK1
100
AcDbLine
 10
-39.99999299999999
 20
3.859405999999999
 30
0.0
 11
-39.99999299999999
 21
4.244133000000005
 31
0.0
  0
LINE
  5
2D49
330
BF7
100
AcDbEntity
  8
SK1
100
AcDbLine
 10
-39.99999299999999
 20
3.243834
 30
0.0
 11
-39.99999299999999
 21
3.859405999999999
 31
0.0
  0
LINE
  5
2D4A
330
BF7
100
AcDbEntity
  8
SK1
100
AcDbLine
 10
-39.99999299999999
 20
2.434235999999998
 30
0.0
 11
-39.99999299999999
 21
3.243834
 31
0.0
  0
LINE
  5
2D4B
330
BF7
100
AcDbEntity
  8
SK1
100
AcDbLine
 10
-39.99999299999999
 20
1.479037
 30
0.0
 11
-39.99999299999999
 21
2.434235999999998
 31
0.0
  0
LINE
  5
2D4C
330
BF7
100
AcDbEntity
  8
SK1
100
AcDbLine
 10
-39.99999299999999
 20
0.4353720000000047
 30
0.0
 11
-39.99999299999999
 21
1.479037
 31
0.0
  0
LINE
  5
2D4D
330
BF7
100
AcDbEntity
  8
1
100
AcDbLine
 10
149.179543
 20
-0.6353929999999971
 30
0.0
 11
148.872391
 21
-0.4817629999999973
 31
0.0
  0
LINE
  5
2D4E
330
BF7
100
AcDbEntity
  8
1
100
AcDbLine
 10
149.601416
 20
-0.7982580000000006
 30
0.0
 11
149.179543
 21
-0.6353929999999971
 31
0.0
  0
LINE
  5
2D4F
330
BF7
100
AcDbEntity
  8
1
100
AcDbLine
 10
150.015586
 20
-0.8871849999999952
 30
0.0
 11
149.601416
 21
-0.7982580000000006
 31
0.0
  0
LINE
  5
2D50
330
BF7
100
AcDbEntity
  8
1
100
AcDbLine
 10
150.448409
 20
-0.8564489999999976
 30
0.0
 11
150.015586
 21
-0.8871849999999952
 31
0.0
  0
LINE
  5
2D51
330
BF7
100
AcDbEntity
  8
1
100
AcDbLine
 10
150.676181
 20
-0.7214429999999972
 30
0.0
 11
150.448409
 21
-0.8564489999999976
 31
0.0
  0
LINE
  5
2D52
330
BF7
100
AcDbEntity
  8
1
100
AcDbLine
 10
150.795674
 20
-0.522905999999999
 30
0.0
 11
150.676181
 21
-0.7214429999999972
 31
0.0
  0
LINE
  5
2D53
330
BF7
100
AcDbEntity
  8
1
100
AcDbLine
 10
150.829999
 20
-0.2224579999999996
 30
0.0
 11
150.795674
 21
-0.522905999999999
 31
0.0
  0
LINE
  5
2D54
330
BF7
100
AcDbEntity
  8
1
100
AcDbLine
 10
150.771282
 20
0.1098830000000035
 30
0.0
 11
150.829999
 21
-0.2224579999999996
 31
0.0
  0
LINE
  5
2D55
330
BF7
100
AcDbEntity
  8
1
100
AcDbLine
 10
150.410088
 20
1.290094999999998
 30
0.0
 11
150.771282
 21
0.1098830000000035
 31
0.0
  0
LINE
  5
2D56
330
BF7
100
AcDbEntity
  8
1
100
AcDbLine
 10
151.97489
 20
-0.0259429999999981
 30
0.0
 11
150.410088
 21
1.290094999999998
 31
0.0
  0
LINE
  5
2D57
330
BF7
100
AcDbEntity
  8
1
100
AcDbLine
 10
149.397746
 20
-2.066500999999995
 30
0.0
 11
149.741015
 21
-2.345002999999997
 31
0.0
  0
LINE
  5
2D58
330
BF7
100
AcDbEntity
  8
1
100
AcDbLine
 10
148.649585
 20
-1.363236999999995
 30
0.0
 11
149.397746
 21
-2.066500999999995
 31
0.0
  0
LINE
  5
2D59
330
BF7
100
AcDbEntity
  8
1
100
AcDbLine
 10
147.983831
 20
-0.5808929999999961
 30
0.0
 11
148.649585
 21
-1.363236999999995
 31
0.0
  0
LINE
  5
2D5A
330
BF7
100
AcDbEntity
  8
1
100
AcDbLine
 10
147.60631
 20
-0.0272840000000017
 30
0.0
 11
147.983831
 21
-0.5808929999999961
 31
0.0
  0
LINE
  5
2D5B
330
BF7
100
AcDbEntity
  8
1
100
AcDbLine
 10
13.62593599999999
 20
-1.806069999999995
 30
0.0
 11
10.38452799999999
 21
-0.6042299999999976
 31
0.0
  0
LINE
  5
2D5C
330
BF7
100
AcDbEntity
  8
1
100
AcDbLine
 10
16.94825
 20
-2.775680999999998
 30
0.0
 11
13.62593599999999
 21
-1.806069999999995
 31
0.0
  0
LINE
  5
2D5D
330
BF7
100
AcDbEntity
  8
1
100
AcDbLine
 10
114.967581
 20
-3.269223999999995
 30
0.0
 11
119.0960839999999
 21
-2.347921999999996
 31
0.0
  0
LINE
  5
2D5E
330
BF7
100
AcDbEntity
  8
1
100
AcDbLine
 10
112.76241
 20
-3.344424999999997
 30
0.0
 11
114.967581
 21
-3.269223999999995
 31
0.0
  0
LINE
  5
2D5F
330
BF7
100
AcDbEntity
  8
1
100
AcDbLine
 10
110.557215
 20
-3.118524999999998
 30
0.0
 11
112.76241
 21
-3.344424999999997
 31
0.0
  0
LINE
  5
2D60
330
BF7
100
AcDbEntity
  8
1
100
AcDbLine
 10
108.352166
 20
-2.611903999999999
 30
0.0
 11
110.557215
 21
-3.118524999999998
 31
0.0
  0
LINE
  5
2D61
330
BF7
100
AcDbEntity
  8
1
100
AcDbLine
 10
106.107221
 20
-1.854927999999995
 30
0.0
 11
108.352166
 21
-2.611903999999999
 31
0.0
  0
LINE
  5
2D62
330
BF7
100
AcDbEntity
  8
1
100
AcDbLine
 10
103.982544
 20
-0.9746859999999983
 30
0.0
 11
106.107221
 21
-1.854927999999995
 31
0.0
  0
LINE
  5
2D63
330
BF7
100
AcDbEntity
  8
1
100
AcDbLine
 10
70.46775400000001
 20
-3.048565999999997
 30
0.0
 11
73.09387800000002
 21
-2.347784999999996
 31
0.0
  0
LINE
  5
2D64
330
BF7
100
AcDbEntity
  8
1
100
AcDbLine
 10
68.262777
 20
-3.326433999999999
 30
0.0
 11
70.46775400000001
 21
-3.048565999999997
 31
0.0
  0
LINE
  5
2D65
330
BF7
100
AcDbEntity
  8
1
100
AcDbLine
 10
66.01754100000002
 20
-3.301582999999995
 30
0.0
 11
68.262777
 21
-3.326433999999999
 31
0.0
  0
LINE
  5
2D66
330
BF7
100
AcDbEntity
  8
1
100
AcDbLine
 10
63.77216
 20
-2.968610999999995
 30
0.0
 11
66.01754100000002
 21
-3.301582999999995
 31
0.0
  0
LINE
  5
2D67
330
BF7
100
AcDbEntity
  8
1
100
AcDbLine
 10
61.52702099999999
 20
-2.358709999999998
 30
0.0
 11
63.77216
 21
-2.968610999999995
 31
0.0
  0
LINE
  5
2D68
330
BF7
100
AcDbEntity
  8
1
100
AcDbLine
 10
59.28234200000001
 20
-1.528957999999999
 30
0.0
 11
61.52702099999999
 21
-2.358709999999998
 31
0.0
  0
LINE
  5
2D69
330
BF7
100
AcDbEntity
  8
1
100
AcDbLine
 10
57.61546200000001
 20
-0.8069119999999967
 30
0.0
 11
59.28234200000001
 21
-1.528957999999999
 31
0.0
  0
LINE
  5
2D6A
330
BF7
100
AcDbEntity
  8
1
100
AcDbLine
 10
23.68252900000002
 20
-3.180652999999998
 30
0.0
 11
27.0752
 21
-2.341211999999996
 31
0.0
  0
LINE
  5
2D6B
330
BF7
100
AcDbEntity
  8
1
100
AcDbLine
 10
21.437657
 20
-3.353879999999995
 30
0.0
 11
23.68252900000002
 21
-3.180652999999998
 31
0.0
  0
LINE
  5
2D6C
330
BF7
100
AcDbEntity
  8
1
100
AcDbLine
 10
19.19251700000001
 20
-3.214085999999998
 30
0.0
 11
21.437657
 21
-3.353879999999995
 31
0.0
  0
LINE
  5
2D6D
330
BF7
100
AcDbEntity
  8
1
100
AcDbLine
 10
16.94825
 20
-2.775680999999998
 30
0.0
 11
19.19251700000001
 21
-3.214085999999998
 31
0.0
  0
LINE
  5
2D6E
330
BF7
100
AcDbEntity
  8
1
100
AcDbLine
 10
148.169091
 20
-0.1950159999999954
 30
0.0
 11
147.60631
 21
-0.0272840000000017
 31
0.0
  0
LINE
  5
2D6F
330
BF7
100
AcDbEntity
  8
1
100
AcDbLine
 10
148.598885
 20
-0.3550109999999975
 30
0.0
 11
148.169091
 21
-0.1950159999999954
 31
0.0
  0
LINE
  5
2D70
330
BF7
100
AcDbEntity
  8
1
100
AcDbLine
 10
148.813916
 20
-0.451591999999998
 30
0.0
 11
148.598885
 21
-0.3550109999999975
 31
0.0
  0
LINE
  5
2D71
330
BF7
100
AcDbEntity
  8
1
100
AcDbLine
 10
148.867498
 20
-0.4790799999999962
 30
0.0
 11
148.813916
 21
-0.451591999999998
 31
0.0
  0
LINE
  5
2D72
330
BF7
100
AcDbEntity
  8
1
100
AcDbLine
 10
148.870816
 20
-0.4809029999999943
 30
0.0
 11
148.867498
 21
-0.4790799999999962
 31
0.0
  0
LINE
  5
2D73
330
BF7
100
AcDbEntity
  8
1
100
AcDbLine
 10
148.872391
 20
-0.4817629999999973
 30
0.0
 11
148.870816
 21
-0.4809029999999943
 31
0.0
  0
LINE
  5
2D74
330
BF7
100
AcDbEntity
  8
1
100
AcDbLine
 10
19.09877299999999
 20
-4.121433999999997
 30
0.0
 11
17.20204999999998
 21
-3.695176
 31
0.0
  0
LINE
  5
2D75
330
BF7
100
AcDbEntity
  8
1
100
AcDbLine
 10
20.99548400000001
 20
-4.274833999999998
 30
0.0
 11
19.09877299999999
 21
-4.121433999999997
 31
0.0
  0
LINE
  5
2D76
330
BF7
100
AcDbEntity
  8
1
100
AcDbLine
 10
22.64200400000001
 20
-4.172927999999997
 30
0.0
 11
20.99548400000001
 21
-4.274833999999998
 31
0.0
  0
LINE
  5
2D77
330
BF7
100
AcDbEntity
  8
1
100
AcDbLine
 10
24.293781
 20
-3.862044999999998
 30
0.0
 11
22.64200400000001
 21
-4.172927999999997
 31
0.0
  0
LINE
  5
2D78
330
BF7
100
AcDbEntity
  8
1
100
AcDbLine
 10
25.94028900000001
 20
-3.359669
 30
0.0
 11
24.293781
 21
-3.862044999999998
 31
0.0
  0
LINE
  5
2D79
330
BF7
100
AcDbEntity
  8
1
100
AcDbLine
 10
27.586772
 20
-2.684021999999997
 30
0.0
 11
25.94028900000001
 21
-3.359669
 31
0.0
  0
LINE
  5
2D7A
330
BF7
100
AcDbEntity
  8
1
100
AcDbLine
 10
27.67153000000002
 20
-2.642361999999998
 30
0.0
 11
27.586772
 21
-2.684021999999997
 31
0.0
  0
LINE
  5
2D7B
330
BF7
100
AcDbEntity
  8
1
100
AcDbLine
 10
45.72042800000001
 20
4.165459000000002
 30
0.0
 11
44.059604
 21
4.271329999999998
 31
0.0
  0
LINE
  5
2D7C
330
BF7
100
AcDbEntity
  8
1
100
AcDbLine
 10
47.36700899999997
 20
3.843782
 30
0.0
 11
45.72042800000001
 21
4.165459000000002
 31
0.0
  0
LINE
  5
2D7D
330
BF7
100
AcDbEntity
  8
1
100
AcDbLine
 10
49.01884599999998
 20
3.328870000000001
 30
0.0
 11
47.36700899999997
 21
3.843782
 31
0.0
  0
LINE
  5
2D7E
330
BF7
100
AcDbEntity
  8
1
100
AcDbLine
 10
50.66542600000001
 20
2.649644000000002
 30
0.0
 11
49.01884599999998
 21
3.328870000000001
 31
0.0
  0
LINE
  5
2D7F
330
BF7
100
AcDbEntity
  8
1
100
AcDbLine
 10
52.31188599999999
 20
1.833835999999999
 30
0.0
 11
50.66542600000001
 21
2.649644000000002
 31
0.0
  0
LINE
  5
2D80
330
BF7
100
AcDbEntity
  8
1
100
AcDbLine
 10
53.96357800000001
 20
0.9237929999999996
 30
0.0
 11
52.31188599999999
 21
1.833835999999999
 31
0.0
  0
LINE
  5
2D81
330
BF7
100
AcDbEntity
  8
1
100
AcDbLine
 10
55.610037
 20
-0.0294590000000028
 30
0.0
 11
53.96357800000001
 21
0.9237929999999996
 31
0.0
  0
LINE
  5
2D82
330
BF7
100
AcDbEntity
  8
1
100
AcDbLine
 10
57.25673900000001
 20
-0.9813469999999959
 30
0.0
 11
55.610037
 21
-0.0294590000000028
 31
0.0
  0
LINE
  5
2D83
330
BF7
100
AcDbEntity
  8
1
100
AcDbLine
 10
58.908673
 20
-1.887141999999995
 30
0.0
 11
57.25673900000001
 21
-0.9813469999999959
 31
0.0
  0
LINE
  5
2D84
330
BF7
100
AcDbEntity
  8
1
100
AcDbLine
 10
60.55539900000002
 20
-2.695995999999995
 30
0.0
 11
58.908673
 21
-1.887141999999995
 31
0.0
  0
LINE
  5
2D85
330
BF7
100
AcDbEntity
  8
1
100
AcDbLine
 10
62.20198000000002
 20
-3.365726999999995
 30
0.0
 11
60.55539900000002
 21
-2.695995999999995
 31
0.0
  0
LINE
  5
2D86
330
BF7
100
AcDbEntity
  8
1
100
AcDbLine
 10
63.85384100000002
 20
-3.869288999999998
 30
0.0
 11
62.20198000000002
 21
-3.365726999999995
 31
0.0
  0
LINE
  5
2D87
330
BF7
100
AcDbEntity
  8
1
100
AcDbLine
 10
65.50042200000001
 20
-4.178411999999998
 30
0.0
 11
63.85384100000002
 21
-3.869288999999998
 31
0.0
  0
LINE
  5
2D88
330
BF7
100
AcDbEntity
  8
1
100
AcDbLine
 10
67.14712400000002
 20
-4.271983999999998
 30
0.0
 11
65.50042200000001
 21
-4.178411999999998
 31
0.0
  0
LINE
  5
2D89
330
BF7
100
AcDbEntity
  8
1
100
AcDbLine
 10
68.79908199999997
 20
-4.152204999999998
 30
0.0
 11
67.14712400000002
 21
-4.271983999999998
 31
0.0
  0
LINE
  5
2D8A
330
BF7
100
AcDbEntity
  8
1
100
AcDbLine
 10
70.44578399999998
 20
-3.825819999999998
 30
0.0
 11
68.79908199999997
 21
-4.152204999999998
 31
0.0
  0
LINE
  5
2D8B
330
BF7
100
AcDbEntity
  8
1
100
AcDbLine
 10
72.092171
 20
-3.302161999999998
 30
0.0
 11
70.44578399999998
 21
-3.825819999999998
 31
0.0
  0
LINE
  5
2D8C
330
BF7
100
AcDbEntity
  8
1
100
AcDbLine
 10
73.66956899999998
 20
-2.642784999999999
 30
0.0
 11
72.092171
 21
-3.302161999999998
 31
0.0
  0
LINE
  5
2D8D
330
BF7
100
AcDbEntity
  8
1
100
AcDbLine
 10
91.872164
 20
4.142028999999999
 30
0.0
 11
90.05778900000001
 21
4.264865
 31
0.0
  0
LINE
  5
2D8E
330
BF7
100
AcDbEntity
  8
1
100
AcDbLine
 10
93.52409799999998
 20
3.802659999999998
 30
0.0
 11
91.872164
 21
4.142028999999999
 31
0.0
  0
LINE
  5
2D8F
330
BF7
100
AcDbEntity
  8
1
100
AcDbLine
 10
95.17077600000003
 20
3.274784999999995
 30
0.0
 11
93.52409799999998
 21
3.802659999999998
 31
0.0
  0
LINE
  5
2D90
330
BF7
100
AcDbEntity
  8
1
100
AcDbLine
 10
96.81718700000001
 20
2.578091999999998
 30
0.0
 11
95.17077600000003
 21
3.274784999999995
 31
0.0
  0
LINE
  5
2D91
330
BF7
100
AcDbEntity
  8
1
100
AcDbLine
 10
98.46883000000005
 20
1.750338000000002
 30
0.0
 11
96.81718700000001
 21
2.578091999999998
 31
0.0
  0
LINE
  5
2D92
330
BF7
100
AcDbEntity
  8
1
100
AcDbLine
 10
100.1152169999999
 20
0.837941999999998
 30
0.0
 11
98.46883000000005
 21
1.750338000000002
 31
0.0
  0
LINE
  5
2D93
330
BF7
100
AcDbEntity
  8
1
100
AcDbLine
 10
101.761943
 20
-0.1178829999999991
 30
0.0
 11
100.1152169999999
 21
0.837941999999998
 31
0.0
  0
LINE
  5
2D94
330
BF7
100
AcDbEntity
  8
1
100
AcDbLine
 10
103.413926
 20
-1.070809999999994
 30
0.0
 11
101.761943
 21
-0.1178829999999991
 31
0.0
  0
LINE
  5
2D95
330
BF7
100
AcDbEntity
  8
1
100
AcDbLine
 10
105.060676
 20
-1.967336999999995
 30
0.0
 11
103.413926
 21
-1.070809999999994
 31
0.0
  0
LINE
  5
2D96
330
BF7
100
AcDbEntity
  8
1
100
AcDbLine
 10
106.70716
 20
-2.762253999999998
 30
0.0
 11
105.060676
 21
-1.967336999999995
 31
0.0
  0
LINE
  5
2D97
330
BF7
100
AcDbEntity
  8
1
100
AcDbLine
 10
108.358852
 20
-3.421606999999998
 30
0.0
 11
106.70716
 21
-2.762253999999998
 31
0.0
  0
LINE
  5
2D98
330
BF7
100
AcDbEntity
  8
1
100
AcDbLine
 10
110.005335
 20
-3.908351999999997
 30
0.0
 11
108.358852
 21
-3.421606999999998
 31
0.0
  0
LINE
  5
2D99
330
BF7
100
AcDbEntity
  8
1
100
AcDbLine
 10
111.652086
 20
-4.193538999999995
 30
0.0
 11
110.005335
 21
-3.908351999999997
 31
0.0
  0
LINE
  5
2D9A
330
BF7
100
AcDbEntity
  8
1
100
AcDbLine
 10
113.304068
 20
-4.269905999999997
 30
0.0
 11
111.652086
 21
-4.193538999999995
 31
0.0
  0
LINE
  5
2D9B
330
BF7
100
AcDbEntity
  8
1
100
AcDbLine
 10
114.9507939999999
 20
-4.133137999999997
 30
0.0
 11
113.304068
 21
-4.269905999999997
 31
0.0
  0
LINE
  5
2D9C
330
BF7
100
AcDbEntity
  8
1
100
AcDbLine
 10
116.59752
 20
-3.783132999999995
 30
0.0
 11
114.9507939999999
 21
-4.133137999999997
 31
0.0
  0
LINE
  5
2D9D
330
BF7
100
AcDbEntity
  8
1
100
AcDbLine
 10
118.249478
 20
-3.242856999999998
 30
0.0
 11
116.59752
 21
-3.783132999999995
 31
0.0
  0
LINE
  5
2D9E
330
BF7
100
AcDbEntity
  8
1
100
AcDbLine
 10
119.66773
 20
-2.639766999999995
 30
0.0
 11
118.249478
 21
-3.242856999999998
 31
0.0
  0
LINE
  5
2D9F
330
BF7
100
AcDbEntity
  8
1
100
AcDbLine
 10
138.028867
 20
4.118605000000001
 30
0.0
 11
136.0600189999999
 21
4.256057000000002
 31
0.0
  0
LINE
  5
2DA0
330
BF7
100
AcDbEntity
  8
1
100
AcDbLine
 10
139.675569
 20
3.764059999999998
 30
0.0
 11
138.028867
 21
4.118605000000001
 31
0.0
  0
LINE
  5
2DA1
330
BF7
100
AcDbEntity
  8
1
100
AcDbLine
 10
141.314059
 20
3.218510999999999
 30
0.0
 11
139.675569
 21
3.764059999999998
 31
0.0
  0
LINE
  5
2DA2
330
BF7
100
AcDbEntity
  8
1
100
AcDbLine
 10
142.9577319999999
 20
2.511898999999999
 30
0.0
 11
141.314059
 21
3.218510999999999
 31
0.0
  0
LINE
  5
2DA3
330
BF7
100
AcDbEntity
  8
1
100
AcDbLine
 10
144.596223
 20
1.683497000000006
 30
0.0
 11
142.9577319999999
 21
2.511898999999999
 31
0.0
  0
LINE
  5
2DA4
330
BF7
100
AcDbEntity
  8
1
100
AcDbLine
 10
146.1012659999999
 20
0.8458240000000003
 30
0.0
 11
144.596223
 21
1.683497000000006
 31
0.0
  0
LINE
  5
2DA5
330
BF7
100
AcDbEntity
  8
1
100
AcDbLine
 10
147.60631
 20
-0.0272840000000017
 30
0.0
 11
146.1012659999999
 21
0.8458240000000003
 31
0.0
  0
LINE
  5
2DA6
330
BF7
100
AcDbEntity
  8
1
100
AcDbLine
 10
16.35424599999999
 20
-3.450654
 30
0.0
 11
14.71619200000001
 21
-2.988585999999997
 31
0.0
  0
LINE
  5
2DA7
330
BF7
100
AcDbEntity
  8
1
100
AcDbLine
 10
17.20204999999998
 20
-3.695176
 30
0.0
 11
16.35424599999999
 21
-3.450654
 31
0.0
  0
LINE
  5
2DA8
330
BF7
100
AcDbEntity
  8
1
100
AcDbLine
 10
139.54813
 20
-3.032655999999998
 30
0.0
 11
142.086104
 21
-2.356738999999997
 31
0.0
  0
LINE
  5
2DA9
330
BF7
100
AcDbEntity
  8
1
100
AcDbLine
 10
137.217337
 20
-3.328691999999995
 30
0.0
 11
139.54813
 21
-3.032655999999998
 31
0.0
  0
LINE
  5
2DAA
330
BF7
100
AcDbEntity
  8
1
100
AcDbLine
 10
135.0121899999999
 20
-3.300913999999995
 30
0.0
 11
137.217337
 21
-3.328691999999995
 31
0.0
  0
LINE
  5
2DAB
330
BF7
100
AcDbEntity
  8
1
100
AcDbLine
 10
132.807117
 20
-2.975972999999998
 30
0.0
 11
135.0121899999999
 21
-3.300913999999995
 31
0.0
  0
LINE
  5
2DAC
330
BF7
100
AcDbEntity
  8
1
100
AcDbLine
 10
130.602406
 20
-2.383199999999995
 30
0.0
 11
132.807117
 21
-2.975972999999998
 31
0.0
  0
LINE
  5
2DAD
330
BF7
100
AcDbEntity
  8
1
100
AcDbLine
 10
128.397623
 20
-1.575817999999995
 30
0.0
 11
130.602406
 21
-2.383199999999995
 31
0.0
  0
LINE
  5
2DAE
330
BF7
100
AcDbEntity
  8
1
100
AcDbLine
 10
126.285955
 20
-0.6659019999999991
 30
0.0
 11
128.397623
 21
-1.575817999999995
 31
0.0
  0
LINE
  5
2DAF
330
BF7
100
AcDbEntity
  8
1
100
AcDbLine
 10
92.71770400000002
 20
-3.175574999999998
 30
0.0
 11
96.07745500000005
 21
-2.341744999999999
 31
0.0
  0
LINE
  5
2DB0
330
BF7
100
AcDbEntity
  8
1
100
AcDbLine
 10
90.51255799999999
 20
-3.353010999999998
 30
0.0
 11
92.71770400000002
 21
-3.175574999999998
 31
0.0
  0
LINE
  5
2DB1
330
BF7
100
AcDbEntity
  8
1
100
AcDbLine
 10
88.30736300000003
 20
-3.228535999999998
 30
0.0
 11
90.51255799999999
 21
-3.353010999999998
 31
0.0
  0
LINE
  5
2DB2
330
BF7
100
AcDbEntity
  8
1
100
AcDbLine
 10
86.06203000000006
 20
-2.803333999999998
 30
0.0
 11
88.30736300000003
 21
-3.228535999999998
 31
0.0
  0
LINE
  5
2DB3
330
BF7
100
AcDbEntity
  8
1
100
AcDbLine
 10
83.81698799999998
 20
-2.116679999999995
 30
0.0
 11
86.06203000000006
 21
-2.803333999999998
 31
0.0
  0
LINE
  5
2DB4
330
BF7
100
AcDbEntity
  8
1
100
AcDbLine
 10
81.57233300000001
 20
-1.232712999999999
 30
0.0
 11
83.81698799999998
 21
-2.116679999999995
 31
0.0
  0
LINE
  5
2DB5
330
BF7
100
AcDbEntity
  8
1
100
AcDbLine
 10
79.85901699999998
 20
-0.4702109999999955
 30
0.0
 11
81.57233300000001
 21
-1.232712999999999
 31
0.0
  0
LINE
  5
2DB6
330
BF7
100
AcDbEntity
  8
1
100
AcDbLine
 10
45.97264100000001
 20
-3.268985999999998
 30
0.0
 11
50.10000500000003
 21
-2.346879999999996
 31
0.0
  0
LINE
  5
2DB7
330
BF7
100
AcDbEntity
  8
1
100
AcDbLine
 10
43.72759900000001
 20
-3.343530999999998
 30
0.0
 11
45.97264100000001
 21
-3.268985999999998
 31
0.0
  0
LINE
  5
2DB8
330
BF7
100
AcDbEntity
  8
1
100
AcDbLine
 10
41.48233900000002
 20
-3.106006999999998
 30
0.0
 11
43.72759900000001
 21
-3.343530999999998
 31
0.0
  0
LINE
  5
2DB9
330
BF7
100
AcDbEntity
  8
1
100
AcDbLine
 10
39.23715100000001
 20
-2.578666999999995
 30
0.0
 11
41.48233900000002
 21
-3.106006999999998
 31
0.0
  0
LINE
  5
2DBA
330
BF7
100
AcDbEntity
  8
1
100
AcDbLine
 10
36.99242400000004
 20
-1.810917999999995
 30
0.0
 11
39.23715100000001
 21
-2.578666999999995
 31
0.0
  0
LINE
  5
2DBB
330
BF7
100
AcDbEntity
  8
1
100
AcDbLine
 10
34.98237200000004
 20
-0.9730989999999975
 30
0.0
 11
36.99242400000004
 21
-1.810917999999995
 31
0.0
  0
LINE
  5
2DBC
330
BF7
100
AcDbEntity
  8
1
100
AcDbLine
 10
24.293781
 20
3.862042999999999
 30
0.0
 11
21.05956700000001
 21
4.270869000000002
 31
0.0
  0
LINE
  5
2DBD
330
BF7
100
AcDbEntity
  8
1
100
AcDbLine
 10
25.94028900000001
 20
3.359670000000001
 30
0.0
 11
24.293781
 21
3.862042999999999
 31
0.0
  0
LINE
  5
2DBE
330
BF7
100
AcDbEntity
  8
1
100
AcDbLine
 10
27.586772
 20
2.684020000000002
 30
0.0
 11
25.94028900000001
 21
3.359670000000001
 31
0.0
  0
LINE
  5
2DBF
330
BF7
100
AcDbEntity
  8
1
100
AcDbLine
 10
29.23851300000001
 20
1.872041999999999
 30
0.0
 11
27.586772
 21
2.684020000000002
 31
0.0
  0
LINE
  5
2DC0
330
BF7
100
AcDbEntity
  8
1
100
AcDbLine
 10
30.884996
 20
0.9693359999999984
 30
0.0
 11
29.23851300000001
 21
1.872041999999999
 31
0.0
  0
LINE
  5
2DC1
330
BF7
100
AcDbEntity
  8
1
100
AcDbLine
 10
32.53167400000001
 20
0.0165110000000013
 30
0.0
 11
30.884996
 21
0.9693359999999984
 31
0.0
  0
LINE
  5
2DC2
330
BF7
100
AcDbEntity
  8
1
100
AcDbLine
 10
34.18358400000001
 20
-0.9401709999999994
 30
0.0
 11
32.53167400000001
 21
0.0165110000000013
 31
0.0
  0
LINE
  5
2DC3
330
BF7
100
AcDbEntity
  8
1
100
AcDbLine
 10
35.83026099999998
 20
-1.846947
 30
0.0
 11
34.18358400000001
 21
-0.9401709999999994
 31
0.0
  0
LINE
  5
2DC4
330
BF7
100
AcDbEntity
  8
1
100
AcDbLine
 10
37.477012
 20
-2.658453999999998
 30
0.0
 11
35.83026099999998
 21
-1.846947
 31
0.0
  0
LINE
  5
2DC5
330
BF7
100
AcDbEntity
  8
1
100
AcDbLine
 10
39.12897000000001
 20
-3.339593999999998
 30
0.0
 11
37.477012
 21
-2.658453999999998
 31
0.0
  0
LINE
  5
2DC6
330
BF7
100
AcDbEntity
  8
1
100
AcDbLine
 10
40.77569599999995
 20
-3.852091999999995
 30
0.0
 11
39.12897000000001
 21
-3.339593999999998
 31
0.0
  0
LINE
  5
2DC7
330
BF7
100
AcDbEntity
  8
1
100
AcDbLine
 10
42.42220399999999
 20
-4.165807
 30
0.0
 11
40.77569599999995
 21
-3.852091999999995
 31
0.0
  0
LINE
  5
2DC8
330
BF7
100
AcDbEntity
  8
1
100
AcDbLine
 10
44.07394399999998
 20
-4.272252999999999
 30
0.0
 11
42.42220399999999
 21
-4.165807
 31
0.0
  0
LINE
  5
2DC9
330
BF7
100
AcDbEntity
  8
1
100
AcDbLine
 10
45.72042800000001
 20
-4.165456999999999
 30
0.0
 11
44.07394399999998
 21
-4.272252999999999
 31
0.0
  0
LINE
  5
2DCA
330
BF7
100
AcDbEntity
  8
1
100
AcDbLine
 10
47.36700899999997
 20
-3.843782
 30
0.0
 11
45.72042800000001
 21
-4.165456999999999
 31
0.0
  0
LINE
  5
2DCB
330
BF7
100
AcDbEntity
  8
1
100
AcDbLine
 10
49.01884599999998
 20
-3.328870999999999
 30
0.0
 11
47.36700899999997
 21
-3.843782
 31
0.0
  0
LINE
  5
2DCC
330
BF7
100
AcDbEntity
  8
1
100
AcDbLine
 10
50.66542600000001
 20
-2.649643999999998
 30
0.0
 11
49.01884599999998
 21
-3.328870999999999
 31
0.0
  0
LINE
  5
2DCD
330
BF7
100
AcDbEntity
  8
1
100
AcDbLine
 10
50.67358999999999
 20
-2.645592999999998
 30
0.0
 11
50.66542600000001
 21
-2.649643999999998
 31
0.0
  0
LINE
  5
2DCE
330
BF7
100
AcDbEntity
  8
1
100
AcDbLine
 10
68.79908199999997
 20
4.152205000000002
 30
0.0
 11
67.05979900000001
 21
4.267021000000006
 31
0.0
  0
LINE
  5
2DCF
330
BF7
100
AcDbEntity
  8
1
100
AcDbLine
 10
70.44578399999998
 20
3.825820000000001
 30
0.0
 11
68.79908199999997
 21
4.152205000000002
 31
0.0
  0
LINE
  5
2DD0
330
BF7
100
AcDbEntity
  8
1
100
AcDbLine
 10
72.092171
 20
3.302162999999998
 30
0.0
 11
70.44578399999998
 21
3.825820000000001
 31
0.0
  0
LINE
  5
2DD1
330
BF7
100
AcDbEntity
  8
1
100
AcDbLine
 10
73.74378999999997
 20
2.611768
 30
0.0
 11
72.092171
 21
3.302162999999998
 31
0.0
  0
LINE
  5
2DD2
330
BF7
100
AcDbEntity
  8
1
100
AcDbLine
 10
75.39017699999998
 20
1.793432000000002
 30
0.0
 11
73.74378999999997
 21
2.611768
 31
0.0
  0
LINE
  5
2DD3
330
BF7
100
AcDbEntity
  8
1
100
AcDbLine
 10
77.03692699999997
 20
0.8823860000000003
 30
0.0
 11
75.39017699999998
 21
1.793432000000002
 31
0.0
  0
LINE
  5
2DD4
330
BF7
100
AcDbEntity
  8
1
100
AcDbLine
 10
78.68890899999995
 20
-0.0757039999999947
 30
0.0
 11
77.03692699999997
 21
0.8823860000000003
 31
0.0
  0
LINE
  5
2DD5
330
BF7
100
AcDbEntity
  8
1
100
AcDbLine
 10
80.33565899999997
 20
-1.026984000000002
 30
0.0
 11
78.68890899999995
 21
-0.0757039999999947
 31
0.0
  0
LINE
  5
2DD6
330
BF7
100
AcDbEntity
  8
1
100
AcDbLine
 10
81.98202200000002
 20
-1.925039999999999
 30
0.0
 11
80.33565899999997
 21
-1.026984000000002
 31
0.0
  0
LINE
  5
2DD7
330
BF7
100
AcDbEntity
  8
1
100
AcDbLine
 10
83.63361700000002
 20
-2.729714999999998
 30
0.0
 11
81.98202200000002
 21
-1.925039999999999
 31
0.0
  0
LINE
  5
2DD8
330
BF7
100
AcDbEntity
  8
1
100
AcDbLine
 10
85.27995500000001
 20
-3.395860999999996
 30
0.0
 11
83.63361700000002
 21
-2.729714999999998
 31
0.0
  0
LINE
  5
2DD9
330
BF7
100
AcDbEntity
  8
1
100
AcDbLine
 10
86.92670600000004
 20
-3.886989999999995
 30
0.0
 11
85.27995500000001
 21
-3.395860999999996
 31
0.0
  0
LINE
  5
2DDA
330
BF7
100
AcDbEntity
  8
1
100
AcDbLine
 10
88.57871199999998
 20
-4.185255999999998
 30
0.0
 11
86.92670600000004
 21
-3.886989999999995
 31
0.0
  0
LINE
  5
2DDB
330
BF7
100
AcDbEntity
  8
1
100
AcDbLine
 10
90.225463
 20
-4.273889999999997
 30
0.0
 11
88.57871199999998
 21
-4.185255999999998
 31
0.0
  0
LINE
  5
2DDC
330
BF7
100
AcDbEntity
  8
1
100
AcDbLine
 10
91.872164
 20
-4.142029999999998
 30
0.0
 11
90.225463
 21
-4.273889999999997
 31
0.0
  0
LINE
  5
2DDD
330
BF7
100
AcDbEntity
  8
1
100
AcDbLine
 10
93.52409799999998
 20
-3.802660999999995
 30
0.0
 11
91.872164
 21
-4.142029999999998
 31
0.0
  0
LINE
  5
2DDE
330
BF7
100
AcDbEntity
  8
1
100
AcDbLine
 10
95.17077600000003
 20
-3.274784999999995
 30
0.0
 11
93.52409799999998
 21
-3.802660999999995
 31
0.0
  0
LINE
  5
2DDF
330
BF7
100
AcDbEntity
  8
1
100
AcDbLine
 10
96.67177400000005
 20
-2.639619999999998
 30
0.0
 11
95.17077600000003
 21
-3.274784999999995
 31
0.0
  0
LINE
  5
2DE0
330
BF7
100
AcDbEntity
  8
1
100
AcDbLine
 10
114.9507939999999
 20
4.133138999999999
 30
0.0
 11
113.0598729999999
 21
4.258617999999998
 31
0.0
  0
LINE
  5
2DE1
330
BF7
100
AcDbEntity
  8
1
100
AcDbLine
 10
116.59752
 20
3.783133000000001
 30
0.0
 11
114.9507939999999
 21
4.133138999999999
 31
0.0
  0
LINE
  5
2DE2
330
BF7
100
AcDbEntity
  8
1
100
AcDbLine
 10
118.249478
 20
3.242859000000001
 30
0.0
 11
116.59752
 21
3.783133000000001
 31
0.0
  0
LINE
  5
2DE3
330
BF7
100
AcDbEntity
  8
1
100
AcDbLine
 10
119.896204
 20
2.542616999999999
 30
0.0
 11
118.249478
 21
3.242859000000001
 31
0.0
  0
LINE
  5
2DE4
330
BF7
100
AcDbEntity
  8
1
100
AcDbLine
 10
121.542664
 20
1.71133
 30
0.0
 11
119.896204
 21
2.542616999999999
 31
0.0
  0
LINE
  5
2DE5
330
BF7
100
AcDbEntity
  8
1
100
AcDbLine
 10
123.19438
 20
0.7918669999999999
 30
0.0
 11
121.542664
 21
1.71133
 31
0.0
  0
LINE
  5
2DE6
330
BF7
100
AcDbEntity
  8
1
100
AcDbLine
 10
124.8408149999999
 20
-0.1641859999999973
 30
0.0
 11
123.19438
 21
0.7918669999999999
 31
0.0
  0
LINE
  5
2DE7
330
BF7
100
AcDbEntity
  8
1
100
AcDbLine
 10
126.487348
 20
-1.111804999999995
 30
0.0
 11
124.8408149999999
 21
-0.1641859999999973
 31
0.0
  0
LINE
  5
2DE8
330
BF7
100
AcDbEntity
  8
1
100
AcDbLine
 10
128.139136
 20
-2.006808999999995
 30
0.0
 11
126.487348
 21
-1.111804999999995
 31
0.0
  0
LINE
  5
2DE9
330
BF7
100
AcDbEntity
  8
1
100
AcDbLine
 10
129.785668
 20
-2.799004
 30
0.0
 11
128.139136
 21
-2.006808999999995
 31
0.0
  0
LINE
  5
2DEA
330
BF7
100
AcDbEntity
  8
1
100
AcDbLine
 10
131.432104
 20
-3.446795999999998
 30
0.0
 11
129.785668
 21
-2.799004
 31
0.0
  0
LINE
  5
2DEB
330
BF7
100
AcDbEntity
  8
1
100
AcDbLine
 10
133.08382
 20
-3.924285999999998
 30
0.0
 11
131.432104
 21
-3.446795999999998
 31
0.0
  0
LINE
  5
2DEC
330
BF7
100
AcDbEntity
  8
1
100
AcDbLine
 10
134.730279
 20
-4.204717999999996
 30
0.0
 11
133.08382
 21
-3.924285999999998
 31
0.0
  0
LINE
  5
2DED
330
BF7
100
AcDbEntity
  8
1
100
AcDbLine
 10
136.376957
 20
-4.268293999999997
 30
0.0
 11
134.730279
 21
-4.204717999999996
 31
0.0
  0
LINE
  5
2DEE
330
BF7
100
AcDbEntity
  8
1
100
AcDbLine
 10
138.028867
 20
-4.118603999999995
 30
0.0
 11
136.376957
 21
-4.268293999999997
 31
0.0
  0
LINE
  5
2DEF
330
BF7
100
AcDbEntity
  8
1
100
AcDbLine
 10
139.675569
 20
-3.764060999999998
 30
0.0
 11
138.028867
 21
-4.118603999999995
 31
0.0
  0
LINE
  5
2DF0
330
BF7
100
AcDbEntity
  8
1
100
AcDbLine
 10
141.314059
 20
-3.218510999999995
 30
0.0
 11
139.675569
 21
-3.764060999999998
 31
0.0
  0
LINE
  5
2DF1
330
BF7
100
AcDbEntity
  8
1
100
AcDbLine
 10
142.669814
 20
-2.635676999999997
 30
0.0
 11
141.314059
 21
-3.218510999999995
 31
0.0
  0
LINE
  5
2DF2
330
BF7
100
AcDbEntity
  8
1
100
AcDbLine
 10
127.5878859999999
 20
-4.499730999999997
 30
0.0
 11
129.947941
 21
-4.256925999999999
 31
0.0
  0
LINE
  5
2DF3
330
BF7
100
AcDbEntity
  8
1
100
AcDbLine
 10
126.423228
 20
-4.438742999999996
 30
0.0
 11
127.5878859999999
 21
-4.499730999999997
 31
0.0
  0
LINE
  5
2DF4
330
BF7
100
AcDbEntity
  8
1
100
AcDbLine
 10
125.258571
 20
-4.265295999999998
 30
0.0
 11
126.423228
 21
-4.438742999999996
 31
0.0
  0
LINE
  5
2DF5
330
BF7
100
AcDbEntity
  8
1
100
AcDbLine
 10
124.093889
 20
-3.984480999999998
 30
0.0
 11
125.258571
 21
-4.265295999999998
 31
0.0
  0
LINE
  5
2DF6
330
BF7
100
AcDbEntity
  8
1
100
AcDbLine
 10
122.9292069999999
 20
-3.602710999999995
 30
0.0
 11
124.093889
 21
-3.984480999999998
 31
0.0
  0
LINE
  5
2DF7
330
BF7
100
AcDbEntity
  8
1
100
AcDbLine
 10
121.764525
 20
-3.130251999999998
 30
0.0
 11
122.9292069999999
 21
-3.602710999999995
 31
0.0
  0
LINE
  5
2DF8
330
BF7
100
AcDbEntity
  8
1
100
AcDbLine
 10
120.5998189999999
 20
-2.578466999999996
 30
0.0
 11
121.764525
 21
-3.130251999999998
 31
0.0
  0
LINE
  5
2DF9
330
BF7
100
AcDbEntity
  8
1
100
AcDbLine
 10
119.435113
 20
-1.961771999999999
 30
0.0
 11
120.5998189999999
 21
-2.578466999999996
 31
0.0
  0
LINE
  5
2DFA
330
BF7
100
AcDbEntity
  8
1
100
AcDbLine
 10
118.267016
 20
-1.293440999999994
 30
0.0
 11
119.435113
 21
-1.961771999999999
 31
0.0
  0
LINE
  5
2DFB
330
BF7
100
AcDbEntity
  8
1
100
AcDbLine
 10
116.693566
 20
-0.3444559999999974
 30
0.0
 11
118.267016
 21
-1.293440999999994
 31
0.0
  0
LINE
  5
2DFC
330
BF7
100
AcDbEntity
  8
1
100
AcDbLine
 10
115.115149
 20
0.6232120000000024
 30
0.0
 11
116.693566
 21
-0.3444559999999974
 31
0.0
  0
LINE
  5
2DFD
330
BF7
100
AcDbEntity
  8
1
100
AcDbLine
 10
113.541699
 20
1.559485999999996
 30
0.0
 11
115.115149
 21
0.6232120000000024
 31
0.0
  0
LINE
  5
2DFE
330
BF7
100
AcDbEntity
  8
1
100
AcDbLine
 10
112.377017
 20
2.208385999999999
 30
0.0
 11
113.541699
 21
1.559485999999996
 31
0.0
  0
LINE
  5
2DFF
330
BF7
100
AcDbEntity
  8
1
100
AcDbLine
 10
111.21236
 20
2.801697000000004
 30
0.0
 11
112.377017
 21
2.208385999999999
 31
0.0
  0
LINE
  5
2E00
330
BF7
100
AcDbEntity
  8
1
100
AcDbLine
 10
110.047702
 20
3.324025000000002
 30
0.0
 11
111.21236
 21
2.801697000000004
 31
0.0
  0
LINE
  5
2E01
330
BF7
100
AcDbEntity
  8
1
100
AcDbLine
 10
108.88302
 20
3.762676000000001
 30
0.0
 11
110.047702
 21
3.324025000000002
 31
0.0
  0
LINE
  5
2E02
330
BF7
100
AcDbEntity
  8
1
100
AcDbLine
 10
107.718363
 20
4.105998999999997
 30
0.0
 11
108.88302
 21
3.762676000000001
 31
0.0
  0
LINE
  5
2E03
330
BF7
100
AcDbEntity
  8
1
100
AcDbLine
 10
106.553705
 20
4.345962
 30
0.0
 11
107.718363
 21
4.105998999999997
 31
0.0
  0
LINE
  5
2E04
330
BF7
100
AcDbEntity
  8
1
100
AcDbLine
 10
105.389023
 20
4.475820000000005
 30
0.0
 11
106.553705
 21
4.345962
 31
0.0
  0
LINE
  5
2E05
330
BF7
100
AcDbEntity
  8
1
100
AcDbLine
 10
104.632408
 20
4.486984000000004
 30
0.0
 11
105.389023
 21
4.475820000000005
 31
0.0
  0
LINE
  5
2E06
330
BF7
100
AcDbEntity
  8
1
100
AcDbLine
 10
82.01392400000003
 20
-4.493712999999996
 30
0.0
 11
83.89074799999997
 21
-4.274596999999999
 31
0.0
  0
LINE
  5
2E07
330
BF7
100
AcDbEntity
  8
1
100
AcDbLine
 10
80.84924200000001
 20
-4.474262999999997
 30
0.0
 11
82.01392400000003
 21
-4.493712999999996
 31
0.0
  0
LINE
  5
2E08
330
BF7
100
AcDbEntity
  8
1
100
AcDbLine
 10
79.677051
 20
-4.340232999999996
 30
0.0
 11
80.84924200000001
 21
-4.474262999999997
 31
0.0
  0
LINE
  5
2E09
330
BF7
100
AcDbEntity
  8
1
100
AcDbLine
 10
78.50486
 20
-4.095540999999997
 30
0.0
 11
79.677051
 21
-4.340232999999996
 31
0.0
  0
LINE
  5
2E0A
330
BF7
100
AcDbEntity
  8
1
100
AcDbLine
 10
76.93138599999997
 20
-3.601823999999997
 30
0.0
 11
78.50486
 21
-4.095540999999997
 31
0.0
  0
LINE
  5
2E0B
330
BF7
100
AcDbEntity
  8
1
100
AcDbLine
 10
75.35299399999998
 20
-2.941951999999997
 30
0.0
 11
76.93138599999997
 21
-3.601823999999997
 31
0.0
  0
LINE
  5
2E0C
330
BF7
100
AcDbEntity
  8
1
100
AcDbLine
 10
73.77954300000002
 20
-2.150071999999995
 30
0.0
 11
75.35299399999998
 21
-2.941951999999997
 31
0.0
  0
LINE
  5
2E0D
330
BF7
100
AcDbEntity
  8
1
100
AcDbLine
 10
72.61491000000003
 20
-1.496634999999995
 30
0.0
 11
73.77954300000002
 21
-2.150071999999995
 31
0.0
  0
LINE
  5
2E0E
330
BF7
100
AcDbEntity
  8
1
100
AcDbLine
 10
71.45022800000005
 20
-0.8055349999999954
 30
0.0
 11
72.61491000000003
 21
-1.496634999999995
 31
0.0
  0
LINE
  5
2E0F
330
BF7
100
AcDbEntity
  8
1
100
AcDbLine
 10
70.28557099999999
 20
-0.0940229999999964
 30
0.0
 11
71.45022800000005
 21
-0.8055349999999954
 31
0.0
  0
LINE
  5
2E10
330
BF7
100
AcDbEntity
  8
1
100
AcDbLine
 10
69.120913
 20
0.6198570000000032
 30
0.0
 11
70.28557099999999
 21
-0.0940229999999964
 31
0.0
  0
LINE
  5
2E11
330
BF7
100
AcDbEntity
  8
1
100
AcDbLine
 10
67.95625500000003
 20
1.318034000000004
 30
0.0
 11
69.120913
 21
0.6198570000000032
 31
0.0
  0
LINE
  5
2E12
330
BF7
100
AcDbEntity
  8
1
100
AcDbLine
 10
66.79159799999999
 20
1.983031
 30
0.0
 11
67.95625500000003
 21
1.318034000000004
 31
0.0
  0
LINE
  5
2E13
330
BF7
100
AcDbEntity
  8
1
100
AcDbLine
 10
65.62693999999999
 20
2.597790999999995
 30
0.0
 11
66.79159799999999
 21
1.983031
 31
0.0
  0
LINE
  5
2E14
330
BF7
100
AcDbEntity
  8
1
100
AcDbLine
 10
64.46230699999998
 20
3.147158000000004
 30
0.0
 11
65.62693999999999
 21
2.597790999999995
 31
0.0
  0
LINE
  5
2E15
330
BF7
100
AcDbEntity
  8
1
100
AcDbLine
 10
63.29762500000001
 20
3.616794000000001
 30
0.0
 11
64.46230699999998
 21
3.147158000000004
 31
0.0
  0
LINE
  5
2E16
330
BF7
100
AcDbEntity
  8
1
100
AcDbLine
 10
62.13296800000001
 20
3.995381000000001
 30
0.0
 11
63.29762500000001
 21
3.616794000000001
 31
0.0
  0
LINE
  5
2E17
330
BF7
100
AcDbEntity
  8
1
100
AcDbLine
 10
60.96830999999999
 20
4.272747000000001
 30
0.0
 11
62.13296800000001
 21
3.995381000000001
 31
0.0
  0
LINE
  5
2E18
330
BF7
100
AcDbEntity
  8
1
100
AcDbLine
 10
59.80362800000003
 20
4.442554999999996
 30
0.0
 11
60.96830999999999
 21
4.272747000000001
 31
0.0
  0
LINE
  5
2E19
330
BF7
100
AcDbEntity
  8
1
100
AcDbLine
 10
58.63897099999999
 20
4.499813000000003
 30
0.0
 11
59.80362800000003
 21
4.442554999999996
 31
0.0
  0
LINE
  5
2E1A
330
BF7
100
AcDbEntity
  8
1
100
AcDbLine
 10
58.63538599999998
 20
4.499640999999996
 30
0.0
 11
58.63897099999999
 21
4.499813000000003
 31
0.0
  0
LINE
  5
2E1B
330
BF7
100
AcDbEntity
  8
1
100
AcDbLine
 10
36.43252600000002
 20
-4.472982999999993
 30
0.0
 11
37.90702400000004
 21
-4.274049999999999
 31
0.0
  0
LINE
  5
2E1C
330
BF7
100
AcDbEntity
  8
1
100
AcDbLine
 10
35.267844
 20
-4.494415999999994
 30
0.0
 11
36.43252600000002
 21
-4.472982999999993
 31
0.0
  0
LINE
  5
2E1D
330
BF7
100
AcDbEntity
  8
1
100
AcDbLine
 10
34.10318700000002
 20
-4.401980999999998
 30
0.0
 11
35.267844
 21
-4.494415999999994
 31
0.0
  0
LINE
  5
2E1E
330
BF7
100
AcDbEntity
  8
1
100
AcDbLine
 10
32.93850500000002
 20
-4.198736999999995
 30
0.0
 11
34.10318700000002
 21
-4.401980999999998
 31
0.0
  0
LINE
  5
2E1F
330
BF7
100
AcDbEntity
  8
1
100
AcDbLine
 10
31.773823
 20
-3.889112999999998
 30
0.0
 11
32.93850500000002
 21
-4.198736999999995
 31
0.0
  0
LINE
  5
2E20
330
BF7
100
AcDbEntity
  8
1
100
AcDbLine
 10
30.60914100000002
 20
-3.481589999999997
 30
0.0
 11
31.773823
 21
-3.889112999999998
 31
0.0
  0
LINE
  5
2E21
330
BF7
100
AcDbEntity
  8
1
100
AcDbLine
 10
29.44448400000002
 20
-2.985854999999995
 30
0.0
 11
30.60914100000002
 21
-3.481589999999997
 31
0.0
  0
LINE
  5
2E22
330
BF7
100
AcDbEntity
  8
1
100
AcDbLine
 10
28.27980199999999
 20
-2.414956999999997
 30
0.0
 11
29.44448400000002
 21
-2.985854999999995
 31
0.0
  0
LINE
  5
2E23
330
BF7
100
AcDbEntity
  8
1
100
AcDbLine
 10
27.11514399999999
 20
-1.782869999999999
 30
0.0
 11
28.27980199999999
 21
-2.414956999999997
 31
0.0
  0
LINE
  5
2E24
330
BF7
100
AcDbEntity
  8
1
100
AcDbLine
 10
25.95046200000002
 20
-1.105906999999997
 30
0.0
 11
27.11514399999999
 21
-1.782869999999999
 31
0.0
  0
LINE
  5
2E25
330
BF7
100
AcDbEntity
  8
1
100
AcDbLine
 10
24.78578100000002
 20
-0.4009199999999993
 30
0.0
 11
25.95046200000002
 21
-1.105906999999997
 31
0.0
  0
LINE
  5
2E26
330
BF7
100
AcDbEntity
  8
1
100
AcDbLine
 10
23.62107499999999
 20
0.3141580000000026
 30
0.0
 11
24.78578100000002
 21
-0.4009199999999993
 31
0.0
  0
LINE
  5
2E27
330
BF7
100
AcDbEntity
  8
1
100
AcDbLine
 10
22.456369
 20
1.021291999999995
 30
0.0
 11
23.62107499999999
 21
0.3141580000000026
 31
0.0
  0
LINE
  5
2E28
330
BF7
100
AcDbEntity
  8
1
100
AcDbLine
 10
21.29165
 20
1.702715000000004
 30
0.0
 11
22.456369
 21
1.021291999999995
 31
0.0
  0
LINE
  5
2E29
330
BF7
100
AcDbEntity
  8
1
100
AcDbLine
 10
20.12065900000002
 20
2.344297000000004
 30
0.0
 11
21.29165
 21
1.702715000000004
 31
0.0
  0
LINE
  5
2E2A
330
BF7
100
AcDbEntity
  8
1
100
AcDbLine
 10
18.94965400000001
 20
2.926222999999998
 30
0.0
 11
20.12065900000002
 21
2.344297000000004
 31
0.0
  0
LINE
  5
2E2B
330
BF7
100
AcDbEntity
  8
1
100
AcDbLine
 10
17.47334000000001
 20
3.550059000000004
 30
0.0
 11
18.94965400000001
 21
2.926222999999998
 31
0.0
  0
LINE
  5
2E2C
330
BF7
100
AcDbEntity
  8
1
100
AcDbLine
 10
15.99295499999999
 20
4.032596999999999
 30
0.0
 11
17.47334000000001
 21
3.550059000000004
 31
0.0
  0
LINE
  5
2E2D
330
BF7
100
AcDbEntity
  8
1
100
AcDbLine
 10
14.51665199999999
 20
4.351812000000001
 30
0.0
 11
15.99295499999999
 21
4.032596999999999
 31
0.0
  0
LINE
  5
2E2E
330
BF7
100
AcDbEntity
  8
1
100
AcDbLine
 10
12.63526300000001
 20
4.475826000000004
 30
0.0
 11
14.51665199999999
 21
4.351812000000001
 31
0.0
  0
LINE
  5
2E2F
330
BF7
100
AcDbEntity
  8
1
100
AcDbLine
 10
148.8748129999999
 20
4.478929999999998
 30
0.0
 11
150.633742
 21
4.452325999999998
 31
0.0
  0
LINE
  5
2E30
330
BF7
100
AcDbEntity
  8
1
100
AcDbLine
 10
147.115885
 20
4.250092000000002
 30
0.0
 11
148.8748129999999
 21
4.478929999999998
 31
0.0
  0
LINE
  5
2E31
330
BF7
100
AcDbEntity
  8
1
100
AcDbLine
 10
145.53197
 20
3.831503999999998
 30
0.0
 11
147.115885
 21
4.250092000000002
 31
0.0
  0
LINE
  5
2E32
330
BF7
100
AcDbEntity
  8
1
100
AcDbLine
 10
143.943016
 20
3.234156000000001
 30
0.0
 11
145.53197
 21
3.831503999999998
 31
0.0
  0
LINE
  5
2E33
330
BF7
100
AcDbEntity
  8
1
100
AcDbLine
 10
142.67008
 20
2.635713000000002
 30
0.0
 11
143.943016
 21
3.234156000000001
 31
0.0
  0
LINE
  5
2E34
330
BF7
100
AcDbEntity
  8
1
100
AcDbLine
 10
124.91443
 20
-4.383301999999996
 30
0.0
 11
126.567866
 21
-4.493485999999997
 31
0.0
  0
LINE
  5
2E35
330
BF7
100
AcDbEntity
  8
1
100
AcDbLine
 10
123.330249
 20
-4.067261999999998
 30
0.0
 11
124.91443
 21
-4.383301999999996
 31
0.0
  0
LINE
  5
2E36
330
BF7
100
AcDbEntity
  8
1
100
AcDbLine
 10
121.746091
 20
-3.557192999999998
 30
0.0
 11
123.330249
 21
-4.067261999999998
 31
0.0
  0
LINE
  5
2E37
330
BF7
100
AcDbEntity
  8
1
100
AcDbLine
 10
120.156944
 20
-2.880731999999998
 30
0.0
 11
121.746091
 21
-3.557192999999998
 31
0.0
  0
LINE
  5
2E38
330
BF7
100
AcDbEntity
  8
1
100
AcDbLine
 10
118.572836
 20
-2.073386999999995
 30
0.0
 11
120.156944
 21
-2.880731999999998
 31
0.0
  0
LINE
  5
2E39
330
BF7
100
AcDbEntity
  8
1
100
AcDbLine
 10
116.988703
 20
-1.167091999999995
 30
0.0
 11
118.572836
 21
-2.073386999999995
 31
0.0
  0
LINE
  5
2E3A
330
BF7
100
AcDbEntity
  8
1
100
AcDbLine
 10
115.399531
 20
-0.2038629999999983
 30
0.0
 11
116.988703
 21
-1.167091999999995
 31
0.0
  0
LINE
  5
2E3B
330
BF7
100
AcDbEntity
  8
1
100
AcDbLine
 10
113.815374
 20
0.7657210000000028
 30
0.0
 11
115.399531
 21
-0.2038629999999983
 31
0.0
  0
LINE
  5
2E3C
330
BF7
100
AcDbEntity
  8
1
100
AcDbLine
 10
112.231241
 20
1.698743
 30
0.0
 11
113.815374
 21
0.7657210000000028
 31
0.0
  0
LINE
  5
2E3D
330
BF7
100
AcDbEntity
  8
1
100
AcDbLine
 10
110.642094
 20
2.556040000000002
 30
0.0
 11
112.231241
 21
1.698743
 31
0.0
  0
LINE
  5
2E3E
330
BF7
100
AcDbEntity
  8
1
100
AcDbLine
 10
109.057985
 20
3.292619000000001
 30
0.0
 11
110.642094
 21
2.556040000000002
 31
0.0
  0
LINE
  5
2E3F
330
BF7
100
AcDbEntity
  8
1
100
AcDbLine
 10
107.473877
 20
3.872116999999999
 30
0.0
 11
109.057985
 21
3.292619000000001
 31
0.0
  0
LINE
  5
2E40
330
BF7
100
AcDbEntity
  8
1
100
AcDbLine
 10
105.884729
 20
4.274087999999998
 30
0.0
 11
107.473877
 21
3.872116999999999
 31
0.0
  0
LINE
  5
2E41
330
BF7
100
AcDbEntity
  8
1
100
AcDbLine
 10
104.300597
 20
4.477440000000001
 30
0.0
 11
105.884729
 21
4.274087999999998
 31
0.0
  0
LINE
  5
2E42
330
BF7
100
AcDbEntity
  8
1
100
AcDbLine
 10
102.716464
 20
4.467178000000004
 30
0.0
 11
104.300597
 21
4.477440000000001
 31
0.0
  0
LINE
  5
2E43
330
BF7
100
AcDbEntity
  8
1
100
AcDbLine
 10
101.127316
 20
4.249962
 30
0.0
 11
102.716464
 21
4.467178000000004
 31
0.0
  0
LINE
  5
2E44
330
BF7
100
AcDbEntity
  8
1
100
AcDbLine
 10
99.543183
 20
3.837184000000004
 30
0.0
 11
101.127316
 21
4.249962
 31
0.0
  0
LINE
  5
2E45
330
BF7
100
AcDbEntity
  8
1
100
AcDbLine
 10
97.95907499999998
 20
3.241327000000001
 30
0.0
 11
99.543183
 21
3.837184000000004
 31
0.0
  0
LINE
  5
2E46
330
BF7
100
AcDbEntity
  8
1
100
AcDbLine
 10
96.67301000000003
 20
2.636091999999999
 30
0.0
 11
97.95907499999998
 21
3.241327000000001
 31
0.0
  0
LINE
  5
2E47
330
BF7
100
AcDbEntity
  8
1
100
AcDbLine
 10
78.93075500000003
 20
-4.385713999999995
 30
0.0
 11
80.56888199999997
 21
-4.496453999999999
 31
0.0
  0
LINE
  5
2E48
330
BF7
100
AcDbEntity
  8
1
100
AcDbLine
 10
77.34153500000002
 20
-4.068155999999998
 30
0.0
 11
78.93075500000003
 21
-4.385713999999995
 31
0.0
  0
LINE
  5
2E49
330
BF7
100
AcDbEntity
  8
1
100
AcDbLine
 10
75.75759600000002
 20
-3.563606999999997
 30
0.0
 11
77.34153500000002
 21
-4.068155999999998
 31
0.0
  0
LINE
  5
2E4A
330
BF7
100
AcDbEntity
  8
1
100
AcDbLine
 10
74.17363299999998
 20
-2.888887999999997
 30
0.0
 11
75.75759600000002
 21
-3.563606999999997
 31
0.0
  0
LINE
  5
2E4B
330
BF7
100
AcDbEntity
  8
1
100
AcDbLine
 10
72.58446099999997
 20
-2.078388999999996
 30
0.0
 11
74.17363299999998
 21
-2.888887999999997
 31
0.0
  0
LINE
  5
2E4C
330
BF7
100
AcDbEntity
  8
1
100
AcDbLine
 10
71.00020699999998
 20
-1.174652999999995
 30
0.0
 11
72.58446099999997
 21
-2.078388999999996
 31
0.0
  0
LINE
  5
2E4D
330
BF7
100
AcDbEntity
  8
1
100
AcDbLine
 10
69.41588000000002
 20
-0.2146029999999968
 30
0.0
 11
71.00020699999998
 21
-1.174652999999995
 31
0.0
  0
LINE
  5
2E4E
330
BF7
100
AcDbEntity
  8
1
100
AcDbLine
 10
67.82663599999998
 20
0.7586570000000032
 30
0.0
 11
69.41588000000002
 21
-0.2146029999999968
 31
0.0
  0
LINE
  5
2E4F
330
BF7
100
AcDbEntity
  8
1
100
AcDbLine
 10
66.242358
 20
1.693665000000002
 30
0.0
 11
67.82663599999998
 21
0.7586570000000032
 31
0.0
  0
LINE
  5
2E50
330
BF7
100
AcDbEntity
  8
1
100
AcDbLine
 10
64.65820100000001
 20
2.547591999999998
 30
0.0
 11
66.242358
 21
1.693665000000002
 31
0.0
  0
LINE
  5
2E51
330
BF7
100
AcDbEntity
  8
1
100
AcDbLine
 10
63.06905399999997
 20
3.286278999999998
 30
0.0
 11
64.65820100000001
 21
2.547591999999998
 31
0.0
  0
LINE
  5
2E52
330
BF7
100
AcDbEntity
  8
1
100
AcDbLine
 10
61.48492099999998
 20
3.870897000000001
 30
0.0
 11
63.06905399999997
 21
3.286278999999998
 31
0.0
  0
LINE
  5
2E53
330
BF7
100
AcDbEntity
  8
1
100
AcDbLine
 10
59.900812
 20
4.270845000000001
 30
0.0
 11
61.48492099999998
 21
3.870897000000001
 31
0.0
  0
LINE
  5
2E54
330
BF7
100
AcDbEntity
  8
1
100
AcDbLine
 10
58.31173799999999
 20
4.474258000000006
 30
0.0
 11
59.900812
 21
4.270845000000001
 31
0.0
  0
LINE
  5
2E55
330
BF7
100
AcDbEntity
  8
1
100
AcDbLine
 10
56.72760500000004
 20
4.470424000000001
 30
0.0
 11
58.31173799999999
 21
4.474258000000006
 31
0.0
  0
LINE
  5
2E56
330
BF7
100
AcDbEntity
  8
1
100
AcDbLine
 10
55.143496
 20
4.253328999999999
 30
0.0
 11
56.72760500000004
 21
4.470424000000001
 31
0.0
  0
LINE
  5
2E57
330
BF7
100
AcDbEntity
  8
1
100
AcDbLine
 10
53.55434900000003
 20
3.838547000000004
 30
0.0
 11
55.143496
 21
4.253328999999999
 31
0.0
  0
LINE
  5
2E58
330
BF7
100
AcDbEntity
  8
1
100
AcDbLine
 10
51.970337
 20
3.247770000000001
 30
0.0
 11
53.55434900000003
 21
3.838547000000004
 31
0.0
  0
LINE
  5
2E59
330
BF7
100
AcDbEntity
  8
1
100
AcDbLine
 10
50.67378300000001
 20
2.637436000000001
 30
0.0
 11
51.970337
 21
3.247770000000001
 31
0.0
  0
LINE
  5
2E5A
330
BF7
100
AcDbEntity
  8
1
100
AcDbLine
 10
32.94172700000002
 20
-4.389548000000001
 30
0.0
 11
34.56754799999999
 21
-4.494763999999995
 31
0.0
  0
LINE
  5
2E5B
330
BF7
100
AcDbEntity
  8
1
100
AcDbLine
 10
31.36859100000001
 20
-4.075163999999997
 30
0.0
 11
32.94172700000002
 21
-4.389548000000001
 31
0.0
  0
LINE
  5
2E5C
330
BF7
100
AcDbEntity
  8
1
100
AcDbLine
 10
29.79058700000002
 20
-3.573571999999998
 30
0.0
 11
31.36859100000001
 21
-4.075163999999997
 31
0.0
  0
LINE
  5
2E5D
330
BF7
100
AcDbEntity
  8
1
100
AcDbLine
 10
28.217499
 20
-2.910800999999998
 30
0.0
 11
29.79058700000002
 21
-3.573571999999998
 31
0.0
  0
LINE
  5
2E5E
330
BF7
100
AcDbEntity
  8
1
100
AcDbLine
 10
27.045163
 20
-2.326410999999996
 30
0.0
 11
28.217499
 21
-2.910800999999998
 31
0.0
  0
LINE
  5
2E5F
330
BF7
100
AcDbEntity
  8
1
100
AcDbLine
 10
25.87277800000001
 20
-1.682754999999995
 30
0.0
 11
27.045163
 21
-2.326410999999996
 31
0.0
  0
LINE
  5
2E60
330
BF7
100
AcDbEntity
  8
1
100
AcDbLine
 10
24.29397399999999
 20
-0.7503659999999961
 30
0.0
 11
25.87277800000001
 21
-1.682754999999995
 31
0.0
  0
LINE
  5
2E61
330
BF7
100
AcDbEntity
  8
1
100
AcDbLine
 10
22.71025299999999
 20
0.2196390000000044
 30
0.0
 11
24.29397399999999
 21
-0.7503659999999961
 31
0.0
  0
LINE
  5
2E62
330
BF7
100
AcDbEntity
  8
1
100
AcDbLine
 10
21.13138900000001
 20
1.176294000000001
 30
0.0
 11
22.71025299999999
 21
0.2196390000000044
 31
0.0
  0
LINE
  5
2E63
330
BF7
100
AcDbEntity
  8
1
100
AcDbLine
 10
19.189514
 20
2.272409000000001
 30
0.0
 11
21.13138900000001
 21
1.176294000000001
 31
0.0
  0
LINE
  5
2E64
330
BF7
100
AcDbEntity
  8
1
100
AcDbLine
 10
17.24829300000002
 20
3.211809999999998
 30
0.0
 11
19.189514
 21
2.272409000000001
 31
0.0
  0
LINE
  5
2E65
330
BF7
100
AcDbEntity
  8
1
100
AcDbLine
 10
15.800779
 20
3.746797999999998
 30
0.0
 11
17.24843800000002
 21
3.211750000000001
 31
0.0
  0
LINE
  5
2E66
330
BF7
100
AcDbEntity
  8
1
100
AcDbLine
 10
14.31774200000001
 20
4.106756000000004
 30
0.0
 11
15.800779
 21
3.746797999999998
 31
0.0
  0
LINE
  5
2E67
330
BF7
100
AcDbEntity
  8
1
100
AcDbLine
 10
12.40820500000001
 20
4.350351999999999
 30
0.0
 11
14.31774200000001
 21
4.106756000000004
 31
0.0
  0
LINE
  5
2E68
330
BF7
100
AcDbEntity
  8
1
100
AcDbLine
 10
10.457222
 20
4.444708000000002
 30
0.0
 11
12.40820500000001
 21
4.350351999999999
 31
0.0
  0
LINE
  5
2E69
330
BF7
100
AcDbEntity
  8
1
100
AcDbLine
 10
8.704228999999997
 20
4.466585000000002
 30
0.0
 11
10.457222
 21
4.444708000000002
 31
0.0
  0
LINE
  5
2E6A
330
BF7
100
AcDbEntity
  8
1
100
AcDbLine
 10
6.982421999999985
 20
4.454999999999998
 30
0.0
 11
8.704228999999997
 21
4.466585000000002
 31
0.0
  0
LINE
  5
2E6B
330
BF7
100
AcDbEntity
  8
1
100
AcDbLine
 10
6.611103000000013
 20
4.370878000000002
 30
0.0
 11
6.982421999999985
 21
4.454999999999998
 31
0.0
  0
LINE
  5
2E6C
330
BF7
100
AcDbEntity
  8
1
100
AcDbLine
 10
6.301310999999997
 20
4.229575000000004
 30
0.0
 11
6.611103000000013
 21
4.370878000000002
 31
0.0
  0
LINE
  5
2E6D
330
BF7
100
AcDbEntity
  8
1
100
AcDbLine
 10
6.044421999999997
 20
3.956920000000001
 30
0.0
 11
6.301310999999997
 21
4.229575000000004
 31
0.0
  0
LINE
  5
2E6E
330
BF7
100
AcDbEntity
  8
1
100
AcDbLine
 10
5.982907000000011
 20
3.544512
 30
0.0
 11
6.044421999999997
 21
3.956920000000001
 31
0.0
  0
LINE
  5
2E6F
330
BF7
100
AcDbEntity
  8
1
100
AcDbLine
 10
6.150884000000019
 20
3.047343000000001
 30
0.0
 11
5.982907000000011
 21
3.544512
 31
0.0
  0
LINE
  5
2E70
330
BF7
100
AcDbEntity
  8
1
100
AcDbLine
 10
6.430918000000017
 20
2.604062000000002
 30
0.0
 11
6.150884000000019
 21
3.047343000000001
 31
0.0
  0
LINE
  5
2E71
330
BF7
100
AcDbEntity
  8
1
100
AcDbLine
 10
6.796144999999995
 20
2.161384000000003
 30
0.0
 11
6.430918000000017
 21
2.604062000000002
 31
0.0
  0
LINE
  5
2E72
330
BF7
100
AcDbEntity
  8
1
100
AcDbLine
 10
7.663667000000002
 20
1.325728000000004
 30
0.0
 11
6.796144999999995
 21
2.161384000000003
 31
0.0
  0
LINE
  5
2E73
330
BF7
100
AcDbEntity
  8
1
100
AcDbLine
 10
8.818793000000027
 20
0.4205620000000005
 30
0.0
 11
7.663667000000002
 21
1.325728000000004
 31
0.0
  0
LINE
  5
2E74
330
BF7
100
AcDbEntity
  8
1
100
AcDbLine
 10
10.052245
 20
-0.401155999999997
 30
0.0
 11
8.818793000000027
 21
0.4205620000000005
 31
0.0
  0
LINE
  5
2E75
330
BF7
100
AcDbEntity
  8
1
100
AcDbLine
 10
10.38434599999999
 20
-0.6040270000000021
 30
0.0
 11
10.052245
 21
-0.401155999999997
 31
0.0
  0
LINE
  5
2E76
330
BF7
100
AcDbEntity
  8
1
100
AcDbLine
 10
12.23936899999998
 20
-1.702321999999995
 30
0.0
 11
10.38497599999999
 21
-0.6044139999999985
 31
0.0
  0
LINE
  5
2E77
330
BF7
100
AcDbEntity
  8
1
100
AcDbLine
 10
14.06195600000001
 20
-2.676410999999998
 30
0.0
 11
12.23936899999998
 21
-1.702321999999995
 31
0.0
  0
LINE
  5
2E78
330
BF7
100
AcDbEntity
  8
1
100
AcDbLine
 10
14.71619200000001
 20
-2.988585999999997
 30
0.0
 11
14.06195600000001
 21
-2.676410999999998
 31
0.0
  0
LINE
  5
2E79
330
BF7
100
AcDbEntity
  8
1
100
AcDbLine
 10
14.71619200000001
 20
-2.988585999999997
 30
0.0
 11
9.192703999999991
 21
-2.988585999999997
 31
0.0
  0
LINE
  5
2E7A
330
BF7
100
AcDbEntity
  8
1
100
AcDbLine
 10
8.782858000000002
 20
-3.718743999999995
 30
0.0
 11
8.775118000000018
 21
-3.889667999999995
 31
0.0
  0
LINE
  5
2E7B
330
BF7
100
AcDbEntity
  8
1
100
AcDbLine
 10
8.895351000000005
 20
-3.246144999999998
 30
0.0
 11
8.782858000000002
 21
-3.718743999999995
 31
0.0
  0
LINE
  5
2E7C
330
BF7
100
AcDbEntity
  8
1
100
AcDbLine
 10
8.995575000000002
 20
-3.088861999999997
 30
0.0
 11
8.895351000000005
 21
-3.246144999999998
 31
0.0
  0
LINE
  5
2E7D
330
BF7
100
AcDbEntity
  8
1
100
AcDbLine
 10
9.072519999999997
 20
-3.024092999999997
 30
0.0
 11
8.995575000000002
 21
-3.088861999999997
 31
0.0
  0
LINE
  5
2E7E
330
BF7
100
AcDbEntity
  8
1
100
AcDbLine
 10
9.134446999999994
 20
-2.996762999999995
 30
0.0
 11
9.072519999999997
 21
-3.024092999999997
 31
0.0
  0
LINE
  5
2E7F
330
BF7
100
AcDbEntity
  8
1
100
AcDbLine
 10
9.192703999999991
 20
-2.988585999999997
 30
0.0
 11
9.134446999999994
 21
-2.996762999999995
 31
0.0
  0
LINE
  5
2E80
330
BF7
100
AcDbEntity
  8
1
100
AcDbLine
 10
148.966498
 20
-4.383479999999996
 30
0.0
 11
150.463984
 21
-4.498805999999998
 31
0.0
  0
LINE
  5
2E81
330
BF7
100
AcDbEntity
  8
1
100
AcDbLine
 10
147.469012
 20
-4.086365999999998
 30
0.0
 11
148.966498
 21
-4.383479999999996
 31
0.0
  0
LINE
  5
2E82
330
BF7
100
AcDbEntity
  8
1
100
AcDbLine
 10
146.304355
 20
-3.736070999999998
 30
0.0
 11
147.469012
 21
-4.086365999999998
 31
0.0
  0
LINE
  5
2E83
330
BF7
100
AcDbEntity
  8
1
100
AcDbLine
 10
145.139673
 20
-3.291729
 30
0.0
 11
146.304355
 21
-3.736070999999998
 31
0.0
  0
LINE
  5
2E84
330
BF7
100
AcDbEntity
  8
1
100
AcDbLine
 10
143.975015
 20
-2.763991999999998
 30
0.0
 11
145.139673
 21
-3.291729
 31
0.0
  0
LINE
  5
2E85
330
BF7
100
AcDbEntity
  8
1
100
AcDbLine
 10
142.810334
 20
-2.166676999999995
 30
0.0
 11
143.975015
 21
-2.763991999999998
 31
0.0
  0
LINE
  5
2E86
330
BF7
100
AcDbEntity
  8
1
100
AcDbLine
 10
141.645676
 20
-1.514469999999999
 30
0.0
 11
142.810334
 21
-2.166676999999995
 31
0.0
  0
LINE
  5
2E87
330
BF7
100
AcDbEntity
  8
1
100
AcDbLine
 10
140.4809939999999
 20
-0.8241349999999947
 30
0.0
 11
141.645676
 21
-1.514469999999999
 31
0.0
  0
LINE
  5
2E88
330
BF7
100
AcDbEntity
  8
1
100
AcDbLine
 10
139.316337
 20
-0.112919999999999
 30
0.0
 11
140.4809939999999
 21
-0.8241349999999947
 31
0.0
  0
LINE
  5
2E89
330
BF7
100
AcDbEntity
  8
1
100
AcDbLine
 10
138.151655
 20
0.6011320000000035
 30
0.0
 11
139.316337
 21
-0.112919999999999
 31
0.0
  0
LINE
  5
2E8A
330
BF7
100
AcDbEntity
  8
1
100
AcDbLine
 10
136.986973
 20
1.299978
 30
0.0
 11
138.151655
 21
0.6011320000000035
 31
0.0
  0
LINE
  5
2E8B
330
BF7
100
AcDbEntity
  8
1
100
AcDbLine
 10
135.8222669999999
 20
1.966098999999999
 30
0.0
 11
136.986973
 21
1.299978
 31
0.0
  0
LINE
  5
2E8C
330
BF7
100
AcDbEntity
  8
1
100
AcDbLine
 10
134.650076
 20
2.586176
 30
0.0
 11
135.8222669999999
 21
1.966098999999999
 31
0.0
  0
LINE
  5
2E8D
330
BF7
100
AcDbEntity
  8
1
100
AcDbLine
 10
133.4778609999999
 20
3.140312000000001
 30
0.0
 11
134.650076
 21
2.586176
 31
0.0
  0
LINE
  5
2E8E
330
BF7
100
AcDbEntity
  8
1
100
AcDbLine
 10
131.90441
 20
3.753308000000004
 30
0.0
 11
133.4778609999999
 21
3.140312000000001
 31
0.0
  0
LINE
  5
2E8F
330
BF7
100
AcDbEntity
  8
1
100
AcDbLine
 10
130.326018
 20
4.196670000000004
 30
0.0
 11
131.90441
 21
3.753308000000004
 31
0.0
  0
LINE
  5
2E90
330
BF7
100
AcDbEntity
  8
1
100
AcDbLine
 10
128.752544
 20
4.447448000000001
 30
0.0
 11
130.326018
 21
4.196670000000004
 31
0.0
  0
LINE
  5
2E91
330
BF7
100
AcDbEntity
  8
1
100
AcDbLine
 10
127.631997
 20
4.497751
 30
0.0
 11
128.752544
 21
4.447448000000001
 31
0.0
  0
LINE
  5
2E92
330
BF7
100
AcDbEntity
  8
1
100
AcDbLine
 10
105.389023
 20
-4.475817999999994
 30
0.0
 11
106.899227
 21
-4.274770999999994
 31
0.0
  0
LINE
  5
2E93
330
BF7
100
AcDbEntity
  8
1
100
AcDbLine
 10
104.224341
 20
-4.493004999999993
 30
0.0
 11
105.389023
 21
-4.475817999999994
 31
0.0
  0
LINE
  5
2E94
330
BF7
100
AcDbEntity
  8
1
100
AcDbLine
 10
103.05966
 20
-4.396354999999996
 30
0.0
 11
104.224341
 21
-4.493004999999993
 31
0.0
  0
LINE
  5
2E95
330
BF7
100
AcDbEntity
  8
1
100
AcDbLine
 10
101.894954
 20
-4.189032
 30
0.0
 11
103.05966
 21
-4.396354999999996
 31
0.0
  0
LINE
  5
2E96
330
BF7
100
AcDbEntity
  8
1
100
AcDbLine
 10
100.722763
 20
-3.873224999999997
 30
0.0
 11
101.894954
 21
-4.189032
 31
0.0
  0
LINE
  5
2E97
330
BF7
100
AcDbEntity
  8
1
100
AcDbLine
 10
99.55057200000005
 20
-3.458662999999996
 30
0.0
 11
100.722763
 21
-3.873224999999997
 31
0.0
  0
LINE
  5
2E98
330
BF7
100
AcDbEntity
  8
1
100
AcDbLine
 10
97.97709700000002
 20
-2.763773999999997
 30
0.0
 11
99.55057200000005
 21
-3.458662999999996
 31
0.0
  0
LINE
  5
2E99
330
BF7
100
AcDbEntity
  8
1
100
AcDbLine
 10
96.398705
 20
-1.940404
 30
0.0
 11
97.97709700000002
 21
-2.763773999999997
 31
0.0
  0
LINE
  5
2E9A
330
BF7
100
AcDbEntity
  8
1
100
AcDbLine
 10
94.82525400000005
 20
-1.031165999999994
 30
0.0
 11
96.398705
 21
-1.940404
 31
0.0
  0
LINE
  5
2E9B
330
BF7
100
AcDbEntity
  8
1
100
AcDbLine
 10
93.66059699999999
 20
-0.3242440000000002
 30
0.0
 11
94.82525400000005
 21
-1.031165999999994
 31
0.0
  0
LINE
  5
2E9C
330
BF7
100
AcDbEntity
  8
1
100
AcDbLine
 10
92.49593900000002
 20
0.3908400000000043
 30
0.0
 11
93.66059699999999
 21
-0.3242440000000002
 31
0.0
  0
LINE
  5
2E9D
330
BF7
100
AcDbEntity
  8
1
100
AcDbLine
 10
91.33128199999999
 20
1.096023999999997
 30
0.0
 11
92.49593900000002
 21
0.3908400000000043
 31
0.0
  0
LINE
  5
2E9E
330
BF7
100
AcDbEntity
  8
1
100
AcDbLine
 10
90.16659999999999
 20
1.773614000000002
 30
0.0
 11
91.33128199999999
 21
1.096023999999997
 31
0.0
  0
LINE
  5
2E9F
330
BF7
100
AcDbEntity
  8
1
100
AcDbLine
 10
89.00194199999999
 20
2.406270000000001
 30
0.0
 11
90.16659999999999
 21
1.773614000000002
 31
0.0
  0
LINE
  5
2EA0
330
BF7
100
AcDbEntity
  8
1
100
AcDbLine
 10
87.837285
 20
2.978358000000003
 30
0.0
 11
89.00194199999999
 21
2.406270000000001
 31
0.0
  0
LINE
  5
2EA1
330
BF7
100
AcDbEntity
  8
1
100
AcDbLine
 10
86.67260300000004
 20
3.474990999999998
 30
0.0
 11
87.837285
 21
2.978358000000003
 31
0.0
  0
LINE
  5
2EA2
330
BF7
100
AcDbEntity
  8
1
100
AcDbLine
 10
85.507945
 20
3.884140999999998
 30
0.0
 11
86.67260300000004
 21
3.474990999999998
 31
0.0
  0
LINE
  5
2EA3
330
BF7
100
AcDbEntity
  8
1
100
AcDbLine
 10
84.34326400000003
 20
4.194887000000001
 30
0.0
 11
85.507945
 21
3.884140999999998
 31
0.0
  0
LINE
  5
2EA4
330
BF7
100
AcDbEntity
  8
1
100
AcDbLine
 10
83.17860600000001
 20
4.400036999999994
 30
0.0
 11
84.34326400000003
 21
4.194887000000001
 31
0.0
  0
LINE
  5
2EA5
330
BF7
100
AcDbEntity
  8
1
100
AcDbLine
 10
82.01392400000003
 20
4.493712000000002
 30
0.0
 11
83.17860600000001
 21
4.400036999999994
 31
0.0
  0
LINE
  5
2EA6
330
BF7
100
AcDbEntity
  8
1
100
AcDbLine
 10
81.63279399999998
 20
4.487347000000005
 30
0.0
 11
82.01392400000003
 21
4.493712000000002
 31
0.0
  0
LINE
  5
2EA7
330
BF7
100
AcDbEntity
  8
1
100
AcDbLine
 10
58.63897099999999
 20
-4.499812999999996
 30
0.0
 11
60.95753100000002
 21
-4.274314999999996
 31
0.0
  0
LINE
  5
2EA8
330
BF7
100
AcDbEntity
  8
1
100
AcDbLine
 10
57.47431299999998
 20
-4.443798000000001
 30
0.0
 11
58.63897099999999
 21
-4.499812999999996
 31
0.0
  0
LINE
  5
2EA9
330
BF7
100
AcDbEntity
  8
1
100
AcDbLine
 10
56.30963099999998
 20
-4.275195
 30
0.0
 11
57.47431299999998
 21
-4.443798000000001
 31
0.0
  0
LINE
  5
2EAA
330
BF7
100
AcDbEntity
  8
1
100
AcDbLine
 10
55.14494900000002
 20
-3.998971999999998
 30
0.0
 11
56.30963099999998
 21
-4.275195
 31
0.0
  0
LINE
  5
2EAB
330
BF7
100
AcDbEntity
  8
1
100
AcDbLine
 10
53.98024300000002
 20
-3.621415999999998
 30
0.0
 11
55.14494900000002
 21
-3.998971999999998
 31
0.0
  0
LINE
  5
2EAC
330
BF7
100
AcDbEntity
  8
1
100
AcDbLine
 10
52.81553699999999
 20
-3.152695999999998
 30
0.0
 11
53.98024300000002
 21
-3.621415999999998
 31
0.0
  0
LINE
  5
2EAD
330
BF7
100
AcDbEntity
  8
1
100
AcDbLine
 10
51.64332200000001
 20
-2.600334999999997
 30
0.0
 11
52.81553699999999
 21
-3.152695999999998
 31
0.0
  0
LINE
  5
2EAE
330
BF7
100
AcDbEntity
  8
1
100
AcDbLine
 10
50.471131
 20
-1.981667999999999
 30
0.0
 11
51.64332200000001
 21
-2.600334999999997
 31
0.0
  0
LINE
  5
2EAF
330
BF7
100
AcDbEntity
  8
1
100
AcDbLine
 10
48.89765600000001
 20
-1.074031999999995
 30
0.0
 11
50.471131
 21
-1.981667999999999
 31
0.0
  0
LINE
  5
2EB0
330
BF7
100
AcDbEntity
  8
1
100
AcDbLine
 10
47.319264
 20
-0.1144759999999998
 30
0.0
 11
48.89765600000001
 21
-1.074031999999995
 31
0.0
  0
LINE
  5
2EB1
330
BF7
100
AcDbEntity
  8
1
100
AcDbLine
 10
45.74581400000002
 20
0.8473170000000003
 30
0.0
 11
47.319264
 21
-0.1144759999999998
 31
0.0
  0
LINE
  5
2EB2
330
BF7
100
AcDbEntity
  8
1
100
AcDbLine
 10
44.58115599999999
 20
1.536654999999999
 30
0.0
 11
45.74581400000002
 21
0.8473170000000003
 31
0.0
  0
LINE
  5
2EB3
330
BF7
100
AcDbEntity
  8
1
100
AcDbLine
 10
43.41649900000001
 20
2.187317999999998
 30
0.0
 11
44.58115599999999
 21
1.536654999999999
 31
0.0
  0
LINE
  5
2EB4
330
BF7
100
AcDbEntity
  8
1
100
AcDbLine
 10
42.25181699999999
 20
2.782561000000001
 30
0.0
 11
43.41649900000001
 21
2.187317999999998
 31
0.0
  0
LINE
  5
2EB5
330
BF7
100
AcDbEntity
  8
1
100
AcDbLine
 10
41.08715899999999
 20
3.307762
 30
0.0
 11
42.25181699999999
 21
2.782561000000001
 31
0.0
  0
LINE
  5
2EB6
330
BF7
100
AcDbEntity
  8
1
100
AcDbLine
 10
39.92652300000001
 20
3.747944999999998
 30
0.0
 11
41.08715899999999
 21
3.307762
 31
0.0
  0
LINE
  5
2EB7
330
BF7
100
AcDbEntity
  8
1
100
AcDbLine
 10
38.761865
 20
4.094990000000001
 30
0.0
 11
39.92652300000001
 21
3.747944999999998
 31
0.0
  0
LINE
  5
2EB8
330
BF7
100
AcDbEntity
  8
1
100
AcDbLine
 10
37.59718400000001
 20
4.338952000000006
 30
0.0
 11
38.761865
 21
4.094990000000001
 31
0.0
  0
LINE
  5
2EB9
330
BF7
100
AcDbEntity
  8
1
100
AcDbLine
 10
36.43252600000002
 20
4.472983000000006
 30
0.0
 11
37.59718400000001
 21
4.338952000000006
 31
0.0
  0
LINE
  5
2EBA
330
BF7
100
AcDbEntity
  8
1
100
AcDbLine
 10
35.63577200000003
 20
4.487644000000003
 30
0.0
 11
36.43252600000002
 21
4.472983000000006
 31
0.0
  0
LINE
  5
2EBB
330
BF7
100
AcDbEntity
  8
1
100
AcDbLine
 10
12.32771100000002
 20
-4.496097999999999
 30
0.0
 11
14.903547
 21
-4.268154999999993
 31
0.0
  0
LINE
  5
2EBC
330
BF7
100
AcDbEntity
  8
1
100
AcDbLine
 10
10.13875799999999
 20
-4.241438999999996
 30
0.0
 11
12.32771100000002
 21
-4.496097999999999
 31
0.0
  0
LINE
  5
2EBD
330
BF7
100
AcDbEntity
  8
1
100
AcDbLine
 10
9.047630999999995
 20
-3.971186999999996
 30
0.0
 11
10.13875799999999
 21
-4.241438999999996
 31
0.0
  0
LINE
  5
2EBE
330
BF7
100
AcDbEntity
  8
1
100
AcDbLine
 10
8.775118000000018
 20
-3.889667999999995
 30
0.0
 11
9.047630999999995
 21
-3.971186999999996
 31
0.0
  0
LINE
  5
2EBF
330
BF7
100
AcDbEntity
  8
1
100
AcDbLine
 10
147.115885
 20
-4.250091999999998
 30
0.0
 11
149.5666069999999
 21
-4.468466999999995
 31
0.0
  0
LINE
  5
2EC0
330
BF7
100
AcDbEntity
  8
1
100
AcDbLine
 10
145.53197
 20
-3.831501999999995
 30
0.0
 11
147.115885
 21
-4.250091999999998
 31
0.0
  0
LINE
  5
2EC1
330
BF7
100
AcDbEntity
  8
1
100
AcDbLine
 10
143.943016
 20
-3.234157999999997
 30
0.0
 11
145.53197
 21
-3.831501999999995
 31
0.0
  0
LINE
  5
2EC2
330
BF7
100
AcDbEntity
  8
1
100
AcDbLine
 10
142.359029
 20
-2.489485999999995
 30
0.0
 11
143.943016
 21
-3.234157999999997
 31
0.0
  0
LINE
  5
2EC3
330
BF7
100
AcDbEntity
  8
1
100
AcDbLine
 10
140.774968
 20
-1.625941999999995
 30
0.0
 11
142.359029
 21
-2.489485999999995
 31
0.0
  0
LINE
  5
2EC4
330
BF7
100
AcDbEntity
  8
1
100
AcDbLine
 10
139.185942
 20
-0.6841999999999972
 30
0.0
 11
140.774968
 21
-1.625941999999995
 31
0.0
  0
LINE
  5
2EC5
330
BF7
100
AcDbEntity
  8
1
100
AcDbLine
 10
137.601979
 20
0.2861650000000039
 30
0.0
 11
139.185942
 21
-0.6841999999999972
 31
0.0
  0
LINE
  5
2EC6
330
BF7
100
AcDbEntity
  8
1
100
AcDbLine
 10
136.017943
 20
1.242551000000001
 30
0.0
 11
137.601979
 21
0.2861650000000039
 31
0.0
  0
LINE
  5
2EC7
330
BF7
100
AcDbEntity
  8
1
100
AcDbLine
 10
134.4287959999999
 20
2.144290999999999
 30
0.0
 11
136.017943
 21
1.242551000000001
 31
0.0
  0
LINE
  5
2EC8
330
BF7
100
AcDbEntity
  8
1
100
AcDbLine
 10
132.844905
 20
2.944506
 30
0.0
 11
134.4287959999999
 21
2.144290999999999
 31
0.0
  0
LINE
  5
2EC9
330
BF7
100
AcDbEntity
  8
1
100
AcDbLine
 10
131.26099
 20
3.604407000000001
 30
0.0
 11
132.844905
 21
2.944506
 31
0.0
  0
LINE
  5
2ECA
330
BF7
100
AcDbEntity
  8
1
100
AcDbLine
 10
129.671843
 20
4.099223000000002
 30
0.0
 11
131.26099
 21
3.604407000000001
 31
0.0
  0
LINE
  5
2ECB
330
BF7
100
AcDbEntity
  8
1
100
AcDbLine
 10
128.087734
 20
4.403249999999998
 30
0.0
 11
129.671843
 21
4.099223000000002
 31
0.0
  0
LINE
  5
2ECC
330
BF7
100
AcDbEntity
  8
1
100
AcDbLine
 10
126.503577
 20
4.497303000000001
 30
0.0
 11
128.087734
 21
4.403249999999998
 31
0.0
  0
LINE
  5
2ECD
330
BF7
100
AcDbEntity
  8
1
100
AcDbLine
 10
124.91443
 20
4.383301999999997
 30
0.0
 11
126.503577
 21
4.497303000000001
 31
0.0
  0
LINE
  5
2ECE
330
BF7
100
AcDbEntity
  8
1
100
AcDbLine
 10
123.330249
 20
4.067259999999997
 30
0.0
 11
124.91443
 21
4.383301999999997
 31
0.0
  0
LINE
  5
2ECF
330
BF7
100
AcDbEntity
  8
1
100
AcDbLine
 10
121.746091
 20
3.557193000000001
 30
0.0
 11
123.330249
 21
4.067259999999997
 31
0.0
  0
LINE
  5
2ED0
330
BF7
100
AcDbEntity
  8
1
100
AcDbLine
 10
120.156944
 20
2.880732000000001
 30
0.0
 11
121.746091
 21
3.557193000000001
 31
0.0
  0
LINE
  5
2ED1
330
BF7
100
AcDbEntity
  8
1
100
AcDbLine
 10
119.667367
 20
2.631214000000003
 30
0.0
 11
120.156944
 21
2.880732000000001
 31
0.0
  0
LINE
  5
2ED2
330
BF7
100
AcDbEntity
  8
1
100
AcDbLine
 10
101.127316
 20
-4.249959999999997
 30
0.0
 11
103.565201
 21
-4.472674999999997
 31
0.0
  0
LINE
  5
2ED3
330
BF7
100
AcDbEntity
  8
1
100
AcDbLine
 10
99.543183
 20
-3.837183999999997
 30
0.0
 11
101.127316
 21
-4.249959999999997
 31
0.0
  0
LINE
  5
2ED4
330
BF7
100
AcDbEntity
  8
1
100
AcDbLine
 10
97.95907499999998
 20
-3.241325999999998
 30
0.0
 11
99.543183
 21
-3.837183999999997
 31
0.0
  0
LINE
  5
2ED5
330
BF7
100
AcDbEntity
  8
1
100
AcDbLine
 10
96.36990300000002
 20
-2.493448999999996
 30
0.0
 11
97.95907499999998
 21
-3.241325999999998
 31
0.0
  0
LINE
  5
2ED6
330
BF7
100
AcDbEntity
  8
1
100
AcDbLine
 10
94.78576999999999
 20
-1.632818999999995
 30
0.0
 11
96.36990300000002
 21
-2.493448999999996
 31
0.0
  0
LINE
  5
2ED7
330
BF7
100
AcDbEntity
  8
1
100
AcDbLine
 10
93.20163800000001
 20
-0.6943039999999954
 30
0.0
 11
94.78576999999999
 21
-1.632818999999995
 31
0.0
  0
LINE
  5
2ED8
330
BF7
100
AcDbEntity
  8
1
100
AcDbLine
 10
91.61251499999996
 20
0.2793559999999999
 30
0.0
 11
93.20163800000001
 21
-0.6943039999999954
 31
0.0
  0
LINE
  5
2ED9
330
BF7
100
AcDbEntity
  8
1
100
AcDbLine
 10
90.02840600000002
 20
1.237066999999999
 30
0.0
 11
91.61251499999996
 21
0.2793559999999999
 31
0.0
  0
LINE
  5
2EDA
330
BF7
100
AcDbEntity
  8
1
100
AcDbLine
 10
88.44456400000002
 20
2.135625
 30
0.0
 11
90.02840600000002
 21
1.237066999999999
 31
0.0
  0
LINE
  5
2EDB
330
BF7
100
AcDbEntity
  8
1
100
AcDbLine
 10
86.85570699999997
 20
2.938126000000004
 30
0.0
 11
88.44456400000002
 21
2.135625
 31
0.0
  0
LINE
  5
2EDC
330
BF7
100
AcDbEntity
  8
1
100
AcDbLine
 10
85.27184099999997
 20
3.602451000000001
 30
0.0
 11
86.85570699999997
 21
2.938126000000004
 31
0.0
  0
LINE
  5
2EDD
330
BF7
100
AcDbEntity
  8
1
100
AcDbLine
 10
83.68775599999997
 20
4.095016999999998
 30
0.0
 11
85.27184099999997
 21
3.602451000000001
 31
0.0
  0
LINE
  5
2EDE
330
BF7
100
AcDbEntity
  8
1
100
AcDbLine
 10
82.098682
 20
4.399500999999998
 30
0.0
 11
83.68775599999997
 21
4.095016999999998
 31
0.0
  0
LINE
  5
2EDF
330
BF7
100
AcDbEntity
  8
1
100
AcDbLine
 10
80.514767
 20
4.499883000000004
 30
0.0
 11
82.098682
 21
4.399500999999998
 31
0.0
  0
LINE
  5
2EE0
330
BF7
100
AcDbEntity
  8
1
100
AcDbLine
 10
78.93075500000003
 20
4.385711999999998
 30
0.0
 11
80.514767
 21
4.499883000000004
 31
0.0
  0
LINE
  5
2EE1
330
BF7
100
AcDbEntity
  8
1
100
AcDbLine
 10
77.34153500000002
 20
4.068156
 30
0.0
 11
78.93075500000003
 21
4.385711999999998
 31
0.0
  0
LINE
  5
2EE2
330
BF7
100
AcDbEntity
  8
1
100
AcDbLine
 10
75.75759600000002
 20
3.563609000000003
 30
0.0
 11
77.34153500000002
 21
4.068156
 31
0.0
  0
LINE
  5
2EE3
330
BF7
100
AcDbEntity
  8
1
100
AcDbLine
 10
74.17363299999998
 20
2.888889000000001
 30
0.0
 11
75.75759600000002
 21
3.563609000000003
 31
0.0
  0
LINE
  5
2EE4
330
BF7
100
AcDbEntity
  8
1
100
AcDbLine
 10
73.67024799999999
 20
2.632146
 30
0.0
 11
74.17363299999998
 21
2.888889000000001
 31
0.0
  0
LINE
  5
2EE5
330
BF7
100
AcDbEntity
  8
1
100
AcDbLine
 10
55.143496
 20
-4.253326999999996
 30
0.0
 11
57.56820300000004
 21
-4.472456999999998
 31
0.0
  0
LINE
  5
2EE6
330
BF7
100
AcDbEntity
  8
1
100
AcDbLine
 10
53.55434900000003
 20
-3.838545999999995
 30
0.0
 11
55.143496
 21
-4.253326999999996
 31
0.0
  0
LINE
  5
2EE7
330
BF7
100
AcDbEntity
  8
1
100
AcDbLine
 10
51.970337
 20
-3.247770999999995
 30
0.0
 11
53.55434900000003
 21
-3.838545999999995
 31
0.0
  0
LINE
  5
2EE8
330
BF7
100
AcDbEntity
  8
1
100
AcDbLine
 10
50.38634900000001
 20
-2.502120999999998
 30
0.0
 11
51.970337
 21
-3.247770999999995
 31
0.0
  0
LINE
  5
2EE9
330
BF7
100
AcDbEntity
  8
1
100
AcDbLine
 10
48.79725100000001
 20
-1.638329999999995
 30
0.0
 11
50.38634900000001
 21
-2.502120999999998
 31
0.0
  0
LINE
  5
2EEA
330
BF7
100
AcDbEntity
  8
1
100
AcDbLine
 10
47.21321499999999
 20
-0.7015679999999982
 30
0.0
 11
48.79725100000001
 21
-1.638329999999995
 31
0.0
  0
LINE
  5
2EEB
330
BF7
100
AcDbEntity
  8
1
100
AcDbLine
 10
45.62910600000001
 20
0.2687610000000014
 30
0.0
 11
47.21321499999999
 21
-0.7015679999999982
 31
0.0
  0
LINE
  5
2EEC
330
BF7
100
AcDbEntity
  8
1
100
AcDbLine
 10
44.03995899999998
 20
1.229684999999999
 30
0.0
 11
45.62910600000001
 21
0.2687610000000014
 31
0.0
  0
LINE
  5
2EED
330
BF7
100
AcDbEntity
  8
1
100
AcDbLine
 10
42.45587400000002
 20
2.130834999999995
 30
0.0
 11
44.03995899999998
 21
1.229684999999999
 31
0.0
  0
LINE
  5
2EEE
330
BF7
100
AcDbEntity
  8
1
100
AcDbLine
 10
40.87171699999998
 20
2.930325999999998
 30
0.0
 11
42.45587400000002
 21
2.130834999999995
 31
0.0
  0
LINE
  5
2EEF
330
BF7
100
AcDbEntity
  8
1
100
AcDbLine
 10
39.28249700000001
 20
3.596553
 30
0.0
 11
40.87171699999998
 21
2.930325999999998
 31
0.0
  0
LINE
  5
2EF0
330
BF7
100
AcDbEntity
  8
1
100
AcDbLine
 10
37.69834
 20
4.094641999999998
 30
0.0
 11
39.28249700000001
 21
3.596553
 31
0.0
  0
LINE
  5
2EF1
330
BF7
100
AcDbEntity
  8
1
100
AcDbLine
 10
36.11452200000002
 20
4.397364000000003
 30
0.0
 11
37.69834
 21
4.094641999999998
 31
0.0
  0
LINE
  5
2EF2
330
BF7
100
AcDbEntity
  8
1
100
AcDbLine
 10
34.52564100000001
 20
4.497403000000002
 30
0.0
 11
36.11452200000002
 21
4.397364000000003
 31
0.0
  0
LINE
  5
2EF3
330
BF7
100
AcDbEntity
  8
1
100
AcDbLine
 10
32.94172700000002
 20
4.389549000000001
 30
0.0
 11
34.52564100000001
 21
4.497403000000002
 31
0.0
  0
LINE
  5
2EF4
330
BF7
100
AcDbEntity
  8
1
100
AcDbLine
 10
31.36859100000001
 20
4.075163000000003
 30
0.0
 11
32.94172700000002
 21
4.389549000000001
 31
0.0
  0
LINE
  5
2EF5
330
BF7
100
AcDbEntity
  8
1
100
AcDbLine
 10
29.79058700000002
 20
3.573571000000004
 30
0.0
 11
31.36859100000001
 21
4.075163000000003
 31
0.0
  0
LINE
  5
2EF6
330
BF7
100
AcDbEntity
  8
1
100
AcDbLine
 10
28.217499
 20
2.910799
 30
0.0
 11
29.79058700000002
 21
3.573571000000004
 31
0.0
  0
LINE
  5
2EF7
330
BF7
100
AcDbEntity
  8
1
100
AcDbLine
 10
27.669253
 20
2.637506000000001
 30
0.0
 11
28.217499
 21
2.910799
 31
0.0
  0
LINE
  5
2EF8
330
BF7
100
AcDbEntity
  8
1
100
AcDbLine
 10
0.4989999999999954
 20
-4.387166999999998
 30
0.0
 11
0.4989999999999954
 21
-4.499998999999998
 31
0.0
  0
LINE
  5
2EF9
330
BF7
100
AcDbEntity
  8
1
100
AcDbLine
 10
0.4989999999999954
 20
-4.054356999999996
 30
0.0
 11
0.4989999999999954
 21
-4.387166999999998
 31
0.0
  0
LINE
  5
2EFA
330
BF7
100
AcDbEntity
  8
1
100
AcDbLine
 10
0.4989999999999954
 20
-3.518256999999998
 30
0.0
 11
0.4989999999999954
 21
-4.054356999999996
 31
0.0
  0
LINE
  5
2EFB
330
BF7
100
AcDbEntity
  8
1
100
AcDbLine
 10
0.4989999999999954
 20
-2.805747
 30
0.0
 11
0.4989999999999954
 21
-3.518256999999998
 31
0.0
  0
LINE
  5
2EFC
330
BF7
100
AcDbEntity
  8
1
100
AcDbLine
 10
0.4989999999999954
 20
-1.952554999999995
 30
0.0
 11
0.4989999999999954
 21
-2.805747
 31
0.0
  0
LINE
  5
2EFD
330
BF7
100
AcDbEntity
  8
1
100
AcDbLine
 10
0.4989999999999954
 20
-1.001459
 30
0.0
 11
0.4989999999999954
 21
-1.952554999999995
 31
0.0
  0
LINE
  5
2EFE
330
BF7
100
AcDbEntity
  8
1
100
AcDbLine
 10
0.4989999999999954
 20
-0.0001509999999989
 30
0.0
 11
0.4989999999999954
 21
-1.001459
 31
0.0
  0
LINE
  5
2EFF
330
BF7
100
AcDbEntity
  8
1
100
AcDbLine
 10
0.4989999999999954
 20
1.001165000000002
 30
0.0
 11
0.4989999999999954
 21
-0.0001509999999989
 31
0.0
  0
LINE
  5
2F00
330
BF7
100
AcDbEntity
  8
1
100
AcDbLine
 10
0.4989999999999954
 20
1.952284999999999
 30
0.0
 11
0.4989999999999954
 21
1.001165000000002
 31
0.0
  0
LINE
  5
2F01
330
BF7
100
AcDbEntity
  8
1
100
AcDbLine
 10
0.4989999999999954
 20
2.805513000000001
 30
0.0
 11
0.4989999999999954
 21
1.952284999999999
 31
0.0
  0
LINE
  5
2F02
330
BF7
100
AcDbEntity
  8
1
100
AcDbLine
 10
0.4989999999999954
 20
3.518069
 30
0.0
 11
0.4989999999999954
 21
2.805513000000001
 31
0.0
  0
LINE
  5
2F03
330
BF7
100
AcDbEntity
  8
1
100
AcDbLine
 10
0.4989999999999954
 20
4.054225000000001
 30
0.0
 11
0.4989999999999954
 21
3.518069
 31
0.0
  0
LINE
  5
2F04
330
BF7
100
AcDbEntity
  8
1
100
AcDbLine
 10
0.4989999999999954
 20
4.387098999999999
 30
0.0
 11
0.4989999999999954
 21
4.054225000000001
 31
0.0
  0
LINE
  5
2F05
330
BF7
100
AcDbEntity
  8
1
100
AcDbLine
 10
0.4989999999999954
 20
4.500001000000004
 30
0.0
 11
0.4989999999999954
 21
4.387098999999999
 31
0.0
  0
LINE
  5
2F06
330
BF7
100
AcDbEntity
  8
1
100
AcDbLine
 10
151.999114
 20
-0.0223009999999988
 30
0.0
 11
151.970482
 21
-0.1354199999999999
 31
0.0
  0
LINE
  5
2F07
330
BF7
100
AcDbEntity
  8
1
100
AcDbLine
 10
151.970482
 20
-0.1354199999999999
 30
0.0
 11
151.701918
 21
-1.483575999999999
 31
0.0
  0
LINE
  5
2F08
330
BF7
100
AcDbEntity
  8
1
100
AcDbLine
 10
151.011335
 20
-3.393645999999995
 30
0.0
 11
150.633742
 21
-4.452325999999998
 31
0.0
  0
LINE
  5
2F09
330
BF7
100
AcDbEntity
  8
1
100
AcDbLine
 10
151.434783
 20
-2.223673999999999
 30
0.0
 11
151.011335
 21
-3.393645999999995
 31
0.0
  0
LINE
  5
2F0A
330
BF7
100
AcDbEntity
  8
1
100
AcDbLine
 10
151.701918
 20
-1.483575999999999
 30
0.0
 11
151.434783
 21
-2.223673999999999
 31
0.0
  0
LINE
  5
2F0B
330
BF7
100
AcDbEntity
  8
1
100
AcDbLine
 10
150.633742
 20
-4.452325999999998
 30
0.0
 11
150.463984
 21
-4.498805999999998
 31
0.0
  0
LINE
  5
2F0C
330
BF7
100
AcDbEntity
  8
1
100
AcDbLine
 10
150.502233
 20
-4.265248999999997
 30
0.0
 11
150.49906
 21
-4.262893999999998
 31
0.0
  0
LINE
  5
2F0D
330
BF7
100
AcDbEntity
  8
1
100
AcDbLine
 10
150.507804
 20
-4.286981999999998
 30
0.0
 11
150.502233
 21
-4.265248999999997
 31
0.0
  0
LINE
  5
2F0E
330
BF7
100
AcDbEntity
  8
1
100
AcDbLine
 10
150.504849
 20
-4.327795999999998
 30
0.0
 11
150.507804
 21
-4.286981999999998
 31
0.0
  0
LINE
  5
2F0F
330
BF7
100
AcDbEntity
  8
1
100
AcDbLine
 10
150.4908479999999
 20
-4.399111999999997
 30
0.0
 11
150.504849
 21
-4.327795999999998
 31
0.0
  0
LINE
  5
2F10
330
BF7
100
AcDbEntity
  8
1
100
AcDbLine
 10
150.464251
 20
-4.497841999999998
 30
0.0
 11
150.4908479999999
 21
-4.399111999999997
 31
0.0
  0
LINE
  5
2F11
330
BF7
100
AcDbEntity
  8
1
100
AcDbLine
 10
150.463984
 20
-4.498805999999998
 30
0.0
 11
150.464251
 21
-4.497841999999998
 31
0.0
  0
LINE
  5
2F12
330
BF7
100
AcDbEntity
  8
1
100
AcDbLine
 10
150.49906
 20
-4.262893999999998
 30
0.0
 11
150.3724689999999
 21
-4.098822999999998
 31
0.0
  0
LINE
  5
2F13
330
BF7
100
AcDbEntity
  8
1
100
AcDbLine
 10
151.238986
 20
-1.921857999999995
 30
0.0
 11
151.268029
 21
-1.834163
 31
0.0
  0
LINE
  5
2F14
330
BF7
100
AcDbEntity
  8
1
100
AcDbLine
 10
151.161398
 20
-2.120445999999995
 30
0.0
 11
151.238986
 21
-1.921857999999995
 31
0.0
  0
LINE
  5
2F15
330
BF7
100
AcDbEntity
  8
1
100
AcDbLine
 10
151.116391
 20
-2.217620999999997
 30
0.0
 11
151.161398
 21
-2.120445999999995
 31
0.0
  0
LINE
  5
2F16
330
BF7
100
AcDbEntity
  8
1
100
AcDbLine
 10
151.116391
 20
-2.217620999999997
 30
0.0
 11
150.3724689999999
 21
-4.098822999999998
 31
0.0
  0
LINE
  5
2F17
330
BF7
100
AcDbEntity
  8
1
100
AcDbLine
 10
149.802615
 20
-2.939047999999998
 30
0.0
 11
149.741015
 21
-2.345002999999997
 31
0.0
  0
LINE
  5
2F18
330
BF7
100
AcDbEntity
  8
1
100
AcDbLine
 10
149.931071
 20
-3.434188999999995
 30
0.0
 11
149.802615
 21
-2.939047999999998
 31
0.0
  0
LINE
  5
2F19
330
BF7
100
AcDbEntity
  8
1
100
AcDbLine
 10
150.111971
 20
-3.808006999999998
 30
0.0
 11
149.931071
 21
-3.434188999999995
 31
0.0
  0
LINE
  5
2F1A
330
BF7
100
AcDbEntity
  8
1
100
AcDbLine
 10
150.3724689999999
 20
-4.098822999999998
 30
0.0
 11
150.111971
 21
-3.808006999999998
 31
0.0
  0
LINE
  5
2F1B
330
BF7
100
AcDbEntity
  8
1
100
AcDbLine
 10
149.741015
 20
-2.345002999999997
 30
0.0
 11
151.97489
 21
-0.0259429999999981
 31
0.0
  0
LINE
  5
2F1C
330
BF7
100
AcDbEntity
  8
1
100
AcDbLine
 10
151.97489
 20
-0.0259429999999981
 30
0.0
 11
151.999114
 21
0.0223010000000024
 31
0.0
  0
LINE
  5
2F1D
330
BF7
100
AcDbEntity
  8
1
100
AcDbLine
 10
151.999961
 20
0.0167780000000057
 30
0.0
 11
151.268029
 21
-1.834163
 31
0.0
  0
LINE
  5
2F1E
330
BF7
100
AcDbEntity
  8
1
100
AcDbLine
 10
151.077561
 20
-2.273131999999999
 30
0.0
 11
151.116391
 21
-2.217620999999997
 31
0.0
  0
LINE
  5
2F1F
330
BF7
100
AcDbEntity
  8
1
100
AcDbLine
 10
150.951382
 20
-2.398051999999996
 30
0.0
 11
151.077561
 21
-2.273131999999999
 31
0.0
  0
LINE
  5
2F20
330
BF7
100
AcDbEntity
  8
1
100
AcDbLine
 10
150.810281
 20
-2.449940999999999
 30
0.0
 11
150.951382
 21
-2.398051999999996
 31
0.0
  0
LINE
  5
2F21
330
BF7
100
AcDbEntity
  8
1
100
AcDbLine
 10
150.704546
 20
-2.413417999999996
 30
0.0
 11
150.810281
 21
-2.449940999999999
 31
0.0
  0
LINE
  5
2F22
330
BF7
100
AcDbEntity
  8
1
100
AcDbLine
 10
150.637278
 20
-2.323282999999995
 30
0.0
 11
150.704546
 21
-2.413417999999996
 31
0.0
  0
LINE
  5
2F23
330
BF7
100
AcDbEntity
  8
1
100
AcDbLine
 10
150.602203
 20
-2.205030999999995
 30
0.0
 11
150.637278
 21
-2.323282999999995
 31
0.0
  0
LINE
  5
2F24
330
BF7
100
AcDbEntity
  8
1
100
AcDbLine
 10
150.592925
 20
-2.070630999999995
 30
0.0
 11
150.602203
 21
-2.205030999999995
 31
0.0
  0
LINE
  5
2F25
330
BF7
100
AcDbEntity
  8
1
100
AcDbLine
 10
150.607362
 20
-1.919925999999999
 30
0.0
 11
150.592925
 21
-2.070630999999995
 31
0.0
  0
LINE
  5
2F26
330
BF7
100
AcDbEntity
  8
1
100
AcDbLine
 10
150.6500919999999
 20
-1.749283999999999
 30
0.0
 11
150.607362
 21
-1.919925999999999
 31
0.0
  0
LINE
  5
2F27
330
BF7
100
AcDbEntity
  8
1
100
AcDbLine
 10
150.714454
 20
-1.594560999999995
 30
0.0
 11
150.6500919999999
 21
-1.749283999999999
 31
0.0
  0
LINE
  5
2F28
330
BF7
100
AcDbEntity
  8
1
100
AcDbLine
 10
150.805921
 20
-1.449235999999995
 30
0.0
 11
150.714454
 21
-1.594560999999995
 31
0.0
  0
LINE
  5
2F29
330
BF7
100
AcDbEntity
  8
1
100
AcDbLine
 10
150.960296
 20
-1.311980999999998
 30
0.0
 11
150.805921
 21
-1.449235999999995
 31
0.0
  0
LINE
  5
2F2A
330
BF7
100
AcDbEntity
  8
1
100
AcDbLine
 10
151.097812
 20
-1.284707999999997
 30
0.0
 11
150.960296
 21
-1.311980999999998
 31
0.0
  0
LINE
  5
2F2B
330
BF7
100
AcDbEntity
  8
1
100
AcDbLine
 10
151.193446
 20
-1.336948999999997
 30
0.0
 11
151.097812
 21
-1.284707999999997
 31
0.0
  0
LINE
  5
2F2C
330
BF7
100
AcDbEntity
  8
1
100
AcDbLine
 10
151.2611979999999
 20
-1.457968999999995
 30
0.0
 11
151.193446
 21
-1.336948999999997
 31
0.0
  0
LINE
  5
2F2D
330
BF7
100
AcDbEntity
  8
1
100
AcDbLine
 10
151.284501
 20
-1.580102999999994
 30
0.0
 11
151.2611979999999
 21
-1.457968999999995
 31
0.0
  0
LINE
  5
2F2E
330
BF7
100
AcDbEntity
  8
1
100
AcDbLine
 10
151.284332
 20
-1.717133999999999
 30
0.0
 11
151.284501
 21
-1.580102999999994
 31
0.0
  0
LINE
  5
2F2F
330
BF7
100
AcDbEntity
  8
1
100
AcDbLine
 10
151.268029
 20
-1.834163
 30
0.0
 11
151.284332
 21
-1.717133999999999
 31
0.0
  0
LINE
  5
2F30
330
BF7
100
AcDbEntity
  8
1
100
AcDbLine
 10
151.999114
 20
-0.0223009999999988
 30
0.0
 11
151.999961
 21
-0.0167779999999951
 31
0.0
  0
LINE
  5
2F31
330
BF7
100
AcDbEntity
  8
1
100
AcDbLine
 10
151.999961
 20
-0.0167779999999951
 30
0.0
 11
151.999961
 21
0.0167780000000057
 31
0.0
  0
LINE
  5
2F32
330
BF7
100
AcDbEntity
  8
1
100
AcDbLine
 10
151.999114
 20
0.0223010000000024
 30
0.0
 11
151.999961
 21
0.0167780000000057
 31
0.0
  0
LINE
  5
2F33
330
BF7
100
AcDbEntity
  8
1
100
AcDbLine
 10
151.999114
 20
0.0223010000000024
 30
0.0
 11
151.970482
 21
0.1354210000000044
 31
0.0
  0
LINE
  5
2F34
330
BF7
100
AcDbEntity
  8
1
100
AcDbLine
 10
151.970482
 20
0.1354210000000044
 30
0.0
 11
151.701918
 21
1.483576000000002
 31
0.0
  0
LINE
  5
2F35
330
BF7
100
AcDbEntity
  8
1
100
AcDbLine
 10
151.011335
 20
3.393646000000003
 30
0.0
 11
150.633742
 21
4.452325999999998
 31
0.0
  0
LINE
  5
2F36
330
BF7
100
AcDbEntity
  8
1
100
AcDbLine
 10
151.434783
 20
2.223673999999999
 30
0.0
 11
151.011335
 21
3.393646000000003
 31
0.0
  0
LINE
  5
2F37
330
BF7
100
AcDbEntity
  8
1
100
AcDbLine
 10
151.701918
 20
1.483576000000002
 30
0.0
 11
151.434783
 21
2.223673999999999
 31
0.0
  0
LINE
  5
2F38
330
BF7
100
AcDbEntity
  8
1
100
AcDbLine
 10
150.633742
 20
4.452325999999998
 30
0.0
 11
150.484671
 21
4.500001000000004
 31
0.0
  0
LINE
  5
2F39
330
BF7
100
AcDbEntity
  8
SK1
100
AcDbLine
 10
-38.917464
 20
-0.8861379999999988
 30
0.0
 11
-38.917464
 21
-2.041241999999996
 31
0.0
  0
LINE
  5
2F3A
330
BF7
100
AcDbEntity
  8
SK1
100
AcDbLine
 10
-38.917464
 20
0.3207650000000051
 30
0.0
 11
-38.917464
 21
-0.8861379999999988
 31
0.0
  0
LINE
  5
2F3B
330
BF7
100
AcDbEntity
  8
1
100
AcDbLine
 10
44.02123399999999
 20
1.855031999999999
 30
0.0
 11
44.26293499999998
 21
1.717191999999999
 31
0.0
  0
LINE
  5
2F3C
330
BF7
100
AcDbEntity
  8
1
100
AcDbLine
 10
44.30520399999998
 20
1.694042999999999
 30
0.0
 11
44.34747400000001
 21
1.670894999999999
 31
0.0
  0
LINE
  5
2F3D
330
BF7
100
AcDbEntity
  8
1
100
AcDbLine
 10
44.26293499999998
 20
1.717191999999999
 30
0.0
 11
44.30520399999998
 21
1.694042999999999
 31
0.0
  0
LINE
  5
2F3E
330
BF7
100
AcDbEntity
  8
1
100
AcDbLine
 10
90.26794999999998
 20
1.716713000000002
 30
0.0
 11
90.347597
 21
1.670837000000002
 31
0.0
  0
LINE
  5
2F3F
330
BF7
100
AcDbEntity
  8
1
100
AcDbLine
 10
135.76246
 20
1.996759000000004
 30
0.0
 11
136.227693
 21
1.736407000000003
 31
0.0
  0
LINE
  5
2F40
330
BF7
100
AcDbEntity
  8
1
100
AcDbLine
 10
135.295918
 20
2.245956999999999
 30
0.0
 11
135.76246
 21
1.996759000000004
 31
0.0
  0
LINE
  5
2F41
330
BF7
100
AcDbEntity
  8
1
100
AcDbLine
 10
135.2509359999999
 20
2.269369000000001
 30
0.0
 11
135.295918
 21
2.245956999999999
 31
0.0
  0
LINE
  5
2F42
330
BF7
100
AcDbEntity
  8
1
100
AcDbLine
 10
136.28767
 20
1.703604999999999
 30
0.0
 11
136.347671
 21
1.670804
 31
0.0
  0
LINE
  5
2F43
330
BF7
100
AcDbEntity
  8
1
100
AcDbLine
 10
136.227693
 20
1.736407000000003
 30
0.0
 11
136.28767
 21
1.703604999999999
 31
0.0
  0
LINE
  5
2F44
330
BF7
100
AcDbEntity
  8
1
100
AcDbLine
 10
20.84557799999999
 20
1.953813999999999
 30
0.0
 11
21.34756999999999
 21
1.670843
 31
0.0
  0
LINE
  5
2F45
330
BF7
100
AcDbEntity
  8
1
100
AcDbLine
 10
20.33754200000001
 20
2.225884999999998
 30
0.0
 11
20.84557799999999
 21
1.953813999999999
 31
0.0
  0
LINE
  5
2F46
330
BF7
100
AcDbEntity
  8
1
100
AcDbLine
 10
20.329984
 20
2.229827000000002
 30
0.0
 11
20.33754200000001
 21
2.225884999999998
 31
0.0
  0
LINE
  5
2F47
330
BF7
100
AcDbEntity
  8
1
100
AcDbLine
 10
67.16601800000001
 20
1.770601000000002
 30
0.0
 11
67.21020100000001
 21
1.745333000000002
 31
0.0
  0
LINE
  5
2F48
330
BF7
100
AcDbEntity
  8
1
100
AcDbLine
 10
67.27894700000002
 20
1.708057000000003
 30
0.0
 11
67.34769300000002
 21
1.670779999999997
 31
0.0
  0
LINE
  5
2F49
330
BF7
100
AcDbEntity
  8
1
100
AcDbLine
 10
67.21020100000001
 20
1.745333000000002
 30
0.0
 11
67.27894700000002
 21
1.708057000000003
 31
0.0
  0
LINE
  5
2F4A
330
BF7
100
AcDbEntity
  8
1
100
AcDbLine
 10
112.968454
 20
1.884910999999998
 30
0.0
 11
113.269768
 21
1.713537000000002
 31
0.0
  0
LINE
  5
2F4B
330
BF7
100
AcDbEntity
  8
1
100
AcDbLine
 10
113.308622
 20
1.692223999999999
 30
0.0
 11
113.347452
 21
1.670909999999999
 31
0.0
  0
LINE
  5
2F4C
330
BF7
100
AcDbEntity
  8
1
100
AcDbLine
 10
113.269768
 20
1.713537000000002
 30
0.0
 11
113.308622
 21
1.692223999999999
 31
0.0
  0
LINE
  5
2F4D
330
BF7
100
AcDbEntity
  8
1
100
AcDbLine
 10
126.733626
 20
-0.8687090000000026
 30
0.0
 11
126.292931
 21
-0.6696869999999997
 31
0.0
  0
LINE
  5
2F4E
330
BF7
100
AcDbEntity
  8
1
100
AcDbLine
 10
127.176574
 20
-1.062367999999997
 30
0.0
 11
126.733626
 21
-0.8687090000000026
 31
0.0
  0
LINE
  5
2F4F
330
BF7
100
AcDbEntity
  8
1
100
AcDbLine
 10
122.2735789999999
 20
1.319826000000001
 30
0.0
 11
121.883123
 21
1.533933000000004
 31
0.0
  0
LINE
  5
2F50
330
BF7
100
AcDbEntity
  8
1
100
AcDbLine
 10
122.665779
 20
1.109162000000001
 30
0.0
 11
122.2735789999999
 21
1.319826000000001
 31
0.0
  0
LINE
  5
2F51
330
BF7
100
AcDbEntity
  8
1
100
AcDbLine
 10
123.278532
 20
0.7889840000000028
 30
0.0
 11
122.665779
 21
1.109162000000001
 31
0.0
  0
LINE
  5
2F52
330
BF7
100
AcDbEntity
  8
1
100
AcDbLine
 10
123.894846
 20
0.4759760000000031
 30
0.0
 11
123.278532
 21
0.7889840000000028
 31
0.0
  0
LINE
  5
2F53
330
BF7
100
AcDbEntity
  8
1
100
AcDbLine
 10
124.367903
 20
0.2405950000000026
 30
0.0
 11
123.894846
 21
0.4759760000000031
 31
0.0
  0
LINE
  5
2F54
330
BF7
100
AcDbEntity
  8
1
100
AcDbLine
 10
124.842584
 20
0.0087960000000038
 30
0.0
 11
124.367903
 21
0.2405950000000026
 31
0.0
  0
LINE
  5
2F55
330
BF7
100
AcDbEntity
  8
1
100
AcDbLine
 10
125.103324
 20
-0.1164779999999972
 30
0.0
 11
124.842584
 21
0.0087960000000038
 31
0.0
  0
LINE
  5
2F56
330
BF7
100
AcDbEntity
  8
1
100
AcDbLine
 10
125.364572
 20
-0.2405919999999959
 30
0.0
 11
125.103324
 21
-0.1164779999999972
 31
0.0
  0
LINE
  5
2F57
330
BF7
100
AcDbEntity
  8
1
100
AcDbLine
 10
125.578391
 20
-0.3411580000000001
 30
0.0
 11
125.364572
 21
-0.2405919999999959
 31
0.0
  0
LINE
  5
2F58
330
BF7
100
AcDbEntity
  8
1
100
AcDbLine
 10
125.792623
 20
-0.4408950000000015
 30
0.0
 11
125.578391
 21
-0.3411580000000001
 31
0.0
  0
LINE
  5
2F59
330
BF7
100
AcDbEntity
  8
1
100
AcDbLine
 10
126.04251
 20
-0.5558890000000006
 30
0.0
 11
125.792623
 21
-0.4408950000000015
 31
0.0
  0
LINE
  5
2F5A
330
BF7
100
AcDbEntity
  8
1
100
AcDbLine
 10
126.292931
 20
-0.6696869999999997
 30
0.0
 11
126.04251
 21
-0.5558890000000006
 31
0.0
  0
LINE
  5
2F5B
330
BF7
100
AcDbEntity
  8
1
100
AcDbLine
 10
76.04142100000001
 20
1.443516999999999
 30
0.0
 11
75.882564
 21
1.530914000000002
 31
0.0
  0
LINE
  5
2F5C
330
BF7
100
AcDbEntity
  8
1
100
AcDbLine
 10
76.20066500000001
 20
1.356794
 30
0.0
 11
76.04142100000001
 21
1.443516999999999
 31
0.0
  0
LINE
  5
2F5D
330
BF7
100
AcDbEntity
  8
1
100
AcDbLine
 10
76.63741099999999
 20
1.123542
 30
0.0
 11
76.20066500000001
 21
1.356794
 31
0.0
  0
LINE
  5
2F5E
330
BF7
100
AcDbEntity
  8
1
100
AcDbLine
 10
77.07624100000002
 20
0.8943190000000027
 30
0.0
 11
76.63741099999999
 21
1.123542
 31
0.0
  0
LINE
  5
2F5F
330
BF7
100
AcDbEntity
  8
1
100
AcDbLine
 10
77.43142800000005
 20
0.7112610000000004
 30
0.0
 11
77.07624100000002
 21
0.8943190000000027
 31
0.0
  0
LINE
  5
2F60
330
BF7
100
AcDbEntity
  8
1
100
AcDbLine
 10
77.787511
 20
0.5300760000000011
 30
0.0
 11
77.43142800000005
 21
0.7112610000000004
 31
0.0
  0
LINE
  5
2F61
330
BF7
100
AcDbEntity
  8
1
100
AcDbLine
 10
78.05951499999998
 20
0.3934900000000034
 30
0.0
 11
77.787511
 21
0.5300760000000011
 31
0.0
  0
LINE
  5
2F62
330
BF7
100
AcDbEntity
  8
1
100
AcDbLine
 10
78.33210000000002
 20
0.2581659999999992
 30
0.0
 11
78.05951499999998
 21
0.3934900000000034
 31
0.0
  0
LINE
  5
2F63
330
BF7
100
AcDbEntity
  8
1
100
AcDbLine
 10
78.70223199999998
 20
0.0768489999999993
 30
0.0
 11
78.33210000000002
 21
0.2581659999999992
 31
0.0
  0
LINE
  5
2F64
330
BF7
100
AcDbEntity
  8
1
100
AcDbLine
 10
79.07345500000002
 20
-0.1021830000000001
 30
0.0
 11
78.70223199999998
 21
0.0768489999999993
 31
0.0
  0
LINE
  5
2F65
330
BF7
100
AcDbEntity
  8
1
100
AcDbLine
 10
79.55106599999997
 20
-0.3283319999999996
 30
0.0
 11
79.07345500000002
 21
-0.1021830000000001
 31
0.0
  0
LINE
  5
2F66
330
BF7
100
AcDbEntity
  8
1
100
AcDbLine
 10
80.030397
 20
-0.5505080000000007
 30
0.0
 11
79.55106599999997
 21
-0.3283319999999996
 31
0.0
  0
LINE
  5
2F67
330
BF7
100
AcDbEntity
  8
1
100
AcDbLine
 10
80.61829700000004
 20
-0.8164469999999964
 30
0.0
 11
80.030397
 21
-0.5505080000000007
 31
0.0
  0
LINE
  5
2F68
330
BF7
100
AcDbEntity
  8
1
100
AcDbLine
 10
81.20874100000003
 20
-1.076341999999995
 30
0.0
 11
80.61829700000004
 21
-0.8164469999999964
 31
0.0
  0
LINE
  5
2F69
330
BF7
100
AcDbEntity
  8
1
100
AcDbLine
 10
30.13586600000002
 20
1.393096000000002
 30
0.0
 11
29.86415300000002
 21
1.542410999999999
 31
0.0
  0
LINE
  5
2F6A
330
BF7
100
AcDbEntity
  8
1
100
AcDbLine
 10
30.40852400000003
 20
1.245557000000001
 30
0.0
 11
30.13586600000002
 21
1.393096000000002
 31
0.0
  0
LINE
  5
2F6B
330
BF7
100
AcDbEntity
  8
1
100
AcDbLine
 10
30.90917099999999
 20
0.980736
 30
0.0
 11
30.40852400000003
 21
1.245557000000001
 31
0.0
  0
LINE
  5
2F6C
330
BF7
100
AcDbEntity
  8
1
100
AcDbLine
 10
31.41233799999998
 20
0.7208679999999994
 30
0.0
 11
30.90917099999999
 21
0.980736
 31
0.0
  0
LINE
  5
2F6D
330
BF7
100
AcDbEntity
  8
1
100
AcDbLine
 10
31.790537
 20
0.5285950000000029
 30
0.0
 11
31.41233799999998
 21
0.7208679999999994
 31
0.0
  0
LINE
  5
2F6E
330
BF7
100
AcDbEntity
  8
1
100
AcDbLine
 10
32.16977800000004
 20
0.3385299999999987
 30
0.0
 11
31.790537
 21
0.5285950000000029
 31
0.0
  0
LINE
  5
2F6F
330
BF7
100
AcDbEntity
  8
1
100
AcDbLine
 10
32.42264500000002
 20
0.2134800000000006
 30
0.0
 11
32.16977800000004
 21
0.3385299999999987
 31
0.0
  0
LINE
  5
2F70
330
BF7
100
AcDbEntity
  8
1
100
AcDbLine
 10
32.67604500000002
 20
0.0895229999999998
 30
0.0
 11
32.42264500000002
 21
0.2134800000000006
 31
0.0
  0
LINE
  5
2F71
330
BF7
100
AcDbEntity
  8
1
100
AcDbLine
 10
32.79493300000002
 20
0.0318229999999993
 30
0.0
 11
32.67604500000002
 21
0.0895229999999998
 31
0.0
  0
LINE
  5
2F72
330
BF7
100
AcDbEntity
  8
1
100
AcDbLine
 10
32.91391800000003
 20
-0.0256369999999997
 30
0.0
 11
32.79493300000002
 21
0.0318229999999993
 31
0.0
  0
LINE
  5
2F73
330
BF7
100
AcDbEntity
  8
1
100
AcDbLine
 10
33.07454300000002
 20
-0.1027549999999984
 30
0.0
 11
32.91391800000003
 21
-0.0256369999999997
 31
0.0
  0
LINE
  5
2F74
330
BF7
100
AcDbEntity
  8
1
100
AcDbLine
 10
33.23538599999999
 20
-0.1794340000000005
 30
0.0
 11
33.07454300000002
 21
-0.1027549999999984
 31
0.0
  0
LINE
  5
2F75
330
BF7
100
AcDbEntity
  8
1
100
AcDbLine
 10
33.47628700000001
 20
-0.2932689999999987
 30
0.0
 11
33.23538599999999
 21
-0.1794340000000005
 31
0.0
  0
LINE
  5
2F76
330
BF7
100
AcDbEntity
  8
1
100
AcDbLine
 10
33.71762400000004
 20
-0.4061069999999988
 30
0.0
 11
33.47628700000001
 21
-0.2932689999999987
 31
0.0
  0
LINE
  5
2F77
330
BF7
100
AcDbEntity
  8
1
100
AcDbLine
 10
34.03984300000002
 20
-0.5548719999999962
 30
0.0
 11
33.71762400000004
 21
-0.4061069999999988
 31
0.0
  0
LINE
  5
2F78
330
BF7
100
AcDbEntity
  8
1
100
AcDbLine
 10
34.36283599999999
 20
-0.7018159999999975
 30
0.0
 11
34.03984300000002
 21
-0.5548719999999962
 31
0.0
  0
LINE
  5
2F79
330
BF7
100
AcDbEntity
  8
1
100
AcDbLine
 10
34.767875
 20
-0.8830039999999961
 30
0.0
 11
34.36283599999999
 21
-0.7018159999999975
 31
0.0
  0
LINE
  5
2F7A
330
BF7
100
AcDbEntity
  8
1
100
AcDbLine
 10
35.174148
 20
-1.061311999999996
 30
0.0
 11
34.767875
 21
-0.8830039999999961
 31
0.0
  0
LINE
  5
2F7B
330
BF7
100
AcDbEntity
  8
1
100
AcDbLine
 10
145.4013569999999
 20
1.252261
 30
0.0
 11
144.881598
 21
1.536622000000004
 31
0.0
  0
LINE
  5
2F7C
330
BF7
100
AcDbEntity
  8
1
100
AcDbLine
 10
145.923927
 20
0.9736200000000041
 30
0.0
 11
145.4013569999999
 21
1.252261
 31
0.0
  0
LINE
  5
2F7D
330
BF7
100
AcDbEntity
  8
1
100
AcDbLine
 10
146.716612
 20
0.5648270000000048
 30
0.0
 11
145.923927
 21
0.9736200000000041
 31
0.0
  0
LINE
  5
2F7E
330
BF7
100
AcDbEntity
  8
1
100
AcDbLine
 10
147.515085
 20
0.1681430000000006
 30
0.0
 11
146.716612
 21
0.5648270000000048
 31
0.0
  0
LINE
  5
2F7F
330
BF7
100
AcDbEntity
  8
1
100
AcDbLine
 10
148.134112
 20
-0.1301369999999977
 30
0.0
 11
147.515085
 21
0.1681430000000006
 31
0.0
  0
LINE
  5
2F80
330
BF7
100
AcDbEntity
  8
1
100
AcDbLine
 10
148.756191
 20
-0.4217489999999984
 30
0.0
 11
148.134112
 21
-0.1301369999999977
 31
0.0
  0
LINE
  5
2F81
330
BF7
100
AcDbEntity
  8
1
100
AcDbLine
 10
99.31301300000001
 20
1.299040000000004
 30
0.0
 11
98.84983900000003
 21
1.552803000000004
 31
0.0
  0
LINE
  5
2F82
330
BF7
100
AcDbEntity
  8
1
100
AcDbLine
 10
99.77853700000004
 20
1.049827000000004
 30
0.0
 11
99.31301300000001
 21
1.299040000000004
 31
0.0
  0
LINE
  5
2F83
330
BF7
100
AcDbEntity
  8
1
100
AcDbLine
 10
100.548839
 20
0.6503210000000053
 30
0.0
 11
99.77853700000004
 21
1.049827000000004
 31
0.0
  0
LINE
  5
2F84
330
BF7
100
AcDbEntity
  8
1
100
AcDbLine
 10
101.324615
 20
0.2618720000000039
 30
0.0
 11
100.548839
 21
0.6503210000000053
 31
0.0
  0
LINE
  5
2F85
330
BF7
100
AcDbEntity
  8
1
100
AcDbLine
 10
102.060302
 20
-0.0957089999999994
 30
0.0
 11
101.324615
 21
0.2618720000000039
 31
0.0
  0
LINE
  5
2F86
330
BF7
100
AcDbEntity
  8
1
100
AcDbLine
 10
102.799961
 20
-0.4442950000000005
 30
0.0
 11
102.060302
 21
-0.0957089999999994
 31
0.0
  0
LINE
  5
2F87
330
BF7
100
AcDbEntity
  8
1
100
AcDbLine
 10
103.499434
 20
-0.7632409999999972
 30
0.0
 11
102.799961
 21
-0.4442950000000005
 31
0.0
  0
LINE
  5
2F88
330
BF7
100
AcDbEntity
  8
1
100
AcDbLine
 10
104.202565
 20
-1.073665999999994
 30
0.0
 11
103.499434
 21
-0.7632409999999972
 31
0.0
  0
LINE
  5
2F89
330
BF7
100
AcDbEntity
  8
1
100
AcDbLine
 10
53.39425699999998
 20
1.255991999999997
 30
0.0
 11
52.874206
 21
1.540569999999999
 31
0.0
  0
LINE
  5
2F8A
330
BF7
100
AcDbEntity
  8
1
100
AcDbLine
 10
53.917214
 20
0.9771360000000015
 30
0.0
 11
53.39425699999998
 21
1.255991999999997
 31
0.0
  0
LINE
  5
2F8B
330
BF7
100
AcDbEntity
  8
1
100
AcDbLine
 10
54.71086699999998
 20
0.5679580000000044
 30
0.0
 11
53.917214
 21
0.9771360000000015
 31
0.0
  0
LINE
  5
2F8C
330
BF7
100
AcDbEntity
  8
1
100
AcDbLine
 10
55.51026099999997
 20
0.1705049999999986
 30
0.0
 11
54.71086699999998
 21
0.5679580000000044
 31
0.0
  0
LINE
  5
2F8D
330
BF7
100
AcDbEntity
  8
1
100
AcDbLine
 10
56.22211200000001
 20
-0.1729419999999955
 30
0.0
 11
55.51026099999997
 21
0.1705049999999986
 31
0.0
  0
LINE
  5
2F8E
330
BF7
100
AcDbEntity
  8
1
100
AcDbLine
 10
56.93769399999999
 20
-0.5079330000000013
 30
0.0
 11
56.22211200000001
 21
-0.1729419999999955
 31
0.0
  0
LINE
  5
2F8F
330
BF7
100
AcDbEntity
  8
1
100
AcDbLine
 10
57.56420600000001
 20
-0.7922969999999943
 30
0.0
 11
56.93769399999999
 21
-0.5079330000000013
 31
0.0
  0
LINE
  5
2F90
330
BF7
100
AcDbEntity
  8
1
100
AcDbLine
 10
58.19369700000001
 20
-1.069804999999997
 30
0.0
 11
57.56420600000001
 21
-0.7922969999999943
 31
0.0
  0
LINE
  5
2F91
330
BF7
100
AcDbEntity
  8
1
100
AcDbLine
 10
21.059506
 20
4.274999000000001
 30
0.0
 11
14.90015600000001
 21
4.274999000000001
 31
0.0
  0
LINE
  5
2F92
330
BF7
100
AcDbEntity
  8
1
100
AcDbLine
 10
67.05955600000002
 20
4.274996000000001
 30
0.0
 11
60.95539900000003
 21
4.274996000000001
 31
0.0
  0
LINE
  5
2F93
330
BF7
100
AcDbEntity
  8
1
100
AcDbLine
 10
113.059897
 20
4.274987000000002
 30
0.0
 11
106.898694
 21
4.274987000000002
 31
0.0
  0
LINE
  5
2F94
330
BF7
100
AcDbEntity
  8
1
100
AcDbLine
 10
132.055031
 20
-4.274998999999994
 30
0.0
 11
136.059631
 21
-4.274998999999994
 31
0.0
  0
LINE
  5
2F95
330
BF7
100
AcDbEntity
  8
1
100
AcDbLine
 10
128.05043
 20
-4.274998999999994
 30
0.0
 11
132.055031
 21
-4.274998999999994
 31
0.0
  0
LINE
  5
2F96
330
BF7
100
AcDbEntity
  8
1
100
AcDbLine
 10
86.05447200000003
 20
-4.274994999999997
 30
0.0
 11
90.05929100000004
 21
-4.274994999999997
 31
0.0
  0
LINE
  5
2F97
330
BF7
100
AcDbEntity
  8
1
100
AcDbLine
 10
82.04965399999997
 20
-4.274994999999997
 30
0.0
 11
86.05447200000003
 21
-4.274994999999997
 31
0.0
  0
LINE
  5
2F98
330
BF7
100
AcDbEntity
  8
1
100
AcDbLine
 10
40.05514900000004
 20
-4.274983999999999
 30
0.0
 11
44.05994299999998
 21
-4.274983999999999
 31
0.0
  0
LINE
  5
2F99
330
BF7
100
AcDbEntity
  8
1
100
AcDbLine
 10
36.05037899999999
 20
-4.274983999999999
 30
0.0
 11
40.05514900000004
 21
-4.274983999999999
 31
0.0
  0
LINE
  5
2F9A
330
BF7
100
AcDbEntity
  8
1
100
AcDbLine
 10
44.05994299999998
 20
4.274984
 30
0.0
 11
37.90307600000004
 21
4.274984
 31
0.0
  0
LINE
  5
2F9B
330
BF7
100
AcDbEntity
  8
1
100
AcDbLine
 10
90.05929100000004
 20
4.274993000000002
 30
0.0
 11
83.88975399999997
 21
4.274993000000002
 31
0.0
  0
LINE
  5
2F9C
330
BF7
100
AcDbEntity
  8
1
100
AcDbLine
 10
136.059631
 20
4.274999000000001
 30
0.0
 11
129.949224
 21
4.274999000000001
 31
0.0
  0
LINE
  5
2F9D
330
BF7
100
AcDbEntity
  8
1
100
AcDbLine
 10
109.055224
 20
-4.274986999999998
 30
0.0
 11
113.059897
 21
-4.274986999999998
 31
0.0
  0
LINE
  5
2F9E
330
BF7
100
AcDbEntity
  8
1
100
AcDbLine
 10
105.050551
 20
-4.274986999999998
 30
0.0
 11
109.055224
 21
-4.274986999999998
 31
0.0
  0
LINE
  5
2F9F
330
BF7
100
AcDbEntity
  8
1
100
AcDbLine
 10
63.05502800000002
 20
-4.274994999999997
 30
0.0
 11
67.05955600000002
 21
-4.274994999999997
 31
0.0
  0
LINE
  5
2FA0
330
BF7
100
AcDbEntity
  8
1
100
AcDbLine
 10
59.05050100000003
 20
-4.274994999999997
 30
0.0
 11
63.05502800000002
 21
-4.274994999999997
 31
0.0
  0
LINE
  5
2FA1
330
BF7
100
AcDbEntity
  8
1
100
AcDbLine
 10
17.05489399999999
 20
-4.274998999999994
 30
0.0
 11
21.059506
 21
-4.274998999999994
 31
0.0
  0
LINE
  5
2FA2
330
BF7
100
AcDbEntity
  8
1
100
AcDbLine
 10
13.05026899999998
 20
-4.274998999999994
 30
0.0
 11
17.05489399999999
 21
-4.274998999999994
 31
0.0
  0
LINE
  5
2FA3
330
BF7
100
AcDbEntity
  8
SK1
100
AcDbLine
 10
-39.99999299999999
 20
-4.374998999999998
 30
0.0
 11
-38.917464
 21
-5.000001000000001
 31
0.0
  0
LINE
  5
2FA4
330
BF7
100
AcDbEntity
  8
SK1
100
AcDbLine
 10
-38.917464
 20
5.000001000000004
 30
0.0
 11
-39.99999299999999
 21
4.374998999999999
 31
0.0
  0
LINE
  5
2FA5
330
BF7
100
AcDbEntity
  8
1
100
AcDbLine
 10
0.4989999999999954
 20
-4.499998999999998
 30
0.0
 11
12.632429
 21
-4.499998999999998
 31
0.0
  0
LINE
  5
2FA6
330
BF7
100
AcDbEntity
  8
1
100
AcDbLine
 10
34.56720899999999
 20
-4.499998999999998
 30
0.0
 11
35.63240500000004
 21
-4.499998999999998
 31
0.0
  0
LINE
  5
2FA7
330
BF7
100
AcDbEntity
  8
1
100
AcDbLine
 10
57.56767000000002
 20
-4.499998999999998
 30
0.0
 11
58.6326
 21
-4.499998999999998
 31
0.0
  0
LINE
  5
2FA8
330
BF7
100
AcDbEntity
  8
1
100
AcDbLine
 10
80.56754900000004
 20
-4.499998999999998
 30
0.0
 11
81.63279399999998
 21
-4.499998999999998
 31
0.0
  0
LINE
  5
2FA9
330
BF7
100
AcDbEntity
  8
1
100
AcDbLine
 10
103.5670169999999
 20
-4.499998999999998
 30
0.0
 11
104.632432
 21
-4.499998999999998
 31
0.0
  0
LINE
  5
2FAA
330
BF7
100
AcDbEntity
  8
1
100
AcDbLine
 10
126.567406
 20
-4.499998999999998
 30
0.0
 11
127.632505
 21
-4.499998999999998
 31
0.0
  0
LINE
  5
2FAB
330
BF7
100
AcDbEntity
  8
1
100
AcDbLine
 10
149.566752
 20
-4.499998999999998
 30
0.0
 11
150.484671
 21
-4.499998999999998
 31
0.0
  0
LINE
  5
2FAC
330
BF7
100
AcDbEntity
  8
1
100
AcDbLine
 10
150.484671
 20
4.500001000000004
 30
0.0
 11
149.566752
 21
4.500001000000004
 31
0.0
  0
LINE
  5
2FAD
330
BF7
100
AcDbEntity
  8
1
100
AcDbLine
 10
127.632505
 20
4.500001000000004
 30
0.0
 11
126.567406
 21
4.500001000000004
 31
0.0
  0
LINE
  5
2FAE
330
BF7
100
AcDbEntity
  8
1
100
AcDbLine
 10
104.632432
 20
4.500001000000004
 30
0.0
 11
103.5670169999999
 21
4.500001000000004
 31
0.0
  0
LINE
  5
2FAF
330
BF7
100
AcDbEntity
  8
1
100
AcDbLine
 10
81.63279399999998
 20
4.500001000000004
 30
0.0
 11
80.56754900000004
 21
4.500001000000004
 31
0.0
  0
LINE
  5
2FB0
330
BF7
100
AcDbEntity
  8
1
100
AcDbLine
 10
58.6326
 20
4.500001000000004
 30
0.0
 11
57.56767000000002
 21
4.500001000000004
 31
0.0
  0
LINE
  5
2FB1
330
BF7
100
AcDbEntity
  8
1
100
AcDbLine
 10
35.63240500000004
 20
4.500001000000004
 30
0.0
 11
34.56720899999999
 21
4.500001000000004
 31
0.0
  0
LINE
  5
2FB2
330
BF7
100
AcDbEntity
  8
1
100
AcDbLine
 10
12.632429
 20
4.500001000000004
 30
0.0
 11
0.4989999999999954
 21
4.500001000000004
 31
0.0
  0
LINE
  5
2FB3
330
BF7
100
AcDbEntity
  8
SK1
100
AcDbLine
 10
0.0
 20
5.000001000000004
 30
0.0
 11
-38.917464
 21
5.000001000000004
 31
0.0
  0
LINE
  5
2FB4
330
BF7
100
AcDbEntity
  8
SK1
100
AcDbLine
 10
-38.917464
 20
-5.000001000000001
 30
0.0
 11
0.0
 21
-5.000001000000001
 31
0.0
  0
LINE
  5
2FB9
330
BF7
100
AcDbEntity
  8
1
100
AcDbLine
 10
0.0000000259120583
 20
4.999000999999998
 30
0.0
 11
0.0000000259120583
 21
-4.998999999999997
 31
0.0
  0
DIMENSION
  5
2FBA
330
BF7
100
AcDbEntity
  8
SK2
100
AcDbDimension
  2
*D2
 10
-39.99999299999999
 20
-51.95529533658707
 30
0.0
 11
55.99998400000001
 21
-48.15529533658708
 31
0.0
 70
    32
 71
     5
 42
191.999954
  3
SANDVIK_DIM
100
AcDbAlignedDimension
 13
151.999961
 23
-0.0018209999999979
 33
0.0
 14
-39.99999299999999
 24
-4.374998999999998
 34
0.0
100
AcDbRotatedDimension
1001
ACAD
1000
DSTYLE
1002
{
1070
    40
1040
1.0
1002
}
  0
DIMENSION
  5
2FC7
330
BF7
100
AcDbEntity
  8
2
100
AcDbDimension
  2
*D3
 10
-0.0000000000000021
 20
-39.12211874528594
 30
0.0
 11
75.99955699999998
 21
-35.32211874528594
 31
0.0
 70
    32
 71
     5
 42
151.999114
  3
SANDVIK_DIM
100
AcDbAlignedDimension
 13
151.999114
 23
0.0223010000000024
 33
0.0
 14
0.0
 24
-5.000001000000001
 34
0.0
100
AcDbRotatedDimension
1001
ACAD
1000
DSTYLE
1002
{
1070
    40
1040
1.0
1002
}
  0
DIMENSION
  5
2FD4
330
BF7
100
AcDbEntity
  8
SK2
100
AcDbDimension
  2
*D4
 10
-39.99999299999999
 20
-39.47011099626536
 30
0.0
 11
-19.99999649999999
 21
-34.82538707026129
 31
0.0
 70
   160
 71
     5
 42
39.99999299999999
  3
SANDVIK_DIM
100
AcDbAlignedDimension
 13
0.0
 23
-9.201135564908193
 33
0.0
 14
-39.99999299999999
 24
-11.27323356490819
 34
0.0
100
AcDbRotatedDimension
1001
ACAD
1000
DSTYLE
1002
{
1070
    40
1040
1.0
1002
}
  0
DIMENSION
  5
3010
330
BF7
100
AcDbEntity
  8
2
100
AcDbDimension
  2
*D5
 10
151.97489
 20
-23.49281745308832
 30
0.0
 11
78.97389850000002
 21
-19.69281745308832
 31
0.0
 70
    32
 71
     5
 42
146.001983
  3
SANDVIK_DIM
100
AcDbAlignedDimension
 13
5.972907000000011
 23
3.544512
 33
0.0
 14
151.97489
 24
-0.0259429999999981
 34
0.0
100
AcDbRotatedDimension
1001
ACAD
1000
DSTYLE
1002
{
1070
    40
1040
1.0
1002
}
  0
DIMENSION
  5
3026
330
BF7
100
AcDbEntity
  8
SK2
100
AcDbDimension
  2
*D6
 10
42.63374199999996
 20
11.27928930484614
 30
0.0
 11
96.63374199999999
 21
15.07928930484614
 31
0.0
 70
    32
 71
     5
 42
108.0
  3
SANDVIK_DIM
100
AcDbAlignedDimension
 13
150.633742
 23
4.452325999999998
 33
0.0
 14
42.63374199999996
 24
4.452325999999998
 34
0.0
100
AcDbRotatedDimension
1001
ACAD
1000
DSTYLE
1002
{
1070
    40
1040
1.0
1002
}
  0
DIMENSION
  5
3033
330
BF7
100
AcDbEntity
  8
2
100
AcDbDimension
  2
*D7
 10
159.3844795927721
 20
4.500001000000001
 30
0.0
 11
159.5845637122212
 21
-18.51883132695622
 31
0.0
 70
   160
  1
%%C <>
 71
     5
 42
8.997843000000003
  3
SANDVIK_DIM
100
AcDbAlignedDimension
 13
150.464251
 23
-4.497841999999998
 33
0.0
 14
150.484671
 24
4.500001000000004
 34
0.0
 50
90.0
100
AcDbRotatedDimension
1001
ACAD
1000
DSTYLE
1002
{
1070
    40
1040
1.0
1002
}
  0
DIMENSION
  5
3055
330
BF7
100
AcDbEntity
  8
SK2
100
AcDbDimension
  2
*D8
 10
-43.06805955568984
 20
5.000001000000004
 30
0.0
 11
-43.24912014856511
 21
-22.0117687895056
 31
0.0
 70
   160
  1
%%C <>
 71
     5
 42
10.000002
  3
SANDVIK_DIM
100
AcDbAlignedDimension
 13
-38.917464
 23
-5.000001000000001
 33
0.0
 14
-38.917464
 24
5.000001000000004
 34
0.0
 50
90.0
100
AcDbRotatedDimension
1001
ACAD
1000
DSTYLE
1002
{
1070
    40
1040
1.0
1002
}
  0
LINE
  5
30F3
330
BF7
100
AcDbEntity
  8
SK4
100
AcDbLine
 10
164.4094412349491
 20
0.0000000000000018
 30
0.0
 11
-55.53233431078036
 21
0.0000000000000086
 31
0.0
  0
ENDSEC
  0
SECTION
  2
OBJECTS
  0
DICTIONARY
  5
BE3
330
0
100
AcDbDictionary
281
     1
  3
ACAD_CIP_PREVIOUS_PRODUCT_INFO
350
3145
  3
ACAD_COLOR
350
BF2
  3
ACAD_DETAILVIEWSTYLE
350
3142
  3
ACAD_GROUP
350
BE4
  3
ACAD_LAYOUT
350
BF0
  3
ACAD_MATERIAL
350
BF1
  3
ACAD_MLEADERSTYLE
350
313D
  3
ACAD_MLINESTYLE
350
BED
  3
ACAD_PLOTSETTINGS
350
BEF
  3
ACAD_PLOTSTYLENAME
350
BE5
  3
ACAD_SCALELIST
350
312B
  3
ACAD_SECTIONVIEWSTYLE
350
313F
  3
ACAD_TABLESTYLE
350
3129
  3
ACAD_VISUALSTYLE
350
3110
  3
ACDB_RECOMPOSE_DATA
350
31A7
  3
AcDbVariableDictionary
350
319A
  3
ASE_INDEX_DICTIONARY
350
3197
  3
DWGPROPS
350
31A8
  0
DICTIONARY
  5
3148
330
BE7
100
AcDbDictionary
280
     1
281
     1
  3
ADSK_XREC_LAYER_RECONCILED
360
3149
  0
DICTIONARY
  5
314A
330
BFB
100
AcDbDictionary
280
     1
281
     1
  3
ADSK_XREC_LAYER_RECONCILED
360
314B
  0
DICTIONARY
  5
314C
330
C00
100
AcDbDictionary
280
     1
281
     1
  3
ADSK_XREC_LAYER_RECONCILED
360
314D
  0
DICTIONARY
  5
314E
330
C01
100
AcDbDictionary
280
     1
281
     1
  3
ADSK_XREC_LAYER_RECONCILED
360
314F
  0
DICTIONARY
  5
3150
330
C02
100
AcDbDictionary
280
     1
281
     1
  3
ADSK_XREC_LAYER_RECONCILED
360
3151
  0
DICTIONARY
  5
3152
330
C03
100
AcDbDictionary
280
     1
281
     1
  3
ADSK_XREC_LAYER_RECONCILED
360
3153
  0
DICTIONARY
  5
3154
330
C04
100
AcDbDictionary
280
     1
281
     1
  3
ADSK_XREC_LAYER_RECONCILED
360
3155
  0
DICTIONARY
  5
3156
330
C05
100
AcDbDictionary
280
     1
281
     1
  3
ADSK_XREC_LAYER_RECONCILED
360
3157
  0
DICTIONARY
  5
3158
330
C06
100
AcDbDictionary
280
     1
281
     1
  3
ADSK_XREC_LAYER_RECONCILED
360
3159
  0
DICTIONARY
  5
315A
330
C07
100
AcDbDictionary
280
     1
281
     1
  3
ADSK_XREC_LAYER_RECONCILED
360
315B
  0
DICTIONARY
  5
315C
330
C08
100
AcDbDictionary
280
     1
281
     1
  3
ADSK_XREC_LAYER_RECONCILED
360
315D
  0
DICTIONARY
  5
315E
330
C09
100
AcDbDictionary
280
     1
281
     1
  3
ADSK_XREC_LAYER_RECONCILED
360
315F
  0
DICTIONARY
  5
3160
330
C0A
100
AcDbDictionary
280
     1
281
     1
  3
ADSK_XREC_LAYER_RECONCILED
360
3161
  0
DICTIONARY
  5
3162
330
C0B
100
AcDbDictionary
280
     1
281
     1
  3
ADSK_XREC_LAYER_RECONCILED
360
3163
  0
DICTIONARY
  5
3164
330
C0C
100
AcDbDictionary
280
     1
281
     1
  3
ADSK_XREC_LAYER_RECONCILED
360
3165
  0
DICTIONARY
  5
3166
330
C0D
100
AcDbDictionary
280
     1
281
     1
  3
ADSK_XREC_LAYER_RECONCILED
360
3167
  0
DICTIONARY
  5
3168
330
C0E
100
AcDbDictionary
280
     1
281
     1
  3
ADSK_XREC_LAYER_RECONCILED
360
3169
  0
DICTIONARY
  5
316A
330
C0F
100
AcDbDictionary
280
     1
281
     1
  3
ADSK_XREC_LAYER_RECONCILED
360
316B
  0
DICTIONARY
  5
316C
330
C10
100
AcDbDictionary
280
     1
281
     1
  3
ADSK_XREC_LAYER_RECONCILED
360
316D
  0
DICTIONARY
  5
316E
330
C11
100
AcDbDictionary
280
     1
281
     1
  3
ADSK_XREC_LAYER_RECONCILED
360
316F
  0
DICTIONARY
  5
3170
330
C12
100
AcDbDictionary
280
     1
281
     1
  3
ADSK_XREC_LAYER_RECONCILED
360
3171
  0
DICTIONARY
  5
3172
330
C13
100
AcDbDictionary
280
     1
281
     1
  3
ADSK_XREC_LAYER_RECONCILED
360
3173
  0
DICTIONARY
  5
3174
330
C14
100
AcDbDictionary
280
     1
281
     1
  3
ADSK_XREC_LAYER_RECONCILED
360
3175
  0
DICTIONARY
  5
3176
330
C15
100
AcDbDictionary
280
     1
281
     1
  3
ADSK_XREC_LAYER_RECONCILED
360
3177
  0
DICTIONARY
  5
3178
330
C16
100
AcDbDictionary
280
     1
281
     1
  3
ADSK_XREC_LAYER_RECONCILED
360
3179
  0
DICTIONARY
  5
317A
330
C17
100
AcDbDictionary
280
     1
281
     1
  3
ADSK_XREC_LAYER_RECONCILED
360
317B
  0
DICTIONARY
  5
317C
330
C18
100
AcDbDictionary
280
     1
281
     1
  3
ADSK_XREC_LAYER_RECONCILED
360
317D
  0
DICTIONARY
  5
317E
330
C19
100
AcDbDictionary
280
     1
281
     1
  3
ADSK_XREC_LAYER_RECONCILED
360
317F
  0
DICTIONARY
  5
3180
330
C1A
100
AcDbDictionary
280
     1
281
     1
  3
ADSK_XREC_LAYER_RECONCILED
360
3181
  0
DICTIONARY
  5
3182
330
C1B
100
AcDbDictionary
280
     1
281
     1
  3
ADSK_XREC_LAYER_RECONCILED
360
3183
  0
DICTIONARY
  5
3184
330
C1C
100
AcDbDictionary
280
     1
281
     1
  3
ADSK_XREC_LAYER_RECONCILED
360
3185
  0
DICTIONARY
  5
3186
330
C1D
100
AcDbDictionary
280
     1
281
     1
  3
ADSK_XREC_LAYER_RECONCILED
360
3187
  0
DICTIONARY
  5
3188
330
C1E
100
AcDbDictionary
280
     1
281
     1
  3
ADSK_XREC_LAYER_RECONCILED
360
3189
  0
DICTIONARY
  5
318A
330
C1F
100
AcDbDictionary
280
     1
281
     1
  3
ADSK_XREC_LAYER_RECONCILED
360
318B
  0
DICTIONARY
  5
318C
330
C20
100
AcDbDictionary
280
     1
281
     1
  3
ADSK_XREC_LAYER_RECONCILED
360
318D
  0
DICTIONARY
  5
318E
330
C21
100
AcDbDictionary
280
     1
281
     1
  3
ADSK_XREC_LAYER_RECONCILED
360
318F
  0
DICTIONARY
  5
3190
330
C22
100
AcDbDictionary
280
     1
281
     1
  3
ADSK_XREC_LAYER_RECONCILED
360
3191
  0
DICTIONARY
  5
3192
330
C23
100
AcDbDictionary
280
     1
281
     1
  3
ADSK_XREC_LAYER_RECONCILED
360
3193
  0
DICTIONARY
  5
3194
330
C42
100
AcDbDictionary
280
     1
281
     1
  3
ADSK_XREC_LAYER_RECONCILED
360
3195
  0
XRECORD
  5
3145
102
{ACAD_REACTORS
330
BE3
102
}
330
BE3
100
AcDbXrecord
280
     1
300
AMECH_PP
300
2013
300
PDSU_F_S
  0
DICTIONARY
  5
BF2
102
{ACAD_REACTORS
330
BE3
102
}
330
BE3
100
AcDbDictionary
281
     1
  0
DICTIONARY
  5
3142
102
{ACAD_REACTORS
330
BE3
102
}
330
BE3
100
AcDbDictionary
281
     1
  3
Imperial24
350
3143
  0
DICTIONARY
  5
BE4
102
{ACAD_REACTORS
330
BE3
102
}
330
BE3
100
AcDbDictionary
281
     1
  0
DICTIONARY
  5
BF0
102
{ACAD_REACTORS
330
BE3
102
}
330
BE3
100
AcDbDictionary
281
     1
  3
Layout1
350
BF6
  3
Model
350
BFA
  0
DICTIONARY
  5
BF1
102
{ACAD_REACTORS
330
BE3
102
}
330
BE3
100
AcDbDictionary
281
     1
  3
ByBlock
350
3100
  3
ByLayer
350
30F8
  3
Global
350
3108
  0
DICTIONARY
  5
313D
102
{ACAD_REACTORS
330
BE3
102
}
330
BE3
100
AcDbDictionary
281
     1
  3
Standard
350
313E
  0
DICTIONARY
  5
BED
102
{ACAD_REACTORS
330
BE3
102
}
330
BE3
100
AcDbDictionary
281
     1
  3
Standard
350
BEE
  0
DICTIONARY
  5
BEF
102
{ACAD_REACTORS
330
BE3
102
}
330
BE3
100
AcDbDictionary
281
     1
  0
ACDBDICTIONARYWDFLT
  5
BE5
102
{ACAD_REACTORS
330
BE3
102
}
330
BE3
100
AcDbDictionary
281
     1
  3
Normal
350
BE6
100
AcDbDictionaryWithDefault
340
BE6
  0
DICTIONARY
  5
312B
102
{ACAD_REACTORS
330
BE3
102
}
330
BE3
100
AcDbDictionary
281
     1
  3
A0
350
312C
  3
A1
350
312D
  3
A2
350
312E
  3
A3
350
312F
  3
A4
350
3130
  3
A5
350
3131
  3
A6
350
3132
  3
A7
350
3133
  3
A8
350
3134
  3
A9
350
3135
  3
B0
350
3136
  3
B1
350
3137
  3
B2
350
3138
  3
B3
350
3139
  3
B4
350
313A
  3
B5
350
313B
  3
B6
350
313C
  0
DICTIONARY
  5
313F
102
{ACAD_REACTORS
330
BE3
102
}
330
BE3
100
AcDbDictionary
281
     1
  3
Imperial24
350
3141
  0
DICTIONARY
  5
3129
102
{ACAD_REACTORS
330
BE3
102
}
330
BE3
100
AcDbDictionary
281
     1
  3
Standard
350
312A
  0
DICTIONARY
  5
3110
102
{ACAD_REACTORS
330
BE3
102
}
330
BE3
100
AcDbDictionary
281
     1
  3
2dWireframe
350
3116
  3
Basic
350
3115
  3
Brighten
350
311C
  3
ColorChange
350
3120
  3
Conceptual
350
3119
  3
Dim
350
311B
  3
EdgeColorOff
350
3128
  3
Facepattern
350
311F
  3
Flat
350
3111
  3
FlatWithEdges
350
3112
  3
Gouraud
350
3113
  3
GouraudWithEdges
350
3114
  3
Hidden
350
3118
  3
JitterOff
350
3126
  3
Linepattern
350
311E
  3
OverhangOff
350
3127
  3
Realistic
350
311A
  3
Shaded
350
3125
  3
Shaded with edges
350
3124
  3
Shades of Gray
350
3121
  3
Sketchy
350
3122
  3
Thicken
350
311D
  3
Wireframe
350
3117
  3
X-Ray
350
3123
  0
XRECORD
  5
31A7
102
{ACAD_REACTORS
330
BE3
102
}
330
BE3
100
AcDbXrecord
280
     1
 90
        1
330
312A
  0
DICTIONARY
  5
319A
102
{ACAD_REACTORS
330
BE3
102
}
330
BE3
100
AcDbDictionary
281
     1
  3
CANNOSCALE
350
319F
  3
CMLEADERSTYLE
350
319C
  3
CTABLESTYLE
350
319B
  3
CVIEWDETAILSTYLE
350
319D
  3
CVIEWSECTIONSTYLE
350
319E
  3
DIMASSOC
350
31A3
  3
INDEXCTL
350
31A1
  3
SORTENTS
350
31A0
  3
XCLIPFRAME
350
31A2
  0
DICTIONARY
  5
3197
102
{ACAD_REACTORS
330
BE3
102
}
330
BE3
100
AcDbDictionary
281
     1
  3
ASEBlockHierarchyIndexRecord
350
3199
1001
DCO15
1040
1815724010.143
  0
XRECORD
  5
31A8
102
{ACAD_REACTORS
330
BE3
102
}
330
BE3
100
AcDbXrecord
280
     1
  1
DWGPROPS COOKIE
  2

  3

  4

  6

  7

  8
Micke
  9

300
=
301
=
302
=
303
=
304
=
305
=
306
=
307
=
308
=
309
=
 40
0.1114787847222222
 41
2455817.64629206
 42
2456818.536043322
  1

 90
        0
  0
XRECORD
  5
3149
102
{ACAD_REACTORS
330
3148
102
}
330
3148
100
AcDbXrecord
280
     1
290
     1
  0
XRECORD
  5
314B
102
{ACAD_REACTORS
330
314A
102
}
330
314A
100
AcDbXrecord
280
     1
290
     1
  0
XRECORD
  5
314D
102
{ACAD_REACTORS
330
314C
102
}
330
314C
100
AcDbXrecord
280
     1
290
     1
  0
XRECORD
  5
314F
102
{ACAD_REACTORS
330
314E
102
}
330
314E
100
AcDbXrecord
280
     1
290
     1
  0
XRECORD
  5
3151
102
{ACAD_REACTORS
330
3150
102
}
330
3150
100
AcDbXrecord
280
     1
290
     1
  0
XRECORD
  5
3153
102
{ACAD_REACTORS
330
3152
102
}
330
3152
100
AcDbXrecord
280
     1
290
     1
  0
XRECORD
  5
3155
102
{ACAD_REACTORS
330
3154
102
}
330
3154
100
AcDbXrecord
280
     1
290
     1
  0
XRECORD
  5
3157
102
{ACAD_REACTORS
330
3156
102
}
330
3156
100
AcDbXrecord
280
     1
290
     1
  0
XRECORD
  5
3159
102
{ACAD_REACTORS
330
3158
102
}
330
3158
100
AcDbXrecord
280
     1
290
     1
  0
XRECORD
  5
315B
102
{ACAD_REACTORS
330
315A
102
}
330
315A
100
AcDbXrecord
280
     1
290
     1
  0
XRECORD
  5
315D
102
{ACAD_REACTORS
330
315C
102
}
330
315C
100
AcDbXrecord
280
     1
290
     1
  0
XRECORD
  5
315F
102
{ACAD_REACTORS
330
315E
102
}
330
315E
100
AcDbXrecord
280
     1
290
     1
  0
XRECORD
  5
3161
102
{ACAD_REACTORS
330
3160
102
}
330
3160
100
AcDbXrecord
280
     1
290
     1
  0
XRECORD
  5
3163
102
{ACAD_REACTORS
330
3162
102
}
330
3162
100
AcDbXrecord
280
     1
290
     1
  0
XRECORD
  5
3165
102
{ACAD_REACTORS
330
3164
102
}
330
3164
100
AcDbXrecord
280
     1
290
     1
  0
XRECORD
  5
3167
102
{ACAD_REACTORS
330
3166
102
}
330
3166
100
AcDbXrecord
280
     1
290
     1
  0
XRECORD
  5
3169
102
{ACAD_REACTORS
330
3168
102
}
330
3168
100
AcDbXrecord
280
     1
290
     1
  0
XRECORD
  5
316B
102
{ACAD_REACTORS
330
316A
102
}
330
316A
100
AcDbXrecord
280
     1
290
     1
  0
XRECORD
  5
316D
102
{ACAD_REACTORS
330
316C
102
}
330
316C
100
AcDbXrecord
280
     1
290
     1
  0
XRECORD
  5
316F
102
{ACAD_REACTORS
330
316E
102
}
330
316E
100
AcDbXrecord
280
     1
290
     1
  0
XRECORD
  5
3171
102
{ACAD_REACTORS
330
3170
102
}
330
3170
100
AcDbXrecord
280
     1
290
     1
  0
XRECORD
  5
3173
102
{ACAD_REACTORS
330
3172
102
}
330
3172
100
AcDbXrecord
280
     1
290
     1
  0
XRECORD
  5
3175
102
{ACAD_REACTORS
330
3174
102
}
330
3174
100
AcDbXrecord
280
     1
290
     1
  0
XRECORD
  5
3177
102
{ACAD_REACTORS
330
3176
102
}
330
3176
100
AcDbXrecord
280
     1
290
     1
  0
XRECORD
  5
3179
102
{ACAD_REACTORS
330
3178
102
}
330
3178
100
AcDbXrecord
280
     1
290
     1
  0
XRECORD
  5
317B
102
{ACAD_REACTORS
330
317A
102
}
330
317A
100
AcDbXrecord
280
     1
290
     1
  0
XRECORD
  5
317D
102
{ACAD_REACTORS
330
317C
102
}
330
317C
100
AcDbXrecord
280
     1
290
     1
  0
XRECORD
  5
317F
102
{ACAD_REACTORS
330
317E
102
}
330
317E
100
AcDbXrecord
280
     1
290
     1
  0
XRECORD
  5
3181
102
{ACAD_REACTORS
330
3180
102
}
330
3180
100
AcDbXrecord
280
     1
290
     1
  0
XRECORD
  5
3183
102
{ACAD_REACTORS
330
3182
102
}
330
3182
100
AcDbXrecord
280
     1
290
     1
  0
XRECORD
  5
3185
102
{ACAD_REACTORS
330
3184
102
}
330
3184
100
AcDbXrecord
280
     1
290
     1
  0
XRECORD
  5
3187
102
{ACAD_REACTORS
330
3186
102
}
330
3186
100
AcDbXrecord
280
     1
290
     1
  0
XRECORD
  5
3189
102
{ACAD_REACTORS
330
3188
102
}
330
3188
100
AcDbXrecord
280
     1
290
     1
  0
XRECORD
  5
318B
102
{ACAD_REACTORS
330
318A
102
}
330
318A
100
AcDbXrecord
280
     1
290
     1
  0
XRECORD
  5
318D
102
{ACAD_REACTORS
330
318C
102
}
330
318C
100
AcDbXrecord
280
     1
290
     1
  0
XRECORD
  5
318F
102
{ACAD_REACTORS
330
318E
102
}
330
318E
100
AcDbXrecord
280
     1
290
     1
  0
XRECORD
  5
3191
102
{ACAD_REACTORS
330
3190
102
}
330
3190
100
AcDbXrecord
280
     1
290
     1
  0
XRECORD
  5
3193
102
{ACAD_REACTORS
330
3192
102
}
330
3192
100
AcDbXrecord
280
     1
290
     1
  0
XRECORD
  5
3195
102
{ACAD_REACTORS
330
3194
102
}
330
3194
100
AcDbXrecord
280
     1
290
     1
  0
ACDBDETAILVIEWSTYLE
  5
3143
102
{ACAD_REACTORS
330
3142
102
}
330
3142
100
AcDbModelDocViewStyle
 70
     0
  3
Imperial24
290
     0
100
AcDbDetailViewStyle
 70
     0
 71
     0
 90
        3
 71
     1
340
BE8
 40
0.24
340
0
 40
0.24
300

 40
0.36
280
     3
 71
     2
340
BEC
 90
       25
 71
     3
340
BE8
 40
0.24
 90
        1
 40
0.75
 90
        1
300
%<\AcVar ViewType \f "%tc1">% %<\AcVar ViewDetailId>%\PSCALE %<\AcVar ViewScale \f "%sn">%
 71
     4
340
BEC
 90
       25
340
BEC
 90
       25
280
     0
  0
LAYOUT
  5
BF6
102
{ACAD_XDICTIONARY
360
31A9
102
}
102
{ACAD_REACTORS
330
BF0
102
}
330
BF0
100
AcDbPlotSettings
  1

  2
\\GBCFS501\GBCPR502
  4

  6

 40
0.0
 41
0.0
 42
0.0
 43
0.0
 44
0.0
 45
0.0
 46
0.0
 47
0.0
 48
0.0
 49
0.0
140
0.0
141
0.0
142
1.0
143
1.0
 70
   688
 72
     0
 73
     0
 74
     5
  7

 75
    16
147
1.0
148
0.0
149
0.0
100
AcDbLayout
  1
Layout1
 70
     1
 71
     1
 10
0.0
 20
0.0
 11
12.0
 21
9.0
 12
0.0
 22
0.0
 32
0.0
 14
1.000000000000000E+20
 24
1.000000000000000E+20
 34
1.000000000000000E+20
 15
-1.000000000000000E+20
 25
-1.000000000000000E+20
 35
-1.000000000000000E+20
146
0.0
 13
0.0
 23
0.0
 33
0.0
 16
1.0
 26
0.0
 36
0.0
 17
0.0
 27
1.0
 37
0.0
 76
     0
330
BF3
  0
LAYOUT
  5
BFA
102
{ACAD_XDICTIONARY
360
31AB
102
}
102
{ACAD_REACTORS
330
BF0
102
}
330
BF0
100
AcDbPlotSettings
  1

  2
\\GBCFS501\GBCPR502
  4

  6

 40
0.0
 41
0.0
 42
0.0
 43
0.0
 44
0.0
 45
0.0
 46
0.0
 47
0.0
 48
0.0
 49
0.0
140
0.0
141
0.0
142
1.0
143
1.0
 70
  1712
 72
     0
 73
     0
 74
     0
  7

 75
     0
147
1.0
148
0.0
149
0.0
100
AcDbLayout
  1
Model
 70
     1
 71
     0
 10
0.0
 20
0.0
 11
12.0
 21
9.0
 12
0.0
 22
0.0
 32
0.0
 14
0.0
 24
0.0
 34
0.0
 15
0.0
 25
0.0
 35
0.0
146
0.0
 13
0.0
 23
0.0
 33
0.0
 16
1.0
 26
0.0
 36
0.0
 17
0.0
 27
1.0
 37
0.0
 76
     0
330
BF7
331
30F4
  0
MATERIAL
  5
3100
102
{ACAD_XDICTIONARY
360
3101
102
}
102
{ACAD_REACTORS
330
BF1
102
}
330
BF1
100
AcDbMaterial
  1
ByBlock
 72
     0
 43
0.0208333333333333
 43
0.0
 43
0.0
 43
0.0
 43
0.0
 43
0.0208333333333333
 43
0.0
 43
0.0
 43
0.0
 43
0.0
 43
1.0
 43
0.0
 43
0.0
 43
0.0
 43
0.0
 43
1.0
 77
     0
 47
0.0208333333333333
 47
0.0
 47
0.0
 47
0.0
 47
0.0
 47
0.0208333333333333
 47
0.0
 47
0.0
 47
0.0
 47
0.0
 47
1.0
 47
0.0
 47
0.0
 47
0.0
 47
0.0
 47
1.0
171
     0
 49
0.0208333333333333
 49
0.0
 49
0.0
 49
0.0
 49
0.0
 49
0.0208333333333333
 49
0.0
 49
0.0
 49
0.0
 49
0.0
 49
1.0
 49
0.0
 49
0.0
 49
0.0
 49
0.0
 49
1.0
175
     0
142
0.0208333333333333
142
0.0
142
0.0
142
0.0
142
0.0
142
0.0208333333333333
142
0.0
142
0.0
142
0.0
142
0.0
142
1.0
142
0.0
142
0.0
142
0.0
142
0.0
142
1.0
179
     0
144
0.0208333333333333
144
0.0
144
0.0
144
0.0
144
0.0
144
0.0208333333333333
144
0.0
144
0.0
144
0.0
144
0.0
144
1.0
144
0.0
144
0.0
144
0.0
144
0.0
144
1.0
147
0.0208333333333333
147
0.0
147
0.0
147
0.0
147
0.0
147
0.0208333333333333
147
0.0
147
0.0
147
0.0
147
0.0
147
1.0
147
0.0
147
0.0
147
0.0
147
0.0
147
1.0
  0
MATERIAL
  5
30F8
102
{ACAD_XDICTIONARY
360
30F9
102
}
102
{ACAD_REACTORS
330
BF1
102
}
330
BF1
100
AcDbMaterial
  1
ByLayer
 72
     0
 43
0.0208333333333333
 43
0.0
 43
0.0
 43
0.0
 43
0.0
 43
0.0208333333333333
 43
0.0
 43
0.0
 43
0.0
 43
0.0
 43
1.0
 43
0.0
 43
0.0
 43
0.0
 43
0.0
 43
1.0
 77
     0
 47
0.0208333333333333
 47
0.0
 47
0.0
 47
0.0
 47
0.0
 47
0.0208333333333333
 47
0.0
 47
0.0
 47
0.0
 47
0.0
 47
1.0
 47
0.0
 47
0.0
 47
0.0
 47
0.0
 47
1.0
171
     0
 49
0.0208333333333333
 49
0.0
 49
0.0
 49
0.0
 49
0.0
 49
0.0208333333333333
 49
0.0
 49
0.0
 49
0.0
 49
0.0
 49
1.0
 49
0.0
 49
0.0
 49
0.0
 49
0.0
 49
1.0
175
     0
142
0.0208333333333333
142
0.0
142
0.0
142
0.0
142
0.0
142
0.0208333333333333
142
0.0
142
0.0
142
0.0
142
0.0
142
1.0
142
0.0
142
0.0
142
0.0
142
0.0
142
1.0
179
     0
144
0.0208333333333333
144
0.0
144
0.0
144
0.0
144
0.0
144
0.0208333333333333
144
0.0
144
0.0
144
0.0
144
0.0
144
1.0
144
0.0
144
0.0
144
0.0
144
0.0
144
1.0
147
0.0208333333333333
147
0.0
147
0.0
147
0.0
147
0.0
147
0.0208333333333333
147
0.0
147
0.0
147
0.0
147
0.0
147
1.0
147
0.0
147
0.0
147
0.0
147
0.0
147
1.0
  0
MATERIAL
  5
3108
102
{ACAD_XDICTIONARY
360
3109
102
}
102
{ACAD_REACTORS
330
BF1
102
}
330
BF1
100
AcDbMaterial
  1
Global
 72
     0
 43
0.0208333333333333
 43
0.0
 43
0.0
 43
0.0
 43
0.0
 43
0.0208333333333333
 43
0.0
 43
0.0
 43
0.0
 43
0.0
 43
1.0
 43
0.0
 43
0.0
 43
0.0
 43
0.0
 43
1.0
 77
     0
 47
0.0208333333333333
 47
0.0
 47
0.0
 47
0.0
 47
0.0
 47
0.0208333333333333
 47
0.0
 47
0.0
 47
0.0
 47
0.0
 47
1.0
 47
0.0
 47
0.0
 47
0.0
 47
0.0
 47
1.0
171
     0
 49
0.0208333333333333
 49
0.0
 49
0.0
 49
0.0
 49
0.0
 49
0.0208333333333333
 49
0.0
 49
0.0
 49
0.0
 49
0.0
 49
1.0
 49
0.0
 49
0.0
 49
0.0
 49
0.0
 49
1.0
175
     0
142
0.0208333333333333
142
0.0
142
0.0
142
0.0
142
0.0
142
0.0208333333333333
142
0.0
142
0.0
142
0.0
142
0.0
142
1.0
142
0.0
142
0.0
142
0.0
142
0.0
142
1.0
179
     0
144
0.0208333333333333
144
0.0
144
0.0
144
0.0
144
0.0
144
0.0208333333333333
144
0.0
144
0.0
144
0.0
144
0.0
144
1.0
144
0.0
144
0.0
144
0.0
144
0.0
144
1.0
147
0.0208333333333333
147
0.0
147
0.0
147
0.0
147
0.0
147
0.0208333333333333
147
0.0
147
0.0
147
0.0
147
0.0
147
1.0
147
0.0
147
0.0
147
0.0
147
0.0
147
1.0
  0
MLEADERSTYLE
  5
313E
102
{ACAD_REACTORS
330
313D
102
}
330
313D
100
AcDbMLeaderStyle
170
     2
171
     1
172
     0
 90
        2
 40
0.0
 41
0.0
173
     1
 91
-1056964608
340
BEA
 92
       -2
290
     1
 42
0.09
291
     1
 43
0.36
  3
Standard
 44
0.18
300

342
BE8
174
     1
178
     6
175
     1
176
     0
 93
-1056964608
 45
0.18
292
     0
297
     0
 46
0.18
 94
-1056964608
 47
1.0
 49
1.0
140
1.0
293
     1
141
0.0
294
     1
177
     0
142
1.0
295
     0
296
     0
143
0.125
1001
ACAD_MLEADERVER
1070
     2
  0
MLINESTYLE
  5
BEE
102
{ACAD_REACTORS
330
BED
102
}
330
BED
100
AcDbMlineStyle
  2
STANDARD
 70
     0
  3

 62
   256
 51
90.0
 52
90.0
 71
     2
 49
0.5
 62
   256
  6
BYLAYER
 49
-0.5
 62
   256
  6
BYLAYER
  0
ACDBPLACEHOLDER
  5
BE6
102
{ACAD_REACTORS
330
BE5
102
}
330
BE5
  0
SCALE
  5
312C
102
{ACAD_REACTORS
330
312B
102
}
330
312B
100
AcDbScale
 70
     0
300
1:1
140
1.0
141
1.0
290
     1
  0
SCALE
  5
312D
102
{ACAD_REACTORS
330
312B
102
}
330
312B
100
AcDbScale
 70
     0
300
1/128" = 1'-0"
140
0.0078125
141
12.0
290
     0
  0
SCALE
  5
312E
102
{ACAD_REACTORS
330
312B
102
}
330
312B
100
AcDbScale
 70
     0
300
1/64" = 1'-0"
140
0.015625
141
12.0
290
     0
  0
SCALE
  5
312F
102
{ACAD_REACTORS
330
312B
102
}
330
312B
100
AcDbScale
 70
     0
300
1/32" = 1'-0"
140
0.03125
141
12.0
290
     0
  0
SCALE
  5
3130
102
{ACAD_REACTORS
330
312B
102
}
330
312B
100
AcDbScale
 70
     0
300
1/16" = 1'-0"
140
0.0625
141
12.0
290
     0
  0
SCALE
  5
3131
102
{ACAD_REACTORS
330
312B
102
}
330
312B
100
AcDbScale
 70
     0
300
3/32" = 1'-0"
140
0.09375
141
12.0
290
     0
  0
SCALE
  5
3132
102
{ACAD_REACTORS
330
312B
102
}
330
312B
100
AcDbScale
 70
     0
300
1/8" = 1'-0"
140
0.125
141
12.0
290
     0
  0
SCALE
  5
3133
102
{ACAD_REACTORS
330
312B
102
}
330
312B
100
AcDbScale
 70
     0
300
3/16" = 1'-0"
140
0.1875
141
12.0
290
     0
  0
SCALE
  5
3134
102
{ACAD_REACTORS
330
312B
102
}
330
312B
100
AcDbScale
 70
     0
300
1/4" = 1'-0"
140
0.25
141
12.0
290
     0
  0
SCALE
  5
3135
102
{ACAD_REACTORS
330
312B
102
}
330
312B
100
AcDbScale
 70
     0
300
3/8" = 1'-0"
140
0.375
141
12.0
290
     0
  0
SCALE
  5
3136
102
{ACAD_REACTORS
330
312B
102
}
330
312B
100
AcDbScale
 70
     0
300
1/2" = 1'-0"
140
0.5
141
12.0
290
     0
  0
SCALE
  5
3137
102
{ACAD_REACTORS
330
312B
102
}
330
312B
100
AcDbScale
 70
     0
300
3/4" = 1'-0"
140
0.75
141
12.0
290
     0
  0
SCALE
  5
3138
102
{ACAD_REACTORS
330
312B
102
}
330
312B
100
AcDbScale
 70
     0
300
1" = 1'-0"
140
1.0
141
12.0
290
     0
  0
SCALE
  5
3139
102
{ACAD_REACTORS
330
312B
102
}
330
312B
100
AcDbScale
 70
     0
300
1-1/2" = 1'-0"
140
1.5
141
12.0
290
     0
  0
SCALE
  5
313A
102
{ACAD_REACTORS
330
312B
102
}
330
312B
100
AcDbScale
 70
     0
300
3" = 1'-0"
140
3.0
141
12.0
290
     0
  0
SCALE
  5
313B
102
{ACAD_REACTORS
330
312B
102
}
330
312B
100
AcDbScale
 70
     0
300
6" = 1'-0"
140
6.0
141
12.0
290
     0
  0
SCALE
  5
313C
102
{ACAD_REACTORS
330
312B
102
}
330
312B
100
AcDbScale
 70
     0
300
1'-0" = 1'-0"
140
12.0
141
12.0
290
     0
  0
ACDBSECTIONVIEWSTYLE
  5
3141
102
{ACAD_REACTORS
330
313F
102
}
330
313F
100
AcDbModelDocViewStyle
 70
     0
  3
Imperial24
290
     0
100
AcDbSectionViewStyle
 70
     0
 71
     0
 90
       78
 71
     1
340
BE8
 40
0.24
340
0
340
0
 40
0.24
300
I, O, Q, S, X, Z
 40
0.48
 90
        3
 40
0.18
 90
        1
 71
     2
340
3140
 90
       25
340
BEC
 90
       50
 40
0.24
 40
0.0
 40
0.24
 71
     3
340
BE8
 40
0.24
 90
        1
 40
0.75
 90
        1
300
%<\AcVar ViewType \f "%tc1">% %<\AcVar ViewSectionStartId>%-%<\AcVar ViewSectionEndId>%\PSCALE %<\AcVar ViewScale \f "%sn">%
 71
     4
300
ANSI31
 40
1.0
 90
        0
290
     0
290
     0
 90
        6
 40
0.0
 40
1.570796326794896
 40
0.2617993877991494
 40
1.308996938995747
 40
-0.2617993877991494
 40
1.832595714594046
  0
TABLESTYLE
  5
312A
102
{ACAD_XDICTIONARY
360
31A5
102
}
102
{ACAD_REACTORS
330
3129
102
}
330
3129
100
AcDbTableStyle
  3
Standard
 70
     0
 71
     0
 40
0.06
 41
0.06
280
     0
281
     0
  7
STANDARD
140
0.18
170
     2
 62
     0
 63
     7
283
     0
274
    -2
284
     1
 64
     0
275
    -2
285
     1
 65
     0
276
    -2
286
     1
 66
     0
277
    -2
287
     1
 67
     0
278
    -2
288
     1
 68
     0
279
    -2
289
     1
 69
     0
  7
STANDARD
140
0.25
170
     5
 62
     0
 63
     7
283
     0
274
    -2
284
     1
 64
     0
275
    -2
285
     1
 65
     0
276
    -2
286
     1
 66
     0
277
    -2
287
     1
 67
     0
278
    -2
288
     1
 68
     0
279
    -2
289
     1
 69
     0
  7
STANDARD
140
0.18
170
     5
 62
     0
 63
     7
283
     0
274
    -2
284
     1
 64
     0
275
    -2
285
     1
 65
     0
276
    -2
286
     1
 66
     0
277
    -2
287
     1
 67
     0
278
    -2
288
     1
 68
     0
279
    -2
289
     1
 69
     0
  0
VISUALSTYLE
  5
3116
102
{ACAD_XDICTIONARY
360
31BA
102
}
102
{ACAD_REACTORS
330
3110
102
}
330
3110
100
AcDbVisualStyle
  2
2dWireframe
 70
     4
 71
     0
 72
     2
 73
     0
 90
        0
 40
-0.6
 41
-30.0
 62
     5
 63
     7
 74
     1
 91
        4
 64
     7
 65
   257
 75
     1
175
     1
 42
1.0
 92
        0
 66
   257
 43
1.0
 76
     1
 77
     6
 78
     2
 67
     7
 79
     5
170
     0
171
     0
290
     0
174
     0
 93
        1
 44
0.0
173
     0
291
     0
 45
0.0
1001
ACAD
1000
AcDbSavedByObjectVersion
1070
     0
  0
VISUALSTYLE
  5
3115
102
{ACAD_XDICTIONARY
360
31B8
102
}
102
{ACAD_REACTORS
330
3110
102
}
330
3110
100
AcDbVisualStyle
  2
Basic
 70
     7
 71
     1
 72
     0
 73
     1
 90
        0
 40
-0.6
 41
-30.0
 62
     5
 63
     7
 74
     0
 91
        4
 64
     7
 65
   257
 75
     1
175
     1
 42
1.0
 92
        8
 66
     7
 43
1.0
 76
     1
 77
     6
 78
     2
 67
     7
 79
     5
170
     0
171
     0
290
     0
174
     0
 93
        1
 44
0.0
173
     0
291
     1
 45
0.0
1001
ACAD
1000
AcDbSavedByObjectVersion
1070
     0
  0
VISUALSTYLE
  5
311C
102
{ACAD_XDICTIONARY
360
31C6
102
}
102
{ACAD_REACTORS
330
3110
102
}
330
3110
100
AcDbVisualStyle
  2
Brighten
 70
    12
 71
     2
 72
     2
 73
     0
 90
        0
 40
-0.6
 41
-30.0
 62
     5
 63
     7
 74
     1
 91
        4
 64
     7
 65
   257
 75
     1
175
     1
 42
1.0
 92
        8
 66
     7
 43
1.0
 76
     1
 77
     6
 78
     2
 67
     7
 79
     5
170
     0
171
     0
290
     0
174
     0
 93
        1
 44
50.0
173
     0
291
     1
 45
0.0
1001
ACAD
1000
AcDbSavedByObjectVersion
1070
     0
  0
VISUALSTYLE
  5
3120
102
{ACAD_XDICTIONARY
360
31CE
102
}
102
{ACAD_REACTORS
330
3110
102
}
330
3110
100
AcDbVisualStyle
  2
ColorChange
 70
    16
 71
     2
 72
     2
 73
     3
 90
        0
 40
-0.6
 41
-30.0
 62
     5
 63
     8
 74
     1
 91
        4
 64
     7
 65
   257
 75
     1
175
     1
 42
1.0
 92
        8
 66
     8
 43
1.0
 76
     1
 77
     6
 78
     2
 67
     7
 79
     5
170
     0
171
     0
290
     0
174
     0
 93
        1
 44
0.0
173
     0
291
     1
 45
0.0
1001
ACAD
1000
AcDbSavedByObjectVersion
1070
     0
  0
VISUALSTYLE
  5
3119
102
{ACAD_XDICTIONARY
360
31C0
102
}
102
{ACAD_REACTORS
330
3110
102
}
330
3110
100
AcDbVisualStyle
  2
Conceptual
 70
     9
 71
     3
 72
     2
 73
     0
 90
        0
 40
-0.6
 41
-30.0
 62
     5
 63
     7
 74
     2
 91
        2
 64
     7
 65
   257
 75
     1
175
     1
 42
179.0
 92
        8
 66
     7
 43
1.0
 76
     1
 77
     6
 78
     2
 67
     7
 79
     3
170
     0
171
     0
290
     0
174
     0
 93
        1
 44
0.0
173
     0
291
     0
 45
0.0
1001
ACAD
1000
AcDbSavedByObjectVersion
1070
     0
  0
VISUALSTYLE
  5
311B
102
{ACAD_XDICTIONARY
360
31C4
102
}
102
{ACAD_REACTORS
330
3110
102
}
330
3110
100
AcDbVisualStyle
  2
Dim
 70
    11
 71
     2
 72
     2
 73
     0
 90
        0
 40
-0.6
 41
-30.0
 62
     5
 63
     7
 74
     1
 91
        4
 64
     7
 65
   257
 75
     1
175
     1
 42
1.0
 92
        8
 66
     7
 43
1.0
 76
     1
 77
     6
 78
     2
 67
     7
 79
     5
170
     0
171
     0
290
     0
174
     0
 93
        1
 44
-50.0
173
     0
291
     1
 45
0.0
1001
ACAD
1000
AcDbSavedByObjectVersion
1070
     0
  0
VISUALSTYLE
  5
3128
102
{ACAD_XDICTIONARY
360
31DE
102
}
102
{ACAD_REACTORS
330
3110
102
}
330
3110
100
AcDbVisualStyle
  2
EdgeColorOff
 70
    22
 71
     2
 72
     2
 73
     0
 90
        0
 40
-0.6
 41
-30.0
 62
     5
 63
     7
 74
     1
 91
        4
 64
     7
 65
   257
 75
     1
175
     1
 42
1.0
 92
        8
 66
     7
 43
1.0
 76
     1
 77
     6
 78
     2
 67
     7
 79
     5
170
     0
171
     0
290
     0
174
     0
 93
        1
 44
0.0
173
     0
291
     1
 45
0.0
1001
ACAD
1000
AcDbSavedByObjectVersion
1070
     0
  0
VISUALSTYLE
  5
311F
102
{ACAD_XDICTIONARY
360
31CC
102
}
102
{ACAD_REACTORS
330
3110
102
}
330
3110
100
AcDbVisualStyle
  2
Facepattern
 70
    15
 71
     2
 72
     2
 73
     0
 90
        0
 40
-0.6
 41
-30.0
 62
     5
 63
     7
 74
     1
 91
        4
 64
     7
 65
   257
 75
     1
175
     1
 42
1.0
 92
        8
 66
     7
 43
1.0
 76
     1
 77
     6
 78
     2
 67
     7
 79
     5
170
     0
171
     0
290
     0
174
     0
 93
        1
 44
0.0
173
     0
291
     1
 45
0.0
1001
ACAD
1000
AcDbSavedByObjectVersion
1070
     0
  0
VISUALSTYLE
  5
3111
102
{ACAD_XDICTIONARY
360
31B0
102
}
102
{ACAD_REACTORS
330
3110
102
}
330
3110
100
AcDbVisualStyle
  2
Flat
 70
     0
 71
     2
 72
     1
 73
     1
 90
        2
 40
-0.6
 41
30.0
 62
     5
 63
     7
 74
     0
 91
        0
 64
     7
 65
   257
 75
     1
175
     1
 42
1.0
 92
        8
 66
     7
 43
1.0
 76
     1
 77
     6
 78
     2
 67
     7
 79
     5
170
     0
171
     0
290
     0
174
     0
 93
       13
 44
0.0
173
     0
291
     1
 45
0.0
1001
ACAD
1000
AcDbSavedByObjectVersion
1070
     0
  0
VISUALSTYLE
  5
3112
102
{ACAD_XDICTIONARY
360
31B2
102
}
102
{ACAD_REACTORS
330
3110
102
}
330
3110
100
AcDbVisualStyle
  2
FlatWithEdges
 70
     1
 71
     2
 72
     1
 73
     1
 90
        2
 40
-0.6
 41
30.0
 62
     5
 63
     7
 74
     1
 91
        0
 64
     7
 65
   257
 75
     1
175
     1
 42
1.0
 92
        0
 66
   257
 43
1.0
 76
     1
 77
     6
 78
     2
 67
     7
 79
     5
170
     0
171
     0
290
     0
174
     0
 93
       13
 44
0.0
173
     0
291
     1
 45
0.0
1001
ACAD
1000
AcDbSavedByObjectVersion
1070
     0
  0
VISUALSTYLE
  5
3113
102
{ACAD_XDICTIONARY
360
31B4
102
}
102
{ACAD_REACTORS
330
3110
102
}
330
3110
100
AcDbVisualStyle
  2
Gouraud
 70
     2
 71
     2
 72
     2
 73
     1
 90
        2
 40
-0.6
 41
30.0
 62
     5
 63
     7
 74
     0
 91
        0
 64
     7
 65
   257
 75
     1
175
     1
 42
1.0
 92
        0
 66
     7
 43
1.0
 76
     1
 77
     6
 78
     2
 67
     7
 79
     5
170
     0
171
     0
290
     0
174
     0
 93
       13
 44
0.0
173
     0
291
     1
 45
0.0
1001
ACAD
1000
AcDbSavedByObjectVersion
1070
     0
  0
VISUALSTYLE
  5
3114
102
{ACAD_XDICTIONARY
360
31B6
102
}
102
{ACAD_REACTORS
330
3110
102
}
330
3110
100
AcDbVisualStyle
  2
GouraudWithEdges
 70
     3
 71
     2
 72
     2
 73
     1
 90
        2
 40
-0.6
 41
30.0
 62
     5
 63
     7
 74
     1
 91
        0
 64
     7
 65
   257
 75
     1
175
     1
 42
1.0
 92
        0
 66
   257
 43
1.0
 76
     1
 77
     6
 78
     2
 67
     7
 79
     5
170
     0
171
     0
290
     0
174
     0
 93
       13
 44
0.0
173
     0
291
     1
 45
0.0
1001
ACAD
1000
AcDbSavedByObjectVersion
1070
     0
  0
VISUALSTYLE
  5
3118
102
{ACAD_XDICTIONARY
360
31BE
102
}
102
{ACAD_REACTORS
330
3110
102
}
330
3110
100
AcDbVisualStyle
  2
Hidden
 70
     6
 71
     1
 72
     2
 73
     2
 90
        0
 40
-0.6
 41
-30.0
 62
     5
 63
     7
 74
     2
 91
        2
 64
     7
 65
   257
 75
     2
175
     1
 42
40.0
 92
        0
 66
   257
 43
1.0
 76
     1
 77
     6
 78
     2
 67
     7
 79
     3
170
     0
171
     0
290
     0
174
     0
 93
        1
 44
0.0
173
     0
291
     0
 45
0.0
1001
ACAD
1000
AcDbSavedByObjectVersion
1070
     0
  0
VISUALSTYLE
  5
3126
102
{ACAD_XDICTIONARY
360
31DA
102
}
102
{ACAD_REACTORS
330
3110
102
}
330
3110
100
AcDbVisualStyle
  2
JitterOff
 70
    20
 71
     2
 72
     2
 73
     0
 90
        0
 40
-0.6
 41
-30.0
 62
     5
 63
     7
 74
     1
 91
        4
 64
     7
 65
   257
 75
     1
175
     1
 42
1.0
 92
       10
 66
     7
 43
1.0
 76
     1
 77
     6
 78
     2
 67
     7
 79
     5
170
     0
171
     0
290
     0
174
     0
 93
        1
 44
0.0
173
     0
291
     1
 45
0.0
1001
ACAD
1000
AcDbSavedByObjectVersion
1070
     0
  0
VISUALSTYLE
  5
311E
102
{ACAD_XDICTIONARY
360
31CA
102
}
102
{ACAD_REACTORS
330
3110
102
}
330
3110
100
AcDbVisualStyle
  2
Linepattern
 70
    14
 71
     2
 72
     2
 73
     0
 90
        0
 40
-0.6
 41
-30.0
 62
     5
 63
     7
 74
     1
 91
        4
 64
     7
 65
   257
 75
     7
175
     7
 42
1.0
 92
        8
 66
     7
 43
1.0
 76
     1
 77
     6
 78
     2
 67
     7
 79
     5
170
     0
171
     0
290
     0
174
     0
 93
        1
 44
0.0
173
     0
291
     1
 45
0.0
1001
ACAD
1000
AcDbSavedByObjectVersion
1070
     0
  0
VISUALSTYLE
  5
3127
102
{ACAD_XDICTIONARY
360
31DC
102
}
102
{ACAD_REACTORS
330
3110
102
}
330
3110
100
AcDbVisualStyle
  2
OverhangOff
 70
    21
 71
     2
 72
     2
 73
     0
 90
        0
 40
-0.6
 41
-30.0
 62
     5
 63
     7
 74
     1
 91
        4
 64
     7
 65
   257
 75
     1
175
     1
 42
1.0
 92
        9
 66
     7
 43
1.0
 76
     1
 77
     6
 78
     2
 67
     7
 79
     5
170
     0
171
     0
290
     0
174
     0
 93
        1
 44
0.0
173
     0
291
     1
 45
0.0
1001
ACAD
1000
AcDbSavedByObjectVersion
1070
     0
  0
VISUALSTYLE
  5
311A
102
{ACAD_XDICTIONARY
360
31C2
102
}
102
{ACAD_REACTORS
330
3110
102
}
330
3110
100
AcDbVisualStyle
  2
Realistic
 70
     8
 71
     2
 72
     3
 73
     0
 90
        2
 40
-0.6
 41
30.0
 62
     5
 63
     7
 74
     0
 91
        0
 64
     7
 65
   257
 75
     1
175
     1
 42
1.0
 92
        8
 66
   257
 43
1.0
 76
     1
 77
     6
 78
     2
 67
     7
 79
     3
170
     0
171
     0
290
     0
174
     0
 93
       13
 44
0.0
173
     0
291
     0
 45
0.0
1001
ACAD
1000
AcDbSavedByObjectVersion
1070
     0
  0
VISUALSTYLE
  5
3125
102
{ACAD_XDICTIONARY
360
31D8
102
}
102
{ACAD_REACTORS
330
3110
102
}
330
3110
100
AcDbVisualStyle
  2
Shaded
 70
    27
 71
     2
 72
     2
 73
     1
 90
        2
 40
-0.6
 41
30.0
 62
     5
 63
     7
 74
     0
 91
        4
 64
     7
 65
   257
 75
     1
175
     1
 42
1.0
 92
        8
 66
   257
 43
1.0
 76
     1
 77
     6
 78
     2
 67
     8
 79
     3
170
     0
171
     0
290
     0
174
     0
 93
        5
 44
0.0
173
     0
291
     0
 45
0.0
1001
ACAD
1000
AcDbSavedByObjectVersion
1070
     0
  0
VISUALSTYLE
  5
3124
102
{ACAD_XDICTIONARY
360
31D6
102
}
102
{ACAD_REACTORS
330
3110
102
}
330
3110
100
AcDbVisualStyle
  2
Shaded with edges
 70
    26
 71
     2
 72
     2
 73
     1
 90
        2
 40
-0.6
 41
30.0
 62
     5
 63
     7
 74
     1
 91
       10
 64
     7
 65
   257
 75
     2
175
     1
 42
1.0
 92
        8
 66
   257
 43
1.0
 76
     1
 77
     6
 78
     2
 67
     7
 79
     3
170
     0
171
     0
290
     0
174
     0
 93
        5
 44
0.0
173
     0
291
     0
 45
0.0
1001
ACAD
1000
AcDbSavedByObjectVersion
1070
     0
  0
VISUALSTYLE
  5
3121
102
{ACAD_XDICTIONARY
360
31D0
102
}
102
{ACAD_REACTORS
330
3110
102
}
330
3110
100
AcDbVisualStyle
  2
Shades of Gray
 70
    23
 71
     2
 72
     2
 73
     3
 90
        0
 40
-0.6
 41
-30.0
 62
     5
 63
     7
 74
     2
 91
        2
 64
     7
 65
     7
 75
     1
175
     1
 42
40.0
 92
        8
 66
     7
 43
1.0
 76
     1
 77
     6
 78
     2
 67
     7
 79
     3
170
     0
171
     0
290
     0
174
     0
 93
        1
 44
0.0
173
     0
291
     0
 45
0.0
1001
ACAD
1000
AcDbSavedByObjectVersion
1070
     0
  0
VISUALSTYLE
  5
3122
102
{ACAD_XDICTIONARY
360
31D2
102
}
102
{ACAD_REACTORS
330
3110
102
}
330
3110
100
AcDbVisualStyle
  2
Sketchy
 70
    24
 71
     1
 72
     2
 73
     2
 90
        0
 40
-0.6
 41
-30.0
 62
     5
 63
     7
 74
     2
 91
        2
 64
     7
 65
     7
 75
     1
175
     1
 42
40.0
 92
       11
 66
     7
 43
1.0
 76
     1
 77
     6
 78
     2
 67
     7
 79
     6
170
     0
171
     0
290
     0
174
     0
 93
        1
 44
0.0
173
     0
291
     0
 45
0.0
1001
ACAD
1000
AcDbSavedByObjectVersion
1070
     0
  0
VISUALSTYLE
  5
311D
102
{ACAD_XDICTIONARY
360
31C8
102
}
102
{ACAD_REACTORS
330
3110
102
}
330
3110
100
AcDbVisualStyle
  2
Thicken
 70
    13
 71
     2
 72
     2
 73
     0
 90
        0
 40
-0.6
 41
-30.0
 62
     5
 63
     7
 74
     1
 91
        4
 64
     7
 65
   257
 75
     1
175
     1
 42
1.0
 92
       12
 66
     7
 43
1.0
 76
     1
 77
     6
 78
     2
 67
     7
 79
     5
170
     0
171
     0
290
     0
174
     0
 93
        1
 44
0.0
173
     0
291
     1
 45
0.0
1001
ACAD
1000
AcDbSavedByObjectVersion
1070
     0
  0
VISUALSTYLE
  5
3117
102
{ACAD_XDICTIONARY
360
31BC
102
}
102
{ACAD_REACTORS
330
3110
102
}
330
3110
100
AcDbVisualStyle
  2
Wireframe
 70
     5
 71
     0
 72
     2
 73
     0
 90
        0
 40
-0.6
 41
-30.0
 62
     5
 63
     7
 74
     1
 91
        4
 64
     7
 65
   257
 75
     1
175
     1
 42
1.0
 92
        0
 66
   257
 43
1.0
 76
     1
 77
     6
 78
     2
 67
     7
 79
     3
170
     0
171
     0
290
     0
174
     0
 93
        1
 44
0.0
173
     0
291
     0
 45
0.0
1001
ACAD
1000
AcDbSavedByObjectVersion
1070
     0
  0
VISUALSTYLE
  5
3123
102
{ACAD_XDICTIONARY
360
31D4
102
}
102
{ACAD_REACTORS
330
3110
102
}
330
3110
100
AcDbVisualStyle
  2
X-Ray
 70
    25
 71
     2
 72
     2
 73
     1
 90
        1
 40
0.5
 41
-30.0
 62
     5
 63
     7
 74
     1
 91
        0
 64
     7
 65
   257
 75
     1
175
     1
 42
1.0
 92
        8
 66
     7
 43
1.0
 76
     1
 77
     6
 78
     2
 67
     7
 79
     3
170
     0
171
     0
290
     0
174
     0
 93
       13
 44
0.0
173
     0
291
     0
 45
0.0
1001
ACAD
1000
AcDbSavedByObjectVersion
1070
     0
  0
DICTIONARYVAR
  5
319F
102
{ACAD_REACTORS
330
319A
102
}
330
319A
100
DictionaryVariables
280
     0
  1
1:1
  0
DICTIONARYVAR
  5
319C
102
{ACAD_REACTORS
330
319A
102
}
330
319A
100
DictionaryVariables
280
     0
  1
STANDARD
  0
DICTIONARYVAR
  5
319B
102
{ACAD_REACTORS
330
319A
102
}
330
319A
100
DictionaryVariables
280
     0
  1
STANDARD
  0
DICTIONARYVAR
  5
319D
102
{ACAD_REACTORS
330
319A
102
}
330
319A
100
DictionaryVariables
280
     0
  1
Imperial24
  0
DICTIONARYVAR
  5
319E
102
{ACAD_REACTORS
330
319A
102
}
330
319A
100
DictionaryVariables
280
     0
  1
Imperial24
  0
DICTIONARYVAR
  5
31A3
102
{ACAD_REACTORS
330
319A
102
}
330
319A
100
DictionaryVariables
280
     0
  1
1
  0
DICTIONARYVAR
  5
31A1
102
{ACAD_REACTORS
330
319A
102
}
330
319A
100
DictionaryVariables
280
     0
  1
0
  0
DICTIONARYVAR
  5
31A0
102
{ACAD_REACTORS
330
319A
102
}
330
319A
100
DictionaryVariables
280
     0
  1
127
  0
DICTIONARYVAR
  5
31A2
102
{ACAD_REACTORS
330
319A
102
}
330
319A
100
DictionaryVariables
280
     0
  1
0
  0
XRECORD
  5
3199
102
{ACAD_REACTORS
330
3197
102
}
330
3197
100
AcDbXrecord
280
     1
  0
DICTIONARY
  5
31A9
330
BF6
100
AcDbDictionary
280
     1
281
     1
  3
ACAD_XREC_ROUNDTRIP
360
31AA
  0
DICTIONARY
  5
31AB
330
BFA
100
AcDbDictionary
280
     1
281
     1
  3
ACAD_XREC_ROUNDTRIP
360
31AC
  0
DICTIONARY
  5
3101
330
3100
100
AcDbDictionary
280
     1
281
     1
  3
ACAD_XREC_ROUNDTRIP
360
31AE
  3
BUMPTILE
360
3103
  3
DIFFUSETILE
360
3102
  3
OPACITYTILE
360
3106
  3
REFLECTIONTILE
360
3105
  3
REFRACTIONTILE
360
3107
  3
SPECULARTILE
360
3104
  0
DICTIONARY
  5
30F9
330
30F8
100
AcDbDictionary
280
     1
281
     1
  3
ACAD_XREC_ROUNDTRIP
360
31AD
  3
BUMPTILE
360
30FB
  3
DIFFUSETILE
360
30FA
  3
OPACITYTILE
360
30FE
  3
REFLECTIONTILE
360
30FD
  3
REFRACTIONTILE
360
30FF
  3
SPECULARTILE
360
30FC
  0
DICTIONARY
  5
3109
330
3108
100
AcDbDictionary
280
     1
281
     1
  3
ACAD_XREC_ROUNDTRIP
360
31AF
  3
BUMPTILE
360
310B
  3
DIFFUSETILE
360
310A
  3
OPACITYTILE
360
310E
  3
REFLECTIONTILE
360
310D
  3
REFRACTIONTILE
360
310F
  3
SPECULARTILE
360
310C
  0
DICTIONARY
  5
31A5
330
312A
100
AcDbDictionary
280
     1
281
     1
  3
ACAD_ROUNDTRIP_2008_TABLESTYLE_CELLSTYLEMAP
360
31A6
  3
ACAD_XREC_ROUNDTRIP
360
31E0
  0
DICTIONARY
  5
31BA
330
3116
100
AcDbDictionary
280
     1
281
     1
  3
ACAD_XREC_ROUNDTRIP
360
31BB
  0
DICTIONARY
  5
31B8
330
3115
100
AcDbDictionary
280
     1
281
     1
  3
ACAD_XREC_ROUNDTRIP
360
31B9
  0
DICTIONARY
  5
31C6
330
311C
100
AcDbDictionary
280
     1
281
     1
  3
ACAD_XREC_ROUNDTRIP
360
31C7
  0
DICTIONARY
  5
31CE
330
3120
100
AcDbDictionary
280
     1
281
     1
  3
ACAD_XREC_ROUNDTRIP
360
31CF
  0
DICTIONARY
  5
31C0
330
3119
100
AcDbDictionary
280
     1
281
     1
  3
ACAD_XREC_ROUNDTRIP
360
31C1
  0
DICTIONARY
  5
31C4
330
311B
100
AcDbDictionary
280
     1
281
     1
  3
ACAD_XREC_ROUNDTRIP
360
31C5
  0
DICTIONARY
  5
31DE
330
3128
100
AcDbDictionary
280
     1
281
     1
  3
ACAD_XREC_ROUNDTRIP
360
31DF
  0
DICTIONARY
  5
31CC
330
311F
100
AcDbDictionary
280
     1
281
     1
  3
ACAD_XREC_ROUNDTRIP
360
31CD
  0
DICTIONARY
  5
31B0
330
3111
100
AcDbDictionary
280
     1
281
     1
  3
ACAD_XREC_ROUNDTRIP
360
31B1
  0
DICTIONARY
  5
31B2
330
3112
100
AcDbDictionary
280
     1
281
     1
  3
ACAD_XREC_ROUNDTRIP
360
31B3
  0
DICTIONARY
  5
31B4
330
3113
100
AcDbDictionary
280
     1
281
     1
  3
ACAD_XREC_ROUNDTRIP
360
31B5
  0
DICTIONARY
  5
31B6
330
3114
100
AcDbDictionary
280
     1
281
     1
  3
ACAD_XREC_ROUNDTRIP
360
31B7
  0
DICTIONARY
  5
31BE
330
3118
100
AcDbDictionary
280
     1
281
     1
  3
ACAD_XREC_ROUNDTRIP
360
31BF
  0
DICTIONARY
  5
31DA
330
3126
100
AcDbDictionary
280
     1
281
     1
  3
ACAD_XREC_ROUNDTRIP
360
31DB
  0
DICTIONARY
  5
31CA
330
311E
100
AcDbDictionary
280
     1
281
     1
  3
ACAD_XREC_ROUNDTRIP
360
31CB
  0
DICTIONARY
  5
31DC
330
3127
100
AcDbDictionary
280
     1
281
     1
  3
ACAD_XREC_ROUNDTRIP
360
31DD
  0
DICTIONARY
  5
31C2
330
311A
100
AcDbDictionary
280
     1
281
     1
  3
ACAD_XREC_ROUNDTRIP
360
31C3
  0
DICTIONARY
  5
31D8
330
3125
100
AcDbDictionary
280
     1
281
     1
  3
ACAD_XREC_ROUNDTRIP
360
31D9
  0
DICTIONARY
  5
31D6
330
3124
100
AcDbDictionary
280
     1
281
     1
  3
ACAD_XREC_ROUNDTRIP
360
31D7
  0
DICTIONARY
  5
31D0
330
3121
100
AcDbDictionary
280
     1
281
     1
  3
ACAD_XREC_ROUNDTRIP
360
31D1
  0
DICTIONARY
  5
31D2
330
3122
100
AcDbDictionary
280
     1
281
     1
  3
ACAD_XREC_ROUNDTRIP
360
31D3
  0
DICTIONARY
  5
31C8
330
311D
100
AcDbDictionary
280
     1
281
     1
  3
ACAD_XREC_ROUNDTRIP
360
31C9
  0
DICTIONARY
  5
31BC
330
3117
100
AcDbDictionary
280
     1
281
     1
  3
ACAD_XREC_ROUNDTRIP
360
31BD
  0
DICTIONARY
  5
31D4
330
3123
100
AcDbDictionary
280
     1
281
     1
  3
ACAD_XREC_ROUNDTRIP
360
31D5
  0
XRECORD
  5
31AA
102
{ACAD_REACTORS
330
31A9
102
}
330
31A9
100
AcDbXrecord
280
     1
102
SHADEPLOT
 70
     0
102
SHADEPLOTRESLEVEL
 70
     2
102
SHADEPLOTCUSTOMDPI
 70
   300
  0
XRECORD
  5
31AC
102
{ACAD_REACTORS
330
31AB
102
}
330
31AB
100
AcDbXrecord
280
     1
102
SHADEPLOT
 70
     0
102
SHADEPLOTRESLEVEL
 70
     2
102
SHADEPLOTCUSTOMDPI
 70
   300
  0
XRECORD
  5
31AE
102
{ACAD_REACTORS
330
3101
102
}
330
3101
100
AcDbXrecord
280
     1
102
MATERIAL
148
0.0
149
0.0
149
0.0
 93
        0
 94
      127
282
     0
 72
     0
 77
     0
171
     0
175
     0
179
     0
273
     0
  0
XRECORD
  5
3103
102
{ACAD_REACTORS
330
3101
102
}
330
3101
100
AcDbXrecord
280
     1
270
     1
271
     1
  0
XRECORD
  5
3102
102
{ACAD_REACTORS
330
3101
102
}
330
3101
100
AcDbXrecord
280
     1
270
     1
271
     1
  0
XRECORD
  5
3106
102
{ACAD_REACTORS
330
3101
102
}
330
3101
100
AcDbXrecord
280
     1
270
     1
271
     1
  0
XRECORD
  5
3105
102
{ACAD_REACTORS
330
3101
102
}
330
3101
100
AcDbXrecord
280
     1
270
     1
271
     1
  0
XRECORD
  5
3107
102
{ACAD_REACTORS
330
3101
102
}
330
3101
100
AcDbXrecord
280
     1
270
     1
271
     1
  0
XRECORD
  5
3104
102
{ACAD_REACTORS
330
3101
102
}
330
3101
100
AcDbXrecord
280
     1
270
     1
271
     1
  0
XRECORD
  5
31AD
102
{ACAD_REACTORS
330
30F9
102
}
330
30F9
100
AcDbXrecord
280
     1
102
MATERIAL
148
0.0
149
0.0
149
0.0
 93
        0
 94
      127
282
     0
 72
     0
 77
     0
171
     0
175
     0
179
     0
273
     0
  0
XRECORD
  5
30FB
102
{ACAD_REACTORS
330
30F9
102
}
330
30F9
100
AcDbXrecord
280
     1
270
     1
271
     1
  0
XRECORD
  5
30FA
102
{ACAD_REACTORS
330
30F9
102
}
330
30F9
100
AcDbXrecord
280
     1
270
     1
271
     1
  0
XRECORD
  5
30FE
102
{ACAD_REACTORS
330
30F9
102
}
330
30F9
100
AcDbXrecord
280
     1
270
     1
271
     1
  0
XRECORD
  5
30FD
102
{ACAD_REACTORS
330
30F9
102
}
330
30F9
100
AcDbXrecord
280
     1
270
     1
271
     1
  0
XRECORD
  5
30FF
102
{ACAD_REACTORS
330
30F9
102
}
330
30F9
100
AcDbXrecord
280
     1
270
     1
271
     1
  0
XRECORD
  5
30FC
102
{ACAD_REACTORS
330
30F9
102
}
330
30F9
100
AcDbXrecord
280
     1
270
     1
271
     1
  0
XRECORD
  5
31AF
102
{ACAD_REACTORS
330
3109
102
}
330
3109
100
AcDbXrecord
280
     1
102
MATERIAL
148
0.0
149
0.0
149
0.0
 93
        0
 94
      127
282
     0
 72
     0
 77
     0
171
     0
175
     0
179
     0
273
     0
  0
XRECORD
  5
310B
102
{ACAD_REACTORS
330
3109
102
}
330
3109
100
AcDbXrecord
280
     1
270
     1
271
     1
  0
XRECORD
  5
310A
102
{ACAD_REACTORS
330
3109
102
}
330
3109
100
AcDbXrecord
280
     1
270
     1
271
     1
  0
XRECORD
  5
310E
102
{ACAD_REACTORS
330
3109
102
}
330
3109
100
AcDbXrecord
280
     1
270
     1
271
     1
  0
XRECORD
  5
310D
102
{ACAD_REACTORS
330
3109
102
}
330
3109
100
AcDbXrecord
280
     1
270
     1
271
     1
  0
XRECORD
  5
310F
102
{ACAD_REACTORS
330
3109
102
}
330
3109
100
AcDbXrecord
280
     1
270
     1
271
     1
  0
XRECORD
  5
310C
102
{ACAD_REACTORS
330
3109
102
}
330
3109
100
AcDbXrecord
280
     1
270
     1
271
     1
  0
CELLSTYLEMAP
  5
31A6
102
{ACAD_REACTORS
330
31A5
102
}
330
31A5
100
AcDbCellStyleMap
 90
        3
300
CELLSTYLE
  1
TABLEFORMAT_BEGIN
 90
        5
170
     1
 91
        0
 92
    32768
 62
   257
 93
        1
300
CONTENTFORMAT
  1
CONTENTFORMAT_BEGIN
 90
        0
 91
        0
 92
      512
 93
        0
300

 40
0.0
140
1.0
 94
        5
 62
     0
340
BE8
144
0.25
309
CONTENTFORMAT_END
171
     0
 94
        0
309
TABLEFORMAT_END
  1
CELLSTYLE_BEGIN
 90
        1
 91
        1
300
_TITLE
309
CELLSTYLE_END
300
CELLSTYLE
  1
TABLEFORMAT_BEGIN
 90
        5
170
     1
 91
        0
 92
        0
 62
   257
 93
        1
300
CONTENTFORMAT
  1
CONTENTFORMAT_BEGIN
 90
        0
 91
        0
 92
      512
 93
        0
300

 40
0.0
140
1.0
 94
        5
 62
     0
340
BE8
144
0.18
309
CONTENTFORMAT_END
171
     0
 94
        0
309
TABLEFORMAT_END
  1
CELLSTYLE_BEGIN
 90
        2
 91
        1
300
_HEADER
309
CELLSTYLE_END
300
CELLSTYLE
  1
TABLEFORMAT_BEGIN
 90
        5
170
     1
 91
        0
 92
        0
 62
   257
 93
        1
300
CONTENTFORMAT
  1
CONTENTFORMAT_BEGIN
 90
        0
 91
        0
 92
      512
 93
        0
300

 40
0.0
140
1.0
 94
        2
 62
     0
340
BE8
144
0.18
309
CONTENTFORMAT_END
171
     0
 94
        0
309
TABLEFORMAT_END
  1
CELLSTYLE_BEGIN
 90
        3
 91
        2
300
_DATA
309
CELLSTYLE_END
  0
XRECORD
  5
31E0
102
{ACAD_REACTORS
330
31A5
102
}
330
31A5
100
AcDbXrecord
280
     1
102
ACAD_ROUNDTRIP_PRE2007_TABLESTYLE
 90
      512
 91
        0
  1

 92
      512
 93
        0
  2

 94
      512
 95
        0
  3

  0
XRECORD
  5
31BB
102
{ACAD_REACTORS
330
31BA
102
}
330
31BA
100
AcDbXrecord
280
     1
102
RTVSPost2010Prop28
280
     1
102
RTVSPost2010PropOp28
 70
     1
102
RTVSPost2010Prop29
280
     1
102
RTVSPost2010PropOp29
 70
     1
102
RTVSPost2010Prop30
280
     0
102
RTVSPost2010PropOp30
 70
     1
102
RTVSPost2010Prop31
280
     0
102
RTVSPost2010PropOp31
 70
     1
102
RTVSPost2010Prop32
280
     0
102
RTVSPost2010PropOp32
 70
     1
102
RTVSPost2010Prop33
280
     0
102
RTVSPost2010PropOp33
 70
     1
102
RTVSPost2010Prop34
280
     0
102
RTVSPost2010PropOp34
 70
     1
102
RTVSPost2010Prop35
280
     0
102
RTVSPost2010PropOp35
 70
     1
102
RTVSPost2010Prop36
280
     0
102
RTVSPost2010PropOp36
 70
     1
102
RTVSPost2010Prop37
 90
       50
102
RTVSPost2010PropOp37
 70
     1
102
RTVSPost2010Prop38
140
0.0
102
RTVSPost2010PropOp38
 70
     1
102
RTVSPost2010Prop39
140
1.0
102
RTVSPost2010PropOp39
 70
     1
102
RTVSPost2010Prop40
 90
        0
102
RTVSPost2010PropOp40
 70
     1
102
RTVSPost2010Prop41ColorIndex
 90
       18
102
RTVSPost2010Prop41ColorRGB
 90
        0
102
RTVSPost2010PropOp41
 70
     1
102
RTVSPost2010Prop42
 90
       50
102
RTVSPost2010PropOp42
 70
     1
102
RTVSPost2010Prop43
 90
        3
102
RTVSPost2010PropOp43
 70
     1
102
RTVSPost2010Prop44ColorIndex
 90
        5
102
RTVSPost2010Prop44ColorRGB
 90
      255
102
RTVSPost2010PropOp44
 70
     1
102
RTVSPost2010Prop45
280
     0
102
RTVSPost2010PropOp45
 70
     1
102
RTVSPost2010Prop46
 90
       50
102
RTVSPost2010PropOp46
 70
     1
102
RTVSPost2010Prop47
 90
       50
102
RTVSPost2010PropOp47
 70
     1
102
RTVSPost2010Prop48
 90
       50
102
RTVSPost2010PropOp48
 70
     1
102
RTVSPost2010Prop49
280
     0
102
RTVSPost2010PropOp49
 70
     1
102
RTVSPost2010Prop50
 90
       50
102
RTVSPost2010PropOp50
 70
     1
102
RTVSPost2010Prop51ColorIndex
 90
      256
102
RTVSPost2010Prop51ColorRGB
 90
-16777216
102
RTVSPost2010PropOp51
 70
     0
102
RTVSPost2010Prop52
140
1.0
102
RTVSPost2010PropOp52
 70
     0
102
RTVSPost2010Prop53
 90
        2
102
RTVSPost2010PropOp53
 70
     1
102
RTVSPost2010Prop54
  1
strokes_ogs.tif
102
RTVSPost2010PropOp54
 70
     1
102
RTVSPost2010Prop55
280
     0
102
RTVSPost2010PropOp55
 70
     1
102
RTVSPost2010Prop56
140
1.0
102
RTVSPost2010PropOp56
 70
     1
102
RTVSPost2010Prop57
140
1.0
102
RTVSPost2010PropOp57
 70
     1
102
RTVSPropertyOp0
 70
     1
102
RTVSPropertyOp1
 70
     1
102
RTVSPropertyOp2
 70
     1
102
RTVSPropertyOp3
 70
     1
102
RTVSPropertyOp4
 70
     1
102
RTVSPropertyOp5
 70
     1
102
RTVSPropertyOp6
 70
     1
102
RTVSPropertyOp7
 70
     1
102
RTVSPropertyOp8
 70
     1
102
RTVSPropertyOp9
 70
     1
102
RTVSPropertyOp10
 70
     1
102
RTVSPropertyOp11
 70
     1
102
RTVSPropertyOp12
 70
     1
102
RTVSPropertyOp13
 70
     1
102
RTVSPropertyOp14
 70
     1
102
RTVSPropertyOp15
 70
     1
102
RTVSPropertyOp16
 70
     1
102
RTVSPropertyOp17
 70
     1
102
RTVSPropertyOp18
 70
     1
102
RTVSPropertyOp19
 70
     1
102
RTVSPropertyOp20
 70
     1
102
RTVSPropertyOp21
 70
     1
102
RTVSPropertyOp22
 70
     1
102
RTVSPropertyOp23
 70
     1
102
RTVSPropertyOp24
 70
     1
102
RTVSPropertyOp25
 70
     1
102
RTVSPropertyOp26
 70
     1
102
RTVSPropertyOp27
 70
     1
102
RTVSPropertyOp28
 70
     1
102
RTVSPropertyOp29
 70
     1
102
RTVSPropertyOp30
 70
     1
102
RTVSPropertyOp31
 70
     1
102
RTVSPropertyOp32
 70
     1
102
RTVSPropertyOp33
 70
     1
102
RTVSPropertyOp34
 70
     1
102
RTVSPropertyOp35
 70
     1
102
RTVSPropertyOp36
 70
     1
102
RTVSPropertyOp37
 70
     1
102
RTVSPropertyOp38
 70
     1
102
RTVSPropertyOp39
 70
     1
102
RTVSPropertyOp40
 70
     1
102
RTVSPropertyOp41
 70
     1
102
RTVSPropertyOp42
 70
     1
102
RTVSPropertyOp43
 70
     1
102
RTVSPropertyOp44
 70
     1
102
RTVSPropertyOp45
 70
     1
102
RTVSPropertyOp46
 70
     1
102
RTVSPropertyOp47
 70
     1
102
RTVSPropertyOp48
 70
     1
102
RTVSPropertyOp49
 70
     1
102
RTVSPropertyOp50
 70
     1
102
RTVSPropertyOp51
 70
     0
102
RTVSPropertyOp52
 70
     0
102
RTVSPropertyOp53
 70
     1
102
RTVSPropertyOp54
 70
     1
102
RTVSPropertyOp55
 70
     1
102
RTVSPropertyOp56
 70
     1
102
RTVSPropertyOp57
 70
     1
102
RTVSPropertyOp58
 70
     1
102
RTVSPropertyOp59
 70
     1
102
RTVSPropertyOp60
 70
     1
102
RTVSPropertyOp61
 70
     1
102
RTVSPropertyOp62
 70
     1
  0
XRECORD
  5
31B9
102
{ACAD_REACTORS
330
31B8
102
}
330
31B8
100
AcDbXrecord
280
     1
102
RTVSPost2010Prop28
280
     0
102
RTVSPost2010PropOp28
 70
     1
102
RTVSPost2010Prop29
280
     1
102
RTVSPost2010PropOp29
 70
     1
102
RTVSPost2010Prop30
280
     1
102
RTVSPost2010PropOp30
 70
     1
102
RTVSPost2010Prop31
280
     0
102
RTVSPost2010PropOp31
 70
     1
102
RTVSPost2010Prop32
280
     0
102
RTVSPost2010PropOp32
 70
     1
102
RTVSPost2010Prop33
280
     0
102
RTVSPost2010PropOp33
 70
     1
102
RTVSPost2010Prop34
280
     0
102
RTVSPost2010PropOp34
 70
     1
102
RTVSPost2010Prop35
280
     0
102
RTVSPost2010PropOp35
 70
     1
102
RTVSPost2010Prop36
280
     0
102
RTVSPost2010PropOp36
 70
     1
102
RTVSPost2010Prop37
 90
       50
102
RTVSPost2010PropOp37
 70
     1
102
RTVSPost2010Prop38
140
0.0
102
RTVSPost2010PropOp38
 70
     1
102
RTVSPost2010Prop39
140
1.0
102
RTVSPost2010PropOp39
 70
     1
102
RTVSPost2010Prop40
 90
        0
102
RTVSPost2010PropOp40
 70
     1
102
RTVSPost2010Prop41ColorIndex
 90
       18
102
RTVSPost2010Prop41ColorRGB
 90
        0
102
RTVSPost2010PropOp41
 70
     1
102
RTVSPost2010Prop42
 90
       50
102
RTVSPost2010PropOp42
 70
     1
102
RTVSPost2010Prop43
 90
        3
102
RTVSPost2010PropOp43
 70
     1
102
RTVSPost2010Prop44ColorIndex
 90
        5
102
RTVSPost2010Prop44ColorRGB
 90
      255
102
RTVSPost2010PropOp44
 70
     1
102
RTVSPost2010Prop45
280
     0
102
RTVSPost2010PropOp45
 70
     1
102
RTVSPost2010Prop46
 90
       50
102
RTVSPost2010PropOp46
 70
     1
102
RTVSPost2010Prop47
 90
       50
102
RTVSPost2010PropOp47
 70
     1
102
RTVSPost2010Prop48
 90
       50
102
RTVSPost2010PropOp48
 70
     1
102
RTVSPost2010Prop49
280
     0
102
RTVSPost2010PropOp49
 70
     1
102
RTVSPost2010Prop50
 90
       50
102
RTVSPost2010PropOp50
 70
     1
102
RTVSPost2010Prop51ColorIndex
 90
      256
102
RTVSPost2010Prop51ColorRGB
 90
-16777216
102
RTVSPost2010PropOp51
 70
     0
102
RTVSPost2010Prop52
140
1.0
102
RTVSPost2010PropOp52
 70
     0
102
RTVSPost2010Prop53
 90
        2
102
RTVSPost2010PropOp53
 70
     1
102
RTVSPost2010Prop54
  1
strokes_ogs.tif
102
RTVSPost2010PropOp54
 70
     1
102
RTVSPost2010Prop55
280
     0
102
RTVSPost2010PropOp55
 70
     1
102
RTVSPost2010Prop56
140
1.0
102
RTVSPost2010PropOp56
 70
     1
102
RTVSPost2010Prop57
140
1.0
102
RTVSPost2010PropOp57
 70
     1
102
RTVSPropertyOp0
 70
     1
102
RTVSPropertyOp1
 70
     1
102
RTVSPropertyOp2
 70
     1
102
RTVSPropertyOp3
 70
     1
102
RTVSPropertyOp4
 70
     1
102
RTVSPropertyOp5
 70
     1
102
RTVSPropertyOp6
 70
     1
102
RTVSPropertyOp7
 70
     1
102
RTVSPropertyOp8
 70
     1
102
RTVSPropertyOp9
 70
     1
102
RTVSPropertyOp10
 70
     1
102
RTVSPropertyOp11
 70
     1
102
RTVSPropertyOp12
 70
     1
102
RTVSPropertyOp13
 70
     1
102
RTVSPropertyOp14
 70
     1
102
RTVSPropertyOp15
 70
     1
102
RTVSPropertyOp16
 70
     1
102
RTVSPropertyOp17
 70
     1
102
RTVSPropertyOp18
 70
     1
102
RTVSPropertyOp19
 70
     1
102
RTVSPropertyOp20
 70
     1
102
RTVSPropertyOp21
 70
     1
102
RTVSPropertyOp22
 70
     1
102
RTVSPropertyOp23
 70
     1
102
RTVSPropertyOp24
 70
     1
102
RTVSPropertyOp25
 70
     1
102
RTVSPropertyOp26
 70
     1
102
RTVSPropertyOp27
 70
     1
102
RTVSPropertyOp28
 70
     1
102
RTVSPropertyOp29
 70
     1
102
RTVSPropertyOp30
 70
     1
102
RTVSPropertyOp31
 70
     1
102
RTVSPropertyOp32
 70
     1
102
RTVSPropertyOp33
 70
     1
102
RTVSPropertyOp34
 70
     1
102
RTVSPropertyOp35
 70
     1
102
RTVSPropertyOp36
 70
     1
102
RTVSPropertyOp37
 70
     1
102
RTVSPropertyOp38
 70
     1
102
RTVSPropertyOp39
 70
     1
102
RTVSPropertyOp40
 70
     1
102
RTVSPropertyOp41
 70
     1
102
RTVSPropertyOp42
 70
     1
102
RTVSPropertyOp43
 70
     1
102
RTVSPropertyOp44
 70
     1
102
RTVSPropertyOp45
 70
     1
102
RTVSPropertyOp46
 70
     1
102
RTVSPropertyOp47
 70
     1
102
RTVSPropertyOp48
 70
     1
102
RTVSPropertyOp49
 70
     1
102
RTVSPropertyOp50
 70
     1
102
RTVSPropertyOp51
 70
     0
102
RTVSPropertyOp52
 70
     0
102
RTVSPropertyOp53
 70
     1
102
RTVSPropertyOp54
 70
     1
102
RTVSPropertyOp55
 70
     1
102
RTVSPropertyOp56
 70
     1
102
RTVSPropertyOp57
 70
     1
102
RTVSPropertyOp58
 70
     1
102
RTVSPropertyOp59
 70
     1
102
RTVSPropertyOp60
 70
     1
102
RTVSPropertyOp61
 70
     1
102
RTVSPropertyOp62
 70
     1
  0
XRECORD
  5
31C7
102
{ACAD_REACTORS
330
31C6
102
}
330
31C6
100
AcDbXrecord
280
     1
102
RTVSPost2010Prop28
280
     0
102
RTVSPost2010PropOp28
 70
     1
102
RTVSPost2010Prop29
280
     1
102
RTVSPost2010PropOp29
 70
     1
102
RTVSPost2010Prop30
280
     1
102
RTVSPost2010PropOp30
 70
     1
102
RTVSPost2010Prop31
280
     0
102
RTVSPost2010PropOp31
 70
     1
102
RTVSPost2010Prop32
280
     0
102
RTVSPost2010PropOp32
 70
     1
102
RTVSPost2010Prop33
280
     0
102
RTVSPost2010PropOp33
 70
     1
102
RTVSPost2010Prop34
280
     0
102
RTVSPost2010PropOp34
 70
     1
102
RTVSPost2010Prop35
280
     0
102
RTVSPost2010PropOp35
 70
     1
102
RTVSPost2010Prop36
280
     0
102
RTVSPost2010PropOp36
 70
     1
102
RTVSPost2010Prop37
 90
       50
102
RTVSPost2010PropOp37
 70
     1
102
RTVSPost2010Prop38
140
0.0
102
RTVSPost2010PropOp38
 70
     1
102
RTVSPost2010Prop39
140
1.0
102
RTVSPost2010PropOp39
 70
     1
102
RTVSPost2010Prop40
 90
        0
102
RTVSPost2010PropOp40
 70
     1
102
RTVSPost2010Prop41ColorIndex
 90
       18
102
RTVSPost2010Prop41ColorRGB
 90
        0
102
RTVSPost2010PropOp41
 70
     1
102
RTVSPost2010Prop42
 90
       50
102
RTVSPost2010PropOp42
 70
     1
102
RTVSPost2010Prop43
 90
        3
102
RTVSPost2010PropOp43
 70
     1
102
RTVSPost2010Prop44ColorIndex
 90
        5
102
RTVSPost2010Prop44ColorRGB
 90
      255
102
RTVSPost2010PropOp44
 70
     1
102
RTVSPost2010Prop45
280
     0
102
RTVSPost2010PropOp45
 70
     1
102
RTVSPost2010Prop46
 90
       50
102
RTVSPost2010PropOp46
 70
     1
102
RTVSPost2010Prop47
 90
       50
102
RTVSPost2010PropOp47
 70
     1
102
RTVSPost2010Prop48
 90
       50
102
RTVSPost2010PropOp48
 70
     1
102
RTVSPost2010Prop49
280
     0
102
RTVSPost2010PropOp49
 70
     1
102
RTVSPost2010Prop50
 90
       50
102
RTVSPost2010PropOp50
 70
     1
102
RTVSPost2010Prop51ColorIndex
 90
      256
102
RTVSPost2010Prop51ColorRGB
 90
-16777216
102
RTVSPost2010PropOp51
 70
     0
102
RTVSPost2010Prop52
140
1.0
102
RTVSPost2010PropOp52
 70
     0
102
RTVSPost2010Prop53
 90
        2
102
RTVSPost2010PropOp53
 70
     1
102
RTVSPost2010Prop54
  1
strokes_ogs.tif
102
RTVSPost2010PropOp54
 70
     1
102
RTVSPost2010Prop55
280
     0
102
RTVSPost2010PropOp55
 70
     1
102
RTVSPost2010Prop56
140
1.0
102
RTVSPost2010PropOp56
 70
     1
102
RTVSPost2010Prop57
140
1.0
102
RTVSPost2010PropOp57
 70
     1
102
RTVSPropertyOp0
 70
     1
102
RTVSPropertyOp1
 70
     1
102
RTVSPropertyOp2
 70
     1
102
RTVSPropertyOp3
 70
     1
102
RTVSPropertyOp4
 70
     1
102
RTVSPropertyOp5
 70
     1
102
RTVSPropertyOp6
 70
     1
102
RTVSPropertyOp7
 70
     1
102
RTVSPropertyOp8
 70
     1
102
RTVSPropertyOp9
 70
     1
102
RTVSPropertyOp10
 70
     1
102
RTVSPropertyOp11
 70
     1
102
RTVSPropertyOp12
 70
     1
102
RTVSPropertyOp13
 70
     1
102
RTVSPropertyOp14
 70
     1
102
RTVSPropertyOp15
 70
     1
102
RTVSPropertyOp16
 70
     1
102
RTVSPropertyOp17
 70
     1
102
RTVSPropertyOp18
 70
     1
102
RTVSPropertyOp19
 70
     1
102
RTVSPropertyOp20
 70
     1
102
RTVSPropertyOp21
 70
     1
102
RTVSPropertyOp22
 70
     1
102
RTVSPropertyOp23
 70
     1
102
RTVSPropertyOp24
 70
     1
102
RTVSPropertyOp25
 70
     1
102
RTVSPropertyOp26
 70
     1
102
RTVSPropertyOp27
 70
     1
102
RTVSPropertyOp28
 70
     1
102
RTVSPropertyOp29
 70
     1
102
RTVSPropertyOp30
 70
     1
102
RTVSPropertyOp31
 70
     1
102
RTVSPropertyOp32
 70
     1
102
RTVSPropertyOp33
 70
     1
102
RTVSPropertyOp34
 70
     1
102
RTVSPropertyOp35
 70
     1
102
RTVSPropertyOp36
 70
     1
102
RTVSPropertyOp37
 70
     1
102
RTVSPropertyOp38
 70
     1
102
RTVSPropertyOp39
 70
     1
102
RTVSPropertyOp40
 70
     1
102
RTVSPropertyOp41
 70
     1
102
RTVSPropertyOp42
 70
     1
102
RTVSPropertyOp43
 70
     1
102
RTVSPropertyOp44
 70
     1
102
RTVSPropertyOp45
 70
     1
102
RTVSPropertyOp46
 70
     1
102
RTVSPropertyOp47
 70
     1
102
RTVSPropertyOp48
 70
     1
102
RTVSPropertyOp49
 70
     1
102
RTVSPropertyOp50
 70
     1
102
RTVSPropertyOp51
 70
     0
102
RTVSPropertyOp52
 70
     0
102
RTVSPropertyOp53
 70
     1
102
RTVSPropertyOp54
 70
     1
102
RTVSPropertyOp55
 70
     1
102
RTVSPropertyOp56
 70
     1
102
RTVSPropertyOp57
 70
     1
102
RTVSPropertyOp58
 70
     1
102
RTVSPropertyOp59
 70
     1
102
RTVSPropertyOp60
 70
     1
102
RTVSPropertyOp61
 70
     1
102
RTVSPropertyOp62
 70
     1
  0
XRECORD
  5
31CF
102
{ACAD_REACTORS
330
31CE
102
}
330
31CE
100
AcDbXrecord
280
     1
102
RTVSPost2010Prop28
280
     0
102
RTVSPost2010PropOp28
 70
     1
102
RTVSPost2010Prop29
280
     1
102
RTVSPost2010PropOp29
 70
     1
102
RTVSPost2010Prop30
280
     1
102
RTVSPost2010PropOp30
 70
     1
102
RTVSPost2010Prop31
280
     0
102
RTVSPost2010PropOp31
 70
     1
102
RTVSPost2010Prop32
280
     0
102
RTVSPost2010PropOp32
 70
     1
102
RTVSPost2010Prop33
280
     0
102
RTVSPost2010PropOp33
 70
     1
102
RTVSPost2010Prop34
280
     0
102
RTVSPost2010PropOp34
 70
     1
102
RTVSPost2010Prop35
280
     0
102
RTVSPost2010PropOp35
 70
     1
102
RTVSPost2010Prop36
280
     0
102
RTVSPost2010PropOp36
 70
     1
102
RTVSPost2010Prop37
 90
       50
102
RTVSPost2010PropOp37
 70
     1
102
RTVSPost2010Prop38
140
0.0
102
RTVSPost2010PropOp38
 70
     1
102
RTVSPost2010Prop39
140
1.0
102
RTVSPost2010PropOp39
 70
     1
102
RTVSPost2010Prop40
 90
        0
102
RTVSPost2010PropOp40
 70
     1
102
RTVSPost2010Prop41ColorIndex
 90
       18
102
RTVSPost2010Prop41ColorRGB
 90
        0
102
RTVSPost2010PropOp41
 70
     1
102
RTVSPost2010Prop42
 90
       50
102
RTVSPost2010PropOp42
 70
     1
102
RTVSPost2010Prop43
 90
        3
102
RTVSPost2010PropOp43
 70
     1
102
RTVSPost2010Prop44ColorIndex
 90
        5
102
RTVSPost2010Prop44ColorRGB
 90
      255
102
RTVSPost2010PropOp44
 70
     1
102
RTVSPost2010Prop45
280
     0
102
RTVSPost2010PropOp45
 70
     1
102
RTVSPost2010Prop46
 90
       50
102
RTVSPost2010PropOp46
 70
     1
102
RTVSPost2010Prop47
 90
       50
102
RTVSPost2010PropOp47
 70
     1
102
RTVSPost2010Prop48
 90
       50
102
RTVSPost2010PropOp48
 70
     1
102
RTVSPost2010Prop49
280
     0
102
RTVSPost2010PropOp49
 70
     1
102
RTVSPost2010Prop50
 90
       50
102
RTVSPost2010PropOp50
 70
     1
102
RTVSPost2010Prop51ColorIndex
 90
      256
102
RTVSPost2010Prop51ColorRGB
 90
-16777216
102
RTVSPost2010PropOp51
 70
     0
102
RTVSPost2010Prop52
140
1.0
102
RTVSPost2010PropOp52
 70
     0
102
RTVSPost2010Prop53
 90
        2
102
RTVSPost2010PropOp53
 70
     1
102
RTVSPost2010Prop54
  1
strokes_ogs.tif
102
RTVSPost2010PropOp54
 70
     1
102
RTVSPost2010Prop55
280
     0
102
RTVSPost2010PropOp55
 70
     1
102
RTVSPost2010Prop56
140
1.0
102
RTVSPost2010PropOp56
 70
     1
102
RTVSPost2010Prop57
140
1.0
102
RTVSPost2010PropOp57
 70
     1
102
RTVSPropertyOp0
 70
     1
102
RTVSPropertyOp1
 70
     1
102
RTVSPropertyOp2
 70
     1
102
RTVSPropertyOp3
 70
     1
102
RTVSPropertyOp4
 70
     1
102
RTVSPropertyOp5
 70
     1
102
RTVSPropertyOp6
 70
     1
102
RTVSPropertyOp7
 70
     1
102
RTVSPropertyOp8
 70
     1
102
RTVSPropertyOp9
 70
     1
102
RTVSPropertyOp10
 70
     1
102
RTVSPropertyOp11
 70
     1
102
RTVSPropertyOp12
 70
     1
102
RTVSPropertyOp13
 70
     1
102
RTVSPropertyOp14
 70
     1
102
RTVSPropertyOp15
 70
     1
102
RTVSPropertyOp16
 70
     1
102
RTVSPropertyOp17
 70
     1
102
RTVSPropertyOp18
 70
     1
102
RTVSPropertyOp19
 70
     1
102
RTVSPropertyOp20
 70
     1
102
RTVSPropertyOp21
 70
     1
102
RTVSPropertyOp22
 70
     1
102
RTVSPropertyOp23
 70
     1
102
RTVSPropertyOp24
 70
     1
102
RTVSPropertyOp25
 70
     1
102
RTVSPropertyOp26
 70
     1
102
RTVSPropertyOp27
 70
     1
102
RTVSPropertyOp28
 70
     1
102
RTVSPropertyOp29
 70
     1
102
RTVSPropertyOp30
 70
     1
102
RTVSPropertyOp31
 70
     1
102
RTVSPropertyOp32
 70
     1
102
RTVSPropertyOp33
 70
     1
102
RTVSPropertyOp34
 70
     1
102
RTVSPropertyOp35
 70
     1
102
RTVSPropertyOp36
 70
     1
102
RTVSPropertyOp37
 70
     1
102
RTVSPropertyOp38
 70
     1
102
RTVSPropertyOp39
 70
     1
102
RTVSPropertyOp40
 70
     1
102
RTVSPropertyOp41
 70
     1
102
RTVSPropertyOp42
 70
     1
102
RTVSPropertyOp43
 70
     1
102
RTVSPropertyOp44
 70
     1
102
RTVSPropertyOp45
 70
     1
102
RTVSPropertyOp46
 70
     1
102
RTVSPropertyOp47
 70
     1
102
RTVSPropertyOp48
 70
     1
102
RTVSPropertyOp49
 70
     1
102
RTVSPropertyOp50
 70
     1
102
RTVSPropertyOp51
 70
     0
102
RTVSPropertyOp52
 70
     0
102
RTVSPropertyOp53
 70
     1
102
RTVSPropertyOp54
 70
     1
102
RTVSPropertyOp55
 70
     1
102
RTVSPropertyOp56
 70
     1
102
RTVSPropertyOp57
 70
     1
102
RTVSPropertyOp58
 70
     1
102
RTVSPropertyOp59
 70
     1
102
RTVSPropertyOp60
 70
     1
102
RTVSPropertyOp61
 70
     1
102
RTVSPropertyOp62
 70
     1
  0
XRECORD
  5
31C1
102
{ACAD_REACTORS
330
31C0
102
}
330
31C0
100
AcDbXrecord
280
     1
102
RTVSPost2010Prop28
280
     0
102
RTVSPost2010PropOp28
 70
     1
102
RTVSPost2010Prop29
280
     1
102
RTVSPost2010PropOp29
 70
     1
102
RTVSPost2010Prop30
280
     1
102
RTVSPost2010PropOp30
 70
     1
102
RTVSPost2010Prop31
280
     0
102
RTVSPost2010PropOp31
 70
     1
102
RTVSPost2010Prop32
280
     0
102
RTVSPost2010PropOp32
 70
     1
102
RTVSPost2010Prop33
280
     0
102
RTVSPost2010PropOp33
 70
     1
102
RTVSPost2010Prop34
280
     0
102
RTVSPost2010PropOp34
 70
     1
102
RTVSPost2010Prop35
280
     0
102
RTVSPost2010PropOp35
 70
     1
102
RTVSPost2010Prop36
280
     0
102
RTVSPost2010PropOp36
 70
     1
102
RTVSPost2010Prop37
 90
       50
102
RTVSPost2010PropOp37
 70
     1
102
RTVSPost2010Prop38
140
0.0
102
RTVSPost2010PropOp38
 70
     1
102
RTVSPost2010Prop39
140
1.0
102
RTVSPost2010PropOp39
 70
     1
102
RTVSPost2010Prop40
 90
        0
102
RTVSPost2010PropOp40
 70
     1
102
RTVSPost2010Prop41ColorIndex
 90
       18
102
RTVSPost2010Prop41ColorRGB
 90
        0
102
RTVSPost2010PropOp41
 70
     1
102
RTVSPost2010Prop42
 90
       50
102
RTVSPost2010PropOp42
 70
     1
102
RTVSPost2010Prop43
 90
        3
102
RTVSPost2010PropOp43
 70
     1
102
RTVSPost2010Prop44ColorIndex
 90
        5
102
RTVSPost2010Prop44ColorRGB
 90
      255
102
RTVSPost2010PropOp44
 70
     1
102
RTVSPost2010Prop45
280
     0
102
RTVSPost2010PropOp45
 70
     1
102
RTVSPost2010Prop46
 90
       50
102
RTVSPost2010PropOp46
 70
     1
102
RTVSPost2010Prop47
 90
       50
102
RTVSPost2010PropOp47
 70
     1
102
RTVSPost2010Prop48
 90
       50
102
RTVSPost2010PropOp48
 70
     1
102
RTVSPost2010Prop49
280
     0
102
RTVSPost2010PropOp49
 70
     1
102
RTVSPost2010Prop50
 90
       50
102
RTVSPost2010PropOp50
 70
     1
102
RTVSPost2010Prop51ColorIndex
 90
      256
102
RTVSPost2010Prop51ColorRGB
 90
-16777216
102
RTVSPost2010PropOp51
 70
     0
102
RTVSPost2010Prop52
140
1.0
102
RTVSPost2010PropOp52
 70
     0
102
RTVSPost2010Prop53
 90
        2
102
RTVSPost2010PropOp53
 70
     1
102
RTVSPost2010Prop54
  1
strokes_ogs.tif
102
RTVSPost2010PropOp54
 70
     1
102
RTVSPost2010Prop55
280
     0
102
RTVSPost2010PropOp55
 70
     1
102
RTVSPost2010Prop56
140
1.0
102
RTVSPost2010PropOp56
 70
     1
102
RTVSPost2010Prop57
140
1.0
102
RTVSPost2010PropOp57
 70
     1
102
RTVSPropertyOp0
 70
     1
102
RTVSPropertyOp1
 70
     1
102
RTVSPropertyOp2
 70
     1
102
RTVSPropertyOp3
 70
     1
102
RTVSPropertyOp4
 70
     1
102
RTVSPropertyOp5
 70
     1
102
RTVSPropertyOp6
 70
     1
102
RTVSPropertyOp7
 70
     1
102
RTVSPropertyOp8
 70
     1
102
RTVSPropertyOp9
 70
     1
102
RTVSPropertyOp10
 70
     1
102
RTVSPropertyOp11
 70
     1
102
RTVSPropertyOp12
 70
     1
102
RTVSPropertyOp13
 70
     1
102
RTVSPropertyOp14
 70
     1
102
RTVSPropertyOp15
 70
     1
102
RTVSPropertyOp16
 70
     1
102
RTVSPropertyOp17
 70
     1
102
RTVSPropertyOp18
 70
     1
102
RTVSPropertyOp19
 70
     1
102
RTVSPropertyOp20
 70
     1
102
RTVSPropertyOp21
 70
     1
102
RTVSPropertyOp22
 70
     1
102
RTVSPropertyOp23
 70
     1
102
RTVSPropertyOp24
 70
     1
102
RTVSPropertyOp25
 70
     1
102
RTVSPropertyOp26
 70
     1
102
RTVSPropertyOp27
 70
     1
102
RTVSPropertyOp28
 70
     1
102
RTVSPropertyOp29
 70
     1
102
RTVSPropertyOp30
 70
     1
102
RTVSPropertyOp31
 70
     1
102
RTVSPropertyOp32
 70
     1
102
RTVSPropertyOp33
 70
     1
102
RTVSPropertyOp34
 70
     1
102
RTVSPropertyOp35
 70
     1
102
RTVSPropertyOp36
 70
     1
102
RTVSPropertyOp37
 70
     1
102
RTVSPropertyOp38
 70
     1
102
RTVSPropertyOp39
 70
     1
102
RTVSPropertyOp40
 70
     1
102
RTVSPropertyOp41
 70
     1
102
RTVSPropertyOp42
 70
     1
102
RTVSPropertyOp43
 70
     1
102
RTVSPropertyOp44
 70
     1
102
RTVSPropertyOp45
 70
     1
102
RTVSPropertyOp46
 70
     1
102
RTVSPropertyOp47
 70
     1
102
RTVSPropertyOp48
 70
     1
102
RTVSPropertyOp49
 70
     1
102
RTVSPropertyOp50
 70
     1
102
RTVSPropertyOp51
 70
     0
102
RTVSPropertyOp52
 70
     0
102
RTVSPropertyOp53
 70
     1
102
RTVSPropertyOp54
 70
     1
102
RTVSPropertyOp55
 70
     1
102
RTVSPropertyOp56
 70
     1
102
RTVSPropertyOp57
 70
     1
102
RTVSPropertyOp58
 70
     1
102
RTVSPropertyOp59
 70
     1
102
RTVSPropertyOp60
 70
     1
102
RTVSPropertyOp61
 70
     1
102
RTVSPropertyOp62
 70
     1
  0
XRECORD
  5
31C5
102
{ACAD_REACTORS
330
31C4
102
}
330
31C4
100
AcDbXrecord
280
     1
102
RTVSPost2010Prop28
280
     0
102
RTVSPost2010PropOp28
 70
     1
102
RTVSPost2010Prop29
280
     1
102
RTVSPost2010PropOp29
 70
     1
102
RTVSPost2010Prop30
280
     1
102
RTVSPost2010PropOp30
 70
     1
102
RTVSPost2010Prop31
280
     0
102
RTVSPost2010PropOp31
 70
     1
102
RTVSPost2010Prop32
280
     0
102
RTVSPost2010PropOp32
 70
     1
102
RTVSPost2010Prop33
280
     0
102
RTVSPost2010PropOp33
 70
     1
102
RTVSPost2010Prop34
280
     0
102
RTVSPost2010PropOp34
 70
     1
102
RTVSPost2010Prop35
280
     0
102
RTVSPost2010PropOp35
 70
     1
102
RTVSPost2010Prop36
280
     0
102
RTVSPost2010PropOp36
 70
     1
102
RTVSPost2010Prop37
 90
       50
102
RTVSPost2010PropOp37
 70
     1
102
RTVSPost2010Prop38
140
0.0
102
RTVSPost2010PropOp38
 70
     1
102
RTVSPost2010Prop39
140
1.0
102
RTVSPost2010PropOp39
 70
     1
102
RTVSPost2010Prop40
 90
        0
102
RTVSPost2010PropOp40
 70
     1
102
RTVSPost2010Prop41ColorIndex
 90
       18
102
RTVSPost2010Prop41ColorRGB
 90
        0
102
RTVSPost2010PropOp41
 70
     1
102
RTVSPost2010Prop42
 90
       50
102
RTVSPost2010PropOp42
 70
     1
102
RTVSPost2010Prop43
 90
        3
102
RTVSPost2010PropOp43
 70
     1
102
RTVSPost2010Prop44ColorIndex
 90
        5
102
RTVSPost2010Prop44ColorRGB
 90
      255
102
RTVSPost2010PropOp44
 70
     1
102
RTVSPost2010Prop45
280
     0
102
RTVSPost2010PropOp45
 70
     1
102
RTVSPost2010Prop46
 90
       50
102
RTVSPost2010PropOp46
 70
     1
102
RTVSPost2010Prop47
 90
       50
102
RTVSPost2010PropOp47
 70
     1
102
RTVSPost2010Prop48
 90
       50
102
RTVSPost2010PropOp48
 70
     1
102
RTVSPost2010Prop49
280
     0
102
RTVSPost2010PropOp49
 70
     1
102
RTVSPost2010Prop50
 90
       50
102
RTVSPost2010PropOp50
 70
     1
102
RTVSPost2010Prop51ColorIndex
 90
      256
102
RTVSPost2010Prop51ColorRGB
 90
-16777216
102
RTVSPost2010PropOp51
 70
     0
102
RTVSPost2010Prop52
140
1.0
102
RTVSPost2010PropOp52
 70
     0
102
RTVSPost2010Prop53
 90
        2
102
RTVSPost2010PropOp53
 70
     1
102
RTVSPost2010Prop54
  1
strokes_ogs.tif
102
RTVSPost2010PropOp54
 70
     1
102
RTVSPost2010Prop55
280
     0
102
RTVSPost2010PropOp55
 70
     1
102
RTVSPost2010Prop56
140
1.0
102
RTVSPost2010PropOp56
 70
     1
102
RTVSPost2010Prop57
140
1.0
102
RTVSPost2010PropOp57
 70
     1
102
RTVSPropertyOp0
 70
     1
102
RTVSPropertyOp1
 70
     1
102
RTVSPropertyOp2
 70
     1
102
RTVSPropertyOp3
 70
     1
102
RTVSPropertyOp4
 70
     1
102
RTVSPropertyOp5
 70
     1
102
RTVSPropertyOp6
 70
     1
102
RTVSPropertyOp7
 70
     1
102
RTVSPropertyOp8
 70
     1
102
RTVSPropertyOp9
 70
     1
102
RTVSPropertyOp10
 70
     1
102
RTVSPropertyOp11
 70
     1
102
RTVSPropertyOp12
 70
     1
102
RTVSPropertyOp13
 70
     1
102
RTVSPropertyOp14
 70
     1
102
RTVSPropertyOp15
 70
     1
102
RTVSPropertyOp16
 70
     1
102
RTVSPropertyOp17
 70
     1
102
RTVSPropertyOp18
 70
     1
102
RTVSPropertyOp19
 70
     1
102
RTVSPropertyOp20
 70
     1
102
RTVSPropertyOp21
 70
     1
102
RTVSPropertyOp22
 70
     1
102
RTVSPropertyOp23
 70
     1
102
RTVSPropertyOp24
 70
     1
102
RTVSPropertyOp25
 70
     1
102
RTVSPropertyOp26
 70
     1
102
RTVSPropertyOp27
 70
     1
102
RTVSPropertyOp28
 70
     1
102
RTVSPropertyOp29
 70
     1
102
RTVSPropertyOp30
 70
     1
102
RTVSPropertyOp31
 70
     1
102
RTVSPropertyOp32
 70
     1
102
RTVSPropertyOp33
 70
     1
102
RTVSPropertyOp34
 70
     1
102
RTVSPropertyOp35
 70
     1
102
RTVSPropertyOp36
 70
     1
102
RTVSPropertyOp37
 70
     1
102
RTVSPropertyOp38
 70
     1
102
RTVSPropertyOp39
 70
     1
102
RTVSPropertyOp40
 70
     1
102
RTVSPropertyOp41
 70
     1
102
RTVSPropertyOp42
 70
     1
102
RTVSPropertyOp43
 70
     1
102
RTVSPropertyOp44
 70
     1
102
RTVSPropertyOp45
 70
     1
102
RTVSPropertyOp46
 70
     1
102
RTVSPropertyOp47
 70
     1
102
RTVSPropertyOp48
 70
     1
102
RTVSPropertyOp49
 70
     1
102
RTVSPropertyOp50
 70
     1
102
RTVSPropertyOp51
 70
     0
102
RTVSPropertyOp52
 70
     0
102
RTVSPropertyOp53
 70
     1
102
RTVSPropertyOp54
 70
     1
102
RTVSPropertyOp55
 70
     1
102
RTVSPropertyOp56
 70
     1
102
RTVSPropertyOp57
 70
     1
102
RTVSPropertyOp58
 70
     1
102
RTVSPropertyOp59
 70
     1
102
RTVSPropertyOp60
 70
     1
102
RTVSPropertyOp61
 70
     1
102
RTVSPropertyOp62
 70
     1
  0
XRECORD
  5
31DF
102
{ACAD_REACTORS
330
31DE
102
}
330
31DE
100
AcDbXrecord
280
     1
102
RTVSPost2010Prop28
280
     0
102
RTVSPost2010PropOp28
 70
     1
102
RTVSPost2010Prop29
280
     1
102
RTVSPost2010PropOp29
 70
     1
102
RTVSPost2010Prop30
280
     1
102
RTVSPost2010PropOp30
 70
     1
102
RTVSPost2010Prop31
280
     0
102
RTVSPost2010PropOp31
 70
     1
102
RTVSPost2010Prop32
280
     0
102
RTVSPost2010PropOp32
 70
     1
102
RTVSPost2010Prop33
280
     0
102
RTVSPost2010PropOp33
 70
     1
102
RTVSPost2010Prop34
280
     0
102
RTVSPost2010PropOp34
 70
     1
102
RTVSPost2010Prop35
280
     0
102
RTVSPost2010PropOp35
 70
     1
102
RTVSPost2010Prop36
280
     0
102
RTVSPost2010PropOp36
 70
     1
102
RTVSPost2010Prop37
 90
       50
102
RTVSPost2010PropOp37
 70
     0
102
RTVSPost2010Prop38
140
0.0
102
RTVSPost2010PropOp38
 70
     0
102
RTVSPost2010Prop39
140
1.0
102
RTVSPost2010PropOp39
 70
     0
102
RTVSPost2010Prop40
 90
        0
102
RTVSPost2010PropOp40
 70
     0
102
RTVSPost2010Prop41ColorIndex
 90
       18
102
RTVSPost2010Prop41ColorRGB
 90
        0
102
RTVSPost2010PropOp41
 70
     0
102
RTVSPost2010Prop42
 90
       50
102
RTVSPost2010PropOp42
 70
     0
102
RTVSPost2010Prop43
 90
        3
102
RTVSPost2010PropOp43
 70
     0
102
RTVSPost2010Prop44ColorIndex
 90
        5
102
RTVSPost2010Prop44ColorRGB
 90
      255
102
RTVSPost2010PropOp44
 70
     0
102
RTVSPost2010Prop45
280
     0
102
RTVSPost2010PropOp45
 70
     1
102
RTVSPost2010Prop46
 90
       50
102
RTVSPost2010PropOp46
 70
     0
102
RTVSPost2010Prop47
 90
       50
102
RTVSPost2010PropOp47
 70
     0
102
RTVSPost2010Prop48
 90
       50
102
RTVSPost2010PropOp48
 70
     0
102
RTVSPost2010Prop49
280
     0
102
RTVSPost2010PropOp49
 70
     1
102
RTVSPost2010Prop50
 90
       50
102
RTVSPost2010PropOp50
 70
     0
102
RTVSPost2010Prop51ColorIndex
 90
      256
102
RTVSPost2010Prop51ColorRGB
 90
-16777216
102
RTVSPost2010PropOp51
 70
     0
102
RTVSPost2010Prop52
140
1.0
102
RTVSPost2010PropOp52
 70
     0
102
RTVSPost2010Prop53
 90
        2
102
RTVSPost2010PropOp53
 70
     0
102
RTVSPost2010Prop54
  1
strokes_ogs.tif
102
RTVSPost2010PropOp54
 70
     0
102
RTVSPost2010Prop55
280
     0
102
RTVSPost2010PropOp55
 70
     1
102
RTVSPost2010Prop56
140
1.0
102
RTVSPost2010PropOp56
 70
     0
102
RTVSPost2010Prop57
140
1.0
102
RTVSPost2010PropOp57
 70
     0
102
RTVSPropertyOp0
 70
     0
102
RTVSPropertyOp1
 70
     0
102
RTVSPropertyOp2
 70
     0
102
RTVSPropertyOp3
 70
     0
102
RTVSPropertyOp4
 70
     0
102
RTVSPropertyOp5
 70
     0
102
RTVSPropertyOp6
 70
     0
102
RTVSPropertyOp7
 70
     0
102
RTVSPropertyOp8
 70
     0
102
RTVSPropertyOp9
 70
     0
102
RTVSPropertyOp10
 70
     0
102
RTVSPropertyOp11
 70
     0
102
RTVSPropertyOp12
 70
     0
102
RTVSPropertyOp13
 70
     0
102
RTVSPropertyOp14
 70
     2
102
RTVSPropertyOp15
 70
     0
102
RTVSPropertyOp16
 70
     0
102
RTVSPropertyOp17
 70
     0
102
RTVSPropertyOp18
 70
     0
102
RTVSPropertyOp19
 70
     0
102
RTVSPropertyOp20
 70
     0
102
RTVSPropertyOp21
 70
     0
102
RTVSPropertyOp22
 70
     0
102
RTVSPropertyOp23
 70
     0
102
RTVSPropertyOp24
 70
     0
102
RTVSPropertyOp25
 70
     0
102
RTVSPropertyOp26
 70
     0
102
RTVSPropertyOp27
 70
     0
102
RTVSPropertyOp28
 70
     1
102
RTVSPropertyOp29
 70
     1
102
RTVSPropertyOp30
 70
     1
102
RTVSPropertyOp31
 70
     1
102
RTVSPropertyOp32
 70
     1
102
RTVSPropertyOp33
 70
     1
102
RTVSPropertyOp34
 70
     1
102
RTVSPropertyOp35
 70
     1
102
RTVSPropertyOp36
 70
     1
102
RTVSPropertyOp37
 70
     0
102
RTVSPropertyOp38
 70
     0
102
RTVSPropertyOp39
 70
     0
102
RTVSPropertyOp40
 70
     0
102
RTVSPropertyOp41
 70
     0
102
RTVSPropertyOp42
 70
     0
102
RTVSPropertyOp43
 70
     0
102
RTVSPropertyOp44
 70
     0
102
RTVSPropertyOp45
 70
     1
102
RTVSPropertyOp46
 70
     0
102
RTVSPropertyOp47
 70
     0
102
RTVSPropertyOp48
 70
     0
102
RTVSPropertyOp49
 70
     1
102
RTVSPropertyOp50
 70
     0
102
RTVSPropertyOp51
 70
     0
102
RTVSPropertyOp52
 70
     0
102
RTVSPropertyOp53
 70
     0
102
RTVSPropertyOp54
 70
     0
102
RTVSPropertyOp55
 70
     1
102
RTVSPropertyOp56
 70
     0
102
RTVSPropertyOp57
 70
     0
102
RTVSPropertyOp58
 70
     0
102
RTVSPropertyOp59
 70
     0
102
RTVSPropertyOp60
 70
     0
102
RTVSPropertyOp61
 70
     0
102
RTVSPropertyOp62
 70
     0
  0
XRECORD
  5
31CD
102
{ACAD_REACTORS
330
31CC
102
}
330
31CC
100
AcDbXrecord
280
     1
102
RTVSPost2010Prop28
280
     0
102
RTVSPost2010PropOp28
 70
     1
102
RTVSPost2010Prop29
280
     1
102
RTVSPost2010PropOp29
 70
     1
102
RTVSPost2010Prop30
280
     1
102
RTVSPost2010PropOp30
 70
     1
102
RTVSPost2010Prop31
280
     0
102
RTVSPost2010PropOp31
 70
     1
102
RTVSPost2010Prop32
280
     0
102
RTVSPost2010PropOp32
 70
     1
102
RTVSPost2010Prop33
280
     0
102
RTVSPost2010PropOp33
 70
     1
102
RTVSPost2010Prop34
280
     0
102
RTVSPost2010PropOp34
 70
     1
102
RTVSPost2010Prop35
280
     0
102
RTVSPost2010PropOp35
 70
     1
102
RTVSPost2010Prop36
280
     0
102
RTVSPost2010PropOp36
 70
     1
102
RTVSPost2010Prop37
 90
       50
102
RTVSPost2010PropOp37
 70
     1
102
RTVSPost2010Prop38
140
0.0
102
RTVSPost2010PropOp38
 70
     1
102
RTVSPost2010Prop39
140
1.0
102
RTVSPost2010PropOp39
 70
     1
102
RTVSPost2010Prop40
 90
        0
102
RTVSPost2010PropOp40
 70
     1
102
RTVSPost2010Prop41ColorIndex
 90
       18
102
RTVSPost2010Prop41ColorRGB
 90
        0
102
RTVSPost2010PropOp41
 70
     1
102
RTVSPost2010Prop42
 90
       50
102
RTVSPost2010PropOp42
 70
     1
102
RTVSPost2010Prop43
 90
        3
102
RTVSPost2010PropOp43
 70
     1
102
RTVSPost2010Prop44ColorIndex
 90
        5
102
RTVSPost2010Prop44ColorRGB
 90
      255
102
RTVSPost2010PropOp44
 70
     1
102
RTVSPost2010Prop45
280
     0
102
RTVSPost2010PropOp45
 70
     1
102
RTVSPost2010Prop46
 90
       50
102
RTVSPost2010PropOp46
 70
     1
102
RTVSPost2010Prop47
 90
       50
102
RTVSPost2010PropOp47
 70
     1
102
RTVSPost2010Prop48
 90
       50
102
RTVSPost2010PropOp48
 70
     1
102
RTVSPost2010Prop49
280
     0
102
RTVSPost2010PropOp49
 70
     1
102
RTVSPost2010Prop50
 90
       50
102
RTVSPost2010PropOp50
 70
     1
102
RTVSPost2010Prop51ColorIndex
 90
      256
102
RTVSPost2010Prop51ColorRGB
 90
-16777216
102
RTVSPost2010PropOp51
 70
     0
102
RTVSPost2010Prop52
140
1.0
102
RTVSPost2010PropOp52
 70
     0
102
RTVSPost2010Prop53
 90
        2
102
RTVSPost2010PropOp53
 70
     1
102
RTVSPost2010Prop54
  1
strokes_ogs.tif
102
RTVSPost2010PropOp54
 70
     1
102
RTVSPost2010Prop55
280
     0
102
RTVSPost2010PropOp55
 70
     1
102
RTVSPost2010Prop56
140
1.0
102
RTVSPost2010PropOp56
 70
     1
102
RTVSPost2010Prop57
140
1.0
102
RTVSPost2010PropOp57
 70
     1
102
RTVSPropertyOp0
 70
     1
102
RTVSPropertyOp1
 70
     1
102
RTVSPropertyOp2
 70
     1
102
RTVSPropertyOp3
 70
     1
102
RTVSPropertyOp4
 70
     1
102
RTVSPropertyOp5
 70
     1
102
RTVSPropertyOp6
 70
     1
102
RTVSPropertyOp7
 70
     1
102
RTVSPropertyOp8
 70
     1
102
RTVSPropertyOp9
 70
     1
102
RTVSPropertyOp10
 70
     1
102
RTVSPropertyOp11
 70
     1
102
RTVSPropertyOp12
 70
     1
102
RTVSPropertyOp13
 70
     1
102
RTVSPropertyOp14
 70
     1
102
RTVSPropertyOp15
 70
     1
102
RTVSPropertyOp16
 70
     1
102
RTVSPropertyOp17
 70
     1
102
RTVSPropertyOp18
 70
     1
102
RTVSPropertyOp19
 70
     1
102
RTVSPropertyOp20
 70
     1
102
RTVSPropertyOp21
 70
     1
102
RTVSPropertyOp22
 70
     1
102
RTVSPropertyOp23
 70
     1
102
RTVSPropertyOp24
 70
     1
102
RTVSPropertyOp25
 70
     1
102
RTVSPropertyOp26
 70
     1
102
RTVSPropertyOp27
 70
     1
102
RTVSPropertyOp28
 70
     1
102
RTVSPropertyOp29
 70
     1
102
RTVSPropertyOp30
 70
     1
102
RTVSPropertyOp31
 70
     1
102
RTVSPropertyOp32
 70
     1
102
RTVSPropertyOp33
 70
     1
102
RTVSPropertyOp34
 70
     1
102
RTVSPropertyOp35
 70
     1
102
RTVSPropertyOp36
 70
     1
102
RTVSPropertyOp37
 70
     1
102
RTVSPropertyOp38
 70
     1
102
RTVSPropertyOp39
 70
     1
102
RTVSPropertyOp40
 70
     1
102
RTVSPropertyOp41
 70
     1
102
RTVSPropertyOp42
 70
     1
102
RTVSPropertyOp43
 70
     1
102
RTVSPropertyOp44
 70
     1
102
RTVSPropertyOp45
 70
     1
102
RTVSPropertyOp46
 70
     1
102
RTVSPropertyOp47
 70
     1
102
RTVSPropertyOp48
 70
     1
102
RTVSPropertyOp49
 70
     1
102
RTVSPropertyOp50
 70
     1
102
RTVSPropertyOp51
 70
     0
102
RTVSPropertyOp52
 70
     0
102
RTVSPropertyOp53
 70
     1
102
RTVSPropertyOp54
 70
     1
102
RTVSPropertyOp55
 70
     1
102
RTVSPropertyOp56
 70
     1
102
RTVSPropertyOp57
 70
     1
102
RTVSPropertyOp58
 70
     1
102
RTVSPropertyOp59
 70
     1
102
RTVSPropertyOp60
 70
     1
102
RTVSPropertyOp61
 70
     1
102
RTVSPropertyOp62
 70
     1
  0
XRECORD
  5
31B1
102
{ACAD_REACTORS
330
31B0
102
}
330
31B0
100
AcDbXrecord
280
     1
102
RTVSPost2010Prop28
280
     0
102
RTVSPost2010PropOp28
 70
     1
102
RTVSPost2010Prop29
280
     1
102
RTVSPost2010PropOp29
 70
     1
102
RTVSPost2010Prop30
280
     1
102
RTVSPost2010PropOp30
 70
     1
102
RTVSPost2010Prop31
280
     0
102
RTVSPost2010PropOp31
 70
     1
102
RTVSPost2010Prop32
280
     0
102
RTVSPost2010PropOp32
 70
     1
102
RTVSPost2010Prop33
280
     0
102
RTVSPost2010PropOp33
 70
     1
102
RTVSPost2010Prop34
280
     0
102
RTVSPost2010PropOp34
 70
     1
102
RTVSPost2010Prop35
280
     0
102
RTVSPost2010PropOp35
 70
     1
102
RTVSPost2010Prop36
280
     0
102
RTVSPost2010PropOp36
 70
     1
102
RTVSPost2010Prop37
 90
       50
102
RTVSPost2010PropOp37
 70
     1
102
RTVSPost2010Prop38
140
0.0
102
RTVSPost2010PropOp38
 70
     1
102
RTVSPost2010Prop39
140
1.0
102
RTVSPost2010PropOp39
 70
     1
102
RTVSPost2010Prop40
 90
        0
102
RTVSPost2010PropOp40
 70
     1
102
RTVSPost2010Prop41ColorIndex
 90
       18
102
RTVSPost2010Prop41ColorRGB
 90
        0
102
RTVSPost2010PropOp41
 70
     1
102
RTVSPost2010Prop42
 90
       50
102
RTVSPost2010PropOp42
 70
     1
102
RTVSPost2010Prop43
 90
        3
102
RTVSPost2010PropOp43
 70
     1
102
RTVSPost2010Prop44ColorIndex
 90
        5
102
RTVSPost2010Prop44ColorRGB
 90
      255
102
RTVSPost2010PropOp44
 70
     1
102
RTVSPost2010Prop45
280
     0
102
RTVSPost2010PropOp45
 70
     1
102
RTVSPost2010Prop46
 90
       50
102
RTVSPost2010PropOp46
 70
     1
102
RTVSPost2010Prop47
 90
       50
102
RTVSPost2010PropOp47
 70
     1
102
RTVSPost2010Prop48
 90
       50
102
RTVSPost2010PropOp48
 70
     1
102
RTVSPost2010Prop49
280
     0
102
RTVSPost2010PropOp49
 70
     1
102
RTVSPost2010Prop50
 90
       50
102
RTVSPost2010PropOp50
 70
     1
102
RTVSPost2010Prop51ColorIndex
 90
      256
102
RTVSPost2010Prop51ColorRGB
 90
-16777216
102
RTVSPost2010PropOp51
 70
     0
102
RTVSPost2010Prop52
140
1.0
102
RTVSPost2010PropOp52
 70
     0
102
RTVSPost2010Prop53
 90
        2
102
RTVSPost2010PropOp53
 70
     1
102
RTVSPost2010Prop54
  1
strokes_ogs.tif
102
RTVSPost2010PropOp54
 70
     1
102
RTVSPost2010Prop55
280
     0
102
RTVSPost2010PropOp55
 70
     1
102
RTVSPost2010Prop56
140
1.0
102
RTVSPost2010PropOp56
 70
     1
102
RTVSPost2010Prop57
140
1.0
102
RTVSPost2010PropOp57
 70
     1
102
RTVSPropertyOp0
 70
     1
102
RTVSPropertyOp1
 70
     1
102
RTVSPropertyOp2
 70
     1
102
RTVSPropertyOp3
 70
     1
102
RTVSPropertyOp4
 70
     1
102
RTVSPropertyOp5
 70
     1
102
RTVSPropertyOp6
 70
     1
102
RTVSPropertyOp7
 70
     1
102
RTVSPropertyOp8
 70
     1
102
RTVSPropertyOp9
 70
     1
102
RTVSPropertyOp10
 70
     1
102
RTVSPropertyOp11
 70
     1
102
RTVSPropertyOp12
 70
     1
102
RTVSPropertyOp13
 70
     1
102
RTVSPropertyOp14
 70
     1
102
RTVSPropertyOp15
 70
     1
102
RTVSPropertyOp16
 70
     1
102
RTVSPropertyOp17
 70
     1
102
RTVSPropertyOp18
 70
     1
102
RTVSPropertyOp19
 70
     1
102
RTVSPropertyOp20
 70
     1
102
RTVSPropertyOp21
 70
     1
102
RTVSPropertyOp22
 70
     1
102
RTVSPropertyOp23
 70
     1
102
RTVSPropertyOp24
 70
     1
102
RTVSPropertyOp25
 70
     1
102
RTVSPropertyOp26
 70
     1
102
RTVSPropertyOp27
 70
     1
102
RTVSPropertyOp28
 70
     1
102
RTVSPropertyOp29
 70
     1
102
RTVSPropertyOp30
 70
     1
102
RTVSPropertyOp31
 70
     1
102
RTVSPropertyOp32
 70
     1
102
RTVSPropertyOp33
 70
     1
102
RTVSPropertyOp34
 70
     1
102
RTVSPropertyOp35
 70
     1
102
RTVSPropertyOp36
 70
     1
102
RTVSPropertyOp37
 70
     1
102
RTVSPropertyOp38
 70
     1
102
RTVSPropertyOp39
 70
     1
102
RTVSPropertyOp40
 70
     1
102
RTVSPropertyOp41
 70
     1
102
RTVSPropertyOp42
 70
     1
102
RTVSPropertyOp43
 70
     1
102
RTVSPropertyOp44
 70
     1
102
RTVSPropertyOp45
 70
     1
102
RTVSPropertyOp46
 70
     1
102
RTVSPropertyOp47
 70
     1
102
RTVSPropertyOp48
 70
     1
102
RTVSPropertyOp49
 70
     1
102
RTVSPropertyOp50
 70
     1
102
RTVSPropertyOp51
 70
     0
102
RTVSPropertyOp52
 70
     0
102
RTVSPropertyOp53
 70
     1
102
RTVSPropertyOp54
 70
     1
102
RTVSPropertyOp55
 70
     1
102
RTVSPropertyOp56
 70
     1
102
RTVSPropertyOp57
 70
     1
102
RTVSPropertyOp58
 70
     1
102
RTVSPropertyOp59
 70
     1
102
RTVSPropertyOp60
 70
     1
102
RTVSPropertyOp61
 70
     1
102
RTVSPropertyOp62
 70
     1
  0
XRECORD
  5
31B3
102
{ACAD_REACTORS
330
31B2
102
}
330
31B2
100
AcDbXrecord
280
     1
102
RTVSPost2010Prop28
280
     0
102
RTVSPost2010PropOp28
 70
     1
102
RTVSPost2010Prop29
280
     1
102
RTVSPost2010PropOp29
 70
     1
102
RTVSPost2010Prop30
280
     1
102
RTVSPost2010PropOp30
 70
     1
102
RTVSPost2010Prop31
280
     0
102
RTVSPost2010PropOp31
 70
     1
102
RTVSPost2010Prop32
280
     0
102
RTVSPost2010PropOp32
 70
     1
102
RTVSPost2010Prop33
280
     0
102
RTVSPost2010PropOp33
 70
     1
102
RTVSPost2010Prop34
280
     0
102
RTVSPost2010PropOp34
 70
     1
102
RTVSPost2010Prop35
280
     0
102
RTVSPost2010PropOp35
 70
     1
102
RTVSPost2010Prop36
280
     0
102
RTVSPost2010PropOp36
 70
     1
102
RTVSPost2010Prop37
 90
       50
102
RTVSPost2010PropOp37
 70
     1
102
RTVSPost2010Prop38
140
0.0
102
RTVSPost2010PropOp38
 70
     1
102
RTVSPost2010Prop39
140
1.0
102
RTVSPost2010PropOp39
 70
     1
102
RTVSPost2010Prop40
 90
        0
102
RTVSPost2010PropOp40
 70
     1
102
RTVSPost2010Prop41ColorIndex
 90
       18
102
RTVSPost2010Prop41ColorRGB
 90
        0
102
RTVSPost2010PropOp41
 70
     1
102
RTVSPost2010Prop42
 90
       50
102
RTVSPost2010PropOp42
 70
     1
102
RTVSPost2010Prop43
 90
        3
102
RTVSPost2010PropOp43
 70
     1
102
RTVSPost2010Prop44ColorIndex
 90
        5
102
RTVSPost2010Prop44ColorRGB
 90
      255
102
RTVSPost2010PropOp44
 70
     1
102
RTVSPost2010Prop45
280
     0
102
RTVSPost2010PropOp45
 70
     1
102
RTVSPost2010Prop46
 90
       50
102
RTVSPost2010PropOp46
 70
     1
102
RTVSPost2010Prop47
 90
       50
102
RTVSPost2010PropOp47
 70
     1
102
RTVSPost2010Prop48
 90
       50
102
RTVSPost2010PropOp48
 70
     1
102
RTVSPost2010Prop49
280
     0
102
RTVSPost2010PropOp49
 70
     1
102
RTVSPost2010Prop50
 90
       50
102
RTVSPost2010PropOp50
 70
     1
102
RTVSPost2010Prop51ColorIndex
 90
      256
102
RTVSPost2010Prop51ColorRGB
 90
-16777216
102
RTVSPost2010PropOp51
 70
     0
102
RTVSPost2010Prop52
140
1.0
102
RTVSPost2010PropOp52
 70
     0
102
RTVSPost2010Prop53
 90
        2
102
RTVSPost2010PropOp53
 70
     1
102
RTVSPost2010Prop54
  1
strokes_ogs.tif
102
RTVSPost2010PropOp54
 70
     1
102
RTVSPost2010Prop55
280
     0
102
RTVSPost2010PropOp55
 70
     1
102
RTVSPost2010Prop56
140
1.0
102
RTVSPost2010PropOp56
 70
     1
102
RTVSPost2010Prop57
140
1.0
102
RTVSPost2010PropOp57
 70
     1
102
RTVSPropertyOp0
 70
     1
102
RTVSPropertyOp1
 70
     1
102
RTVSPropertyOp2
 70
     1
102
RTVSPropertyOp3
 70
     1
102
RTVSPropertyOp4
 70
     1
102
RTVSPropertyOp5
 70
     1
102
RTVSPropertyOp6
 70
     1
102
RTVSPropertyOp7
 70
     1
102
RTVSPropertyOp8
 70
     1
102
RTVSPropertyOp9
 70
     1
102
RTVSPropertyOp10
 70
     1
102
RTVSPropertyOp11
 70
     1
102
RTVSPropertyOp12
 70
     1
102
RTVSPropertyOp13
 70
     1
102
RTVSPropertyOp14
 70
     1
102
RTVSPropertyOp15
 70
     1
102
RTVSPropertyOp16
 70
     1
102
RTVSPropertyOp17
 70
     1
102
RTVSPropertyOp18
 70
     1
102
RTVSPropertyOp19
 70
     1
102
RTVSPropertyOp20
 70
     1
102
RTVSPropertyOp21
 70
     1
102
RTVSPropertyOp22
 70
     1
102
RTVSPropertyOp23
 70
     1
102
RTVSPropertyOp24
 70
     1
102
RTVSPropertyOp25
 70
     1
102
RTVSPropertyOp26
 70
     1
102
RTVSPropertyOp27
 70
     1
102
RTVSPropertyOp28
 70
     1
102
RTVSPropertyOp29
 70
     1
102
RTVSPropertyOp30
 70
     1
102
RTVSPropertyOp31
 70
     1
102
RTVSPropertyOp32
 70
     1
102
RTVSPropertyOp33
 70
     1
102
RTVSPropertyOp34
 70
     1
102
RTVSPropertyOp35
 70
     1
102
RTVSPropertyOp36
 70
     1
102
RTVSPropertyOp37
 70
     1
102
RTVSPropertyOp38
 70
     1
102
RTVSPropertyOp39
 70
     1
102
RTVSPropertyOp40
 70
     1
102
RTVSPropertyOp41
 70
     1
102
RTVSPropertyOp42
 70
     1
102
RTVSPropertyOp43
 70
     1
102
RTVSPropertyOp44
 70
     1
102
RTVSPropertyOp45
 70
     1
102
RTVSPropertyOp46
 70
     1
102
RTVSPropertyOp47
 70
     1
102
RTVSPropertyOp48
 70
     1
102
RTVSPropertyOp49
 70
     1
102
RTVSPropertyOp50
 70
     1
102
RTVSPropertyOp51
 70
     0
102
RTVSPropertyOp52
 70
     0
102
RTVSPropertyOp53
 70
     1
102
RTVSPropertyOp54
 70
     1
102
RTVSPropertyOp55
 70
     1
102
RTVSPropertyOp56
 70
     1
102
RTVSPropertyOp57
 70
     1
102
RTVSPropertyOp58
 70
     1
102
RTVSPropertyOp59
 70
     1
102
RTVSPropertyOp60
 70
     1
102
RTVSPropertyOp61
 70
     1
102
RTVSPropertyOp62
 70
     1
  0
XRECORD
  5
31B5
102
{ACAD_REACTORS
330
31B4
102
}
330
31B4
100
AcDbXrecord
280
     1
102
RTVSPost2010Prop28
280
     0
102
RTVSPost2010PropOp28
 70
     1
102
RTVSPost2010Prop29
280
     1
102
RTVSPost2010PropOp29
 70
     1
102
RTVSPost2010Prop30
280
     1
102
RTVSPost2010PropOp30
 70
     1
102
RTVSPost2010Prop31
280
     0
102
RTVSPost2010PropOp31
 70
     1
102
RTVSPost2010Prop32
280
     0
102
RTVSPost2010PropOp32
 70
     1
102
RTVSPost2010Prop33
280
     0
102
RTVSPost2010PropOp33
 70
     1
102
RTVSPost2010Prop34
280
     0
102
RTVSPost2010PropOp34
 70
     1
102
RTVSPost2010Prop35
280
     0
102
RTVSPost2010PropOp35
 70
     1
102
RTVSPost2010Prop36
280
     0
102
RTVSPost2010PropOp36
 70
     1
102
RTVSPost2010Prop37
 90
       50
102
RTVSPost2010PropOp37
 70
     1
102
RTVSPost2010Prop38
140
0.0
102
RTVSPost2010PropOp38
 70
     1
102
RTVSPost2010Prop39
140
1.0
102
RTVSPost2010PropOp39
 70
     1
102
RTVSPost2010Prop40
 90
        0
102
RTVSPost2010PropOp40
 70
     1
102
RTVSPost2010Prop41ColorIndex
 90
       18
102
RTVSPost2010Prop41ColorRGB
 90
        0
102
RTVSPost2010PropOp41
 70
     1
102
RTVSPost2010Prop42
 90
       50
102
RTVSPost2010PropOp42
 70
     1
102
RTVSPost2010Prop43
 90
        3
102
RTVSPost2010PropOp43
 70
     1
102
RTVSPost2010Prop44ColorIndex
 90
        5
102
RTVSPost2010Prop44ColorRGB
 90
      255
102
RTVSPost2010PropOp44
 70
     1
102
RTVSPost2010Prop45
280
     0
102
RTVSPost2010PropOp45
 70
     1
102
RTVSPost2010Prop46
 90
       50
102
RTVSPost2010PropOp46
 70
     1
102
RTVSPost2010Prop47
 90
       50
102
RTVSPost2010PropOp47
 70
     1
102
RTVSPost2010Prop48
 90
       50
102
RTVSPost2010PropOp48
 70
     1
102
RTVSPost2010Prop49
280
     0
102
RTVSPost2010PropOp49
 70
     1
102
RTVSPost2010Prop50
 90
       50
102
RTVSPost2010PropOp50
 70
     1
102
RTVSPost2010Prop51ColorIndex
 90
      256
102
RTVSPost2010Prop51ColorRGB
 90
-16777216
102
RTVSPost2010PropOp51
 70
     0
102
RTVSPost2010Prop52
140
1.0
102
RTVSPost2010PropOp52
 70
     0
102
RTVSPost2010Prop53
 90
        2
102
RTVSPost2010PropOp53
 70
     1
102
RTVSPost2010Prop54
  1
strokes_ogs.tif
102
RTVSPost2010PropOp54
 70
     1
102
RTVSPost2010Prop55
280
     0
102
RTVSPost2010PropOp55
 70
     1
102
RTVSPost2010Prop56
140
1.0
102
RTVSPost2010PropOp56
 70
     1
102
RTVSPost2010Prop57
140
1.0
102
RTVSPost2010PropOp57
 70
     1
102
RTVSPropertyOp0
 70
     1
102
RTVSPropertyOp1
 70
     1
102
RTVSPropertyOp2
 70
     1
102
RTVSPropertyOp3
 70
     1
102
RTVSPropertyOp4
 70
     1
102
RTVSPropertyOp5
 70
     1
102
RTVSPropertyOp6
 70
     1
102
RTVSPropertyOp7
 70
     1
102
RTVSPropertyOp8
 70
     1
102
RTVSPropertyOp9
 70
     1
102
RTVSPropertyOp10
 70
     1
102
RTVSPropertyOp11
 70
     1
102
RTVSPropertyOp12
 70
     1
102
RTVSPropertyOp13
 70
     1
102
RTVSPropertyOp14
 70
     1
102
RTVSPropertyOp15
 70
     1
102
RTVSPropertyOp16
 70
     1
102
RTVSPropertyOp17
 70
     1
102
RTVSPropertyOp18
 70
     1
102
RTVSPropertyOp19
 70
     1
102
RTVSPropertyOp20
 70
     1
102
RTVSPropertyOp21
 70
     1
102
RTVSPropertyOp22
 70
     1
102
RTVSPropertyOp23
 70
     1
102
RTVSPropertyOp24
 70
     1
102
RTVSPropertyOp25
 70
     1
102
RTVSPropertyOp26
 70
     1
102
RTVSPropertyOp27
 70
     1
102
RTVSPropertyOp28
 70
     1
102
RTVSPropertyOp29
 70
     1
102
RTVSPropertyOp30
 70
     1
102
RTVSPropertyOp31
 70
     1
102
RTVSPropertyOp32
 70
     1
102
RTVSPropertyOp33
 70
     1
102
RTVSPropertyOp34
 70
     1
102
RTVSPropertyOp35
 70
     1
102
RTVSPropertyOp36
 70
     1
102
RTVSPropertyOp37
 70
     1
102
RTVSPropertyOp38
 70
     1
102
RTVSPropertyOp39
 70
     1
102
RTVSPropertyOp40
 70
     1
102
RTVSPropertyOp41
 70
     1
102
RTVSPropertyOp42
 70
     1
102
RTVSPropertyOp43
 70
     1
102
RTVSPropertyOp44
 70
     1
102
RTVSPropertyOp45
 70
     1
102
RTVSPropertyOp46
 70
     1
102
RTVSPropertyOp47
 70
     1
102
RTVSPropertyOp48
 70
     1
102
RTVSPropertyOp49
 70
     1
102
RTVSPropertyOp50
 70
     1
102
RTVSPropertyOp51
 70
     0
102
RTVSPropertyOp52
 70
     0
102
RTVSPropertyOp53
 70
     1
102
RTVSPropertyOp54
 70
     1
102
RTVSPropertyOp55
 70
     1
102
RTVSPropertyOp56
 70
     1
102
RTVSPropertyOp57
 70
     1
102
RTVSPropertyOp58
 70
     1
102
RTVSPropertyOp59
 70
     1
102
RTVSPropertyOp60
 70
     1
102
RTVSPropertyOp61
 70
     1
102
RTVSPropertyOp62
 70
     1
  0
XRECORD
  5
31B7
102
{ACAD_REACTORS
330
31B6
102
}
330
31B6
100
AcDbXrecord
280
     1
102
RTVSPost2010Prop28
280
     0
102
RTVSPost2010PropOp28
 70
     1
102
RTVSPost2010Prop29
280
     1
102
RTVSPost2010PropOp29
 70
     1
102
RTVSPost2010Prop30
280
     1
102
RTVSPost2010PropOp30
 70
     1
102
RTVSPost2010Prop31
280
     0
102
RTVSPost2010PropOp31
 70
     1
102
RTVSPost2010Prop32
280
     0
102
RTVSPost2010PropOp32
 70
     1
102
RTVSPost2010Prop33
280
     0
102
RTVSPost2010PropOp33
 70
     1
102
RTVSPost2010Prop34
280
     0
102
RTVSPost2010PropOp34
 70
     1
102
RTVSPost2010Prop35
280
     0
102
RTVSPost2010PropOp35
 70
     1
102
RTVSPost2010Prop36
280
     0
102
RTVSPost2010PropOp36
 70
     1
102
RTVSPost2010Prop37
 90
       50
102
RTVSPost2010PropOp37
 70
     1
102
RTVSPost2010Prop38
140
0.0
102
RTVSPost2010PropOp38
 70
     1
102
RTVSPost2010Prop39
140
1.0
102
RTVSPost2010PropOp39
 70
     1
102
RTVSPost2010Prop40
 90
        0
102
RTVSPost2010PropOp40
 70
     1
102
RTVSPost2010Prop41ColorIndex
 90
       18
102
RTVSPost2010Prop41ColorRGB
 90
        0
102
RTVSPost2010PropOp41
 70
     1
102
RTVSPost2010Prop42
 90
       50
102
RTVSPost2010PropOp42
 70
     1
102
RTVSPost2010Prop43
 90
        3
102
RTVSPost2010PropOp43
 70
     1
102
RTVSPost2010Prop44ColorIndex
 90
        5
102
RTVSPost2010Prop44ColorRGB
 90
      255
102
RTVSPost2010PropOp44
 70
     1
102
RTVSPost2010Prop45
280
     0
102
RTVSPost2010PropOp45
 70
     1
102
RTVSPost2010Prop46
 90
       50
102
RTVSPost2010PropOp46
 70
     1
102
RTVSPost2010Prop47
 90
       50
102
RTVSPost2010PropOp47
 70
     1
102
RTVSPost2010Prop48
 90
       50
102
RTVSPost2010PropOp48
 70
     1
102
RTVSPost2010Prop49
280
     0
102
RTVSPost2010PropOp49
 70
     1
102
RTVSPost2010Prop50
 90
       50
102
RTVSPost2010PropOp50
 70
     1
102
RTVSPost2010Prop51ColorIndex
 90
      256
102
RTVSPost2010Prop51ColorRGB
 90
-16777216
102
RTVSPost2010PropOp51
 70
     0
102
RTVSPost2010Prop52
140
1.0
102
RTVSPost2010PropOp52
 70
     0
102
RTVSPost2010Prop53
 90
        2
102
RTVSPost2010PropOp53
 70
     1
102
RTVSPost2010Prop54
  1
strokes_ogs.tif
102
RTVSPost2010PropOp54
 70
     1
102
RTVSPost2010Prop55
280
     0
102
RTVSPost2010PropOp55
 70
     1
102
RTVSPost2010Prop56
140
1.0
102
RTVSPost2010PropOp56
 70
     1
102
RTVSPost2010Prop57
140
1.0
102
RTVSPost2010PropOp57
 70
     1
102
RTVSPropertyOp0
 70
     1
102
RTVSPropertyOp1
 70
     1
102
RTVSPropertyOp2
 70
     1
102
RTVSPropertyOp3
 70
     1
102
RTVSPropertyOp4
 70
     1
102
RTVSPropertyOp5
 70
     1
102
RTVSPropertyOp6
 70
     1
102
RTVSPropertyOp7
 70
     1
102
RTVSPropertyOp8
 70
     1
102
RTVSPropertyOp9
 70
     1
102
RTVSPropertyOp10
 70
     1
102
RTVSPropertyOp11
 70
     1
102
RTVSPropertyOp12
 70
     1
102
RTVSPropertyOp13
 70
     1
102
RTVSPropertyOp14
 70
     1
102
RTVSPropertyOp15
 70
     1
102
RTVSPropertyOp16
 70
     1
102
RTVSPropertyOp17
 70
     1
102
RTVSPropertyOp18
 70
     1
102
RTVSPropertyOp19
 70
     1
102
RTVSPropertyOp20
 70
     1
102
RTVSPropertyOp21
 70
     1
102
RTVSPropertyOp22
 70
     1
102
RTVSPropertyOp23
 70
     1
102
RTVSPropertyOp24
 70
     1
102
RTVSPropertyOp25
 70
     1
102
RTVSPropertyOp26
 70
     1
102
RTVSPropertyOp27
 70
     1
102
RTVSPropertyOp28
 70
     1
102
RTVSPropertyOp29
 70
     1
102
RTVSPropertyOp30
 70
     1
102
RTVSPropertyOp31
 70
     1
102
RTVSPropertyOp32
 70
     1
102
RTVSPropertyOp33
 70
     1
102
RTVSPropertyOp34
 70
     1
102
RTVSPropertyOp35
 70
     1
102
RTVSPropertyOp36
 70
     1
102
RTVSPropertyOp37
 70
     1
102
RTVSPropertyOp38
 70
     1
102
RTVSPropertyOp39
 70
     1
102
RTVSPropertyOp40
 70
     1
102
RTVSPropertyOp41
 70
     1
102
RTVSPropertyOp42
 70
     1
102
RTVSPropertyOp43
 70
     1
102
RTVSPropertyOp44
 70
     1
102
RTVSPropertyOp45
 70
     1
102
RTVSPropertyOp46
 70
     1
102
RTVSPropertyOp47
 70
     1
102
RTVSPropertyOp48
 70
     1
102
RTVSPropertyOp49
 70
     1
102
RTVSPropertyOp50
 70
     1
102
RTVSPropertyOp51
 70
     0
102
RTVSPropertyOp52
 70
     0
102
RTVSPropertyOp53
 70
     1
102
RTVSPropertyOp54
 70
     1
102
RTVSPropertyOp55
 70
     1
102
RTVSPropertyOp56
 70
     1
102
RTVSPropertyOp57
 70
     1
102
RTVSPropertyOp58
 70
     1
102
RTVSPropertyOp59
 70
     1
102
RTVSPropertyOp60
 70
     1
102
RTVSPropertyOp61
 70
     1
102
RTVSPropertyOp62
 70
     1
  0
XRECORD
  5
31BF
102
{ACAD_REACTORS
330
31BE
102
}
330
31BE
100
AcDbXrecord
280
     1
102
RTVSPost2010Prop28
280
     0
102
RTVSPost2010PropOp28
 70
     1
102
RTVSPost2010Prop29
280
     1
102
RTVSPost2010PropOp29
 70
     1
102
RTVSPost2010Prop30
280
     1
102
RTVSPost2010PropOp30
 70
     1
102
RTVSPost2010Prop31
280
     0
102
RTVSPost2010PropOp31
 70
     1
102
RTVSPost2010Prop32
280
     0
102
RTVSPost2010PropOp32
 70
     1
102
RTVSPost2010Prop33
280
     0
102
RTVSPost2010PropOp33
 70
     1
102
RTVSPost2010Prop34
280
     0
102
RTVSPost2010PropOp34
 70
     1
102
RTVSPost2010Prop35
280
     0
102
RTVSPost2010PropOp35
 70
     1
102
RTVSPost2010Prop36
280
     0
102
RTVSPost2010PropOp36
 70
     1
102
RTVSPost2010Prop37
 90
       50
102
RTVSPost2010PropOp37
 70
     1
102
RTVSPost2010Prop38
140
0.0
102
RTVSPost2010PropOp38
 70
     1
102
RTVSPost2010Prop39
140
1.0
102
RTVSPost2010PropOp39
 70
     1
102
RTVSPost2010Prop40
 90
        0
102
RTVSPost2010PropOp40
 70
     1
102
RTVSPost2010Prop41ColorIndex
 90
       18
102
RTVSPost2010Prop41ColorRGB
 90
        0
102
RTVSPost2010PropOp41
 70
     1
102
RTVSPost2010Prop42
 90
       50
102
RTVSPost2010PropOp42
 70
     1
102
RTVSPost2010Prop43
 90
        3
102
RTVSPost2010PropOp43
 70
     1
102
RTVSPost2010Prop44ColorIndex
 90
        5
102
RTVSPost2010Prop44ColorRGB
 90
      255
102
RTVSPost2010PropOp44
 70
     1
102
RTVSPost2010Prop45
280
     0
102
RTVSPost2010PropOp45
 70
     1
102
RTVSPost2010Prop46
 90
       50
102
RTVSPost2010PropOp46
 70
     1
102
RTVSPost2010Prop47
 90
       50
102
RTVSPost2010PropOp47
 70
     1
102
RTVSPost2010Prop48
 90
       50
102
RTVSPost2010PropOp48
 70
     1
102
RTVSPost2010Prop49
280
     0
102
RTVSPost2010PropOp49
 70
     1
102
RTVSPost2010Prop50
 90
       50
102
RTVSPost2010PropOp50
 70
     1
102
RTVSPost2010Prop51ColorIndex
 90
      256
102
RTVSPost2010Prop51ColorRGB
 90
-16777216
102
RTVSPost2010PropOp51
 70
     0
102
RTVSPost2010Prop52
140
1.0
102
RTVSPost2010PropOp52
 70
     0
102
RTVSPost2010Prop53
 90
        2
102
RTVSPost2010PropOp53
 70
     1
102
RTVSPost2010Prop54
  1
strokes_ogs.tif
102
RTVSPost2010PropOp54
 70
     1
102
RTVSPost2010Prop55
280
     0
102
RTVSPost2010PropOp55
 70
     1
102
RTVSPost2010Prop56
140
1.0
102
RTVSPost2010PropOp56
 70
     1
102
RTVSPost2010Prop57
140
1.0
102
RTVSPost2010PropOp57
 70
     1
102
RTVSPropertyOp0
 70
     1
102
RTVSPropertyOp1
 70
     1
102
RTVSPropertyOp2
 70
     1
102
RTVSPropertyOp3
 70
     1
102
RTVSPropertyOp4
 70
     1
102
RTVSPropertyOp5
 70
     1
102
RTVSPropertyOp6
 70
     1
102
RTVSPropertyOp7
 70
     1
102
RTVSPropertyOp8
 70
     1
102
RTVSPropertyOp9
 70
     1
102
RTVSPropertyOp10
 70
     1
102
RTVSPropertyOp11
 70
     1
102
RTVSPropertyOp12
 70
     1
102
RTVSPropertyOp13
 70
     1
102
RTVSPropertyOp14
 70
     1
102
RTVSPropertyOp15
 70
     1
102
RTVSPropertyOp16
 70
     1
102
RTVSPropertyOp17
 70
     1
102
RTVSPropertyOp18
 70
     1
102
RTVSPropertyOp19
 70
     1
102
RTVSPropertyOp20
 70
     1
102
RTVSPropertyOp21
 70
     1
102
RTVSPropertyOp22
 70
     1
102
RTVSPropertyOp23
 70
     1
102
RTVSPropertyOp24
 70
     1
102
RTVSPropertyOp25
 70
     1
102
RTVSPropertyOp26
 70
     1
102
RTVSPropertyOp27
 70
     1
102
RTVSPropertyOp28
 70
     1
102
RTVSPropertyOp29
 70
     1
102
RTVSPropertyOp30
 70
     1
102
RTVSPropertyOp31
 70
     1
102
RTVSPropertyOp32
 70
     1
102
RTVSPropertyOp33
 70
     1
102
RTVSPropertyOp34
 70
     1
102
RTVSPropertyOp35
 70
     1
102
RTVSPropertyOp36
 70
     1
102
RTVSPropertyOp37
 70
     1
102
RTVSPropertyOp38
 70
     1
102
RTVSPropertyOp39
 70
     1
102
RTVSPropertyOp40
 70
     1
102
RTVSPropertyOp41
 70
     1
102
RTVSPropertyOp42
 70
     1
102
RTVSPropertyOp43
 70
     1
102
RTVSPropertyOp44
 70
     1
102
RTVSPropertyOp45
 70
     1
102
RTVSPropertyOp46
 70
     1
102
RTVSPropertyOp47
 70
     1
102
RTVSPropertyOp48
 70
     1
102
RTVSPropertyOp49
 70
     1
102
RTVSPropertyOp50
 70
     1
102
RTVSPropertyOp51
 70
     0
102
RTVSPropertyOp52
 70
     0
102
RTVSPropertyOp53
 70
     1
102
RTVSPropertyOp54
 70
     1
102
RTVSPropertyOp55
 70
     1
102
RTVSPropertyOp56
 70
     1
102
RTVSPropertyOp57
 70
     1
102
RTVSPropertyOp58
 70
     1
102
RTVSPropertyOp59
 70
     1
102
RTVSPropertyOp60
 70
     1
102
RTVSPropertyOp61
 70
     1
102
RTVSPropertyOp62
 70
     1
  0
XRECORD
  5
31DB
102
{ACAD_REACTORS
330
31DA
102
}
330
31DA
100
AcDbXrecord
280
     1
102
RTVSPost2010Prop28
280
     0
102
RTVSPost2010PropOp28
 70
     1
102
RTVSPost2010Prop29
280
     1
102
RTVSPost2010PropOp29
 70
     1
102
RTVSPost2010Prop30
280
     1
102
RTVSPost2010PropOp30
 70
     1
102
RTVSPost2010Prop31
280
     0
102
RTVSPost2010PropOp31
 70
     1
102
RTVSPost2010Prop32
280
     0
102
RTVSPost2010PropOp32
 70
     1
102
RTVSPost2010Prop33
280
     0
102
RTVSPost2010PropOp33
 70
     1
102
RTVSPost2010Prop34
280
     0
102
RTVSPost2010PropOp34
 70
     1
102
RTVSPost2010Prop35
280
     0
102
RTVSPost2010PropOp35
 70
     1
102
RTVSPost2010Prop36
280
     0
102
RTVSPost2010PropOp36
 70
     1
102
RTVSPost2010Prop37
 90
       50
102
RTVSPost2010PropOp37
 70
     0
102
RTVSPost2010Prop38
140
0.0
102
RTVSPost2010PropOp38
 70
     0
102
RTVSPost2010Prop39
140
1.0
102
RTVSPost2010PropOp39
 70
     0
102
RTVSPost2010Prop40
 90
        0
102
RTVSPost2010PropOp40
 70
     0
102
RTVSPost2010Prop41ColorIndex
 90
       18
102
RTVSPost2010Prop41ColorRGB
 90
        0
102
RTVSPost2010PropOp41
 70
     0
102
RTVSPost2010Prop42
 90
       50
102
RTVSPost2010PropOp42
 70
     0
102
RTVSPost2010Prop43
 90
        3
102
RTVSPost2010PropOp43
 70
     0
102
RTVSPost2010Prop44ColorIndex
 90
        5
102
RTVSPost2010Prop44ColorRGB
 90
      255
102
RTVSPost2010PropOp44
 70
     0
102
RTVSPost2010Prop45
280
     0
102
RTVSPost2010PropOp45
 70
     1
102
RTVSPost2010Prop46
 90
       50
102
RTVSPost2010PropOp46
 70
     0
102
RTVSPost2010Prop47
 90
       50
102
RTVSPost2010PropOp47
 70
     0
102
RTVSPost2010Prop48
 90
       50
102
RTVSPost2010PropOp48
 70
     0
102
RTVSPost2010Prop49
280
     0
102
RTVSPost2010PropOp49
 70
     1
102
RTVSPost2010Prop50
 90
       50
102
RTVSPost2010PropOp50
 70
     0
102
RTVSPost2010Prop51ColorIndex
 90
      256
102
RTVSPost2010Prop51ColorRGB
 90
-16777216
102
RTVSPost2010PropOp51
 70
     0
102
RTVSPost2010Prop52
140
1.0
102
RTVSPost2010PropOp52
 70
     0
102
RTVSPost2010Prop53
 90
        2
102
RTVSPost2010PropOp53
 70
     0
102
RTVSPost2010Prop54
  1
strokes_ogs.tif
102
RTVSPost2010PropOp54
 70
     0
102
RTVSPost2010Prop55
280
     0
102
RTVSPost2010PropOp55
 70
     1
102
RTVSPost2010Prop56
140
1.0
102
RTVSPost2010PropOp56
 70
     0
102
RTVSPost2010Prop57
140
1.0
102
RTVSPost2010PropOp57
 70
     0
102
RTVSPropertyOp0
 70
     0
102
RTVSPropertyOp1
 70
     0
102
RTVSPropertyOp2
 70
     0
102
RTVSPropertyOp3
 70
     0
102
RTVSPropertyOp4
 70
     0
102
RTVSPropertyOp5
 70
     0
102
RTVSPropertyOp6
 70
     0
102
RTVSPropertyOp7
 70
     0
102
RTVSPropertyOp8
 70
     0
102
RTVSPropertyOp9
 70
     0
102
RTVSPropertyOp10
 70
     0
102
RTVSPropertyOp11
 70
     0
102
RTVSPropertyOp12
 70
     0
102
RTVSPropertyOp13
 70
     0
102
RTVSPropertyOp14
 70
     2
102
RTVSPropertyOp15
 70
     0
102
RTVSPropertyOp16
 70
     0
102
RTVSPropertyOp17
 70
     0
102
RTVSPropertyOp18
 70
     0
102
RTVSPropertyOp19
 70
     0
102
RTVSPropertyOp20
 70
     0
102
RTVSPropertyOp21
 70
     0
102
RTVSPropertyOp22
 70
     0
102
RTVSPropertyOp23
 70
     0
102
RTVSPropertyOp24
 70
     0
102
RTVSPropertyOp25
 70
     0
102
RTVSPropertyOp26
 70
     0
102
RTVSPropertyOp27
 70
     0
102
RTVSPropertyOp28
 70
     1
102
RTVSPropertyOp29
 70
     1
102
RTVSPropertyOp30
 70
     1
102
RTVSPropertyOp31
 70
     1
102
RTVSPropertyOp32
 70
     1
102
RTVSPropertyOp33
 70
     1
102
RTVSPropertyOp34
 70
     1
102
RTVSPropertyOp35
 70
     1
102
RTVSPropertyOp36
 70
     1
102
RTVSPropertyOp37
 70
     0
102
RTVSPropertyOp38
 70
     0
102
RTVSPropertyOp39
 70
     0
102
RTVSPropertyOp40
 70
     0
102
RTVSPropertyOp41
 70
     0
102
RTVSPropertyOp42
 70
     0
102
RTVSPropertyOp43
 70
     0
102
RTVSPropertyOp44
 70
     0
102
RTVSPropertyOp45
 70
     1
102
RTVSPropertyOp46
 70
     0
102
RTVSPropertyOp47
 70
     0
102
RTVSPropertyOp48
 70
     0
102
RTVSPropertyOp49
 70
     1
102
RTVSPropertyOp50
 70
     0
102
RTVSPropertyOp51
 70
     0
102
RTVSPropertyOp52
 70
     0
102
RTVSPropertyOp53
 70
     0
102
RTVSPropertyOp54
 70
     0
102
RTVSPropertyOp55
 70
     1
102
RTVSPropertyOp56
 70
     0
102
RTVSPropertyOp57
 70
     0
102
RTVSPropertyOp58
 70
     0
102
RTVSPropertyOp59
 70
     0
102
RTVSPropertyOp60
 70
     0
102
RTVSPropertyOp61
 70
     0
102
RTVSPropertyOp62
 70
     0
  0
XRECORD
  5
31CB
102
{ACAD_REACTORS
330
31CA
102
}
330
31CA
100
AcDbXrecord
280
     1
102
RTVSPost2010Prop28
280
     0
102
RTVSPost2010PropOp28
 70
     1
102
RTVSPost2010Prop29
280
     1
102
RTVSPost2010PropOp29
 70
     1
102
RTVSPost2010Prop30
280
     1
102
RTVSPost2010PropOp30
 70
     1
102
RTVSPost2010Prop31
280
     0
102
RTVSPost2010PropOp31
 70
     1
102
RTVSPost2010Prop32
280
     0
102
RTVSPost2010PropOp32
 70
     1
102
RTVSPost2010Prop33
280
     0
102
RTVSPost2010PropOp33
 70
     1
102
RTVSPost2010Prop34
280
     0
102
RTVSPost2010PropOp34
 70
     1
102
RTVSPost2010Prop35
280
     0
102
RTVSPost2010PropOp35
 70
     1
102
RTVSPost2010Prop36
280
     0
102
RTVSPost2010PropOp36
 70
     1
102
RTVSPost2010Prop37
 90
       50
102
RTVSPost2010PropOp37
 70
     1
102
RTVSPost2010Prop38
140
0.0
102
RTVSPost2010PropOp38
 70
     1
102
RTVSPost2010Prop39
140
1.0
102
RTVSPost2010PropOp39
 70
     1
102
RTVSPost2010Prop40
 90
        0
102
RTVSPost2010PropOp40
 70
     1
102
RTVSPost2010Prop41ColorIndex
 90
       18
102
RTVSPost2010Prop41ColorRGB
 90
        0
102
RTVSPost2010PropOp41
 70
     1
102
RTVSPost2010Prop42
 90
       50
102
RTVSPost2010PropOp42
 70
     1
102
RTVSPost2010Prop43
 90
        3
102
RTVSPost2010PropOp43
 70
     1
102
RTVSPost2010Prop44ColorIndex
 90
        5
102
RTVSPost2010Prop44ColorRGB
 90
      255
102
RTVSPost2010PropOp44
 70
     1
102
RTVSPost2010Prop45
280
     0
102
RTVSPost2010PropOp45
 70
     1
102
RTVSPost2010Prop46
 90
       50
102
RTVSPost2010PropOp46
 70
     1
102
RTVSPost2010Prop47
 90
       50
102
RTVSPost2010PropOp47
 70
     1
102
RTVSPost2010Prop48
 90
       50
102
RTVSPost2010PropOp48
 70
     1
102
RTVSPost2010Prop49
280
     0
102
RTVSPost2010PropOp49
 70
     1
102
RTVSPost2010Prop50
 90
       50
102
RTVSPost2010PropOp50
 70
     1
102
RTVSPost2010Prop51ColorIndex
 90
      256
102
RTVSPost2010Prop51ColorRGB
 90
-16777216
102
RTVSPost2010PropOp51
 70
     0
102
RTVSPost2010Prop52
140
1.0
102
RTVSPost2010PropOp52
 70
     0
102
RTVSPost2010Prop53
 90
        2
102
RTVSPost2010PropOp53
 70
     1
102
RTVSPost2010Prop54
  1
strokes_ogs.tif
102
RTVSPost2010PropOp54
 70
     1
102
RTVSPost2010Prop55
280
     0
102
RTVSPost2010PropOp55
 70
     1
102
RTVSPost2010Prop56
140
1.0
102
RTVSPost2010PropOp56
 70
     1
102
RTVSPost2010Prop57
140
1.0
102
RTVSPost2010PropOp57
 70
     1
102
RTVSPropertyOp0
 70
     1
102
RTVSPropertyOp1
 70
     1
102
RTVSPropertyOp2
 70
     1
102
RTVSPropertyOp3
 70
     1
102
RTVSPropertyOp4
 70
     1
102
RTVSPropertyOp5
 70
     1
102
RTVSPropertyOp6
 70
     1
102
RTVSPropertyOp7
 70
     1
102
RTVSPropertyOp8
 70
     1
102
RTVSPropertyOp9
 70
     1
102
RTVSPropertyOp10
 70
     1
102
RTVSPropertyOp11
 70
     1
102
RTVSPropertyOp12
 70
     1
102
RTVSPropertyOp13
 70
     1
102
RTVSPropertyOp14
 70
     1
102
RTVSPropertyOp15
 70
     1
102
RTVSPropertyOp16
 70
     1
102
RTVSPropertyOp17
 70
     1
102
RTVSPropertyOp18
 70
     1
102
RTVSPropertyOp19
 70
     1
102
RTVSPropertyOp20
 70
     1
102
RTVSPropertyOp21
 70
     1
102
RTVSPropertyOp22
 70
     1
102
RTVSPropertyOp23
 70
     1
102
RTVSPropertyOp24
 70
     1
102
RTVSPropertyOp25
 70
     1
102
RTVSPropertyOp26
 70
     1
102
RTVSPropertyOp27
 70
     1
102
RTVSPropertyOp28
 70
     1
102
RTVSPropertyOp29
 70
     1
102
RTVSPropertyOp30
 70
     1
102
RTVSPropertyOp31
 70
     1
102
RTVSPropertyOp32
 70
     1
102
RTVSPropertyOp33
 70
     1
102
RTVSPropertyOp34
 70
     1
102
RTVSPropertyOp35
 70
     1
102
RTVSPropertyOp36
 70
     1
102
RTVSPropertyOp37
 70
     1
102
RTVSPropertyOp38
 70
     1
102
RTVSPropertyOp39
 70
     1
102
RTVSPropertyOp40
 70
     1
102
RTVSPropertyOp41
 70
     1
102
RTVSPropertyOp42
 70
     1
102
RTVSPropertyOp43
 70
     1
102
RTVSPropertyOp44
 70
     1
102
RTVSPropertyOp45
 70
     1
102
RTVSPropertyOp46
 70
     1
102
RTVSPropertyOp47
 70
     1
102
RTVSPropertyOp48
 70
     1
102
RTVSPropertyOp49
 70
     1
102
RTVSPropertyOp50
 70
     1
102
RTVSPropertyOp51
 70
     0
102
RTVSPropertyOp52
 70
     0
102
RTVSPropertyOp53
 70
     1
102
RTVSPropertyOp54
 70
     1
102
RTVSPropertyOp55
 70
     1
102
RTVSPropertyOp56
 70
     1
102
RTVSPropertyOp57
 70
     1
102
RTVSPropertyOp58
 70
     1
102
RTVSPropertyOp59
 70
     1
102
RTVSPropertyOp60
 70
     1
102
RTVSPropertyOp61
 70
     1
102
RTVSPropertyOp62
 70
     1
  0
XRECORD
  5
31DD
102
{ACAD_REACTORS
330
31DC
102
}
330
31DC
100
AcDbXrecord
280
     1
102
RTVSPost2010Prop28
280
     0
102
RTVSPost2010PropOp28
 70
     1
102
RTVSPost2010Prop29
280
     1
102
RTVSPost2010PropOp29
 70
     1
102
RTVSPost2010Prop30
280
     1
102
RTVSPost2010PropOp30
 70
     1
102
RTVSPost2010Prop31
280
     0
102
RTVSPost2010PropOp31
 70
     1
102
RTVSPost2010Prop32
280
     0
102
RTVSPost2010PropOp32
 70
     1
102
RTVSPost2010Prop33
280
     0
102
RTVSPost2010PropOp33
 70
     1
102
RTVSPost2010Prop34
280
     0
102
RTVSPost2010PropOp34
 70
     1
102
RTVSPost2010Prop35
280
     0
102
RTVSPost2010PropOp35
 70
     1
102
RTVSPost2010Prop36
280
     0
102
RTVSPost2010PropOp36
 70
     1
102
RTVSPost2010Prop37
 90
       50
102
RTVSPost2010PropOp37
 70
     0
102
RTVSPost2010Prop38
140
0.0
102
RTVSPost2010PropOp38
 70
     0
102
RTVSPost2010Prop39
140
1.0
102
RTVSPost2010PropOp39
 70
     0
102
RTVSPost2010Prop40
 90
        0
102
RTVSPost2010PropOp40
 70
     0
102
RTVSPost2010Prop41ColorIndex
 90
       18
102
RTVSPost2010Prop41ColorRGB
 90
        0
102
RTVSPost2010PropOp41
 70
     0
102
RTVSPost2010Prop42
 90
       50
102
RTVSPost2010PropOp42
 70
     0
102
RTVSPost2010Prop43
 90
        3
102
RTVSPost2010PropOp43
 70
     0
102
RTVSPost2010Prop44ColorIndex
 90
        5
102
RTVSPost2010Prop44ColorRGB
 90
      255
102
RTVSPost2010PropOp44
 70
     0
102
RTVSPost2010Prop45
280
     0
102
RTVSPost2010PropOp45
 70
     1
102
RTVSPost2010Prop46
 90
       50
102
RTVSPost2010PropOp46
 70
     0
102
RTVSPost2010Prop47
 90
       50
102
RTVSPost2010PropOp47
 70
     0
102
RTVSPost2010Prop48
 90
       50
102
RTVSPost2010PropOp48
 70
     0
102
RTVSPost2010Prop49
280
     0
102
RTVSPost2010PropOp49
 70
     1
102
RTVSPost2010Prop50
 90
       50
102
RTVSPost2010PropOp50
 70
     0
102
RTVSPost2010Prop51ColorIndex
 90
      256
102
RTVSPost2010Prop51ColorRGB
 90
-16777216
102
RTVSPost2010PropOp51
 70
     0
102
RTVSPost2010Prop52
140
1.0
102
RTVSPost2010PropOp52
 70
     0
102
RTVSPost2010Prop53
 90
        2
102
RTVSPost2010PropOp53
 70
     0
102
RTVSPost2010Prop54
  1
strokes_ogs.tif
102
RTVSPost2010PropOp54
 70
     0
102
RTVSPost2010Prop55
280
     0
102
RTVSPost2010PropOp55
 70
     1
102
RTVSPost2010Prop56
140
1.0
102
RTVSPost2010PropOp56
 70
     0
102
RTVSPost2010Prop57
140
1.0
102
RTVSPost2010PropOp57
 70
     0
102
RTVSPropertyOp0
 70
     0
102
RTVSPropertyOp1
 70
     0
102
RTVSPropertyOp2
 70
     0
102
RTVSPropertyOp3
 70
     0
102
RTVSPropertyOp4
 70
     0
102
RTVSPropertyOp5
 70
     0
102
RTVSPropertyOp6
 70
     0
102
RTVSPropertyOp7
 70
     0
102
RTVSPropertyOp8
 70
     0
102
RTVSPropertyOp9
 70
     0
102
RTVSPropertyOp10
 70
     0
102
RTVSPropertyOp11
 70
     0
102
RTVSPropertyOp12
 70
     0
102
RTVSPropertyOp13
 70
     0
102
RTVSPropertyOp14
 70
     2
102
RTVSPropertyOp15
 70
     0
102
RTVSPropertyOp16
 70
     0
102
RTVSPropertyOp17
 70
     0
102
RTVSPropertyOp18
 70
     0
102
RTVSPropertyOp19
 70
     0
102
RTVSPropertyOp20
 70
     0
102
RTVSPropertyOp21
 70
     0
102
RTVSPropertyOp22
 70
     0
102
RTVSPropertyOp23
 70
     0
102
RTVSPropertyOp24
 70
     0
102
RTVSPropertyOp25
 70
     0
102
RTVSPropertyOp26
 70
     0
102
RTVSPropertyOp27
 70
     0
102
RTVSPropertyOp28
 70
     1
102
RTVSPropertyOp29
 70
     1
102
RTVSPropertyOp30
 70
     1
102
RTVSPropertyOp31
 70
     1
102
RTVSPropertyOp32
 70
     1
102
RTVSPropertyOp33
 70
     1
102
RTVSPropertyOp34
 70
     1
102
RTVSPropertyOp35
 70
     1
102
RTVSPropertyOp36
 70
     1
102
RTVSPropertyOp37
 70
     0
102
RTVSPropertyOp38
 70
     0
102
RTVSPropertyOp39
 70
     0
102
RTVSPropertyOp40
 70
     0
102
RTVSPropertyOp41
 70
     0
102
RTVSPropertyOp42
 70
     0
102
RTVSPropertyOp43
 70
     0
102
RTVSPropertyOp44
 70
     0
102
RTVSPropertyOp45
 70
     1
102
RTVSPropertyOp46
 70
     0
102
RTVSPropertyOp47
 70
     0
102
RTVSPropertyOp48
 70
     0
102
RTVSPropertyOp49
 70
     1
102
RTVSPropertyOp50
 70
     0
102
RTVSPropertyOp51
 70
     0
102
RTVSPropertyOp52
 70
     0
102
RTVSPropertyOp53
 70
     0
102
RTVSPropertyOp54
 70
     0
102
RTVSPropertyOp55
 70
     1
102
RTVSPropertyOp56
 70
     0
102
RTVSPropertyOp57
 70
     0
102
RTVSPropertyOp58
 70
     0
102
RTVSPropertyOp59
 70
     0
102
RTVSPropertyOp60
 70
     0
102
RTVSPropertyOp61
 70
     0
102
RTVSPropertyOp62
 70
     0
  0
XRECORD
  5
31C3
102
{ACAD_REACTORS
330
31C2
102
}
330
31C2
100
AcDbXrecord
280
     1
102
RTVSPost2010Prop28
280
     0
102
RTVSPost2010PropOp28
 70
     1
102
RTVSPost2010Prop29
280
     1
102
RTVSPost2010PropOp29
 70
     1
102
RTVSPost2010Prop30
280
     1
102
RTVSPost2010PropOp30
 70
     1
102
RTVSPost2010Prop31
280
     0
102
RTVSPost2010PropOp31
 70
     1
102
RTVSPost2010Prop32
280
     0
102
RTVSPost2010PropOp32
 70
     1
102
RTVSPost2010Prop33
280
     0
102
RTVSPost2010PropOp33
 70
     1
102
RTVSPost2010Prop34
280
     0
102
RTVSPost2010PropOp34
 70
     1
102
RTVSPost2010Prop35
280
     0
102
RTVSPost2010PropOp35
 70
     1
102
RTVSPost2010Prop36
280
     0
102
RTVSPost2010PropOp36
 70
     1
102
RTVSPost2010Prop37
 90
       50
102
RTVSPost2010PropOp37
 70
     1
102
RTVSPost2010Prop38
140
0.0
102
RTVSPost2010PropOp38
 70
     1
102
RTVSPost2010Prop39
140
1.0
102
RTVSPost2010PropOp39
 70
     1
102
RTVSPost2010Prop40
 90
        0
102
RTVSPost2010PropOp40
 70
     1
102
RTVSPost2010Prop41ColorIndex
 90
       18
102
RTVSPost2010Prop41ColorRGB
 90
        0
102
RTVSPost2010PropOp41
 70
     1
102
RTVSPost2010Prop42
 90
       50
102
RTVSPost2010PropOp42
 70
     1
102
RTVSPost2010Prop43
 90
        3
102
RTVSPost2010PropOp43
 70
     1
102
RTVSPost2010Prop44ColorIndex
 90
        5
102
RTVSPost2010Prop44ColorRGB
 90
      255
102
RTVSPost2010PropOp44
 70
     1
102
RTVSPost2010Prop45
280
     0
102
RTVSPost2010PropOp45
 70
     1
102
RTVSPost2010Prop46
 90
       50
102
RTVSPost2010PropOp46
 70
     1
102
RTVSPost2010Prop47
 90
       50
102
RTVSPost2010PropOp47
 70
     1
102
RTVSPost2010Prop48
 90
       50
102
RTVSPost2010PropOp48
 70
     1
102
RTVSPost2010Prop49
280
     0
102
RTVSPost2010PropOp49
 70
     1
102
RTVSPost2010Prop50
 90
       50
102
RTVSPost2010PropOp50
 70
     1
102
RTVSPost2010Prop51ColorIndex
 90
      256
102
RTVSPost2010Prop51ColorRGB
 90
-16777216
102
RTVSPost2010PropOp51
 70
     0
102
RTVSPost2010Prop52
140
1.0
102
RTVSPost2010PropOp52
 70
     0
102
RTVSPost2010Prop53
 90
        2
102
RTVSPost2010PropOp53
 70
     1
102
RTVSPost2010Prop54
  1
strokes_ogs.tif
102
RTVSPost2010PropOp54
 70
     1
102
RTVSPost2010Prop55
280
     0
102
RTVSPost2010PropOp55
 70
     1
102
RTVSPost2010Prop56
140
1.0
102
RTVSPost2010PropOp56
 70
     1
102
RTVSPost2010Prop57
140
1.0
102
RTVSPost2010PropOp57
 70
     1
102
RTVSPropertyOp0
 70
     1
102
RTVSPropertyOp1
 70
     1
102
RTVSPropertyOp2
 70
     1
102
RTVSPropertyOp3
 70
     1
102
RTVSPropertyOp4
 70
     1
102
RTVSPropertyOp5
 70
     1
102
RTVSPropertyOp6
 70
     1
102
RTVSPropertyOp7
 70
     1
102
RTVSPropertyOp8
 70
     1
102
RTVSPropertyOp9
 70
     1
102
RTVSPropertyOp10
 70
     1
102
RTVSPropertyOp11
 70
     1
102
RTVSPropertyOp12
 70
     1
102
RTVSPropertyOp13
 70
     1
102
RTVSPropertyOp14
 70
     1
102
RTVSPropertyOp15
 70
     1
102
RTVSPropertyOp16
 70
     1
102
RTVSPropertyOp17
 70
     1
102
RTVSPropertyOp18
 70
     1
102
RTVSPropertyOp19
 70
     1
102
RTVSPropertyOp20
 70
     1
102
RTVSPropertyOp21
 70
     1
102
RTVSPropertyOp22
 70
     1
102
RTVSPropertyOp23
 70
     1
102
RTVSPropertyOp24
 70
     1
102
RTVSPropertyOp25
 70
     1
102
RTVSPropertyOp26
 70
     1
102
RTVSPropertyOp27
 70
     1
102
RTVSPropertyOp28
 70
     1
102
RTVSPropertyOp29
 70
     1
102
RTVSPropertyOp30
 70
     1
102
RTVSPropertyOp31
 70
     1
102
RTVSPropertyOp32
 70
     1
102
RTVSPropertyOp33
 70
     1
102
RTVSPropertyOp34
 70
     1
102
RTVSPropertyOp35
 70
     1
102
RTVSPropertyOp36
 70
     1
102
RTVSPropertyOp37
 70
     1
102
RTVSPropertyOp38
 70
     1
102
RTVSPropertyOp39
 70
     1
102
RTVSPropertyOp40
 70
     1
102
RTVSPropertyOp41
 70
     1
102
RTVSPropertyOp42
 70
     1
102
RTVSPropertyOp43
 70
     1
102
RTVSPropertyOp44
 70
     1
102
RTVSPropertyOp45
 70
     1
102
RTVSPropertyOp46
 70
     1
102
RTVSPropertyOp47
 70
     1
102
RTVSPropertyOp48
 70
     1
102
RTVSPropertyOp49
 70
     1
102
RTVSPropertyOp50
 70
     1
102
RTVSPropertyOp51
 70
     0
102
RTVSPropertyOp52
 70
     0
102
RTVSPropertyOp53
 70
     1
102
RTVSPropertyOp54
 70
     1
102
RTVSPropertyOp55
 70
     1
102
RTVSPropertyOp56
 70
     1
102
RTVSPropertyOp57
 70
     1
102
RTVSPropertyOp58
 70
     1
102
RTVSPropertyOp59
 70
     1
102
RTVSPropertyOp60
 70
     1
102
RTVSPropertyOp61
 70
     1
102
RTVSPropertyOp62
 70
     1
  0
XRECORD
  5
31D9
102
{ACAD_REACTORS
330
31D8
102
}
330
31D8
100
AcDbXrecord
280
     1
102
RTVSPost2010Prop28
280
     0
102
RTVSPost2010PropOp28
 70
     1
102
RTVSPost2010Prop29
280
     1
102
RTVSPost2010PropOp29
 70
     1
102
RTVSPost2010Prop30
280
     1
102
RTVSPost2010PropOp30
 70
     1
102
RTVSPost2010Prop31
280
     0
102
RTVSPost2010PropOp31
 70
     1
102
RTVSPost2010Prop32
280
     0
102
RTVSPost2010PropOp32
 70
     1
102
RTVSPost2010Prop33
280
     0
102
RTVSPost2010PropOp33
 70
     1
102
RTVSPost2010Prop34
280
     0
102
RTVSPost2010PropOp34
 70
     1
102
RTVSPost2010Prop35
280
     0
102
RTVSPost2010PropOp35
 70
     1
102
RTVSPost2010Prop36
280
     0
102
RTVSPost2010PropOp36
 70
     1
102
RTVSPost2010Prop37
 90
       50
102
RTVSPost2010PropOp37
 70
     1
102
RTVSPost2010Prop38
140
0.0
102
RTVSPost2010PropOp38
 70
     1
102
RTVSPost2010Prop39
140
1.0
102
RTVSPost2010PropOp39
 70
     1
102
RTVSPost2010Prop40
 90
        0
102
RTVSPost2010PropOp40
 70
     1
102
RTVSPost2010Prop41ColorIndex
 90
       18
102
RTVSPost2010Prop41ColorRGB
 90
        0
102
RTVSPost2010PropOp41
 70
     1
102
RTVSPost2010Prop42
 90
       50
102
RTVSPost2010PropOp42
 70
     1
102
RTVSPost2010Prop43
 90
        3
102
RTVSPost2010PropOp43
 70
     1
102
RTVSPost2010Prop44ColorIndex
 90
        5
102
RTVSPost2010Prop44ColorRGB
 90
      255
102
RTVSPost2010PropOp44
 70
     1
102
RTVSPost2010Prop45
280
     0
102
RTVSPost2010PropOp45
 70
     1
102
RTVSPost2010Prop46
 90
       50
102
RTVSPost2010PropOp46
 70
     1
102
RTVSPost2010Prop47
 90
       50
102
RTVSPost2010PropOp47
 70
     1
102
RTVSPost2010Prop48
 90
       50
102
RTVSPost2010PropOp48
 70
     1
102
RTVSPost2010Prop49
280
     0
102
RTVSPost2010PropOp49
 70
     1
102
RTVSPost2010Prop50
 90
       50
102
RTVSPost2010PropOp50
 70
     1
102
RTVSPost2010Prop51ColorIndex
 90
      256
102
RTVSPost2010Prop51ColorRGB
 90
-16777216
102
RTVSPost2010PropOp51
 70
     0
102
RTVSPost2010Prop52
140
1.0
102
RTVSPost2010PropOp52
 70
     0
102
RTVSPost2010Prop53
 90
        2
102
RTVSPost2010PropOp53
 70
     1
102
RTVSPost2010Prop54
  1
strokes_ogs.tif
102
RTVSPost2010PropOp54
 70
     1
102
RTVSPost2010Prop55
280
     0
102
RTVSPost2010PropOp55
 70
     1
102
RTVSPost2010Prop56
140
1.0
102
RTVSPost2010PropOp56
 70
     1
102
RTVSPost2010Prop57
140
1.0
102
RTVSPost2010PropOp57
 70
     1
102
RTVSPropertyOp0
 70
     1
102
RTVSPropertyOp1
 70
     1
102
RTVSPropertyOp2
 70
     1
102
RTVSPropertyOp3
 70
     1
102
RTVSPropertyOp4
 70
     1
102
RTVSPropertyOp5
 70
     1
102
RTVSPropertyOp6
 70
     1
102
RTVSPropertyOp7
 70
     1
102
RTVSPropertyOp8
 70
     1
102
RTVSPropertyOp9
 70
     1
102
RTVSPropertyOp10
 70
     1
102
RTVSPropertyOp11
 70
     1
102
RTVSPropertyOp12
 70
     1
102
RTVSPropertyOp13
 70
     1
102
RTVSPropertyOp14
 70
     1
102
RTVSPropertyOp15
 70
     1
102
RTVSPropertyOp16
 70
     1
102
RTVSPropertyOp17
 70
     1
102
RTVSPropertyOp18
 70
     1
102
RTVSPropertyOp19
 70
     1
102
RTVSPropertyOp20
 70
     1
102
RTVSPropertyOp21
 70
     1
102
RTVSPropertyOp22
 70
     1
102
RTVSPropertyOp23
 70
     1
102
RTVSPropertyOp24
 70
     1
102
RTVSPropertyOp25
 70
     1
102
RTVSPropertyOp26
 70
     1
102
RTVSPropertyOp27
 70
     1
102
RTVSPropertyOp28
 70
     1
102
RTVSPropertyOp29
 70
     1
102
RTVSPropertyOp30
 70
     1
102
RTVSPropertyOp31
 70
     1
102
RTVSPropertyOp32
 70
     1
102
RTVSPropertyOp33
 70
     1
102
RTVSPropertyOp34
 70
     1
102
RTVSPropertyOp35
 70
     1
102
RTVSPropertyOp36
 70
     1
102
RTVSPropertyOp37
 70
     1
102
RTVSPropertyOp38
 70
     1
102
RTVSPropertyOp39
 70
     1
102
RTVSPropertyOp40
 70
     1
102
RTVSPropertyOp41
 70
     1
102
RTVSPropertyOp42
 70
     1
102
RTVSPropertyOp43
 70
     1
102
RTVSPropertyOp44
 70
     1
102
RTVSPropertyOp45
 70
     1
102
RTVSPropertyOp46
 70
     1
102
RTVSPropertyOp47
 70
     1
102
RTVSPropertyOp48
 70
     1
102
RTVSPropertyOp49
 70
     1
102
RTVSPropertyOp50
 70
     1
102
RTVSPropertyOp51
 70
     0
102
RTVSPropertyOp52
 70
     0
102
RTVSPropertyOp53
 70
     1
102
RTVSPropertyOp54
 70
     1
102
RTVSPropertyOp55
 70
     1
102
RTVSPropertyOp56
 70
     1
102
RTVSPropertyOp57
 70
     1
102
RTVSPropertyOp58
 70
     1
102
RTVSPropertyOp59
 70
     1
102
RTVSPropertyOp60
 70
     1
102
RTVSPropertyOp61
 70
     1
102
RTVSPropertyOp62
 70
     1
  0
XRECORD
  5
31D7
102
{ACAD_REACTORS
330
31D6
102
}
330
31D6
100
AcDbXrecord
280
     1
102
RTVSPost2010Prop28
280
     0
102
RTVSPost2010PropOp28
 70
     1
102
RTVSPost2010Prop29
280
     1
102
RTVSPost2010PropOp29
 70
     1
102
RTVSPost2010Prop30
280
     1
102
RTVSPost2010PropOp30
 70
     1
102
RTVSPost2010Prop31
280
     0
102
RTVSPost2010PropOp31
 70
     1
102
RTVSPost2010Prop32
280
     0
102
RTVSPost2010PropOp32
 70
     1
102
RTVSPost2010Prop33
280
     0
102
RTVSPost2010PropOp33
 70
     1
102
RTVSPost2010Prop34
280
     0
102
RTVSPost2010PropOp34
 70
     1
102
RTVSPost2010Prop35
280
     0
102
RTVSPost2010PropOp35
 70
     1
102
RTVSPost2010Prop36
280
     0
102
RTVSPost2010PropOp36
 70
     1
102
RTVSPost2010Prop37
 90
       50
102
RTVSPost2010PropOp37
 70
     1
102
RTVSPost2010Prop38
140
0.0
102
RTVSPost2010PropOp38
 70
     1
102
RTVSPost2010Prop39
140
1.0
102
RTVSPost2010PropOp39
 70
     1
102
RTVSPost2010Prop40
 90
        0
102
RTVSPost2010PropOp40
 70
     1
102
RTVSPost2010Prop41ColorIndex
 90
       18
102
RTVSPost2010Prop41ColorRGB
 90
        0
102
RTVSPost2010PropOp41
 70
     1
102
RTVSPost2010Prop42
 90
       50
102
RTVSPost2010PropOp42
 70
     1
102
RTVSPost2010Prop43
 90
        3
102
RTVSPost2010PropOp43
 70
     1
102
RTVSPost2010Prop44ColorIndex
 90
        5
102
RTVSPost2010Prop44ColorRGB
 90
      255
102
RTVSPost2010PropOp44
 70
     1
102
RTVSPost2010Prop45
280
     0
102
RTVSPost2010PropOp45
 70
     1
102
RTVSPost2010Prop46
 90
       50
102
RTVSPost2010PropOp46
 70
     1
102
RTVSPost2010Prop47
 90
       50
102
RTVSPost2010PropOp47
 70
     1
102
RTVSPost2010Prop48
 90
       50
102
RTVSPost2010PropOp48
 70
     1
102
RTVSPost2010Prop49
280
     0
102
RTVSPost2010PropOp49
 70
     1
102
RTVSPost2010Prop50
 90
       50
102
RTVSPost2010PropOp50
 70
     1
102
RTVSPost2010Prop51ColorIndex
 90
      256
102
RTVSPost2010Prop51ColorRGB
 90
-16777216
102
RTVSPost2010PropOp51
 70
     0
102
RTVSPost2010Prop52
140
1.0
102
RTVSPost2010PropOp52
 70
     0
102
RTVSPost2010Prop53
 90
        2
102
RTVSPost2010PropOp53
 70
     1
102
RTVSPost2010Prop54
  1
strokes_ogs.tif
102
RTVSPost2010PropOp54
 70
     1
102
RTVSPost2010Prop55
280
     0
102
RTVSPost2010PropOp55
 70
     1
102
RTVSPost2010Prop56
140
1.0
102
RTVSPost2010PropOp56
 70
     1
102
RTVSPost2010Prop57
140
1.0
102
RTVSPost2010PropOp57
 70
     1
102
RTVSPropertyOp0
 70
     1
102
RTVSPropertyOp1
 70
     1
102
RTVSPropertyOp2
 70
     1
102
RTVSPropertyOp3
 70
     1
102
RTVSPropertyOp4
 70
     1
102
RTVSPropertyOp5
 70
     1
102
RTVSPropertyOp6
 70
     1
102
RTVSPropertyOp7
 70
     1
102
RTVSPropertyOp8
 70
     1
102
RTVSPropertyOp9
 70
     1
102
RTVSPropertyOp10
 70
     1
102
RTVSPropertyOp11
 70
     1
102
RTVSPropertyOp12
 70
     1
102
RTVSPropertyOp13
 70
     1
102
RTVSPropertyOp14
 70
     1
102
RTVSPropertyOp15
 70
     1
102
RTVSPropertyOp16
 70
     1
102
RTVSPropertyOp17
 70
     1
102
RTVSPropertyOp18
 70
     1
102
RTVSPropertyOp19
 70
     1
102
RTVSPropertyOp20
 70
     1
102
RTVSPropertyOp21
 70
     1
102
RTVSPropertyOp22
 70
     1
102
RTVSPropertyOp23
 70
     1
102
RTVSPropertyOp24
 70
     1
102
RTVSPropertyOp25
 70
     1
102
RTVSPropertyOp26
 70
     1
102
RTVSPropertyOp27
 70
     1
102
RTVSPropertyOp28
 70
     1
102
RTVSPropertyOp29
 70
     1
102
RTVSPropertyOp30
 70
     1
102
RTVSPropertyOp31
 70
     1
102
RTVSPropertyOp32
 70
     1
102
RTVSPropertyOp33
 70
     1
102
RTVSPropertyOp34
 70
     1
102
RTVSPropertyOp35
 70
     1
102
RTVSPropertyOp36
 70
     1
102
RTVSPropertyOp37
 70
     1
102
RTVSPropertyOp38
 70
     1
102
RTVSPropertyOp39
 70
     1
102
RTVSPropertyOp40
 70
     1
102
RTVSPropertyOp41
 70
     1
102
RTVSPropertyOp42
 70
     1
102
RTVSPropertyOp43
 70
     1
102
RTVSPropertyOp44
 70
     1
102
RTVSPropertyOp45
 70
     1
102
RTVSPropertyOp46
 70
     1
102
RTVSPropertyOp47
 70
     1
102
RTVSPropertyOp48
 70
     1
102
RTVSPropertyOp49
 70
     1
102
RTVSPropertyOp50
 70
     1
102
RTVSPropertyOp51
 70
     0
102
RTVSPropertyOp52
 70
     0
102
RTVSPropertyOp53
 70
     1
102
RTVSPropertyOp54
 70
     1
102
RTVSPropertyOp55
 70
     1
102
RTVSPropertyOp56
 70
     1
102
RTVSPropertyOp57
 70
     1
102
RTVSPropertyOp58
 70
     1
102
RTVSPropertyOp59
 70
     1
102
RTVSPropertyOp60
 70
     1
102
RTVSPropertyOp61
 70
     1
102
RTVSPropertyOp62
 70
     1
  0
XRECORD
  5
31D1
102
{ACAD_REACTORS
330
31D0
102
}
330
31D0
100
AcDbXrecord
280
     1
102
RTVSPost2010Prop28
280
     0
102
RTVSPost2010PropOp28
 70
     1
102
RTVSPost2010Prop29
280
     1
102
RTVSPost2010PropOp29
 70
     1
102
RTVSPost2010Prop30
280
     1
102
RTVSPost2010PropOp30
 70
     1
102
RTVSPost2010Prop31
280
     0
102
RTVSPost2010PropOp31
 70
     1
102
RTVSPost2010Prop32
280
     0
102
RTVSPost2010PropOp32
 70
     1
102
RTVSPost2010Prop33
280
     0
102
RTVSPost2010PropOp33
 70
     1
102
RTVSPost2010Prop34
280
     0
102
RTVSPost2010PropOp34
 70
     1
102
RTVSPost2010Prop35
280
     0
102
RTVSPost2010PropOp35
 70
     1
102
RTVSPost2010Prop36
280
     0
102
RTVSPost2010PropOp36
 70
     1
102
RTVSPost2010Prop37
 90
       50
102
RTVSPost2010PropOp37
 70
     1
102
RTVSPost2010Prop38
140
0.0
102
RTVSPost2010PropOp38
 70
     1
102
RTVSPost2010Prop39
140
1.0
102
RTVSPost2010PropOp39
 70
     1
102
RTVSPost2010Prop40
 90
        0
102
RTVSPost2010PropOp40
 70
     1
102
RTVSPost2010Prop41ColorIndex
 90
       18
102
RTVSPost2010Prop41ColorRGB
 90
        0
102
RTVSPost2010PropOp41
 70
     1
102
RTVSPost2010Prop42
 90
       50
102
RTVSPost2010PropOp42
 70
     1
102
RTVSPost2010Prop43
 90
        3
102
RTVSPost2010PropOp43
 70
     1
102
RTVSPost2010Prop44ColorIndex
 90
        5
102
RTVSPost2010Prop44ColorRGB
 90
      255
102
RTVSPost2010PropOp44
 70
     1
102
RTVSPost2010Prop45
280
     0
102
RTVSPost2010PropOp45
 70
     1
102
RTVSPost2010Prop46
 90
       50
102
RTVSPost2010PropOp46
 70
     1
102
RTVSPost2010Prop47
 90
       50
102
RTVSPost2010PropOp47
 70
     1
102
RTVSPost2010Prop48
 90
       50
102
RTVSPost2010PropOp48
 70
     1
102
RTVSPost2010Prop49
280
     0
102
RTVSPost2010PropOp49
 70
     1
102
RTVSPost2010Prop50
 90
       50
102
RTVSPost2010PropOp50
 70
     1
102
RTVSPost2010Prop51ColorIndex
 90
      256
102
RTVSPost2010Prop51ColorRGB
 90
-16777216
102
RTVSPost2010PropOp51
 70
     0
102
RTVSPost2010Prop52
140
1.0
102
RTVSPost2010PropOp52
 70
     0
102
RTVSPost2010Prop53
 90
        2
102
RTVSPost2010PropOp53
 70
     1
102
RTVSPost2010Prop54
  1
strokes_ogs.tif
102
RTVSPost2010PropOp54
 70
     1
102
RTVSPost2010Prop55
280
     0
102
RTVSPost2010PropOp55
 70
     1
102
RTVSPost2010Prop56
140
1.0
102
RTVSPost2010PropOp56
 70
     1
102
RTVSPost2010Prop57
140
1.0
102
RTVSPost2010PropOp57
 70
     1
102
RTVSPropertyOp0
 70
     1
102
RTVSPropertyOp1
 70
     1
102
RTVSPropertyOp2
 70
     1
102
RTVSPropertyOp3
 70
     1
102
RTVSPropertyOp4
 70
     1
102
RTVSPropertyOp5
 70
     1
102
RTVSPropertyOp6
 70
     1
102
RTVSPropertyOp7
 70
     1
102
RTVSPropertyOp8
 70
     1
102
RTVSPropertyOp9
 70
     1
102
RTVSPropertyOp10
 70
     1
102
RTVSPropertyOp11
 70
     1
102
RTVSPropertyOp12
 70
     1
102
RTVSPropertyOp13
 70
     1
102
RTVSPropertyOp14
 70
     1
102
RTVSPropertyOp15
 70
     1
102
RTVSPropertyOp16
 70
     1
102
RTVSPropertyOp17
 70
     1
102
RTVSPropertyOp18
 70
     1
102
RTVSPropertyOp19
 70
     1
102
RTVSPropertyOp20
 70
     1
102
RTVSPropertyOp21
 70
     1
102
RTVSPropertyOp22
 70
     1
102
RTVSPropertyOp23
 70
     1
102
RTVSPropertyOp24
 70
     1
102
RTVSPropertyOp25
 70
     1
102
RTVSPropertyOp26
 70
     1
102
RTVSPropertyOp27
 70
     1
102
RTVSPropertyOp28
 70
     1
102
RTVSPropertyOp29
 70
     1
102
RTVSPropertyOp30
 70
     1
102
RTVSPropertyOp31
 70
     1
102
RTVSPropertyOp32
 70
     1
102
RTVSPropertyOp33
 70
     1
102
RTVSPropertyOp34
 70
     1
102
RTVSPropertyOp35
 70
     1
102
RTVSPropertyOp36
 70
     1
102
RTVSPropertyOp37
 70
     1
102
RTVSPropertyOp38
 70
     1
102
RTVSPropertyOp39
 70
     1
102
RTVSPropertyOp40
 70
     1
102
RTVSPropertyOp41
 70
     1
102
RTVSPropertyOp42
 70
     1
102
RTVSPropertyOp43
 70
     1
102
RTVSPropertyOp44
 70
     1
102
RTVSPropertyOp45
 70
     1
102
RTVSPropertyOp46
 70
     1
102
RTVSPropertyOp47
 70
     1
102
RTVSPropertyOp48
 70
     1
102
RTVSPropertyOp49
 70
     1
102
RTVSPropertyOp50
 70
     1
102
RTVSPropertyOp51
 70
     0
102
RTVSPropertyOp52
 70
     0
102
RTVSPropertyOp53
 70
     1
102
RTVSPropertyOp54
 70
     1
102
RTVSPropertyOp55
 70
     1
102
RTVSPropertyOp56
 70
     1
102
RTVSPropertyOp57
 70
     1
102
RTVSPropertyOp58
 70
     1
102
RTVSPropertyOp59
 70
     1
102
RTVSPropertyOp60
 70
     1
102
RTVSPropertyOp61
 70
     1
102
RTVSPropertyOp62
 70
     1
  0
XRECORD
  5
31D3
102
{ACAD_REACTORS
330
31D2
102
}
330
31D2
100
AcDbXrecord
280
     1
102
RTVSPost2010Prop28
280
     0
102
RTVSPost2010PropOp28
 70
     1
102
RTVSPost2010Prop29
280
     1
102
RTVSPost2010PropOp29
 70
     1
102
RTVSPost2010Prop30
280
     1
102
RTVSPost2010PropOp30
 70
     1
102
RTVSPost2010Prop31
280
     0
102
RTVSPost2010PropOp31
 70
     1
102
RTVSPost2010Prop32
280
     0
102
RTVSPost2010PropOp32
 70
     1
102
RTVSPost2010Prop33
280
     0
102
RTVSPost2010PropOp33
 70
     1
102
RTVSPost2010Prop34
280
     0
102
RTVSPost2010PropOp34
 70
     1
102
RTVSPost2010Prop35
280
     0
102
RTVSPost2010PropOp35
 70
     1
102
RTVSPost2010Prop36
280
     0
102
RTVSPost2010PropOp36
 70
     1
102
RTVSPost2010Prop37
 90
       50
102
RTVSPost2010PropOp37
 70
     1
102
RTVSPost2010Prop38
140
0.0
102
RTVSPost2010PropOp38
 70
     1
102
RTVSPost2010Prop39
140
1.0
102
RTVSPost2010PropOp39
 70
     1
102
RTVSPost2010Prop40
 90
        0
102
RTVSPost2010PropOp40
 70
     1
102
RTVSPost2010Prop41ColorIndex
 90
       18
102
RTVSPost2010Prop41ColorRGB
 90
        0
102
RTVSPost2010PropOp41
 70
     1
102
RTVSPost2010Prop42
 90
       50
102
RTVSPost2010PropOp42
 70
     1
102
RTVSPost2010Prop43
 90
        3
102
RTVSPost2010PropOp43
 70
     1
102
RTVSPost2010Prop44ColorIndex
 90
        5
102
RTVSPost2010Prop44ColorRGB
 90
      255
102
RTVSPost2010PropOp44
 70
     1
102
RTVSPost2010Prop45
280
     0
102
RTVSPost2010PropOp45
 70
     1
102
RTVSPost2010Prop46
 90
       50
102
RTVSPost2010PropOp46
 70
     1
102
RTVSPost2010Prop47
 90
       50
102
RTVSPost2010PropOp47
 70
     1
102
RTVSPost2010Prop48
 90
       50
102
RTVSPost2010PropOp48
 70
     1
102
RTVSPost2010Prop49
280
     0
102
RTVSPost2010PropOp49
 70
     1
102
RTVSPost2010Prop50
 90
       50
102
RTVSPost2010PropOp50
 70
     1
102
RTVSPost2010Prop51ColorIndex
 90
      256
102
RTVSPost2010Prop51ColorRGB
 90
-16777216
102
RTVSPost2010PropOp51
 70
     0
102
RTVSPost2010Prop52
140
1.0
102
RTVSPost2010PropOp52
 70
     0
102
RTVSPost2010Prop53
 90
        2
102
RTVSPost2010PropOp53
 70
     1
102
RTVSPost2010Prop54
  1
strokes_ogs.tif
102
RTVSPost2010PropOp54
 70
     1
102
RTVSPost2010Prop55
280
     0
102
RTVSPost2010PropOp55
 70
     1
102
RTVSPost2010Prop56
140
1.0
102
RTVSPost2010PropOp56
 70
     1
102
RTVSPost2010Prop57
140
1.0
102
RTVSPost2010PropOp57
 70
     1
102
RTVSPropertyOp0
 70
     1
102
RTVSPropertyOp1
 70
     1
102
RTVSPropertyOp2
 70
     1
102
RTVSPropertyOp3
 70
     1
102
RTVSPropertyOp4
 70
     1
102
RTVSPropertyOp5
 70
     1
102
RTVSPropertyOp6
 70
     1
102
RTVSPropertyOp7
 70
     1
102
RTVSPropertyOp8
 70
     1
102
RTVSPropertyOp9
 70
     1
102
RTVSPropertyOp10
 70
     1
102
RTVSPropertyOp11
 70
     1
102
RTVSPropertyOp12
 70
     1
102
RTVSPropertyOp13
 70
     1
102
RTVSPropertyOp14
 70
     1
102
RTVSPropertyOp15
 70
     1
102
RTVSPropertyOp16
 70
     1
102
RTVSPropertyOp17
 70
     1
102
RTVSPropertyOp18
 70
     1
102
RTVSPropertyOp19
 70
     1
102
RTVSPropertyOp20
 70
     1
102
RTVSPropertyOp21
 70
     1
102
RTVSPropertyOp22
 70
     1
102
RTVSPropertyOp23
 70
     1
102
RTVSPropertyOp24
 70
     1
102
RTVSPropertyOp25
 70
     1
102
RTVSPropertyOp26
 70
     1
102
RTVSPropertyOp27
 70
     1
102
RTVSPropertyOp28
 70
     1
102
RTVSPropertyOp29
 70
     1
102
RTVSPropertyOp30
 70
     1
102
RTVSPropertyOp31
 70
     1
102
RTVSPropertyOp32
 70
     1
102
RTVSPropertyOp33
 70
     1
102
RTVSPropertyOp34
 70
     1
102
RTVSPropertyOp35
 70
     1
102
RTVSPropertyOp36
 70
     1
102
RTVSPropertyOp37
 70
     1
102
RTVSPropertyOp38
 70
     1
102
RTVSPropertyOp39
 70
     1
102
RTVSPropertyOp40
 70
     1
102
RTVSPropertyOp41
 70
     1
102
RTVSPropertyOp42
 70
     1
102
RTVSPropertyOp43
 70
     1
102
RTVSPropertyOp44
 70
     1
102
RTVSPropertyOp45
 70
     1
102
RTVSPropertyOp46
 70
     1
102
RTVSPropertyOp47
 70
     1
102
RTVSPropertyOp48
 70
     1
102
RTVSPropertyOp49
 70
     1
102
RTVSPropertyOp50
 70
     1
102
RTVSPropertyOp51
 70
     0
102
RTVSPropertyOp52
 70
     0
102
RTVSPropertyOp53
 70
     1
102
RTVSPropertyOp54
 70
     1
102
RTVSPropertyOp55
 70
     1
102
RTVSPropertyOp56
 70
     1
102
RTVSPropertyOp57
 70
     1
102
RTVSPropertyOp58
 70
     1
102
RTVSPropertyOp59
 70
     1
102
RTVSPropertyOp60
 70
     1
102
RTVSPropertyOp61
 70
     1
102
RTVSPropertyOp62
 70
     1
  0
XRECORD
  5
31C9
102
{ACAD_REACTORS
330
31C8
102
}
330
31C8
100
AcDbXrecord
280
     1
102
RTVSPost2010Prop28
280
     0
102
RTVSPost2010PropOp28
 70
     1
102
RTVSPost2010Prop29
280
     1
102
RTVSPost2010PropOp29
 70
     1
102
RTVSPost2010Prop30
280
     1
102
RTVSPost2010PropOp30
 70
     1
102
RTVSPost2010Prop31
280
     0
102
RTVSPost2010PropOp31
 70
     1
102
RTVSPost2010Prop32
280
     0
102
RTVSPost2010PropOp32
 70
     1
102
RTVSPost2010Prop33
280
     0
102
RTVSPost2010PropOp33
 70
     1
102
RTVSPost2010Prop34
280
     0
102
RTVSPost2010PropOp34
 70
     1
102
RTVSPost2010Prop35
280
     0
102
RTVSPost2010PropOp35
 70
     1
102
RTVSPost2010Prop36
280
     0
102
RTVSPost2010PropOp36
 70
     1
102
RTVSPost2010Prop37
 90
       50
102
RTVSPost2010PropOp37
 70
     1
102
RTVSPost2010Prop38
140
0.0
102
RTVSPost2010PropOp38
 70
     1
102
RTVSPost2010Prop39
140
1.0
102
RTVSPost2010PropOp39
 70
     1
102
RTVSPost2010Prop40
 90
        0
102
RTVSPost2010PropOp40
 70
     1
102
RTVSPost2010Prop41ColorIndex
 90
       18
102
RTVSPost2010Prop41ColorRGB
 90
        0
102
RTVSPost2010PropOp41
 70
     1
102
RTVSPost2010Prop42
 90
       50
102
RTVSPost2010PropOp42
 70
     1
102
RTVSPost2010Prop43
 90
        3
102
RTVSPost2010PropOp43
 70
     1
102
RTVSPost2010Prop44ColorIndex
 90
        5
102
RTVSPost2010Prop44ColorRGB
 90
      255
102
RTVSPost2010PropOp44
 70
     1
102
RTVSPost2010Prop45
280
     0
102
RTVSPost2010PropOp45
 70
     1
102
RTVSPost2010Prop46
 90
       50
102
RTVSPost2010PropOp46
 70
     1
102
RTVSPost2010Prop47
 90
       50
102
RTVSPost2010PropOp47
 70
     1
102
RTVSPost2010Prop48
 90
       50
102
RTVSPost2010PropOp48
 70
     1
102
RTVSPost2010Prop49
280
     0
102
RTVSPost2010PropOp49
 70
     1
102
RTVSPost2010Prop50
 90
       50
102
RTVSPost2010PropOp50
 70
     1
102
RTVSPost2010Prop51ColorIndex
 90
      256
102
RTVSPost2010Prop51ColorRGB
 90
-16777216
102
RTVSPost2010PropOp51
 70
     0
102
RTVSPost2010Prop52
140
1.0
102
RTVSPost2010PropOp52
 70
     0
102
RTVSPost2010Prop53
 90
        2
102
RTVSPost2010PropOp53
 70
     1
102
RTVSPost2010Prop54
  1
strokes_ogs.tif
102
RTVSPost2010PropOp54
 70
     1
102
RTVSPost2010Prop55
280
     0
102
RTVSPost2010PropOp55
 70
     1
102
RTVSPost2010Prop56
140
1.0
102
RTVSPost2010PropOp56
 70
     1
102
RTVSPost2010Prop57
140
1.0
102
RTVSPost2010PropOp57
 70
     1
102
RTVSPropertyOp0
 70
     1
102
RTVSPropertyOp1
 70
     1
102
RTVSPropertyOp2
 70
     1
102
RTVSPropertyOp3
 70
     1
102
RTVSPropertyOp4
 70
     1
102
RTVSPropertyOp5
 70
     1
102
RTVSPropertyOp6
 70
     1
102
RTVSPropertyOp7
 70
     1
102
RTVSPropertyOp8
 70
     1
102
RTVSPropertyOp9
 70
     1
102
RTVSPropertyOp10
 70
     1
102
RTVSPropertyOp11
 70
     1
102
RTVSPropertyOp12
 70
     1
102
RTVSPropertyOp13
 70
     1
102
RTVSPropertyOp14
 70
     1
102
RTVSPropertyOp15
 70
     1
102
RTVSPropertyOp16
 70
     1
102
RTVSPropertyOp17
 70
     1
102
RTVSPropertyOp18
 70
     1
102
RTVSPropertyOp19
 70
     1
102
RTVSPropertyOp20
 70
     1
102
RTVSPropertyOp21
 70
     1
102
RTVSPropertyOp22
 70
     1
102
RTVSPropertyOp23
 70
     1
102
RTVSPropertyOp24
 70
     1
102
RTVSPropertyOp25
 70
     1
102
RTVSPropertyOp26
 70
     1
102
RTVSPropertyOp27
 70
     1
102
RTVSPropertyOp28
 70
     1
102
RTVSPropertyOp29
 70
     1
102
RTVSPropertyOp30
 70
     1
102
RTVSPropertyOp31
 70
     1
102
RTVSPropertyOp32
 70
     1
102
RTVSPropertyOp33
 70
     1
102
RTVSPropertyOp34
 70
     1
102
RTVSPropertyOp35
 70
     1
102
RTVSPropertyOp36
 70
     1
102
RTVSPropertyOp37
 70
     1
102
RTVSPropertyOp38
 70
     1
102
RTVSPropertyOp39
 70
     1
102
RTVSPropertyOp40
 70
     1
102
RTVSPropertyOp41
 70
     1
102
RTVSPropertyOp42
 70
     1
102
RTVSPropertyOp43
 70
     1
102
RTVSPropertyOp44
 70
     1
102
RTVSPropertyOp45
 70
     1
102
RTVSPropertyOp46
 70
     1
102
RTVSPropertyOp47
 70
     1
102
RTVSPropertyOp48
 70
     1
102
RTVSPropertyOp49
 70
     1
102
RTVSPropertyOp50
 70
     1
102
RTVSPropertyOp51
 70
     0
102
RTVSPropertyOp52
 70
     0
102
RTVSPropertyOp53
 70
     1
102
RTVSPropertyOp54
 70
     1
102
RTVSPropertyOp55
 70
     1
102
RTVSPropertyOp56
 70
     1
102
RTVSPropertyOp57
 70
     1
102
RTVSPropertyOp58
 70
     1
102
RTVSPropertyOp59
 70
     1
102
RTVSPropertyOp60
 70
     1
102
RTVSPropertyOp61
 70
     1
102
RTVSPropertyOp62
 70
     1
  0
XRECORD
  5
31BD
102
{ACAD_REACTORS
330
31BC
102
}
330
31BC
100
AcDbXrecord
280
     1
102
RTVSPost2010Prop28
280
     0
102
RTVSPost2010PropOp28
 70
     1
102
RTVSPost2010Prop29
280
     1
102
RTVSPost2010PropOp29
 70
     1
102
RTVSPost2010Prop30
280
     1
102
RTVSPost2010PropOp30
 70
     1
102
RTVSPost2010Prop31
280
     0
102
RTVSPost2010PropOp31
 70
     1
102
RTVSPost2010Prop32
280
     0
102
RTVSPost2010PropOp32
 70
     1
102
RTVSPost2010Prop33
280
     0
102
RTVSPost2010PropOp33
 70
     1
102
RTVSPost2010Prop34
280
     0
102
RTVSPost2010PropOp34
 70
     1
102
RTVSPost2010Prop35
280
     0
102
RTVSPost2010PropOp35
 70
     1
102
RTVSPost2010Prop36
280
     0
102
RTVSPost2010PropOp36
 70
     1
102
RTVSPost2010Prop37
 90
       50
102
RTVSPost2010PropOp37
 70
     1
102
RTVSPost2010Prop38
140
0.0
102
RTVSPost2010PropOp38
 70
     1
102
RTVSPost2010Prop39
140
1.0
102
RTVSPost2010PropOp39
 70
     1
102
RTVSPost2010Prop40
 90
        0
102
RTVSPost2010PropOp40
 70
     1
102
RTVSPost2010Prop41ColorIndex
 90
       18
102
RTVSPost2010Prop41ColorRGB
 90
        0
102
RTVSPost2010PropOp41
 70
     1
102
RTVSPost2010Prop42
 90
       50
102
RTVSPost2010PropOp42
 70
     1
102
RTVSPost2010Prop43
 90
        3
102
RTVSPost2010PropOp43
 70
     1
102
RTVSPost2010Prop44ColorIndex
 90
        5
102
RTVSPost2010Prop44ColorRGB
 90
      255
102
RTVSPost2010PropOp44
 70
     1
102
RTVSPost2010Prop45
280
     0
102
RTVSPost2010PropOp45
 70
     1
102
RTVSPost2010Prop46
 90
       50
102
RTVSPost2010PropOp46
 70
     1
102
RTVSPost2010Prop47
 90
       50
102
RTVSPost2010PropOp47
 70
     1
102
RTVSPost2010Prop48
 90
       50
102
RTVSPost2010PropOp48
 70
     1
102
RTVSPost2010Prop49
280
     0
102
RTVSPost2010PropOp49
 70
     1
102
RTVSPost2010Prop50
 90
       50
102
RTVSPost2010PropOp50
 70
     1
102
RTVSPost2010Prop51ColorIndex
 90
      256
102
RTVSPost2010Prop51ColorRGB
 90
-16777216
102
RTVSPost2010PropOp51
 70
     0
102
RTVSPost2010Prop52
140
1.0
102
RTVSPost2010PropOp52
 70
     0
102
RTVSPost2010Prop53
 90
        2
102
RTVSPost2010PropOp53
 70
     1
102
RTVSPost2010Prop54
  1
strokes_ogs.tif
102
RTVSPost2010PropOp54
 70
     1
102
RTVSPost2010Prop55
280
     0
102
RTVSPost2010PropOp55
 70
     1
102
RTVSPost2010Prop56
140
1.0
102
RTVSPost2010PropOp56
 70
     1
102
RTVSPost2010Prop57
140
1.0
102
RTVSPost2010PropOp57
 70
     1
102
RTVSPropertyOp0
 70
     1
102
RTVSPropertyOp1
 70
     1
102
RTVSPropertyOp2
 70
     1
102
RTVSPropertyOp3
 70
     1
102
RTVSPropertyOp4
 70
     1
102
RTVSPropertyOp5
 70
     1
102
RTVSPropertyOp6
 70
     1
102
RTVSPropertyOp7
 70
     1
102
RTVSPropertyOp8
 70
     1
102
RTVSPropertyOp9
 70
     1
102
RTVSPropertyOp10
 70
     1
102
RTVSPropertyOp11
 70
     1
102
RTVSPropertyOp12
 70
     1
102
RTVSPropertyOp13
 70
     1
102
RTVSPropertyOp14
 70
     1
102
RTVSPropertyOp15
 70
     1
102
RTVSPropertyOp16
 70
     1
102
RTVSPropertyOp17
 70
     1
102
RTVSPropertyOp18
 70
     1
102
RTVSPropertyOp19
 70
     1
102
RTVSPropertyOp20
 70
     1
102
RTVSPropertyOp21
 70
     1
102
RTVSPropertyOp22
 70
     1
102
RTVSPropertyOp23
 70
     1
102
RTVSPropertyOp24
 70
     1
102
RTVSPropertyOp25
 70
     1
102
RTVSPropertyOp26
 70
     1
102
RTVSPropertyOp27
 70
     1
102
RTVSPropertyOp28
 70
     1
102
RTVSPropertyOp29
 70
     1
102
RTVSPropertyOp30
 70
     1
102
RTVSPropertyOp31
 70
     1
102
RTVSPropertyOp32
 70
     1
102
RTVSPropertyOp33
 70
     1
102
RTVSPropertyOp34
 70
     1
102
RTVSPropertyOp35
 70
     1
102
RTVSPropertyOp36
 70
     1
102
RTVSPropertyOp37
 70
     1
102
RTVSPropertyOp38
 70
     1
102
RTVSPropertyOp39
 70
     1
102
RTVSPropertyOp40
 70
     1
102
RTVSPropertyOp41
 70
     1
102
RTVSPropertyOp42
 70
     1
102
RTVSPropertyOp43
 70
     1
102
RTVSPropertyOp44
 70
     1
102
RTVSPropertyOp45
 70
     1
102
RTVSPropertyOp46
 70
     1
102
RTVSPropertyOp47
 70
     1
102
RTVSPropertyOp48
 70
     1
102
RTVSPropertyOp49
 70
     1
102
RTVSPropertyOp50
 70
     1
102
RTVSPropertyOp51
 70
     0
102
RTVSPropertyOp52
 70
     0
102
RTVSPropertyOp53
 70
     1
102
RTVSPropertyOp54
 70
     1
102
RTVSPropertyOp55
 70
     1
102
RTVSPropertyOp56
 70
     1
102
RTVSPropertyOp57
 70
     1
102
RTVSPropertyOp58
 70
     1
102
RTVSPropertyOp59
 70
     1
102
RTVSPropertyOp60
 70
     1
102
RTVSPropertyOp61
 70
     1
102
RTVSPropertyOp62
 70
     1
  0
XRECORD
  5
31D5
102
{ACAD_REACTORS
330
31D4
102
}
330
31D4
100
AcDbXrecord
280
     1
102
RTVSPost2010Prop28
280
     0
102
RTVSPost2010PropOp28
 70
     1
102
RTVSPost2010Prop29
280
     1
102
RTVSPost2010PropOp29
 70
     1
102
RTVSPost2010Prop30
280
     1
102
RTVSPost2010PropOp30
 70
     1
102
RTVSPost2010Prop31
280
     0
102
RTVSPost2010PropOp31
 70
     1
102
RTVSPost2010Prop32
280
     0
102
RTVSPost2010PropOp32
 70
     1
102
RTVSPost2010Prop33
280
     0
102
RTVSPost2010PropOp33
 70
     1
102
RTVSPost2010Prop34
280
     0
102
RTVSPost2010PropOp34
 70
     1
102
RTVSPost2010Prop35
280
     0
102
RTVSPost2010PropOp35
 70
     1
102
RTVSPost2010Prop36
280
     0
102
RTVSPost2010PropOp36
 70
     1
102
RTVSPost2010Prop37
 90
       50
102
RTVSPost2010PropOp37
 70
     1
102
RTVSPost2010Prop38
140
0.0
102
RTVSPost2010PropOp38
 70
     1
102
RTVSPost2010Prop39
140
1.0
102
RTVSPost2010PropOp39
 70
     1
102
RTVSPost2010Prop40
 90
        0
102
RTVSPost2010PropOp40
 70
     1
102
RTVSPost2010Prop41ColorIndex
 90
       18
102
RTVSPost2010Prop41ColorRGB
 90
        0
102
RTVSPost2010PropOp41
 70
     1
102
RTVSPost2010Prop42
 90
       50
102
RTVSPost2010PropOp42
 70
     1
102
RTVSPost2010Prop43
 90
        3
102
RTVSPost2010PropOp43
 70
     1
102
RTVSPost2010Prop44ColorIndex
 90
        5
102
RTVSPost2010Prop44ColorRGB
 90
      255
102
RTVSPost2010PropOp44
 70
     1
102
RTVSPost2010Prop45
280
     0
102
RTVSPost2010PropOp45
 70
     1
102
RTVSPost2010Prop46
 90
       50
102
RTVSPost2010PropOp46
 70
     1
102
RTVSPost2010Prop47
 90
       50
102
RTVSPost2010PropOp47
 70
     1
102
RTVSPost2010Prop48
 90
       50
102
RTVSPost2010PropOp48
 70
     1
102
RTVSPost2010Prop49
280
     0
102
RTVSPost2010PropOp49
 70
     1
102
RTVSPost2010Prop50
 90
       50
102
RTVSPost2010PropOp50
 70
     1
102
RTVSPost2010Prop51ColorIndex
 90
      256
102
RTVSPost2010Prop51ColorRGB
 90
-16777216
102
RTVSPost2010PropOp51
 70
     0
102
RTVSPost2010Prop52
140
1.0
102
RTVSPost2010PropOp52
 70
     0
102
RTVSPost2010Prop53
 90
        2
102
RTVSPost2010PropOp53
 70
     1
102
RTVSPost2010Prop54
  1
strokes_ogs.tif
102
RTVSPost2010PropOp54
 70
     1
102
RTVSPost2010Prop55
280
     0
102
RTVSPost2010PropOp55
 70
     1
102
RTVSPost2010Prop56
140
1.0
102
RTVSPost2010PropOp56
 70
     1
102
RTVSPost2010Prop57
140
1.0
102
RTVSPost2010PropOp57
 70
     1
102
RTVSPropertyOp0
 70
     1
102
RTVSPropertyOp1
 70
     1
102
RTVSPropertyOp2
 70
     1
102
RTVSPropertyOp3
 70
     1
102
RTVSPropertyOp4
 70
     1
102
RTVSPropertyOp5
 70
     1
102
RTVSPropertyOp6
 70
     1
102
RTVSPropertyOp7
 70
     1
102
RTVSPropertyOp8
 70
     1
102
RTVSPropertyOp9
 70
     1
102
RTVSPropertyOp10
 70
     1
102
RTVSPropertyOp11
 70
     1
102
RTVSPropertyOp12
 70
     1
102
RTVSPropertyOp13
 70
     1
102
RTVSPropertyOp14
 70
     1
102
RTVSPropertyOp15
 70
     1
102
RTVSPropertyOp16
 70
     1
102
RTVSPropertyOp17
 70
     1
102
RTVSPropertyOp18
 70
     1
102
RTVSPropertyOp19
 70
     1
102
RTVSPropertyOp20
 70
     1
102
RTVSPropertyOp21
 70
     1
102
RTVSPropertyOp22
 70
     1
102
RTVSPropertyOp23
 70
     1
102
RTVSPropertyOp24
 70
     1
102
RTVSPropertyOp25
 70
     1
102
RTVSPropertyOp26
 70
     1
102
RTVSPropertyOp27
 70
     1
102
RTVSPropertyOp28
 70
     1
102
RTVSPropertyOp29
 70
     1
102
RTVSPropertyOp30
 70
     1
102
RTVSPropertyOp31
 70
     1
102
RTVSPropertyOp32
 70
     1
102
RTVSPropertyOp33
 70
     1
102
RTVSPropertyOp34
 70
     1
102
RTVSPropertyOp35
 70
     1
102
RTVSPropertyOp36
 70
     1
102
RTVSPropertyOp37
 70
     1
102
RTVSPropertyOp38
 70
     1
102
RTVSPropertyOp39
 70
     1
102
RTVSPropertyOp40
 70
     1
102
RTVSPropertyOp41
 70
     1
102
RTVSPropertyOp42
 70
     1
102
RTVSPropertyOp43
 70
     1
102
RTVSPropertyOp44
 70
     1
102
RTVSPropertyOp45
 70
     1
102
RTVSPropertyOp46
 70
     1
102
RTVSPropertyOp47
 70
     1
102
RTVSPropertyOp48
 70
     1
102
RTVSPropertyOp49
 70
     1
102
RTVSPropertyOp50
 70
     1
102
RTVSPropertyOp51
 70
     0
102
RTVSPropertyOp52
 70
     0
102
RTVSPropertyOp53
 70
     1
102
RTVSPropertyOp54
 70
     1
102
RTVSPropertyOp55
 70
     1
102
RTVSPropertyOp56
 70
     1
102
RTVSPropertyOp57
 70
     1
102
RTVSPropertyOp58
 70
     1
102
RTVSPropertyOp59
 70
     1
102
RTVSPropertyOp60
 70
     1
102
RTVSPropertyOp61
 70
     1
102
RTVSPropertyOp62
 70
     1
  0
ENDSEC
  0
EOF
