  0
SECTION
  2
HEADER
  9
$ACADVER
  1
AC1015
  9
$ACADMAINTVER
 70
    20
  9
$DWGCODEPAGE
  3
ANSI_1252
  9
$INSBASE
 10
0.0
 20
0.0
 30
0.0
  9
$EXTMIN
 10
-70.67207049940368
 20
-54.17217462502705
 30
-0.0000000349181948
  9
$EXTMAX
 10
167.4956758112269
 20
28.00501562112155
 30
0.0000000814935747
  9
$LIMMIN
 10
0.0
 20
0.0
  9
$LIMMAX
 10
12.0
 20
9.0
  9
$ORTHOMODE
 70
     0
  9
$REGENMODE
 70
     1
  9
$FILLMODE
 70
     1
  9
$QTEXTMODE
 70
     0
  9
$MIRRTEXT
 70
     1
  9
$LTSCALE
 40
1.0
  9
$ATTMODE
 70
     1
  9
$TEXTSIZE
 40
3.0
  9
$TRACEWID
 40
10.0
  9
$TEXTSTYLE
  7
SANDVIK_STYLE
  9
$CLAYER
  8
1
  9
$CELTYPE
  6
ByLayer
  9
$CECOLOR
 62
   256
  9
$CELTSCALE
 40
1.0
  9
$DISPSILH
 70
     0
  9
$DIMSCALE
 40
0.0
  9
$DIMASZ
 40
4.57
  9
$DIMEXO
 40
0.0
  9
$DIMDLI
 40
0.38
  9
$DIMRND
 40
0.0
  9
$DIMDLE
 40
0.0
  9
$DIMEXE
 40
5.0
  9
$DIMTP
 40
0.0
  9
$DIMTM
 40
0.0
  9
$DIMTXT
 40
4.5
  9
$DIMCEN
 40
0.09
  9
$DIMTSZ
 40
0.0
  9
$DIMTOL
 70
     0
  9
$DIMLIM
 70
     0
  9
$DIMTIH
 70
     0
  9
$DIMTOH
 70
     0
  9
$DIMSE1
 70
     0
  9
$DIMSE2
 70
     0
  9
$DIMTAD
 70
     1
  9
$DIMZIN
 70
     8
  9
$DIMBLK
  1

  9
$DIMASO
 70
     1
  9
$DIMSHO
 70
     1
  9
$DIMPOST
  1
 
  9
$DIMAPOST
  1
 
  9
$DIMALT
 70
     0
  9
$DIMALTD
 70
     2
  9
$DIMALTF
 40
25.4
  9
$DIMLFAC
 40
1.0
  9
$DIMTOFL
 70
     0
  9
$DIMTVP
 40
0.0
  9
$DIMTIX
 70
     0
  9
$DIMSOXD
 70
     0
  9
$DIMSAH
 70
     0
  9
$DIMBLK1
  1

  9
$DIMBLK2
  1

  9
$DIMSTYLE
  2
SANDVIK_DIM
  9
$DIMCLRD
 70
   256
  9
$DIMCLRE
 70
   256
  9
$DIMCLRT
 70
   256
  9
$DIMTFAC
 40
1.0
  9
$DIMGAP
 40
2.299999999999998
  9
$DIMJUST
 70
     0
  9
$DIMSD1
 70
     0
  9
$DIMSD2
 70
     0
  9
$DIMTOLJ
 70
     1
  9
$DIMTZIN
 70
     0
  9
$DIMALTZ
 70
     0
  9
$DIMALTTZ
 70
     0
  9
$DIMUPT
 70
     0
  9
$DIMDEC
 70
     2
  9
$DIMTDEC
 70
     2
  9
$DIMALTU
 70
     2
  9
$DIMALTTD
 70
     2
  9
$DIMTXSTY
  7
SANDVIK_STYLE
  9
$DIMAUNIT
 70
     0
  9
$DIMADEC
 70
     0
  9
$DIMALTRND
 40
0.0
  9
$DIMAZIN
 70
     0
  9
$DIMDSEP
 70
    46
  9
$DIMATFIT
 70
     3
  9
$DIMFRAC
 70
     0
  9
$DIMLDRBLK
  1

  9
$DIMLUNIT
 70
     2
  9
$DIMLWD
 70
    -2
  9
$DIMLWE
 70
    -2
  9
$DIMTMOVE
 70
     2
  9
$LUNITS
 70
     2
  9
$LUPREC
 70
     2
  9
$SKETCHINC
 40
0.0
  9
$FILLETRAD
 40
0.0
  9
$AUNITS
 70
     0
  9
$AUPREC
 70
     2
  9
$MENU
  1
acad
  9
$ELEVATION
 40
0.0
  9
$PELEVATION
 40
0.0
  9
$THICKNESS
 40
0.0
  9
$LIMCHECK
 70
     0
  9
$CHAMFERA
 40
0.0
  9
$CHAMFERB
 40
0.0
  9
$CHAMFERC
 40
0.0
  9
$CHAMFERD
 40
0.0
  9
$SKPOLY
 70
     0
  9
$TDCREATE
 40
2455817.646292060
  9
$TDUCREATE
 40
2455817.562958727
  9
$TDUPDATE
 40
2456818.536382986
  9
$TDUUPDATE
 40
2456818.453049653
  9
$TDINDWG
 40
0.1166195023
  9
$TDUSRTIMER
 40
0.1166194444
  9
$USRTIMER
 70
     1
  9
$ANGBASE
 50
0.0
  9
$ANGDIR
 70
     0
  9
$PDMODE
 70
     0
  9
$PDSIZE
 40
0.0
  9
$PLINEWID
 40
0.0
  9
$SPLFRAME
 70
     0
  9
$SPLINETYPE
 70
     6
  9
$SPLINESEGS
 70
     8
  9
$HANDSEED
  5
3288
  9
$SURFTAB1
 70
     6
  9
$SURFTAB2
 70
     6
  9
$SURFTYPE
 70
     6
  9
$SURFU
 70
     6
  9
$SURFV
 70
     6
  9
$UCSBASE
  2

  9
$UCSNAME
  2

  9
$UCSORG
 10
0.0
 20
0.0
 30
0.0
  9
$UCSXDIR
 10
1.0
 20
0.0
 30
0.0
  9
$UCSYDIR
 10
0.0
 20
1.0
 30
0.0
  9
$UCSORTHOREF
  2

  9
$UCSORTHOVIEW
 70
     0
  9
$UCSORGTOP
 10
0.0
 20
0.0
 30
0.0
  9
$UCSORGBOTTOM
 10
0.0
 20
0.0
 30
0.0
  9
$UCSORGLEFT
 10
0.0
 20
0.0
 30
0.0
  9
$UCSORGRIGHT
 10
0.0
 20
0.0
 30
0.0
  9
$UCSORGFRONT
 10
0.0
 20
0.0
 30
0.0
  9
$UCSORGBACK
 10
0.0
 20
0.0
 30
0.0
  9
$PUCSBASE
  2

  9
$PUCSNAME
  2

  9
$PUCSORG
 10
0.0
 20
0.0
 30
0.0
  9
$PUCSXDIR
 10
1.0
 20
0.0
 30
0.0
  9
$PUCSYDIR
 10
0.0
 20
1.0
 30
0.0
  9
$PUCSORTHOREF
  2

  9
$PUCSORTHOVIEW
 70
     0
  9
$PUCSORGTOP
 10
0.0
 20
0.0
 30
0.0
  9
$PUCSORGBOTTOM
 10
0.0
 20
0.0
 30
0.0
  9
$PUCSORGLEFT
 10
0.0
 20
0.0
 30
0.0
  9
$PUCSORGRIGHT
 10
0.0
 20
0.0
 30
0.0
  9
$PUCSORGFRONT
 10
0.0
 20
0.0
 30
0.0
  9
$PUCSORGBACK
 10
0.0
 20
0.0
 30
0.0
  9
$USERI1
 70
     0
  9
$USERI2
 70
     0
  9
$USERI3
 70
     0
  9
$USERI4
 70
     0
  9
$USERI5
 70
     0
  9
$USERR1
 40
0.0
  9
$USERR2
 40
0.0
  9
$USERR3
 40
0.0
  9
$USERR4
 40
0.0
  9
$USERR5
 40
0.0
  9
$WORLDVIEW
 70
     1
  9
$SHADEDGE
 70
     3
  9
$SHADEDIF
 70
    70
  9
$TILEMODE
 70
     1
  9
$MAXACTVP
 70
    16
  9
$PINSBASE
 10
0.0
 20
0.0
 30
0.0
  9
$PLIMCHECK
 70
     0
  9
$PEXTMIN
 10
1.000000000000000E+20
 20
1.000000000000000E+20
 30
1.000000000000000E+20
  9
$PEXTMAX
 10
-1.000000000000000E+20
 20
-1.000000000000000E+20
 30
-1.000000000000000E+20
  9
$PLIMMIN
 10
0.0
 20
0.0
  9
$PLIMMAX
 10
12.0
 20
9.0
  9
$UNITMODE
 70
     0
  9
$VISRETAIN
 70
     0
  9
$PLINEGEN
 70
     0
  9
$PSLTSCALE
 70
     1
  9
$TREEDEPTH
 70
  3020
  9
$CMLSTYLE
  2
Standard
  9
$CMLJUST
 70
     0
  9
$CMLSCALE
 40
1.0
  9
$PROXYGRAPHICS
 70
     1
  9
$MEASUREMENT
 70
     0
  9
$CELWEIGHT
370
    -1
  9
$ENDCAPS
280
     0
  9
$JOINSTYLE
280
     0
  9
$LWDISPLAY
290
     0
  9
$INSUNITS
 70
     0
  9
$HYPERLINKBASE
  1

  9
$STYLESHEET
  1

  9
$XEDIT
290
     1
  9
$CEPSNTYPE
380
     0
  9
$PSTYLEMODE
290
     1
  9
$FINGERPRINTGUID
  2
{BC6BEBD7-5C89-4B2E-99DC-E3119A1637E9}
  9
$VERSIONGUID
  2
{62F6E72C-CA8C-48D9-BB41-80960B15E047}
  9
$EXTNAMES
290
     1
  9
$PSVPSCALE
 40
0.0
  9
$OLESTARTUP
290
     0
  0
ENDSEC
  0
SECTION
  2
CLASSES
  0
CLASS
  1
ACDBDICTIONARYWDFLT
  2
AcDbDictionaryWithDefault
  3
ObjectDBX Classes
 90
        0
280
     0
281
     0
  0
CLASS
  1
MATERIAL
  2
AcDbMaterial
  3
ObjectDBX Classes
 90
     1153
280
     0
281
     0
  0
CLASS
  1
VISUALSTYLE
  2
AcDbVisualStyle
  3
ObjectDBX Classes
 90
     4095
280
     0
281
     0
  0
CLASS
  1
TABLESTYLE
  2
AcDbTableStyle
  3
ObjectDBX Classes
 90
     4095
280
     0
281
     0
  0
CLASS
  1
SCALE
  2
AcDbScale
  3
ObjectDBX Classes
 90
     1153
280
     0
281
     0
  0
CLASS
  1
MLEADERSTYLE
  2
AcDbMLeaderStyle
  3
ACDB_MLEADERSTYLE_CLASS
 90
     4095
280
     0
281
     0
  0
CLASS
  1
ACDBSECTIONVIEWSTYLE
  2
AcDbSectionViewStyle
  3
ObjectDBX Classes
 90
     1025
280
     0
281
     0
  0
CLASS
  1
ACDBDETAILVIEWSTYLE
  2
AcDbDetailViewStyle
  3
ObjectDBX Classes
 90
     1025
280
     0
281
     0
  0
CLASS
  1
EXACXREFPANELOBJECT
  2
ExAcXREFPanelObject
  3
EXAC_ESW
 90
     1025
280
     0
281
     0
  0
CLASS
  1
NPOCOLLECTION
  2
AcDbImpNonPersistentObjectsCollection
  3
ObjectDBX Classes
 90
     1153
280
     0
281
     0
  0
CLASS
  1
DICTIONARYVAR
  2
AcDbDictionaryVar
  3
ObjectDBX Classes
 90
        0
280
     0
281
     0
  0
CLASS
  1
CELLSTYLEMAP
  2
AcDbCellStyleMap
  3
ObjectDBX Classes
 90
     1152
280
     0
281
     0
  0
CLASS
  1
ACDBPLACEHOLDER
  2
AcDbPlaceHolder
  3
ObjectDBX Classes
 90
        0
280
     0
281
     0
  0
CLASS
  1
LAYOUT
  2
AcDbLayout
  3
ObjectDBX Classes
 90
        0
280
     0
281
     0
  0
ENDSEC
  0
SECTION
  2
TABLES
  0
TABLE
  2
VPORT
  5
BDF
330
0
100
AcDbSymbolTable
 70
     1
  0
VPORT
  5
319A
330
BDF
100
AcDbSymbolTableRecord
100
AcDbViewportTableRecord
  2
*Active
 70
     0
 10
0.0
 20
0.0
 11
1.0
 21
1.0
 12
48.4118026559116
 22
-13.08357950195275
 13
0.0
 23
0.0
 14
1.0
 24
1.0
 15
0.0
 25
0.0
 16
0.0
 26
0.0
 36
1.0
 17
0.0
 27
0.0
 37
0.0
 40
120.6791505453555
 41
2.2
 42
50.0
 43
0.0
 44
0.0
 50
0.0
 51
0.0
 71
     0
 72
   100
 73
     1
 74
     1
 75
     0
 76
     0
 77
     0
 78
     0
281
     0
 65
     1
110
0.0
120
0.0
130
0.0
111
1.0
121
0.0
131
0.0
112
0.0
122
1.0
132
0.0
 79
     0
146
0.0
1001
ACAD_NAV_VCDISPLAY
1070
     3
  0
ENDTAB
  0
TABLE
  2
LTYPE
  5
BDC
330
0
100
AcDbSymbolTable
 70
     4
  0
LTYPE
  5
BEA
330
BDC
100
AcDbSymbolTableRecord
100
AcDbLinetypeTableRecord
  2
ByBlock
 70
     0
  3

 72
    65
 73
     0
 40
0.0
  0
LTYPE
  5
BEB
330
BDC
100
AcDbSymbolTableRecord
100
AcDbLinetypeTableRecord
  2
ByLayer
 70
     0
  3

 72
    65
 73
     0
 40
0.0
  0
LTYPE
  5
BEC
330
BDC
100
AcDbSymbolTableRecord
100
AcDbLinetypeTableRecord
  2
CONTINUOUS
 70
     0
  3
Solid line
 72
    65
 73
     0
 40
0.0
  0
LTYPE
  5
BFE
330
BDC
100
AcDbSymbolTableRecord
100
AcDbLinetypeTableRecord
  2
CENTER
 70
     0
  3
____ _ ____ _ ____ _ ____ _ ____ _ ____ _ ____
 72
    65
 73
     4
 40
5.059897
 49
3.162434999999998
 74
     0
 49
-0.6324870000000004
 74
     0
 49
0.6324870000000004
 74
     0
 49
-0.6324870000000004
 74
     0
  0
LTYPE
  5
BFF
330
BDC
100
AcDbSymbolTableRecord
100
AcDbLinetypeTableRecord
  2
DASHED
 70
     0
  3
__ __ __ __ __ __ __ __ __ __ __ __ __ __ __ __
 72
    65
 73
     2
 40
7.589844999999997
 49
5.059897
 74
     0
 49
-2.529948
 74
     0
  0
LTYPE
  5
31E6
330
BDC
100
AcDbSymbolTableRecord
100
AcDbLinetypeTableRecord
  2
PHANTOM2
 70
     0
  3
Phantom (.5x) ___ _ _ ___ _ _ ___ _ _ ___ _ _
 72
    65
 73
     6
 40
1.25
 49
0.625
 74
     0
 49
-0.125
 74
     0
 49
0.125
 74
     0
 49
-0.125
 74
     0
 49
0.125
 74
     0
 49
-0.125
 74
     0
  0
ENDTAB
  0
TABLE
  2
LAYER
  5
BD9
330
0
100
AcDbSymbolTable
 70
    40
  0
LAYER
  5
BE7
102
{ACAD_XDICTIONARY
360
31EE
102
}
330
BD9
100
AcDbSymbolTableRecord
100
AcDbLayerTableRecord
  2
0
 70
     0
 62
     7
  6
CONTINUOUS
370
    -3
390
BE6
  0
LAYER
  5
BFB
102
{ACAD_XDICTIONARY
360
31F0
102
}
330
BD9
100
AcDbSymbolTableRecord
100
AcDbLayerTableRecord
  2
3
 70
     0
 62
     1
  6
DASHED
370
    -3
390
BE6
  0
LAYER
  5
C00
102
{ACAD_XDICTIONARY
360
31F2
102
}
330
BD9
100
AcDbSymbolTableRecord
100
AcDbLayerTableRecord
  2
1
 70
     0
 62
     4
  6
CONTINUOUS
370
    -3
390
BE6
  0
LAYER
  5
C01
102
{ACAD_XDICTIONARY
360
31F4
102
}
330
BD9
100
AcDbSymbolTableRecord
100
AcDbLayerTableRecord
  2
61
 70
     0
 62
     5
  6
CONTINUOUS
370
    -3
390
BE6
  0
LAYER
  5
C02
102
{ACAD_XDICTIONARY
360
31F6
102
}
330
BD9
100
AcDbSymbolTableRecord
100
AcDbLayerTableRecord
  2
62
 70
     0
 62
    -5
  6
CONTINUOUS
370
    -3
390
BE6
  0
LAYER
  5
C03
102
{ACAD_XDICTIONARY
360
31F8
102
}
330
BD9
100
AcDbSymbolTableRecord
100
AcDbLayerTableRecord
  2
63
 70
     0
 62
    -5
  6
CONTINUOUS
370
    -3
390
BE6
  0
LAYER
  5
C04
102
{ACAD_XDICTIONARY
360
31FA
102
}
330
BD9
100
AcDbSymbolTableRecord
100
AcDbLayerTableRecord
  2
64
 70
     0
 62
    -5
  6
CONTINUOUS
370
    -3
390
BE6
  0
LAYER
  5
C05
102
{ACAD_XDICTIONARY
360
31FC
102
}
330
BD9
100
AcDbSymbolTableRecord
100
AcDbLayerTableRecord
  2
65
 70
     0
 62
    -5
  6
CONTINUOUS
370
    -3
390
BE6
  0
LAYER
  5
C06
102
{ACAD_XDICTIONARY
360
31FE
102
}
330
BD9
100
AcDbSymbolTableRecord
100
AcDbLayerTableRecord
  2
66
 70
     0
 62
    -5
  6
CONTINUOUS
370
    -3
390
BE6
  0
LAYER
  5
C07
102
{ACAD_XDICTIONARY
360
3200
102
}
330
BD9
100
AcDbSymbolTableRecord
100
AcDbLayerTableRecord
  2
67
 70
     0
 62
    -5
  6
CONTINUOUS
370
    -3
390
BE6
  0
LAYER
  5
C08
102
{ACAD_XDICTIONARY
360
3202
102
}
330
BD9
100
AcDbSymbolTableRecord
100
AcDbLayerTableRecord
  2
68
 70
     0
 62
    -5
  6
CONTINUOUS
370
    -3
390
BE6
  0
LAYER
  5
C09
102
{ACAD_XDICTIONARY
360
3204
102
}
330
BD9
100
AcDbSymbolTableRecord
100
AcDbLayerTableRecord
  2
69
 70
     0
 62
    -5
  6
CONTINUOUS
370
    -3
390
BE6
  0
LAYER
  5
C0A
102
{ACAD_XDICTIONARY
360
3206
102
}
330
BD9
100
AcDbSymbolTableRecord
100
AcDbLayerTableRecord
  2
70
 70
     0
 62
     5
  6
CONTINUOUS
370
    -3
390
BE6
  0
LAYER
  5
C0B
102
{ACAD_XDICTIONARY
360
3208
102
}
330
BD9
100
AcDbSymbolTableRecord
100
AcDbLayerTableRecord
  2
2
 70
     0
 62
     7
  6
CONTINUOUS
370
    -3
390
BE6
  0
LAYER
  5
C0C
102
{ACAD_XDICTIONARY
360
320A
102
}
330
BD9
100
AcDbSymbolTableRecord
100
AcDbLayerTableRecord
  2
4
 70
     0
 62
    -2
  6
CENTER
370
    -3
390
BE6
  0
LAYER
  5
C0D
102
{ACAD_XDICTIONARY
360
320C
102
}
330
BD9
100
AcDbSymbolTableRecord
100
AcDbLayerTableRecord
  2
5
 70
     0
 62
    -7
  6
CONTINUOUS
370
    -3
390
BE6
  0
LAYER
  5
C0E
102
{ACAD_XDICTIONARY
360
320E
102
}
330
BD9
100
AcDbSymbolTableRecord
100
AcDbLayerTableRecord
  2
SK1
 70
     0
 62
     4
  6
CONTINUOUS
370
    -3
390
BE6
  0
LAYER
  5
C0F
102
{ACAD_XDICTIONARY
360
3210
102
}
330
BD9
100
AcDbSymbolTableRecord
100
AcDbLayerTableRecord
  2
6
 70
     0
 62
     5
  6
CONTINUOUS
370
    -3
390
BE6
  0
LAYER
  5
C10
102
{ACAD_XDICTIONARY
360
3212
102
}
330
BD9
100
AcDbSymbolTableRecord
100
AcDbLayerTableRecord
  2
SK2
 70
     0
 62
     7
  6
CONTINUOUS
370
    -3
390
BE6
  0
LAYER
  5
C11
102
{ACAD_XDICTIONARY
360
3214
102
}
330
BD9
100
AcDbSymbolTableRecord
100
AcDbLayerTableRecord
  2
SK3
 70
     0
 62
     1
  6
DASHED
370
    -3
390
BE6
  0
LAYER
  5
C12
102
{ACAD_XDICTIONARY
360
3216
102
}
330
BD9
100
AcDbSymbolTableRecord
100
AcDbLayerTableRecord
  2
SK4
 70
     0
 62
     2
  6
CENTER
370
    -3
390
BE6
  0
LAYER
  5
C13
102
{ACAD_XDICTIONARY
360
3218
102
}
330
BD9
100
AcDbSymbolTableRecord
100
AcDbLayerTableRecord
  2
CUT
 70
     0
 62
     1
  6
CONTINUOUS
370
    -3
390
BE6
  0
LAYER
  5
C14
102
{ACAD_XDICTIONARY
360
321A
102
}
330
BD9
100
AcDbSymbolTableRecord
100
AcDbLayerTableRecord
  2
SK6
 70
     0
 62
     5
  6
CONTINUOUS
370
    -3
390
BE6
  0
LAYER
  5
C15
102
{ACAD_XDICTIONARY
360
321C
102
}
330
BD9
100
AcDbSymbolTableRecord
100
AcDbLayerTableRecord
  2
80
 70
     0
 62
    -2
  6
CENTER
370
    -3
390
BE6
  0
LAYER
  5
C16
102
{ACAD_XDICTIONARY
360
321E
102
}
330
BD9
100
AcDbSymbolTableRecord
100
AcDbLayerTableRecord
  2
81
 70
     0
 62
    -2
  6
CENTER
370
    -3
390
BE6
  0
LAYER
  5
C17
102
{ACAD_XDICTIONARY
360
3220
102
}
330
BD9
100
AcDbSymbolTableRecord
100
AcDbLayerTableRecord
  2
82
 70
     0
 62
    -2
  6
CENTER
370
    -3
390
BE6
  0
LAYER
  5
C18
102
{ACAD_XDICTIONARY
360
3222
102
}
330
BD9
100
AcDbSymbolTableRecord
100
AcDbLayerTableRecord
  2
NOCUT
 70
     0
 62
     7
  6
CONTINUOUS
370
    -3
390
BE6
  0
LAYER
  5
C19
102
{ACAD_XDICTIONARY
360
3224
102
}
330
BD9
100
AcDbSymbolTableRecord
100
AcDbLayerTableRecord
  2
50
 70
     0
 62
    -7
  6
CONTINUOUS
370
    -3
390
BE6
  0
LAYER
  5
C1A
102
{ACAD_XDICTIONARY
360
3226
102
}
330
BD9
100
AcDbSymbolTableRecord
100
AcDbLayerTableRecord
  2
51
 70
     0
 62
     7
  6
CONTINUOUS
370
    -3
390
BE6
  0
LAYER
  5
C1B
102
{ACAD_XDICTIONARY
360
3228
102
}
330
BD9
100
AcDbSymbolTableRecord
100
AcDbLayerTableRecord
  2
52
 70
     0
 62
    -7
  6
CONTINUOUS
370
    -3
390
BE6
  0
LAYER
  5
C1C
102
{ACAD_XDICTIONARY
360
322A
102
}
330
BD9
100
AcDbSymbolTableRecord
100
AcDbLayerTableRecord
  2
53
 70
     0
 62
    -7
  6
CONTINUOUS
370
    -3
390
BE6
  0
LAYER
  5
C1D
102
{ACAD_XDICTIONARY
360
322C
102
}
330
BD9
100
AcDbSymbolTableRecord
100
AcDbLayerTableRecord
  2
54
 70
     0
 62
    -7
  6
CONTINUOUS
370
    -3
390
BE6
  0
LAYER
  5
C1E
102
{ACAD_XDICTIONARY
360
322E
102
}
330
BD9
100
AcDbSymbolTableRecord
100
AcDbLayerTableRecord
  2
55
 70
     0
 62
    -7
  6
CONTINUOUS
370
    -3
390
BE6
  0
LAYER
  5
C1F
102
{ACAD_XDICTIONARY
360
3230
102
}
330
BD9
100
AcDbSymbolTableRecord
100
AcDbLayerTableRecord
  2
56
 70
     0
 62
    -7
  6
CONTINUOUS
370
    -3
390
BE6
  0
LAYER
  5
C20
102
{ACAD_XDICTIONARY
360
3232
102
}
330
BD9
100
AcDbSymbolTableRecord
100
AcDbLayerTableRecord
  2
57
 70
     0
 62
    -7
  6
CONTINUOUS
370
    -3
390
BE6
  0
LAYER
  5
C21
102
{ACAD_XDICTIONARY
360
3234
102
}
330
BD9
100
AcDbSymbolTableRecord
100
AcDbLayerTableRecord
  2
58
 70
     0
 62
    -7
  6
CONTINUOUS
370
    -3
390
BE6
  0
LAYER
  5
C22
102
{ACAD_XDICTIONARY
360
3236
102
}
330
BD9
100
AcDbSymbolTableRecord
100
AcDbLayerTableRecord
  2
2L
 70
     0
 62
     7
  6
CONTINUOUS
370
    -3
390
BE6
  0
LAYER
  5
C23
102
{ACAD_XDICTIONARY
360
3238
102
}
330
BD9
100
AcDbSymbolTableRecord
100
AcDbLayerTableRecord
  2
59
 70
     0
 62
    -7
  6
CONTINUOUS
370
    -3
390
BE6
  0
LAYER
  5
C24
330
BD9
100
AcDbSymbolTableRecord
100
AcDbLayerTableRecord
  2
DEFPOINTS
 70
     0
 62
     7
  6
CONTINUOUS
290
     0
370
    -3
390
BE6
  0
LAYER
  5
C42
102
{ACAD_XDICTIONARY
360
323A
102
}
330
BD9
100
AcDbSymbolTableRecord
100
AcDbLayerTableRecord
  2
TFR-TRI
 70
     0
 62
     7
  6
CONTINUOUS
370
    -3
390
BE6
  0
ENDTAB
  0
TABLE
  2
STYLE
  5
BDA
330
0
100
AcDbSymbolTable
 70
     2
  0
STYLE
  5
BE8
330
BDA
100
AcDbSymbolTableRecord
100
AcDbTextStyleTableRecord
  2
STANDARD
 70
     0
 40
0.0
 41
1.0
 50
0.0
 71
     0
 42
4.5
  3
simplex.shx
  4

  0
STYLE
  5
BFC
330
BDA
100
AcDbSymbolTableRecord
100
AcDbTextStyleTableRecord
  2
SANDVIK_STYLE
 70
     0
 40
3.0
 41
1.0
 50
0.0
 71
     0
 42
3.0
  3
simplex.shx
  4

  0
ENDTAB
  0
TABLE
  2
VIEW
  5
BDD
330
0
100
AcDbSymbolTable
 70
     0
  0
ENDTAB
  0
TABLE
  2
UCS
  5
BDE
330
0
100
AcDbSymbolTable
 70
     0
  0
ENDTAB
  0
TABLE
  2
APPID
  5
BE0
330
0
100
AcDbSymbolTable
 70
     4
  0
APPID
  5
BE9
330
BE0
100
AcDbSymbolTableRecord
100
AcDbRegAppTableRecord
  2
ACAD
 70
     0
  0
APPID
  5
323E
330
BE0
100
AcDbSymbolTableRecord
100
AcDbRegAppTableRecord
  2
DCO15
 70
     0
  0
APPID
  5
324A
330
BE0
100
AcDbSymbolTableRecord
100
AcDbRegAppTableRecord
  2
ACAD_NAV_VCDISPLAY
 70
     0
  0
APPID
  5
3287
330
BE0
100
AcDbSymbolTableRecord
100
AcDbRegAppTableRecord
  2
ACAD_MLEADERVER
 70
     0
  0
ENDTAB
  0
TABLE
  2
DIMSTYLE
  5
BE1
330
0
100
AcDbSymbolTable
 70
     2
100
AcDbDimStyleTable
 71
     1
340
C26
  0
DIMSTYLE
105
C25
330
BE1
100
AcDbSymbolTableRecord
100
AcDbDimStyleTableRecord
  2
STANDARD
 70
     0
  3
 
  4
 
 41
3.0
 42
2.5
 43
10.0
 44
2.5
 46
1.25
 73
     0
 74
     0
140
3.0
141
-3.0
143
0.039
145
1.5
146
0.75
147
1.5
271
     2
272
     2
279
     2
340
BFC
  0
DIMSTYLE
105
C26
102
{ACAD_REACTORS
330
3004
330
303B
330
305F
330
306E
330
3097
330
30A4
330
30D0
102
}
330
BE1
100
AcDbSymbolTableRecord
100
AcDbDimStyleTableRecord
  2
SANDVIK_DIM
 70
     0
  3
 
  4
 
 40
0.0
 41
4.57
 42
0.0
 44
5.0
 73
     0
 74
     0
 77
     1
 78
     8
140
4.5
147
2.299999999999998
176
   256
177
   256
178
   256
271
     2
272
     2
279
     2
340
BFC
  0
ENDTAB
  0
TABLE
  2
BLOCK_RECORD
  5
BD8
330
0
100
AcDbSymbolTable
 70
    10
  0
BLOCK_RECORD
  5
BF7
330
BD8
100
AcDbSymbolTableRecord
100
AcDbBlockTableRecord
  2
*Model_Space
340
BFA
  0
BLOCK_RECORD
  5
BF3
330
BD8
100
AcDbSymbolTableRecord
100
AcDbBlockTableRecord
  2
*Paper_Space
340
BF6
  0
BLOCK_RECORD
  5
C28
330
BD8
100
AcDbSymbolTableRecord
100
AcDbBlockTableRecord
  2
$MODEL_SPACE
340
0
  0
BLOCK_RECORD
  5
C2A
330
BD8
100
AcDbSymbolTableRecord
100
AcDbBlockTableRecord
  2
$PAPER_SPACE
340
0
  0
BLOCK_RECORD
  5
3005
330
BD8
100
AcDbSymbolTableRecord
100
AcDbBlockTableRecord
  2
*D2
340
0
  0
BLOCK_RECORD
  5
3012
330
BD8
100
AcDbSymbolTableRecord
100
AcDbBlockTableRecord
  2
*D3
340
0
  0
BLOCK_RECORD
  5
303C
330
BD8
100
AcDbSymbolTableRecord
100
AcDbBlockTableRecord
  2
*D4
340
0
  0
BLOCK_RECORD
  5
3060
330
BD8
100
AcDbSymbolTableRecord
100
AcDbBlockTableRecord
  2
*D5
340
0
  0
BLOCK_RECORD
  5
306F
330
BD8
100
AcDbSymbolTableRecord
100
AcDbBlockTableRecord
  2
*D6
340
0
  0
BLOCK_RECORD
  5
3098
330
BD8
100
AcDbSymbolTableRecord
100
AcDbBlockTableRecord
  2
*D7
340
0
  0
BLOCK_RECORD
  5
30A5
330
BD8
100
AcDbSymbolTableRecord
100
AcDbBlockTableRecord
  2
*D8
340
0
  0
BLOCK_RECORD
  5
30D1
330
BD8
100
AcDbSymbolTableRecord
100
AcDbBlockTableRecord
  2
*D9
340
0
  0
ENDTAB
  0
ENDSEC
  0
SECTION
  2
BLOCKS
  0
BLOCK
  5
BF8
330
BF7
100
AcDbEntity
  8
0
100
AcDbBlockBegin
  2
*Model_Space
 70
     0
 10
0.0
 20
0.0
 30
0.0
  3
*Model_Space
  1

  0
ENDBLK
  5
BF9
330
BF7
100
AcDbEntity
  8
0
100
AcDbBlockEnd
  0
BLOCK
  5
BF4
330
BF3
100
AcDbEntity
 67
     1
  8
0
100
AcDbBlockBegin
  2
*Paper_Space
 70
     0
 10
0.0
 20
0.0
 30
0.0
  3
*Paper_Space
  1

  0
ENDBLK
  5
BF5
330
BF3
100
AcDbEntity
 67
     1
  8
0
100
AcDbBlockEnd
  0
BLOCK
  5
C29
330
C28
100
AcDbEntity
  8
0
100
AcDbBlockBegin
  2
$MODEL_SPACE
 70
     0
 10
0.0
 20
0.0
 30
0.0
  3
$MODEL_SPACE
  1

  0
ENDBLK
  5
AEF
330
C28
100
AcDbEntity
  8
0
100
AcDbBlockEnd
  0
BLOCK
  5
C2B
330
C2A
100
AcDbEntity
  8
0
100
AcDbBlockBegin
  2
$PAPER_SPACE
 70
     0
 10
0.0
 20
0.0
 30
0.0
  3
$PAPER_SPACE
  1

  0
ENDBLK
  5
AEB
330
C2A
100
AcDbEntity
  8
0
100
AcDbBlockEnd
  0
BLOCK
  5
300F
330
3005
100
AcDbEntity
  8
0
100
AcDbBlockBegin
  2
*D2
 70
     1
 10
0.0
 20
0.0
 30
0.0
  3
*D2
  1

  0
LINE
  5
3175
330
3005
100
AcDbEntity
  8
SK2
370
    -2
100
AcDbLine
 10
151.999114
 20
0.2001600000000057
 30
0.0
 11
151.999114
 21
-54.16715976917014
 31
0.0
  0
LINE
  5
3176
330
3005
100
AcDbEntity
  8
SK2
370
    -2
100
AcDbLine
 10
-39.99999299999999
 20
2.156745000000002
 30
0.0
 11
-39.99999299999999
 21
-54.16715976917014
 31
0.0
  0
LINE
  5
3177
330
3005
100
AcDbEntity
  8
SK2
370
    -2
100
AcDbLine
 10
147.429114
 20
-49.16715976917014
 30
0.0
 11
-35.42999299999999
 21
-49.16715976917014
 31
0.0
  0
SOLID
  5
3178
330
3005
100
AcDbEntity
  8
SK2
100
AcDbTrace
 10
147.429114
 20
-48.40549310250349
 30
0.0
 11
147.429114
 21
-49.92882643583681
 31
0.0
 12
151.999114
 22
-49.16715976917014
 32
0.0
 13
151.999114
 23
-49.16715976917014
 33
0.0
  0
SOLID
  5
3179
330
3005
100
AcDbEntity
  8
SK2
100
AcDbTrace
 10
-35.42999299999999
 20
-48.40549310250349
 30
0.0
 11
-35.42999299999999
 21
-49.92882643583681
 31
0.0
 12
-39.99999299999999
 22
-49.16715976917014
 32
0.0
 13
-39.99999299999999
 23
-49.16715976917014
 33
0.0
  0
MTEXT
  5
317A
330
3005
100
AcDbEntity
  8
SK2
100
AcDbMText
 10
55.9995605
 20
-45.36715976917014
 30
0.0
 40
3.0
 41
0.0
 71
     5
 72
     1
  1
\A1;192 
  7
SANDVIK_STYLE
 73
     1
 44
1.0
1001
ACAD
1000
MTEXTBEGIN
1070
    73
1070
     1
1070
    44
1040
1.0
1070
    74
1070
     0
1000
MTEXTEND
  0
POINT
  5
317B
330
3005
100
AcDbEntity
  8
DEFPOINTS
 62
     0
100
AcDbPoint
 10
151.999114
 20
0.2001600000000057
 30
0.0
  0
POINT
  5
317C
330
3005
100
AcDbEntity
  8
DEFPOINTS
 62
     0
100
AcDbPoint
 10
-39.99999299999999
 20
2.156745000000002
 30
0.0
  0
POINT
  5
317D
330
3005
100
AcDbEntity
  8
DEFPOINTS
 62
     0
100
AcDbPoint
 10
-39.99999299999999
 20
-49.16715976917014
 30
0.0
  0
ENDBLK
  5
3010
330
3005
100
AcDbEntity
  8
0
100
AcDbBlockEnd
  0
BLOCK
  5
301C
330
3012
100
AcDbEntity
  8
0
100
AcDbBlockBegin
  2
*D3
 70
     1
 10
0.0
 20
0.0
 30
0.0
  3
*D3
  1

  0
LINE
  5
3032
330
3012
100
AcDbEntity
  8
1
370
    -2
100
AcDbLine
 10
151.8830497853499
 20
0.1778590000000015
 30
0.0
 11
151.8830497853499
 21
-41.21286728120264
 31
0.0
  0
LINE
  5
3033
330
3012
100
AcDbEntity
  8
1
370
    -2
100
AcDbLine
 10
-0.1160642146501232
 20
0.1707164999999993
 30
0.0
 11
-0.1160642146501257
 21
-41.21286728120264
 31
0.0
  0
LINE
  5
3034
330
3012
100
AcDbEntity
  8
1
370
    -2
100
AcDbLine
 10
147.3130497853499
 20
-36.21286728120265
 30
0.0
 11
4.453935785349873
 21
-36.21286728120265
 31
0.0
  0
SOLID
  5
3035
330
3012
100
AcDbEntity
  8
1
100
AcDbTrace
 10
147.3130497853499
 20
-35.45120061453598
 30
0.0
 11
147.3130497853499
 21
-36.97453394786932
 31
0.0
 12
151.8830497853499
 22
-36.21286728120265
 32
0.0
 13
151.8830497853499
 23
-36.21286728120265
 33
0.0
  0
SOLID
  5
3036
330
3012
100
AcDbEntity
  8
1
100
AcDbTrace
 10
4.453935785349873
 20
-35.45120061453598
 30
0.0
 11
4.453935785349873
 21
-36.97453394786932
 31
0.0
 12
-0.1160642146501254
 22
-36.21286728120265
 32
0.0
 13
-0.1160642146501254
 23
-36.21286728120265
 33
0.0
  0
MTEXT
  5
3037
330
3012
100
AcDbEntity
  8
1
100
AcDbMText
 10
75.88349278534987
 20
-32.41286728120265
 30
0.0
 40
3.0
 41
0.0
 71
     5
 72
     1
  1
\A1;152 
  7
SANDVIK_STYLE
 73
     1
 44
1.0
1001
ACAD
1000
MTEXTBEGIN
1070
    73
1070
     1
1070
    44
1040
1.0
1070
    74
1070
     0
1000
MTEXTEND
  0
POINT
  5
3038
330
3012
100
AcDbEntity
  8
DEFPOINTS
 62
     0
100
AcDbPoint
 10
151.8830497853499
 20
0.1778590000000015
 30
0.0
  0
POINT
  5
3039
330
3012
100
AcDbEntity
  8
DEFPOINTS
 62
     0
100
AcDbPoint
 10
-0.1160642146501232
 20
0.1707164999999993
 30
0.0
  0
POINT
  5
303A
330
3012
100
AcDbEntity
  8
DEFPOINTS
 62
     0
100
AcDbPoint
 10
-0.1160642146501254
 20
-36.21286728120265
 30
0.0
  0
ENDBLK
  5
301D
330
3012
100
AcDbEntity
  8
0
100
AcDbBlockEnd
  0
BLOCK
  5
3046
330
303C
100
AcDbEntity
  8
0
100
AcDbBlockBegin
  2
*D4
 70
     1
 10
0.0
 20
0.0
 30
0.0
  3
*D4
  1

  0
LINE
  5
316C
330
303C
100
AcDbEntity
  8
SK2
370
    -2
100
AcDbLine
 10
0.0
 20
0.0
 30
0.0
 11
-0.0000000000000025
 21
-41.3288418796372
 31
0.0
  0
LINE
  5
316D
330
303C
100
AcDbEntity
  8
SK2
370
    -2
100
AcDbLine
 10
-39.99999299999999
 20
-0.2351509999999983
 30
0.0
 11
-39.99999299999999
 21
-41.3288418796372
 31
0.0
  0
LINE
  5
316E
330
303C
100
AcDbEntity
  8
SK2
370
    -2
100
AcDbLine
 10
-4.570000000000002
 20
-36.3288418796372
 30
0.0
 11
-35.42999299999999
 21
-36.3288418796372
 31
0.0
  0
SOLID
  5
316F
330
303C
100
AcDbEntity
  8
SK2
100
AcDbTrace
 10
-4.570000000000002
 20
-35.56717521297054
 30
0.0
 11
-4.570000000000002
 21
-37.09050854630387
 31
0.0
 12
-0.0000000000000022
 22
-36.3288418796372
 32
0.0
 13
-0.0000000000000022
 23
-36.3288418796372
 33
0.0
  0
SOLID
  5
3170
330
303C
100
AcDbEntity
  8
SK2
100
AcDbTrace
 10
-35.42999299999999
 20
-35.56717521297054
 30
0.0
 11
-35.42999299999999
 21
-37.09050854630387
 31
0.0
 12
-39.99999299999999
 22
-36.3288418796372
 32
0.0
 13
-39.99999299999999
 23
-36.3288418796372
 33
0.0
  0
MTEXT
  5
3171
330
303C
100
AcDbEntity
  8
SK2
100
AcDbMText
 10
-19.99999649999999
 20
-32.52884187963721
 30
0.0
 40
3.0
 41
0.0
 71
     5
 72
     1
  1
\A1;40 
  7
SANDVIK_STYLE
 73
     1
 44
1.0
1001
ACAD
1000
MTEXTBEGIN
1070
    73
1070
     1
1070
    44
1040
1.0
1070
    74
1070
     0
1000
MTEXTEND
  0
POINT
  5
3172
330
303C
100
AcDbEntity
  8
DEFPOINTS
 62
     0
100
AcDbPoint
 10
0.0
 20
0.0
 30
0.0
  0
POINT
  5
3173
330
303C
100
AcDbEntity
  8
DEFPOINTS
 62
     0
100
AcDbPoint
 10
-39.99999299999999
 20
-0.2351509999999983
 30
0.0
  0
POINT
  5
3174
330
303C
100
AcDbEntity
  8
DEFPOINTS
 62
     0
100
AcDbPoint
 10
-39.99999299999999
 20
-36.3288418796372
 30
0.0
  0
ENDBLK
  5
3047
330
303C
100
AcDbEntity
  8
0
100
AcDbBlockEnd
  0
BLOCK
  5
306A
330
3060
100
AcDbEntity
  8
0
100
AcDbBlockBegin
  2
*D5
 70
     1
 10
0.0
 20
0.0
 30
0.0
  3
*D5
  1

  0
LINE
  5
3191
330
3060
100
AcDbEntity
  8
2
370
    -2
100
AcDbLine
 10
151.999961
 20
0.1833820000000052
 30
0.0
 11
151.999961
 21
-41.32368435780596
 31
0.0
  0
LINE
  5
3192
330
3060
100
AcDbEntity
  8
2
370
    -2
100
AcDbLine
 10
0.0
 20
0.1707164999999993
 30
0.0
 11
-0.0000000000000025
 21
-41.32368435780596
 31
0.0
  0
LINE
  5
3193
330
3060
100
AcDbEntity
  8
2
370
    -2
100
AcDbLine
 10
147.429961
 20
-36.32368435780597
 30
0.0
 11
4.569999999999996
 21
-36.32368435780597
 31
0.0
  0
SOLID
  5
3194
330
3060
100
AcDbEntity
  8
2
100
AcDbTrace
 10
147.429961
 20
-35.5620176911393
 30
0.0
 11
147.429961
 21
-37.08535102447263
 31
0.0
 12
151.999961
 22
-36.32368435780597
 32
0.0
 13
151.999961
 23
-36.32368435780597
 33
0.0
  0
SOLID
  5
3195
330
3060
100
AcDbEntity
  8
2
100
AcDbTrace
 10
4.569999999999996
 20
-35.5620176911393
 30
0.0
 11
4.569999999999996
 21
-37.08535102447263
 31
0.0
 12
-0.0000000000000022
 22
-36.32368435780597
 32
0.0
 13
-0.0000000000000022
 23
-36.32368435780597
 33
0.0
  0
MTEXT
  5
3196
330
3060
100
AcDbEntity
  8
2
100
AcDbMText
 10
75.9999805
 20
-32.52368435780597
 30
0.0
 40
3.0
 41
0.0
 71
     5
 72
     1
  1
\A1;152 
  7
SANDVIK_STYLE
 73
     1
 44
1.0
1001
ACAD
1000
MTEXTBEGIN
1070
    73
1070
     1
1070
    44
1040
1.0
1070
    74
1070
     0
1000
MTEXTEND
  0
POINT
  5
3197
330
3060
100
AcDbEntity
  8
DEFPOINTS
 62
     0
100
AcDbPoint
 10
151.999961
 20
0.1833820000000052
 30
0.0
  0
POINT
  5
3198
330
3060
100
AcDbEntity
  8
DEFPOINTS
 62
     0
100
AcDbPoint
 10
0.0
 20
0.1707164999999993
 30
0.0
  0
POINT
  5
3199
330
3060
100
AcDbEntity
  8
DEFPOINTS
 62
     0
100
AcDbPoint
 10
-0.0000000000000022
 20
-36.32368435780597
 30
0.0
  0
ENDBLK
  5
306B
330
3060
100
AcDbEntity
  8
0
100
AcDbBlockEnd
  0
BLOCK
  5
3079
330
306F
100
AcDbEntity
  8
0
100
AcDbBlockBegin
  2
*D6
 70
     1
 10
0.0
 20
0.0
 30
0.0
  3
*D6
  1

  0
LINE
  5
314C
330
306F
100
AcDbEntity
  8
2
370
    -2
100
AcDbLine
 10
151.999961
 20
0.1833820000000052
 30
0.0
 11
151.999961
 21
-20.92144245045199
 31
0.0
  0
LINE
  5
314D
330
306F
100
AcDbEntity
  8
2
370
    -2
100
AcDbLine
 10
5.996333999999997
 20
3.537247
 30
0.0
 11
5.996333999999995
 21
-20.92144245045199
 31
0.0
  0
LINE
  5
314E
330
306F
100
AcDbEntity
  8
2
370
    -2
100
AcDbLine
 10
147.429961
 20
-15.92144245045199
 30
0.0
 11
10.56633399999999
 21
-15.92144245045199
 31
0.0
  0
SOLID
  5
314F
330
306F
100
AcDbEntity
  8
2
100
AcDbTrace
 10
147.429961
 20
-15.15977578378532
 30
0.0
 11
147.429961
 21
-16.68310911711866
 31
0.0
 12
151.999961
 22
-15.92144245045199
 32
0.0
 13
151.999961
 23
-15.92144245045199
 33
0.0
  0
SOLID
  5
3150
330
306F
100
AcDbEntity
  8
2
100
AcDbTrace
 10
10.56633399999999
 20
-15.15977578378532
 30
0.0
 11
10.56633399999999
 21
-16.68310911711866
 31
0.0
 12
5.996333999999996
 22
-15.92144245045199
 32
0.0
 13
5.996333999999996
 23
-15.92144245045199
 33
0.0
  0
MTEXT
  5
3151
330
306F
100
AcDbEntity
  8
2
100
AcDbMText
 10
78.99814749999999
 20
-12.12144245045199
 30
0.0
 40
3.0
 41
0.0
 71
     5
 72
     1
  1
\A1;146 
  7
SANDVIK_STYLE
 73
     1
 44
1.0
1001
ACAD
1000
MTEXTBEGIN
1070
    73
1070
     1
1070
    44
1040
1.0
1070
    74
1070
     0
1000
MTEXTEND
  0
POINT
  5
3152
330
306F
100
AcDbEntity
  8
DEFPOINTS
 62
     0
100
AcDbPoint
 10
151.999961
 20
0.1833820000000052
 30
0.0
  0
POINT
  5
3153
330
306F
100
AcDbEntity
  8
DEFPOINTS
 62
     0
100
AcDbPoint
 10
5.996333999999997
 20
3.537247
 30
0.0
  0
POINT
  5
3154
330
306F
100
AcDbEntity
  8
DEFPOINTS
 62
     0
100
AcDbPoint
 10
5.996333999999996
 20
-15.92144245045199
 30
0.0
  0
ENDBLK
  5
307A
330
306F
100
AcDbEntity
  8
0
100
AcDbBlockEnd
  0
BLOCK
  5
30A2
330
3098
100
AcDbEntity
  8
0
100
AcDbBlockBegin
  2
*D7
 70
     1
 10
0.0
 20
0.0
 30
0.0
  3
*D7
  1

  0
LINE
  5
3188
330
3098
100
AcDbEntity
  8
SK2
370
    -2
100
AcDbLine
 10
151.999114
 20
0.2224610000000027
 30
0.0
 11
151.999114
 21
14.76912148658062
 31
0.0
  0
LINE
  5
3189
330
3098
100
AcDbEntity
  8
SK2
370
    -2
100
AcDbLine
 10
53.59911400000001
 20
0.2224610000000027
 30
0.0
 11
53.59911400000001
 21
14.76912148658062
 31
0.0
  0
LINE
  5
318A
330
3098
100
AcDbEntity
  8
SK2
370
    -2
100
AcDbLine
 10
147.429114
 20
9.769121486580617
 30
0.0
 11
58.16911400000001
 21
9.769121486580617
 31
0.0
  0
SOLID
  5
318B
330
3098
100
AcDbEntity
  8
SK2
100
AcDbTrace
 10
147.429114
 20
10.53078815324728
 30
0.0
 11
147.429114
 21
9.007454819913952
 31
0.0
 12
151.999114
 22
9.769121486580617
 32
0.0
 13
151.999114
 23
9.769121486580617
 33
0.0
  0
SOLID
  5
318C
330
3098
100
AcDbEntity
  8
SK2
100
AcDbTrace
 10
58.16911400000001
 20
10.53078815324728
 30
0.0
 11
58.16911400000001
 21
9.007454819913952
 31
0.0
 12
53.59911400000001
 22
9.769121486580617
 32
0.0
 13
53.59911400000001
 23
9.769121486580617
 33
0.0
  0
MTEXT
  5
318D
330
3098
100
AcDbEntity
  8
SK2
100
AcDbMText
 10
102.799114
 20
13.56912148658061
 30
0.0
 40
3.0
 41
0.0
 71
     5
 72
     1
  1
\A1;98.4 
  7
SANDVIK_STYLE
 73
     1
 44
1.0
1001
ACAD
1000
MTEXTBEGIN
1070
    73
1070
     1
1070
    44
1040
1.0
1070
    74
1070
     0
1000
MTEXTEND
  0
POINT
  5
318E
330
3098
100
AcDbEntity
  8
DEFPOINTS
 62
     0
100
AcDbPoint
 10
151.999114
 20
0.2224610000000027
 30
0.0
  0
POINT
  5
318F
330
3098
100
AcDbEntity
  8
DEFPOINTS
 62
     0
100
AcDbPoint
 10
53.59911400000001
 20
0.2224610000000027
 30
0.0
  0
POINT
  5
3190
330
3098
100
AcDbEntity
  8
DEFPOINTS
 62
     0
100
AcDbPoint
 10
53.59911400000001
 20
9.769121486580617
 30
0.0
  0
ENDBLK
  5
30A3
330
3098
100
AcDbEntity
  8
0
100
AcDbBlockEnd
  0
BLOCK
  5
30B0
330
30A5
100
AcDbEntity
  8
0
100
AcDbBlockBegin
  2
*D8
 70
     1
 10
0.0
 20
0.0
 30
0.0
  3
*D8
  1

  0
LINE
  5
315E
330
30A5
100
AcDbEntity
  8
2
370
    -2
100
AcDbLine
 10
150.615889
 20
4.300125000000003
 30
0.0
 11
167.4784686586583
 21
4.300125
 31
0.0
  0
LINE
  5
315F
330
30A5
100
AcDbEntity
  8
2
370
    -2
100
AcDbLine
 10
150.619377
 20
-3.899838999999995
 30
0.0
 11
167.4784686586583
 21
-3.899839000000001
 31
0.0
  0
LINE
  5
3160
330
30A5
100
AcDbEntity
  8
2
370
    -2
100
AcDbLine
 10
162.4784686586583
 20
8.870125000000001
 30
0.0
 11
162.4784686586583
 21
13.440125
 31
0.0
  0
LINE
  5
3161
330
30A5
100
AcDbEntity
  8
2
370
    -2
100
AcDbLine
 10
162.4784686586583
 20
-8.469839
 30
0.0
 11
162.4784686586583
 21
-13.039839
 31
0.0
  0
MTEXT
  5
3162
330
30A5
100
AcDbEntity
  8
2
100
AcDbMText
 10
162.3748612751754
 20
-18.90995609023082
 30
0.0
 40
3.0
 41
0.0
 71
     5
 72
     1
  1
\A1;%%C 8.2 
  7
SANDVIK_STYLE
 11
0.0000000000000001
 21
1.0
 31
0.0
 73
     1
 44
1.0
1001
ACAD
1000
MTEXTBEGIN
1070
    73
1070
     1
1070
    44
1040
1.0
1070
    74
1070
     0
1000
MTEXTEND
  0
SOLID
  5
3163
330
30A5
100
AcDbEntity
  8
2
100
AcDbTrace
 10
161.7168019919917
 20
8.870125000000001
 30
0.0
 11
163.240135325325
 21
8.870125000000001
 31
0.0
 12
162.4784686586583
 22
4.300125000000001
 32
0.0
 13
162.4784686586583
 23
4.300125000000001
 33
0.0
  0
SOLID
  5
3164
330
30A5
100
AcDbEntity
  8
2
100
AcDbTrace
 10
161.7168019919917
 20
-8.469839
 30
0.0
 11
163.240135325325
 21
-8.469839
 31
0.0
 12
162.4784686586583
 22
-3.899839
 32
0.0
 13
162.4784686586583
 23
-3.899839
 33
0.0
  0
POINT
  5
3165
330
30A5
100
AcDbEntity
  8
DEFPOINTS
 62
     0
100
AcDbPoint
 10
150.615889
 20
4.300125000000003
 30
0.0
  0
POINT
  5
3166
330
30A5
100
AcDbEntity
  8
DEFPOINTS
 62
     0
100
AcDbPoint
 10
150.619377
 20
-3.899838999999995
 30
0.0
  0
POINT
  5
3167
330
30A5
100
AcDbEntity
  8
DEFPOINTS
 62
     0
100
AcDbPoint
 10
162.4784686586583
 20
-3.899839
 30
0.0
  0
ENDBLK
  5
30B1
330
30A5
100
AcDbEntity
  8
0
100
AcDbBlockEnd
  0
BLOCK
  5
30DC
330
30D1
100
AcDbEntity
  8
0
100
AcDbBlockBegin
  2
*D9
 70
     1
 10
0.0
 20
0.0
 30
0.0
  3
*D9
  1

  0
LINE
  5
317E
330
30D1
100
AcDbEntity
  8
SK2
370
    -2
100
AcDbLine
 10
-37.41655983749604
 20
-4.799841
 30
0.0
 11
-55.26383564304206
 21
-4.799840999999995
 31
0.0
  0
LINE
  5
317F
330
30D1
100
AcDbEntity
  8
SK2
370
    -2
100
AcDbLine
 10
-37.00213192586387
 20
5.200161000000004
 30
0.0
 11
-55.26383564304206
 21
5.200161000000009
 31
0.0
  0
LINE
  5
3180
330
30D1
100
AcDbEntity
  8
SK2
370
    -2
100
AcDbLine
 10
-50.26383564304206
 20
-9.369840999999995
 30
0.0
 11
-50.26383564304206
 21
-13.939841
 31
0.0
  0
LINE
  5
3181
330
30D1
100
AcDbEntity
  8
SK2
370
    -2
100
AcDbLine
 10
-50.26383564304206
 20
9.770161000000008
 30
0.0
 11
-50.26383564304206
 21
14.34016100000001
 31
0.0
  0
MTEXT
  5
3182
330
30D1
100
AcDbEntity
  8
SK2
100
AcDbMText
 10
-54.31214678695869
 20
-13.05406211803159
 30
0.0
 40
3.0
 41
0.0
 71
     5
 72
     1
  1
\A1;%%C 10 
  7
SANDVIK_STYLE
 11
0.0000000000000001
 21
1.0
 31
0.0
 73
     1
 44
1.0
1001
ACAD
1000
MTEXTBEGIN
1070
    73
1070
     1
1070
    44
1040
1.0
1070
    74
1070
     0
1000
MTEXTEND
  0
SOLID
  5
3183
330
30D1
100
AcDbEntity
  8
SK2
100
AcDbTrace
 10
-51.02550230970873
 20
-9.369840999999995
 30
0.0
 11
-49.50216897637538
 21
-9.369840999999995
 31
0.0
 12
-50.26383564304206
 22
-4.799840999999996
 32
0.0
 13
-50.26383564304206
 23
-4.799840999999996
 33
0.0
  0
SOLID
  5
3184
330
30D1
100
AcDbEntity
  8
SK2
100
AcDbTrace
 10
-51.02550230970873
 20
9.770161000000008
 30
0.0
 11
-49.50216897637538
 21
9.770161000000008
 31
0.0
 12
-50.26383564304206
 22
5.200161000000007
 32
0.0
 13
-50.26383564304206
 23
5.200161000000007
 33
0.0
  0
POINT
  5
3185
330
30D1
100
AcDbEntity
  8
DEFPOINTS
 62
     0
100
AcDbPoint
 10
-37.41655983749604
 20
-4.799841
 30
0.0
  0
POINT
  5
3186
330
30D1
100
AcDbEntity
  8
DEFPOINTS
 62
     0
100
AcDbPoint
 10
-37.00213192586387
 20
5.200161000000004
 30
0.0
  0
POINT
  5
3187
330
30D1
100
AcDbEntity
  8
DEFPOINTS
 62
     0
100
AcDbPoint
 10
-50.26383564304206
 20
5.200161000000007
 30
0.0
  0
ENDBLK
  5
30DD
330
30D1
100
AcDbEntity
  8
0
100
AcDbBlockEnd
  0
ENDSEC
  0
SECTION
  2
ENTITIES
  0
TEXT
  5
62
330
BF7
100
AcDbEntity
  8
SK6
100
AcDbText
 10
-18.5
 20
25.0
 30
0.0
 40
3.0
  1
861.1-0820-098A1-GM
 41
0.7540842026666672
  7
SANDVIK_STYLE
 72
     5
 11
21.897368
 21
25.0
 31
0.0
100
AcDbText
  0
LINE
  5
2CE5
330
BF7
100
AcDbEntity
  8
SK1
100
AcDbLine
 10
0.0
 20
5.141273999999999
 30
0.0
 11
0.0
 21
-4.799841
 31
0.0
  0
ARC
  5
2CE6
330
BF7
100
AcDbEntity
  8
1
100
AcDbCircle
 10
0.5000060000000133
 20
4.800160999999999
 30
0.0
 40
0.4999999906281083
100
AcDbArc
 50
180.0
 51
270.0
  0
ARC
  5
2CE7
330
BF7
100
AcDbEntity
  8
1
100
AcDbCircle
 10
0.5000060000000133
 20
-4.399838999999995
 30
0.0
 40
0.4999999906281083
100
AcDbArc
 50
90.0
 51
180.0
  0
LINE
  5
2CE8
330
BF7
100
AcDbEntity
  8
1
100
AcDbLine
 10
21.85199699999998
 20
1.603378000000002
 30
0.0
 11
18.82964000000001
 21
2.915665
 31
0.0
  0
LINE
  5
2CE9
330
BF7
100
AcDbEntity
  8
1
100
AcDbLine
 10
23.92904999999999
 20
0.5302240000000042
 30
0.0
 11
21.85199699999998
 21
1.603378000000002
 31
0.0
  0
LINE
  5
2CEA
330
BF7
100
AcDbEntity
  8
1
100
AcDbLine
 10
26.006103
 20
-0.5693179999999956
 30
0.0
 11
23.92904999999999
 21
0.5302240000000042
 31
0.0
  0
LINE
  5
2CEB
330
BF7
100
AcDbEntity
  8
1
100
AcDbLine
 10
28.083157
 20
-1.607335999999995
 30
0.0
 11
26.006103
 21
-0.5693179999999956
 31
0.0
  0
LINE
  5
2CEC
330
BF7
100
AcDbEntity
  8
1
100
AcDbLine
 10
30.16021000000001
 20
-2.500853999999995
 30
0.0
 11
28.083157
 21
-1.607335999999995
 31
0.0
  0
LINE
  5
2CED
330
BF7
100
AcDbEntity
  8
1
100
AcDbLine
 10
32.23726400000001
 20
-3.178415999999998
 30
0.0
 11
30.16021000000001
 21
-2.500853999999995
 31
0.0
  0
LINE
  5
2CEE
330
BF7
100
AcDbEntity
  8
1
100
AcDbLine
 10
34.31429300000002
 20
-3.585845999999995
 30
0.0
 11
32.23726400000001
 21
-3.178415999999998
 31
0.0
  0
LINE
  5
2CEF
330
BF7
100
AcDbEntity
  8
1
100
AcDbLine
 10
36.05195300000004
 20
-3.673477999999998
 30
0.0
 11
34.31429300000002
 21
-3.585845999999995
 31
0.0
  0
LINE
  5
2CF0
330
BF7
100
AcDbEntity
  8
1
100
AcDbLine
 10
67.54709900000003
 20
1.753436000000004
 30
0.0
 11
64.88825
 21
2.898050999999998
 31
0.0
  0
LINE
  5
2CF1
330
BF7
100
AcDbEntity
  8
1
100
AcDbLine
 10
69.62415300000003
 20
0.6915180000000021
 30
0.0
 11
67.54709900000003
 21
1.753436000000004
 31
0.0
  0
LINE
  5
2CF2
330
BF7
100
AcDbEntity
  8
1
100
AcDbLine
 10
71.70120600000001
 20
-0.4096829999999976
 30
0.0
 11
69.62415300000003
 21
0.6915180000000021
 31
0.0
  0
LINE
  5
2CF3
330
BF7
100
AcDbEntity
  8
1
100
AcDbLine
 10
73.77825899999997
 20
-1.462122999999996
 30
0.0
 11
71.70120600000001
 21
-0.4096829999999976
 31
0.0
  0
LINE
  5
2CF4
330
BF7
100
AcDbEntity
  8
1
100
AcDbLine
 10
75.85531299999998
 20
-2.381658999999999
 30
0.0
 11
73.77825899999997
 21
-1.462122999999996
 31
0.0
  0
LINE
  5
2CF5
330
BF7
100
AcDbEntity
  8
1
100
AcDbLine
 10
77.932342
 20
-3.094793999999998
 30
0.0
 11
75.85531299999998
 21
-2.381658999999999
 31
0.0
  0
LINE
  5
2CF6
330
BF7
100
AcDbEntity
  8
1
100
AcDbLine
 10
80.00939500000006
 20
-3.544491
 30
0.0
 11
77.932342
 21
-3.094793999999998
 31
0.0
  0
LINE
  5
2CF7
330
BF7
100
AcDbEntity
  8
1
100
AcDbLine
 10
82.04875699999995
 20
-3.692063999999998
 30
0.0
 11
80.00939500000006
 21
-3.544491
 31
0.0
  0
LINE
  5
2CF8
330
BF7
100
AcDbEntity
  8
1
100
AcDbLine
 10
113.242202
 20
1.900800999999995
 30
0.0
 11
110.631218
 21
2.994620999999998
 31
0.0
  0
LINE
  5
2CF9
330
BF7
100
AcDbEntity
  8
1
100
AcDbLine
 10
115.319255
 20
0.8519610000000028
 30
0.0
 11
113.242202
 21
1.900800999999995
 31
0.0
  0
LINE
  5
2CFA
330
BF7
100
AcDbEntity
  8
1
100
AcDbLine
 10
117.3963089999999
 20
-0.2489859999999986
 30
0.0
 11
115.319255
 21
0.8519610000000028
 31
0.0
  0
LINE
  5
2CFB
330
BF7
100
AcDbEntity
  8
1
100
AcDbLine
 10
119.473362
 20
-1.314030999999995
 30
0.0
 11
117.3963089999999
 21
-0.2489859999999986
 31
0.0
  0
LINE
  5
2CFC
330
BF7
100
AcDbEntity
  8
1
100
AcDbLine
 10
121.550391
 20
-2.258007999999996
 30
0.0
 11
119.473362
 21
-1.314030999999995
 31
0.0
  0
LINE
  5
2CFD
330
BF7
100
AcDbEntity
  8
1
100
AcDbLine
 10
123.627445
 20
-3.005462999999997
 30
0.0
 11
121.550391
 21
-2.258007999999996
 31
0.0
  0
LINE
  5
2CFE
330
BF7
100
AcDbEntity
  8
1
100
AcDbLine
 10
125.704498
 20
-3.496608999999998
 30
0.0
 11
123.627445
 21
-3.005462999999997
 31
0.0
  0
LINE
  5
2CFF
330
BF7
100
AcDbEntity
  8
1
100
AcDbLine
 10
127.781551
 20
-3.692207999999995
 30
0.0
 11
125.704498
 21
-3.496608999999998
 31
0.0
  0
LINE
  5
2D00
330
BF7
100
AcDbEntity
  8
1
100
AcDbLine
 10
128.080879
 20
-3.675547999999995
 30
0.0
 11
127.781551
 21
-3.692207999999995
 31
0.0
  0
LINE
  5
2D01
330
BF7
100
AcDbEntity
  8
1
100
AcDbLine
 10
9.389700000000003
 20
-2.604248999999998
 30
0.0
 11
9.389700000000003
 21
-3.218029999999998
 31
0.0
  0
LINE
  5
2D02
330
BF7
100
AcDbEntity
  8
1
100
AcDbLine
 10
17.455681
 20
-3.218029999999998
 30
0.0
 11
9.389700000000003
 21
-3.218029999999998
 31
0.0
  0
LINE
  5
2D03
330
BF7
100
AcDbEntity
  8
1
100
AcDbLine
 10
11.46675400000001
 20
-3.604070999999997
 30
0.0
 11
9.389700000000003
 21
-3.218029999999998
 31
0.0
  0
LINE
  5
2D04
330
BF7
100
AcDbEntity
  8
1
100
AcDbLine
 10
13.05356300000002
 20
-3.666650999999998
 30
0.0
 11
11.46675400000001
 21
-3.604070999999997
 31
0.0
  0
LINE
  5
2D05
330
BF7
100
AcDbEntity
  8
1
100
AcDbLine
 10
44.69956000000002
 20
1.678725000000003
 30
0.0
 11
41.75962300000001
 21
2.942111000000004
 31
0.0
  0
LINE
  5
2D06
330
BF7
100
AcDbEntity
  8
1
100
AcDbLine
 10
46.77661299999999
 20
0.6109600000000022
 30
0.0
 11
44.69956000000002
 21
1.678725000000003
 31
0.0
  0
LINE
  5
2D07
330
BF7
100
AcDbEntity
  8
1
100
AcDbLine
 10
48.85364299999999
 20
-0.4896509999999985
 30
0.0
 11
46.77661299999999
 21
0.6109600000000022
 31
0.0
  0
LINE
  5
2D08
330
BF7
100
AcDbEntity
  8
1
100
AcDbLine
 10
50.93069599999998
 20
-1.535107999999995
 30
0.0
 11
48.85364299999999
 21
-0.4896509999999985
 31
0.0
  0
LINE
  5
2D09
330
BF7
100
AcDbEntity
  8
1
100
AcDbLine
 10
53.00774900000002
 20
-2.441845999999996
 30
0.0
 11
50.93069599999998
 21
-1.535107999999995
 31
0.0
  0
LINE
  5
2D0A
330
BF7
100
AcDbEntity
  8
1
100
AcDbLine
 10
55.08480300000002
 20
-3.137327999999998
 30
0.0
 11
53.00774900000002
 21
-2.441845999999996
 31
0.0
  0
LINE
  5
2D0B
330
BF7
100
AcDbEntity
  8
1
100
AcDbLine
 10
57.16185600000001
 20
-3.565994999999996
 30
0.0
 11
55.08480300000002
 21
-3.137327999999998
 31
0.0
  0
LINE
  5
2D0C
330
BF7
100
AcDbEntity
  8
1
100
AcDbLine
 10
59.05256
 20
-3.682087999999998
 30
0.0
 11
57.16185600000001
 21
-3.565994999999996
 31
0.0
  0
LINE
  5
2D0D
330
BF7
100
AcDbEntity
  8
1
100
AcDbLine
 10
90.39466299999999
 20
1.827468000000003
 30
0.0
 11
87.71670099999999
 21
2.961680000000004
 31
0.0
  0
LINE
  5
2D0E
330
BF7
100
AcDbEntity
  8
1
100
AcDbLine
 10
92.471692
 20
0.7718670000000039
 30
0.0
 11
90.39466299999999
 21
1.827468000000003
 31
0.0
  0
LINE
  5
2D0F
330
BF7
100
AcDbEntity
  8
1
100
AcDbLine
 10
94.548745
 20
-0.3294529999999973
 30
0.0
 11
92.471692
 21
0.7718670000000039
 31
0.0
  0
LINE
  5
2D10
330
BF7
100
AcDbEntity
  8
1
100
AcDbLine
 10
96.62579900000004
 20
-1.388426999999995
 30
0.0
 11
94.548745
 21
-0.3294529999999973
 31
0.0
  0
LINE
  5
2D11
330
BF7
100
AcDbEntity
  8
1
100
AcDbLine
 10
98.70285199999999
 20
-2.320382999999996
 30
0.0
 11
96.62579900000004
 21
-1.388426999999995
 31
0.0
  0
LINE
  5
2D12
330
BF7
100
AcDbEntity
  8
1
100
AcDbLine
 10
100.779905
 20
-3.050817999999998
 30
0.0
 11
98.70285199999999
 21
-2.320382999999996
 31
0.0
  0
LINE
  5
2D13
330
BF7
100
AcDbEntity
  8
1
100
AcDbLine
 10
102.8569589999999
 20
-3.521347999999995
 30
0.0
 11
100.779905
 21
-3.050817999999998
 31
0.0
  0
LINE
  5
2D14
330
BF7
100
AcDbEntity
  8
1
100
AcDbLine
 10
104.934012
 20
-3.694334999999998
 30
0.0
 11
102.8569589999999
 21
-3.521347999999995
 31
0.0
  0
LINE
  5
2D15
330
BF7
100
AcDbEntity
  8
1
100
AcDbLine
 10
105.084681
 20
-3.684296999999995
 30
0.0
 11
104.934012
 21
-3.694334999999998
 31
0.0
  0
LINE
  5
2D16
330
BF7
100
AcDbEntity
  8
1
100
AcDbLine
 10
136.089741
 20
1.973405000000003
 30
0.0
 11
133.687029
 21
2.980828000000001
 31
0.0
  0
LINE
  5
2D17
330
BF7
100
AcDbEntity
  8
1
100
AcDbLine
 10
138.166794
 20
0.9317800000000032
 30
0.0
 11
136.089741
 21
1.973405000000003
 31
0.0
  0
LINE
  5
2D18
330
BF7
100
AcDbEntity
  8
1
100
AcDbLine
 10
140.2438479999999
 20
-0.1683309999999949
 30
0.0
 11
138.166794
 21
0.9317800000000032
 31
0.0
  0
LINE
  5
2D19
330
BF7
100
AcDbEntity
  8
1
100
AcDbLine
 10
142.320901
 20
-1.238980999999995
 30
0.0
 11
140.2438479999999
 21
-0.1683309999999949
 31
0.0
  0
LINE
  5
2D1A
330
BF7
100
AcDbEntity
  8
1
100
AcDbLine
 10
144.397955
 20
-2.194563999999995
 30
0.0
 11
142.320901
 21
-1.238980999999995
 31
0.0
  0
LINE
  5
2D1B
330
BF7
100
AcDbEntity
  8
1
100
AcDbLine
 10
146.48087
 20
-2.960521999999997
 30
0.0
 11
144.397955
 21
-2.194563999999995
 31
0.0
  0
LINE
  5
2D1C
330
BF7
100
AcDbEntity
  8
1
100
AcDbLine
 10
148.563786
 20
-3.472356999999995
 30
0.0
 11
146.48087
 21
-2.960521999999997
 31
0.0
  0
LINE
  5
2D1D
330
BF7
100
AcDbEntity
  8
1
100
AcDbLine
 10
150.646701
 20
-3.688926999999995
 30
0.0
 11
148.563786
 21
-3.472356999999995
 31
0.0
  0
LINE
  5
2D1E
330
BF7
100
AcDbEntity
  8
1
100
AcDbLine
 10
9.163308999999998
 20
-3.265585999999998
 30
0.0
 11
8.985994000000005
 21
-3.397948999999995
 31
0.0
  0
LINE
  5
2D1F
330
BF7
100
AcDbEntity
  8
1
100
AcDbLine
 10
9.389700000000003
 20
-3.218029999999998
 30
0.0
 11
9.163308999999998
 21
-3.265585999999998
 31
0.0
  0
LINE
  5
2D20
330
BF7
100
AcDbEntity
  8
SK1
100
AcDbLine
 10
-39.99999299999999
 20
-1.726529999999995
 30
0.0
 11
-38.917464
 21
-1.841142999999996
 31
0.0
  0
LINE
  5
2D21
330
BF7
100
AcDbEntity
  8
SK1
100
AcDbLine
 10
-38.917464
 20
-0.1205389999999973
 30
0.0
 11
-39.99999299999999
 21
-0.2351509999999983
 31
0.0
  0
LINE
  5
2D22
330
BF7
100
AcDbEntity
  8
1
100
AcDbLine
 10
151.970482
 20
0.3355810000000048
 30
0.0
 11
150.601088
 21
1.487285000000003
 31
0.0
  0
LINE
  5
2D23
330
BF7
100
AcDbEntity
  8
1
100
AcDbLine
 10
13.21288000000001
 20
-0.2750799999999991
 30
0.0
 11
16.38664499999999
 21
-2.469637999999998
 31
0.0
  0
LINE
  5
2D24
330
BF7
100
AcDbEntity
  8
1
100
AcDbLine
 10
10.03901899999999
 20
1.981707000000003
 30
0.0
 11
13.21288000000001
 21
-0.2750799999999991
 31
0.0
  0
LINE
  5
2D25
330
BF7
100
AcDbEntity
  8
1
100
AcDbLine
 10
6.873828999999998
 20
4.294499000000004
 30
0.0
 11
10.03901899999999
 21
1.981707000000003
 31
0.0
  0
LINE
  5
2D26
330
BF7
100
AcDbEntity
  8
1
100
AcDbLine
 10
135.603119
 20
-0.6743109999999996
 30
0.0
 11
140.01874
 21
-0.8277199999999956
 31
0.0
  0
LINE
  5
2D27
330
BF7
100
AcDbEntity
  8
1
100
AcDbLine
 10
131.779733
 20
-0.2709929999999936
 30
0.0
 11
135.603119
 21
-0.6743109999999996
 31
0.0
  0
LINE
  5
2D28
330
BF7
100
AcDbEntity
  8
1
100
AcDbLine
 10
127.956202
 20
0.2578420000000037
 30
0.0
 11
131.779733
 21
-0.2709929999999936
 31
0.0
  0
LINE
  5
2D29
330
BF7
100
AcDbEntity
  8
1
100
AcDbLine
 10
124.133155
 20
0.7712400000000024
 30
0.0
 11
127.956202
 21
0.2578420000000037
 31
0.0
  0
LINE
  5
2D2A
330
BF7
100
AcDbEntity
  8
1
100
AcDbLine
 10
123.418882
 20
0.8391620000000051
 30
0.0
 11
124.133155
 21
0.7712400000000024
 31
0.0
  0
LINE
  5
2D2B
330
BF7
100
AcDbEntity
  8
1
100
AcDbLine
 10
90.06990000000001
 20
-0.7093439999999946
 30
0.0
 11
94.04257499999999
 21
-0.8405619999999949
 31
0.0
  0
LINE
  5
2D2C
330
BF7
100
AcDbEntity
  8
1
100
AcDbLine
 10
86.32279399999999
 20
-0.3390879999999967
 30
0.0
 11
90.06990000000001
 21
-0.7093439999999946
 31
0.0
  0
LINE
  5
2D2D
330
BF7
100
AcDbEntity
  8
1
100
AcDbLine
 10
82.57544499999999
 20
0.1694480000000027
 30
0.0
 11
86.32279399999999
 21
-0.3390879999999967
 31
0.0
  0
LINE
  5
2D2E
330
BF7
100
AcDbEntity
  8
1
100
AcDbLine
 10
78.82858099999999
 20
0.6856920000000031
 30
0.0
 11
82.57544499999999
 21
0.1694480000000027
 31
0.0
  0
LINE
  5
2D2F
330
BF7
100
AcDbEntity
  8
1
100
AcDbLine
 10
77.43639400000002
 20
0.8312560000000033
 30
0.0
 11
78.82858099999999
 21
0.6856920000000031
 31
0.0
  0
LINE
  5
2D30
330
BF7
100
AcDbEntity
  8
1
100
AcDbLine
 10
40.74633700000001
 20
-0.3902050000000017
 30
0.0
 11
48.031915
 21
-0.8345699999999958
 31
0.0
  0
LINE
  5
2D31
330
BF7
100
AcDbEntity
  8
1
100
AcDbLine
 10
36.93080000000001
 20
0.1184580000000004
 30
0.0
 11
40.74633700000001
 21
-0.3902050000000017
 31
0.0
  0
LINE
  5
2D32
330
BF7
100
AcDbEntity
  8
1
100
AcDbLine
 10
32.88472899999999
 20
0.678441000000003
 30
0.0
 11
36.93080000000001
 21
0.1184580000000004
 31
0.0
  0
LINE
  5
2D33
330
BF7
100
AcDbEntity
  8
1
100
AcDbLine
 10
31.421131
 20
0.8294610000000021
 30
0.0
 11
32.88472899999999
 21
0.678441000000003
 31
0.0
  0
LINE
  5
2D34
330
BF7
100
AcDbEntity
  8
1
100
AcDbLine
 10
150.5279339999999
 20
1.411417000000003
 30
0.0
 11
150.532972
 21
1.386914999999999
 31
0.0
  0
LINE
  5
2D35
330
BF7
100
AcDbEntity
  8
1
100
AcDbLine
 10
150.529751
 20
1.437336
 30
0.0
 11
150.5279339999999
 21
1.411417000000003
 31
0.0
  0
LINE
  5
2D36
330
BF7
100
AcDbEntity
  8
1
100
AcDbLine
 10
150.537236
 20
1.455264999999999
 30
0.0
 11
150.529751
 21
1.437336
 31
0.0
  0
LINE
  5
2D37
330
BF7
100
AcDbEntity
  8
1
100
AcDbLine
 10
150.552957
 20
1.472169000000004
 30
0.0
 11
150.537236
 21
1.455264999999999
 31
0.0
  0
LINE
  5
2D38
330
BF7
100
AcDbEntity
  8
1
100
AcDbLine
 10
150.573425
 20
1.482513000000004
 30
0.0
 11
150.552957
 21
1.472169000000004
 31
0.0
  0
LINE
  5
2D39
330
BF7
100
AcDbEntity
  8
1
100
AcDbLine
 10
150.601088
 20
1.487285000000003
 30
0.0
 11
150.573425
 21
1.482513000000004
 31
0.0
  0
LINE
  5
2D3A
330
BF7
100
AcDbEntity
  8
1
100
AcDbLine
 10
147.07376
 20
0.7782829999999983
 30
0.0
 11
150.896662
 21
0.2661990000000038
 31
0.0
  0
LINE
  5
2D3B
330
BF7
100
AcDbEntity
  8
1
100
AcDbLine
 10
146.414571
 20
0.8400250000000042
 30
0.0
 11
147.07376
 21
0.7782829999999983
 31
0.0
  0
LINE
  5
2D3C
330
BF7
100
AcDbEntity
  8
1
100
AcDbLine
 10
112.892102
 20
-0.6964030000000001
 30
0.0
 11
117.031723
 21
-0.8334639999999955
 31
0.0
  0
LINE
  5
2D3D
330
BF7
100
AcDbEntity
  8
1
100
AcDbLine
 10
109.1450919999999
 20
-0.3170319999999975
 30
0.0
 11
112.892102
 21
-0.6964030000000001
 31
0.0
  0
LINE
  5
2D3E
330
BF7
100
AcDbEntity
  8
1
100
AcDbLine
 10
105.329725
 20
0.2045930000000027
 30
0.0
 11
109.1450919999999
 21
-0.3170319999999975
 31
0.0
  0
LINE
  5
2D3F
330
BF7
100
AcDbEntity
  8
1
100
AcDbLine
 10
101.51489
 20
0.7248710000000003
 30
0.0
 11
105.329725
 21
0.2045930000000027
 31
0.0
  0
LINE
  5
2D40
330
BF7
100
AcDbEntity
  8
1
100
AcDbLine
 10
100.423338
 20
0.8339090000000021
 30
0.0
 11
101.51489
 21
0.7248710000000003
 31
0.0
  0
LINE
  5
2D41
330
BF7
100
AcDbEntity
  8
1
100
AcDbLine
 10
63.636752
 20
-0.3771759999999951
 30
0.0
 11
71.04053900000002
 21
-0.8382639999999986
 31
0.0
  0
LINE
  5
2D42
330
BF7
100
AcDbEntity
  8
1
100
AcDbLine
 10
59.82121400000003
 20
0.1342210000000001
 30
0.0
 11
63.636752
 21
-0.3771759999999951
 31
0.0
  0
LINE
  5
2D43
330
BF7
100
AcDbEntity
  8
1
100
AcDbLine
 10
56.00623399999998
 20
0.6630280000000007
 30
0.0
 11
59.82121400000003
 21
0.1342210000000001
 31
0.0
  0
LINE
  5
2D44
330
BF7
100
AcDbEntity
  8
1
100
AcDbLine
 10
54.47098399999998
 20
0.8263480000000027
 30
0.0
 11
56.00623399999998
 21
0.6630280000000007
 31
0.0
  0
LINE
  5
2D45
330
BF7
100
AcDbEntity
  8
1
100
AcDbLine
 10
20.74587500000001
 20
-0.6854240000000013
 30
0.0
 11
24.999188
 21
-0.8385699999999971
 31
0.0
  0
LINE
  5
2D46
330
BF7
100
AcDbEntity
  8
1
100
AcDbLine
 10
16.699622
 20
-0.2609699999999968
 30
0.0
 11
20.74587500000001
 21
-0.6854240000000013
 31
0.0
  0
LINE
  5
2D47
330
BF7
100
AcDbEntity
  8
1
100
AcDbLine
 10
12.65404799999999
 20
0.2992699999999999
 30
0.0
 11
16.699622
 21
-0.2609699999999968
 31
0.0
  0
LINE
  5
2D48
330
BF7
100
AcDbEntity
  8
1
100
AcDbLine
 10
151.727328
 20
1.556206000000003
 30
0.0
 11
150.601088
 21
1.487285000000003
 31
0.0
  0
LINE
  5
2D49
330
BF7
100
AcDbEntity
  8
SK1
100
AcDbLine
 10
-39.99999299999999
 20
-2.547371999999999
 30
0.0
 11
-39.99999299999999
 21
-1.726529999999995
 31
0.0
  0
LINE
  5
2D4A
330
BF7
100
AcDbEntity
  8
SK1
100
AcDbLine
 10
-39.99999299999999
 20
-3.232194999999995
 30
0.0
 11
-39.99999299999999
 21
-2.547371999999999
 31
0.0
  0
LINE
  5
2D4B
330
BF7
100
AcDbEntity
  8
SK1
100
AcDbLine
 10
-39.99999299999999
 20
-3.747094999999998
 30
0.0
 11
-39.99999299999999
 21
-3.232194999999995
 31
0.0
  0
LINE
  5
2D4C
330
BF7
100
AcDbEntity
  8
SK1
100
AcDbLine
 10
-39.99999299999999
 20
-4.066581999999995
 30
0.0
 11
-39.99999299999999
 21
-3.747094999999998
 31
0.0
  0
LINE
  5
2D4D
330
BF7
100
AcDbEntity
  8
SK1
100
AcDbLine
 10
-39.99999299999999
 20
-4.174838999999998
 30
0.0
 11
-39.99999299999999
 21
-4.066581999999995
 31
0.0
  0
LINE
  5
2D4E
330
BF7
100
AcDbEntity
  8
SK1
100
AcDbLine
 10
-39.99999299999999
 20
-0.2351509999999983
 30
0.0
 11
-39.99999299999999
 21
-1.726529999999995
 31
0.0
  0
LINE
  5
2D4F
330
BF7
100
AcDbEntity
  8
SK1
100
AcDbLine
 10
-38.917464
 20
-4.668119999999998
 30
0.0
 11
-38.917464
 21
-4.799841
 31
0.0
  0
LINE
  5
2D50
330
BF7
100
AcDbEntity
  8
SK1
100
AcDbLine
 10
-38.917464
 20
-4.279889999999998
 30
0.0
 11
-38.917464
 21
-4.668119999999998
 31
0.0
  0
LINE
  5
2D51
330
BF7
100
AcDbEntity
  8
SK1
100
AcDbLine
 10
-38.917464
 20
-3.655602999999998
 30
0.0
 11
-38.917464
 21
-4.279889999999998
 31
0.0
  0
LINE
  5
2D52
330
BF7
100
AcDbEntity
  8
SK1
100
AcDbLine
 10
-38.917464
 20
-2.828153999999995
 30
0.0
 11
-38.917464
 21
-3.655602999999998
 31
0.0
  0
LINE
  5
2D53
330
BF7
100
AcDbEntity
  8
SK1
100
AcDbLine
 10
-38.917464
 20
-1.841142999999996
 30
0.0
 11
-38.917464
 21
-2.828153999999995
 31
0.0
  0
LINE
  5
2D54
330
BF7
100
AcDbEntity
  8
SK1
100
AcDbLine
 10
0.0
 20
0.5089110000000014
 30
0.0
 11
0.0
 21
1.513918000000003
 31
0.0
  0
LINE
  5
2D55
330
BF7
100
AcDbEntity
  8
SK1
100
AcDbLine
 10
0.0
 20
-0.5089110000000014
 30
0.0
 11
0.0
 21
0.5089110000000014
 31
0.0
  0
LINE
  5
2D56
330
BF7
100
AcDbEntity
  8
SK1
100
AcDbLine
 10
0.0
 20
-1.497304999999998
 30
0.0
 11
0.0
 21
-0.5089110000000014
 31
0.0
  0
LINE
  5
2D57
330
BF7
100
AcDbEntity
  8
SK1
100
AcDbLine
 10
0.0
 20
-2.415241999999995
 30
0.0
 11
0.0
 21
-1.497304999999998
 31
0.0
  0
LINE
  5
2D58
330
BF7
100
AcDbEntity
  8
SK1
100
AcDbLine
 10
0.0
 20
-3.224624999999998
 30
0.0
 11
0.0
 21
-2.415241999999995
 31
0.0
  0
LINE
  5
2D59
330
BF7
100
AcDbEntity
  8
SK1
100
AcDbLine
 10
0.0
 20
-3.891860999999998
 30
0.0
 11
0.0
 21
-3.224624999999998
 31
0.0
  0
LINE
  5
2D5A
330
BF7
100
AcDbEntity
  8
SK1
100
AcDbLine
 10
0.0
 20
-4.389253999999995
 30
0.0
 11
0.0
 21
-3.891860999999998
 31
0.0
  0
LINE
  5
2D5B
330
BF7
100
AcDbEntity
  8
SK1
100
AcDbLine
 10
0.0
 20
-4.696158999999997
 30
0.0
 11
0.0
 21
-4.389253999999995
 31
0.0
  0
LINE
  5
2D5C
330
BF7
100
AcDbEntity
  8
SK1
100
AcDbLine
 10
0.0
 20
-4.799841
 30
0.0
 11
0.0
 21
-4.696158999999997
 31
0.0
  0
LINE
  5
2D5D
330
BF7
100
AcDbEntity
  8
SK1
100
AcDbLine
 10
0.0
 20
5.082387
 30
0.0
 11
0.0
 21
5.200161000000004
 31
0.0
  0
LINE
  5
2D5E
330
BF7
100
AcDbEntity
  8
SK1
100
AcDbLine
 10
0.0
 20
4.734584999999999
 30
0.0
 11
0.0
 21
5.082387
 31
0.0
  0
LINE
  5
2D5F
330
BF7
100
AcDbEntity
  8
SK1
100
AcDbLine
 10
0.0
 20
4.173143000000003
 30
0.0
 11
0.0
 21
4.734584999999999
 31
0.0
  0
LINE
  5
2D60
330
BF7
100
AcDbEntity
  8
SK1
100
AcDbLine
 10
0.0
 20
3.424508999999998
 30
0.0
 11
0.0
 21
4.173143000000003
 31
0.0
  0
LINE
  5
2D61
330
BF7
100
AcDbEntity
  8
SK1
100
AcDbLine
 10
0.0
 20
2.523955000000003
 30
0.0
 11
0.0
 21
3.424508999999998
 31
0.0
  0
LINE
  5
2D62
330
BF7
100
AcDbEntity
  8
SK1
100
AcDbLine
 10
0.0
 20
1.513918000000003
 30
0.0
 11
0.0
 21
2.523955000000003
 31
0.0
  0
LINE
  5
2D63
330
BF7
100
AcDbEntity
  8
SK1
100
AcDbLine
 10
-38.917464
 20
1.579118000000004
 30
0.0
 11
-38.917464
 21
0.5208590000000016
 31
0.0
  0
LINE
  5
2D64
330
BF7
100
AcDbEntity
  8
SK1
100
AcDbLine
 10
-38.917464
 20
2.573745999999998
 30
0.0
 11
-38.917464
 21
1.579118000000004
 31
0.0
  0
LINE
  5
2D65
330
BF7
100
AcDbEntity
  8
SK1
100
AcDbLine
 10
-38.917464
 20
3.458846000000001
 30
0.0
 11
-38.917464
 21
2.573745999999998
 31
0.0
  0
LINE
  5
2D66
330
BF7
100
AcDbEntity
  8
SK1
100
AcDbLine
 10
-38.917464
 20
4.193569000000006
 30
0.0
 11
-38.917464
 21
3.458846000000001
 31
0.0
  0
LINE
  5
2D67
330
BF7
100
AcDbEntity
  8
SK1
100
AcDbLine
 10
-38.917464
 20
4.74402
 30
0.0
 11
-38.917464
 21
4.193569000000006
 31
0.0
  0
LINE
  5
2D68
330
BF7
100
AcDbEntity
  8
SK1
100
AcDbLine
 10
-38.917464
 20
5.084790999999999
 30
0.0
 11
-38.917464
 21
4.74402
 31
0.0
  0
LINE
  5
2D69
330
BF7
100
AcDbEntity
  8
SK1
100
AcDbLine
 10
-38.917464
 20
5.200161000000004
 30
0.0
 11
-38.917464
 21
5.084790999999999
 31
0.0
  0
LINE
  5
2D6A
330
BF7
100
AcDbEntity
  8
SK1
100
AcDbLine
 10
-38.917464
 20
0.5208590000000016
 30
0.0
 11
-39.99999299999999
 21
0.635470999999999
 31
0.0
  0
LINE
  5
2D6B
330
BF7
100
AcDbEntity
  8
SK1
100
AcDbLine
 10
-39.99999299999999
 20
4.444277999999998
 30
0.0
 11
-39.99999299999999
 21
4.575159000000001
 31
0.0
  0
LINE
  5
2D6C
330
BF7
100
AcDbEntity
  8
SK1
100
AcDbLine
 10
-39.99999299999999
 20
4.059539
 30
0.0
 11
-39.99999299999999
 21
4.444277999999998
 31
0.0
  0
LINE
  5
2D6D
330
BF7
100
AcDbEntity
  8
SK1
100
AcDbLine
 10
-39.99999299999999
 20
3.443954000000001
 30
0.0
 11
-39.99999299999999
 21
4.059539
 31
0.0
  0
LINE
  5
2D6E
330
BF7
100
AcDbEntity
  8
SK1
100
AcDbLine
 10
-39.99999299999999
 20
2.634346999999999
 30
0.0
 11
-39.99999299999999
 21
3.443954000000001
 31
0.0
  0
LINE
  5
2D6F
330
BF7
100
AcDbEntity
  8
SK1
100
AcDbLine
 10
-39.99999299999999
 20
1.679143000000003
 30
0.0
 11
-39.99999299999999
 21
2.634346999999999
 31
0.0
  0
LINE
  5
2D70
330
BF7
100
AcDbEntity
  8
SK1
100
AcDbLine
 10
-39.99999299999999
 20
0.635470999999999
 30
0.0
 11
-39.99999299999999
 21
1.679143000000003
 31
0.0
  0
LINE
  5
2D71
330
BF7
100
AcDbEntity
  8
1
100
AcDbLine
 10
149.315193
 20
-0.5729030000000002
 30
0.0
 11
148.977181
 21
-0.409558999999998
 31
0.0
  0
LINE
  5
2D72
330
BF7
100
AcDbEntity
  8
1
100
AcDbLine
 10
149.7447939999999
 20
-0.7291129999999946
 30
0.0
 11
149.315193
 21
-0.5729030000000002
 31
0.0
  0
LINE
  5
2D73
330
BF7
100
AcDbEntity
  8
1
100
AcDbLine
 10
150.155936
 20
-0.8084929999999948
 30
0.0
 11
149.7447939999999
 21
-0.7291129999999946
 31
0.0
  0
LINE
  5
2D74
330
BF7
100
AcDbEntity
  8
1
100
AcDbLine
 10
150.590454
 20
-0.7665110000000013
 30
0.0
 11
150.155936
 21
-0.8084929999999948
 31
0.0
  0
LINE
  5
2D75
330
BF7
100
AcDbEntity
  8
1
100
AcDbLine
 10
150.819002
 20
-0.6216499999999954
 30
0.0
 11
150.590454
 21
-0.7665110000000013
 31
0.0
  0
LINE
  5
2D76
330
BF7
100
AcDbEntity
  8
1
100
AcDbLine
 10
150.938883
 20
-0.4079850000000003
 30
0.0
 11
150.819002
 21
-0.6216499999999954
 31
0.0
  0
LINE
  5
2D77
330
BF7
100
AcDbEntity
  8
1
100
AcDbLine
 10
150.9667149999999
 20
-0.0860540000000008
 30
0.0
 11
150.938883
 21
-0.4079850000000003
 31
0.0
  0
LINE
  5
2D78
330
BF7
100
AcDbEntity
  8
1
100
AcDbLine
 10
150.896662
 20
0.2661990000000038
 30
0.0
 11
150.9667149999999
 21
-0.0860540000000008
 31
0.0
  0
LINE
  5
2D79
330
BF7
100
AcDbEntity
  8
1
100
AcDbLine
 10
150.532972
 20
1.386914999999999
 30
0.0
 11
150.896662
 21
0.2661990000000038
 31
0.0
  0
LINE
  5
2D7A
330
BF7
100
AcDbEntity
  8
1
100
AcDbLine
 10
151.97489
 20
0.1742170000000023
 30
0.0
 11
150.532972
 21
1.386914999999999
 31
0.0
  0
LINE
  5
2D7B
330
BF7
100
AcDbEntity
  8
1
100
AcDbLine
 10
149.448276
 20
-1.523889999999995
 30
0.0
 11
149.942529
 21
-1.935638
 31
0.0
  0
LINE
  5
2D7C
330
BF7
100
AcDbEntity
  8
1
100
AcDbLine
 10
148.7174339999999
 20
-0.7895379999999969
 30
0.0
 11
149.448276
 21
-1.523889999999995
 31
0.0
  0
LINE
  5
2D7D
330
BF7
100
AcDbEntity
  8
1
100
AcDbLine
 10
148.219209
 20
-0.1594470000000001
 30
0.0
 11
148.7174339999999
 21
-0.7895379999999969
 31
0.0
  0
LINE
  5
2D7E
330
BF7
100
AcDbEntity
  8
1
100
AcDbLine
 10
148.176019
 20
-0.097368999999997
 30
0.0
 11
148.219209
 21
-0.1594470000000001
 31
0.0
  0
LINE
  5
2D7F
330
BF7
100
AcDbEntity
  8
1
100
AcDbLine
 10
13.682074
 20
-1.640625
 30
0.0
 11
11.033895
 21
-0.6418789999999995
 31
0.0
  0
LINE
  5
2D80
330
BF7
100
AcDbEntity
  8
1
100
AcDbLine
 10
16.38664499999999
 20
-2.469637999999998
 30
0.0
 11
13.682074
 21
-1.640625
 31
0.0
  0
LINE
  5
2D81
330
BF7
100
AcDbEntity
  8
1
100
AcDbLine
 10
148.678822
 20
-0.2736939999999954
 30
0.0
 11
148.977181
 21
-0.409558999999998
 31
0.0
  0
LINE
  5
2D82
330
BF7
100
AcDbEntity
  8
1
100
AcDbLine
 10
116.987588
 20
-2.696442999999998
 30
0.0
 11
119.340303
 21
-2.013179999999996
 31
0.0
  0
LINE
  5
2D83
330
BF7
100
AcDbEntity
  8
1
100
AcDbLine
 10
114.774594
 20
-3.065592999999998
 30
0.0
 11
116.987588
 21
-2.696442999999998
 31
0.0
  0
LINE
  5
2D84
330
BF7
100
AcDbEntity
  8
1
100
AcDbLine
 10
112.561114
 20
-3.138640999999998
 30
0.0
 11
114.774594
 21
-3.065592999999998
 31
0.0
  0
LINE
  5
2D85
330
BF7
100
AcDbEntity
  8
1
100
AcDbLine
 10
110.3476589999999
 20
-2.908856
 30
0.0
 11
112.561114
 21
-3.138640999999998
 31
0.0
  0
LINE
  5
2D86
330
BF7
100
AcDbEntity
  8
1
100
AcDbLine
 10
108.134447
 20
-2.397155999999998
 30
0.0
 11
110.3476589999999
 21
-2.908856
 31
0.0
  0
LINE
  5
2D87
330
BF7
100
AcDbEntity
  8
1
100
AcDbLine
 10
105.88112
 20
-1.63456
 30
0.0
 11
108.134447
 21
-2.397155999999998
 31
0.0
  0
LINE
  5
2D88
330
BF7
100
AcDbEntity
  8
1
100
AcDbLine
 10
103.908057
 20
-0.8157779999999981
 30
0.0
 11
105.88112
 21
-1.63456
 31
0.0
  0
LINE
  5
2D89
330
BF7
100
AcDbEntity
  8
1
100
AcDbLine
 10
70.10757800000002
 20
-2.877379999999998
 30
0.0
 11
73.31709599999998
 21
-2.000292999999999
 31
0.0
  0
LINE
  5
2D8A
330
BF7
100
AcDbEntity
  8
1
100
AcDbLine
 10
67.89419500000002
 20
-3.131422999999998
 30
0.0
 11
70.10757800000002
 21
-2.877379999999998
 31
0.0
  0
LINE
  5
2D8B
330
BF7
100
AcDbEntity
  8
1
100
AcDbLine
 10
65.64050500000002
 20
-3.079531999999995
 30
0.0
 11
67.89419500000002
 21
-3.131422999999998
 31
0.0
  0
LINE
  5
2D8C
330
BF7
100
AcDbEntity
  8
1
100
AcDbLine
 10
63.38671800000003
 20
-2.719260999999995
 30
0.0
 11
65.64050500000002
 21
-3.079531999999995
 31
0.0
  0
LINE
  5
2D8D
330
BF7
100
AcDbEntity
  8
1
100
AcDbLine
 10
61.13315
 20
-2.084647999999995
 30
0.0
 11
63.38671800000003
 21
-2.719260999999995
 31
0.0
  0
LINE
  5
2D8E
330
BF7
100
AcDbEntity
  8
1
100
AcDbLine
 10
58.880065
 20
-1.235495999999997
 30
0.0
 11
61.13315
 21
-2.084647999999995
 31
0.0
  0
LINE
  5
2D8F
330
BF7
100
AcDbEntity
  8
1
100
AcDbLine
 10
57.40835300000004
 20
-0.5927179999999943
 30
0.0
 11
58.880065
 21
-1.235495999999997
 31
0.0
  0
LINE
  5
2D90
330
BF7
100
AcDbEntity
  8
1
100
AcDbLine
 10
23.14651500000002
 20
-3.023753999999995
 30
0.0
 11
27.331265
 21
-2.006133999999998
 31
0.0
  0
LINE
  5
2D91
330
BF7
100
AcDbEntity
  8
1
100
AcDbLine
 10
20.89301899999998
 20
-3.147451999999995
 30
0.0
 11
23.14651500000002
 21
-3.023753999999995
 31
0.0
  0
LINE
  5
2D92
330
BF7
100
AcDbEntity
  8
1
100
AcDbLine
 10
18.639487
 20
-2.956244999999995
 30
0.0
 11
20.89301899999998
 21
-3.147451999999995
 31
0.0
  0
LINE
  5
2D93
330
BF7
100
AcDbEntity
  8
1
100
AcDbLine
 10
16.38664499999999
 20
-2.469637999999998
 30
0.0
 11
18.639487
 21
-2.956244999999995
 31
0.0
  0
LINE
  5
2D94
330
BF7
100
AcDbEntity
  8
1
100
AcDbLine
 10
148.230327
 20
-0.1146639999999977
 30
0.0
 11
148.176019
 21
-0.097368999999997
 31
0.0
  0
LINE
  5
2D95
330
BF7
100
AcDbEntity
  8
1
100
AcDbLine
 10
148.564149
 20
-0.2308610000000009
 30
0.0
 11
148.230327
 21
-0.1146639999999977
 31
0.0
  0
LINE
  5
2D96
330
BF7
100
AcDbEntity
  8
1
100
AcDbLine
 10
148.898794
 20
-0.3705629999999971
 30
0.0
 11
148.564149
 21
-0.2308610000000009
 31
0.0
  0
LINE
  5
2D97
330
BF7
100
AcDbEntity
  8
1
100
AcDbLine
 10
148.940555
 20
-0.3907319999999963
 30
0.0
 11
148.898794
 21
-0.3705629999999971
 31
0.0
  0
LINE
  5
2D98
330
BF7
100
AcDbEntity
  8
1
100
AcDbLine
 10
148.961387
 20
-0.4012569999999977
 30
0.0
 11
148.940555
 21
-0.3907319999999963
 31
0.0
  0
LINE
  5
2D99
330
BF7
100
AcDbEntity
  8
1
100
AcDbLine
 10
148.971803
 20
-0.4066860000000008
 30
0.0
 11
148.961387
 21
-0.4012569999999977
 31
0.0
  0
LINE
  5
2D9A
330
BF7
100
AcDbEntity
  8
1
100
AcDbLine
 10
148.977181
 20
-0.409558999999998
 30
0.0
 11
148.971803
 21
-0.4066860000000008
 31
0.0
  0
LINE
  5
2D9B
330
BF7
100
AcDbEntity
  8
1
100
AcDbLine
 10
18.794577
 20
-3.500620999999998
 30
0.0
 11
17.455681
 21
-3.218029999999998
 31
0.0
  0
LINE
  5
2D9C
330
BF7
100
AcDbEntity
  8
1
100
AcDbLine
 10
20.14362199999998
 20
-3.660242999999995
 30
0.0
 11
18.794577
 21
-3.500620999999998
 31
0.0
  0
LINE
  5
2D9D
330
BF7
100
AcDbEntity
  8
1
100
AcDbLine
 10
21.49268000000001
 20
-3.689686999999998
 30
0.0
 11
20.14362199999998
 21
-3.660242999999995
 31
0.0
  0
LINE
  5
2D9E
330
BF7
100
AcDbEntity
  8
1
100
AcDbLine
 10
22.803707
 20
-3.591588999999995
 30
0.0
 11
21.49268000000001
 21
-3.689686999999998
 31
0.0
  0
LINE
  5
2D9F
330
BF7
100
AcDbEntity
  8
1
100
AcDbLine
 10
24.114722
 20
-3.372680999999998
 30
0.0
 11
22.803707
 21
-3.591588999999995
 31
0.0
  0
LINE
  5
2DA0
330
BF7
100
AcDbEntity
  8
1
100
AcDbLine
 10
25.46345199999999
 20
-3.027889999999998
 30
0.0
 11
24.114722
 21
-3.372680999999998
 31
0.0
  0
LINE
  5
2DA1
330
BF7
100
AcDbEntity
  8
1
100
AcDbLine
 10
26.81215900000001
 20
-2.574294999999995
 30
0.0
 11
25.46345199999999
 21
-3.027889999999998
 31
0.0
  0
LINE
  5
2DA2
330
BF7
100
AcDbEntity
  8
1
100
AcDbLine
 10
27.743764
 20
-2.196628999999995
 30
0.0
 11
26.81215900000001
 21
-2.574294999999995
 31
0.0
  0
LINE
  5
2DA3
330
BF7
100
AcDbEntity
  8
1
100
AcDbLine
 10
46.741029
 20
3.847224000000004
 30
0.0
 11
44.11643199999997
 21
4.093285000000001
 31
0.0
  0
LINE
  5
2DA4
330
BF7
100
AcDbEntity
  8
1
100
AcDbLine
 10
48.089687
 20
3.535431000000001
 30
0.0
 11
46.741029
 21
3.847224000000004
 31
0.0
  0
LINE
  5
2DA5
330
BF7
100
AcDbEntity
  8
1
100
AcDbLine
 10
49.400363
 20
3.123722
 30
0.0
 11
48.089687
 21
3.535431000000001
 31
0.0
  0
LINE
  5
2DA6
330
BF7
100
AcDbEntity
  8
1
100
AcDbLine
 10
50.71101500000001
 20
2.618889999999999
 30
0.0
 11
49.400363
 21
3.123722
 31
0.0
  0
LINE
  5
2DA7
330
BF7
100
AcDbEntity
  8
1
100
AcDbLine
 10
52.05986600000002
 20
2.018493000000002
 30
0.0
 11
50.71101500000001
 21
2.618889999999999
 31
0.0
  0
LINE
  5
2DA8
330
BF7
100
AcDbEntity
  8
1
100
AcDbLine
 10
53.40874199999999
 20
1.356838999999999
 30
0.0
 11
52.05986600000002
 21
2.018493000000002
 31
0.0
  0
LINE
  5
2DA9
330
BF7
100
AcDbEntity
  8
1
100
AcDbLine
 10
54.71963599999998
 20
0.6759759999999986
 30
0.0
 11
53.40874199999999
 21
1.356838999999999
 31
0.0
  0
LINE
  5
2DAA
330
BF7
100
AcDbEntity
  8
1
100
AcDbLine
 10
56.03048199999998
 20
-0.0200879999999977
 30
0.0
 11
54.71963599999998
 21
0.6759759999999986
 31
0.0
  0
LINE
  5
2DAB
330
BF7
100
AcDbEntity
  8
1
100
AcDbLine
 10
57.37957600000001
 20
-0.7288919999999984
 30
0.0
 11
56.03048199999998
 21
-0.0200879999999977
 31
0.0
  0
LINE
  5
2DAC
330
BF7
100
AcDbEntity
  8
1
100
AcDbLine
 10
58.72869399999999
 20
-1.406345999999999
 30
0.0
 11
57.37957600000001
 21
-0.7288919999999984
 31
0.0
  0
LINE
  5
2DAD
330
BF7
100
AcDbEntity
  8
1
100
AcDbLine
 10
60.03980600000001
 20
-2.012561999999999
 30
0.0
 11
58.72869399999999
 21
-1.406345999999999
 31
0.0
  0
LINE
  5
2DAE
330
BF7
100
AcDbEntity
  8
1
100
AcDbLine
 10
61.350893
 20
-2.548257999999997
 30
0.0
 11
60.03980600000001
 21
-2.012561999999999
 31
0.0
  0
LINE
  5
2DAF
330
BF7
100
AcDbEntity
  8
1
100
AcDbLine
 10
62.699648
 20
-3.007088999999997
 30
0.0
 11
61.350893
 21
-2.548257999999997
 31
0.0
  0
LINE
  5
2DB0
330
BF7
100
AcDbEntity
  8
1
100
AcDbLine
 10
64.04840300000002
 20
-3.357852999999998
 30
0.0
 11
62.699648
 21
-3.007088999999997
 31
0.0
  0
LINE
  5
2DB1
330
BF7
100
AcDbEntity
  8
1
100
AcDbLine
 10
65.35917600000002
 20
-3.582973999999995
 30
0.0
 11
64.04840300000002
 21
-3.357852999999998
 31
0.0
  0
LINE
  5
2DB2
330
BF7
100
AcDbEntity
  8
1
100
AcDbLine
 10
66.66997200000003
 20
-3.687594999999998
 30
0.0
 11
65.35917600000002
 21
-3.582973999999995
 31
0.0
  0
LINE
  5
2DB3
330
BF7
100
AcDbEntity
  8
1
100
AcDbLine
 10
68.01877600000003
 20
-3.665005999999998
 30
0.0
 11
66.66997200000003
 21
-3.687594999999998
 31
0.0
  0
LINE
  5
2DB4
330
BF7
100
AcDbEntity
  8
1
100
AcDbLine
 10
69.367579
 20
-3.512100999999995
 30
0.0
 11
68.01877600000003
 21
-3.665005999999998
 31
0.0
  0
LINE
  5
2DB5
330
BF7
100
AcDbEntity
  8
1
100
AcDbLine
 10
70.67840000000003
 20
-3.242588999999998
 30
0.0
 11
69.367579
 21
-3.512100999999995
 31
0.0
  0
LINE
  5
2DB6
330
BF7
100
AcDbEntity
  8
1
100
AcDbLine
 10
71.98922099999998
 20
-2.863416999999998
 30
0.0
 11
70.67840000000003
 21
-3.242588999999998
 31
0.0
  0
LINE
  5
2DB7
330
BF7
100
AcDbEntity
  8
1
100
AcDbLine
 10
73.338146
 20
-2.370682999999996
 30
0.0
 11
71.98922099999998
 21
-2.863416999999998
 31
0.0
  0
LINE
  5
2DB8
330
BF7
100
AcDbEntity
  8
1
100
AcDbLine
 10
73.74490399999998
 20
-2.195962999999998
 30
0.0
 11
73.338146
 21
-2.370682999999996
 31
0.0
  0
LINE
  5
2DB9
330
BF7
100
AcDbEntity
  8
1
100
AcDbLine
 10
91.95726099999996
 20
3.972407000000004
 30
0.0
 11
90.11556099999999
 21
4.079287000000004
 31
0.0
  0
LINE
  5
2DBA
330
BF7
100
AcDbEntity
  8
1
100
AcDbLine
 10
93.26820300000004
 20
3.739694000000003
 30
0.0
 11
91.95726099999996
 21
3.972407000000004
 31
0.0
  0
LINE
  5
2DBB
330
BF7
100
AcDbEntity
  8
1
100
AcDbLine
 10
94.61710300000005
 20
3.381749000000001
 30
0.0
 11
93.26820300000004
 21
3.739694000000003
 31
0.0
  0
LINE
  5
2DBC
330
BF7
100
AcDbEntity
  8
1
100
AcDbLine
 10
95.96600399999999
 20
2.916540000000001
 30
0.0
 11
94.61710300000005
 21
3.381749000000001
 31
0.0
  0
LINE
  5
2DBD
330
BF7
100
AcDbEntity
  8
1
100
AcDbLine
 10
97.27687300000004
 20
2.375802
 30
0.0
 11
95.96600399999999
 21
2.916540000000001
 31
0.0
  0
LINE
  5
2DBE
330
BF7
100
AcDbEntity
  8
1
100
AcDbLine
 10
98.58779100000004
 20
1.765776999999999
 30
0.0
 11
97.27687300000004
 21
2.375802
 31
0.0
  0
LINE
  5
2DBF
330
BF7
100
AcDbEntity
  8
1
100
AcDbLine
 10
99.936667
 20
1.085852999999998
 30
0.0
 11
98.58779100000004
 21
1.765776999999999
 31
0.0
  0
LINE
  5
2DC0
330
BF7
100
AcDbEntity
  8
1
100
AcDbLine
 10
101.285519
 20
0.3760459999999988
 30
0.0
 11
99.936667
 21
1.085852999999998
 31
0.0
  0
LINE
  5
2DC1
330
BF7
100
AcDbEntity
  8
1
100
AcDbLine
 10
102.596364
 20
-0.3197359999999989
 30
0.0
 11
101.285519
 21
0.3760459999999988
 31
0.0
  0
LINE
  5
2DC2
330
BF7
100
AcDbEntity
  8
1
100
AcDbLine
 10
103.9072339999999
 20
-0.9989489999999996
 30
0.0
 11
102.596364
 21
-0.3197359999999989
 31
0.0
  0
LINE
  5
2DC3
330
BF7
100
AcDbEntity
  8
1
100
AcDbLine
 10
105.256158
 20
-1.657426999999996
 30
0.0
 11
103.9072339999999
 21
-0.9989489999999996
 31
0.0
  0
LINE
  5
2DC4
330
BF7
100
AcDbEntity
  8
1
100
AcDbLine
 10
106.605083
 20
-2.253283999999997
 30
0.0
 11
105.256158
 21
-1.657426999999996
 31
0.0
  0
LINE
  5
2DC5
330
BF7
100
AcDbEntity
  8
1
100
AcDbLine
 10
107.915977
 20
-2.752679999999998
 30
0.0
 11
106.605083
 21
-2.253283999999997
 31
0.0
  0
LINE
  5
2DC6
330
BF7
100
AcDbEntity
  8
1
100
AcDbLine
 10
109.22687
 20
-3.158020999999997
 30
0.0
 11
107.915977
 21
-2.752679999999998
 31
0.0
  0
LINE
  5
2DC7
330
BF7
100
AcDbEntity
  8
1
100
AcDbLine
 10
110.575625
 20
-3.462427999999998
 30
0.0
 11
109.22687
 21
-3.158020999999997
 31
0.0
  0
LINE
  5
2DC8
330
BF7
100
AcDbEntity
  8
1
100
AcDbLine
 10
111.9244289999999
 20
-3.643335999999997
 30
0.0
 11
110.575625
 21
-3.462427999999998
 31
0.0
  0
LINE
  5
2DC9
330
BF7
100
AcDbEntity
  8
1
100
AcDbLine
 10
113.235225
 20
-3.694060999999996
 30
0.0
 11
111.9244289999999
 21
-3.643335999999997
 31
0.0
  0
LINE
  5
2DCA
330
BF7
100
AcDbEntity
  8
1
100
AcDbLine
 10
114.545974
 20
-3.620792999999998
 30
0.0
 11
113.235225
 21
-3.694060999999996
 31
0.0
  0
LINE
  5
2DCB
330
BF7
100
AcDbEntity
  8
1
100
AcDbLine
 10
115.894898
 20
-3.417378999999995
 30
0.0
 11
114.545974
 21
-3.620792999999998
 31
0.0
  0
LINE
  5
2DCC
330
BF7
100
AcDbEntity
  8
1
100
AcDbLine
 10
117.243823
 20
-3.091998999999995
 30
0.0
 11
115.894898
 21
-3.417378999999995
 31
0.0
  0
LINE
  5
2DCD
330
BF7
100
AcDbEntity
  8
1
100
AcDbLine
 10
118.554789
 20
-2.668476999999999
 30
0.0
 11
117.243823
 21
-3.091998999999995
 31
0.0
  0
LINE
  5
2DCE
330
BF7
100
AcDbEntity
  8
1
100
AcDbLine
 10
119.754231
 20
-2.197337999999998
 30
0.0
 11
118.554789
 21
-2.668476999999999
 31
0.0
  0
LINE
  5
2DCF
330
BF7
100
AcDbEntity
  8
1
100
AcDbLine
 10
138.519752
 20
3.887101999999998
 30
0.0
 11
136.114667
 21
4.083934999999998
 31
0.0
  0
LINE
  5
2DD0
330
BF7
100
AcDbEntity
  8
1
100
AcDbLine
 10
139.8298229999999
 20
3.604482000000003
 30
0.0
 11
138.519752
 21
3.887101999999998
 31
0.0
  0
LINE
  5
2DD1
330
BF7
100
AcDbEntity
  8
1
100
AcDbLine
 10
141.1399169999999
 20
3.213581000000004
 30
0.0
 11
139.8298229999999
 21
3.604482000000003
 31
0.0
  0
LINE
  5
2DD2
330
BF7
100
AcDbEntity
  8
1
100
AcDbLine
 10
142.457109
 20
2.723176999999998
 30
0.0
 11
141.1399169999999
 21
3.213581000000004
 31
0.0
  0
LINE
  5
2DD3
330
BF7
100
AcDbEntity
  8
1
100
AcDbLine
 10
143.774277
 20
2.151616
 30
0.0
 11
142.457109
 21
2.723176999999998
 31
0.0
  0
LINE
  5
2DD4
330
BF7
100
AcDbEntity
  8
1
100
AcDbLine
 10
145.055981
 20
1.534571999999999
 30
0.0
 11
143.774277
 21
2.151616
 31
0.0
  0
LINE
  5
2DD5
330
BF7
100
AcDbEntity
  8
1
100
AcDbLine
 10
146.3376859999999
 20
0.8768960000000021
 30
0.0
 11
145.055981
 21
1.534571999999999
 31
0.0
  0
LINE
  5
2DD6
330
BF7
100
AcDbEntity
  8
1
100
AcDbLine
 10
148.176019
 20
-0.097368999999997
 30
0.0
 11
146.3376859999999
 21
0.8768960000000021
 31
0.0
  0
LINE
  5
2DD7
330
BF7
100
AcDbEntity
  8
1
100
AcDbLine
 10
15.89658300000002
 20
-2.824056999999995
 30
0.0
 11
15.034208
 21
-2.604248999999998
 31
0.0
  0
LINE
  5
2DD8
330
BF7
100
AcDbEntity
  8
1
100
AcDbLine
 10
16.81783200000001
 20
-3.056435999999997
 30
0.0
 11
15.89658300000002
 21
-2.824056999999995
 31
0.0
  0
LINE
  5
2DD9
330
BF7
100
AcDbEntity
  8
1
100
AcDbLine
 10
17.455681
 20
-3.218029999999998
 30
0.0
 11
16.81783200000001
 21
-3.056435999999997
 31
0.0
  0
LINE
  5
2DDA
330
BF7
100
AcDbEntity
  8
1
100
AcDbLine
 10
139.4816609999999
 20
-2.805466999999995
 30
0.0
 11
142.3264
 21
-2.004592999999995
 31
0.0
  0
LINE
  5
2DDB
330
BF7
100
AcDbEntity
  8
1
100
AcDbLine
 10
137.108065
 20
-3.119532999999997
 30
0.0
 11
139.4816609999999
 21
-2.805466999999995
 31
0.0
  0
LINE
  5
2DDC
330
BF7
100
AcDbEntity
  8
1
100
AcDbLine
 10
134.894635
 20
-3.100902999999998
 30
0.0
 11
137.108065
 21
-3.119532999999997
 31
0.0
  0
LINE
  5
2DDD
330
BF7
100
AcDbEntity
  8
1
100
AcDbLine
 10
132.681277
 20
-2.782871999999997
 30
0.0
 11
134.894635
 21
-3.100902999999998
 31
0.0
  0
LINE
  5
2DDE
330
BF7
100
AcDbEntity
  8
1
100
AcDbLine
 10
130.468258
 20
-2.194357999999995
 30
0.0
 11
132.681277
 21
-2.782871999999997
 31
0.0
  0
LINE
  5
2DDF
330
BF7
100
AcDbEntity
  8
1
100
AcDbLine
 10
128.255214
 20
-1.388624
 30
0.0
 11
130.468258
 21
-2.194357999999995
 31
0.0
  0
LINE
  5
2DE0
330
BF7
100
AcDbEntity
  8
1
100
AcDbLine
 10
126.6576379999999
 20
-0.7023589999999979
 30
0.0
 11
128.255214
 21
-1.388624
 31
0.0
  0
LINE
  5
2DE1
330
BF7
100
AcDbEntity
  8
1
100
AcDbLine
 10
92.44107300000001
 20
-2.984713999999995
 30
0.0
 11
96.32143300000002
 21
-2.003783999999999
 31
0.0
  0
LINE
  5
2DE2
330
BF7
100
AcDbEntity
  8
1
100
AcDbLine
 10
90.227667
 20
-3.148896999999998
 30
0.0
 11
92.44107300000001
 21
-2.984713999999995
 31
0.0
  0
LINE
  5
2DE3
330
BF7
100
AcDbEntity
  8
1
100
AcDbLine
 10
88.01421199999998
 20
-3.009283999999995
 30
0.0
 11
90.227667
 21
-3.148896999999998
 31
0.0
  0
LINE
  5
2DE4
330
BF7
100
AcDbEntity
  8
1
100
AcDbLine
 10
85.76052200000004
 20
-2.568253999999996
 30
0.0
 11
88.01421199999998
 21
-3.009283999999995
 31
0.0
  0
LINE
  5
2DE5
330
BF7
100
AcDbEntity
  8
1
100
AcDbLine
 10
83.50707400000004
 20
-1.867094999999995
 30
0.0
 11
85.76052200000004
 21
-2.568253999999996
 31
0.0
  0
LINE
  5
2DE6
330
BF7
100
AcDbEntity
  8
1
100
AcDbLine
 10
81.253893
 20
-0.9717579999999975
 30
0.0
 11
83.50707400000004
 21
-1.867094999999995
 31
0.0
  0
LINE
  5
2DE7
330
BF7
100
AcDbEntity
  8
1
100
AcDbLine
 10
80.96168699999997
 20
-0.8413609999999991
 30
0.0
 11
81.253893
 21
-0.9717579999999975
 31
0.0
  0
LINE
  5
2DE8
330
BF7
100
AcDbEntity
  8
1
100
AcDbLine
 10
47.77393599999999
 20
-2.744368999999998
 30
0.0
 11
50.333494
 21
-2.007087999999999
 31
0.0
  0
LINE
  5
2DE9
330
BF7
100
AcDbEntity
  8
1
100
AcDbLine
 10
45.52043999999997
 20
-3.089688999999995
 30
0.0
 11
47.77393599999999
 21
-2.744368999999998
 31
0.0
  0
LINE
  5
2DEA
330
BF7
100
AcDbEntity
  8
1
100
AcDbLine
 10
43.26684700000001
 20
-3.125718999999998
 30
0.0
 11
45.52043999999997
 21
-3.089688999999995
 31
0.0
  0
LINE
  5
2DEB
330
BF7
100
AcDbEntity
  8
1
100
AcDbLine
 10
41.01306
 20
-2.848987999999998
 30
0.0
 11
43.26684700000001
 21
-3.125718999999998
 31
0.0
  0
LINE
  5
2DEC
330
BF7
100
AcDbEntity
  8
1
100
AcDbLine
 10
38.759443
 20
-2.285616999999998
 30
0.0
 11
41.01306
 21
-2.848987999999998
 31
0.0
  0
LINE
  5
2DED
330
BF7
100
AcDbEntity
  8
1
100
AcDbLine
 10
36.50633399999998
 20
-1.488792999999994
 30
0.0
 11
38.759443
 21
-2.285616999999998
 31
0.0
  0
LINE
  5
2DEE
330
BF7
100
AcDbEntity
  8
1
100
AcDbLine
 10
34.72725199999999
 20
-0.7350479999999992
 30
0.0
 11
36.50633399999998
 21
-1.488792999999994
 31
0.0
  0
LINE
  5
2DEF
330
BF7
100
AcDbEntity
  8
1
100
AcDbLine
 10
22.803707
 20
3.991909999999998
 30
0.0
 11
21.117897
 21
4.081826999999998
 31
0.0
  0
LINE
  5
2DF0
330
BF7
100
AcDbEntity
  8
1
100
AcDbLine
 10
24.114722
 20
3.773001
 30
0.0
 11
22.803707
 21
3.991909999999998
 31
0.0
  0
LINE
  5
2DF1
330
BF7
100
AcDbEntity
  8
1
100
AcDbLine
 10
25.46345199999999
 20
3.428209000000001
 30
0.0
 11
24.114722
 21
3.773001
 31
0.0
  0
LINE
  5
2DF2
330
BF7
100
AcDbEntity
  8
1
100
AcDbLine
 10
26.81215900000001
 20
2.974615
 30
0.0
 11
25.46345199999999
 21
3.428209000000001
 31
0.0
  0
LINE
  5
2DF3
330
BF7
100
AcDbEntity
  8
1
100
AcDbLine
 10
28.12285900000001
 20
2.443273
 30
0.0
 11
26.81215900000001
 21
2.974615
 31
0.0
  0
LINE
  5
2DF4
330
BF7
100
AcDbEntity
  8
1
100
AcDbLine
 10
29.433535
 20
1.840502999999999
 30
0.0
 11
28.12285900000001
 21
2.443273
 31
0.0
  0
LINE
  5
2DF5
330
BF7
100
AcDbEntity
  8
1
100
AcDbLine
 10
30.78243500000002
 20
1.165505000000002
 30
0.0
 11
29.433535
 21
1.840502999999999
 31
0.0
  0
LINE
  5
2DF6
330
BF7
100
AcDbEntity
  8
1
100
AcDbLine
 10
32.13133500000001
 20
0.4579839999999999
 30
0.0
 11
30.78243500000002
 21
1.165505000000002
 31
0.0
  0
LINE
  5
2DF7
330
BF7
100
AcDbEntity
  8
1
100
AcDbLine
 10
33.44220500000004
 20
-0.2382939999999962
 30
0.0
 11
32.13133500000001
 21
0.4579839999999999
 31
0.0
  0
LINE
  5
2DF8
330
BF7
100
AcDbEntity
  8
1
100
AcDbLine
 10
34.75305
 20
-0.9206379999999969
 30
0.0
 11
33.44220500000004
 21
-0.2382939999999962
 31
0.0
  0
LINE
  5
2DF9
330
BF7
100
AcDbEntity
  8
1
100
AcDbLine
 10
36.10197400000001
 20
-1.584977999999999
 30
0.0
 11
34.75305
 21
-0.9206379999999969
 31
0.0
  0
LINE
  5
2DFA
330
BF7
100
AcDbEntity
  8
1
100
AcDbLine
 10
37.45092299999999
 20
-2.189104999999995
 30
0.0
 11
36.10197400000001
 21
-1.584977999999999
 31
0.0
  0
LINE
  5
2DFB
330
BF7
100
AcDbEntity
  8
1
100
AcDbLine
 10
38.76184100000001
 20
-2.698588999999998
 30
0.0
 11
37.45092299999999
 21
-2.189104999999995
 31
0.0
  0
LINE
  5
2DFC
330
BF7
100
AcDbEntity
  8
1
100
AcDbLine
 10
40.07275899999998
 20
-3.115734999999998
 30
0.0
 11
38.76184100000001
 21
-2.698588999999998
 31
0.0
  0
LINE
  5
2DFD
330
BF7
100
AcDbEntity
  8
1
100
AcDbLine
 10
41.42165899999997
 20
-3.433729999999997
 30
0.0
 11
40.07275899999998
 21
-3.115734999999998
 31
0.0
  0
LINE
  5
2DFE
330
BF7
100
AcDbEntity
  8
1
100
AcDbLine
 10
42.77055999999999
 20
-3.629208999999999
 30
0.0
 11
41.42165899999997
 21
-3.433729999999997
 31
0.0
  0
LINE
  5
2DFF
330
BF7
100
AcDbEntity
  8
1
100
AcDbLine
 10
44.08145300000003
 20
-3.694529999999995
 30
0.0
 11
42.77055999999999
 21
-3.629208999999999
 31
0.0
  0
LINE
  5
2E00
330
BF7
100
AcDbEntity
  8
1
100
AcDbLine
 10
45.392371
 20
-3.635788999999995
 30
0.0
 11
44.08145300000003
 21
-3.694529999999995
 31
0.0
  0
LINE
  5
2E01
330
BF7
100
AcDbEntity
  8
1
100
AcDbLine
 10
46.741029
 20
-3.446903999999995
 30
0.0
 11
45.392371
 21
-3.635788999999995
 31
0.0
  0
LINE
  5
2E02
330
BF7
100
AcDbEntity
  8
1
100
AcDbLine
 10
48.089687
 20
-3.135110999999998
 30
0.0
 11
46.741029
 21
-3.446903999999995
 31
0.0
  0
LINE
  5
2E03
330
BF7
100
AcDbEntity
  8
1
100
AcDbLine
 10
49.400363
 20
-2.723401999999995
 30
0.0
 11
48.089687
 21
-3.135110999999998
 31
0.0
  0
LINE
  5
2E04
330
BF7
100
AcDbEntity
  8
1
100
AcDbLine
 10
50.71101500000001
 20
-2.218568999999996
 30
0.0
 11
49.400363
 21
-2.723401999999995
 31
0.0
  0
LINE
  5
2E05
330
BF7
100
AcDbEntity
  8
1
100
AcDbLine
 10
50.75454399999998
 20
-2.199202999999997
 30
0.0
 11
50.71101500000001
 21
-2.218568999999996
 31
0.0
  0
LINE
  5
2E06
330
BF7
100
AcDbEntity
  8
1
100
AcDbLine
 10
69.367579
 20
3.912421000000001
 30
0.0
 11
67.11698999999999
 21
4.080428000000001
 31
0.0
  0
LINE
  5
2E07
330
BF7
100
AcDbEntity
  8
1
100
AcDbLine
 10
70.67840000000003
 20
3.642909999999998
 30
0.0
 11
69.367579
 21
3.912421000000001
 31
0.0
  0
LINE
  5
2E08
330
BF7
100
AcDbEntity
  8
1
100
AcDbLine
 10
71.98922099999998
 20
3.263736000000001
 30
0.0
 11
70.67840000000003
 21
3.642909999999998
 31
0.0
  0
LINE
  5
2E09
330
BF7
100
AcDbEntity
  8
1
100
AcDbLine
 10
73.338146
 20
2.771002999999998
 30
0.0
 11
71.98922099999998
 21
3.263736000000001
 31
0.0
  0
LINE
  5
2E0A
330
BF7
100
AcDbEntity
  8
1
100
AcDbLine
 10
74.68707000000001
 20
2.191584000000001
 30
0.0
 11
73.338146
 21
2.771002999999998
 31
0.0
  0
LINE
  5
2E0B
330
BF7
100
AcDbEntity
  8
1
100
AcDbLine
 10
75.99801200000001
 20
1.563494000000004
 30
0.0
 11
74.68707000000001
 21
2.191584000000001
 31
0.0
  0
LINE
  5
2E0C
330
BF7
100
AcDbEntity
  8
1
100
AcDbLine
 10
77.30895500000002
 20
0.8919870000000036
 30
0.0
 11
75.99801200000001
 21
1.563494000000004
 31
0.0
  0
LINE
  5
2E0D
330
BF7
100
AcDbEntity
  8
1
100
AcDbLine
 10
78.65795200000002
 20
0.1779680000000035
 30
0.0
 11
77.30895500000002
 21
0.8919870000000036
 31
0.0
  0
LINE
  5
2E0E
330
BF7
100
AcDbEntity
  8
1
100
AcDbLine
 10
80.00694900000002
 20
-0.5353239999999993
 30
0.0
 11
78.65795200000002
 21
0.1779680000000035
 31
0.0
  0
LINE
  5
2E0F
330
BF7
100
AcDbEntity
  8
1
100
AcDbLine
 10
81.31793999999997
 20
-1.20476
 30
0.0
 11
80.00694900000002
 21
-0.5353239999999993
 31
0.0
  0
LINE
  5
2E10
330
BF7
100
AcDbEntity
  8
1
100
AcDbLine
 10
82.62895500000002
 20
-1.829399999999997
 30
0.0
 11
81.31793999999997
 21
-1.20476
 31
0.0
  0
LINE
  5
2E11
330
BF7
100
AcDbEntity
  8
1
100
AcDbLine
 10
83.97783099999998
 20
-2.403895999999999
 30
0.0
 11
82.62895500000002
 21
-1.829399999999997
 31
0.0
  0
LINE
  5
2E12
330
BF7
100
AcDbEntity
  8
1
100
AcDbLine
 10
85.32670600000001
 20
-2.890634999999998
 30
0.0
 11
83.97783099999998
 21
-2.403895999999999
 31
0.0
  0
LINE
  5
2E13
330
BF7
100
AcDbEntity
  8
1
100
AcDbLine
 10
86.63755200000002
 20
-3.263157999999997
 30
0.0
 11
85.32670600000001
 21
-2.890634999999998
 31
0.0
  0
LINE
  5
2E14
330
BF7
100
AcDbEntity
  8
1
100
AcDbLine
 10
87.948421
 20
-3.525349999999998
 30
0.0
 11
86.63755200000002
 21
-3.263157999999997
 31
0.0
  0
LINE
  5
2E15
330
BF7
100
AcDbEntity
  8
1
100
AcDbLine
 10
89.29737000000001
 20
-3.670241999999998
 30
0.0
 11
87.948421
 21
-3.525349999999998
 31
0.0
  0
LINE
  5
2E16
330
BF7
100
AcDbEntity
  8
1
100
AcDbLine
 10
90.64634299999999
 20
-3.684626999999998
 30
0.0
 11
89.29737000000001
 21
-3.670241999999998
 31
0.0
  0
LINE
  5
2E17
330
BF7
100
AcDbEntity
  8
1
100
AcDbLine
 10
91.95726099999996
 20
-3.572085999999998
 30
0.0
 11
90.64634299999999
 21
-3.684626999999998
 31
0.0
  0
LINE
  5
2E18
330
BF7
100
AcDbEntity
  8
1
100
AcDbLine
 10
93.26820300000004
 20
-3.339371999999996
 30
0.0
 11
91.95726099999996
 21
-3.572085999999998
 31
0.0
  0
LINE
  5
2E19
330
BF7
100
AcDbEntity
  8
1
100
AcDbLine
 10
94.61710300000005
 20
-2.981428999999993
 30
0.0
 11
93.26820300000004
 21
-3.339371999999996
 31
0.0
  0
LINE
  5
2E1A
330
BF7
100
AcDbEntity
  8
1
100
AcDbLine
 10
95.96600399999999
 20
-2.516219999999997
 30
0.0
 11
94.61710300000005
 21
-2.981428999999993
 31
0.0
  0
LINE
  5
2E1B
330
BF7
100
AcDbEntity
  8
1
100
AcDbLine
 10
96.74345100000003
 20
-2.195520999999998
 30
0.0
 11
95.96600399999999
 21
-2.516219999999997
 31
0.0
  0
LINE
  5
2E1C
330
BF7
100
AcDbEntity
  8
1
100
AcDbLine
 10
114.545974
 20
4.021111000000001
 30
0.0
 11
113.116144
 21
4.089771999999999
 31
0.0
  0
LINE
  5
2E1D
330
BF7
100
AcDbEntity
  8
1
100
AcDbLine
 10
115.894898
 20
3.817699000000004
 30
0.0
 11
114.545974
 21
4.021111000000001
 31
0.0
  0
LINE
  5
2E1E
330
BF7
100
AcDbEntity
  8
1
100
AcDbLine
 10
117.243823
 20
3.492319000000004
 30
0.0
 11
115.894898
 21
3.817699000000004
 31
0.0
  0
LINE
  5
2E1F
330
BF7
100
AcDbEntity
  8
1
100
AcDbLine
 10
118.554789
 20
3.068794999999997
 30
0.0
 11
117.243823
 21
3.492319000000004
 31
0.0
  0
LINE
  5
2E20
330
BF7
100
AcDbEntity
  8
1
100
AcDbLine
 10
119.865707
 20
2.553868000000004
 30
0.0
 11
118.554789
 21
3.068794999999997
 31
0.0
  0
LINE
  5
2E21
330
BF7
100
AcDbEntity
  8
1
100
AcDbLine
 10
121.214389
 20
1.945444999999999
 30
0.0
 11
119.865707
 21
2.553868000000004
 31
0.0
  0
LINE
  5
2E22
330
BF7
100
AcDbEntity
  8
1
100
AcDbLine
 10
122.5630959999999
 20
1.278189000000001
 30
0.0
 11
121.214389
 21
1.945444999999999
 31
0.0
  0
LINE
  5
2E23
330
BF7
100
AcDbEntity
  8
1
100
AcDbLine
 10
123.8737959999999
 20
0.5944310000000037
 30
0.0
 11
122.5630959999999
 21
1.278189000000001
 31
0.0
  0
LINE
  5
2E24
330
BF7
100
AcDbEntity
  8
1
100
AcDbLine
 10
125.184496
 20
-0.1018869999999943
 30
0.0
 11
123.8737959999999
 21
0.5944310000000037
 31
0.0
  0
LINE
  5
2E25
330
BF7
100
AcDbEntity
  8
1
100
AcDbLine
 10
126.533541
 20
-0.8082209999999996
 30
0.0
 11
125.184496
 21
-0.1018869999999943
 31
0.0
  0
LINE
  5
2E26
330
BF7
100
AcDbEntity
  8
1
100
AcDbLine
 10
127.882563
 20
-1.480536
 30
0.0
 11
126.533541
 21
-0.8082209999999996
 31
0.0
  0
LINE
  5
2E27
330
BF7
100
AcDbEntity
  8
1
100
AcDbLine
 10
129.193602
 20
-2.079363999999996
 30
0.0
 11
127.882563
 21
-1.480536
 31
0.0
  0
LINE
  5
2E28
330
BF7
100
AcDbEntity
  8
1
100
AcDbLine
 10
130.504593
 20
-2.605580999999995
 30
0.0
 11
129.193602
 21
-2.079363999999996
 31
0.0
  0
LINE
  5
2E29
330
BF7
100
AcDbEntity
  8
1
100
AcDbLine
 10
131.853372
 20
-3.052812999999998
 30
0.0
 11
130.504593
 21
-2.605580999999995
 31
0.0
  0
LINE
  5
2E2A
330
BF7
100
AcDbEntity
  8
1
100
AcDbLine
 10
133.202151
 20
-3.390360999999998
 30
0.0
 11
131.853372
 21
-3.052812999999998
 31
0.0
  0
LINE
  5
2E2B
330
BF7
100
AcDbEntity
  8
1
100
AcDbLine
 10
134.512972
 20
-3.601561999999995
 30
0.0
 11
133.202151
 21
-3.390360999999998
 31
0.0
  0
LINE
  5
2E2C
330
BF7
100
AcDbEntity
  8
1
100
AcDbLine
 10
135.823793
 20
-3.691719999999995
 30
0.0
 11
134.512972
 21
-3.601561999999995
 31
0.0
  0
LINE
  5
2E2D
330
BF7
100
AcDbEntity
  8
1
100
AcDbLine
 10
137.171773
 20
-3.65416
 30
0.0
 11
135.823793
 21
-3.691719999999995
 31
0.0
  0
LINE
  5
2E2E
330
BF7
100
AcDbEntity
  8
1
100
AcDbLine
 10
138.519752
 20
-3.486781999999998
 30
0.0
 11
137.171773
 21
-3.65416
 31
0.0
  0
LINE
  5
2E2F
330
BF7
100
AcDbEntity
  8
1
100
AcDbLine
 10
139.8298229999999
 20
-3.204163999999998
 30
0.0
 11
138.519752
 21
-3.486781999999998
 31
0.0
  0
LINE
  5
2E30
330
BF7
100
AcDbEntity
  8
1
100
AcDbLine
 10
141.1399169999999
 20
-2.813262999999998
 30
0.0
 11
139.8298229999999
 21
-3.204163999999998
 31
0.0
  0
LINE
  5
2E31
330
BF7
100
AcDbEntity
  8
1
100
AcDbLine
 10
142.457109
 20
-2.322856999999995
 30
0.0
 11
141.1399169999999
 21
-2.813262999999998
 31
0.0
  0
LINE
  5
2E32
330
BF7
100
AcDbEntity
  8
1
100
AcDbLine
 10
142.746626
 20
-2.197222999999995
 30
0.0
 11
142.457109
 21
-2.322856999999995
 31
0.0
  0
LINE
  5
2E33
330
BF7
100
AcDbEntity
  8
1
100
AcDbLine
 10
128.6534459999999
 20
-3.861117999999997
 30
0.0
 11
129.954868
 21
-3.695282999999995
 31
0.0
  0
LINE
  5
2E34
330
BF7
100
AcDbEntity
  8
1
100
AcDbLine
 10
127.400446
 20
-3.897524999999998
 30
0.0
 11
128.6534459999999
 21
-3.861117999999997
 31
0.0
  0
LINE
  5
2E35
330
BF7
100
AcDbEntity
  8
1
100
AcDbLine
 10
126.156094
 20
-3.815173999999998
 30
0.0
 11
127.400446
 21
-3.897524999999998
 31
0.0
  0
LINE
  5
2E36
330
BF7
100
AcDbEntity
  8
1
100
AcDbLine
 10
124.903069
 20
-3.615335999999995
 30
0.0
 11
126.156094
 21
-3.815173999999998
 31
0.0
  0
LINE
  5
2E37
330
BF7
100
AcDbEntity
  8
1
100
AcDbLine
 10
123.6587169999999
 20
-3.306515999999998
 30
0.0
 11
124.903069
 21
-3.615335999999995
 31
0.0
  0
LINE
  5
2E38
330
BF7
100
AcDbEntity
  8
1
100
AcDbLine
 10
122.405717
 20
-2.893460000000001
 30
0.0
 11
123.6587169999999
 21
-3.306515999999998
 31
0.0
  0
LINE
  5
2E39
330
BF7
100
AcDbEntity
  8
1
100
AcDbLine
 10
121.161365
 20
-2.393758999999999
 30
0.0
 11
122.405717
 21
-2.893460000000001
 31
0.0
  0
LINE
  5
2E3A
330
BF7
100
AcDbEntity
  8
1
100
AcDbLine
 10
119.908365
 20
-1.815084999999999
 30
0.0
 11
121.161365
 21
-2.393758999999999
 31
0.0
  0
LINE
  5
2E3B
330
BF7
100
AcDbEntity
  8
1
100
AcDbLine
 10
118.6639879999999
 20
-1.182083999999999
 30
0.0
 11
119.908365
 21
-1.815084999999999
 31
0.0
  0
LINE
  5
2E3C
330
BF7
100
AcDbEntity
  8
1
100
AcDbLine
 10
117.410988
 20
-0.5044779999999989
 30
0.0
 11
118.6639879999999
 21
-1.182083999999999
 31
0.0
  0
LINE
  5
2E3D
330
BF7
100
AcDbEntity
  8
1
100
AcDbLine
 10
116.166636
 20
0.1888690000000039
 30
0.0
 11
117.410988
 21
-0.5044779999999989
 31
0.0
  0
LINE
  5
2E3E
330
BF7
100
AcDbEntity
  8
1
100
AcDbLine
 10
114.913636
 20
0.8873209999999998
 30
0.0
 11
116.166636
 21
0.1888690000000039
 31
0.0
  0
LINE
  5
2E3F
330
BF7
100
AcDbEntity
  8
1
100
AcDbLine
 10
113.669259
 20
1.561138999999999
 30
0.0
 11
114.913636
 21
0.8873209999999998
 31
0.0
  0
LINE
  5
2E40
330
BF7
100
AcDbEntity
  8
1
100
AcDbLine
 10
112.4162589999999
 20
2.199950000000002
 30
0.0
 11
113.669259
 21
1.561138999999999
 31
0.0
  0
LINE
  5
2E41
330
BF7
100
AcDbEntity
  8
1
100
AcDbLine
 10
111.171882
 20
2.776568000000004
 30
0.0
 11
112.4162589999999
 21
2.199950000000002
 31
0.0
  0
LINE
  5
2E42
330
BF7
100
AcDbEntity
  8
1
100
AcDbLine
 10
109.918858
 20
3.282130000000001
 30
0.0
 11
111.171882
 21
2.776568000000004
 31
0.0
  0
LINE
  5
2E43
330
BF7
100
AcDbEntity
  8
1
100
AcDbLine
 10
108.6744819999999
 20
3.695105000000001
 30
0.0
 11
109.918858
 21
3.282130000000001
 31
0.0
  0
LINE
  5
2E44
330
BF7
100
AcDbEntity
  8
1
100
AcDbLine
 10
107.430057
 20
4.007365
 30
0.0
 11
108.6744819999999
 21
3.695105000000001
 31
0.0
  0
LINE
  5
2E45
330
BF7
100
AcDbEntity
  8
1
100
AcDbLine
 10
106.176984
 20
4.210894999999997
 30
0.0
 11
107.430057
 21
4.007365
 31
0.0
  0
LINE
  5
2E46
330
BF7
100
AcDbEntity
  8
1
100
AcDbLine
 10
104.932559
 20
4.297030000000003
 30
0.0
 11
106.176984
 21
4.210894999999997
 31
0.0
  0
LINE
  5
2E47
330
BF7
100
AcDbEntity
  8
1
100
AcDbLine
 10
104.645537
 20
4.28946
 30
0.0
 11
104.932559
 21
4.297030000000003
 31
0.0
  0
LINE
  5
2E48
330
BF7
100
AcDbEntity
  8
1
100
AcDbLine
 10
82.36557400000005
 20
-3.880077999999997
 30
0.0
 11
83.910247
 21
-3.695079999999995
 31
0.0
  0
LINE
  5
2E49
330
BF7
100
AcDbEntity
  8
1
100
AcDbLine
 10
81.11257399999997
 20
-3.888941999999995
 30
0.0
 11
82.36557400000005
 21
-3.880077999999997
 31
0.0
  0
LINE
  5
2E4A
330
BF7
100
AcDbEntity
  8
1
100
AcDbLine
 10
79.868222
 20
-3.779485999999998
 30
0.0
 11
81.11257399999997
 21
-3.888941999999995
 31
0.0
  0
LINE
  5
2E4B
330
BF7
100
AcDbEntity
  8
1
100
AcDbLine
 10
78.61519800000002
 20
-3.553390999999995
 30
0.0
 11
79.868222
 21
-3.779485999999998
 31
0.0
  0
LINE
  5
2E4C
330
BF7
100
AcDbEntity
  8
1
100
AcDbLine
 10
77.37082099999998
 20
-3.220282999999998
 30
0.0
 11
78.61519800000002
 21
-3.553390999999995
 31
0.0
  0
LINE
  5
2E4D
330
BF7
100
AcDbEntity
  8
1
100
AcDbLine
 10
76.11779699999998
 20
-2.785287999999995
 30
0.0
 11
77.37082099999998
 21
-3.220282999999998
 31
0.0
  0
LINE
  5
2E4E
330
BF7
100
AcDbEntity
  8
1
100
AcDbLine
 10
74.87344500000003
 20
-2.266915999999997
 30
0.0
 11
76.11779699999998
 21
-2.785287999999995
 31
0.0
  0
LINE
  5
2E4F
330
BF7
100
AcDbEntity
  8
1
100
AcDbLine
 10
73.62042000000002
 20
-1.673138999999995
 30
0.0
 11
74.87344500000003
 21
-2.266915999999997
 31
0.0
  0
LINE
  5
2E50
330
BF7
100
AcDbEntity
  8
1
100
AcDbLine
 10
72.37604400000002
 20
-1.029239999999997
 30
0.0
 11
73.62042000000002
 21
-1.673138999999995
 31
0.0
  0
LINE
  5
2E51
330
BF7
100
AcDbEntity
  8
1
100
AcDbLine
 10
71.12304399999998
 20
-0.3451099999999982
 30
0.0
 11
72.37604400000002
 21
-1.029239999999997
 31
0.0
  0
LINE
  5
2E52
330
BF7
100
AcDbEntity
  8
1
100
AcDbLine
 10
69.87866699999996
 20
0.3501150000000024
 30
0.0
 11
71.12304399999998
 21
-0.3451099999999982
 31
0.0
  0
LINE
  5
2E53
330
BF7
100
AcDbEntity
  8
1
100
AcDbLine
 10
68.62564300000002
 20
1.045760000000001
 30
0.0
 11
69.87866699999996
 21
0.3501150000000024
 31
0.0
  0
LINE
  5
2E54
330
BF7
100
AcDbEntity
  8
1
100
AcDbLine
 10
67.38124199999998
 20
1.712197999999998
 30
0.0
 11
68.62564300000002
 21
1.045760000000001
 31
0.0
  0
LINE
  5
2E55
330
BF7
100
AcDbEntity
  8
1
100
AcDbLine
 10
66.12819400000001
 20
2.339207000000004
 30
0.0
 11
67.38124199999998
 21
1.712197999999998
 31
0.0
  0
LINE
  5
2E56
330
BF7
100
AcDbEntity
  8
1
100
AcDbLine
 10
64.88374400000001
 20
2.900065000000001
 30
0.0
 11
66.12819400000001
 21
2.339207000000004
 31
0.0
  0
LINE
  5
2E57
330
BF7
100
AcDbEntity
  8
1
100
AcDbLine
 10
63.62975100000003
 20
3.386481000000001
 30
0.0
 11
64.88374400000001
 21
2.900065000000001
 31
0.0
  0
LINE
  5
2E58
330
BF7
100
AcDbEntity
  8
1
100
AcDbLine
 10
62.34545500000002
 20
3.787680000000001
 30
0.0
 11
63.62975100000003
 21
3.386481000000001
 31
0.0
  0
LINE
  5
2E59
330
BF7
100
AcDbEntity
  8
1
100
AcDbLine
 10
61.06113399999998
 20
4.079171999999998
 30
0.0
 11
62.34545500000002
 21
3.787680000000001
 31
0.0
  0
LINE
  5
2E5A
330
BF7
100
AcDbEntity
  8
1
100
AcDbLine
 10
59.81244500000002
 20
4.248063000000004
 30
0.0
 11
61.06113399999998
 21
4.079171999999998
 31
0.0
  0
LINE
  5
2E5B
330
BF7
100
AcDbEntity
  8
1
100
AcDbLine
 10
58.64732800000002
 20
4.296431
 30
0.0
 11
59.81244500000002
 21
4.248063000000004
 31
0.0
  0
LINE
  5
2E5C
330
BF7
100
AcDbEntity
  8
1
100
AcDbLine
 10
36.08731900000001
 20
-3.892408999999997
 30
0.0
 11
37.89219900000003
 21
-3.694558999999998
 31
0.0
  0
LINE
  5
2E5D
330
BF7
100
AcDbEntity
  8
1
100
AcDbLine
 10
34.84287000000001
 20
-3.875166
 30
0.0
 11
36.08731900000001
 21
-3.892408999999997
 31
0.0
  0
LINE
  5
2E5E
330
BF7
100
AcDbEntity
  8
1
100
AcDbLine
 10
33.58003500000001
 20
-3.737600999999997
 30
0.0
 11
34.84287000000001
 21
-3.875166
 31
0.0
  0
LINE
  5
2E5F
330
BF7
100
AcDbEntity
  8
1
100
AcDbLine
 10
32.326042
 20
-3.485332999999997
 30
0.0
 11
33.58003500000001
 21
-3.737600999999997
 31
0.0
  0
LINE
  5
2E60
330
BF7
100
AcDbEntity
  8
1
100
AcDbLine
 10
31.04174599999999
 20
-3.115053999999997
 30
0.0
 11
32.326042
 21
-3.485332999999997
 31
0.0
  0
LINE
  5
2E61
330
BF7
100
AcDbEntity
  8
1
100
AcDbLine
 10
29.75742500000001
 20
-2.643390999999997
 30
0.0
 11
31.04174599999999
 21
-3.115053999999997
 31
0.0
  0
LINE
  5
2E62
330
BF7
100
AcDbEntity
  8
1
100
AcDbLine
 10
28.508736
 20
-2.100670999999996
 30
0.0
 11
29.75742500000001
 21
-2.643390999999997
 31
0.0
  0
LINE
  5
2E63
330
BF7
100
AcDbEntity
  8
1
100
AcDbLine
 10
27.26004800000001
 20
-1.491417999999995
 30
0.0
 11
28.508736
 21
-2.100670999999996
 31
0.0
  0
LINE
  5
2E64
330
BF7
100
AcDbEntity
  8
1
100
AcDbLine
 10
26.007048
 20
-0.8306149999999981
 30
0.0
 11
27.26004800000001
 21
-1.491417999999995
 31
0.0
  0
LINE
  5
2E65
330
BF7
100
AcDbEntity
  8
1
100
AcDbLine
 10
24.76267200000001
 20
-0.1445139999999974
 30
0.0
 11
26.007048
 21
-0.8306149999999981
 31
0.0
  0
LINE
  5
2E66
330
BF7
100
AcDbEntity
  8
1
100
AcDbLine
 10
23.50967199999999
 20
0.5563400000000023
 30
0.0
 11
24.76267200000001
 21
-0.1445139999999974
 31
0.0
  0
LINE
  5
2E67
330
BF7
100
AcDbEntity
  8
1
100
AcDbLine
 10
22.26529500000001
 20
1.242111000000001
 30
0.0
 11
23.50967199999999
 21
0.5563400000000023
 31
0.0
  0
LINE
  5
2E68
330
BF7
100
AcDbEntity
  8
1
100
AcDbLine
 10
21.012295
 20
1.902255000000003
 30
0.0
 11
22.26529500000001
 21
1.242111000000001
 31
0.0
  0
LINE
  5
2E69
330
BF7
100
AcDbEntity
  8
1
100
AcDbLine
 10
19.76791800000001
 20
2.508661000000003
 30
0.0
 11
21.012295
 21
1.902255000000003
 31
0.0
  0
LINE
  5
2E6A
330
BF7
100
AcDbEntity
  8
1
100
AcDbLine
 10
18.51491800000002
 20
3.052018000000003
 30
0.0
 11
19.76791800000001
 21
2.508661000000003
 31
0.0
  0
LINE
  5
2E6B
330
BF7
100
AcDbEntity
  8
1
100
AcDbLine
 10
17.270554
 20
3.509188000000003
 30
0.0
 11
18.51491800000002
 21
3.052018000000003
 31
0.0
  0
LINE
  5
2E6C
330
BF7
100
AcDbEntity
  8
1
100
AcDbLine
 10
16.01751800000002
 20
3.873149000000001
 30
0.0
 11
17.270554
 21
3.509188000000003
 31
0.0
  0
LINE
  5
2E6D
330
BF7
100
AcDbEntity
  8
1
100
AcDbLine
 10
14.77312900000001
 20
4.128396000000002
 30
0.0
 11
16.01751800000002
 21
3.873149000000001
 31
0.0
  0
LINE
  5
2E6E
330
BF7
100
AcDbEntity
  8
1
100
AcDbLine
 10
13.51487199999999
 20
4.271349999999999
 30
0.0
 11
14.77312900000001
 21
4.128396000000002
 31
0.0
  0
LINE
  5
2E6F
330
BF7
100
AcDbEntity
  8
1
100
AcDbLine
 10
12.646951
 20
4.287504000000001
 30
0.0
 11
13.51487199999999
 21
4.271349999999999
 31
0.0
  0
LINE
  5
2E70
330
BF7
100
AcDbEntity
  8
1
100
AcDbLine
 10
149.433621
 20
4.298175000000004
 30
0.0
 11
150.759606
 21
4.254125000000004
 31
0.0
  0
LINE
  5
2E71
330
BF7
100
AcDbEntity
  8
1
100
AcDbLine
 10
148.117931
 20
4.209354000000001
 30
0.0
 11
149.433621
 21
4.298175000000004
 31
0.0
  0
LINE
  5
2E72
330
BF7
100
AcDbEntity
  8
1
100
AcDbLine
 10
146.855048
 20
4.002519999999998
 30
0.0
 11
148.117931
 21
4.209354000000001
 31
0.0
  0
LINE
  5
2E73
330
BF7
100
AcDbEntity
  8
1
100
AcDbLine
 10
145.600933
 20
3.685461000000001
 30
0.0
 11
146.855048
 21
4.002519999999998
 31
0.0
  0
LINE
  5
2E74
330
BF7
100
AcDbEntity
  8
1
100
AcDbLine
 10
144.316637
 20
3.255009000000001
 30
0.0
 11
145.600933
 21
3.685461000000001
 31
0.0
  0
LINE
  5
2E75
330
BF7
100
AcDbEntity
  8
1
100
AcDbLine
 10
143.032389
 20
2.731119000000003
 30
0.0
 11
144.316637
 21
3.255009000000001
 31
0.0
  0
LINE
  5
2E76
330
BF7
100
AcDbEntity
  8
1
100
AcDbLine
 10
142.746287
 20
2.597237000000002
 30
0.0
 11
143.032389
 21
2.731119000000003
 31
0.0
  0
LINE
  5
2E77
330
BF7
100
AcDbEntity
  8
1
100
AcDbLine
 10
124.207496
 20
-3.671608999999998
 30
0.0
 11
126.660932
 21
-3.897831999999997
 31
0.0
  0
LINE
  5
2E78
330
BF7
100
AcDbEntity
  8
1
100
AcDbLine
 10
122.963096
 20
-3.387662999999998
 30
0.0
 11
124.207496
 21
-3.671608999999998
 31
0.0
  0
LINE
  5
2E79
330
BF7
100
AcDbEntity
  8
1
100
AcDbLine
 10
121.70014
 20
-2.993851999999995
 30
0.0
 11
122.963096
 21
-3.387662999999998
 31
0.0
  0
LINE
  5
2E7A
330
BF7
100
AcDbEntity
  8
1
100
AcDbLine
 10
120.446025
 20
-2.508935999999998
 30
0.0
 11
121.70014
 21
-2.993851999999995
 31
0.0
  0
LINE
  5
2E7B
330
BF7
100
AcDbEntity
  8
1
100
AcDbLine
 10
119.162068
 20
-1.930217999999995
 30
0.0
 11
120.446025
 21
-2.508935999999998
 31
0.0
  0
LINE
  5
2E7C
330
BF7
100
AcDbEntity
  8
1
100
AcDbLine
 10
117.878111
 20
-1.286355999999994
 30
0.0
 11
119.162068
 21
-1.930217999999995
 31
0.0
  0
LINE
  5
2E7D
330
BF7
100
AcDbEntity
  8
1
100
AcDbLine
 10
116.629689
 20
-0.6163600000000004
 30
0.0
 11
117.878111
 21
-1.286355999999994
 31
0.0
  0
LINE
  5
2E7E
330
BF7
100
AcDbEntity
  8
1
100
AcDbLine
 10
115.381194
 20
0.0771300000000039
 30
0.0
 11
116.629689
 21
-0.6163600000000004
 31
0.0
  0
LINE
  5
2E7F
330
BF7
100
AcDbEntity
  8
1
100
AcDbLine
 10
114.128412
 20
0.7766509999999977
 30
0.0
 11
115.381194
 21
0.0771300000000039
 31
0.0
  0
LINE
  5
2E80
330
BF7
100
AcDbEntity
  8
1
100
AcDbLine
 10
112.8843749999999
 20
1.454944000000004
 30
0.0
 11
114.128412
 21
0.7766509999999977
 31
0.0
  0
LINE
  5
2E81
330
BF7
100
AcDbEntity
  8
1
100
AcDbLine
 10
111.631762
 20
2.101463999999999
 30
0.0
 11
112.8843749999999
 21
1.454944000000004
 31
0.0
  0
LINE
  5
2E82
330
BF7
100
AcDbEntity
  8
1
100
AcDbLine
 10
110.387676
 20
2.688400999999998
 30
0.0
 11
111.631762
 21
2.101463999999999
 31
0.0
  0
LINE
  5
2E83
330
BF7
100
AcDbEntity
  8
1
100
AcDbLine
 10
109.124624
 20
3.210613999999998
 30
0.0
 11
110.387676
 21
2.688400999999998
 31
0.0
  0
LINE
  5
2E84
330
BF7
100
AcDbEntity
  8
1
100
AcDbLine
 10
107.870437
 20
3.640893000000001
 30
0.0
 11
109.124624
 21
3.210613999999998
 31
0.0
  0
LINE
  5
2E85
330
BF7
100
AcDbEntity
  8
1
100
AcDbLine
 10
106.586092
 20
3.977100999999997
 30
0.0
 11
107.870437
 21
3.640893000000001
 31
0.0
  0
LINE
  5
2E86
330
BF7
100
AcDbEntity
  8
1
100
AcDbLine
 10
105.301795
 20
4.197766000000004
 30
0.0
 11
106.586092
 21
3.977100999999997
 31
0.0
  0
LINE
  5
2E87
330
BF7
100
AcDbEntity
  8
1
100
AcDbLine
 10
104.052937
 20
4.294113999999995
 30
0.0
 11
105.301795
 21
4.197766000000004
 31
0.0
  0
LINE
  5
2E88
330
BF7
100
AcDbEntity
  8
1
100
AcDbLine
 10
102.803958
 20
4.272065000000001
 30
0.0
 11
104.052937
 21
4.294113999999995
 31
0.0
  0
LINE
  5
2E89
330
BF7
100
AcDbEntity
  8
1
100
AcDbLine
 10
101.5506919999999
 20
4.130994000000002
 30
0.0
 11
102.803958
 21
4.272065000000001
 31
0.0
  0
LINE
  5
2E8A
330
BF7
100
AcDbEntity
  8
1
100
AcDbLine
 10
100.306267
 20
3.877098000000001
 30
0.0
 11
101.5506919999999
 21
4.130994000000002
 31
0.0
  0
LINE
  5
2E8B
330
BF7
100
AcDbEntity
  8
1
100
AcDbLine
 10
99.04306900000001
 20
3.510925999999995
 30
0.0
 11
100.306267
 21
3.877098000000001
 31
0.0
  0
LINE
  5
2E8C
330
BF7
100
AcDbEntity
  8
1
100
AcDbLine
 10
97.78861499999999
 20
3.050088999999998
 30
0.0
 11
99.04306900000001
 21
3.510925999999995
 31
0.0
  0
LINE
  5
2E8D
330
BF7
100
AcDbEntity
  8
1
100
AcDbLine
 10
96.74185300000004
 20
2.594848000000002
 30
0.0
 11
97.78861499999999
 21
3.050088999999998
 31
0.0
  0
LINE
  5
2E8E
330
BF7
100
AcDbEntity
  8
1
100
AcDbLine
 10
78.61626300000001
 20
-3.740655999999995
 30
0.0
 11
80.66255299999998
 21
-3.884419999999998
 31
0.0
  0
LINE
  5
2E8F
330
BF7
100
AcDbEntity
  8
1
100
AcDbLine
 10
77.35764399999998
 20
-3.489361999999998
 30
0.0
 11
78.61626300000001
 21
-3.740655999999995
 31
0.0
  0
LINE
  5
2E90
330
BF7
100
AcDbEntity
  8
1
100
AcDbLine
 10
76.06249500000001
 20
-3.116941
 30
0.0
 11
77.35764399999998
 21
-3.489361999999998
 31
0.0
  0
LINE
  5
2E91
330
BF7
100
AcDbEntity
  8
1
100
AcDbLine
 10
74.76739500000002
 20
-2.641352999999996
 30
0.0
 11
76.06249500000001
 21
-3.116941
 31
0.0
  0
LINE
  5
2E92
330
BF7
100
AcDbEntity
  8
1
100
AcDbLine
 10
73.50882300000002
 20
-2.093618999999999
 30
0.0
 11
74.76739500000002
 21
-2.641352999999996
 31
0.0
  0
LINE
  5
2E93
330
BF7
100
AcDbEntity
  8
1
100
AcDbLine
 10
72.25025199999997
 20
-1.478528999999998
 30
0.0
 11
73.50882300000002
 21
-2.093618999999999
 31
0.0
  0
LINE
  5
2E94
330
BF7
100
AcDbEntity
  8
1
100
AcDbLine
 10
70.95510300000005
 20
-0.7941379999999967
 30
0.0
 11
72.25025199999997
 21
-1.478528999999998
 31
0.0
  0
LINE
  5
2E95
330
BF7
100
AcDbEntity
  8
1
100
AcDbLine
 10
69.65995500000002
 20
-0.0788529999999987
 30
0.0
 11
70.95510300000005
 21
-0.7941379999999967
 31
0.0
  0
LINE
  5
2E96
330
BF7
100
AcDbEntity
  8
1
100
AcDbLine
 10
68.40138300000001
 20
0.6250220000000013
 30
0.0
 11
69.65995500000002
 21
-0.0788529999999987
 31
0.0
  0
LINE
  5
2E97
330
BF7
100
AcDbEntity
  8
1
100
AcDbLine
 10
67.14286000000001
 20
1.316504000000001
 30
0.0
 11
68.40138300000001
 21
0.6250220000000013
 31
0.0
  0
LINE
  5
2E98
330
BF7
100
AcDbEntity
  8
1
100
AcDbLine
 10
65.84783300000001
 20
1.993253000000002
 30
0.0
 11
67.14286000000001
 21
1.316504000000001
 31
0.0
  0
LINE
  5
2E99
330
BF7
100
AcDbEntity
  8
1
100
AcDbLine
 10
64.552708
 20
2.614138999999997
 30
0.0
 11
65.84783300000001
 21
1.993253000000002
 31
0.0
  0
LINE
  5
2E9A
330
BF7
100
AcDbEntity
  8
1
100
AcDbLine
 10
63.29408799999999
 20
3.145252999999998
 30
0.0
 11
64.552708
 21
2.614138999999997
 31
0.0
  0
LINE
  5
2E9B
330
BF7
100
AcDbEntity
  8
1
100
AcDbLine
 10
62.03551700000002
 20
3.589930000000001
 30
0.0
 11
63.29408799999999
 21
3.145252999999998
 31
0.0
  0
LINE
  5
2E9C
330
BF7
100
AcDbEntity
  8
1
100
AcDbLine
 10
60.74041699999998
 20
3.942713000000004
 30
0.0
 11
62.03551700000002
 21
3.589930000000001
 31
0.0
  0
LINE
  5
2E9D
330
BF7
100
AcDbEntity
  8
1
100
AcDbLine
 10
59.44529199999998
 20
4.179092999999999
 30
0.0
 11
60.74041699999998
 21
3.942713000000004
 31
0.0
  0
LINE
  5
2E9E
330
BF7
100
AcDbEntity
  8
1
100
AcDbLine
 10
58.186624
 20
4.289406000000003
 30
0.0
 11
59.44529199999998
 21
4.179092999999999
 31
0.0
  0
LINE
  5
2E9F
330
BF7
100
AcDbEntity
  8
1
100
AcDbLine
 10
56.92798000000002
 20
4.279592000000004
 30
0.0
 11
58.186624
 21
4.289406000000003
 31
0.0
  0
LINE
  5
2EA0
330
BF7
100
AcDbEntity
  8
1
100
AcDbLine
 10
55.63283100000001
 20
4.143503
 30
0.0
 11
56.92798000000002
 21
4.279592000000004
 31
0.0
  0
LINE
  5
2EA1
330
BF7
100
AcDbEntity
  8
1
100
AcDbLine
 10
54.337707
 20
3.884798000000003
 30
0.0
 11
55.63283100000001
 21
4.143503
 31
0.0
  0
LINE
  5
2EA2
330
BF7
100
AcDbEntity
  8
1
100
AcDbLine
 10
53.07906299999999
 20
3.522683
 30
0.0
 11
54.337707
 21
3.884798000000003
 31
0.0
  0
LINE
  5
2EA3
330
BF7
100
AcDbEntity
  8
1
100
AcDbLine
 10
51.82039500000001
 20
3.062961000000001
 30
0.0
 11
53.07906299999999
 21
3.522683
 31
0.0
  0
LINE
  5
2EA4
330
BF7
100
AcDbEntity
  8
1
100
AcDbLine
 10
50.75355100000002
 20
2.600559
 30
0.0
 11
51.82039500000001
 21
3.062961000000001
 31
0.0
  0
LINE
  5
2EA5
330
BF7
100
AcDbEntity
  8
1
100
AcDbLine
 10
32.64952099999999
 20
-3.745769999999995
 30
0.0
 11
34.663714
 21
-3.884125999999998
 31
0.0
  0
LINE
  5
2EA6
330
BF7
100
AcDbEntity
  8
1
100
AcDbLine
 10
31.39107000000001
 20
-3.497425999999995
 30
0.0
 11
32.64952099999999
 21
-3.745769999999995
 31
0.0
  0
LINE
  5
2EA7
330
BF7
100
AcDbEntity
  8
1
100
AcDbLine
 10
30.09577600000004
 20
-3.127699999999995
 30
0.0
 11
31.39107000000001
 21
-3.497425999999995
 31
0.0
  0
LINE
  5
2EA8
330
BF7
100
AcDbEntity
  8
1
100
AcDbLine
 10
28.80033700000002
 20
-2.654603999999995
 30
0.0
 11
30.09577600000004
 21
-3.127699999999995
 31
0.0
  0
LINE
  5
2EA9
330
BF7
100
AcDbEntity
  8
1
100
AcDbLine
 10
27.54140200000001
 20
-2.109016
 30
0.0
 11
28.80033700000002
 21
-2.654603999999995
 31
0.0
  0
LINE
  5
2EAA
330
BF7
100
AcDbEntity
  8
1
100
AcDbLine
 10
26.28263700000002
 20
-1.495363999999996
 30
0.0
 11
27.54140200000001
 21
-2.109016
 31
0.0
  0
LINE
  5
2EAB
330
BF7
100
AcDbEntity
  8
1
100
AcDbLine
 10
24.98576800000001
 20
-0.8105889999999964
 30
0.0
 11
26.28263700000002
 21
-1.495363999999996
 31
0.0
  0
LINE
  5
2EAC
330
BF7
100
AcDbEntity
  8
1
100
AcDbLine
 10
23.68877900000001
 20
-0.0944619999999965
 30
0.0
 11
24.98576800000001
 21
-0.8105889999999964
 31
0.0
  0
LINE
  5
2EAD
330
BF7
100
AcDbEntity
  8
1
100
AcDbLine
 10
22.42820900000001
 20
0.6101279999999996
 30
0.0
 11
23.68877900000001
 21
-0.0944619999999965
 31
0.0
  0
LINE
  5
2EAE
330
BF7
100
AcDbEntity
  8
1
100
AcDbLine
 10
21.16761500000001
 20
1.302600000000004
 30
0.0
 11
22.42820900000001
 21
0.6101279999999996
 31
0.0
  0
LINE
  5
2EAF
330
BF7
100
AcDbEntity
  8
1
100
AcDbLine
 10
19.87840099999999
 20
1.977432000000003
 30
0.0
 11
21.16761500000001
 21
1.302600000000004
 31
0.0
  0
LINE
  5
2EB0
330
BF7
100
AcDbEntity
  8
1
100
AcDbLine
 10
18.58955
 20
2.597973000000003
 30
0.0
 11
19.87840099999999
 21
1.977432000000003
 31
0.0
  0
LINE
  5
2EB1
330
BF7
100
AcDbEntity
  8
1
100
AcDbLine
 10
17.336611
 20
3.129884
 30
0.0
 11
18.58955
 21
2.597973000000003
 31
0.0
  0
LINE
  5
2EB2
330
BF7
100
AcDbEntity
  8
1
100
AcDbLine
 10
16.08246
 20
3.575127000000001
 30
0.0
 11
17.336611
 21
3.129884
 31
0.0
  0
LINE
  5
2EB3
330
BF7
100
AcDbEntity
  8
1
100
AcDbLine
 10
15.40294800000001
 20
3.773134000000001
 30
0.0
 11
16.08250900000001
 21
3.575111000000001
 31
0.0
  0
LINE
  5
2EB4
330
BF7
100
AcDbEntity
  8
1
100
AcDbLine
 10
14.30471
 20
4.008475999999998
 30
0.0
 11
15.40294800000001
 21
3.773134000000001
 31
0.0
  0
LINE
  5
2EB5
330
BF7
100
AcDbEntity
  8
1
100
AcDbLine
 10
12.38277099999999
 20
4.222167999999999
 30
0.0
 11
14.30471
 21
4.008475999999998
 31
0.0
  0
LINE
  5
2EB6
330
BF7
100
AcDbEntity
  8
1
100
AcDbLine
 10
10.41751999999999
 20
4.287828000000001
 30
0.0
 11
12.38277099999999
 21
4.222167999999999
 31
0.0
  0
LINE
  5
2EB7
330
BF7
100
AcDbEntity
  8
1
100
AcDbLine
 10
8.448963000000018
 20
4.297916999999999
 30
0.0
 11
10.41751999999999
 21
4.287828000000001
 31
0.0
  0
LINE
  5
2EB8
330
BF7
100
AcDbEntity
  8
1
100
AcDbLine
 10
6.873828999999998
 20
4.294499000000004
 30
0.0
 11
8.448963000000018
 21
4.297916999999999
 31
0.0
  0
LINE
  5
2EB9
330
BF7
100
AcDbEntity
  8
1
100
AcDbLine
 10
6.690919000000008
 20
4.279235000000001
 30
0.0
 11
6.873828999999998
 21
4.294499000000004
 31
0.0
  0
LINE
  5
2EBA
330
BF7
100
AcDbEntity
  8
1
100
AcDbLine
 10
6.141618999999991
 20
4.117675000000003
 30
0.0
 11
6.690919000000008
 21
4.279235000000001
 31
0.0
  0
LINE
  5
2EBB
330
BF7
100
AcDbEntity
  8
1
100
AcDbLine
 10
5.939657000000011
 20
3.895541000000001
 30
0.0
 11
6.141618999999991
 21
4.117675000000003
 31
0.0
  0
LINE
  5
2EBC
330
BF7
100
AcDbEntity
  8
1
100
AcDbLine
 10
5.926333999999997
 20
3.537247
 30
0.0
 11
5.939657000000011
 21
3.895541000000001
 31
0.0
  0
LINE
  5
2EBD
330
BF7
100
AcDbEntity
  8
1
100
AcDbLine
 10
6.126697000000008
 20
3.104086000000001
 30
0.0
 11
5.926333999999997
 21
3.537247
 31
0.0
  0
LINE
  5
2EBE
330
BF7
100
AcDbEntity
  8
1
100
AcDbLine
 10
6.399718000000008
 20
2.736418000000004
 30
0.0
 11
6.126697000000008
 21
3.104086000000001
 31
0.0
  0
LINE
  5
2EBF
330
BF7
100
AcDbEntity
  8
1
100
AcDbLine
 10
6.738808000000005
 20
2.367342000000002
 30
0.0
 11
6.399718000000008
 21
2.736418000000004
 31
0.0
  0
LINE
  5
2EC0
330
BF7
100
AcDbEntity
  8
1
100
AcDbLine
 10
7.525001000000002
 20
1.659613000000003
 30
0.0
 11
6.738808000000005
 21
2.367342000000002
 31
0.0
  0
LINE
  5
2EC1
330
BF7
100
AcDbEntity
  8
1
100
AcDbLine
 10
8.687526999999986
 20
0.7885540000000013
 30
0.0
 11
7.525001000000002
 21
1.659613000000003
 31
0.0
  0
LINE
  5
2EC2
330
BF7
100
AcDbEntity
  8
1
100
AcDbLine
 10
9.926780000000007
 20
-0.0089179999999942
 30
0.0
 11
8.687526999999986
 21
0.7885540000000013
 31
0.0
  0
LINE
  5
2EC3
330
BF7
100
AcDbEntity
  8
1
100
AcDbLine
 10
11.03368900000001
 20
-0.6416939999999977
 30
0.0
 11
9.926780000000007
 21
-0.0089179999999942
 31
0.0
  0
LINE
  5
2EC4
330
BF7
100
AcDbEntity
  8
1
100
AcDbLine
 10
13.05203700000001
 20
-1.702024999999999
 30
0.0
 11
11.03444000000002
 21
-0.6421059999999949
 31
0.0
  0
LINE
  5
2EC5
330
BF7
100
AcDbEntity
  8
1
100
AcDbLine
 10
15.034208
 20
-2.604248999999998
 30
0.0
 11
13.05203700000001
 21
-1.702024999999999
 31
0.0
  0
LINE
  5
2EC6
330
BF7
100
AcDbEntity
  8
1
100
AcDbLine
 10
15.034208
 20
-2.604248999999998
 30
0.0
 11
9.389700000000003
 21
-2.604248999999998
 31
0.0
  0
LINE
  5
2EC7
330
BF7
100
AcDbEntity
  8
1
100
AcDbLine
 10
8.991396000000008
 20
-3.274648999999995
 30
0.0
 11
8.985994000000005
 21
-3.397948999999995
 31
0.0
  0
LINE
  5
2EC8
330
BF7
100
AcDbEntity
  8
1
100
AcDbLine
 10
9.096162000000019
 20
-2.849807999999995
 30
0.0
 11
8.991396000000008
 21
-3.274648999999995
 31
0.0
  0
LINE
  5
2EC9
330
BF7
100
AcDbEntity
  8
1
100
AcDbLine
 10
9.193843000000015
 20
-2.700997999999998
 30
0.0
 11
9.096162000000019
 21
-2.849807999999995
 31
0.0
  0
LINE
  5
2ECA
330
BF7
100
AcDbEntity
  8
1
100
AcDbLine
 10
9.269903999999996
 20
-2.638693999999996
 30
0.0
 11
9.193843000000015
 21
-2.700997999999998
 31
0.0
  0
LINE
  5
2ECB
330
BF7
100
AcDbEntity
  8
1
100
AcDbLine
 10
9.331564000000012
 20
-2.612193999999997
 30
0.0
 11
9.269903999999996
 21
-2.638693999999996
 31
0.0
  0
LINE
  5
2ECC
330
BF7
100
AcDbEntity
  8
1
100
AcDbLine
 10
9.389700000000003
 20
-2.604248999999998
 30
0.0
 11
9.331564000000012
 21
-2.612193999999997
 31
0.0
  0
LINE
  5
2ECD
330
BF7
100
AcDbEntity
  8
1
100
AcDbLine
 10
149.540373
 20
-3.853133999999997
 30
0.0
 11
150.615889
 21
-3.899804999999997
 31
0.0
  0
LINE
  5
2ECE
330
BF7
100
AcDbEntity
  8
1
100
AcDbLine
 10
147.460389
 20
-3.517678999999997
 30
0.0
 11
149.540373
 21
-3.853133999999997
 31
0.0
  0
LINE
  5
2ECF
330
BF7
100
AcDbEntity
  8
1
100
AcDbLine
 10
146.207389
 20
-3.168968999999998
 30
0.0
 11
147.460389
 21
-3.517678999999997
 31
0.0
  0
LINE
  5
2ED0
330
BF7
100
AcDbEntity
  8
1
100
AcDbLine
 10
144.963012
 20
-2.725204999999998
 30
0.0
 11
146.207389
 21
-3.168968999999998
 31
0.0
  0
LINE
  5
2ED1
330
BF7
100
AcDbEntity
  8
1
100
AcDbLine
 10
143.710012
 20
-2.193204999999998
 30
0.0
 11
144.963012
 21
-2.725204999999998
 31
0.0
  0
LINE
  5
2ED2
330
BF7
100
AcDbEntity
  8
1
100
AcDbLine
 10
142.4656359999999
 20
-1.595617999999993
 30
0.0
 11
143.710012
 21
-2.193204999999998
 31
0.0
  0
LINE
  5
2ED3
330
BF7
100
AcDbEntity
  8
1
100
AcDbLine
 10
141.212563
 20
-0.9415999999999975
 30
0.0
 11
142.4656359999999
 21
-1.595617999999993
 31
0.0
  0
LINE
  5
2ED4
330
BF7
100
AcDbEntity
  8
1
100
AcDbLine
 10
139.968138
 20
-0.2590259999999951
 30
0.0
 11
141.212563
 21
-0.9415999999999975
 31
0.0
  0
LINE
  5
2ED5
330
BF7
100
AcDbEntity
  8
1
100
AcDbLine
 10
138.714145
 20
0.4421390000000012
 30
0.0
 11
139.968138
 21
-0.2590259999999951
 31
0.0
  0
LINE
  5
2ED6
330
BF7
100
AcDbEntity
  8
1
100
AcDbLine
 10
137.429824
 20
1.152679000000002
 30
0.0
 11
138.714145
 21
0.4421390000000012
 31
0.0
  0
LINE
  5
2ED7
330
BF7
100
AcDbEntity
  8
1
100
AcDbLine
 10
136.145527
 20
1.834095999999996
 30
0.0
 11
137.429824
 21
1.152679000000002
 31
0.0
  0
LINE
  5
2ED8
330
BF7
100
AcDbEntity
  8
1
100
AcDbLine
 10
134.896863
 20
2.448526999999998
 30
0.0
 11
136.145527
 21
1.834095999999996
 31
0.0
  0
LINE
  5
2ED9
330
BF7
100
AcDbEntity
  8
1
100
AcDbLine
 10
133.648175
 20
2.997938999999998
 30
0.0
 11
134.896863
 21
2.448526999999998
 31
0.0
  0
LINE
  5
2EDA
330
BF7
100
AcDbEntity
  8
1
100
AcDbLine
 10
132.395175
 20
3.467505000000001
 30
0.0
 11
133.648175
 21
2.997938999999998
 31
0.0
  0
LINE
  5
2EDB
330
BF7
100
AcDbEntity
  8
1
100
AcDbLine
 10
131.150798
 20
3.839375999999997
 30
0.0
 11
132.395175
 21
3.467505000000001
 31
0.0
  0
LINE
  5
2EDC
330
BF7
100
AcDbEntity
  8
1
100
AcDbLine
 10
129.897798
 20
4.107828000000001
 30
0.0
 11
131.150798
 21
3.839375999999997
 31
0.0
  0
LINE
  5
2EDD
330
BF7
100
AcDbEntity
  8
1
100
AcDbLine
 10
128.6534459999999
 20
4.261440000000003
 30
0.0
 11
129.897798
 21
4.107828000000001
 31
0.0
  0
LINE
  5
2EDE
330
BF7
100
AcDbEntity
  8
1
100
AcDbLine
 10
127.644569
 20
4.290752999999996
 30
0.0
 11
128.6534459999999
 21
4.261440000000003
 31
0.0
  0
LINE
  5
2EDF
330
BF7
100
AcDbEntity
  8
1
100
AcDbLine
 10
104.932559
 20
-3.896709999999998
 30
0.0
 11
106.889465
 21
-3.694850999999995
 31
0.0
  0
LINE
  5
2EE0
330
BF7
100
AcDbEntity
  8
1
100
AcDbLine
 10
103.669724
 20
-3.863402999999998
 30
0.0
 11
104.932559
 21
-3.896709999999998
 31
0.0
  0
LINE
  5
2EE1
330
BF7
100
AcDbEntity
  8
1
100
AcDbLine
 10
102.415731
 20
-3.710978999999998
 30
0.0
 11
103.669724
 21
-3.863402999999998
 31
0.0
  0
LINE
  5
2EE2
330
BF7
100
AcDbEntity
  8
1
100
AcDbLine
 10
101.131434
 20
-3.436069999999995
 30
0.0
 11
102.415731
 21
-3.710978999999998
 31
0.0
  0
LINE
  5
2EE3
330
BF7
100
AcDbEntity
  8
1
100
AcDbLine
 10
99.84711400000003
 20
-3.049965999999995
 30
0.0
 11
101.131434
 21
-3.436069999999995
 31
0.0
  0
LINE
  5
2EE4
330
BF7
100
AcDbEntity
  8
1
100
AcDbLine
 10
98.59844900000002
 20
-2.578448999999999
 30
0.0
 11
99.84711400000003
 21
-3.049965999999995
 31
0.0
  0
LINE
  5
2EE5
330
BF7
100
AcDbEntity
  8
1
100
AcDbLine
 10
97.349761
 20
-2.026574999999995
 30
0.0
 11
98.59844900000002
 21
-2.578448999999999
 31
0.0
  0
LINE
  5
2EE6
330
BF7
100
AcDbEntity
  8
1
100
AcDbLine
 10
96.09678500000001
 20
-1.407711999999995
 30
0.0
 11
97.349761
 21
-2.026574999999995
 31
0.0
  0
LINE
  5
2EE7
330
BF7
100
AcDbEntity
  8
1
100
AcDbLine
 10
94.85243300000002
 20
-0.7465809999999955
 30
0.0
 11
96.09678500000001
 21
-1.407711999999995
 31
0.0
  0
LINE
  5
2EE8
330
BF7
100
AcDbEntity
  8
1
100
AcDbLine
 10
93.59943300000002
 20
-0.0533309999999965
 30
0.0
 11
94.85243300000002
 21
-0.7465809999999955
 31
0.0
  0
LINE
  5
2EE9
330
BF7
100
AcDbEntity
  8
1
100
AcDbLine
 10
92.35505600000001
 20
0.6425139999999985
 30
0.0
 11
93.59943300000002
 21
-0.0533309999999965
 31
0.0
  0
LINE
  5
2EEA
330
BF7
100
AcDbEntity
  8
1
100
AcDbLine
 10
91.102056
 20
1.330266000000001
 30
0.0
 11
92.35505600000001
 21
0.6425139999999985
 31
0.0
  0
LINE
  5
2EEB
330
BF7
100
AcDbEntity
  8
1
100
AcDbLine
 10
89.85768000000001
 20
1.980635000000003
 30
0.0
 11
91.102056
 21
1.330266000000001
 31
0.0
  0
LINE
  5
2EEC
330
BF7
100
AcDbEntity
  8
1
100
AcDbLine
 10
88.60468000000002
 20
2.583632999999998
 30
0.0
 11
89.85768000000001
 21
1.980635000000003
 31
0.0
  0
LINE
  5
2EED
330
BF7
100
AcDbEntity
  8
1
100
AcDbLine
 10
87.36032699999999
 20
3.113583999999999
 30
0.0
 11
88.60468000000002
 21
2.583632999999998
 31
0.0
  0
LINE
  5
2EEE
330
BF7
100
AcDbEntity
  8
1
100
AcDbLine
 10
86.107303
 20
3.562339999999998
 30
0.0
 11
87.36032699999999
 21
3.113583999999999
 31
0.0
  0
LINE
  5
2EEF
330
BF7
100
AcDbEntity
  8
1
100
AcDbLine
 10
84.86295100000003
 20
3.910792000000004
 30
0.0
 11
86.107303
 21
3.562339999999998
 31
0.0
  0
LINE
  5
2EF0
330
BF7
100
AcDbEntity
  8
1
100
AcDbLine
 10
83.60995100000002
 20
4.153592000000003
 30
0.0
 11
84.86295100000003
 21
3.910792000000004
 31
0.0
  0
LINE
  5
2EF1
330
BF7
100
AcDbEntity
  8
1
100
AcDbLine
 10
82.36557400000005
 20
4.280397999999999
 30
0.0
 11
83.60995100000002
 21
4.153592000000003
 31
0.0
  0
LINE
  5
2EF2
330
BF7
100
AcDbEntity
  8
1
100
AcDbLine
 10
81.644204
 20
4.285503000000002
 30
0.0
 11
82.36557400000005
 21
4.280397999999999
 31
0.0
  0
LINE
  5
2EF3
330
BF7
100
AcDbEntity
  8
1
100
AcDbLine
 10
59.81244500000002
 20
-3.847742999999995
 30
0.0
 11
61.06113399999998
 21
-3.678851999999998
 31
0.0
  0
LINE
  5
2EF4
330
BF7
100
AcDbEntity
  8
1
100
AcDbLine
 10
58.563781
 20
-3.899577999999998
 30
0.0
 11
59.81244500000002
 21
-3.847742999999995
 31
0.0
  0
LINE
  5
2EF5
330
BF7
100
AcDbEntity
  8
1
100
AcDbLine
 10
57.31075699999998
 20
-3.831791999999995
 30
0.0
 11
58.563781
 21
-3.899577999999998
 31
0.0
  0
LINE
  5
2EF6
330
BF7
100
AcDbEntity
  8
1
100
AcDbLine
 10
56.06640500000003
 20
-3.647858999999995
 30
0.0
 11
57.31075699999998
 21
-3.831791999999995
 31
0.0
  0
LINE
  5
2EF7
330
BF7
100
AcDbEntity
  8
1
100
AcDbLine
 10
54.81340500000001
 20
-3.350614999999997
 30
0.0
 11
56.06640500000003
 21
-3.647858999999995
 31
0.0
  0
LINE
  5
2EF8
330
BF7
100
AcDbEntity
  8
1
100
AcDbLine
 10
53.56905199999999
 20
-2.952709999999998
 30
0.0
 11
54.81340500000001
 21
-3.350614999999997
 31
0.0
  0
LINE
  5
2EF9
330
BF7
100
AcDbEntity
  8
1
100
AcDbLine
 10
52.316052
 20
-2.460254999999996
 30
0.0
 11
53.56905199999999
 21
-2.952709999999998
 31
0.0
  0
LINE
  5
2EFA
330
BF7
100
AcDbEntity
  8
1
100
AcDbLine
 10
51.07167600000003
 20
-1.894230999999995
 30
0.0
 11
52.316052
 21
-2.460254999999996
 31
0.0
  0
LINE
  5
2EFB
330
BF7
100
AcDbEntity
  8
1
100
AcDbLine
 10
49.81867600000001
 20
-1.263322999999997
 30
0.0
 11
51.07167600000003
 21
-1.894230999999995
 31
0.0
  0
LINE
  5
2EFC
330
BF7
100
AcDbEntity
  8
1
100
AcDbLine
 10
48.57429900000003
 20
-0.5943919999999993
 30
0.0
 11
49.81867600000001
 21
-1.263322999999997
 31
0.0
  0
LINE
  5
2EFD
330
BF7
100
AcDbEntity
  8
1
100
AcDbLine
 10
47.32129900000001
 20
0.1022680000000022
 30
0.0
 11
48.57429900000003
 21
-0.5943919999999993
 31
0.0
  0
LINE
  5
2EFE
330
BF7
100
AcDbEntity
  8
1
100
AcDbLine
 10
46.07694700000002
 20
0.7969960000000002
 30
0.0
 11
47.32129900000001
 21
0.1022680000000022
 31
0.0
  0
LINE
  5
2EFF
330
BF7
100
AcDbEntity
  8
1
100
AcDbLine
 10
44.82394700000003
 20
1.479124000000002
 30
0.0
 11
46.07694700000002
 21
0.7969960000000002
 31
0.0
  0
LINE
  5
2F00
330
BF7
100
AcDbEntity
  8
1
100
AcDbLine
 10
43.57957000000001
 20
2.119613000000004
 30
0.0
 11
44.82394700000003
 21
1.479124000000002
 31
0.0
  0
LINE
  5
2F01
330
BF7
100
AcDbEntity
  8
1
100
AcDbLine
 10
42.32657000000003
 20
2.708609999999998
 30
0.0
 11
43.57957000000001
 21
2.119613000000004
 31
0.0
  0
LINE
  5
2F02
330
BF7
100
AcDbEntity
  8
1
100
AcDbLine
 10
41.08221800000001
 20
3.221042000000004
 30
0.0
 11
42.32657000000003
 21
2.708609999999998
 31
0.0
  0
LINE
  5
2F03
330
BF7
100
AcDbEntity
  8
1
100
AcDbLine
 10
39.829194
 20
3.649025999999998
 30
0.0
 11
41.08221800000001
 21
3.221042000000004
 31
0.0
  0
LINE
  5
2F04
330
BF7
100
AcDbEntity
  8
1
100
AcDbLine
 10
38.58484100000001
 20
3.974348000000001
 30
0.0
 11
39.829194
 21
3.649025999999998
 31
0.0
  0
LINE
  5
2F05
330
BF7
100
AcDbEntity
  8
1
100
AcDbLine
 10
37.34039199999998
 20
4.190905000000004
 30
0.0
 11
38.58484100000001
 21
3.974348000000001
 31
0.0
  0
LINE
  5
2F06
330
BF7
100
AcDbEntity
  8
1
100
AcDbLine
 10
36.08731900000001
 20
4.292731000000006
 30
0.0
 11
37.34039199999998
 21
4.190905000000004
 31
0.0
  0
LINE
  5
2F07
330
BF7
100
AcDbEntity
  8
1
100
AcDbLine
 10
35.64829599999999
 20
4.286646999999998
 30
0.0
 11
36.08731900000001
 21
4.292731000000006
 31
0.0
  0
LINE
  5
2F08
330
BF7
100
AcDbEntity
  8
1
100
AcDbLine
 10
13.51487199999999
 20
-3.871031999999996
 30
0.0
 11
14.93735100000001
 21
-3.694390999999998
 31
0.0
  0
LINE
  5
2F09
330
BF7
100
AcDbEntity
  8
1
100
AcDbLine
 10
12.26536000000001
 20
-3.894285999999997
 30
0.0
 11
13.51487199999999
 21
-3.871031999999996
 31
0.0
  0
LINE
  5
2F0A
330
BF7
100
AcDbEntity
  8
1
100
AcDbLine
 10
10.24541400000001
 20
-3.681309999999998
 30
0.0
 11
12.26536000000001
 21
-3.894285999999997
 31
0.0
  0
LINE
  5
2F0B
330
BF7
100
AcDbEntity
  8
1
100
AcDbLine
 10
9.237735000000011
 20
-3.463395999999998
 30
0.0
 11
10.24541400000001
 21
-3.681309999999998
 31
0.0
  0
LINE
  5
2F0C
330
BF7
100
AcDbEntity
  8
1
100
AcDbLine
 10
8.985994000000005
 20
-3.397948999999995
 30
0.0
 11
9.237735000000011
 21
-3.463395999999998
 31
0.0
  0
LINE
  5
2F0D
330
BF7
100
AcDbEntity
  8
1
100
AcDbLine
 10
148.117931
 20
-3.809034999999997
 30
0.0
 11
149.658995
 21
-3.890367999999998
 31
0.0
  0
LINE
  5
2F0E
330
BF7
100
AcDbEntity
  8
1
100
AcDbLine
 10
146.855048
 20
-3.602200999999995
 30
0.0
 11
148.117931
 21
-3.809034999999997
 31
0.0
  0
LINE
  5
2F0F
330
BF7
100
AcDbEntity
  8
1
100
AcDbLine
 10
145.600933
 20
-3.285140999999998
 30
0.0
 11
146.855048
 21
-3.602200999999995
 31
0.0
  0
LINE
  5
2F10
330
BF7
100
AcDbEntity
  8
1
100
AcDbLine
 10
144.316637
 20
-2.854688999999996
 30
0.0
 11
145.600933
 21
-3.285140999999998
 31
0.0
  0
LINE
  5
2F11
330
BF7
100
AcDbEntity
  8
1
100
AcDbLine
 10
143.032389
 20
-2.330798999999998
 30
0.0
 11
144.316637
 21
-2.854688999999996
 31
0.0
  0
LINE
  5
2F12
330
BF7
100
AcDbEntity
  8
1
100
AcDbLine
 10
141.783773
 20
-1.746483999999996
 30
0.0
 11
143.032389
 21
-2.330798999999998
 31
0.0
  0
LINE
  5
2F13
330
BF7
100
AcDbEntity
  8
1
100
AcDbLine
 10
140.535158
 20
-1.105897999999998
 30
0.0
 11
141.783773
 21
-1.746483999999996
 31
0.0
  0
LINE
  5
2F14
330
BF7
100
AcDbEntity
  8
1
100
AcDbLine
 10
139.282157
 20
-0.4249259999999957
 30
0.0
 11
140.535158
 21
-1.105897999999998
 31
0.0
  0
LINE
  5
2F15
330
BF7
100
AcDbEntity
  8
1
100
AcDbLine
 10
138.037829
 20
0.2695110000000014
 30
0.0
 11
139.282157
 21
-0.4249259999999957
 31
0.0
  0
LINE
  5
2F16
330
BF7
100
AcDbEntity
  8
1
100
AcDbLine
 10
136.784781
 20
0.9667560000000035
 30
0.0
 11
138.037829
 21
0.2695110000000014
 31
0.0
  0
LINE
  5
2F17
330
BF7
100
AcDbEntity
  8
1
100
AcDbLine
 10
135.5403319999999
 20
1.637009000000002
 30
0.0
 11
136.784781
 21
0.9667560000000035
 31
0.0
  0
LINE
  5
2F18
330
BF7
100
AcDbEntity
  8
1
100
AcDbLine
 10
134.277448
 20
2.274725000000001
 30
0.0
 11
135.5403319999999
 21
1.637009000000002
 31
0.0
  0
LINE
  5
2F19
330
BF7
100
AcDbEntity
  8
1
100
AcDbLine
 10
133.023431
 20
2.847143000000001
 30
0.0
 11
134.277448
 21
2.274725000000001
 31
0.0
  0
LINE
  5
2F1A
330
BF7
100
AcDbEntity
  8
1
100
AcDbLine
 10
131.739231
 20
3.352801999999998
 30
0.0
 11
133.023431
 21
2.847143000000001
 31
0.0
  0
LINE
  5
2F1B
330
BF7
100
AcDbEntity
  8
1
100
AcDbLine
 10
130.4550069999999
 20
3.762043000000001
 30
0.0
 11
131.739231
 21
3.352801999999998
 31
0.0
  0
LINE
  5
2F1C
330
BF7
100
AcDbEntity
  8
1
100
AcDbLine
 10
129.206368
 20
4.054782000000006
 30
0.0
 11
130.4550069999999
 21
3.762043000000001
 31
0.0
  0
LINE
  5
2F1D
330
BF7
100
AcDbEntity
  8
1
100
AcDbLine
 10
127.9577039999999
 20
4.236069000000004
 30
0.0
 11
129.206368
 21
4.054782000000006
 31
0.0
  0
LINE
  5
2F1E
330
BF7
100
AcDbEntity
  8
1
100
AcDbLine
 10
126.704752
 20
4.300088000000005
 30
0.0
 11
127.9577039999999
 21
4.236069000000004
 31
0.0
  0
LINE
  5
2F1F
330
BF7
100
AcDbEntity
  8
1
100
AcDbLine
 10
125.460472
 20
4.245101
 30
0.0
 11
126.704752
 21
4.300088000000005
 31
0.0
  0
LINE
  5
2F20
330
BF7
100
AcDbEntity
  8
1
100
AcDbLine
 10
124.207496
 20
4.071928999999999
 30
0.0
 11
125.460472
 21
4.245101
 31
0.0
  0
LINE
  5
2F21
330
BF7
100
AcDbEntity
  8
1
100
AcDbLine
 10
122.963096
 20
3.787983
 30
0.0
 11
124.207496
 21
4.071928999999999
 31
0.0
  0
LINE
  5
2F22
330
BF7
100
AcDbEntity
  8
1
100
AcDbLine
 10
121.70014
 20
3.394172000000001
 30
0.0
 11
122.963096
 21
3.787983
 31
0.0
  0
LINE
  5
2F23
330
BF7
100
AcDbEntity
  8
1
100
AcDbLine
 10
120.446025
 20
2.909258000000001
 30
0.0
 11
121.70014
 21
3.394172000000001
 31
0.0
  0
LINE
  5
2F24
330
BF7
100
AcDbEntity
  8
1
100
AcDbLine
 10
119.752487
 20
2.596662000000002
 30
0.0
 11
120.446025
 21
2.909258000000001
 31
0.0
  0
LINE
  5
2F25
330
BF7
100
AcDbEntity
  8
1
100
AcDbLine
 10
101.5506919999999
 20
-3.730673999999996
 30
0.0
 11
103.660883
 21
-3.886873999999998
 31
0.0
  0
LINE
  5
2F26
330
BF7
100
AcDbEntity
  8
1
100
AcDbLine
 10
100.306267
 20
-3.476775999999995
 30
0.0
 11
101.5506919999999
 21
-3.730673999999996
 31
0.0
  0
LINE
  5
2F27
330
BF7
100
AcDbEntity
  8
1
100
AcDbLine
 10
99.04306900000001
 20
-3.110606999999998
 30
0.0
 11
100.306267
 21
-3.476775999999995
 31
0.0
  0
LINE
  5
2F28
330
BF7
100
AcDbEntity
  8
1
100
AcDbLine
 10
97.78861499999999
 20
-2.649766999999997
 30
0.0
 11
99.04306900000001
 21
-3.110606999999998
 31
0.0
  0
LINE
  5
2F29
330
BF7
100
AcDbEntity
  8
1
100
AcDbLine
 10
96.49337000000002
 20
-2.086470999999999
 30
0.0
 11
97.78861499999999
 21
-2.649766999999997
 31
0.0
  0
LINE
  5
2F2A
330
BF7
100
AcDbEntity
  8
1
100
AcDbLine
 10
95.19817299999999
 20
-1.451997999999997
 30
0.0
 11
96.49337000000002
 21
-2.086470999999999
 31
0.0
  0
LINE
  5
2F2B
330
BF7
100
AcDbEntity
  8
1
100
AcDbLine
 10
93.939456
 20
-0.7856199999999979
 30
0.0
 11
95.19817299999999
 21
-1.451997999999997
 31
0.0
  0
LINE
  5
2F2C
330
BF7
100
AcDbEntity
  8
1
100
AcDbLine
 10
92.68069100000003
 20
-0.0903619999999954
 30
0.0
 11
93.939456
 21
-0.7856199999999979
 31
0.0
  0
LINE
  5
2F2D
330
BF7
100
AcDbEntity
  8
1
100
AcDbLine
 10
91.385445
 20
0.6338730000000014
 30
0.0
 11
92.68069100000003
 21
-0.0903619999999954
 31
0.0
  0
LINE
  5
2F2E
330
BF7
100
AcDbEntity
  8
1
100
AcDbLine
 10
90.09027200000003
 20
1.344761
 30
0.0
 11
91.385445
 21
0.6338730000000014
 31
0.0
  0
LINE
  5
2F2F
330
BF7
100
AcDbEntity
  8
1
100
AcDbLine
 10
88.83160400000004
 20
2.001455000000003
 30
0.0
 11
90.09027200000003
 21
1.344761
 31
0.0
  0
LINE
  5
2F30
330
BF7
100
AcDbEntity
  8
1
100
AcDbLine
 10
87.57286299999998
 20
2.605079000000003
 30
0.0
 11
88.83160400000004
 21
2.001455000000003
 31
0.0
  0
LINE
  5
2F31
330
BF7
100
AcDbEntity
  8
1
100
AcDbLine
 10
86.27756899999996
 20
3.151648000000001
 30
0.0
 11
87.57286299999998
 21
2.605079000000003
 31
0.0
  0
LINE
  5
2F32
330
BF7
100
AcDbEntity
  8
1
100
AcDbLine
 10
84.982348
 20
3.606529
 30
0.0
 11
86.27756899999996
 21
3.151648000000001
 31
0.0
  0
LINE
  5
2F33
330
BF7
100
AcDbEntity
  8
1
100
AcDbLine
 10
83.72372800000006
 20
3.946525000000004
 30
0.0
 11
84.982348
 21
3.606529
 31
0.0
  0
LINE
  5
2F34
330
BF7
100
AcDbEntity
  8
1
100
AcDbLine
 10
82.46508399999997
 20
4.176416000000003
 30
0.0
 11
83.72372800000006
 21
3.946525000000004
 31
0.0
  0
LINE
  5
2F35
330
BF7
100
AcDbEntity
  8
1
100
AcDbLine
 10
81.16995899999997
 20
4.290042000000003
 30
0.0
 11
82.46508399999997
 21
4.176416000000003
 31
0.0
  0
LINE
  5
2F36
330
BF7
100
AcDbEntity
  8
1
100
AcDbLine
 10
79.87485899999995
 20
4.276510000000004
 30
0.0
 11
81.16995899999997
 21
4.290042000000003
 31
0.0
  0
LINE
  5
2F37
330
BF7
100
AcDbEntity
  8
1
100
AcDbLine
 10
78.61626300000001
 20
4.140974000000001
 30
0.0
 11
79.87485899999995
 21
4.276510000000004
 31
0.0
  0
LINE
  5
2F38
330
BF7
100
AcDbEntity
  8
1
100
AcDbLine
 10
77.35764399999998
 20
3.889682000000004
 30
0.0
 11
78.61626300000001
 21
4.140974000000001
 31
0.0
  0
LINE
  5
2F39
330
BF7
100
AcDbEntity
  8
1
100
AcDbLine
 10
76.06249500000001
 20
3.517263000000001
 30
0.0
 11
77.35764399999998
 21
3.889682000000004
 31
0.0
  0
LINE
  5
2F3A
330
BF7
100
AcDbEntity
  8
1
100
AcDbLine
 10
74.76739500000002
 20
3.041674000000003
 30
0.0
 11
76.06249500000001
 21
3.517263000000001
 31
0.0
  0
LINE
  5
2F3B
330
BF7
100
AcDbEntity
  8
1
100
AcDbLine
 10
73.74560600000002
 20
2.596986
 30
0.0
 11
74.76739500000002
 21
3.041674000000003
 31
0.0
  0
LINE
  5
2F3C
330
BF7
100
AcDbEntity
  8
1
100
AcDbLine
 10
55.63283100000001
 20
-3.743183999999998
 30
0.0
 11
57.66211600000001
 21
-3.884996999999998
 31
0.0
  0
LINE
  5
2F3D
330
BF7
100
AcDbEntity
  8
1
100
AcDbLine
 10
54.337707
 20
-3.484475999999995
 30
0.0
 11
55.63283100000001
 21
-3.743183999999998
 31
0.0
  0
LINE
  5
2F3E
330
BF7
100
AcDbEntity
  8
1
100
AcDbLine
 10
53.07906299999999
 20
-3.122363999999997
 30
0.0
 11
54.337707
 21
-3.484475999999995
 31
0.0
  0
LINE
  5
2F3F
330
BF7
100
AcDbEntity
  8
1
100
AcDbLine
 10
51.82039500000001
 20
-2.662640999999998
 30
0.0
 11
53.07906299999999
 21
-3.122363999999997
 31
0.0
  0
LINE
  5
2F40
330
BF7
100
AcDbEntity
  8
1
100
AcDbLine
 10
50.52524600000001
 20
-2.101282999999996
 30
0.0
 11
51.82039500000001
 21
-2.662640999999998
 31
0.0
  0
LINE
  5
2F41
330
BF7
100
AcDbEntity
  8
1
100
AcDbLine
 10
49.23009700000003
 20
-1.468363999999995
 30
0.0
 11
50.52524600000001
 21
-2.101282999999996
 31
0.0
  0
LINE
  5
2F42
330
BF7
100
AcDbEntity
  8
1
100
AcDbLine
 10
47.97140500000002
 20
-0.8030189999999953
 30
0.0
 11
49.23009700000003
 21
-1.468363999999995
 31
0.0
  0
LINE
  5
2F43
330
BF7
100
AcDbEntity
  8
1
100
AcDbLine
 10
46.71273699999999
 20
-0.1082059999999956
 30
0.0
 11
47.97140500000002
 21
-0.8030189999999953
 31
0.0
  0
LINE
  5
2F44
330
BF7
100
AcDbEntity
  8
1
100
AcDbLine
 10
45.41761200000002
 20
0.6160810000000048
 30
0.0
 11
46.71273699999999
 21
-0.1082059999999956
 31
0.0
  0
LINE
  5
2F45
330
BF7
100
AcDbEntity
  8
1
100
AcDbLine
 10
44.12248799999995
 20
1.327447000000002
 30
0.0
 11
45.41761200000002
 21
0.6160810000000048
 31
0.0
  0
LINE
  5
2F46
330
BF7
100
AcDbEntity
  8
1
100
AcDbLine
 10
42.863844
 20
1.985100999999999
 30
0.0
 11
44.12248799999995
 21
1.327447000000002
 31
0.0
  0
LINE
  5
2F47
330
BF7
100
AcDbEntity
  8
1
100
AcDbLine
 10
41.60519999999999
 20
2.590291
 30
0.0
 11
42.863844
 21
1.985100999999999
 31
0.0
  0
LINE
  5
2F48
330
BF7
100
AcDbEntity
  8
1
100
AcDbLine
 10
40.31017200000002
 20
3.138988999999998
 30
0.0
 11
41.60519999999999
 21
2.590291
 31
0.0
  0
LINE
  5
2F49
330
BF7
100
AcDbEntity
  8
1
100
AcDbLine
 10
39.01516899999999
 20
3.596351999999998
 30
0.0
 11
40.31017200000002
 21
3.138988999999998
 31
0.0
  0
LINE
  5
2F4A
330
BF7
100
AcDbEntity
  8
1
100
AcDbLine
 10
37.75667000000002
 20
3.939028
 30
0.0
 11
39.01516899999999
 21
3.596351999999998
 31
0.0
  0
LINE
  5
2F4B
330
BF7
100
AcDbEntity
  8
1
100
AcDbLine
 10
36.49814700000002
 20
4.171856000000004
 30
0.0
 11
37.75667000000002
 21
3.939028
 31
0.0
  0
LINE
  5
2F4C
330
BF7
100
AcDbEntity
  8
1
100
AcDbLine
 10
35.203071
 20
4.288708999999998
 30
0.0
 11
36.49814700000002
 21
4.171856000000004
 31
0.0
  0
LINE
  5
2F4D
330
BF7
100
AcDbEntity
  8
1
100
AcDbLine
 10
33.90799500000003
 20
4.278472000000004
 30
0.0
 11
35.203071
 21
4.288708999999998
 31
0.0
  0
LINE
  5
2F4E
330
BF7
100
AcDbEntity
  8
1
100
AcDbLine
 10
32.64952099999999
 20
4.146092000000002
 30
0.0
 11
33.90799500000003
 21
4.278472000000004
 31
0.0
  0
LINE
  5
2F4F
330
BF7
100
AcDbEntity
  8
1
100
AcDbLine
 10
31.39107000000001
 20
3.897748000000003
 30
0.0
 11
32.64952099999999
 21
4.146092000000002
 31
0.0
  0
LINE
  5
2F50
330
BF7
100
AcDbEntity
  8
1
100
AcDbLine
 10
30.09577600000004
 20
3.528020999999998
 30
0.0
 11
31.39107000000001
 21
3.897748000000003
 31
0.0
  0
LINE
  5
2F51
330
BF7
100
AcDbEntity
  8
1
100
AcDbLine
 10
28.80033700000002
 20
3.054925000000004
 30
0.0
 11
30.09577600000004
 21
3.528020999999998
 31
0.0
  0
LINE
  5
2F52
330
BF7
100
AcDbEntity
  8
1
100
AcDbLine
 10
27.74458700000002
 20
2.597388000000004
 30
0.0
 11
28.80033700000002
 21
3.054925000000004
 31
0.0
  0
LINE
  5
2F53
330
BF7
100
AcDbEntity
  8
1
100
AcDbLine
 10
0.5000060000000133
 20
-3.797036999999998
 30
0.0
 11
0.5000060000000133
 21
-3.899838999999995
 31
0.0
  0
LINE
  5
2F54
330
BF7
100
AcDbEntity
  8
1
100
AcDbLine
 10
0.5000060000000133
 20
-3.493809999999998
 30
0.0
 11
0.5000060000000133
 21
-3.797036999999998
 31
0.0
  0
LINE
  5
2F55
330
BF7
100
AcDbEntity
  8
1
100
AcDbLine
 10
0.5000060000000133
 20
-3.005362999999998
 30
0.0
 11
0.5000060000000133
 21
-3.493809999999998
 31
0.0
  0
LINE
  5
2F56
330
BF7
100
AcDbEntity
  8
1
100
AcDbLine
 10
0.5000060000000133
 20
-2.356187999999999
 30
0.0
 11
0.5000060000000133
 21
-3.005362999999998
 31
0.0
  0
LINE
  5
2F57
330
BF7
100
AcDbEntity
  8
1
100
AcDbLine
 10
0.5000060000000133
 20
-1.578833999999995
 30
0.0
 11
0.5000060000000133
 21
-2.356187999999999
 31
0.0
  0
LINE
  5
2F58
330
BF7
100
AcDbEntity
  8
1
100
AcDbLine
 10
0.5000060000000133
 20
-0.7122809999999973
 30
0.0
 11
0.5000060000000133
 21
-1.578833999999995
 31
0.0
  0
LINE
  5
2F59
330
BF7
100
AcDbEntity
  8
1
100
AcDbLine
 10
0.5000060000000133
 20
0.2000240000000026
 30
0.0
 11
0.5000060000000133
 21
-0.7122809999999973
 31
0.0
  0
LINE
  5
2F5A
330
BF7
100
AcDbEntity
  8
1
100
AcDbLine
 10
0.5000060000000133
 20
1.112335
 30
0.0
 11
0.5000060000000133
 21
0.2000240000000026
 31
0.0
  0
LINE
  5
2F5B
330
BF7
100
AcDbEntity
  8
1
100
AcDbLine
 10
0.5000060000000133
 20
1.978908999999999
 30
0.0
 11
0.5000060000000133
 21
1.112335
 31
0.0
  0
LINE
  5
2F5C
330
BF7
100
AcDbEntity
  8
1
100
AcDbLine
 10
0.5000060000000133
 20
2.756293000000001
 30
0.0
 11
0.5000060000000133
 21
1.978908999999999
 31
0.0
  0
LINE
  5
2F5D
330
BF7
100
AcDbEntity
  8
1
100
AcDbLine
 10
0.5000060000000133
 20
3.405512000000004
 30
0.0
 11
0.5000060000000133
 21
2.756293000000001
 31
0.0
  0
LINE
  5
2F5E
330
BF7
100
AcDbEntity
  8
1
100
AcDbLine
 10
0.5000060000000133
 20
3.894012000000003
 30
0.0
 11
0.5000060000000133
 21
3.405512000000004
 31
0.0
  0
LINE
  5
2F5F
330
BF7
100
AcDbEntity
  8
1
100
AcDbLine
 10
0.5000060000000133
 20
4.197297000000001
 30
0.0
 11
0.5000060000000133
 21
3.894012000000003
 31
0.0
  0
LINE
  5
2F60
330
BF7
100
AcDbEntity
  8
1
100
AcDbLine
 10
0.5000060000000133
 20
4.300160999999999
 30
0.0
 11
0.5000060000000133
 21
4.197297000000001
 31
0.0
  0
LINE
  5
2F61
330
BF7
100
AcDbEntity
  8
1
100
AcDbLine
 10
151.999114
 20
0.1778590000000015
 30
0.0
 11
151.970482
 21
0.0647400000000005
 31
0.0
  0
LINE
  5
2F62
330
BF7
100
AcDbEntity
  8
1
100
AcDbLine
 10
151.970482
 20
0.0647400000000005
 30
0.0
 11
151.727328
 21
-1.155885999999997
 31
0.0
  0
LINE
  5
2F63
330
BF7
100
AcDbEntity
  8
1
100
AcDbLine
 10
151.097667
 20
-2.904246999999998
 30
0.0
 11
150.759606
 21
-3.853804999999995
 31
0.0
  0
LINE
  5
2F64
330
BF7
100
AcDbEntity
  8
1
100
AcDbLine
 10
151.485264
 20
-1.828970999999999
 30
0.0
 11
151.097667
 21
-2.904246999999998
 31
0.0
  0
LINE
  5
2F65
330
BF7
100
AcDbEntity
  8
1
100
AcDbLine
 10
151.727328
 20
-1.155885999999997
 30
0.0
 11
151.485264
 21
-1.828970999999999
 31
0.0
  0
LINE
  5
2F66
330
BF7
100
AcDbEntity
  8
1
100
AcDbLine
 10
150.759606
 20
-3.853804999999995
 30
0.0
 11
150.615889
 21
-3.899804999999997
 31
0.0
  0
LINE
  5
2F67
330
BF7
100
AcDbEntity
  8
1
100
AcDbLine
 10
150.653217
 20
-3.698222999999995
 30
0.0
 11
150.646701
 21
-3.688926999999995
 31
0.0
  0
LINE
  5
2F68
330
BF7
100
AcDbEntity
  8
1
100
AcDbLine
 10
150.653702
 20
-3.730846999999997
 30
0.0
 11
150.653217
 21
-3.698222999999995
 31
0.0
  0
LINE
  5
2F69
330
BF7
100
AcDbEntity
  8
1
100
AcDbLine
 10
150.646192
 20
-3.778869999999995
 30
0.0
 11
150.653702
 21
-3.730846999999997
 31
0.0
  0
LINE
  5
2F6A
330
BF7
100
AcDbEntity
  8
1
100
AcDbLine
 10
150.619256
 20
-3.887980999999999
 30
0.0
 11
150.646192
 21
-3.778869999999995
 31
0.0
  0
LINE
  5
2F6B
330
BF7
100
AcDbEntity
  8
1
100
AcDbLine
 10
150.615889
 20
-3.899804999999997
 30
0.0
 11
150.619256
 21
-3.887980999999999
 31
0.0
  0
LINE
  5
2F6C
330
BF7
100
AcDbEntity
  8
1
100
AcDbLine
 10
150.571802
 20
-3.637096999999997
 30
0.0
 11
150.516864
 21
-3.533532999999998
 31
0.0
  0
LINE
  5
2F6D
330
BF7
100
AcDbEntity
  8
1
100
AcDbLine
 10
150.646701
 20
-3.688926999999995
 30
0.0
 11
150.571802
 21
-3.637096999999997
 31
0.0
  0
LINE
  5
2F6E
330
BF7
100
AcDbEntity
  8
1
100
AcDbLine
 10
151.3534169999999
 20
-1.451349999999994
 30
0.0
 11
151.385343
 21
-1.337324999999994
 31
0.0
  0
LINE
  5
2F6F
330
BF7
100
AcDbEntity
  8
1
100
AcDbLine
 10
151.283508
 20
-1.654023999999995
 30
0.0
 11
151.3534169999999
 21
-1.451349999999994
 31
0.0
  0
LINE
  5
2F70
330
BF7
100
AcDbEntity
  8
1
100
AcDbLine
 10
151.198266
 20
-1.851352999999999
 30
0.0
 11
151.283508
 21
-1.654023999999995
 31
0.0
  0
LINE
  5
2F71
330
BF7
100
AcDbEntity
  8
1
100
AcDbLine
 10
151.135625
 20
-1.968820999999998
 30
0.0
 11
151.198266
 21
-1.851352999999999
 31
0.0
  0
LINE
  5
2F72
330
BF7
100
AcDbEntity
  8
1
100
AcDbLine
 10
151.135625
 20
-1.968820999999998
 30
0.0
 11
150.516864
 21
-3.533532999999998
 31
0.0
  0
LINE
  5
2F73
330
BF7
100
AcDbEntity
  8
1
100
AcDbLine
 10
149.95309
 20
-2.112446999999999
 30
0.0
 11
149.942529
 21
-1.935638
 31
0.0
  0
LINE
  5
2F74
330
BF7
100
AcDbEntity
  8
1
100
AcDbLine
 10
149.998412
 20
-2.476052999999998
 30
0.0
 11
149.95309
 21
-2.112446999999999
 31
0.0
  0
LINE
  5
2F75
330
BF7
100
AcDbEntity
  8
1
100
AcDbLine
 10
150.1152169999999
 20
-2.927379999999995
 30
0.0
 11
149.998412
 21
-2.476052999999998
 31
0.0
  0
LINE
  5
2F76
330
BF7
100
AcDbEntity
  8
1
100
AcDbLine
 10
150.279814
 20
-3.268244999999995
 30
0.0
 11
150.1152169999999
 21
-2.927379999999995
 31
0.0
  0
LINE
  5
2F77
330
BF7
100
AcDbEntity
  8
1
100
AcDbLine
 10
150.4933669999999
 20
-3.51471
 30
0.0
 11
150.279814
 21
-3.268244999999995
 31
0.0
  0
LINE
  5
2F78
330
BF7
100
AcDbEntity
  8
1
100
AcDbLine
 10
150.516864
 20
-3.533532999999998
 30
0.0
 11
150.4933669999999
 21
-3.51471
 31
0.0
  0
LINE
  5
2F79
330
BF7
100
AcDbEntity
  8
1
100
AcDbLine
 10
149.942529
 20
-1.935638
 30
0.0
 11
151.97489
 21
0.1742170000000023
 31
0.0
  0
LINE
  5
2F7A
330
BF7
100
AcDbEntity
  8
1
100
AcDbLine
 10
151.97489
 20
0.1742170000000023
 30
0.0
 11
151.999114
 21
0.2224610000000027
 31
0.0
  0
LINE
  5
2F7B
330
BF7
100
AcDbEntity
  8
1
100
AcDbLine
 10
151.999961
 20
0.2169380000000061
 30
0.0
 11
151.385343
 21
-1.337324999999994
 31
0.0
  0
LINE
  5
2F7C
330
BF7
100
AcDbEntity
  8
1
100
AcDbLine
 10
151.039095
 20
-2.053974999999995
 30
0.0
 11
151.135625
 21
-1.968820999999998
 31
0.0
  0
LINE
  5
2F7D
330
BF7
100
AcDbEntity
  8
1
100
AcDbLine
 10
150.903396
 20
-2.100186999999996
 30
0.0
 11
151.039095
 21
-2.053974999999995
 31
0.0
  0
LINE
  5
2F7E
330
BF7
100
AcDbEntity
  8
1
100
AcDbLine
 10
150.802409
 20
-2.062561999999998
 30
0.0
 11
150.903396
 21
-2.100186999999996
 31
0.0
  0
LINE
  5
2F7F
330
BF7
100
AcDbEntity
  8
1
100
AcDbLine
 10
150.738193
 20
-1.973456999999995
 30
0.0
 11
150.802409
 21
-2.062561999999998
 31
0.0
  0
LINE
  5
2F80
330
BF7
100
AcDbEntity
  8
1
100
AcDbLine
 10
150.70491
 20
-1.856006999999998
 30
0.0
 11
150.738193
 21
-1.973456999999995
 31
0.0
  0
LINE
  5
2F81
330
BF7
100
AcDbEntity
  8
1
100
AcDbLine
 10
150.697013
 20
-1.720610999999996
 30
0.0
 11
150.70491
 21
-1.856006999999998
 31
0.0
  0
LINE
  5
2F82
330
BF7
100
AcDbEntity
  8
1
100
AcDbLine
 10
150.7135569999999
 20
-1.565836
 30
0.0
 11
150.697013
 21
-1.720610999999996
 31
0.0
  0
LINE
  5
2F83
330
BF7
100
AcDbEntity
  8
1
100
AcDbLine
 10
150.76026
 20
-1.389256999999997
 30
0.0
 11
150.7135569999999
 21
-1.565836
 31
0.0
  0
LINE
  5
2F84
330
BF7
100
AcDbEntity
  8
1
100
AcDbLine
 10
150.8288359999999
 20
-1.231419999999995
 30
0.0
 11
150.76026
 21
-1.389256999999997
 31
0.0
  0
LINE
  5
2F85
330
BF7
100
AcDbEntity
  8
1
100
AcDbLine
 10
150.925996
 20
-1.083939999999997
 30
0.0
 11
150.8288359999999
 21
-1.231419999999995
 31
0.0
  0
LINE
  5
2F86
330
BF7
100
AcDbEntity
  8
1
100
AcDbLine
 10
151.077004
 20
-0.9567219999999991
 30
0.0
 11
150.925996
 21
-1.083939999999997
 31
0.0
  0
LINE
  5
2F87
330
BF7
100
AcDbEntity
  8
1
100
AcDbLine
 10
151.208101
 20
-0.9347119999999939
 30
0.0
 11
151.077004
 21
-0.9567219999999991
 31
0.0
  0
LINE
  5
2F88
330
BF7
100
AcDbEntity
  8
1
100
AcDbLine
 10
151.2989379999999
 20
-0.9874009999999984
 30
0.0
 11
151.208101
 21
-0.9347119999999939
 31
0.0
  0
LINE
  5
2F89
330
BF7
100
AcDbEntity
  8
1
100
AcDbLine
 10
151.362839
 20
-1.105997999999998
 30
0.0
 11
151.2989379999999
 21
-0.9874009999999984
 31
0.0
  0
LINE
  5
2F8A
330
BF7
100
AcDbEntity
  8
1
100
AcDbLine
 10
151.384762
 20
-1.228276999999998
 30
0.0
 11
151.362839
 21
-1.105997999999998
 31
0.0
  0
LINE
  5
2F8B
330
BF7
100
AcDbEntity
  8
1
100
AcDbLine
 10
151.385343
 20
-1.337324999999994
 30
0.0
 11
151.384762
 21
-1.228276999999998
 31
0.0
  0
LINE
  5
2F8C
330
BF7
100
AcDbEntity
  8
1
100
AcDbLine
 10
151.999114
 20
0.1778590000000015
 30
0.0
 11
151.999961
 21
0.1833820000000052
 31
0.0
  0
LINE
  5
2F8D
330
BF7
100
AcDbEntity
  8
1
100
AcDbLine
 10
151.999961
 20
0.1833820000000052
 30
0.0
 11
151.999961
 21
0.2169380000000061
 31
0.0
  0
LINE
  5
2F8E
330
BF7
100
AcDbEntity
  8
1
100
AcDbLine
 10
151.999114
 20
0.2224610000000027
 30
0.0
 11
151.999961
 21
0.2169380000000061
 31
0.0
  0
LINE
  5
2F8F
330
BF7
100
AcDbEntity
  8
1
100
AcDbLine
 10
151.999114
 20
0.2224610000000027
 30
0.0
 11
151.970482
 21
0.3355810000000048
 31
0.0
  0
LINE
  5
2F90
330
BF7
100
AcDbEntity
  8
1
100
AcDbLine
 10
151.970482
 20
0.3355810000000048
 30
0.0
 11
151.727328
 21
1.556206000000003
 31
0.0
  0
LINE
  5
2F91
330
BF7
100
AcDbEntity
  8
1
100
AcDbLine
 10
151.097667
 20
3.304567000000001
 30
0.0
 11
150.759606
 21
4.254125000000004
 31
0.0
  0
LINE
  5
2F92
330
BF7
100
AcDbEntity
  8
1
100
AcDbLine
 10
151.485264
 20
2.229290999999999
 30
0.0
 11
151.097667
 21
3.304567000000001
 31
0.0
  0
LINE
  5
2F93
330
BF7
100
AcDbEntity
  8
1
100
AcDbLine
 10
151.727328
 20
1.556206000000003
 30
0.0
 11
151.485264
 21
2.229290999999999
 31
0.0
  0
LINE
  5
2F94
330
BF7
100
AcDbEntity
  8
1
100
AcDbLine
 10
150.759606
 20
4.254125000000004
 30
0.0
 11
150.615889
 21
4.300125000000003
 31
0.0
  0
LINE
  5
2F95
330
BF7
100
AcDbEntity
  8
SK1
100
AcDbLine
 10
-38.917464
 20
-0.6860439999999956
 30
0.0
 11
-38.917464
 21
-1.841142999999996
 31
0.0
  0
LINE
  5
2F96
330
BF7
100
AcDbEntity
  8
SK1
100
AcDbLine
 10
-38.917464
 20
0.5208590000000016
 30
0.0
 11
-38.917464
 21
-0.6860439999999956
 31
0.0
  0
LINE
  5
2F97
330
BF7
100
AcDbEntity
  8
1
100
AcDbLine
 10
21.28125900000001
 20
1.762845999999997
 30
0.0
 11
21.33118300000001
 21
1.738219999999996
 31
0.0
  0
LINE
  5
2F98
330
BF7
100
AcDbEntity
  8
1
100
AcDbLine
 10
21.23132200000001
 20
1.787472
 30
0.0
 11
21.28125900000001
 21
1.762845999999997
 31
0.0
  0
LINE
  5
2F99
330
BF7
100
AcDbEntity
  8
1
100
AcDbLine
 10
67.15611000000001
 20
1.828934
 30
0.0
 11
67.33109999999999
 21
1.738266000000002
 31
0.0
  0
LINE
  5
2F9A
330
BF7
100
AcDbEntity
  8
1
100
AcDbLine
 10
113.039477
 20
1.885510000000003
 30
0.0
 11
113.180941
 21
1.812386000000003
 31
0.0
  0
LINE
  5
2F9B
330
BF7
100
AcDbEntity
  8
1
100
AcDbLine
 10
113.256033
 20
1.775320999999999
 30
0.0
 11
113.331101
 21
1.738257000000004
 31
0.0
  0
LINE
  5
2F9C
330
BF7
100
AcDbEntity
  8
1
100
AcDbLine
 10
113.180941
 20
1.812386000000003
 30
0.0
 11
113.256033
 21
1.775320999999999
 31
0.0
  0
LINE
  5
2F9D
330
BF7
100
AcDbEntity
  8
1
100
AcDbLine
 10
43.984027
 20
1.916994000000004
 30
0.0
 11
44.235393
 21
1.787044999999999
 31
0.0
  0
LINE
  5
2F9E
330
BF7
100
AcDbEntity
  8
1
100
AcDbLine
 10
43.72968199999998
 20
2.044812000000003
 30
0.0
 11
43.984027
 21
1.916994000000004
 31
0.0
  0
LINE
  5
2F9F
330
BF7
100
AcDbEntity
  8
1
100
AcDbLine
 10
43.66970500000002
 20
2.074428000000001
 30
0.0
 11
43.72968199999998
 21
2.044812000000003
 31
0.0
  0
LINE
  5
2FA0
330
BF7
100
AcDbEntity
  8
1
100
AcDbLine
 10
44.28323399999999
 20
1.762662000000002
 30
0.0
 11
44.331075
 21
1.738278
 31
0.0
  0
LINE
  5
2FA1
330
BF7
100
AcDbEntity
  8
1
100
AcDbLine
 10
44.235393
 20
1.787044999999999
 30
0.0
 11
44.28323399999999
 21
1.762662000000002
 31
0.0
  0
LINE
  5
2FA2
330
BF7
100
AcDbEntity
  8
1
100
AcDbLine
 10
90.15877600000003
 20
1.824413000000003
 30
0.0
 11
90.201796
 21
1.802049000000003
 31
0.0
  0
LINE
  5
2FA3
330
BF7
100
AcDbEntity
  8
1
100
AcDbLine
 10
90.26647300000002
 20
1.770134000000002
 30
0.0
 11
90.33117299999998
 21
1.738219999999996
 31
0.0
  0
LINE
  5
2FA4
330
BF7
100
AcDbEntity
  8
1
100
AcDbLine
 10
90.201796
 20
1.802049000000003
 30
0.0
 11
90.26647300000002
 21
1.770134000000002
 31
0.0
  0
LINE
  5
2FA5
330
BF7
100
AcDbEntity
  8
1
100
AcDbLine
 10
136.2574629999999
 20
1.776595999999999
 30
0.0
 11
136.330981
 21
1.738325999999999
 31
0.0
  0
LINE
  5
2FA6
330
BF7
100
AcDbEntity
  8
1
100
AcDbLine
 10
123.452431
 20
0.8210190000000029
 30
0.0
 11
123.154024
 21
0.9781680000000035
 31
0.0
  0
LINE
  5
2FA7
330
BF7
100
AcDbEntity
  8
1
100
AcDbLine
 10
123.751977
 20
0.6662259999999982
 30
0.0
 11
123.452431
 21
0.8210190000000029
 31
0.0
  0
LINE
  5
2FA8
330
BF7
100
AcDbEntity
  8
1
100
AcDbLine
 10
124.3872819999999
 20
0.3478770000000004
 30
0.0
 11
123.751977
 21
0.6662259999999982
 31
0.0
  0
LINE
  5
2FA9
330
BF7
100
AcDbEntity
  8
1
100
AcDbLine
 10
125.026754
 20
0.0383880000000048
 30
0.0
 11
124.3872819999999
 21
0.3478770000000004
 31
0.0
  0
LINE
  5
2FAA
330
BF7
100
AcDbEntity
  8
1
100
AcDbLine
 10
125.594839
 20
-0.2296339999999972
 30
0.0
 11
125.026754
 21
0.0383880000000048
 31
0.0
  0
LINE
  5
2FAB
330
BF7
100
AcDbEntity
  8
1
100
AcDbLine
 10
126.165395
 20
-0.491961
 30
0.0
 11
125.594839
 21
-0.2296339999999972
 31
0.0
  0
LINE
  5
2FAC
330
BF7
100
AcDbEntity
  8
1
100
AcDbLine
 10
126.663475
 20
-0.714818999999995
 30
0.0
 11
126.165395
 21
-0.491961
 31
0.0
  0
LINE
  5
2FAD
330
BF7
100
AcDbEntity
  8
1
100
AcDbLine
 10
127.163566
 20
-0.9329559999999972
 30
0.0
 11
126.663475
 21
-0.714818999999995
 31
0.0
  0
LINE
  5
2FAE
330
BF7
100
AcDbEntity
  8
1
100
AcDbLine
 10
77.44160199999997
 20
0.826644999999999
 30
0.0
 11
77.12650500000002
 21
0.9926110000000035
 31
0.0
  0
LINE
  5
2FAF
330
BF7
100
AcDbEntity
  8
1
100
AcDbLine
 10
77.75793399999997
 20
0.663253000000001
 30
0.0
 11
77.44160199999997
 21
0.826644999999999
 31
0.0
  0
LINE
  5
2FB0
330
BF7
100
AcDbEntity
  8
1
100
AcDbLine
 10
78.39745399999998
 20
0.3429570000000055
 30
0.0
 11
77.75793399999997
 21
0.663253000000001
 31
0.0
  0
LINE
  5
2FB1
330
BF7
100
AcDbEntity
  8
1
100
AcDbLine
 10
79.04114100000005
 20
0.0315410000000007
 30
0.0
 11
78.39745399999998
 21
0.3429570000000055
 31
0.0
  0
LINE
  5
2FB2
330
BF7
100
AcDbEntity
  8
1
100
AcDbLine
 10
79.615185
 20
-0.2390790000000003
 30
0.0
 11
79.04114100000005
 21
0.0315410000000007
 31
0.0
  0
LINE
  5
2FB3
330
BF7
100
AcDbEntity
  8
1
100
AcDbLine
 10
80.19165199999997
 20
-0.5038389999999957
 30
0.0
 11
79.615185
 21
-0.2390790000000003
 31
0.0
  0
LINE
  5
2FB4
330
BF7
100
AcDbEntity
  8
1
100
AcDbLine
 10
80.69750800000003
 20
-0.7298339999999968
 30
0.0
 11
80.19165199999997
 21
-0.5038389999999957
 31
0.0
  0
LINE
  5
2FB5
330
BF7
100
AcDbEntity
  8
1
100
AcDbLine
 10
81.20537400000001
 20
-0.9509349999999976
 30
0.0
 11
80.69750800000003
 21
-0.7298339999999968
 31
0.0
  0
LINE
  5
2FB6
330
BF7
100
AcDbEntity
  8
1
100
AcDbLine
 10
31.45090200000002
 20
0.8197350000000014
 30
0.0
 11
31.14815899999999
 21
0.9761509999999979
 31
0.0
  0
LINE
  5
2FB7
330
BF7
100
AcDbEntity
  8
1
100
AcDbLine
 10
31.75444400000001
 20
0.6649720000000025
 30
0.0
 11
31.45090200000002
 21
0.8197350000000014
 31
0.0
  0
LINE
  5
2FB8
330
BF7
100
AcDbEntity
  8
1
100
AcDbLine
 10
31.99292299999999
 20
0.5448070000000059
 30
0.0
 11
31.75444400000001
 21
0.6649720000000025
 31
0.0
  0
LINE
  5
2FB9
330
BF7
100
AcDbEntity
  8
1
100
AcDbLine
 10
32.23191
 20
0.4256550000000028
 30
0.0
 11
31.99292299999999
 21
0.5448070000000059
 31
0.0
  0
LINE
  5
2FBA
330
BF7
100
AcDbEntity
  8
1
100
AcDbLine
 10
32.41353700000002
 20
0.3359380000000058
 30
0.0
 11
32.23191
 21
0.4256550000000028
 31
0.0
  0
LINE
  5
2FBB
330
BF7
100
AcDbEntity
  8
1
100
AcDbLine
 10
32.595406
 20
0.2468140000000005
 30
0.0
 11
32.41353700000002
 21
0.3359380000000058
 31
0.0
  0
LINE
  5
2FBC
330
BF7
100
AcDbEntity
  8
1
100
AcDbLine
 10
32.91185899999999
 20
0.0934930000000023
 30
0.0
 11
32.595406
 21
0.2468140000000005
 31
0.0
  0
LINE
  5
2FBD
330
BF7
100
AcDbEntity
  8
1
100
AcDbLine
 10
33.22911200000002
 20
-0.0579999999999963
 30
0.0
 11
32.91185899999999
 21
0.0934930000000023
 31
0.0
  0
LINE
  5
2FBE
330
BF7
100
AcDbEntity
  8
1
100
AcDbLine
 10
33.65474000000001
 20
-0.2577209999999965
 30
0.0
 11
33.22911200000002
 21
-0.0579999999999963
 31
0.0
  0
LINE
  5
2FBF
330
BF7
100
AcDbEntity
  8
1
100
AcDbLine
 10
34.08182200000002
 20
-0.4540449999999974
 30
0.0
 11
33.65474000000001
 21
-0.2577209999999965
 31
0.0
  0
LINE
  5
2FC0
330
BF7
100
AcDbEntity
  8
1
100
AcDbLine
 10
34.61967600000003
 20
-0.6954220000000007
 30
0.0
 11
34.08182200000002
 21
-0.4540449999999974
 31
0.0
  0
LINE
  5
2FC1
330
BF7
100
AcDbEntity
  8
1
100
AcDbLine
 10
35.15985699999999
 20
-0.9313539999999987
 30
0.0
 11
34.61967600000003
 21
-0.6954220000000007
 31
0.0
  0
LINE
  5
2FC2
330
BF7
100
AcDbEntity
  8
1
100
AcDbLine
 10
146.281754
 20
0.907878
 30
0.0
 11
146.126241
 21
0.9900100000000016
 31
0.0
  0
LINE
  5
2FC3
330
BF7
100
AcDbEntity
  8
1
100
AcDbLine
 10
146.437631
 20
0.8264940000000038
 30
0.0
 11
146.281754
 21
0.907878
 31
0.0
  0
LINE
  5
2FC4
330
BF7
100
AcDbEntity
  8
1
100
AcDbLine
 10
146.862363
 20
0.6097160000000024
 30
0.0
 11
146.437631
 21
0.8264940000000038
 31
0.0
  0
LINE
  5
2FC5
330
BF7
100
AcDbEntity
  8
1
100
AcDbLine
 10
147.289203
 20
0.3972800000000021
 30
0.0
 11
146.862363
 21
0.6097160000000024
 31
0.0
  0
LINE
  5
2FC6
330
BF7
100
AcDbEntity
  8
1
100
AcDbLine
 10
147.592333
 20
0.2484889999999993
 30
0.0
 11
147.289203
 21
0.3972800000000021
 31
0.0
  0
LINE
  5
2FC7
330
BF7
100
AcDbEntity
  8
1
100
AcDbLine
 10
147.896118
 20
0.1010750000000051
 30
0.0
 11
147.592333
 21
0.2484889999999993
 31
0.0
  0
LINE
  5
2FC8
330
BF7
100
AcDbEntity
  8
1
100
AcDbLine
 10
148.192733
 20
-0.0409649999999999
 30
0.0
 11
147.896118
 21
0.1010750000000051
 31
0.0
  0
LINE
  5
2FC9
330
BF7
100
AcDbEntity
  8
1
100
AcDbLine
 10
148.490244
 20
-0.1809999999999974
 30
0.0
 11
148.192733
 21
-0.0409649999999999
 31
0.0
  0
LINE
  5
2FCA
330
BF7
100
AcDbEntity
  8
1
100
AcDbLine
 10
148.682625
 20
-0.2700209999999963
 30
0.0
 11
148.490244
 21
-0.1809999999999974
 31
0.0
  0
LINE
  5
2FCB
330
BF7
100
AcDbEntity
  8
1
100
AcDbLine
 10
148.875419
 20
-0.358079
 30
0.0
 11
148.682625
 21
-0.2700209999999963
 31
0.0
  0
LINE
  5
2FCC
330
BF7
100
AcDbEntity
  8
1
100
AcDbLine
 10
100.228001
 20
0.9353590000000018
 30
0.0
 11
100.128128
 21
0.9881269999999986
 31
0.0
  0
LINE
  5
2FCD
330
BF7
100
AcDbEntity
  8
1
100
AcDbLine
 10
100.3280439999999
 20
0.8829220000000006
 30
0.0
 11
100.228001
 21
0.9353590000000018
 31
0.0
  0
LINE
  5
2FCE
330
BF7
100
AcDbEntity
  8
1
100
AcDbLine
 10
100.7349709999999
 20
0.6741020000000014
 30
0.0
 11
100.3280439999999
 21
0.8829220000000006
 31
0.0
  0
LINE
  5
2FCF
330
BF7
100
AcDbEntity
  8
1
100
AcDbLine
 10
101.143909
 20
0.469436000000002
 30
0.0
 11
100.7349709999999
 21
0.6741020000000014
 31
0.0
  0
LINE
  5
2FD0
330
BF7
100
AcDbEntity
  8
1
100
AcDbLine
 10
101.466298
 20
0.3101820000000046
 30
0.0
 11
101.143909
 21
0.469436000000002
 31
0.0
  0
LINE
  5
2FD1
330
BF7
100
AcDbEntity
  8
1
100
AcDbLine
 10
101.7894609999999
 20
0.1525790000000029
 30
0.0
 11
101.466298
 21
0.3101820000000046
 31
0.0
  0
LINE
  5
2FD2
330
BF7
100
AcDbEntity
  8
1
100
AcDbLine
 10
101.988431
 20
0.0567490000000035
 30
0.0
 11
101.7894609999999
 21
0.1525790000000029
 31
0.0
  0
LINE
  5
2FD3
330
BF7
100
AcDbEntity
  8
1
100
AcDbLine
 10
102.187765
 20
-0.0383279999999999
 30
0.0
 11
101.988431
 21
0.0567490000000035
 31
0.0
  0
LINE
  5
2FD4
330
BF7
100
AcDbEntity
  8
1
100
AcDbLine
 10
102.444751
 20
-0.1596259999999958
 30
0.0
 11
102.187765
 21
-0.0383279999999999
 31
0.0
  0
LINE
  5
2FD5
330
BF7
100
AcDbEntity
  8
1
100
AcDbLine
 10
102.702269
 20
-0.2797160000000005
 30
0.0
 11
102.444751
 21
-0.1596259999999958
 31
0.0
  0
LINE
  5
2FD6
330
BF7
100
AcDbEntity
  8
1
100
AcDbLine
 10
103.035533
 20
-0.4329289999999979
 30
0.0
 11
102.702269
 21
-0.2797160000000005
 31
0.0
  0
LINE
  5
2FD7
330
BF7
100
AcDbEntity
  8
1
100
AcDbLine
 10
103.36967
 20
-0.584028
 30
0.0
 11
103.035533
 21
-0.4329289999999979
 31
0.0
  0
LINE
  5
2FD8
330
BF7
100
AcDbEntity
  8
1
100
AcDbLine
 10
103.7807879999999
 20
-0.7664779999999995
 30
0.0
 11
103.36967
 21
-0.584028
 31
0.0
  0
LINE
  5
2FD9
330
BF7
100
AcDbEntity
  8
1
100
AcDbLine
 10
104.19319
 20
-0.9457059999999939
 30
0.0
 11
103.7807879999999
 21
-0.7664779999999995
 31
0.0
  0
LINE
  5
2FDA
330
BF7
100
AcDbEntity
  8
1
100
AcDbLine
 10
56.15164700000002
 20
-0.0224949999999957
 30
0.0
 11
54.15285899999997
 21
0.987930000000002
 31
0.0
  0
LINE
  5
2FDB
330
BF7
100
AcDbEntity
  8
1
100
AcDbLine
 10
58.19023300000001
 20
-0.9444349999999984
 30
0.0
 11
56.15164700000002
 21
-0.0224949999999957
 31
0.0
  0
LINE
  5
2FDC
330
BF7
100
AcDbEntity
  8
1
100
AcDbLine
 10
21.11658800000001
 20
4.095152999999998
 30
0.0
 11
14.93525600000001
 21
4.095152999999998
 31
0.0
  0
LINE
  5
2FDD
330
BF7
100
AcDbEntity
  8
1
100
AcDbLine
 10
67.11587600000001
 20
4.095146999999998
 30
0.0
 11
60.94306899999998
 21
4.095146999999998
 31
0.0
  0
LINE
  5
2FDE
330
BF7
100
AcDbEntity
  8
1
100
AcDbLine
 10
113.116701
 20
4.095146999999998
 30
0.0
 11
106.889707
 21
4.095146999999998
 31
0.0
  0
LINE
  5
2FDF
330
BF7
100
AcDbEntity
  8
1
100
AcDbLine
 10
132.083057
 20
-3.694836999999998
 30
0.0
 11
136.115926
 21
-3.694836999999998
 31
0.0
  0
LINE
  5
2FE0
330
BF7
100
AcDbEntity
  8
1
100
AcDbLine
 10
128.050212
 20
-3.694836999999998
 30
0.0
 11
132.083057
 21
-3.694836999999998
 31
0.0
  0
LINE
  5
2FE1
330
BF7
100
AcDbEntity
  8
1
100
AcDbLine
 10
86.08332200000004
 20
-3.694838999999998
 30
0.0
 11
90.116458
 21
-3.694838999999998
 31
0.0
  0
LINE
  5
2FE2
330
BF7
100
AcDbEntity
  8
1
100
AcDbLine
 10
82.05021099999997
 20
-3.694838999999998
 30
0.0
 11
86.08332200000004
 21
-3.694838999999998
 31
0.0
  0
LINE
  5
2FE3
330
BF7
100
AcDbEntity
  8
1
100
AcDbLine
 10
40.08322400000003
 20
-3.694815999999998
 30
0.0
 11
44.116165
 21
-3.694815999999998
 31
0.0
  0
LINE
  5
2FE4
330
BF7
100
AcDbEntity
  8
1
100
AcDbLine
 10
36.05028199999998
 20
-3.694815999999998
 30
0.0
 11
40.08322400000003
 21
-3.694815999999998
 31
0.0
  0
LINE
  5
2FE5
330
BF7
100
AcDbEntity
  8
1
100
AcDbLine
 10
44.116165
 20
4.095138000000003
 30
0.0
 11
37.89081899999999
 21
4.095138000000003
 31
0.0
  0
LINE
  5
2FE6
330
BF7
100
AcDbEntity
  8
1
100
AcDbLine
 10
90.116458
 20
4.095159000000001
 30
0.0
 11
83.91150699999997
 21
4.095159000000001
 31
0.0
  0
LINE
  5
2FE7
330
BF7
100
AcDbEntity
  8
1
100
AcDbLine
 10
136.115926
 20
4.095159000000001
 30
0.0
 11
129.957
 21
4.095159000000001
 31
0.0
  0
LINE
  5
2FE8
330
BF7
100
AcDbEntity
  8
1
100
AcDbLine
 10
109.083517
 20
-3.694826999999995
 30
0.0
 11
113.116701
 21
-3.694826999999995
 31
0.0
  0
LINE
  5
2FE9
330
BF7
100
AcDbEntity
  8
1
100
AcDbLine
 10
105.050308
 20
-3.694826999999995
 30
0.0
 11
109.083517
 21
-3.694826999999995
 31
0.0
  0
LINE
  5
2FEA
330
BF7
100
AcDbEntity
  8
1
100
AcDbLine
 10
63.08300600000001
 20
-3.694826999999995
 30
0.0
 11
67.11587600000001
 21
-3.694826999999995
 31
0.0
  0
LINE
  5
2FEB
330
BF7
100
AcDbEntity
  8
1
100
AcDbLine
 10
59.05013700000001
 20
-3.694826999999995
 30
0.0
 11
63.08300600000001
 21
-3.694826999999995
 31
0.0
  0
LINE
  5
2FEC
330
BF7
100
AcDbEntity
  8
1
100
AcDbLine
 10
17.08342899999999
 20
-3.694832999999998
 30
0.0
 11
21.11658800000001
 21
-3.694832999999998
 31
0.0
  0
LINE
  5
2FED
330
BF7
100
AcDbEntity
  8
1
100
AcDbLine
 10
13.05025700000001
 20
-3.694832999999998
 30
0.0
 11
17.08342899999999
 21
-3.694832999999998
 31
0.0
  0
LINE
  5
2FEE
330
BF7
100
AcDbEntity
  8
1
100
AcDbLine
 10
0.5000060000000133
 20
-3.899838999999995
 30
0.0
 11
12.64623600000001
 21
-3.899838999999995
 31
0.0
  0
LINE
  5
2FEF
330
BF7
100
AcDbEntity
  8
1
100
AcDbLine
 10
34.661631
 20
-3.899838999999995
 30
0.0
 11
35.64667299999999
 21
-3.899838999999995
 31
0.0
  0
LINE
  5
2FF0
330
BF7
100
AcDbEntity
  8
1
100
AcDbLine
 10
57.661777
 20
-3.899838999999995
 30
0.0
 11
58.64631
 21
-3.899838999999995
 31
0.0
  0
LINE
  5
2FF1
330
BF7
100
AcDbEntity
  8
1
100
AcDbLine
 10
80.66185100000001
 20
-3.899838999999995
 30
0.0
 11
81.64635899999995
 21
-3.899838999999995
 31
0.0
  0
LINE
  5
2FF2
330
BF7
100
AcDbEntity
  8
1
100
AcDbLine
 10
103.662191
 20
-3.899838999999995
 30
0.0
 11
104.646796
 21
-3.899838999999995
 31
0.0
  0
LINE
  5
2FF3
330
BF7
100
AcDbEntity
  8
1
100
AcDbLine
 10
126.66161
 20
-3.899838999999995
 30
0.0
 11
127.646192
 21
-3.899838999999995
 31
0.0
  0
LINE
  5
2FF4
330
BF7
100
AcDbEntity
  8
1
100
AcDbLine
 10
149.661054
 20
-3.899838999999995
 30
0.0
 11
150.619377
 21
-3.899838999999995
 31
0.0
  0
LINE
  5
2FF5
330
BF7
100
AcDbEntity
  8
1
100
AcDbLine
 10
150.606829
 20
4.300160999999999
 30
0.0
 11
149.661054
 21
4.300160999999999
 31
0.0
  0
LINE
  5
2FF6
330
BF7
100
AcDbEntity
  8
1
100
AcDbLine
 10
127.646192
 20
4.300160999999999
 30
0.0
 11
126.66161
 21
4.300160999999999
 31
0.0
  0
LINE
  5
2FF7
330
BF7
100
AcDbEntity
  8
1
100
AcDbLine
 10
104.646796
 20
4.300160999999999
 30
0.0
 11
103.662191
 21
4.300160999999999
 31
0.0
  0
LINE
  5
2FF8
330
BF7
100
AcDbEntity
  8
1
100
AcDbLine
 10
81.64635899999995
 20
4.300160999999999
 30
0.0
 11
80.66185100000001
 21
4.300160999999999
 31
0.0
  0
LINE
  5
2FF9
330
BF7
100
AcDbEntity
  8
1
100
AcDbLine
 10
58.64631
 20
4.300160999999999
 30
0.0
 11
57.661777
 21
4.300160999999999
 31
0.0
  0
LINE
  5
2FFA
330
BF7
100
AcDbEntity
  8
1
100
AcDbLine
 10
35.64667299999999
 20
4.300160999999999
 30
0.0
 11
34.661631
 21
4.300160999999999
 31
0.0
  0
LINE
  5
2FFB
330
BF7
100
AcDbEntity
  8
1
100
AcDbLine
 10
12.64623600000001
 20
4.300160999999999
 30
0.0
 11
0.5000060000000133
 21
4.300160999999999
 31
0.0
  0
LINE
  5
2FFC
330
BF7
100
AcDbEntity
  8
SK1
100
AcDbLine
 10
-39.99999299999999
 20
-4.174838999999998
 30
0.0
 11
-38.917464
 21
-4.799841
 31
0.0
  0
LINE
  5
2FFD
330
BF7
100
AcDbEntity
  8
SK1
100
AcDbLine
 10
-38.917464
 20
5.200161000000004
 30
0.0
 11
-39.99999299999999
 21
4.575159000000001
 31
0.0
  0
LINE
  5
2FFE
330
BF7
100
AcDbEntity
  8
SK1
100
AcDbLine
 10
0.0
 20
5.200161000000004
 30
0.0
 11
-38.917464
 21
5.200161000000004
 31
0.0
  0
LINE
  5
2FFF
330
BF7
100
AcDbEntity
  8
SK1
100
AcDbLine
 10
-38.917464
 20
-4.799841
 30
0.0
 11
0.0
 21
-4.799841
 31
0.0
  0
LINE
  5
3002
330
BF7
100
AcDbEntity
  8
SK4
100
AcDbLine
 10
-70.66471907581865
 20
0.0
 30
0.0
 11
165.194431793266
 21
0.0
 31
0.0
  0
LINE
  5
3003
330
BF7
100
AcDbEntity
  8
1
100
AcDbLine
 10
0.0
 20
5.141273999999999
 30
0.0
 11
0.0
 21
-4.696158999999997
 31
0.0
  0
DIMENSION
  5
3004
330
BF7
100
AcDbEntity
  8
SK2
100
AcDbDimension
  2
*D2
 10
-39.99999299999999
 20
-49.16715976917014
 30
0.0
 11
55.9995605
 21
-45.36715976917014
 31
0.0
 70
    32
 71
     5
 42
191.999107
  3
SANDVIK_DIM
100
AcDbAlignedDimension
 13
151.999114
 23
0.2001600000000057
 33
0.0
 14
-39.99999299999999
 24
2.156745000000002
 34
0.0
100
AcDbRotatedDimension
1001
ACAD
1000
DSTYLE
1002
{
1070
    40
1040
1.0
1002
}
  0
DIMENSION
  5
303B
330
BF7
100
AcDbEntity
  8
SK2
100
AcDbDimension
  2
*D4
 10
-39.99999299999999
 20
-36.3288418796372
 30
0.0
 11
-19.99999649999999
 21
-32.52884187963721
 31
0.0
 70
    32
 71
     5
 42
39.99999299999999
  3
SANDVIK_DIM
100
AcDbAlignedDimension
 13
0.0
 23
0.0
 33
0.0
 14
-39.99999299999999
 24
-0.2351509999999983
 34
0.0
100
AcDbRotatedDimension
1001
ACAD
1000
DSTYLE
1002
{
1070
    40
1040
1.0
1002
}
  0
LINE
  5
3051
330
BF7
100
AcDbEntity
  8
1
100
AcDbLine
 10
0.0
 20
5.200161000000004
 30
0.0
 11
0.0
 21
-4.799841
 31
0.0
  0
DIMENSION
  5
305F
330
BF7
100
AcDbEntity
  8
2
100
AcDbDimension
  2
*D5
 10
-0.0000000000000022
 20
-36.32368435780597
 30
0.0
 11
75.9999805
 21
-32.52368435780597
 31
0.0
 70
    32
 71
     5
 42
151.999961
  3
SANDVIK_DIM
100
AcDbAlignedDimension
 13
151.999961
 23
0.1833820000000052
 33
0.0
 14
0.0
 24
0.1707164999999993
 34
0.0
100
AcDbRotatedDimension
1001
ACAD
1000
DSTYLE
1002
{
1070
    40
1040
1.0
1002
}
  0
DIMENSION
  5
306E
330
BF7
100
AcDbEntity
  8
2
100
AcDbDimension
  2
*D6
 10
5.996333999999996
 20
-15.92144245045199
 30
0.0
 11
78.99814749999999
 21
-12.12144245045199
 31
0.0
 70
    32
 71
     5
 42
146.003627
  3
SANDVIK_DIM
100
AcDbAlignedDimension
 13
151.999961
 23
0.1833820000000052
 33
0.0
 14
5.996333999999997
 24
3.537247
 34
0.0
100
AcDbRotatedDimension
1001
ACAD
1000
DSTYLE
1002
{
1070
    40
1040
1.0
1002
}
  0
DIMENSION
  5
3097
330
BF7
100
AcDbEntity
  8
SK2
100
AcDbDimension
  2
*D7
 10
53.59911400000001
 20
9.769121486580617
 30
0.0
 11
102.799114
 21
13.56912148658061
 31
0.0
 70
    32
 71
     5
 42
98.39999999999998
  3
SANDVIK_DIM
100
AcDbAlignedDimension
 13
151.999114
 23
0.2224610000000027
 33
0.0
 14
53.59911400000001
 24
0.2224610000000027
 34
0.0
100
AcDbRotatedDimension
1001
ACAD
1000
DSTYLE
1002
{
1070
    40
1040
1.0
1002
}
  0
DIMENSION
  5
30A4
330
BF7
100
AcDbEntity
  8
2
100
AcDbDimension
  2
*D8
 10
162.4784686586583
 20
-3.899839
 30
0.0
 11
162.3748612751754
 21
-18.90995609023082
 31
0.0
 70
   160
  1
%%C <>
 71
     5
 42
8.199964000000001
  3
SANDVIK_DIM
100
AcDbAlignedDimension
 13
150.615889
 23
4.300125000000003
 33
0.0
 14
150.619377
 24
-3.899838999999995
 34
0.0
 50
90.0
100
AcDbRotatedDimension
1001
ACAD
1000
DSTYLE
1002
{
1070
    40
1040
1.0
1002
}
  0
DIMENSION
  5
30D0
330
BF7
100
AcDbEntity
  8
SK2
100
AcDbDimension
  2
*D9
 10
-50.26383564304206
 20
5.200161000000007
 30
0.0
 11
-54.31214678695869
 21
-13.05406211803159
 31
0.0
 70
   160
  1
%%C <>
 71
     5
 42
10.000002
  3
SANDVIK_DIM
100
AcDbAlignedDimension
 13
-37.41655983749604
 23
-4.799841
 33
0.0
 14
-37.00213192586387
 24
5.200161000000004
 34
0.0
 50
90.0
100
AcDbRotatedDimension
1001
ACAD
1000
DSTYLE
1002
{
1070
    40
1040
1.0
1002
}
  0
ENDSEC
  0
SECTION
  2
OBJECTS
  0
DICTIONARY
  5
BE3
330
0
100
AcDbDictionary
281
     1
  3
ACAD_CIP_PREVIOUS_PRODUCT_INFO
350
31EB
  3
ACAD_COLOR
350
BF2
  3
ACAD_DETAILVIEWSTYLE
350
31E8
  3
ACAD_GROUP
350
BE4
  3
ACAD_LAYOUT
350
BF0
  3
ACAD_MATERIAL
350
BF1
  3
ACAD_MLEADERSTYLE
350
31E3
  3
ACAD_MLINESTYLE
350
BED
  3
ACAD_PLOTSETTINGS
350
BEF
  3
ACAD_PLOTSTYLENAME
350
BE5
  3
ACAD_SCALELIST
350
31D1
  3
ACAD_SECTIONVIEWSTYLE
350
31E5
  3
ACAD_TABLESTYLE
350
31CF
  3
ACAD_VISUALSTYLE
350
31B6
  3
ACDB_RECOMPOSE_DATA
350
324D
  3
AcDbVariableDictionary
350
3240
  3
ASE_INDEX_DICTIONARY
350
323D
  3
DWGPROPS
350
324E
  0
DICTIONARY
  5
31EE
330
BE7
100
AcDbDictionary
280
     1
281
     1
  3
ADSK_XREC_LAYER_RECONCILED
360
31EF
  0
DICTIONARY
  5
31F0
330
BFB
100
AcDbDictionary
280
     1
281
     1
  3
ADSK_XREC_LAYER_RECONCILED
360
31F1
  0
DICTIONARY
  5
31F2
330
C00
100
AcDbDictionary
280
     1
281
     1
  3
ADSK_XREC_LAYER_RECONCILED
360
31F3
  0
DICTIONARY
  5
31F4
330
C01
100
AcDbDictionary
280
     1
281
     1
  3
ADSK_XREC_LAYER_RECONCILED
360
31F5
  0
DICTIONARY
  5
31F6
330
C02
100
AcDbDictionary
280
     1
281
     1
  3
ADSK_XREC_LAYER_RECONCILED
360
31F7
  0
DICTIONARY
  5
31F8
330
C03
100
AcDbDictionary
280
     1
281
     1
  3
ADSK_XREC_LAYER_RECONCILED
360
31F9
  0
DICTIONARY
  5
31FA
330
C04
100
AcDbDictionary
280
     1
281
     1
  3
ADSK_XREC_LAYER_RECONCILED
360
31FB
  0
DICTIONARY
  5
31FC
330
C05
100
AcDbDictionary
280
     1
281
     1
  3
ADSK_XREC_LAYER_RECONCILED
360
31FD
  0
DICTIONARY
  5
31FE
330
C06
100
AcDbDictionary
280
     1
281
     1
  3
ADSK_XREC_LAYER_RECONCILED
360
31FF
  0
DICTIONARY
  5
3200
330
C07
100
AcDbDictionary
280
     1
281
     1
  3
ADSK_XREC_LAYER_RECONCILED
360
3201
  0
DICTIONARY
  5
3202
330
C08
100
AcDbDictionary
280
     1
281
     1
  3
ADSK_XREC_LAYER_RECONCILED
360
3203
  0
DICTIONARY
  5
3204
330
C09
100
AcDbDictionary
280
     1
281
     1
  3
ADSK_XREC_LAYER_RECONCILED
360
3205
  0
DICTIONARY
  5
3206
330
C0A
100
AcDbDictionary
280
     1
281
     1
  3
ADSK_XREC_LAYER_RECONCILED
360
3207
  0
DICTIONARY
  5
3208
330
C0B
100
AcDbDictionary
280
     1
281
     1
  3
ADSK_XREC_LAYER_RECONCILED
360
3209
  0
DICTIONARY
  5
320A
330
C0C
100
AcDbDictionary
280
     1
281
     1
  3
ADSK_XREC_LAYER_RECONCILED
360
320B
  0
DICTIONARY
  5
320C
330
C0D
100
AcDbDictionary
280
     1
281
     1
  3
ADSK_XREC_LAYER_RECONCILED
360
320D
  0
DICTIONARY
  5
320E
330
C0E
100
AcDbDictionary
280
     1
281
     1
  3
ADSK_XREC_LAYER_RECONCILED
360
320F
  0
DICTIONARY
  5
3210
330
C0F
100
AcDbDictionary
280
     1
281
     1
  3
ADSK_XREC_LAYER_RECONCILED
360
3211
  0
DICTIONARY
  5
3212
330
C10
100
AcDbDictionary
280
     1
281
     1
  3
ADSK_XREC_LAYER_RECONCILED
360
3213
  0
DICTIONARY
  5
3214
330
C11
100
AcDbDictionary
280
     1
281
     1
  3
ADSK_XREC_LAYER_RECONCILED
360
3215
  0
DICTIONARY
  5
3216
330
C12
100
AcDbDictionary
280
     1
281
     1
  3
ADSK_XREC_LAYER_RECONCILED
360
3217
  0
DICTIONARY
  5
3218
330
C13
100
AcDbDictionary
280
     1
281
     1
  3
ADSK_XREC_LAYER_RECONCILED
360
3219
  0
DICTIONARY
  5
321A
330
C14
100
AcDbDictionary
280
     1
281
     1
  3
ADSK_XREC_LAYER_RECONCILED
360
321B
  0
DICTIONARY
  5
321C
330
C15
100
AcDbDictionary
280
     1
281
     1
  3
ADSK_XREC_LAYER_RECONCILED
360
321D
  0
DICTIONARY
  5
321E
330
C16
100
AcDbDictionary
280
     1
281
     1
  3
ADSK_XREC_LAYER_RECONCILED
360
321F
  0
DICTIONARY
  5
3220
330
C17
100
AcDbDictionary
280
     1
281
     1
  3
ADSK_XREC_LAYER_RECONCILED
360
3221
  0
DICTIONARY
  5
3222
330
C18
100
AcDbDictionary
280
     1
281
     1
  3
ADSK_XREC_LAYER_RECONCILED
360
3223
  0
DICTIONARY
  5
3224
330
C19
100
AcDbDictionary
280
     1
281
     1
  3
ADSK_XREC_LAYER_RECONCILED
360
3225
  0
DICTIONARY
  5
3226
330
C1A
100
AcDbDictionary
280
     1
281
     1
  3
ADSK_XREC_LAYER_RECONCILED
360
3227
  0
DICTIONARY
  5
3228
330
C1B
100
AcDbDictionary
280
     1
281
     1
  3
ADSK_XREC_LAYER_RECONCILED
360
3229
  0
DICTIONARY
  5
322A
330
C1C
100
AcDbDictionary
280
     1
281
     1
  3
ADSK_XREC_LAYER_RECONCILED
360
322B
  0
DICTIONARY
  5
322C
330
C1D
100
AcDbDictionary
280
     1
281
     1
  3
ADSK_XREC_LAYER_RECONCILED
360
322D
  0
DICTIONARY
  5
322E
330
C1E
100
AcDbDictionary
280
     1
281
     1
  3
ADSK_XREC_LAYER_RECONCILED
360
322F
  0
DICTIONARY
  5
3230
330
C1F
100
AcDbDictionary
280
     1
281
     1
  3
ADSK_XREC_LAYER_RECONCILED
360
3231
  0
DICTIONARY
  5
3232
330
C20
100
AcDbDictionary
280
     1
281
     1
  3
ADSK_XREC_LAYER_RECONCILED
360
3233
  0
DICTIONARY
  5
3234
330
C21
100
AcDbDictionary
280
     1
281
     1
  3
ADSK_XREC_LAYER_RECONCILED
360
3235
  0
DICTIONARY
  5
3236
330
C22
100
AcDbDictionary
280
     1
281
     1
  3
ADSK_XREC_LAYER_RECONCILED
360
3237
  0
DICTIONARY
  5
3238
330
C23
100
AcDbDictionary
280
     1
281
     1
  3
ADSK_XREC_LAYER_RECONCILED
360
3239
  0
DICTIONARY
  5
323A
330
C42
100
AcDbDictionary
280
     1
281
     1
  3
ADSK_XREC_LAYER_RECONCILED
360
323B
  0
XRECORD
  5
31EB
102
{ACAD_REACTORS
330
BE3
102
}
330
BE3
100
AcDbXrecord
280
     1
300
AMECH_PP
300
2013
300
PDSU_F_S
  0
DICTIONARY
  5
BF2
102
{ACAD_REACTORS
330
BE3
102
}
330
BE3
100
AcDbDictionary
281
     1
  0
DICTIONARY
  5
31E8
102
{ACAD_REACTORS
330
BE3
102
}
330
BE3
100
AcDbDictionary
281
     1
  3
Imperial24
350
31E9
  0
DICTIONARY
  5
BE4
102
{ACAD_REACTORS
330
BE3
102
}
330
BE3
100
AcDbDictionary
281
     1
  0
DICTIONARY
  5
BF0
102
{ACAD_REACTORS
330
BE3
102
}
330
BE3
100
AcDbDictionary
281
     1
  3
Layout1
350
BF6
  3
Model
350
BFA
  0
DICTIONARY
  5
BF1
102
{ACAD_REACTORS
330
BE3
102
}
330
BE3
100
AcDbDictionary
281
     1
  3
ByBlock
350
31A6
  3
ByLayer
350
319E
  3
Global
350
31AE
  0
DICTIONARY
  5
31E3
102
{ACAD_REACTORS
330
BE3
102
}
330
BE3
100
AcDbDictionary
281
     1
  3
Standard
350
31E4
  0
DICTIONARY
  5
BED
102
{ACAD_REACTORS
330
BE3
102
}
330
BE3
100
AcDbDictionary
281
     1
  3
Standard
350
BEE
  0
DICTIONARY
  5
BEF
102
{ACAD_REACTORS
330
BE3
102
}
330
BE3
100
AcDbDictionary
281
     1
  0
ACDBDICTIONARYWDFLT
  5
BE5
102
{ACAD_REACTORS
330
BE3
102
}
330
BE3
100
AcDbDictionary
281
     1
  3
Normal
350
BE6
100
AcDbDictionaryWithDefault
340
BE6
  0
DICTIONARY
  5
31D1
102
{ACAD_REACTORS
330
BE3
102
}
330
BE3
100
AcDbDictionary
281
     1
  3
A0
350
31D2
  3
A1
350
31D3
  3
A2
350
31D4
  3
A3
350
31D5
  3
A4
350
31D6
  3
A5
350
31D7
  3
A6
350
31D8
  3
A7
350
31D9
  3
A8
350
31DA
  3
A9
350
31DB
  3
B0
350
31DC
  3
B1
350
31DD
  3
B2
350
31DE
  3
B3
350
31DF
  3
B4
350
31E0
  3
B5
350
31E1
  3
B6
350
31E2
  0
DICTIONARY
  5
31E5
102
{ACAD_REACTORS
330
BE3
102
}
330
BE3
100
AcDbDictionary
281
     1
  3
Imperial24
350
31E7
  0
DICTIONARY
  5
31CF
102
{ACAD_REACTORS
330
BE3
102
}
330
BE3
100
AcDbDictionary
281
     1
  3
Standard
350
31D0
  0
DICTIONARY
  5
31B6
102
{ACAD_REACTORS
330
BE3
102
}
330
BE3
100
AcDbDictionary
281
     1
  3
2dWireframe
350
31BC
  3
Basic
350
31BB
  3
Brighten
350
31C2
  3
ColorChange
350
31C6
  3
Conceptual
350
31BF
  3
Dim
350
31C1
  3
EdgeColorOff
350
31CE
  3
Facepattern
350
31C5
  3
Flat
350
31B7
  3
FlatWithEdges
350
31B8
  3
Gouraud
350
31B9
  3
GouraudWithEdges
350
31BA
  3
Hidden
350
31BE
  3
JitterOff
350
31CC
  3
Linepattern
350
31C4
  3
OverhangOff
350
31CD
  3
Realistic
350
31C0
  3
Shaded
350
31CB
  3
Shaded with edges
350
31CA
  3
Shades of Gray
350
31C7
  3
Sketchy
350
31C8
  3
Thicken
350
31C3
  3
Wireframe
350
31BD
  3
X-Ray
350
31C9
  0
XRECORD
  5
324D
102
{ACAD_REACTORS
330
BE3
102
}
330
BE3
100
AcDbXrecord
280
     1
 90
        1
330
31D0
  0
DICTIONARY
  5
3240
102
{ACAD_REACTORS
330
BE3
102
}
330
BE3
100
AcDbDictionary
281
     1
  3
CANNOSCALE
350
3245
  3
CMLEADERSTYLE
350
3242
  3
CTABLESTYLE
350
3241
  3
CVIEWDETAILSTYLE
350
3243
  3
CVIEWSECTIONSTYLE
350
3244
  3
DIMASSOC
350
3249
  3
INDEXCTL
350
3247
  3
SORTENTS
350
3246
  3
XCLIPFRAME
350
3248
  0
DICTIONARY
  5
323D
102
{ACAD_REACTORS
330
BE3
102
}
330
BE3
100
AcDbDictionary
281
     1
  3
ASEBlockHierarchyIndexRecord
350
323F
1001
DCO15
1040
1815724039.49
  0
XRECORD
  5
324E
102
{ACAD_REACTORS
330
BE3
102
}
330
BE3
100
AcDbXrecord
280
     1
  1
DWGPROPS COOKIE
  2

  3

  4

  6

  7

  8
Micke
  9

300
=
301
=
302
=
303
=
304
=
305
=
306
=
307
=
308
=
309
=
 40
0.1166186574074074
 41
2455817.64629206
 42
2456818.536382986
  1

 90
        0
  0
XRECORD
  5
31EF
102
{ACAD_REACTORS
330
31EE
102
}
330
31EE
100
AcDbXrecord
280
     1
290
     1
  0
XRECORD
  5
31F1
102
{ACAD_REACTORS
330
31F0
102
}
330
31F0
100
AcDbXrecord
280
     1
290
     1
  0
XRECORD
  5
31F3
102
{ACAD_REACTORS
330
31F2
102
}
330
31F2
100
AcDbXrecord
280
     1
290
     1
  0
XRECORD
  5
31F5
102
{ACAD_REACTORS
330
31F4
102
}
330
31F4
100
AcDbXrecord
280
     1
290
     1
  0
XRECORD
  5
31F7
102
{ACAD_REACTORS
330
31F6
102
}
330
31F6
100
AcDbXrecord
280
     1
290
     1
  0
XRECORD
  5
31F9
102
{ACAD_REACTORS
330
31F8
102
}
330
31F8
100
AcDbXrecord
280
     1
290
     1
  0
XRECORD
  5
31FB
102
{ACAD_REACTORS
330
31FA
102
}
330
31FA
100
AcDbXrecord
280
     1
290
     1
  0
XRECORD
  5
31FD
102
{ACAD_REACTORS
330
31FC
102
}
330
31FC
100
AcDbXrecord
280
     1
290
     1
  0
XRECORD
  5
31FF
102
{ACAD_REACTORS
330
31FE
102
}
330
31FE
100
AcDbXrecord
280
     1
290
     1
  0
XRECORD
  5
3201
102
{ACAD_REACTORS
330
3200
102
}
330
3200
100
AcDbXrecord
280
     1
290
     1
  0
XRECORD
  5
3203
102
{ACAD_REACTORS
330
3202
102
}
330
3202
100
AcDbXrecord
280
     1
290
     1
  0
XRECORD
  5
3205
102
{ACAD_REACTORS
330
3204
102
}
330
3204
100
AcDbXrecord
280
     1
290
     1
  0
XRECORD
  5
3207
102
{ACAD_REACTORS
330
3206
102
}
330
3206
100
AcDbXrecord
280
     1
290
     1
  0
XRECORD
  5
3209
102
{ACAD_REACTORS
330
3208
102
}
330
3208
100
AcDbXrecord
280
     1
290
     1
  0
XRECORD
  5
320B
102
{ACAD_REACTORS
330
320A
102
}
330
320A
100
AcDbXrecord
280
     1
290
     1
  0
XRECORD
  5
320D
102
{ACAD_REACTORS
330
320C
102
}
330
320C
100
AcDbXrecord
280
     1
290
     1
  0
XRECORD
  5
320F
102
{ACAD_REACTORS
330
320E
102
}
330
320E
100
AcDbXrecord
280
     1
290
     1
  0
XRECORD
  5
3211
102
{ACAD_REACTORS
330
3210
102
}
330
3210
100
AcDbXrecord
280
     1
290
     1
  0
XRECORD
  5
3213
102
{ACAD_REACTORS
330
3212
102
}
330
3212
100
AcDbXrecord
280
     1
290
     1
  0
XRECORD
  5
3215
102
{ACAD_REACTORS
330
3214
102
}
330
3214
100
AcDbXrecord
280
     1
290
     1
  0
XRECORD
  5
3217
102
{ACAD_REACTORS
330
3216
102
}
330
3216
100
AcDbXrecord
280
     1
290
     1
  0
XRECORD
  5
3219
102
{ACAD_REACTORS
330
3218
102
}
330
3218
100
AcDbXrecord
280
     1
290
     1
  0
XRECORD
  5
321B
102
{ACAD_REACTORS
330
321A
102
}
330
321A
100
AcDbXrecord
280
     1
290
     1
  0
XRECORD
  5
321D
102
{ACAD_REACTORS
330
321C
102
}
330
321C
100
AcDbXrecord
280
     1
290
     1
  0
XRECORD
  5
321F
102
{ACAD_REACTORS
330
321E
102
}
330
321E
100
AcDbXrecord
280
     1
290
     1
  0
XRECORD
  5
3221
102
{ACAD_REACTORS
330
3220
102
}
330
3220
100
AcDbXrecord
280
     1
290
     1
  0
XRECORD
  5
3223
102
{ACAD_REACTORS
330
3222
102
}
330
3222
100
AcDbXrecord
280
     1
290
     1
  0
XRECORD
  5
3225
102
{ACAD_REACTORS
330
3224
102
}
330
3224
100
AcDbXrecord
280
     1
290
     1
  0
XRECORD
  5
3227
102
{ACAD_REACTORS
330
3226
102
}
330
3226
100
AcDbXrecord
280
     1
290
     1
  0
XRECORD
  5
3229
102
{ACAD_REACTORS
330
3228
102
}
330
3228
100
AcDbXrecord
280
     1
290
     1
  0
XRECORD
  5
322B
102
{ACAD_REACTORS
330
322A
102
}
330
322A
100
AcDbXrecord
280
     1
290
     1
  0
XRECORD
  5
322D
102
{ACAD_REACTORS
330
322C
102
}
330
322C
100
AcDbXrecord
280
     1
290
     1
  0
XRECORD
  5
322F
102
{ACAD_REACTORS
330
322E
102
}
330
322E
100
AcDbXrecord
280
     1
290
     1
  0
XRECORD
  5
3231
102
{ACAD_REACTORS
330
3230
102
}
330
3230
100
AcDbXrecord
280
     1
290
     1
  0
XRECORD
  5
3233
102
{ACAD_REACTORS
330
3232
102
}
330
3232
100
AcDbXrecord
280
     1
290
     1
  0
XRECORD
  5
3235
102
{ACAD_REACTORS
330
3234
102
}
330
3234
100
AcDbXrecord
280
     1
290
     1
  0
XRECORD
  5
3237
102
{ACAD_REACTORS
330
3236
102
}
330
3236
100
AcDbXrecord
280
     1
290
     1
  0
XRECORD
  5
3239
102
{ACAD_REACTORS
330
3238
102
}
330
3238
100
AcDbXrecord
280
     1
290
     1
  0
XRECORD
  5
323B
102
{ACAD_REACTORS
330
323A
102
}
330
323A
100
AcDbXrecord
280
     1
290
     1
  0
ACDBDETAILVIEWSTYLE
  5
31E9
102
{ACAD_REACTORS
330
31E8
102
}
330
31E8
100
AcDbModelDocViewStyle
 70
     0
  3
Imperial24
290
     0
100
AcDbDetailViewStyle
 70
     0
 71
     0
 90
        3
 71
     1
340
BE8
 40
0.24
340
0
 40
0.24
300

 40
0.36
280
     3
 71
     2
340
BEC
 90
       25
 71
     3
340
BE8
 40
0.24
 90
        1
 40
0.75
 90
        1
300
%<\AcVar ViewType \f "%tc1">% %<\AcVar ViewDetailId>%\PSCALE %<\AcVar ViewScale \f "%sn">%
 71
     4
340
BEC
 90
       25
340
BEC
 90
       25
280
     0
  0
LAYOUT
  5
BF6
102
{ACAD_XDICTIONARY
360
324F
102
}
102
{ACAD_REACTORS
330
BF0
102
}
330
BF0
100
AcDbPlotSettings
  1

  2
\\GBCFS501\GBCPR502
  4

  6

 40
0.0
 41
0.0
 42
0.0
 43
0.0
 44
0.0
 45
0.0
 46
0.0
 47
0.0
 48
0.0
 49
0.0
140
0.0
141
0.0
142
1.0
143
1.0
 70
   688
 72
     0
 73
     0
 74
     5
  7

 75
    16
147
1.0
148
0.0
149
0.0
100
AcDbLayout
  1
Layout1
 70
     1
 71
     1
 10
0.0
 20
0.0
 11
12.0
 21
9.0
 12
0.0
 22
0.0
 32
0.0
 14
1.000000000000000E+20
 24
1.000000000000000E+20
 34
1.000000000000000E+20
 15
-1.000000000000000E+20
 25
-1.000000000000000E+20
 35
-1.000000000000000E+20
146
0.0
 13
0.0
 23
0.0
 33
0.0
 16
1.0
 26
0.0
 36
0.0
 17
0.0
 27
1.0
 37
0.0
 76
     0
330
BF3
  0
LAYOUT
  5
BFA
102
{ACAD_XDICTIONARY
360
3251
102
}
102
{ACAD_REACTORS
330
BF0
102
}
330
BF0
100
AcDbPlotSettings
  1

  2
\\GBCFS501\GBCPR502
  4

  6

 40
0.0
 41
0.0
 42
0.0
 43
0.0
 44
0.0
 45
0.0
 46
0.0
 47
0.0
 48
0.0
 49
0.0
140
0.0
141
0.0
142
1.0
143
1.0
 70
  1712
 72
     0
 73
     0
 74
     0
  7

 75
     0
147
1.0
148
0.0
149
0.0
100
AcDbLayout
  1
Model
 70
     1
 71
     0
 10
0.0
 20
0.0
 11
12.0
 21
9.0
 12
0.0
 22
0.0
 32
0.0
 14
0.0
 24
0.0
 34
0.0
 15
0.0
 25
0.0
 35
0.0
146
0.0
 13
0.0
 23
0.0
 33
0.0
 16
1.0
 26
0.0
 36
0.0
 17
0.0
 27
1.0
 37
0.0
 76
     0
330
BF7
331
319A
  0
MATERIAL
  5
31A6
102
{ACAD_XDICTIONARY
360
31A7
102
}
102
{ACAD_REACTORS
330
BF1
102
}
330
BF1
100
AcDbMaterial
  1
ByBlock
 72
     0
 43
0.0208333333333333
 43
0.0
 43
0.0
 43
0.0
 43
0.0
 43
0.0208333333333333
 43
0.0
 43
0.0
 43
0.0
 43
0.0
 43
1.0
 43
0.0
 43
0.0
 43
0.0
 43
0.0
 43
1.0
 77
     0
 47
0.0208333333333333
 47
0.0
 47
0.0
 47
0.0
 47
0.0
 47
0.0208333333333333
 47
0.0
 47
0.0
 47
0.0
 47
0.0
 47
1.0
 47
0.0
 47
0.0
 47
0.0
 47
0.0
 47
1.0
171
     0
 49
0.0208333333333333
 49
0.0
 49
0.0
 49
0.0
 49
0.0
 49
0.0208333333333333
 49
0.0
 49
0.0
 49
0.0
 49
0.0
 49
1.0
 49
0.0
 49
0.0
 49
0.0
 49
0.0
 49
1.0
175
     0
142
0.0208333333333333
142
0.0
142
0.0
142
0.0
142
0.0
142
0.0208333333333333
142
0.0
142
0.0
142
0.0
142
0.0
142
1.0
142
0.0
142
0.0
142
0.0
142
0.0
142
1.0
179
     0
144
0.0208333333333333
144
0.0
144
0.0
144
0.0
144
0.0
144
0.0208333333333333
144
0.0
144
0.0
144
0.0
144
0.0
144
1.0
144
0.0
144
0.0
144
0.0
144
0.0
144
1.0
147
0.0208333333333333
147
0.0
147
0.0
147
0.0
147
0.0
147
0.0208333333333333
147
0.0
147
0.0
147
0.0
147
0.0
147
1.0
147
0.0
147
0.0
147
0.0
147
0.0
147
1.0
  0
MATERIAL
  5
319E
102
{ACAD_XDICTIONARY
360
319F
102
}
102
{ACAD_REACTORS
330
BF1
102
}
330
BF1
100
AcDbMaterial
  1
ByLayer
 72
     0
 43
0.0208333333333333
 43
0.0
 43
0.0
 43
0.0
 43
0.0
 43
0.0208333333333333
 43
0.0
 43
0.0
 43
0.0
 43
0.0
 43
1.0
 43
0.0
 43
0.0
 43
0.0
 43
0.0
 43
1.0
 77
     0
 47
0.0208333333333333
 47
0.0
 47
0.0
 47
0.0
 47
0.0
 47
0.0208333333333333
 47
0.0
 47
0.0
 47
0.0
 47
0.0
 47
1.0
 47
0.0
 47
0.0
 47
0.0
 47
0.0
 47
1.0
171
     0
 49
0.0208333333333333
 49
0.0
 49
0.0
 49
0.0
 49
0.0
 49
0.0208333333333333
 49
0.0
 49
0.0
 49
0.0
 49
0.0
 49
1.0
 49
0.0
 49
0.0
 49
0.0
 49
0.0
 49
1.0
175
     0
142
0.0208333333333333
142
0.0
142
0.0
142
0.0
142
0.0
142
0.0208333333333333
142
0.0
142
0.0
142
0.0
142
0.0
142
1.0
142
0.0
142
0.0
142
0.0
142
0.0
142
1.0
179
     0
144
0.0208333333333333
144
0.0
144
0.0
144
0.0
144
0.0
144
0.0208333333333333
144
0.0
144
0.0
144
0.0
144
0.0
144
1.0
144
0.0
144
0.0
144
0.0
144
0.0
144
1.0
147
0.0208333333333333
147
0.0
147
0.0
147
0.0
147
0.0
147
0.0208333333333333
147
0.0
147
0.0
147
0.0
147
0.0
147
1.0
147
0.0
147
0.0
147
0.0
147
0.0
147
1.0
  0
MATERIAL
  5
31AE
102
{ACAD_XDICTIONARY
360
31AF
102
}
102
{ACAD_REACTORS
330
BF1
102
}
330
BF1
100
AcDbMaterial
  1
Global
 72
     0
 43
0.0208333333333333
 43
0.0
 43
0.0
 43
0.0
 43
0.0
 43
0.0208333333333333
 43
0.0
 43
0.0
 43
0.0
 43
0.0
 43
1.0
 43
0.0
 43
0.0
 43
0.0
 43
0.0
 43
1.0
 77
     0
 47
0.0208333333333333
 47
0.0
 47
0.0
 47
0.0
 47
0.0
 47
0.0208333333333333
 47
0.0
 47
0.0
 47
0.0
 47
0.0
 47
1.0
 47
0.0
 47
0.0
 47
0.0
 47
0.0
 47
1.0
171
     0
 49
0.0208333333333333
 49
0.0
 49
0.0
 49
0.0
 49
0.0
 49
0.0208333333333333
 49
0.0
 49
0.0
 49
0.0
 49
0.0
 49
1.0
 49
0.0
 49
0.0
 49
0.0
 49
0.0
 49
1.0
175
     0
142
0.0208333333333333
142
0.0
142
0.0
142
0.0
142
0.0
142
0.0208333333333333
142
0.0
142
0.0
142
0.0
142
0.0
142
1.0
142
0.0
142
0.0
142
0.0
142
0.0
142
1.0
179
     0
144
0.0208333333333333
144
0.0
144
0.0
144
0.0
144
0.0
144
0.0208333333333333
144
0.0
144
0.0
144
0.0
144
0.0
144
1.0
144
0.0
144
0.0
144
0.0
144
0.0
144
1.0
147
0.0208333333333333
147
0.0
147
0.0
147
0.0
147
0.0
147
0.0208333333333333
147
0.0
147
0.0
147
0.0
147
0.0
147
1.0
147
0.0
147
0.0
147
0.0
147
0.0
147
1.0
  0
MLEADERSTYLE
  5
31E4
102
{ACAD_REACTORS
330
31E3
102
}
330
31E3
100
AcDbMLeaderStyle
170
     2
171
     1
172
     0
 90
        2
 40
0.0
 41
0.0
173
     1
 91
-1056964608
340
BEA
 92
       -2
290
     1
 42
0.09
291
     1
 43
0.36
  3
Standard
 44
0.18
300

342
BE8
174
     1
178
     6
175
     1
176
     0
 93
-1056964608
 45
0.18
292
     0
297
     0
 46
0.18
 94
-1056964608
 47
1.0
 49
1.0
140
1.0
293
     1
141
0.0
294
     1
177
     0
142
1.0
295
     0
296
     0
143
0.125
1001
ACAD_MLEADERVER
1070
     2
  0
MLINESTYLE
  5
BEE
102
{ACAD_REACTORS
330
BED
102
}
330
BED
100
AcDbMlineStyle
  2
STANDARD
 70
     0
  3

 62
   256
 51
90.0
 52
90.0
 71
     2
 49
0.5
 62
   256
  6
BYLAYER
 49
-0.5
 62
   256
  6
BYLAYER
  0
ACDBPLACEHOLDER
  5
BE6
102
{ACAD_REACTORS
330
BE5
102
}
330
BE5
  0
SCALE
  5
31D2
102
{ACAD_REACTORS
330
31D1
102
}
330
31D1
100
AcDbScale
 70
     0
300
1:1
140
1.0
141
1.0
290
     1
  0
SCALE
  5
31D3
102
{ACAD_REACTORS
330
31D1
102
}
330
31D1
100
AcDbScale
 70
     0
300
1/128" = 1'-0"
140
0.0078125
141
12.0
290
     0
  0
SCALE
  5
31D4
102
{ACAD_REACTORS
330
31D1
102
}
330
31D1
100
AcDbScale
 70
     0
300
1/64" = 1'-0"
140
0.015625
141
12.0
290
     0
  0
SCALE
  5
31D5
102
{ACAD_REACTORS
330
31D1
102
}
330
31D1
100
AcDbScale
 70
     0
300
1/32" = 1'-0"
140
0.03125
141
12.0
290
     0
  0
SCALE
  5
31D6
102
{ACAD_REACTORS
330
31D1
102
}
330
31D1
100
AcDbScale
 70
     0
300
1/16" = 1'-0"
140
0.0625
141
12.0
290
     0
  0
SCALE
  5
31D7
102
{ACAD_REACTORS
330
31D1
102
}
330
31D1
100
AcDbScale
 70
     0
300
3/32" = 1'-0"
140
0.09375
141
12.0
290
     0
  0
SCALE
  5
31D8
102
{ACAD_REACTORS
330
31D1
102
}
330
31D1
100
AcDbScale
 70
     0
300
1/8" = 1'-0"
140
0.125
141
12.0
290
     0
  0
SCALE
  5
31D9
102
{ACAD_REACTORS
330
31D1
102
}
330
31D1
100
AcDbScale
 70
     0
300
3/16" = 1'-0"
140
0.1875
141
12.0
290
     0
  0
SCALE
  5
31DA
102
{ACAD_REACTORS
330
31D1
102
}
330
31D1
100
AcDbScale
 70
     0
300
1/4" = 1'-0"
140
0.25
141
12.0
290
     0
  0
SCALE
  5
31DB
102
{ACAD_REACTORS
330
31D1
102
}
330
31D1
100
AcDbScale
 70
     0
300
3/8" = 1'-0"
140
0.375
141
12.0
290
     0
  0
SCALE
  5
31DC
102
{ACAD_REACTORS
330
31D1
102
}
330
31D1
100
AcDbScale
 70
     0
300
1/2" = 1'-0"
140
0.5
141
12.0
290
     0
  0
SCALE
  5
31DD
102
{ACAD_REACTORS
330
31D1
102
}
330
31D1
100
AcDbScale
 70
     0
300
3/4" = 1'-0"
140
0.75
141
12.0
290
     0
  0
SCALE
  5
31DE
102
{ACAD_REACTORS
330
31D1
102
}
330
31D1
100
AcDbScale
 70
     0
300
1" = 1'-0"
140
1.0
141
12.0
290
     0
  0
SCALE
  5
31DF
102
{ACAD_REACTORS
330
31D1
102
}
330
31D1
100
AcDbScale
 70
     0
300
1-1/2" = 1'-0"
140
1.5
141
12.0
290
     0
  0
SCALE
  5
31E0
102
{ACAD_REACTORS
330
31D1
102
}
330
31D1
100
AcDbScale
 70
     0
300
3" = 1'-0"
140
3.0
141
12.0
290
     0
  0
SCALE
  5
31E1
102
{ACAD_REACTORS
330
31D1
102
}
330
31D1
100
AcDbScale
 70
     0
300
6" = 1'-0"
140
6.0
141
12.0
290
     0
  0
SCALE
  5
31E2
102
{ACAD_REACTORS
330
31D1
102
}
330
31D1
100
AcDbScale
 70
     0
300
1'-0" = 1'-0"
140
12.0
141
12.0
290
     0
  0
ACDBSECTIONVIEWSTYLE
  5
31E7
102
{ACAD_REACTORS
330
31E5
102
}
330
31E5
100
AcDbModelDocViewStyle
 70
     0
  3
Imperial24
290
     0
100
AcDbSectionViewStyle
 70
     0
 71
     0
 90
       78
 71
     1
340
BE8
 40
0.24
340
0
340
0
 40
0.24
300
I, O, Q, S, X, Z
 40
0.48
 90
        3
 40
0.18
 90
        1
 71
     2
340
31E6
 90
       25
340
BEC
 90
       50
 40
0.24
 40
0.0
 40
0.24
 71
     3
340
BE8
 40
0.24
 90
        1
 40
0.75
 90
        1
300
%<\AcVar ViewType \f "%tc1">% %<\AcVar ViewSectionStartId>%-%<\AcVar ViewSectionEndId>%\PSCALE %<\AcVar ViewScale \f "%sn">%
 71
     4
300
ANSI31
 40
1.0
 90
        0
290
     0
290
     0
 90
        6
 40
0.0
 40
1.570796326794896
 40
0.2617993877991494
 40
1.308996938995747
 40
-0.2617993877991494
 40
1.832595714594046
  0
TABLESTYLE
  5
31D0
102
{ACAD_XDICTIONARY
360
324B
102
}
102
{ACAD_REACTORS
330
31CF
102
}
330
31CF
100
AcDbTableStyle
  3
Standard
 70
     0
 71
     0
 40
0.06
 41
0.06
280
     0
281
     0
  7
STANDARD
140
0.18
170
     2
 62
     0
 63
     7
283
     0
274
    -2
284
     1
 64
     0
275
    -2
285
     1
 65
     0
276
    -2
286
     1
 66
     0
277
    -2
287
     1
 67
     0
278
    -2
288
     1
 68
     0
279
    -2
289
     1
 69
     0
  7
STANDARD
140
0.25
170
     5
 62
     0
 63
     7
283
     0
274
    -2
284
     1
 64
     0
275
    -2
285
     1
 65
     0
276
    -2
286
     1
 66
     0
277
    -2
287
     1
 67
     0
278
    -2
288
     1
 68
     0
279
    -2
289
     1
 69
     0
  7
STANDARD
140
0.18
170
     5
 62
     0
 63
     7
283
     0
274
    -2
284
     1
 64
     0
275
    -2
285
     1
 65
     0
276
    -2
286
     1
 66
     0
277
    -2
287
     1
 67
     0
278
    -2
288
     1
 68
     0
279
    -2
289
     1
 69
     0
  0
VISUALSTYLE
  5
31BC
102
{ACAD_XDICTIONARY
360
3260
102
}
102
{ACAD_REACTORS
330
31B6
102
}
330
31B6
100
AcDbVisualStyle
  2
2dWireframe
 70
     4
 71
     0
 72
     2
 73
     0
 90
        0
 40
-0.6
 41
-30.0
 62
     5
 63
     7
 74
     1
 91
        4
 64
     7
 65
   257
 75
     1
175
     1
 42
1.0
 92
        0
 66
   257
 43
1.0
 76
     1
 77
     6
 78
     2
 67
     7
 79
     5
170
     0
171
     0
290
     0
174
     0
 93
        1
 44
0.0
173
     0
291
     0
 45
0.0
1001
ACAD
1000
AcDbSavedByObjectVersion
1070
     0
  0
VISUALSTYLE
  5
31BB
102
{ACAD_XDICTIONARY
360
325E
102
}
102
{ACAD_REACTORS
330
31B6
102
}
330
31B6
100
AcDbVisualStyle
  2
Basic
 70
     7
 71
     1
 72
     0
 73
     1
 90
        0
 40
-0.6
 41
-30.0
 62
     5
 63
     7
 74
     0
 91
        4
 64
     7
 65
   257
 75
     1
175
     1
 42
1.0
 92
        8
 66
     7
 43
1.0
 76
     1
 77
     6
 78
     2
 67
     7
 79
     5
170
     0
171
     0
290
     0
174
     0
 93
        1
 44
0.0
173
     0
291
     1
 45
0.0
1001
ACAD
1000
AcDbSavedByObjectVersion
1070
     0
  0
VISUALSTYLE
  5
31C2
102
{ACAD_XDICTIONARY
360
326C
102
}
102
{ACAD_REACTORS
330
31B6
102
}
330
31B6
100
AcDbVisualStyle
  2
Brighten
 70
    12
 71
     2
 72
     2
 73
     0
 90
        0
 40
-0.6
 41
-30.0
 62
     5
 63
     7
 74
     1
 91
        4
 64
     7
 65
   257
 75
     1
175
     1
 42
1.0
 92
        8
 66
     7
 43
1.0
 76
     1
 77
     6
 78
     2
 67
     7
 79
     5
170
     0
171
     0
290
     0
174
     0
 93
        1
 44
50.0
173
     0
291
     1
 45
0.0
1001
ACAD
1000
AcDbSavedByObjectVersion
1070
     0
  0
VISUALSTYLE
  5
31C6
102
{ACAD_XDICTIONARY
360
3274
102
}
102
{ACAD_REACTORS
330
31B6
102
}
330
31B6
100
AcDbVisualStyle
  2
ColorChange
 70
    16
 71
     2
 72
     2
 73
     3
 90
        0
 40
-0.6
 41
-30.0
 62
     5
 63
     8
 74
     1
 91
        4
 64
     7
 65
   257
 75
     1
175
     1
 42
1.0
 92
        8
 66
     8
 43
1.0
 76
     1
 77
     6
 78
     2
 67
     7
 79
     5
170
     0
171
     0
290
     0
174
     0
 93
        1
 44
0.0
173
     0
291
     1
 45
0.0
1001
ACAD
1000
AcDbSavedByObjectVersion
1070
     0
  0
VISUALSTYLE
  5
31BF
102
{ACAD_XDICTIONARY
360
3266
102
}
102
{ACAD_REACTORS
330
31B6
102
}
330
31B6
100
AcDbVisualStyle
  2
Conceptual
 70
     9
 71
     3
 72
     2
 73
     0
 90
        0
 40
-0.6
 41
-30.0
 62
     5
 63
     7
 74
     2
 91
        2
 64
     7
 65
   257
 75
     1
175
     1
 42
179.0
 92
        8
 66
     7
 43
1.0
 76
     1
 77
     6
 78
     2
 67
     7
 79
     3
170
     0
171
     0
290
     0
174
     0
 93
        1
 44
0.0
173
     0
291
     0
 45
0.0
1001
ACAD
1000
AcDbSavedByObjectVersion
1070
     0
  0
VISUALSTYLE
  5
31C1
102
{ACAD_XDICTIONARY
360
326A
102
}
102
{ACAD_REACTORS
330
31B6
102
}
330
31B6
100
AcDbVisualStyle
  2
Dim
 70
    11
 71
     2
 72
     2
 73
     0
 90
        0
 40
-0.6
 41
-30.0
 62
     5
 63
     7
 74
     1
 91
        4
 64
     7
 65
   257
 75
     1
175
     1
 42
1.0
 92
        8
 66
     7
 43
1.0
 76
     1
 77
     6
 78
     2
 67
     7
 79
     5
170
     0
171
     0
290
     0
174
     0
 93
        1
 44
-50.0
173
     0
291
     1
 45
0.0
1001
ACAD
1000
AcDbSavedByObjectVersion
1070
     0
  0
VISUALSTYLE
  5
31CE
102
{ACAD_XDICTIONARY
360
3284
102
}
102
{ACAD_REACTORS
330
31B6
102
}
330
31B6
100
AcDbVisualStyle
  2
EdgeColorOff
 70
    22
 71
     2
 72
     2
 73
     0
 90
        0
 40
-0.6
 41
-30.0
 62
     5
 63
     7
 74
     1
 91
        4
 64
     7
 65
   257
 75
     1
175
     1
 42
1.0
 92
        8
 66
     7
 43
1.0
 76
     1
 77
     6
 78
     2
 67
     7
 79
     5
170
     0
171
     0
290
     0
174
     0
 93
        1
 44
0.0
173
     0
291
     1
 45
0.0
1001
ACAD
1000
AcDbSavedByObjectVersion
1070
     0
  0
VISUALSTYLE
  5
31C5
102
{ACAD_XDICTIONARY
360
3272
102
}
102
{ACAD_REACTORS
330
31B6
102
}
330
31B6
100
AcDbVisualStyle
  2
Facepattern
 70
    15
 71
     2
 72
     2
 73
     0
 90
        0
 40
-0.6
 41
-30.0
 62
     5
 63
     7
 74
     1
 91
        4
 64
     7
 65
   257
 75
     1
175
     1
 42
1.0
 92
        8
 66
     7
 43
1.0
 76
     1
 77
     6
 78
     2
 67
     7
 79
     5
170
     0
171
     0
290
     0
174
     0
 93
        1
 44
0.0
173
     0
291
     1
 45
0.0
1001
ACAD
1000
AcDbSavedByObjectVersion
1070
     0
  0
VISUALSTYLE
  5
31B7
102
{ACAD_XDICTIONARY
360
3256
102
}
102
{ACAD_REACTORS
330
31B6
102
}
330
31B6
100
AcDbVisualStyle
  2
Flat
 70
     0
 71
     2
 72
     1
 73
     1
 90
        2
 40
-0.6
 41
30.0
 62
     5
 63
     7
 74
     0
 91
        0
 64
     7
 65
   257
 75
     1
175
     1
 42
1.0
 92
        8
 66
     7
 43
1.0
 76
     1
 77
     6
 78
     2
 67
     7
 79
     5
170
     0
171
     0
290
     0
174
     0
 93
       13
 44
0.0
173
     0
291
     1
 45
0.0
1001
ACAD
1000
AcDbSavedByObjectVersion
1070
     0
  0
VISUALSTYLE
  5
31B8
102
{ACAD_XDICTIONARY
360
3258
102
}
102
{ACAD_REACTORS
330
31B6
102
}
330
31B6
100
AcDbVisualStyle
  2
FlatWithEdges
 70
     1
 71
     2
 72
     1
 73
     1
 90
        2
 40
-0.6
 41
30.0
 62
     5
 63
     7
 74
     1
 91
        0
 64
     7
 65
   257
 75
     1
175
     1
 42
1.0
 92
        0
 66
   257
 43
1.0
 76
     1
 77
     6
 78
     2
 67
     7
 79
     5
170
     0
171
     0
290
     0
174
     0
 93
       13
 44
0.0
173
     0
291
     1
 45
0.0
1001
ACAD
1000
AcDbSavedByObjectVersion
1070
     0
  0
VISUALSTYLE
  5
31B9
102
{ACAD_XDICTIONARY
360
325A
102
}
102
{ACAD_REACTORS
330
31B6
102
}
330
31B6
100
AcDbVisualStyle
  2
Gouraud
 70
     2
 71
     2
 72
     2
 73
     1
 90
        2
 40
-0.6
 41
30.0
 62
     5
 63
     7
 74
     0
 91
        0
 64
     7
 65
   257
 75
     1
175
     1
 42
1.0
 92
        0
 66
     7
 43
1.0
 76
     1
 77
     6
 78
     2
 67
     7
 79
     5
170
     0
171
     0
290
     0
174
     0
 93
       13
 44
0.0
173
     0
291
     1
 45
0.0
1001
ACAD
1000
AcDbSavedByObjectVersion
1070
     0
  0
VISUALSTYLE
  5
31BA
102
{ACAD_XDICTIONARY
360
325C
102
}
102
{ACAD_REACTORS
330
31B6
102
}
330
31B6
100
AcDbVisualStyle
  2
GouraudWithEdges
 70
     3
 71
     2
 72
     2
 73
     1
 90
        2
 40
-0.6
 41
30.0
 62
     5
 63
     7
 74
     1
 91
        0
 64
     7
 65
   257
 75
     1
175
     1
 42
1.0
 92
        0
 66
   257
 43
1.0
 76
     1
 77
     6
 78
     2
 67
     7
 79
     5
170
     0
171
     0
290
     0
174
     0
 93
       13
 44
0.0
173
     0
291
     1
 45
0.0
1001
ACAD
1000
AcDbSavedByObjectVersion
1070
     0
  0
VISUALSTYLE
  5
31BE
102
{ACAD_XDICTIONARY
360
3264
102
}
102
{ACAD_REACTORS
330
31B6
102
}
330
31B6
100
AcDbVisualStyle
  2
Hidden
 70
     6
 71
     1
 72
     2
 73
     2
 90
        0
 40
-0.6
 41
-30.0
 62
     5
 63
     7
 74
     2
 91
        2
 64
     7
 65
   257
 75
     2
175
     1
 42
40.0
 92
        0
 66
   257
 43
1.0
 76
     1
 77
     6
 78
     2
 67
     7
 79
     3
170
     0
171
     0
290
     0
174
     0
 93
        1
 44
0.0
173
     0
291
     0
 45
0.0
1001
ACAD
1000
AcDbSavedByObjectVersion
1070
     0
  0
VISUALSTYLE
  5
31CC
102
{ACAD_XDICTIONARY
360
3280
102
}
102
{ACAD_REACTORS
330
31B6
102
}
330
31B6
100
AcDbVisualStyle
  2
JitterOff
 70
    20
 71
     2
 72
     2
 73
     0
 90
        0
 40
-0.6
 41
-30.0
 62
     5
 63
     7
 74
     1
 91
        4
 64
     7
 65
   257
 75
     1
175
     1
 42
1.0
 92
       10
 66
     7
 43
1.0
 76
     1
 77
     6
 78
     2
 67
     7
 79
     5
170
     0
171
     0
290
     0
174
     0
 93
        1
 44
0.0
173
     0
291
     1
 45
0.0
1001
ACAD
1000
AcDbSavedByObjectVersion
1070
     0
  0
VISUALSTYLE
  5
31C4
102
{ACAD_XDICTIONARY
360
3270
102
}
102
{ACAD_REACTORS
330
31B6
102
}
330
31B6
100
AcDbVisualStyle
  2
Linepattern
 70
    14
 71
     2
 72
     2
 73
     0
 90
        0
 40
-0.6
 41
-30.0
 62
     5
 63
     7
 74
     1
 91
        4
 64
     7
 65
   257
 75
     7
175
     7
 42
1.0
 92
        8
 66
     7
 43
1.0
 76
     1
 77
     6
 78
     2
 67
     7
 79
     5
170
     0
171
     0
290
     0
174
     0
 93
        1
 44
0.0
173
     0
291
     1
 45
0.0
1001
ACAD
1000
AcDbSavedByObjectVersion
1070
     0
  0
VISUALSTYLE
  5
31CD
102
{ACAD_XDICTIONARY
360
3282
102
}
102
{ACAD_REACTORS
330
31B6
102
}
330
31B6
100
AcDbVisualStyle
  2
OverhangOff
 70
    21
 71
     2
 72
     2
 73
     0
 90
        0
 40
-0.6
 41
-30.0
 62
     5
 63
     7
 74
     1
 91
        4
 64
     7
 65
   257
 75
     1
175
     1
 42
1.0
 92
        9
 66
     7
 43
1.0
 76
     1
 77
     6
 78
     2
 67
     7
 79
     5
170
     0
171
     0
290
     0
174
     0
 93
        1
 44
0.0
173
     0
291
     1
 45
0.0
1001
ACAD
1000
AcDbSavedByObjectVersion
1070
     0
  0
VISUALSTYLE
  5
31C0
102
{ACAD_XDICTIONARY
360
3268
102
}
102
{ACAD_REACTORS
330
31B6
102
}
330
31B6
100
AcDbVisualStyle
  2
Realistic
 70
     8
 71
     2
 72
     3
 73
     0
 90
        2
 40
-0.6
 41
30.0
 62
     5
 63
     7
 74
     0
 91
        0
 64
     7
 65
   257
 75
     1
175
     1
 42
1.0
 92
        8
 66
   257
 43
1.0
 76
     1
 77
     6
 78
     2
 67
     7
 79
     3
170
     0
171
     0
290
     0
174
     0
 93
       13
 44
0.0
173
     0
291
     0
 45
0.0
1001
ACAD
1000
AcDbSavedByObjectVersion
1070
     0
  0
VISUALSTYLE
  5
31CB
102
{ACAD_XDICTIONARY
360
327E
102
}
102
{ACAD_REACTORS
330
31B6
102
}
330
31B6
100
AcDbVisualStyle
  2
Shaded
 70
    27
 71
     2
 72
     2
 73
     1
 90
        2
 40
-0.6
 41
30.0
 62
     5
 63
     7
 74
     0
 91
        4
 64
     7
 65
   257
 75
     1
175
     1
 42
1.0
 92
        8
 66
   257
 43
1.0
 76
     1
 77
     6
 78
     2
 67
     8
 79
     3
170
     0
171
     0
290
     0
174
     0
 93
        5
 44
0.0
173
     0
291
     0
 45
0.0
1001
ACAD
1000
AcDbSavedByObjectVersion
1070
     0
  0
VISUALSTYLE
  5
31CA
102
{ACAD_XDICTIONARY
360
327C
102
}
102
{ACAD_REACTORS
330
31B6
102
}
330
31B6
100
AcDbVisualStyle
  2
Shaded with edges
 70
    26
 71
     2
 72
     2
 73
     1
 90
        2
 40
-0.6
 41
30.0
 62
     5
 63
     7
 74
     1
 91
       10
 64
     7
 65
   257
 75
     2
175
     1
 42
1.0
 92
        8
 66
   257
 43
1.0
 76
     1
 77
     6
 78
     2
 67
     7
 79
     3
170
     0
171
     0
290
     0
174
     0
 93
        5
 44
0.0
173
     0
291
     0
 45
0.0
1001
ACAD
1000
AcDbSavedByObjectVersion
1070
     0
  0
VISUALSTYLE
  5
31C7
102
{ACAD_XDICTIONARY
360
3276
102
}
102
{ACAD_REACTORS
330
31B6
102
}
330
31B6
100
AcDbVisualStyle
  2
Shades of Gray
 70
    23
 71
     2
 72
     2
 73
     3
 90
        0
 40
-0.6
 41
-30.0
 62
     5
 63
     7
 74
     2
 91
        2
 64
     7
 65
     7
 75
     1
175
     1
 42
40.0
 92
        8
 66
     7
 43
1.0
 76
     1
 77
     6
 78
     2
 67
     7
 79
     3
170
     0
171
     0
290
     0
174
     0
 93
        1
 44
0.0
173
     0
291
     0
 45
0.0
1001
ACAD
1000
AcDbSavedByObjectVersion
1070
     0
  0
VISUALSTYLE
  5
31C8
102
{ACAD_XDICTIONARY
360
3278
102
}
102
{ACAD_REACTORS
330
31B6
102
}
330
31B6
100
AcDbVisualStyle
  2
Sketchy
 70
    24
 71
     1
 72
     2
 73
     2
 90
        0
 40
-0.6
 41
-30.0
 62
     5
 63
     7
 74
     2
 91
        2
 64
     7
 65
     7
 75
     1
175
     1
 42
40.0
 92
       11
 66
     7
 43
1.0
 76
     1
 77
     6
 78
     2
 67
     7
 79
     6
170
     0
171
     0
290
     0
174
     0
 93
        1
 44
0.0
173
     0
291
     0
 45
0.0
1001
ACAD
1000
AcDbSavedByObjectVersion
1070
     0
  0
VISUALSTYLE
  5
31C3
102
{ACAD_XDICTIONARY
360
326E
102
}
102
{ACAD_REACTORS
330
31B6
102
}
330
31B6
100
AcDbVisualStyle
  2
Thicken
 70
    13
 71
     2
 72
     2
 73
     0
 90
        0
 40
-0.6
 41
-30.0
 62
     5
 63
     7
 74
     1
 91
        4
 64
     7
 65
   257
 75
     1
175
     1
 42
1.0
 92
       12
 66
     7
 43
1.0
 76
     1
 77
     6
 78
     2
 67
     7
 79
     5
170
     0
171
     0
290
     0
174
     0
 93
        1
 44
0.0
173
     0
291
     1
 45
0.0
1001
ACAD
1000
AcDbSavedByObjectVersion
1070
     0
  0
VISUALSTYLE
  5
31BD
102
{ACAD_XDICTIONARY
360
3262
102
}
102
{ACAD_REACTORS
330
31B6
102
}
330
31B6
100
AcDbVisualStyle
  2
Wireframe
 70
     5
 71
     0
 72
     2
 73
     0
 90
        0
 40
-0.6
 41
-30.0
 62
     5
 63
     7
 74
     1
 91
        4
 64
     7
 65
   257
 75
     1
175
     1
 42
1.0
 92
        0
 66
   257
 43
1.0
 76
     1
 77
     6
 78
     2
 67
     7
 79
     3
170
     0
171
     0
290
     0
174
     0
 93
        1
 44
0.0
173
     0
291
     0
 45
0.0
1001
ACAD
1000
AcDbSavedByObjectVersion
1070
     0
  0
VISUALSTYLE
  5
31C9
102
{ACAD_XDICTIONARY
360
327A
102
}
102
{ACAD_REACTORS
330
31B6
102
}
330
31B6
100
AcDbVisualStyle
  2
X-Ray
 70
    25
 71
     2
 72
     2
 73
     1
 90
        1
 40
0.5
 41
-30.0
 62
     5
 63
     7
 74
     1
 91
        0
 64
     7
 65
   257
 75
     1
175
     1
 42
1.0
 92
        8
 66
     7
 43
1.0
 76
     1
 77
     6
 78
     2
 67
     7
 79
     3
170
     0
171
     0
290
     0
174
     0
 93
       13
 44
0.0
173
     0
291
     0
 45
0.0
1001
ACAD
1000
AcDbSavedByObjectVersion
1070
     0
  0
DICTIONARYVAR
  5
3245
102
{ACAD_REACTORS
330
3240
102
}
330
3240
100
DictionaryVariables
280
     0
  1
1:1
  0
DICTIONARYVAR
  5
3242
102
{ACAD_REACTORS
330
3240
102
}
330
3240
100
DictionaryVariables
280
     0
  1
STANDARD
  0
DICTIONARYVAR
  5
3241
102
{ACAD_REACTORS
330
3240
102
}
330
3240
100
DictionaryVariables
280
     0
  1
STANDARD
  0
DICTIONARYVAR
  5
3243
102
{ACAD_REACTORS
330
3240
102
}
330
3240
100
DictionaryVariables
280
     0
  1
Imperial24
  0
DICTIONARYVAR
  5
3244
102
{ACAD_REACTORS
330
3240
102
}
330
3240
100
DictionaryVariables
280
     0
  1
Imperial24
  0
DICTIONARYVAR
  5
3249
102
{ACAD_REACTORS
330
3240
102
}
330
3240
100
DictionaryVariables
280
     0
  1
1
  0
DICTIONARYVAR
  5
3247
102
{ACAD_REACTORS
330
3240
102
}
330
3240
100
DictionaryVariables
280
     0
  1
0
  0
DICTIONARYVAR
  5
3246
102
{ACAD_REACTORS
330
3240
102
}
330
3240
100
DictionaryVariables
280
     0
  1
127
  0
DICTIONARYVAR
  5
3248
102
{ACAD_REACTORS
330
3240
102
}
330
3240
100
DictionaryVariables
280
     0
  1
0
  0
XRECORD
  5
323F
102
{ACAD_REACTORS
330
323D
102
}
330
323D
100
AcDbXrecord
280
     1
  0
DICTIONARY
  5
324F
330
BF6
100
AcDbDictionary
280
     1
281
     1
  3
ACAD_XREC_ROUNDTRIP
360
3250
  0
DICTIONARY
  5
3251
330
BFA
100
AcDbDictionary
280
     1
281
     1
  3
ACAD_XREC_ROUNDTRIP
360
3252
  0
DICTIONARY
  5
31A7
330
31A6
100
AcDbDictionary
280
     1
281
     1
  3
ACAD_XREC_ROUNDTRIP
360
3254
  3
BUMPTILE
360
31A9
  3
DIFFUSETILE
360
31A8
  3
OPACITYTILE
360
31AC
  3
REFLECTIONTILE
360
31AB
  3
REFRACTIONTILE
360
31AD
  3
SPECULARTILE
360
31AA
  0
DICTIONARY
  5
319F
330
319E
100
AcDbDictionary
280
     1
281
     1
  3
ACAD_XREC_ROUNDTRIP
360
3253
  3
BUMPTILE
360
31A1
  3
DIFFUSETILE
360
31A0
  3
OPACITYTILE
360
31A4
  3
REFLECTIONTILE
360
31A3
  3
REFRACTIONTILE
360
31A5
  3
SPECULARTILE
360
31A2
  0
DICTIONARY
  5
31AF
330
31AE
100
AcDbDictionary
280
     1
281
     1
  3
ACAD_XREC_ROUNDTRIP
360
3255
  3
BUMPTILE
360
31B1
  3
DIFFUSETILE
360
31B0
  3
OPACITYTILE
360
31B4
  3
REFLECTIONTILE
360
31B3
  3
REFRACTIONTILE
360
31B5
  3
SPECULARTILE
360
31B2
  0
DICTIONARY
  5
324B
330
31D0
100
AcDbDictionary
280
     1
281
     1
  3
ACAD_ROUNDTRIP_2008_TABLESTYLE_CELLSTYLEMAP
360
324C
  3
ACAD_XREC_ROUNDTRIP
360
3286
  0
DICTIONARY
  5
3260
330
31BC
100
AcDbDictionary
280
     1
281
     1
  3
ACAD_XREC_ROUNDTRIP
360
3261
  0
DICTIONARY
  5
325E
330
31BB
100
AcDbDictionary
280
     1
281
     1
  3
ACAD_XREC_ROUNDTRIP
360
325F
  0
DICTIONARY
  5
326C
330
31C2
100
AcDbDictionary
280
     1
281
     1
  3
ACAD_XREC_ROUNDTRIP
360
326D
  0
DICTIONARY
  5
3274
330
31C6
100
AcDbDictionary
280
     1
281
     1
  3
ACAD_XREC_ROUNDTRIP
360
3275
  0
DICTIONARY
  5
3266
330
31BF
100
AcDbDictionary
280
     1
281
     1
  3
ACAD_XREC_ROUNDTRIP
360
3267
  0
DICTIONARY
  5
326A
330
31C1
100
AcDbDictionary
280
     1
281
     1
  3
ACAD_XREC_ROUNDTRIP
360
326B
  0
DICTIONARY
  5
3284
330
31CE
100
AcDbDictionary
280
     1
281
     1
  3
ACAD_XREC_ROUNDTRIP
360
3285
  0
DICTIONARY
  5
3272
330
31C5
100
AcDbDictionary
280
     1
281
     1
  3
ACAD_XREC_ROUNDTRIP
360
3273
  0
DICTIONARY
  5
3256
330
31B7
100
AcDbDictionary
280
     1
281
     1
  3
ACAD_XREC_ROUNDTRIP
360
3257
  0
DICTIONARY
  5
3258
330
31B8
100
AcDbDictionary
280
     1
281
     1
  3
ACAD_XREC_ROUNDTRIP
360
3259
  0
DICTIONARY
  5
325A
330
31B9
100
AcDbDictionary
280
     1
281
     1
  3
ACAD_XREC_ROUNDTRIP
360
325B
  0
DICTIONARY
  5
325C
330
31BA
100
AcDbDictionary
280
     1
281
     1
  3
ACAD_XREC_ROUNDTRIP
360
325D
  0
DICTIONARY
  5
3264
330
31BE
100
AcDbDictionary
280
     1
281
     1
  3
ACAD_XREC_ROUNDTRIP
360
3265
  0
DICTIONARY
  5
3280
330
31CC
100
AcDbDictionary
280
     1
281
     1
  3
ACAD_XREC_ROUNDTRIP
360
3281
  0
DICTIONARY
  5
3270
330
31C4
100
AcDbDictionary
280
     1
281
     1
  3
ACAD_XREC_ROUNDTRIP
360
3271
  0
DICTIONARY
  5
3282
330
31CD
100
AcDbDictionary
280
     1
281
     1
  3
ACAD_XREC_ROUNDTRIP
360
3283
  0
DICTIONARY
  5
3268
330
31C0
100
AcDbDictionary
280
     1
281
     1
  3
ACAD_XREC_ROUNDTRIP
360
3269
  0
DICTIONARY
  5
327E
330
31CB
100
AcDbDictionary
280
     1
281
     1
  3
ACAD_XREC_ROUNDTRIP
360
327F
  0
DICTIONARY
  5
327C
330
31CA
100
AcDbDictionary
280
     1
281
     1
  3
ACAD_XREC_ROUNDTRIP
360
327D
  0
DICTIONARY
  5
3276
330
31C7
100
AcDbDictionary
280
     1
281
     1
  3
ACAD_XREC_ROUNDTRIP
360
3277
  0
DICTIONARY
  5
3278
330
31C8
100
AcDbDictionary
280
     1
281
     1
  3
ACAD_XREC_ROUNDTRIP
360
3279
  0
DICTIONARY
  5
326E
330
31C3
100
AcDbDictionary
280
     1
281
     1
  3
ACAD_XREC_ROUNDTRIP
360
326F
  0
DICTIONARY
  5
3262
330
31BD
100
AcDbDictionary
280
     1
281
     1
  3
ACAD_XREC_ROUNDTRIP
360
3263
  0
DICTIONARY
  5
327A
330
31C9
100
AcDbDictionary
280
     1
281
     1
  3
ACAD_XREC_ROUNDTRIP
360
327B
  0
XRECORD
  5
3250
102
{ACAD_REACTORS
330
324F
102
}
330
324F
100
AcDbXrecord
280
     1
102
SHADEPLOT
 70
     0
102
SHADEPLOTRESLEVEL
 70
     2
102
SHADEPLOTCUSTOMDPI
 70
   300
  0
XRECORD
  5
3252
102
{ACAD_REACTORS
330
3251
102
}
330
3251
100
AcDbXrecord
280
     1
102
SHADEPLOT
 70
     0
102
SHADEPLOTRESLEVEL
 70
     2
102
SHADEPLOTCUSTOMDPI
 70
   300
  0
XRECORD
  5
3254
102
{ACAD_REACTORS
330
31A7
102
}
330
31A7
100
AcDbXrecord
280
     1
102
MATERIAL
148
0.0
149
0.0
149
0.0
 93
        0
 94
      127
282
     0
 72
     0
 77
     0
171
     0
175
     0
179
     0
273
     0
  0
XRECORD
  5
31A9
102
{ACAD_REACTORS
330
31A7
102
}
330
31A7
100
AcDbXrecord
280
     1
270
     1
271
     1
  0
XRECORD
  5
31A8
102
{ACAD_REACTORS
330
31A7
102
}
330
31A7
100
AcDbXrecord
280
     1
270
     1
271
     1
  0
XRECORD
  5
31AC
102
{ACAD_REACTORS
330
31A7
102
}
330
31A7
100
AcDbXrecord
280
     1
270
     1
271
     1
  0
XRECORD
  5
31AB
102
{ACAD_REACTORS
330
31A7
102
}
330
31A7
100
AcDbXrecord
280
     1
270
     1
271
     1
  0
XRECORD
  5
31AD
102
{ACAD_REACTORS
330
31A7
102
}
330
31A7
100
AcDbXrecord
280
     1
270
     1
271
     1
  0
XRECORD
  5
31AA
102
{ACAD_REACTORS
330
31A7
102
}
330
31A7
100
AcDbXrecord
280
     1
270
     1
271
     1
  0
XRECORD
  5
3253
102
{ACAD_REACTORS
330
319F
102
}
330
319F
100
AcDbXrecord
280
     1
102
MATERIAL
148
0.0
149
0.0
149
0.0
 93
        0
 94
      127
282
     0
 72
     0
 77
     0
171
     0
175
     0
179
     0
273
     0
  0
XRECORD
  5
31A1
102
{ACAD_REACTORS
330
319F
102
}
330
319F
100
AcDbXrecord
280
     1
270
     1
271
     1
  0
XRECORD
  5
31A0
102
{ACAD_REACTORS
330
319F
102
}
330
319F
100
AcDbXrecord
280
     1
270
     1
271
     1
  0
XRECORD
  5
31A4
102
{ACAD_REACTORS
330
319F
102
}
330
319F
100
AcDbXrecord
280
     1
270
     1
271
     1
  0
XRECORD
  5
31A3
102
{ACAD_REACTORS
330
319F
102
}
330
319F
100
AcDbXrecord
280
     1
270
     1
271
     1
  0
XRECORD
  5
31A5
102
{ACAD_REACTORS
330
319F
102
}
330
319F
100
AcDbXrecord
280
     1
270
     1
271
     1
  0
XRECORD
  5
31A2
102
{ACAD_REACTORS
330
319F
102
}
330
319F
100
AcDbXrecord
280
     1
270
     1
271
     1
  0
XRECORD
  5
3255
102
{ACAD_REACTORS
330
31AF
102
}
330
31AF
100
AcDbXrecord
280
     1
102
MATERIAL
148
0.0
149
0.0
149
0.0
 93
        0
 94
      127
282
     0
 72
     0
 77
     0
171
     0
175
     0
179
     0
273
     0
  0
XRECORD
  5
31B1
102
{ACAD_REACTORS
330
31AF
102
}
330
31AF
100
AcDbXrecord
280
     1
270
     1
271
     1
  0
XRECORD
  5
31B0
102
{ACAD_REACTORS
330
31AF
102
}
330
31AF
100
AcDbXrecord
280
     1
270
     1
271
     1
  0
XRECORD
  5
31B4
102
{ACAD_REACTORS
330
31AF
102
}
330
31AF
100
AcDbXrecord
280
     1
270
     1
271
     1
  0
XRECORD
  5
31B3
102
{ACAD_REACTORS
330
31AF
102
}
330
31AF
100
AcDbXrecord
280
     1
270
     1
271
     1
  0
XRECORD
  5
31B5
102
{ACAD_REACTORS
330
31AF
102
}
330
31AF
100
AcDbXrecord
280
     1
270
     1
271
     1
  0
XRECORD
  5
31B2
102
{ACAD_REACTORS
330
31AF
102
}
330
31AF
100
AcDbXrecord
280
     1
270
     1
271
     1
  0
CELLSTYLEMAP
  5
324C
102
{ACAD_REACTORS
330
324B
102
}
330
324B
100
AcDbCellStyleMap
 90
        3
300
CELLSTYLE
  1
TABLEFORMAT_BEGIN
 90
        5
170
     1
 91
        0
 92
    32768
 62
   257
 93
        1
300
CONTENTFORMAT
  1
CONTENTFORMAT_BEGIN
 90
        0
 91
        0
 92
      512
 93
        0
300

 40
0.0
140
1.0
 94
        5
 62
     0
340
BE8
144
0.25
309
CONTENTFORMAT_END
171
     0
 94
        0
309
TABLEFORMAT_END
  1
CELLSTYLE_BEGIN
 90
        1
 91
        1
300
_TITLE
309
CELLSTYLE_END
300
CELLSTYLE
  1
TABLEFORMAT_BEGIN
 90
        5
170
     1
 91
        0
 92
        0
 62
   257
 93
        1
300
CONTENTFORMAT
  1
CONTENTFORMAT_BEGIN
 90
        0
 91
        0
 92
      512
 93
        0
300

 40
0.0
140
1.0
 94
        5
 62
     0
340
BE8
144
0.18
309
CONTENTFORMAT_END
171
     0
 94
        0
309
TABLEFORMAT_END
  1
CELLSTYLE_BEGIN
 90
        2
 91
        1
300
_HEADER
309
CELLSTYLE_END
300
CELLSTYLE
  1
TABLEFORMAT_BEGIN
 90
        5
170
     1
 91
        0
 92
        0
 62
   257
 93
        1
300
CONTENTFORMAT
  1
CONTENTFORMAT_BEGIN
 90
        0
 91
        0
 92
      512
 93
        0
300

 40
0.0
140
1.0
 94
        2
 62
     0
340
BE8
144
0.18
309
CONTENTFORMAT_END
171
     0
 94
        0
309
TABLEFORMAT_END
  1
CELLSTYLE_BEGIN
 90
        3
 91
        2
300
_DATA
309
CELLSTYLE_END
  0
XRECORD
  5
3286
102
{ACAD_REACTORS
330
324B
102
}
330
324B
100
AcDbXrecord
280
     1
102
ACAD_ROUNDTRIP_PRE2007_TABLESTYLE
 90
      512
 91
        0
  1

 92
      512
 93
        0
  2

 94
      512
 95
        0
  3

  0
XRECORD
  5
3261
102
{ACAD_REACTORS
330
3260
102
}
330
3260
100
AcDbXrecord
280
     1
102
RTVSPost2010Prop28
280
     1
102
RTVSPost2010PropOp28
 70
     1
102
RTVSPost2010Prop29
280
     1
102
RTVSPost2010PropOp29
 70
     1
102
RTVSPost2010Prop30
280
     0
102
RTVSPost2010PropOp30
 70
     1
102
RTVSPost2010Prop31
280
     0
102
RTVSPost2010PropOp31
 70
     1
102
RTVSPost2010Prop32
280
     0
102
RTVSPost2010PropOp32
 70
     1
102
RTVSPost2010Prop33
280
     0
102
RTVSPost2010PropOp33
 70
     1
102
RTVSPost2010Prop34
280
     0
102
RTVSPost2010PropOp34
 70
     1
102
RTVSPost2010Prop35
280
     0
102
RTVSPost2010PropOp35
 70
     1
102
RTVSPost2010Prop36
280
     0
102
RTVSPost2010PropOp36
 70
     1
102
RTVSPost2010Prop37
 90
       50
102
RTVSPost2010PropOp37
 70
     1
102
RTVSPost2010Prop38
140
0.0
102
RTVSPost2010PropOp38
 70
     1
102
RTVSPost2010Prop39
140
1.0
102
RTVSPost2010PropOp39
 70
     1
102
RTVSPost2010Prop40
 90
        0
102
RTVSPost2010PropOp40
 70
     1
102
RTVSPost2010Prop41ColorIndex
 90
       18
102
RTVSPost2010Prop41ColorRGB
 90
        0
102
RTVSPost2010PropOp41
 70
     1
102
RTVSPost2010Prop42
 90
       50
102
RTVSPost2010PropOp42
 70
     1
102
RTVSPost2010Prop43
 90
        3
102
RTVSPost2010PropOp43
 70
     1
102
RTVSPost2010Prop44ColorIndex
 90
        5
102
RTVSPost2010Prop44ColorRGB
 90
      255
102
RTVSPost2010PropOp44
 70
     1
102
RTVSPost2010Prop45
280
     0
102
RTVSPost2010PropOp45
 70
     1
102
RTVSPost2010Prop46
 90
       50
102
RTVSPost2010PropOp46
 70
     1
102
RTVSPost2010Prop47
 90
       50
102
RTVSPost2010PropOp47
 70
     1
102
RTVSPost2010Prop48
 90
       50
102
RTVSPost2010PropOp48
 70
     1
102
RTVSPost2010Prop49
280
     0
102
RTVSPost2010PropOp49
 70
     1
102
RTVSPost2010Prop50
 90
       50
102
RTVSPost2010PropOp50
 70
     1
102
RTVSPost2010Prop51ColorIndex
 90
      256
102
RTVSPost2010Prop51ColorRGB
 90
-16777216
102
RTVSPost2010PropOp51
 70
     0
102
RTVSPost2010Prop52
140
1.0
102
RTVSPost2010PropOp52
 70
     0
102
RTVSPost2010Prop53
 90
        2
102
RTVSPost2010PropOp53
 70
     1
102
RTVSPost2010Prop54
  1
strokes_ogs.tif
102
RTVSPost2010PropOp54
 70
     1
102
RTVSPost2010Prop55
280
     0
102
RTVSPost2010PropOp55
 70
     1
102
RTVSPost2010Prop56
140
1.0
102
RTVSPost2010PropOp56
 70
     1
102
RTVSPost2010Prop57
140
1.0
102
RTVSPost2010PropOp57
 70
     1
102
RTVSPropertyOp0
 70
     1
102
RTVSPropertyOp1
 70
     1
102
RTVSPropertyOp2
 70
     1
102
RTVSPropertyOp3
 70
     1
102
RTVSPropertyOp4
 70
     1
102
RTVSPropertyOp5
 70
     1
102
RTVSPropertyOp6
 70
     1
102
RTVSPropertyOp7
 70
     1
102
RTVSPropertyOp8
 70
     1
102
RTVSPropertyOp9
 70
     1
102
RTVSPropertyOp10
 70
     1
102
RTVSPropertyOp11
 70
     1
102
RTVSPropertyOp12
 70
     1
102
RTVSPropertyOp13
 70
     1
102
RTVSPropertyOp14
 70
     1
102
RTVSPropertyOp15
 70
     1
102
RTVSPropertyOp16
 70
     1
102
RTVSPropertyOp17
 70
     1
102
RTVSPropertyOp18
 70
     1
102
RTVSPropertyOp19
 70
     1
102
RTVSPropertyOp20
 70
     1
102
RTVSPropertyOp21
 70
     1
102
RTVSPropertyOp22
 70
     1
102
RTVSPropertyOp23
 70
     1
102
RTVSPropertyOp24
 70
     1
102
RTVSPropertyOp25
 70
     1
102
RTVSPropertyOp26
 70
     1
102
RTVSPropertyOp27
 70
     1
102
RTVSPropertyOp28
 70
     1
102
RTVSPropertyOp29
 70
     1
102
RTVSPropertyOp30
 70
     1
102
RTVSPropertyOp31
 70
     1
102
RTVSPropertyOp32
 70
     1
102
RTVSPropertyOp33
 70
     1
102
RTVSPropertyOp34
 70
     1
102
RTVSPropertyOp35
 70
     1
102
RTVSPropertyOp36
 70
     1
102
RTVSPropertyOp37
 70
     1
102
RTVSPropertyOp38
 70
     1
102
RTVSPropertyOp39
 70
     1
102
RTVSPropertyOp40
 70
     1
102
RTVSPropertyOp41
 70
     1
102
RTVSPropertyOp42
 70
     1
102
RTVSPropertyOp43
 70
     1
102
RTVSPropertyOp44
 70
     1
102
RTVSPropertyOp45
 70
     1
102
RTVSPropertyOp46
 70
     1
102
RTVSPropertyOp47
 70
     1
102
RTVSPropertyOp48
 70
     1
102
RTVSPropertyOp49
 70
     1
102
RTVSPropertyOp50
 70
     1
102
RTVSPropertyOp51
 70
     0
102
RTVSPropertyOp52
 70
     0
102
RTVSPropertyOp53
 70
     1
102
RTVSPropertyOp54
 70
     1
102
RTVSPropertyOp55
 70
     1
102
RTVSPropertyOp56
 70
     1
102
RTVSPropertyOp57
 70
     1
102
RTVSPropertyOp58
 70
     1
102
RTVSPropertyOp59
 70
     1
102
RTVSPropertyOp60
 70
     1
102
RTVSPropertyOp61
 70
     1
102
RTVSPropertyOp62
 70
     1
  0
XRECORD
  5
325F
102
{ACAD_REACTORS
330
325E
102
}
330
325E
100
AcDbXrecord
280
     1
102
RTVSPost2010Prop28
280
     0
102
RTVSPost2010PropOp28
 70
     1
102
RTVSPost2010Prop29
280
     1
102
RTVSPost2010PropOp29
 70
     1
102
RTVSPost2010Prop30
280
     1
102
RTVSPost2010PropOp30
 70
     1
102
RTVSPost2010Prop31
280
     0
102
RTVSPost2010PropOp31
 70
     1
102
RTVSPost2010Prop32
280
     0
102
RTVSPost2010PropOp32
 70
     1
102
RTVSPost2010Prop33
280
     0
102
RTVSPost2010PropOp33
 70
     1
102
RTVSPost2010Prop34
280
     0
102
RTVSPost2010PropOp34
 70
     1
102
RTVSPost2010Prop35
280
     0
102
RTVSPost2010PropOp35
 70
     1
102
RTVSPost2010Prop36
280
     0
102
RTVSPost2010PropOp36
 70
     1
102
RTVSPost2010Prop37
 90
       50
102
RTVSPost2010PropOp37
 70
     1
102
RTVSPost2010Prop38
140
0.0
102
RTVSPost2010PropOp38
 70
     1
102
RTVSPost2010Prop39
140
1.0
102
RTVSPost2010PropOp39
 70
     1
102
RTVSPost2010Prop40
 90
        0
102
RTVSPost2010PropOp40
 70
     1
102
RTVSPost2010Prop41ColorIndex
 90
       18
102
RTVSPost2010Prop41ColorRGB
 90
        0
102
RTVSPost2010PropOp41
 70
     1
102
RTVSPost2010Prop42
 90
       50
102
RTVSPost2010PropOp42
 70
     1
102
RTVSPost2010Prop43
 90
        3
102
RTVSPost2010PropOp43
 70
     1
102
RTVSPost2010Prop44ColorIndex
 90
        5
102
RTVSPost2010Prop44ColorRGB
 90
      255
102
RTVSPost2010PropOp44
 70
     1
102
RTVSPost2010Prop45
280
     0
102
RTVSPost2010PropOp45
 70
     1
102
RTVSPost2010Prop46
 90
       50
102
RTVSPost2010PropOp46
 70
     1
102
RTVSPost2010Prop47
 90
       50
102
RTVSPost2010PropOp47
 70
     1
102
RTVSPost2010Prop48
 90
       50
102
RTVSPost2010PropOp48
 70
     1
102
RTVSPost2010Prop49
280
     0
102
RTVSPost2010PropOp49
 70
     1
102
RTVSPost2010Prop50
 90
       50
102
RTVSPost2010PropOp50
 70
     1
102
RTVSPost2010Prop51ColorIndex
 90
      256
102
RTVSPost2010Prop51ColorRGB
 90
-16777216
102
RTVSPost2010PropOp51
 70
     0
102
RTVSPost2010Prop52
140
1.0
102
RTVSPost2010PropOp52
 70
     0
102
RTVSPost2010Prop53
 90
        2
102
RTVSPost2010PropOp53
 70
     1
102
RTVSPost2010Prop54
  1
strokes_ogs.tif
102
RTVSPost2010PropOp54
 70
     1
102
RTVSPost2010Prop55
280
     0
102
RTVSPost2010PropOp55
 70
     1
102
RTVSPost2010Prop56
140
1.0
102
RTVSPost2010PropOp56
 70
     1
102
RTVSPost2010Prop57
140
1.0
102
RTVSPost2010PropOp57
 70
     1
102
RTVSPropertyOp0
 70
     1
102
RTVSPropertyOp1
 70
     1
102
RTVSPropertyOp2
 70
     1
102
RTVSPropertyOp3
 70
     1
102
RTVSPropertyOp4
 70
     1
102
RTVSPropertyOp5
 70
     1
102
RTVSPropertyOp6
 70
     1
102
RTVSPropertyOp7
 70
     1
102
RTVSPropertyOp8
 70
     1
102
RTVSPropertyOp9
 70
     1
102
RTVSPropertyOp10
 70
     1
102
RTVSPropertyOp11
 70
     1
102
RTVSPropertyOp12
 70
     1
102
RTVSPropertyOp13
 70
     1
102
RTVSPropertyOp14
 70
     1
102
RTVSPropertyOp15
 70
     1
102
RTVSPropertyOp16
 70
     1
102
RTVSPropertyOp17
 70
     1
102
RTVSPropertyOp18
 70
     1
102
RTVSPropertyOp19
 70
     1
102
RTVSPropertyOp20
 70
     1
102
RTVSPropertyOp21
 70
     1
102
RTVSPropertyOp22
 70
     1
102
RTVSPropertyOp23
 70
     1
102
RTVSPropertyOp24
 70
     1
102
RTVSPropertyOp25
 70
     1
102
RTVSPropertyOp26
 70
     1
102
RTVSPropertyOp27
 70
     1
102
RTVSPropertyOp28
 70
     1
102
RTVSPropertyOp29
 70
     1
102
RTVSPropertyOp30
 70
     1
102
RTVSPropertyOp31
 70
     1
102
RTVSPropertyOp32
 70
     1
102
RTVSPropertyOp33
 70
     1
102
RTVSPropertyOp34
 70
     1
102
RTVSPropertyOp35
 70
     1
102
RTVSPropertyOp36
 70
     1
102
RTVSPropertyOp37
 70
     1
102
RTVSPropertyOp38
 70
     1
102
RTVSPropertyOp39
 70
     1
102
RTVSPropertyOp40
 70
     1
102
RTVSPropertyOp41
 70
     1
102
RTVSPropertyOp42
 70
     1
102
RTVSPropertyOp43
 70
     1
102
RTVSPropertyOp44
 70
     1
102
RTVSPropertyOp45
 70
     1
102
RTVSPropertyOp46
 70
     1
102
RTVSPropertyOp47
 70
     1
102
RTVSPropertyOp48
 70
     1
102
RTVSPropertyOp49
 70
     1
102
RTVSPropertyOp50
 70
     1
102
RTVSPropertyOp51
 70
     0
102
RTVSPropertyOp52
 70
     0
102
RTVSPropertyOp53
 70
     1
102
RTVSPropertyOp54
 70
     1
102
RTVSPropertyOp55
 70
     1
102
RTVSPropertyOp56
 70
     1
102
RTVSPropertyOp57
 70
     1
102
RTVSPropertyOp58
 70
     1
102
RTVSPropertyOp59
 70
     1
102
RTVSPropertyOp60
 70
     1
102
RTVSPropertyOp61
 70
     1
102
RTVSPropertyOp62
 70
     1
  0
XRECORD
  5
326D
102
{ACAD_REACTORS
330
326C
102
}
330
326C
100
AcDbXrecord
280
     1
102
RTVSPost2010Prop28
280
     0
102
RTVSPost2010PropOp28
 70
     1
102
RTVSPost2010Prop29
280
     1
102
RTVSPost2010PropOp29
 70
     1
102
RTVSPost2010Prop30
280
     1
102
RTVSPost2010PropOp30
 70
     1
102
RTVSPost2010Prop31
280
     0
102
RTVSPost2010PropOp31
 70
     1
102
RTVSPost2010Prop32
280
     0
102
RTVSPost2010PropOp32
 70
     1
102
RTVSPost2010Prop33
280
     0
102
RTVSPost2010PropOp33
 70
     1
102
RTVSPost2010Prop34
280
     0
102
RTVSPost2010PropOp34
 70
     1
102
RTVSPost2010Prop35
280
     0
102
RTVSPost2010PropOp35
 70
     1
102
RTVSPost2010Prop36
280
     0
102
RTVSPost2010PropOp36
 70
     1
102
RTVSPost2010Prop37
 90
       50
102
RTVSPost2010PropOp37
 70
     1
102
RTVSPost2010Prop38
140
0.0
102
RTVSPost2010PropOp38
 70
     1
102
RTVSPost2010Prop39
140
1.0
102
RTVSPost2010PropOp39
 70
     1
102
RTVSPost2010Prop40
 90
        0
102
RTVSPost2010PropOp40
 70
     1
102
RTVSPost2010Prop41ColorIndex
 90
       18
102
RTVSPost2010Prop41ColorRGB
 90
        0
102
RTVSPost2010PropOp41
 70
     1
102
RTVSPost2010Prop42
 90
       50
102
RTVSPost2010PropOp42
 70
     1
102
RTVSPost2010Prop43
 90
        3
102
RTVSPost2010PropOp43
 70
     1
102
RTVSPost2010Prop44ColorIndex
 90
        5
102
RTVSPost2010Prop44ColorRGB
 90
      255
102
RTVSPost2010PropOp44
 70
     1
102
RTVSPost2010Prop45
280
     0
102
RTVSPost2010PropOp45
 70
     1
102
RTVSPost2010Prop46
 90
       50
102
RTVSPost2010PropOp46
 70
     1
102
RTVSPost2010Prop47
 90
       50
102
RTVSPost2010PropOp47
 70
     1
102
RTVSPost2010Prop48
 90
       50
102
RTVSPost2010PropOp48
 70
     1
102
RTVSPost2010Prop49
280
     0
102
RTVSPost2010PropOp49
 70
     1
102
RTVSPost2010Prop50
 90
       50
102
RTVSPost2010PropOp50
 70
     1
102
RTVSPost2010Prop51ColorIndex
 90
      256
102
RTVSPost2010Prop51ColorRGB
 90
-16777216
102
RTVSPost2010PropOp51
 70
     0
102
RTVSPost2010Prop52
140
1.0
102
RTVSPost2010PropOp52
 70
     0
102
RTVSPost2010Prop53
 90
        2
102
RTVSPost2010PropOp53
 70
     1
102
RTVSPost2010Prop54
  1
strokes_ogs.tif
102
RTVSPost2010PropOp54
 70
     1
102
RTVSPost2010Prop55
280
     0
102
RTVSPost2010PropOp55
 70
     1
102
RTVSPost2010Prop56
140
1.0
102
RTVSPost2010PropOp56
 70
     1
102
RTVSPost2010Prop57
140
1.0
102
RTVSPost2010PropOp57
 70
     1
102
RTVSPropertyOp0
 70
     1
102
RTVSPropertyOp1
 70
     1
102
RTVSPropertyOp2
 70
     1
102
RTVSPropertyOp3
 70
     1
102
RTVSPropertyOp4
 70
     1
102
RTVSPropertyOp5
 70
     1
102
RTVSPropertyOp6
 70
     1
102
RTVSPropertyOp7
 70
     1
102
RTVSPropertyOp8
 70
     1
102
RTVSPropertyOp9
 70
     1
102
RTVSPropertyOp10
 70
     1
102
RTVSPropertyOp11
 70
     1
102
RTVSPropertyOp12
 70
     1
102
RTVSPropertyOp13
 70
     1
102
RTVSPropertyOp14
 70
     1
102
RTVSPropertyOp15
 70
     1
102
RTVSPropertyOp16
 70
     1
102
RTVSPropertyOp17
 70
     1
102
RTVSPropertyOp18
 70
     1
102
RTVSPropertyOp19
 70
     1
102
RTVSPropertyOp20
 70
     1
102
RTVSPropertyOp21
 70
     1
102
RTVSPropertyOp22
 70
     1
102
RTVSPropertyOp23
 70
     1
102
RTVSPropertyOp24
 70
     1
102
RTVSPropertyOp25
 70
     1
102
RTVSPropertyOp26
 70
     1
102
RTVSPropertyOp27
 70
     1
102
RTVSPropertyOp28
 70
     1
102
RTVSPropertyOp29
 70
     1
102
RTVSPropertyOp30
 70
     1
102
RTVSPropertyOp31
 70
     1
102
RTVSPropertyOp32
 70
     1
102
RTVSPropertyOp33
 70
     1
102
RTVSPropertyOp34
 70
     1
102
RTVSPropertyOp35
 70
     1
102
RTVSPropertyOp36
 70
     1
102
RTVSPropertyOp37
 70
     1
102
RTVSPropertyOp38
 70
     1
102
RTVSPropertyOp39
 70
     1
102
RTVSPropertyOp40
 70
     1
102
RTVSPropertyOp41
 70
     1
102
RTVSPropertyOp42
 70
     1
102
RTVSPropertyOp43
 70
     1
102
RTVSPropertyOp44
 70
     1
102
RTVSPropertyOp45
 70
     1
102
RTVSPropertyOp46
 70
     1
102
RTVSPropertyOp47
 70
     1
102
RTVSPropertyOp48
 70
     1
102
RTVSPropertyOp49
 70
     1
102
RTVSPropertyOp50
 70
     1
102
RTVSPropertyOp51
 70
     0
102
RTVSPropertyOp52
 70
     0
102
RTVSPropertyOp53
 70
     1
102
RTVSPropertyOp54
 70
     1
102
RTVSPropertyOp55
 70
     1
102
RTVSPropertyOp56
 70
     1
102
RTVSPropertyOp57
 70
     1
102
RTVSPropertyOp58
 70
     1
102
RTVSPropertyOp59
 70
     1
102
RTVSPropertyOp60
 70
     1
102
RTVSPropertyOp61
 70
     1
102
RTVSPropertyOp62
 70
     1
  0
XRECORD
  5
3275
102
{ACAD_REACTORS
330
3274
102
}
330
3274
100
AcDbXrecord
280
     1
102
RTVSPost2010Prop28
280
     0
102
RTVSPost2010PropOp28
 70
     1
102
RTVSPost2010Prop29
280
     1
102
RTVSPost2010PropOp29
 70
     1
102
RTVSPost2010Prop30
280
     1
102
RTVSPost2010PropOp30
 70
     1
102
RTVSPost2010Prop31
280
     0
102
RTVSPost2010PropOp31
 70
     1
102
RTVSPost2010Prop32
280
     0
102
RTVSPost2010PropOp32
 70
     1
102
RTVSPost2010Prop33
280
     0
102
RTVSPost2010PropOp33
 70
     1
102
RTVSPost2010Prop34
280
     0
102
RTVSPost2010PropOp34
 70
     1
102
RTVSPost2010Prop35
280
     0
102
RTVSPost2010PropOp35
 70
     1
102
RTVSPost2010Prop36
280
     0
102
RTVSPost2010PropOp36
 70
     1
102
RTVSPost2010Prop37
 90
       50
102
RTVSPost2010PropOp37
 70
     1
102
RTVSPost2010Prop38
140
0.0
102
RTVSPost2010PropOp38
 70
     1
102
RTVSPost2010Prop39
140
1.0
102
RTVSPost2010PropOp39
 70
     1
102
RTVSPost2010Prop40
 90
        0
102
RTVSPost2010PropOp40
 70
     1
102
RTVSPost2010Prop41ColorIndex
 90
       18
102
RTVSPost2010Prop41ColorRGB
 90
        0
102
RTVSPost2010PropOp41
 70
     1
102
RTVSPost2010Prop42
 90
       50
102
RTVSPost2010PropOp42
 70
     1
102
RTVSPost2010Prop43
 90
        3
102
RTVSPost2010PropOp43
 70
     1
102
RTVSPost2010Prop44ColorIndex
 90
        5
102
RTVSPost2010Prop44ColorRGB
 90
      255
102
RTVSPost2010PropOp44
 70
     1
102
RTVSPost2010Prop45
280
     0
102
RTVSPost2010PropOp45
 70
     1
102
RTVSPost2010Prop46
 90
       50
102
RTVSPost2010PropOp46
 70
     1
102
RTVSPost2010Prop47
 90
       50
102
RTVSPost2010PropOp47
 70
     1
102
RTVSPost2010Prop48
 90
       50
102
RTVSPost2010PropOp48
 70
     1
102
RTVSPost2010Prop49
280
     0
102
RTVSPost2010PropOp49
 70
     1
102
RTVSPost2010Prop50
 90
       50
102
RTVSPost2010PropOp50
 70
     1
102
RTVSPost2010Prop51ColorIndex
 90
      256
102
RTVSPost2010Prop51ColorRGB
 90
-16777216
102
RTVSPost2010PropOp51
 70
     0
102
RTVSPost2010Prop52
140
1.0
102
RTVSPost2010PropOp52
 70
     0
102
RTVSPost2010Prop53
 90
        2
102
RTVSPost2010PropOp53
 70
     1
102
RTVSPost2010Prop54
  1
strokes_ogs.tif
102
RTVSPost2010PropOp54
 70
     1
102
RTVSPost2010Prop55
280
     0
102
RTVSPost2010PropOp55
 70
     1
102
RTVSPost2010Prop56
140
1.0
102
RTVSPost2010PropOp56
 70
     1
102
RTVSPost2010Prop57
140
1.0
102
RTVSPost2010PropOp57
 70
     1
102
RTVSPropertyOp0
 70
     1
102
RTVSPropertyOp1
 70
     1
102
RTVSPropertyOp2
 70
     1
102
RTVSPropertyOp3
 70
     1
102
RTVSPropertyOp4
 70
     1
102
RTVSPropertyOp5
 70
     1
102
RTVSPropertyOp6
 70
     1
102
RTVSPropertyOp7
 70
     1
102
RTVSPropertyOp8
 70
     1
102
RTVSPropertyOp9
 70
     1
102
RTVSPropertyOp10
 70
     1
102
RTVSPropertyOp11
 70
     1
102
RTVSPropertyOp12
 70
     1
102
RTVSPropertyOp13
 70
     1
102
RTVSPropertyOp14
 70
     1
102
RTVSPropertyOp15
 70
     1
102
RTVSPropertyOp16
 70
     1
102
RTVSPropertyOp17
 70
     1
102
RTVSPropertyOp18
 70
     1
102
RTVSPropertyOp19
 70
     1
102
RTVSPropertyOp20
 70
     1
102
RTVSPropertyOp21
 70
     1
102
RTVSPropertyOp22
 70
     1
102
RTVSPropertyOp23
 70
     1
102
RTVSPropertyOp24
 70
     1
102
RTVSPropertyOp25
 70
     1
102
RTVSPropertyOp26
 70
     1
102
RTVSPropertyOp27
 70
     1
102
RTVSPropertyOp28
 70
     1
102
RTVSPropertyOp29
 70
     1
102
RTVSPropertyOp30
 70
     1
102
RTVSPropertyOp31
 70
     1
102
RTVSPropertyOp32
 70
     1
102
RTVSPropertyOp33
 70
     1
102
RTVSPropertyOp34
 70
     1
102
RTVSPropertyOp35
 70
     1
102
RTVSPropertyOp36
 70
     1
102
RTVSPropertyOp37
 70
     1
102
RTVSPropertyOp38
 70
     1
102
RTVSPropertyOp39
 70
     1
102
RTVSPropertyOp40
 70
     1
102
RTVSPropertyOp41
 70
     1
102
RTVSPropertyOp42
 70
     1
102
RTVSPropertyOp43
 70
     1
102
RTVSPropertyOp44
 70
     1
102
RTVSPropertyOp45
 70
     1
102
RTVSPropertyOp46
 70
     1
102
RTVSPropertyOp47
 70
     1
102
RTVSPropertyOp48
 70
     1
102
RTVSPropertyOp49
 70
     1
102
RTVSPropertyOp50
 70
     1
102
RTVSPropertyOp51
 70
     0
102
RTVSPropertyOp52
 70
     0
102
RTVSPropertyOp53
 70
     1
102
RTVSPropertyOp54
 70
     1
102
RTVSPropertyOp55
 70
     1
102
RTVSPropertyOp56
 70
     1
102
RTVSPropertyOp57
 70
     1
102
RTVSPropertyOp58
 70
     1
102
RTVSPropertyOp59
 70
     1
102
RTVSPropertyOp60
 70
     1
102
RTVSPropertyOp61
 70
     1
102
RTVSPropertyOp62
 70
     1
  0
XRECORD
  5
3267
102
{ACAD_REACTORS
330
3266
102
}
330
3266
100
AcDbXrecord
280
     1
102
RTVSPost2010Prop28
280
     0
102
RTVSPost2010PropOp28
 70
     1
102
RTVSPost2010Prop29
280
     1
102
RTVSPost2010PropOp29
 70
     1
102
RTVSPost2010Prop30
280
     1
102
RTVSPost2010PropOp30
 70
     1
102
RTVSPost2010Prop31
280
     0
102
RTVSPost2010PropOp31
 70
     1
102
RTVSPost2010Prop32
280
     0
102
RTVSPost2010PropOp32
 70
     1
102
RTVSPost2010Prop33
280
     0
102
RTVSPost2010PropOp33
 70
     1
102
RTVSPost2010Prop34
280
     0
102
RTVSPost2010PropOp34
 70
     1
102
RTVSPost2010Prop35
280
     0
102
RTVSPost2010PropOp35
 70
     1
102
RTVSPost2010Prop36
280
     0
102
RTVSPost2010PropOp36
 70
     1
102
RTVSPost2010Prop37
 90
       50
102
RTVSPost2010PropOp37
 70
     1
102
RTVSPost2010Prop38
140
0.0
102
RTVSPost2010PropOp38
 70
     1
102
RTVSPost2010Prop39
140
1.0
102
RTVSPost2010PropOp39
 70
     1
102
RTVSPost2010Prop40
 90
        0
102
RTVSPost2010PropOp40
 70
     1
102
RTVSPost2010Prop41ColorIndex
 90
       18
102
RTVSPost2010Prop41ColorRGB
 90
        0
102
RTVSPost2010PropOp41
 70
     1
102
RTVSPost2010Prop42
 90
       50
102
RTVSPost2010PropOp42
 70
     1
102
RTVSPost2010Prop43
 90
        3
102
RTVSPost2010PropOp43
 70
     1
102
RTVSPost2010Prop44ColorIndex
 90
        5
102
RTVSPost2010Prop44ColorRGB
 90
      255
102
RTVSPost2010PropOp44
 70
     1
102
RTVSPost2010Prop45
280
     0
102
RTVSPost2010PropOp45
 70
     1
102
RTVSPost2010Prop46
 90
       50
102
RTVSPost2010PropOp46
 70
     1
102
RTVSPost2010Prop47
 90
       50
102
RTVSPost2010PropOp47
 70
     1
102
RTVSPost2010Prop48
 90
       50
102
RTVSPost2010PropOp48
 70
     1
102
RTVSPost2010Prop49
280
     0
102
RTVSPost2010PropOp49
 70
     1
102
RTVSPost2010Prop50
 90
       50
102
RTVSPost2010PropOp50
 70
     1
102
RTVSPost2010Prop51ColorIndex
 90
      256
102
RTVSPost2010Prop51ColorRGB
 90
-16777216
102
RTVSPost2010PropOp51
 70
     0
102
RTVSPost2010Prop52
140
1.0
102
RTVSPost2010PropOp52
 70
     0
102
RTVSPost2010Prop53
 90
        2
102
RTVSPost2010PropOp53
 70
     1
102
RTVSPost2010Prop54
  1
strokes_ogs.tif
102
RTVSPost2010PropOp54
 70
     1
102
RTVSPost2010Prop55
280
     0
102
RTVSPost2010PropOp55
 70
     1
102
RTVSPost2010Prop56
140
1.0
102
RTVSPost2010PropOp56
 70
     1
102
RTVSPost2010Prop57
140
1.0
102
RTVSPost2010PropOp57
 70
     1
102
RTVSPropertyOp0
 70
     1
102
RTVSPropertyOp1
 70
     1
102
RTVSPropertyOp2
 70
     1
102
RTVSPropertyOp3
 70
     1
102
RTVSPropertyOp4
 70
     1
102
RTVSPropertyOp5
 70
     1
102
RTVSPropertyOp6
 70
     1
102
RTVSPropertyOp7
 70
     1
102
RTVSPropertyOp8
 70
     1
102
RTVSPropertyOp9
 70
     1
102
RTVSPropertyOp10
 70
     1
102
RTVSPropertyOp11
 70
     1
102
RTVSPropertyOp12
 70
     1
102
RTVSPropertyOp13
 70
     1
102
RTVSPropertyOp14
 70
     1
102
RTVSPropertyOp15
 70
     1
102
RTVSPropertyOp16
 70
     1
102
RTVSPropertyOp17
 70
     1
102
RTVSPropertyOp18
 70
     1
102
RTVSPropertyOp19
 70
     1
102
RTVSPropertyOp20
 70
     1
102
RTVSPropertyOp21
 70
     1
102
RTVSPropertyOp22
 70
     1
102
RTVSPropertyOp23
 70
     1
102
RTVSPropertyOp24
 70
     1
102
RTVSPropertyOp25
 70
     1
102
RTVSPropertyOp26
 70
     1
102
RTVSPropertyOp27
 70
     1
102
RTVSPropertyOp28
 70
     1
102
RTVSPropertyOp29
 70
     1
102
RTVSPropertyOp30
 70
     1
102
RTVSPropertyOp31
 70
     1
102
RTVSPropertyOp32
 70
     1
102
RTVSPropertyOp33
 70
     1
102
RTVSPropertyOp34
 70
     1
102
RTVSPropertyOp35
 70
     1
102
RTVSPropertyOp36
 70
     1
102
RTVSPropertyOp37
 70
     1
102
RTVSPropertyOp38
 70
     1
102
RTVSPropertyOp39
 70
     1
102
RTVSPropertyOp40
 70
     1
102
RTVSPropertyOp41
 70
     1
102
RTVSPropertyOp42
 70
     1
102
RTVSPropertyOp43
 70
     1
102
RTVSPropertyOp44
 70
     1
102
RTVSPropertyOp45
 70
     1
102
RTVSPropertyOp46
 70
     1
102
RTVSPropertyOp47
 70
     1
102
RTVSPropertyOp48
 70
     1
102
RTVSPropertyOp49
 70
     1
102
RTVSPropertyOp50
 70
     1
102
RTVSPropertyOp51
 70
     0
102
RTVSPropertyOp52
 70
     0
102
RTVSPropertyOp53
 70
     1
102
RTVSPropertyOp54
 70
     1
102
RTVSPropertyOp55
 70
     1
102
RTVSPropertyOp56
 70
     1
102
RTVSPropertyOp57
 70
     1
102
RTVSPropertyOp58
 70
     1
102
RTVSPropertyOp59
 70
     1
102
RTVSPropertyOp60
 70
     1
102
RTVSPropertyOp61
 70
     1
102
RTVSPropertyOp62
 70
     1
  0
XRECORD
  5
326B
102
{ACAD_REACTORS
330
326A
102
}
330
326A
100
AcDbXrecord
280
     1
102
RTVSPost2010Prop28
280
     0
102
RTVSPost2010PropOp28
 70
     1
102
RTVSPost2010Prop29
280
     1
102
RTVSPost2010PropOp29
 70
     1
102
RTVSPost2010Prop30
280
     1
102
RTVSPost2010PropOp30
 70
     1
102
RTVSPost2010Prop31
280
     0
102
RTVSPost2010PropOp31
 70
     1
102
RTVSPost2010Prop32
280
     0
102
RTVSPost2010PropOp32
 70
     1
102
RTVSPost2010Prop33
280
     0
102
RTVSPost2010PropOp33
 70
     1
102
RTVSPost2010Prop34
280
     0
102
RTVSPost2010PropOp34
 70
     1
102
RTVSPost2010Prop35
280
     0
102
RTVSPost2010PropOp35
 70
     1
102
RTVSPost2010Prop36
280
     0
102
RTVSPost2010PropOp36
 70
     1
102
RTVSPost2010Prop37
 90
       50
102
RTVSPost2010PropOp37
 70
     1
102
RTVSPost2010Prop38
140
0.0
102
RTVSPost2010PropOp38
 70
     1
102
RTVSPost2010Prop39
140
1.0
102
RTVSPost2010PropOp39
 70
     1
102
RTVSPost2010Prop40
 90
        0
102
RTVSPost2010PropOp40
 70
     1
102
RTVSPost2010Prop41ColorIndex
 90
       18
102
RTVSPost2010Prop41ColorRGB
 90
        0
102
RTVSPost2010PropOp41
 70
     1
102
RTVSPost2010Prop42
 90
       50
102
RTVSPost2010PropOp42
 70
     1
102
RTVSPost2010Prop43
 90
        3
102
RTVSPost2010PropOp43
 70
     1
102
RTVSPost2010Prop44ColorIndex
 90
        5
102
RTVSPost2010Prop44ColorRGB
 90
      255
102
RTVSPost2010PropOp44
 70
     1
102
RTVSPost2010Prop45
280
     0
102
RTVSPost2010PropOp45
 70
     1
102
RTVSPost2010Prop46
 90
       50
102
RTVSPost2010PropOp46
 70
     1
102
RTVSPost2010Prop47
 90
       50
102
RTVSPost2010PropOp47
 70
     1
102
RTVSPost2010Prop48
 90
       50
102
RTVSPost2010PropOp48
 70
     1
102
RTVSPost2010Prop49
280
     0
102
RTVSPost2010PropOp49
 70
     1
102
RTVSPost2010Prop50
 90
       50
102
RTVSPost2010PropOp50
 70
     1
102
RTVSPost2010Prop51ColorIndex
 90
      256
102
RTVSPost2010Prop51ColorRGB
 90
-16777216
102
RTVSPost2010PropOp51
 70
     0
102
RTVSPost2010Prop52
140
1.0
102
RTVSPost2010PropOp52
 70
     0
102
RTVSPost2010Prop53
 90
        2
102
RTVSPost2010PropOp53
 70
     1
102
RTVSPost2010Prop54
  1
strokes_ogs.tif
102
RTVSPost2010PropOp54
 70
     1
102
RTVSPost2010Prop55
280
     0
102
RTVSPost2010PropOp55
 70
     1
102
RTVSPost2010Prop56
140
1.0
102
RTVSPost2010PropOp56
 70
     1
102
RTVSPost2010Prop57
140
1.0
102
RTVSPost2010PropOp57
 70
     1
102
RTVSPropertyOp0
 70
     1
102
RTVSPropertyOp1
 70
     1
102
RTVSPropertyOp2
 70
     1
102
RTVSPropertyOp3
 70
     1
102
RTVSPropertyOp4
 70
     1
102
RTVSPropertyOp5
 70
     1
102
RTVSPropertyOp6
 70
     1
102
RTVSPropertyOp7
 70
     1
102
RTVSPropertyOp8
 70
     1
102
RTVSPropertyOp9
 70
     1
102
RTVSPropertyOp10
 70
     1
102
RTVSPropertyOp11
 70
     1
102
RTVSPropertyOp12
 70
     1
102
RTVSPropertyOp13
 70
     1
102
RTVSPropertyOp14
 70
     1
102
RTVSPropertyOp15
 70
     1
102
RTVSPropertyOp16
 70
     1
102
RTVSPropertyOp17
 70
     1
102
RTVSPropertyOp18
 70
     1
102
RTVSPropertyOp19
 70
     1
102
RTVSPropertyOp20
 70
     1
102
RTVSPropertyOp21
 70
     1
102
RTVSPropertyOp22
 70
     1
102
RTVSPropertyOp23
 70
     1
102
RTVSPropertyOp24
 70
     1
102
RTVSPropertyOp25
 70
     1
102
RTVSPropertyOp26
 70
     1
102
RTVSPropertyOp27
 70
     1
102
RTVSPropertyOp28
 70
     1
102
RTVSPropertyOp29
 70
     1
102
RTVSPropertyOp30
 70
     1
102
RTVSPropertyOp31
 70
     1
102
RTVSPropertyOp32
 70
     1
102
RTVSPropertyOp33
 70
     1
102
RTVSPropertyOp34
 70
     1
102
RTVSPropertyOp35
 70
     1
102
RTVSPropertyOp36
 70
     1
102
RTVSPropertyOp37
 70
     1
102
RTVSPropertyOp38
 70
     1
102
RTVSPropertyOp39
 70
     1
102
RTVSPropertyOp40
 70
     1
102
RTVSPropertyOp41
 70
     1
102
RTVSPropertyOp42
 70
     1
102
RTVSPropertyOp43
 70
     1
102
RTVSPropertyOp44
 70
     1
102
RTVSPropertyOp45
 70
     1
102
RTVSPropertyOp46
 70
     1
102
RTVSPropertyOp47
 70
     1
102
RTVSPropertyOp48
 70
     1
102
RTVSPropertyOp49
 70
     1
102
RTVSPropertyOp50
 70
     1
102
RTVSPropertyOp51
 70
     0
102
RTVSPropertyOp52
 70
     0
102
RTVSPropertyOp53
 70
     1
102
RTVSPropertyOp54
 70
     1
102
RTVSPropertyOp55
 70
     1
102
RTVSPropertyOp56
 70
     1
102
RTVSPropertyOp57
 70
     1
102
RTVSPropertyOp58
 70
     1
102
RTVSPropertyOp59
 70
     1
102
RTVSPropertyOp60
 70
     1
102
RTVSPropertyOp61
 70
     1
102
RTVSPropertyOp62
 70
     1
  0
XRECORD
  5
3285
102
{ACAD_REACTORS
330
3284
102
}
330
3284
100
AcDbXrecord
280
     1
102
RTVSPost2010Prop28
280
     0
102
RTVSPost2010PropOp28
 70
     1
102
RTVSPost2010Prop29
280
     1
102
RTVSPost2010PropOp29
 70
     1
102
RTVSPost2010Prop30
280
     1
102
RTVSPost2010PropOp30
 70
     1
102
RTVSPost2010Prop31
280
     0
102
RTVSPost2010PropOp31
 70
     1
102
RTVSPost2010Prop32
280
     0
102
RTVSPost2010PropOp32
 70
     1
102
RTVSPost2010Prop33
280
     0
102
RTVSPost2010PropOp33
 70
     1
102
RTVSPost2010Prop34
280
     0
102
RTVSPost2010PropOp34
 70
     1
102
RTVSPost2010Prop35
280
     0
102
RTVSPost2010PropOp35
 70
     1
102
RTVSPost2010Prop36
280
     0
102
RTVSPost2010PropOp36
 70
     1
102
RTVSPost2010Prop37
 90
       50
102
RTVSPost2010PropOp37
 70
     0
102
RTVSPost2010Prop38
140
0.0
102
RTVSPost2010PropOp38
 70
     0
102
RTVSPost2010Prop39
140
1.0
102
RTVSPost2010PropOp39
 70
     0
102
RTVSPost2010Prop40
 90
        0
102
RTVSPost2010PropOp40
 70
     0
102
RTVSPost2010Prop41ColorIndex
 90
       18
102
RTVSPost2010Prop41ColorRGB
 90
        0
102
RTVSPost2010PropOp41
 70
     0
102
RTVSPost2010Prop42
 90
       50
102
RTVSPost2010PropOp42
 70
     0
102
RTVSPost2010Prop43
 90
        3
102
RTVSPost2010PropOp43
 70
     0
102
RTVSPost2010Prop44ColorIndex
 90
        5
102
RTVSPost2010Prop44ColorRGB
 90
      255
102
RTVSPost2010PropOp44
 70
     0
102
RTVSPost2010Prop45
280
     0
102
RTVSPost2010PropOp45
 70
     1
102
RTVSPost2010Prop46
 90
       50
102
RTVSPost2010PropOp46
 70
     0
102
RTVSPost2010Prop47
 90
       50
102
RTVSPost2010PropOp47
 70
     0
102
RTVSPost2010Prop48
 90
       50
102
RTVSPost2010PropOp48
 70
     0
102
RTVSPost2010Prop49
280
     0
102
RTVSPost2010PropOp49
 70
     1
102
RTVSPost2010Prop50
 90
       50
102
RTVSPost2010PropOp50
 70
     0
102
RTVSPost2010Prop51ColorIndex
 90
      256
102
RTVSPost2010Prop51ColorRGB
 90
-16777216
102
RTVSPost2010PropOp51
 70
     0
102
RTVSPost2010Prop52
140
1.0
102
RTVSPost2010PropOp52
 70
     0
102
RTVSPost2010Prop53
 90
        2
102
RTVSPost2010PropOp53
 70
     0
102
RTVSPost2010Prop54
  1
strokes_ogs.tif
102
RTVSPost2010PropOp54
 70
     0
102
RTVSPost2010Prop55
280
     0
102
RTVSPost2010PropOp55
 70
     1
102
RTVSPost2010Prop56
140
1.0
102
RTVSPost2010PropOp56
 70
     0
102
RTVSPost2010Prop57
140
1.0
102
RTVSPost2010PropOp57
 70
     0
102
RTVSPropertyOp0
 70
     0
102
RTVSPropertyOp1
 70
     0
102
RTVSPropertyOp2
 70
     0
102
RTVSPropertyOp3
 70
     0
102
RTVSPropertyOp4
 70
     0
102
RTVSPropertyOp5
 70
     0
102
RTVSPropertyOp6
 70
     0
102
RTVSPropertyOp7
 70
     0
102
RTVSPropertyOp8
 70
     0
102
RTVSPropertyOp9
 70
     0
102
RTVSPropertyOp10
 70
     0
102
RTVSPropertyOp11
 70
     0
102
RTVSPropertyOp12
 70
     0
102
RTVSPropertyOp13
 70
     0
102
RTVSPropertyOp14
 70
     2
102
RTVSPropertyOp15
 70
     0
102
RTVSPropertyOp16
 70
     0
102
RTVSPropertyOp17
 70
     0
102
RTVSPropertyOp18
 70
     0
102
RTVSPropertyOp19
 70
     0
102
RTVSPropertyOp20
 70
     0
102
RTVSPropertyOp21
 70
     0
102
RTVSPropertyOp22
 70
     0
102
RTVSPropertyOp23
 70
     0
102
RTVSPropertyOp24
 70
     0
102
RTVSPropertyOp25
 70
     0
102
RTVSPropertyOp26
 70
     0
102
RTVSPropertyOp27
 70
     0
102
RTVSPropertyOp28
 70
     1
102
RTVSPropertyOp29
 70
     1
102
RTVSPropertyOp30
 70
     1
102
RTVSPropertyOp31
 70
     1
102
RTVSPropertyOp32
 70
     1
102
RTVSPropertyOp33
 70
     1
102
RTVSPropertyOp34
 70
     1
102
RTVSPropertyOp35
 70
     1
102
RTVSPropertyOp36
 70
     1
102
RTVSPropertyOp37
 70
     0
102
RTVSPropertyOp38
 70
     0
102
RTVSPropertyOp39
 70
     0
102
RTVSPropertyOp40
 70
     0
102
RTVSPropertyOp41
 70
     0
102
RTVSPropertyOp42
 70
     0
102
RTVSPropertyOp43
 70
     0
102
RTVSPropertyOp44
 70
     0
102
RTVSPropertyOp45
 70
     1
102
RTVSPropertyOp46
 70
     0
102
RTVSPropertyOp47
 70
     0
102
RTVSPropertyOp48
 70
     0
102
RTVSPropertyOp49
 70
     1
102
RTVSPropertyOp50
 70
     0
102
RTVSPropertyOp51
 70
     0
102
RTVSPropertyOp52
 70
     0
102
RTVSPropertyOp53
 70
     0
102
RTVSPropertyOp54
 70
     0
102
RTVSPropertyOp55
 70
     1
102
RTVSPropertyOp56
 70
     0
102
RTVSPropertyOp57
 70
     0
102
RTVSPropertyOp58
 70
     0
102
RTVSPropertyOp59
 70
     0
102
RTVSPropertyOp60
 70
     0
102
RTVSPropertyOp61
 70
     0
102
RTVSPropertyOp62
 70
     0
  0
XRECORD
  5
3273
102
{ACAD_REACTORS
330
3272
102
}
330
3272
100
AcDbXrecord
280
     1
102
RTVSPost2010Prop28
280
     0
102
RTVSPost2010PropOp28
 70
     1
102
RTVSPost2010Prop29
280
     1
102
RTVSPost2010PropOp29
 70
     1
102
RTVSPost2010Prop30
280
     1
102
RTVSPost2010PropOp30
 70
     1
102
RTVSPost2010Prop31
280
     0
102
RTVSPost2010PropOp31
 70
     1
102
RTVSPost2010Prop32
280
     0
102
RTVSPost2010PropOp32
 70
     1
102
RTVSPost2010Prop33
280
     0
102
RTVSPost2010PropOp33
 70
     1
102
RTVSPost2010Prop34
280
     0
102
RTVSPost2010PropOp34
 70
     1
102
RTVSPost2010Prop35
280
     0
102
RTVSPost2010PropOp35
 70
     1
102
RTVSPost2010Prop36
280
     0
102
RTVSPost2010PropOp36
 70
     1
102
RTVSPost2010Prop37
 90
       50
102
RTVSPost2010PropOp37
 70
     1
102
RTVSPost2010Prop38
140
0.0
102
RTVSPost2010PropOp38
 70
     1
102
RTVSPost2010Prop39
140
1.0
102
RTVSPost2010PropOp39
 70
     1
102
RTVSPost2010Prop40
 90
        0
102
RTVSPost2010PropOp40
 70
     1
102
RTVSPost2010Prop41ColorIndex
 90
       18
102
RTVSPost2010Prop41ColorRGB
 90
        0
102
RTVSPost2010PropOp41
 70
     1
102
RTVSPost2010Prop42
 90
       50
102
RTVSPost2010PropOp42
 70
     1
102
RTVSPost2010Prop43
 90
        3
102
RTVSPost2010PropOp43
 70
     1
102
RTVSPost2010Prop44ColorIndex
 90
        5
102
RTVSPost2010Prop44ColorRGB
 90
      255
102
RTVSPost2010PropOp44
 70
     1
102
RTVSPost2010Prop45
280
     0
102
RTVSPost2010PropOp45
 70
     1
102
RTVSPost2010Prop46
 90
       50
102
RTVSPost2010PropOp46
 70
     1
102
RTVSPost2010Prop47
 90
       50
102
RTVSPost2010PropOp47
 70
     1
102
RTVSPost2010Prop48
 90
       50
102
RTVSPost2010PropOp48
 70
     1
102
RTVSPost2010Prop49
280
     0
102
RTVSPost2010PropOp49
 70
     1
102
RTVSPost2010Prop50
 90
       50
102
RTVSPost2010PropOp50
 70
     1
102
RTVSPost2010Prop51ColorIndex
 90
      256
102
RTVSPost2010Prop51ColorRGB
 90
-16777216
102
RTVSPost2010PropOp51
 70
     0
102
RTVSPost2010Prop52
140
1.0
102
RTVSPost2010PropOp52
 70
     0
102
RTVSPost2010Prop53
 90
        2
102
RTVSPost2010PropOp53
 70
     1
102
RTVSPost2010Prop54
  1
strokes_ogs.tif
102
RTVSPost2010PropOp54
 70
     1
102
RTVSPost2010Prop55
280
     0
102
RTVSPost2010PropOp55
 70
     1
102
RTVSPost2010Prop56
140
1.0
102
RTVSPost2010PropOp56
 70
     1
102
RTVSPost2010Prop57
140
1.0
102
RTVSPost2010PropOp57
 70
     1
102
RTVSPropertyOp0
 70
     1
102
RTVSPropertyOp1
 70
     1
102
RTVSPropertyOp2
 70
     1
102
RTVSPropertyOp3
 70
     1
102
RTVSPropertyOp4
 70
     1
102
RTVSPropertyOp5
 70
     1
102
RTVSPropertyOp6
 70
     1
102
RTVSPropertyOp7
 70
     1
102
RTVSPropertyOp8
 70
     1
102
RTVSPropertyOp9
 70
     1
102
RTVSPropertyOp10
 70
     1
102
RTVSPropertyOp11
 70
     1
102
RTVSPropertyOp12
 70
     1
102
RTVSPropertyOp13
 70
     1
102
RTVSPropertyOp14
 70
     1
102
RTVSPropertyOp15
 70
     1
102
RTVSPropertyOp16
 70
     1
102
RTVSPropertyOp17
 70
     1
102
RTVSPropertyOp18
 70
     1
102
RTVSPropertyOp19
 70
     1
102
RTVSPropertyOp20
 70
     1
102
RTVSPropertyOp21
 70
     1
102
RTVSPropertyOp22
 70
     1
102
RTVSPropertyOp23
 70
     1
102
RTVSPropertyOp24
 70
     1
102
RTVSPropertyOp25
 70
     1
102
RTVSPropertyOp26
 70
     1
102
RTVSPropertyOp27
 70
     1
102
RTVSPropertyOp28
 70
     1
102
RTVSPropertyOp29
 70
     1
102
RTVSPropertyOp30
 70
     1
102
RTVSPropertyOp31
 70
     1
102
RTVSPropertyOp32
 70
     1
102
RTVSPropertyOp33
 70
     1
102
RTVSPropertyOp34
 70
     1
102
RTVSPropertyOp35
 70
     1
102
RTVSPropertyOp36
 70
     1
102
RTVSPropertyOp37
 70
     1
102
RTVSPropertyOp38
 70
     1
102
RTVSPropertyOp39
 70
     1
102
RTVSPropertyOp40
 70
     1
102
RTVSPropertyOp41
 70
     1
102
RTVSPropertyOp42
 70
     1
102
RTVSPropertyOp43
 70
     1
102
RTVSPropertyOp44
 70
     1
102
RTVSPropertyOp45
 70
     1
102
RTVSPropertyOp46
 70
     1
102
RTVSPropertyOp47
 70
     1
102
RTVSPropertyOp48
 70
     1
102
RTVSPropertyOp49
 70
     1
102
RTVSPropertyOp50
 70
     1
102
RTVSPropertyOp51
 70
     0
102
RTVSPropertyOp52
 70
     0
102
RTVSPropertyOp53
 70
     1
102
RTVSPropertyOp54
 70
     1
102
RTVSPropertyOp55
 70
     1
102
RTVSPropertyOp56
 70
     1
102
RTVSPropertyOp57
 70
     1
102
RTVSPropertyOp58
 70
     1
102
RTVSPropertyOp59
 70
     1
102
RTVSPropertyOp60
 70
     1
102
RTVSPropertyOp61
 70
     1
102
RTVSPropertyOp62
 70
     1
  0
XRECORD
  5
3257
102
{ACAD_REACTORS
330
3256
102
}
330
3256
100
AcDbXrecord
280
     1
102
RTVSPost2010Prop28
280
     0
102
RTVSPost2010PropOp28
 70
     1
102
RTVSPost2010Prop29
280
     1
102
RTVSPost2010PropOp29
 70
     1
102
RTVSPost2010Prop30
280
     1
102
RTVSPost2010PropOp30
 70
     1
102
RTVSPost2010Prop31
280
     0
102
RTVSPost2010PropOp31
 70
     1
102
RTVSPost2010Prop32
280
     0
102
RTVSPost2010PropOp32
 70
     1
102
RTVSPost2010Prop33
280
     0
102
RTVSPost2010PropOp33
 70
     1
102
RTVSPost2010Prop34
280
     0
102
RTVSPost2010PropOp34
 70
     1
102
RTVSPost2010Prop35
280
     0
102
RTVSPost2010PropOp35
 70
     1
102
RTVSPost2010Prop36
280
     0
102
RTVSPost2010PropOp36
 70
     1
102
RTVSPost2010Prop37
 90
       50
102
RTVSPost2010PropOp37
 70
     1
102
RTVSPost2010Prop38
140
0.0
102
RTVSPost2010PropOp38
 70
     1
102
RTVSPost2010Prop39
140
1.0
102
RTVSPost2010PropOp39
 70
     1
102
RTVSPost2010Prop40
 90
        0
102
RTVSPost2010PropOp40
 70
     1
102
RTVSPost2010Prop41ColorIndex
 90
       18
102
RTVSPost2010Prop41ColorRGB
 90
        0
102
RTVSPost2010PropOp41
 70
     1
102
RTVSPost2010Prop42
 90
       50
102
RTVSPost2010PropOp42
 70
     1
102
RTVSPost2010Prop43
 90
        3
102
RTVSPost2010PropOp43
 70
     1
102
RTVSPost2010Prop44ColorIndex
 90
        5
102
RTVSPost2010Prop44ColorRGB
 90
      255
102
RTVSPost2010PropOp44
 70
     1
102
RTVSPost2010Prop45
280
     0
102
RTVSPost2010PropOp45
 70
     1
102
RTVSPost2010Prop46
 90
       50
102
RTVSPost2010PropOp46
 70
     1
102
RTVSPost2010Prop47
 90
       50
102
RTVSPost2010PropOp47
 70
     1
102
RTVSPost2010Prop48
 90
       50
102
RTVSPost2010PropOp48
 70
     1
102
RTVSPost2010Prop49
280
     0
102
RTVSPost2010PropOp49
 70
     1
102
RTVSPost2010Prop50
 90
       50
102
RTVSPost2010PropOp50
 70
     1
102
RTVSPost2010Prop51ColorIndex
 90
      256
102
RTVSPost2010Prop51ColorRGB
 90
-16777216
102
RTVSPost2010PropOp51
 70
     0
102
RTVSPost2010Prop52
140
1.0
102
RTVSPost2010PropOp52
 70
     0
102
RTVSPost2010Prop53
 90
        2
102
RTVSPost2010PropOp53
 70
     1
102
RTVSPost2010Prop54
  1
strokes_ogs.tif
102
RTVSPost2010PropOp54
 70
     1
102
RTVSPost2010Prop55
280
     0
102
RTVSPost2010PropOp55
 70
     1
102
RTVSPost2010Prop56
140
1.0
102
RTVSPost2010PropOp56
 70
     1
102
RTVSPost2010Prop57
140
1.0
102
RTVSPost2010PropOp57
 70
     1
102
RTVSPropertyOp0
 70
     1
102
RTVSPropertyOp1
 70
     1
102
RTVSPropertyOp2
 70
     1
102
RTVSPropertyOp3
 70
     1
102
RTVSPropertyOp4
 70
     1
102
RTVSPropertyOp5
 70
     1
102
RTVSPropertyOp6
 70
     1
102
RTVSPropertyOp7
 70
     1
102
RTVSPropertyOp8
 70
     1
102
RTVSPropertyOp9
 70
     1
102
RTVSPropertyOp10
 70
     1
102
RTVSPropertyOp11
 70
     1
102
RTVSPropertyOp12
 70
     1
102
RTVSPropertyOp13
 70
     1
102
RTVSPropertyOp14
 70
     1
102
RTVSPropertyOp15
 70
     1
102
RTVSPropertyOp16
 70
     1
102
RTVSPropertyOp17
 70
     1
102
RTVSPropertyOp18
 70
     1
102
RTVSPropertyOp19
 70
     1
102
RTVSPropertyOp20
 70
     1
102
RTVSPropertyOp21
 70
     1
102
RTVSPropertyOp22
 70
     1
102
RTVSPropertyOp23
 70
     1
102
RTVSPropertyOp24
 70
     1
102
RTVSPropertyOp25
 70
     1
102
RTVSPropertyOp26
 70
     1
102
RTVSPropertyOp27
 70
     1
102
RTVSPropertyOp28
 70
     1
102
RTVSPropertyOp29
 70
     1
102
RTVSPropertyOp30
 70
     1
102
RTVSPropertyOp31
 70
     1
102
RTVSPropertyOp32
 70
     1
102
RTVSPropertyOp33
 70
     1
102
RTVSPropertyOp34
 70
     1
102
RTVSPropertyOp35
 70
     1
102
RTVSPropertyOp36
 70
     1
102
RTVSPropertyOp37
 70
     1
102
RTVSPropertyOp38
 70
     1
102
RTVSPropertyOp39
 70
     1
102
RTVSPropertyOp40
 70
     1
102
RTVSPropertyOp41
 70
     1
102
RTVSPropertyOp42
 70
     1
102
RTVSPropertyOp43
 70
     1
102
RTVSPropertyOp44
 70
     1
102
RTVSPropertyOp45
 70
     1
102
RTVSPropertyOp46
 70
     1
102
RTVSPropertyOp47
 70
     1
102
RTVSPropertyOp48
 70
     1
102
RTVSPropertyOp49
 70
     1
102
RTVSPropertyOp50
 70
     1
102
RTVSPropertyOp51
 70
     0
102
RTVSPropertyOp52
 70
     0
102
RTVSPropertyOp53
 70
     1
102
RTVSPropertyOp54
 70
     1
102
RTVSPropertyOp55
 70
     1
102
RTVSPropertyOp56
 70
     1
102
RTVSPropertyOp57
 70
     1
102
RTVSPropertyOp58
 70
     1
102
RTVSPropertyOp59
 70
     1
102
RTVSPropertyOp60
 70
     1
102
RTVSPropertyOp61
 70
     1
102
RTVSPropertyOp62
 70
     1
  0
XRECORD
  5
3259
102
{ACAD_REACTORS
330
3258
102
}
330
3258
100
AcDbXrecord
280
     1
102
RTVSPost2010Prop28
280
     0
102
RTVSPost2010PropOp28
 70
     1
102
RTVSPost2010Prop29
280
     1
102
RTVSPost2010PropOp29
 70
     1
102
RTVSPost2010Prop30
280
     1
102
RTVSPost2010PropOp30
 70
     1
102
RTVSPost2010Prop31
280
     0
102
RTVSPost2010PropOp31
 70
     1
102
RTVSPost2010Prop32
280
     0
102
RTVSPost2010PropOp32
 70
     1
102
RTVSPost2010Prop33
280
     0
102
RTVSPost2010PropOp33
 70
     1
102
RTVSPost2010Prop34
280
     0
102
RTVSPost2010PropOp34
 70
     1
102
RTVSPost2010Prop35
280
     0
102
RTVSPost2010PropOp35
 70
     1
102
RTVSPost2010Prop36
280
     0
102
RTVSPost2010PropOp36
 70
     1
102
RTVSPost2010Prop37
 90
       50
102
RTVSPost2010PropOp37
 70
     1
102
RTVSPost2010Prop38
140
0.0
102
RTVSPost2010PropOp38
 70
     1
102
RTVSPost2010Prop39
140
1.0
102
RTVSPost2010PropOp39
 70
     1
102
RTVSPost2010Prop40
 90
        0
102
RTVSPost2010PropOp40
 70
     1
102
RTVSPost2010Prop41ColorIndex
 90
       18
102
RTVSPost2010Prop41ColorRGB
 90
        0
102
RTVSPost2010PropOp41
 70
     1
102
RTVSPost2010Prop42
 90
       50
102
RTVSPost2010PropOp42
 70
     1
102
RTVSPost2010Prop43
 90
        3
102
RTVSPost2010PropOp43
 70
     1
102
RTVSPost2010Prop44ColorIndex
 90
        5
102
RTVSPost2010Prop44ColorRGB
 90
      255
102
RTVSPost2010PropOp44
 70
     1
102
RTVSPost2010Prop45
280
     0
102
RTVSPost2010PropOp45
 70
     1
102
RTVSPost2010Prop46
 90
       50
102
RTVSPost2010PropOp46
 70
     1
102
RTVSPost2010Prop47
 90
       50
102
RTVSPost2010PropOp47
 70
     1
102
RTVSPost2010Prop48
 90
       50
102
RTVSPost2010PropOp48
 70
     1
102
RTVSPost2010Prop49
280
     0
102
RTVSPost2010PropOp49
 70
     1
102
RTVSPost2010Prop50
 90
       50
102
RTVSPost2010PropOp50
 70
     1
102
RTVSPost2010Prop51ColorIndex
 90
      256
102
RTVSPost2010Prop51ColorRGB
 90
-16777216
102
RTVSPost2010PropOp51
 70
     0
102
RTVSPost2010Prop52
140
1.0
102
RTVSPost2010PropOp52
 70
     0
102
RTVSPost2010Prop53
 90
        2
102
RTVSPost2010PropOp53
 70
     1
102
RTVSPost2010Prop54
  1
strokes_ogs.tif
102
RTVSPost2010PropOp54
 70
     1
102
RTVSPost2010Prop55
280
     0
102
RTVSPost2010PropOp55
 70
     1
102
RTVSPost2010Prop56
140
1.0
102
RTVSPost2010PropOp56
 70
     1
102
RTVSPost2010Prop57
140
1.0
102
RTVSPost2010PropOp57
 70
     1
102
RTVSPropertyOp0
 70
     1
102
RTVSPropertyOp1
 70
     1
102
RTVSPropertyOp2
 70
     1
102
RTVSPropertyOp3
 70
     1
102
RTVSPropertyOp4
 70
     1
102
RTVSPropertyOp5
 70
     1
102
RTVSPropertyOp6
 70
     1
102
RTVSPropertyOp7
 70
     1
102
RTVSPropertyOp8
 70
     1
102
RTVSPropertyOp9
 70
     1
102
RTVSPropertyOp10
 70
     1
102
RTVSPropertyOp11
 70
     1
102
RTVSPropertyOp12
 70
     1
102
RTVSPropertyOp13
 70
     1
102
RTVSPropertyOp14
 70
     1
102
RTVSPropertyOp15
 70
     1
102
RTVSPropertyOp16
 70
     1
102
RTVSPropertyOp17
 70
     1
102
RTVSPropertyOp18
 70
     1
102
RTVSPropertyOp19
 70
     1
102
RTVSPropertyOp20
 70
     1
102
RTVSPropertyOp21
 70
     1
102
RTVSPropertyOp22
 70
     1
102
RTVSPropertyOp23
 70
     1
102
RTVSPropertyOp24
 70
     1
102
RTVSPropertyOp25
 70
     1
102
RTVSPropertyOp26
 70
     1
102
RTVSPropertyOp27
 70
     1
102
RTVSPropertyOp28
 70
     1
102
RTVSPropertyOp29
 70
     1
102
RTVSPropertyOp30
 70
     1
102
RTVSPropertyOp31
 70
     1
102
RTVSPropertyOp32
 70
     1
102
RTVSPropertyOp33
 70
     1
102
RTVSPropertyOp34
 70
     1
102
RTVSPropertyOp35
 70
     1
102
RTVSPropertyOp36
 70
     1
102
RTVSPropertyOp37
 70
     1
102
RTVSPropertyOp38
 70
     1
102
RTVSPropertyOp39
 70
     1
102
RTVSPropertyOp40
 70
     1
102
RTVSPropertyOp41
 70
     1
102
RTVSPropertyOp42
 70
     1
102
RTVSPropertyOp43
 70
     1
102
RTVSPropertyOp44
 70
     1
102
RTVSPropertyOp45
 70
     1
102
RTVSPropertyOp46
 70
     1
102
RTVSPropertyOp47
 70
     1
102
RTVSPropertyOp48
 70
     1
102
RTVSPropertyOp49
 70
     1
102
RTVSPropertyOp50
 70
     1
102
RTVSPropertyOp51
 70
     0
102
RTVSPropertyOp52
 70
     0
102
RTVSPropertyOp53
 70
     1
102
RTVSPropertyOp54
 70
     1
102
RTVSPropertyOp55
 70
     1
102
RTVSPropertyOp56
 70
     1
102
RTVSPropertyOp57
 70
     1
102
RTVSPropertyOp58
 70
     1
102
RTVSPropertyOp59
 70
     1
102
RTVSPropertyOp60
 70
     1
102
RTVSPropertyOp61
 70
     1
102
RTVSPropertyOp62
 70
     1
  0
XRECORD
  5
325B
102
{ACAD_REACTORS
330
325A
102
}
330
325A
100
AcDbXrecord
280
     1
102
RTVSPost2010Prop28
280
     0
102
RTVSPost2010PropOp28
 70
     1
102
RTVSPost2010Prop29
280
     1
102
RTVSPost2010PropOp29
 70
     1
102
RTVSPost2010Prop30
280
     1
102
RTVSPost2010PropOp30
 70
     1
102
RTVSPost2010Prop31
280
     0
102
RTVSPost2010PropOp31
 70
     1
102
RTVSPost2010Prop32
280
     0
102
RTVSPost2010PropOp32
 70
     1
102
RTVSPost2010Prop33
280
     0
102
RTVSPost2010PropOp33
 70
     1
102
RTVSPost2010Prop34
280
     0
102
RTVSPost2010PropOp34
 70
     1
102
RTVSPost2010Prop35
280
     0
102
RTVSPost2010PropOp35
 70
     1
102
RTVSPost2010Prop36
280
     0
102
RTVSPost2010PropOp36
 70
     1
102
RTVSPost2010Prop37
 90
       50
102
RTVSPost2010PropOp37
 70
     1
102
RTVSPost2010Prop38
140
0.0
102
RTVSPost2010PropOp38
 70
     1
102
RTVSPost2010Prop39
140
1.0
102
RTVSPost2010PropOp39
 70
     1
102
RTVSPost2010Prop40
 90
        0
102
RTVSPost2010PropOp40
 70
     1
102
RTVSPost2010Prop41ColorIndex
 90
       18
102
RTVSPost2010Prop41ColorRGB
 90
        0
102
RTVSPost2010PropOp41
 70
     1
102
RTVSPost2010Prop42
 90
       50
102
RTVSPost2010PropOp42
 70
     1
102
RTVSPost2010Prop43
 90
        3
102
RTVSPost2010PropOp43
 70
     1
102
RTVSPost2010Prop44ColorIndex
 90
        5
102
RTVSPost2010Prop44ColorRGB
 90
      255
102
RTVSPost2010PropOp44
 70
     1
102
RTVSPost2010Prop45
280
     0
102
RTVSPost2010PropOp45
 70
     1
102
RTVSPost2010Prop46
 90
       50
102
RTVSPost2010PropOp46
 70
     1
102
RTVSPost2010Prop47
 90
       50
102
RTVSPost2010PropOp47
 70
     1
102
RTVSPost2010Prop48
 90
       50
102
RTVSPost2010PropOp48
 70
     1
102
RTVSPost2010Prop49
280
     0
102
RTVSPost2010PropOp49
 70
     1
102
RTVSPost2010Prop50
 90
       50
102
RTVSPost2010PropOp50
 70
     1
102
RTVSPost2010Prop51ColorIndex
 90
      256
102
RTVSPost2010Prop51ColorRGB
 90
-16777216
102
RTVSPost2010PropOp51
 70
     0
102
RTVSPost2010Prop52
140
1.0
102
RTVSPost2010PropOp52
 70
     0
102
RTVSPost2010Prop53
 90
        2
102
RTVSPost2010PropOp53
 70
     1
102
RTVSPost2010Prop54
  1
strokes_ogs.tif
102
RTVSPost2010PropOp54
 70
     1
102
RTVSPost2010Prop55
280
     0
102
RTVSPost2010PropOp55
 70
     1
102
RTVSPost2010Prop56
140
1.0
102
RTVSPost2010PropOp56
 70
     1
102
RTVSPost2010Prop57
140
1.0
102
RTVSPost2010PropOp57
 70
     1
102
RTVSPropertyOp0
 70
     1
102
RTVSPropertyOp1
 70
     1
102
RTVSPropertyOp2
 70
     1
102
RTVSPropertyOp3
 70
     1
102
RTVSPropertyOp4
 70
     1
102
RTVSPropertyOp5
 70
     1
102
RTVSPropertyOp6
 70
     1
102
RTVSPropertyOp7
 70
     1
102
RTVSPropertyOp8
 70
     1
102
RTVSPropertyOp9
 70
     1
102
RTVSPropertyOp10
 70
     1
102
RTVSPropertyOp11
 70
     1
102
RTVSPropertyOp12
 70
     1
102
RTVSPropertyOp13
 70
     1
102
RTVSPropertyOp14
 70
     1
102
RTVSPropertyOp15
 70
     1
102
RTVSPropertyOp16
 70
     1
102
RTVSPropertyOp17
 70
     1
102
RTVSPropertyOp18
 70
     1
102
RTVSPropertyOp19
 70
     1
102
RTVSPropertyOp20
 70
     1
102
RTVSPropertyOp21
 70
     1
102
RTVSPropertyOp22
 70
     1
102
RTVSPropertyOp23
 70
     1
102
RTVSPropertyOp24
 70
     1
102
RTVSPropertyOp25
 70
     1
102
RTVSPropertyOp26
 70
     1
102
RTVSPropertyOp27
 70
     1
102
RTVSPropertyOp28
 70
     1
102
RTVSPropertyOp29
 70
     1
102
RTVSPropertyOp30
 70
     1
102
RTVSPropertyOp31
 70
     1
102
RTVSPropertyOp32
 70
     1
102
RTVSPropertyOp33
 70
     1
102
RTVSPropertyOp34
 70
     1
102
RTVSPropertyOp35
 70
     1
102
RTVSPropertyOp36
 70
     1
102
RTVSPropertyOp37
 70
     1
102
RTVSPropertyOp38
 70
     1
102
RTVSPropertyOp39
 70
     1
102
RTVSPropertyOp40
 70
     1
102
RTVSPropertyOp41
 70
     1
102
RTVSPropertyOp42
 70
     1
102
RTVSPropertyOp43
 70
     1
102
RTVSPropertyOp44
 70
     1
102
RTVSPropertyOp45
 70
     1
102
RTVSPropertyOp46
 70
     1
102
RTVSPropertyOp47
 70
     1
102
RTVSPropertyOp48
 70
     1
102
RTVSPropertyOp49
 70
     1
102
RTVSPropertyOp50
 70
     1
102
RTVSPropertyOp51
 70
     0
102
RTVSPropertyOp52
 70
     0
102
RTVSPropertyOp53
 70
     1
102
RTVSPropertyOp54
 70
     1
102
RTVSPropertyOp55
 70
     1
102
RTVSPropertyOp56
 70
     1
102
RTVSPropertyOp57
 70
     1
102
RTVSPropertyOp58
 70
     1
102
RTVSPropertyOp59
 70
     1
102
RTVSPropertyOp60
 70
     1
102
RTVSPropertyOp61
 70
     1
102
RTVSPropertyOp62
 70
     1
  0
XRECORD
  5
325D
102
{ACAD_REACTORS
330
325C
102
}
330
325C
100
AcDbXrecord
280
     1
102
RTVSPost2010Prop28
280
     0
102
RTVSPost2010PropOp28
 70
     1
102
RTVSPost2010Prop29
280
     1
102
RTVSPost2010PropOp29
 70
     1
102
RTVSPost2010Prop30
280
     1
102
RTVSPost2010PropOp30
 70
     1
102
RTVSPost2010Prop31
280
     0
102
RTVSPost2010PropOp31
 70
     1
102
RTVSPost2010Prop32
280
     0
102
RTVSPost2010PropOp32
 70
     1
102
RTVSPost2010Prop33
280
     0
102
RTVSPost2010PropOp33
 70
     1
102
RTVSPost2010Prop34
280
     0
102
RTVSPost2010PropOp34
 70
     1
102
RTVSPost2010Prop35
280
     0
102
RTVSPost2010PropOp35
 70
     1
102
RTVSPost2010Prop36
280
     0
102
RTVSPost2010PropOp36
 70
     1
102
RTVSPost2010Prop37
 90
       50
102
RTVSPost2010PropOp37
 70
     1
102
RTVSPost2010Prop38
140
0.0
102
RTVSPost2010PropOp38
 70
     1
102
RTVSPost2010Prop39
140
1.0
102
RTVSPost2010PropOp39
 70
     1
102
RTVSPost2010Prop40
 90
        0
102
RTVSPost2010PropOp40
 70
     1
102
RTVSPost2010Prop41ColorIndex
 90
       18
102
RTVSPost2010Prop41ColorRGB
 90
        0
102
RTVSPost2010PropOp41
 70
     1
102
RTVSPost2010Prop42
 90
       50
102
RTVSPost2010PropOp42
 70
     1
102
RTVSPost2010Prop43
 90
        3
102
RTVSPost2010PropOp43
 70
     1
102
RTVSPost2010Prop44ColorIndex
 90
        5
102
RTVSPost2010Prop44ColorRGB
 90
      255
102
RTVSPost2010PropOp44
 70
     1
102
RTVSPost2010Prop45
280
     0
102
RTVSPost2010PropOp45
 70
     1
102
RTVSPost2010Prop46
 90
       50
102
RTVSPost2010PropOp46
 70
     1
102
RTVSPost2010Prop47
 90
       50
102
RTVSPost2010PropOp47
 70
     1
102
RTVSPost2010Prop48
 90
       50
102
RTVSPost2010PropOp48
 70
     1
102
RTVSPost2010Prop49
280
     0
102
RTVSPost2010PropOp49
 70
     1
102
RTVSPost2010Prop50
 90
       50
102
RTVSPost2010PropOp50
 70
     1
102
RTVSPost2010Prop51ColorIndex
 90
      256
102
RTVSPost2010Prop51ColorRGB
 90
-16777216
102
RTVSPost2010PropOp51
 70
     0
102
RTVSPost2010Prop52
140
1.0
102
RTVSPost2010PropOp52
 70
     0
102
RTVSPost2010Prop53
 90
        2
102
RTVSPost2010PropOp53
 70
     1
102
RTVSPost2010Prop54
  1
strokes_ogs.tif
102
RTVSPost2010PropOp54
 70
     1
102
RTVSPost2010Prop55
280
     0
102
RTVSPost2010PropOp55
 70
     1
102
RTVSPost2010Prop56
140
1.0
102
RTVSPost2010PropOp56
 70
     1
102
RTVSPost2010Prop57
140
1.0
102
RTVSPost2010PropOp57
 70
     1
102
RTVSPropertyOp0
 70
     1
102
RTVSPropertyOp1
 70
     1
102
RTVSPropertyOp2
 70
     1
102
RTVSPropertyOp3
 70
     1
102
RTVSPropertyOp4
 70
     1
102
RTVSPropertyOp5
 70
     1
102
RTVSPropertyOp6
 70
     1
102
RTVSPropertyOp7
 70
     1
102
RTVSPropertyOp8
 70
     1
102
RTVSPropertyOp9
 70
     1
102
RTVSPropertyOp10
 70
     1
102
RTVSPropertyOp11
 70
     1
102
RTVSPropertyOp12
 70
     1
102
RTVSPropertyOp13
 70
     1
102
RTVSPropertyOp14
 70
     1
102
RTVSPropertyOp15
 70
     1
102
RTVSPropertyOp16
 70
     1
102
RTVSPropertyOp17
 70
     1
102
RTVSPropertyOp18
 70
     1
102
RTVSPropertyOp19
 70
     1
102
RTVSPropertyOp20
 70
     1
102
RTVSPropertyOp21
 70
     1
102
RTVSPropertyOp22
 70
     1
102
RTVSPropertyOp23
 70
     1
102
RTVSPropertyOp24
 70
     1
102
RTVSPropertyOp25
 70
     1
102
RTVSPropertyOp26
 70
     1
102
RTVSPropertyOp27
 70
     1
102
RTVSPropertyOp28
 70
     1
102
RTVSPropertyOp29
 70
     1
102
RTVSPropertyOp30
 70
     1
102
RTVSPropertyOp31
 70
     1
102
RTVSPropertyOp32
 70
     1
102
RTVSPropertyOp33
 70
     1
102
RTVSPropertyOp34
 70
     1
102
RTVSPropertyOp35
 70
     1
102
RTVSPropertyOp36
 70
     1
102
RTVSPropertyOp37
 70
     1
102
RTVSPropertyOp38
 70
     1
102
RTVSPropertyOp39
 70
     1
102
RTVSPropertyOp40
 70
     1
102
RTVSPropertyOp41
 70
     1
102
RTVSPropertyOp42
 70
     1
102
RTVSPropertyOp43
 70
     1
102
RTVSPropertyOp44
 70
     1
102
RTVSPropertyOp45
 70
     1
102
RTVSPropertyOp46
 70
     1
102
RTVSPropertyOp47
 70
     1
102
RTVSPropertyOp48
 70
     1
102
RTVSPropertyOp49
 70
     1
102
RTVSPropertyOp50
 70
     1
102
RTVSPropertyOp51
 70
     0
102
RTVSPropertyOp52
 70
     0
102
RTVSPropertyOp53
 70
     1
102
RTVSPropertyOp54
 70
     1
102
RTVSPropertyOp55
 70
     1
102
RTVSPropertyOp56
 70
     1
102
RTVSPropertyOp57
 70
     1
102
RTVSPropertyOp58
 70
     1
102
RTVSPropertyOp59
 70
     1
102
RTVSPropertyOp60
 70
     1
102
RTVSPropertyOp61
 70
     1
102
RTVSPropertyOp62
 70
     1
  0
XRECORD
  5
3265
102
{ACAD_REACTORS
330
3264
102
}
330
3264
100
AcDbXrecord
280
     1
102
RTVSPost2010Prop28
280
     0
102
RTVSPost2010PropOp28
 70
     1
102
RTVSPost2010Prop29
280
     1
102
RTVSPost2010PropOp29
 70
     1
102
RTVSPost2010Prop30
280
     1
102
RTVSPost2010PropOp30
 70
     1
102
RTVSPost2010Prop31
280
     0
102
RTVSPost2010PropOp31
 70
     1
102
RTVSPost2010Prop32
280
     0
102
RTVSPost2010PropOp32
 70
     1
102
RTVSPost2010Prop33
280
     0
102
RTVSPost2010PropOp33
 70
     1
102
RTVSPost2010Prop34
280
     0
102
RTVSPost2010PropOp34
 70
     1
102
RTVSPost2010Prop35
280
     0
102
RTVSPost2010PropOp35
 70
     1
102
RTVSPost2010Prop36
280
     0
102
RTVSPost2010PropOp36
 70
     1
102
RTVSPost2010Prop37
 90
       50
102
RTVSPost2010PropOp37
 70
     1
102
RTVSPost2010Prop38
140
0.0
102
RTVSPost2010PropOp38
 70
     1
102
RTVSPost2010Prop39
140
1.0
102
RTVSPost2010PropOp39
 70
     1
102
RTVSPost2010Prop40
 90
        0
102
RTVSPost2010PropOp40
 70
     1
102
RTVSPost2010Prop41ColorIndex
 90
       18
102
RTVSPost2010Prop41ColorRGB
 90
        0
102
RTVSPost2010PropOp41
 70
     1
102
RTVSPost2010Prop42
 90
       50
102
RTVSPost2010PropOp42
 70
     1
102
RTVSPost2010Prop43
 90
        3
102
RTVSPost2010PropOp43
 70
     1
102
RTVSPost2010Prop44ColorIndex
 90
        5
102
RTVSPost2010Prop44ColorRGB
 90
      255
102
RTVSPost2010PropOp44
 70
     1
102
RTVSPost2010Prop45
280
     0
102
RTVSPost2010PropOp45
 70
     1
102
RTVSPost2010Prop46
 90
       50
102
RTVSPost2010PropOp46
 70
     1
102
RTVSPost2010Prop47
 90
       50
102
RTVSPost2010PropOp47
 70
     1
102
RTVSPost2010Prop48
 90
       50
102
RTVSPost2010PropOp48
 70
     1
102
RTVSPost2010Prop49
280
     0
102
RTVSPost2010PropOp49
 70
     1
102
RTVSPost2010Prop50
 90
       50
102
RTVSPost2010PropOp50
 70
     1
102
RTVSPost2010Prop51ColorIndex
 90
      256
102
RTVSPost2010Prop51ColorRGB
 90
-16777216
102
RTVSPost2010PropOp51
 70
     0
102
RTVSPost2010Prop52
140
1.0
102
RTVSPost2010PropOp52
 70
     0
102
RTVSPost2010Prop53
 90
        2
102
RTVSPost2010PropOp53
 70
     1
102
RTVSPost2010Prop54
  1
strokes_ogs.tif
102
RTVSPost2010PropOp54
 70
     1
102
RTVSPost2010Prop55
280
     0
102
RTVSPost2010PropOp55
 70
     1
102
RTVSPost2010Prop56
140
1.0
102
RTVSPost2010PropOp56
 70
     1
102
RTVSPost2010Prop57
140
1.0
102
RTVSPost2010PropOp57
 70
     1
102
RTVSPropertyOp0
 70
     1
102
RTVSPropertyOp1
 70
     1
102
RTVSPropertyOp2
 70
     1
102
RTVSPropertyOp3
 70
     1
102
RTVSPropertyOp4
 70
     1
102
RTVSPropertyOp5
 70
     1
102
RTVSPropertyOp6
 70
     1
102
RTVSPropertyOp7
 70
     1
102
RTVSPropertyOp8
 70
     1
102
RTVSPropertyOp9
 70
     1
102
RTVSPropertyOp10
 70
     1
102
RTVSPropertyOp11
 70
     1
102
RTVSPropertyOp12
 70
     1
102
RTVSPropertyOp13
 70
     1
102
RTVSPropertyOp14
 70
     1
102
RTVSPropertyOp15
 70
     1
102
RTVSPropertyOp16
 70
     1
102
RTVSPropertyOp17
 70
     1
102
RTVSPropertyOp18
 70
     1
102
RTVSPropertyOp19
 70
     1
102
RTVSPropertyOp20
 70
     1
102
RTVSPropertyOp21
 70
     1
102
RTVSPropertyOp22
 70
     1
102
RTVSPropertyOp23
 70
     1
102
RTVSPropertyOp24
 70
     1
102
RTVSPropertyOp25
 70
     1
102
RTVSPropertyOp26
 70
     1
102
RTVSPropertyOp27
 70
     1
102
RTVSPropertyOp28
 70
     1
102
RTVSPropertyOp29
 70
     1
102
RTVSPropertyOp30
 70
     1
102
RTVSPropertyOp31
 70
     1
102
RTVSPropertyOp32
 70
     1
102
RTVSPropertyOp33
 70
     1
102
RTVSPropertyOp34
 70
     1
102
RTVSPropertyOp35
 70
     1
102
RTVSPropertyOp36
 70
     1
102
RTVSPropertyOp37
 70
     1
102
RTVSPropertyOp38
 70
     1
102
RTVSPropertyOp39
 70
     1
102
RTVSPropertyOp40
 70
     1
102
RTVSPropertyOp41
 70
     1
102
RTVSPropertyOp42
 70
     1
102
RTVSPropertyOp43
 70
     1
102
RTVSPropertyOp44
 70
     1
102
RTVSPropertyOp45
 70
     1
102
RTVSPropertyOp46
 70
     1
102
RTVSPropertyOp47
 70
     1
102
RTVSPropertyOp48
 70
     1
102
RTVSPropertyOp49
 70
     1
102
RTVSPropertyOp50
 70
     1
102
RTVSPropertyOp51
 70
     0
102
RTVSPropertyOp52
 70
     0
102
RTVSPropertyOp53
 70
     1
102
RTVSPropertyOp54
 70
     1
102
RTVSPropertyOp55
 70
     1
102
RTVSPropertyOp56
 70
     1
102
RTVSPropertyOp57
 70
     1
102
RTVSPropertyOp58
 70
     1
102
RTVSPropertyOp59
 70
     1
102
RTVSPropertyOp60
 70
     1
102
RTVSPropertyOp61
 70
     1
102
RTVSPropertyOp62
 70
     1
  0
XRECORD
  5
3281
102
{ACAD_REACTORS
330
3280
102
}
330
3280
100
AcDbXrecord
280
     1
102
RTVSPost2010Prop28
280
     0
102
RTVSPost2010PropOp28
 70
     1
102
RTVSPost2010Prop29
280
     1
102
RTVSPost2010PropOp29
 70
     1
102
RTVSPost2010Prop30
280
     1
102
RTVSPost2010PropOp30
 70
     1
102
RTVSPost2010Prop31
280
     0
102
RTVSPost2010PropOp31
 70
     1
102
RTVSPost2010Prop32
280
     0
102
RTVSPost2010PropOp32
 70
     1
102
RTVSPost2010Prop33
280
     0
102
RTVSPost2010PropOp33
 70
     1
102
RTVSPost2010Prop34
280
     0
102
RTVSPost2010PropOp34
 70
     1
102
RTVSPost2010Prop35
280
     0
102
RTVSPost2010PropOp35
 70
     1
102
RTVSPost2010Prop36
280
     0
102
RTVSPost2010PropOp36
 70
     1
102
RTVSPost2010Prop37
 90
       50
102
RTVSPost2010PropOp37
 70
     0
102
RTVSPost2010Prop38
140
0.0
102
RTVSPost2010PropOp38
 70
     0
102
RTVSPost2010Prop39
140
1.0
102
RTVSPost2010PropOp39
 70
     0
102
RTVSPost2010Prop40
 90
        0
102
RTVSPost2010PropOp40
 70
     0
102
RTVSPost2010Prop41ColorIndex
 90
       18
102
RTVSPost2010Prop41ColorRGB
 90
        0
102
RTVSPost2010PropOp41
 70
     0
102
RTVSPost2010Prop42
 90
       50
102
RTVSPost2010PropOp42
 70
     0
102
RTVSPost2010Prop43
 90
        3
102
RTVSPost2010PropOp43
 70
     0
102
RTVSPost2010Prop44ColorIndex
 90
        5
102
RTVSPost2010Prop44ColorRGB
 90
      255
102
RTVSPost2010PropOp44
 70
     0
102
RTVSPost2010Prop45
280
     0
102
RTVSPost2010PropOp45
 70
     1
102
RTVSPost2010Prop46
 90
       50
102
RTVSPost2010PropOp46
 70
     0
102
RTVSPost2010Prop47
 90
       50
102
RTVSPost2010PropOp47
 70
     0
102
RTVSPost2010Prop48
 90
       50
102
RTVSPost2010PropOp48
 70
     0
102
RTVSPost2010Prop49
280
     0
102
RTVSPost2010PropOp49
 70
     1
102
RTVSPost2010Prop50
 90
       50
102
RTVSPost2010PropOp50
 70
     0
102
RTVSPost2010Prop51ColorIndex
 90
      256
102
RTVSPost2010Prop51ColorRGB
 90
-16777216
102
RTVSPost2010PropOp51
 70
     0
102
RTVSPost2010Prop52
140
1.0
102
RTVSPost2010PropOp52
 70
     0
102
RTVSPost2010Prop53
 90
        2
102
RTVSPost2010PropOp53
 70
     0
102
RTVSPost2010Prop54
  1
strokes_ogs.tif
102
RTVSPost2010PropOp54
 70
     0
102
RTVSPost2010Prop55
280
     0
102
RTVSPost2010PropOp55
 70
     1
102
RTVSPost2010Prop56
140
1.0
102
RTVSPost2010PropOp56
 70
     0
102
RTVSPost2010Prop57
140
1.0
102
RTVSPost2010PropOp57
 70
     0
102
RTVSPropertyOp0
 70
     0
102
RTVSPropertyOp1
 70
     0
102
RTVSPropertyOp2
 70
     0
102
RTVSPropertyOp3
 70
     0
102
RTVSPropertyOp4
 70
     0
102
RTVSPropertyOp5
 70
     0
102
RTVSPropertyOp6
 70
     0
102
RTVSPropertyOp7
 70
     0
102
RTVSPropertyOp8
 70
     0
102
RTVSPropertyOp9
 70
     0
102
RTVSPropertyOp10
 70
     0
102
RTVSPropertyOp11
 70
     0
102
RTVSPropertyOp12
 70
     0
102
RTVSPropertyOp13
 70
     0
102
RTVSPropertyOp14
 70
     2
102
RTVSPropertyOp15
 70
     0
102
RTVSPropertyOp16
 70
     0
102
RTVSPropertyOp17
 70
     0
102
RTVSPropertyOp18
 70
     0
102
RTVSPropertyOp19
 70
     0
102
RTVSPropertyOp20
 70
     0
102
RTVSPropertyOp21
 70
     0
102
RTVSPropertyOp22
 70
     0
102
RTVSPropertyOp23
 70
     0
102
RTVSPropertyOp24
 70
     0
102
RTVSPropertyOp25
 70
     0
102
RTVSPropertyOp26
 70
     0
102
RTVSPropertyOp27
 70
     0
102
RTVSPropertyOp28
 70
     1
102
RTVSPropertyOp29
 70
     1
102
RTVSPropertyOp30
 70
     1
102
RTVSPropertyOp31
 70
     1
102
RTVSPropertyOp32
 70
     1
102
RTVSPropertyOp33
 70
     1
102
RTVSPropertyOp34
 70
     1
102
RTVSPropertyOp35
 70
     1
102
RTVSPropertyOp36
 70
     1
102
RTVSPropertyOp37
 70
     0
102
RTVSPropertyOp38
 70
     0
102
RTVSPropertyOp39
 70
     0
102
RTVSPropertyOp40
 70
     0
102
RTVSPropertyOp41
 70
     0
102
RTVSPropertyOp42
 70
     0
102
RTVSPropertyOp43
 70
     0
102
RTVSPropertyOp44
 70
     0
102
RTVSPropertyOp45
 70
     1
102
RTVSPropertyOp46
 70
     0
102
RTVSPropertyOp47
 70
     0
102
RTVSPropertyOp48
 70
     0
102
RTVSPropertyOp49
 70
     1
102
RTVSPropertyOp50
 70
     0
102
RTVSPropertyOp51
 70
     0
102
RTVSPropertyOp52
 70
     0
102
RTVSPropertyOp53
 70
     0
102
RTVSPropertyOp54
 70
     0
102
RTVSPropertyOp55
 70
     1
102
RTVSPropertyOp56
 70
     0
102
RTVSPropertyOp57
 70
     0
102
RTVSPropertyOp58
 70
     0
102
RTVSPropertyOp59
 70
     0
102
RTVSPropertyOp60
 70
     0
102
RTVSPropertyOp61
 70
     0
102
RTVSPropertyOp62
 70
     0
  0
XRECORD
  5
3271
102
{ACAD_REACTORS
330
3270
102
}
330
3270
100
AcDbXrecord
280
     1
102
RTVSPost2010Prop28
280
     0
102
RTVSPost2010PropOp28
 70
     1
102
RTVSPost2010Prop29
280
     1
102
RTVSPost2010PropOp29
 70
     1
102
RTVSPost2010Prop30
280
     1
102
RTVSPost2010PropOp30
 70
     1
102
RTVSPost2010Prop31
280
     0
102
RTVSPost2010PropOp31
 70
     1
102
RTVSPost2010Prop32
280
     0
102
RTVSPost2010PropOp32
 70
     1
102
RTVSPost2010Prop33
280
     0
102
RTVSPost2010PropOp33
 70
     1
102
RTVSPost2010Prop34
280
     0
102
RTVSPost2010PropOp34
 70
     1
102
RTVSPost2010Prop35
280
     0
102
RTVSPost2010PropOp35
 70
     1
102
RTVSPost2010Prop36
280
     0
102
RTVSPost2010PropOp36
 70
     1
102
RTVSPost2010Prop37
 90
       50
102
RTVSPost2010PropOp37
 70
     1
102
RTVSPost2010Prop38
140
0.0
102
RTVSPost2010PropOp38
 70
     1
102
RTVSPost2010Prop39
140
1.0
102
RTVSPost2010PropOp39
 70
     1
102
RTVSPost2010Prop40
 90
        0
102
RTVSPost2010PropOp40
 70
     1
102
RTVSPost2010Prop41ColorIndex
 90
       18
102
RTVSPost2010Prop41ColorRGB
 90
        0
102
RTVSPost2010PropOp41
 70
     1
102
RTVSPost2010Prop42
 90
       50
102
RTVSPost2010PropOp42
 70
     1
102
RTVSPost2010Prop43
 90
        3
102
RTVSPost2010PropOp43
 70
     1
102
RTVSPost2010Prop44ColorIndex
 90
        5
102
RTVSPost2010Prop44ColorRGB
 90
      255
102
RTVSPost2010PropOp44
 70
     1
102
RTVSPost2010Prop45
280
     0
102
RTVSPost2010PropOp45
 70
     1
102
RTVSPost2010Prop46
 90
       50
102
RTVSPost2010PropOp46
 70
     1
102
RTVSPost2010Prop47
 90
       50
102
RTVSPost2010PropOp47
 70
     1
102
RTVSPost2010Prop48
 90
       50
102
RTVSPost2010PropOp48
 70
     1
102
RTVSPost2010Prop49
280
     0
102
RTVSPost2010PropOp49
 70
     1
102
RTVSPost2010Prop50
 90
       50
102
RTVSPost2010PropOp50
 70
     1
102
RTVSPost2010Prop51ColorIndex
 90
      256
102
RTVSPost2010Prop51ColorRGB
 90
-16777216
102
RTVSPost2010PropOp51
 70
     0
102
RTVSPost2010Prop52
140
1.0
102
RTVSPost2010PropOp52
 70
     0
102
RTVSPost2010Prop53
 90
        2
102
RTVSPost2010PropOp53
 70
     1
102
RTVSPost2010Prop54
  1
strokes_ogs.tif
102
RTVSPost2010PropOp54
 70
     1
102
RTVSPost2010Prop55
280
     0
102
RTVSPost2010PropOp55
 70
     1
102
RTVSPost2010Prop56
140
1.0
102
RTVSPost2010PropOp56
 70
     1
102
RTVSPost2010Prop57
140
1.0
102
RTVSPost2010PropOp57
 70
     1
102
RTVSPropertyOp0
 70
     1
102
RTVSPropertyOp1
 70
     1
102
RTVSPropertyOp2
 70
     1
102
RTVSPropertyOp3
 70
     1
102
RTVSPropertyOp4
 70
     1
102
RTVSPropertyOp5
 70
     1
102
RTVSPropertyOp6
 70
     1
102
RTVSPropertyOp7
 70
     1
102
RTVSPropertyOp8
 70
     1
102
RTVSPropertyOp9
 70
     1
102
RTVSPropertyOp10
 70
     1
102
RTVSPropertyOp11
 70
     1
102
RTVSPropertyOp12
 70
     1
102
RTVSPropertyOp13
 70
     1
102
RTVSPropertyOp14
 70
     1
102
RTVSPropertyOp15
 70
     1
102
RTVSPropertyOp16
 70
     1
102
RTVSPropertyOp17
 70
     1
102
RTVSPropertyOp18
 70
     1
102
RTVSPropertyOp19
 70
     1
102
RTVSPropertyOp20
 70
     1
102
RTVSPropertyOp21
 70
     1
102
RTVSPropertyOp22
 70
     1
102
RTVSPropertyOp23
 70
     1
102
RTVSPropertyOp24
 70
     1
102
RTVSPropertyOp25
 70
     1
102
RTVSPropertyOp26
 70
     1
102
RTVSPropertyOp27
 70
     1
102
RTVSPropertyOp28
 70
     1
102
RTVSPropertyOp29
 70
     1
102
RTVSPropertyOp30
 70
     1
102
RTVSPropertyOp31
 70
     1
102
RTVSPropertyOp32
 70
     1
102
RTVSPropertyOp33
 70
     1
102
RTVSPropertyOp34
 70
     1
102
RTVSPropertyOp35
 70
     1
102
RTVSPropertyOp36
 70
     1
102
RTVSPropertyOp37
 70
     1
102
RTVSPropertyOp38
 70
     1
102
RTVSPropertyOp39
 70
     1
102
RTVSPropertyOp40
 70
     1
102
RTVSPropertyOp41
 70
     1
102
RTVSPropertyOp42
 70
     1
102
RTVSPropertyOp43
 70
     1
102
RTVSPropertyOp44
 70
     1
102
RTVSPropertyOp45
 70
     1
102
RTVSPropertyOp46
 70
     1
102
RTVSPropertyOp47
 70
     1
102
RTVSPropertyOp48
 70
     1
102
RTVSPropertyOp49
 70
     1
102
RTVSPropertyOp50
 70
     1
102
RTVSPropertyOp51
 70
     0
102
RTVSPropertyOp52
 70
     0
102
RTVSPropertyOp53
 70
     1
102
RTVSPropertyOp54
 70
     1
102
RTVSPropertyOp55
 70
     1
102
RTVSPropertyOp56
 70
     1
102
RTVSPropertyOp57
 70
     1
102
RTVSPropertyOp58
 70
     1
102
RTVSPropertyOp59
 70
     1
102
RTVSPropertyOp60
 70
     1
102
RTVSPropertyOp61
 70
     1
102
RTVSPropertyOp62
 70
     1
  0
XRECORD
  5
3283
102
{ACAD_REACTORS
330
3282
102
}
330
3282
100
AcDbXrecord
280
     1
102
RTVSPost2010Prop28
280
     0
102
RTVSPost2010PropOp28
 70
     1
102
RTVSPost2010Prop29
280
     1
102
RTVSPost2010PropOp29
 70
     1
102
RTVSPost2010Prop30
280
     1
102
RTVSPost2010PropOp30
 70
     1
102
RTVSPost2010Prop31
280
     0
102
RTVSPost2010PropOp31
 70
     1
102
RTVSPost2010Prop32
280
     0
102
RTVSPost2010PropOp32
 70
     1
102
RTVSPost2010Prop33
280
     0
102
RTVSPost2010PropOp33
 70
     1
102
RTVSPost2010Prop34
280
     0
102
RTVSPost2010PropOp34
 70
     1
102
RTVSPost2010Prop35
280
     0
102
RTVSPost2010PropOp35
 70
     1
102
RTVSPost2010Prop36
280
     0
102
RTVSPost2010PropOp36
 70
     1
102
RTVSPost2010Prop37
 90
       50
102
RTVSPost2010PropOp37
 70
     0
102
RTVSPost2010Prop38
140
0.0
102
RTVSPost2010PropOp38
 70
     0
102
RTVSPost2010Prop39
140
1.0
102
RTVSPost2010PropOp39
 70
     0
102
RTVSPost2010Prop40
 90
        0
102
RTVSPost2010PropOp40
 70
     0
102
RTVSPost2010Prop41ColorIndex
 90
       18
102
RTVSPost2010Prop41ColorRGB
 90
        0
102
RTVSPost2010PropOp41
 70
     0
102
RTVSPost2010Prop42
 90
       50
102
RTVSPost2010PropOp42
 70
     0
102
RTVSPost2010Prop43
 90
        3
102
RTVSPost2010PropOp43
 70
     0
102
RTVSPost2010Prop44ColorIndex
 90
        5
102
RTVSPost2010Prop44ColorRGB
 90
      255
102
RTVSPost2010PropOp44
 70
     0
102
RTVSPost2010Prop45
280
     0
102
RTVSPost2010PropOp45
 70
     1
102
RTVSPost2010Prop46
 90
       50
102
RTVSPost2010PropOp46
 70
     0
102
RTVSPost2010Prop47
 90
       50
102
RTVSPost2010PropOp47
 70
     0
102
RTVSPost2010Prop48
 90
       50
102
RTVSPost2010PropOp48
 70
     0
102
RTVSPost2010Prop49
280
     0
102
RTVSPost2010PropOp49
 70
     1
102
RTVSPost2010Prop50
 90
       50
102
RTVSPost2010PropOp50
 70
     0
102
RTVSPost2010Prop51ColorIndex
 90
      256
102
RTVSPost2010Prop51ColorRGB
 90
-16777216
102
RTVSPost2010PropOp51
 70
     0
102
RTVSPost2010Prop52
140
1.0
102
RTVSPost2010PropOp52
 70
     0
102
RTVSPost2010Prop53
 90
        2
102
RTVSPost2010PropOp53
 70
     0
102
RTVSPost2010Prop54
  1
strokes_ogs.tif
102
RTVSPost2010PropOp54
 70
     0
102
RTVSPost2010Prop55
280
     0
102
RTVSPost2010PropOp55
 70
     1
102
RTVSPost2010Prop56
140
1.0
102
RTVSPost2010PropOp56
 70
     0
102
RTVSPost2010Prop57
140
1.0
102
RTVSPost2010PropOp57
 70
     0
102
RTVSPropertyOp0
 70
     0
102
RTVSPropertyOp1
 70
     0
102
RTVSPropertyOp2
 70
     0
102
RTVSPropertyOp3
 70
     0
102
RTVSPropertyOp4
 70
     0
102
RTVSPropertyOp5
 70
     0
102
RTVSPropertyOp6
 70
     0
102
RTVSPropertyOp7
 70
     0
102
RTVSPropertyOp8
 70
     0
102
RTVSPropertyOp9
 70
     0
102
RTVSPropertyOp10
 70
     0
102
RTVSPropertyOp11
 70
     0
102
RTVSPropertyOp12
 70
     0
102
RTVSPropertyOp13
 70
     0
102
RTVSPropertyOp14
 70
     2
102
RTVSPropertyOp15
 70
     0
102
RTVSPropertyOp16
 70
     0
102
RTVSPropertyOp17
 70
     0
102
RTVSPropertyOp18
 70
     0
102
RTVSPropertyOp19
 70
     0
102
RTVSPropertyOp20
 70
     0
102
RTVSPropertyOp21
 70
     0
102
RTVSPropertyOp22
 70
     0
102
RTVSPropertyOp23
 70
     0
102
RTVSPropertyOp24
 70
     0
102
RTVSPropertyOp25
 70
     0
102
RTVSPropertyOp26
 70
     0
102
RTVSPropertyOp27
 70
     0
102
RTVSPropertyOp28
 70
     1
102
RTVSPropertyOp29
 70
     1
102
RTVSPropertyOp30
 70
     1
102
RTVSPropertyOp31
 70
     1
102
RTVSPropertyOp32
 70
     1
102
RTVSPropertyOp33
 70
     1
102
RTVSPropertyOp34
 70
     1
102
RTVSPropertyOp35
 70
     1
102
RTVSPropertyOp36
 70
     1
102
RTVSPropertyOp37
 70
     0
102
RTVSPropertyOp38
 70
     0
102
RTVSPropertyOp39
 70
     0
102
RTVSPropertyOp40
 70
     0
102
RTVSPropertyOp41
 70
     0
102
RTVSPropertyOp42
 70
     0
102
RTVSPropertyOp43
 70
     0
102
RTVSPropertyOp44
 70
     0
102
RTVSPropertyOp45
 70
     1
102
RTVSPropertyOp46
 70
     0
102
RTVSPropertyOp47
 70
     0
102
RTVSPropertyOp48
 70
     0
102
RTVSPropertyOp49
 70
     1
102
RTVSPropertyOp50
 70
     0
102
RTVSPropertyOp51
 70
     0
102
RTVSPropertyOp52
 70
     0
102
RTVSPropertyOp53
 70
     0
102
RTVSPropertyOp54
 70
     0
102
RTVSPropertyOp55
 70
     1
102
RTVSPropertyOp56
 70
     0
102
RTVSPropertyOp57
 70
     0
102
RTVSPropertyOp58
 70
     0
102
RTVSPropertyOp59
 70
     0
102
RTVSPropertyOp60
 70
     0
102
RTVSPropertyOp61
 70
     0
102
RTVSPropertyOp62
 70
     0
  0
XRECORD
  5
3269
102
{ACAD_REACTORS
330
3268
102
}
330
3268
100
AcDbXrecord
280
     1
102
RTVSPost2010Prop28
280
     0
102
RTVSPost2010PropOp28
 70
     1
102
RTVSPost2010Prop29
280
     1
102
RTVSPost2010PropOp29
 70
     1
102
RTVSPost2010Prop30
280
     1
102
RTVSPost2010PropOp30
 70
     1
102
RTVSPost2010Prop31
280
     0
102
RTVSPost2010PropOp31
 70
     1
102
RTVSPost2010Prop32
280
     0
102
RTVSPost2010PropOp32
 70
     1
102
RTVSPost2010Prop33
280
     0
102
RTVSPost2010PropOp33
 70
     1
102
RTVSPost2010Prop34
280
     0
102
RTVSPost2010PropOp34
 70
     1
102
RTVSPost2010Prop35
280
     0
102
RTVSPost2010PropOp35
 70
     1
102
RTVSPost2010Prop36
280
     0
102
RTVSPost2010PropOp36
 70
     1
102
RTVSPost2010Prop37
 90
       50
102
RTVSPost2010PropOp37
 70
     1
102
RTVSPost2010Prop38
140
0.0
102
RTVSPost2010PropOp38
 70
     1
102
RTVSPost2010Prop39
140
1.0
102
RTVSPost2010PropOp39
 70
     1
102
RTVSPost2010Prop40
 90
        0
102
RTVSPost2010PropOp40
 70
     1
102
RTVSPost2010Prop41ColorIndex
 90
       18
102
RTVSPost2010Prop41ColorRGB
 90
        0
102
RTVSPost2010PropOp41
 70
     1
102
RTVSPost2010Prop42
 90
       50
102
RTVSPost2010PropOp42
 70
     1
102
RTVSPost2010Prop43
 90
        3
102
RTVSPost2010PropOp43
 70
     1
102
RTVSPost2010Prop44ColorIndex
 90
        5
102
RTVSPost2010Prop44ColorRGB
 90
      255
102
RTVSPost2010PropOp44
 70
     1
102
RTVSPost2010Prop45
280
     0
102
RTVSPost2010PropOp45
 70
     1
102
RTVSPost2010Prop46
 90
       50
102
RTVSPost2010PropOp46
 70
     1
102
RTVSPost2010Prop47
 90
       50
102
RTVSPost2010PropOp47
 70
     1
102
RTVSPost2010Prop48
 90
       50
102
RTVSPost2010PropOp48
 70
     1
102
RTVSPost2010Prop49
280
     0
102
RTVSPost2010PropOp49
 70
     1
102
RTVSPost2010Prop50
 90
       50
102
RTVSPost2010PropOp50
 70
     1
102
RTVSPost2010Prop51ColorIndex
 90
      256
102
RTVSPost2010Prop51ColorRGB
 90
-16777216
102
RTVSPost2010PropOp51
 70
     0
102
RTVSPost2010Prop52
140
1.0
102
RTVSPost2010PropOp52
 70
     0
102
RTVSPost2010Prop53
 90
        2
102
RTVSPost2010PropOp53
 70
     1
102
RTVSPost2010Prop54
  1
strokes_ogs.tif
102
RTVSPost2010PropOp54
 70
     1
102
RTVSPost2010Prop55
280
     0
102
RTVSPost2010PropOp55
 70
     1
102
RTVSPost2010Prop56
140
1.0
102
RTVSPost2010PropOp56
 70
     1
102
RTVSPost2010Prop57
140
1.0
102
RTVSPost2010PropOp57
 70
     1
102
RTVSPropertyOp0
 70
     1
102
RTVSPropertyOp1
 70
     1
102
RTVSPropertyOp2
 70
     1
102
RTVSPropertyOp3
 70
     1
102
RTVSPropertyOp4
 70
     1
102
RTVSPropertyOp5
 70
     1
102
RTVSPropertyOp6
 70
     1
102
RTVSPropertyOp7
 70
     1
102
RTVSPropertyOp8
 70
     1
102
RTVSPropertyOp9
 70
     1
102
RTVSPropertyOp10
 70
     1
102
RTVSPropertyOp11
 70
     1
102
RTVSPropertyOp12
 70
     1
102
RTVSPropertyOp13
 70
     1
102
RTVSPropertyOp14
 70
     1
102
RTVSPropertyOp15
 70
     1
102
RTVSPropertyOp16
 70
     1
102
RTVSPropertyOp17
 70
     1
102
RTVSPropertyOp18
 70
     1
102
RTVSPropertyOp19
 70
     1
102
RTVSPropertyOp20
 70
     1
102
RTVSPropertyOp21
 70
     1
102
RTVSPropertyOp22
 70
     1
102
RTVSPropertyOp23
 70
     1
102
RTVSPropertyOp24
 70
     1
102
RTVSPropertyOp25
 70
     1
102
RTVSPropertyOp26
 70
     1
102
RTVSPropertyOp27
 70
     1
102
RTVSPropertyOp28
 70
     1
102
RTVSPropertyOp29
 70
     1
102
RTVSPropertyOp30
 70
     1
102
RTVSPropertyOp31
 70
     1
102
RTVSPropertyOp32
 70
     1
102
RTVSPropertyOp33
 70
     1
102
RTVSPropertyOp34
 70
     1
102
RTVSPropertyOp35
 70
     1
102
RTVSPropertyOp36
 70
     1
102
RTVSPropertyOp37
 70
     1
102
RTVSPropertyOp38
 70
     1
102
RTVSPropertyOp39
 70
     1
102
RTVSPropertyOp40
 70
     1
102
RTVSPropertyOp41
 70
     1
102
RTVSPropertyOp42
 70
     1
102
RTVSPropertyOp43
 70
     1
102
RTVSPropertyOp44
 70
     1
102
RTVSPropertyOp45
 70
     1
102
RTVSPropertyOp46
 70
     1
102
RTVSPropertyOp47
 70
     1
102
RTVSPropertyOp48
 70
     1
102
RTVSPropertyOp49
 70
     1
102
RTVSPropertyOp50
 70
     1
102
RTVSPropertyOp51
 70
     0
102
RTVSPropertyOp52
 70
     0
102
RTVSPropertyOp53
 70
     1
102
RTVSPropertyOp54
 70
     1
102
RTVSPropertyOp55
 70
     1
102
RTVSPropertyOp56
 70
     1
102
RTVSPropertyOp57
 70
     1
102
RTVSPropertyOp58
 70
     1
102
RTVSPropertyOp59
 70
     1
102
RTVSPropertyOp60
 70
     1
102
RTVSPropertyOp61
 70
     1
102
RTVSPropertyOp62
 70
     1
  0
XRECORD
  5
327F
102
{ACAD_REACTORS
330
327E
102
}
330
327E
100
AcDbXrecord
280
     1
102
RTVSPost2010Prop28
280
     0
102
RTVSPost2010PropOp28
 70
     1
102
RTVSPost2010Prop29
280
     1
102
RTVSPost2010PropOp29
 70
     1
102
RTVSPost2010Prop30
280
     1
102
RTVSPost2010PropOp30
 70
     1
102
RTVSPost2010Prop31
280
     0
102
RTVSPost2010PropOp31
 70
     1
102
RTVSPost2010Prop32
280
     0
102
RTVSPost2010PropOp32
 70
     1
102
RTVSPost2010Prop33
280
     0
102
RTVSPost2010PropOp33
 70
     1
102
RTVSPost2010Prop34
280
     0
102
RTVSPost2010PropOp34
 70
     1
102
RTVSPost2010Prop35
280
     0
102
RTVSPost2010PropOp35
 70
     1
102
RTVSPost2010Prop36
280
     0
102
RTVSPost2010PropOp36
 70
     1
102
RTVSPost2010Prop37
 90
       50
102
RTVSPost2010PropOp37
 70
     1
102
RTVSPost2010Prop38
140
0.0
102
RTVSPost2010PropOp38
 70
     1
102
RTVSPost2010Prop39
140
1.0
102
RTVSPost2010PropOp39
 70
     1
102
RTVSPost2010Prop40
 90
        0
102
RTVSPost2010PropOp40
 70
     1
102
RTVSPost2010Prop41ColorIndex
 90
       18
102
RTVSPost2010Prop41ColorRGB
 90
        0
102
RTVSPost2010PropOp41
 70
     1
102
RTVSPost2010Prop42
 90
       50
102
RTVSPost2010PropOp42
 70
     1
102
RTVSPost2010Prop43
 90
        3
102
RTVSPost2010PropOp43
 70
     1
102
RTVSPost2010Prop44ColorIndex
 90
        5
102
RTVSPost2010Prop44ColorRGB
 90
      255
102
RTVSPost2010PropOp44
 70
     1
102
RTVSPost2010Prop45
280
     0
102
RTVSPost2010PropOp45
 70
     1
102
RTVSPost2010Prop46
 90
       50
102
RTVSPost2010PropOp46
 70
     1
102
RTVSPost2010Prop47
 90
       50
102
RTVSPost2010PropOp47
 70
     1
102
RTVSPost2010Prop48
 90
       50
102
RTVSPost2010PropOp48
 70
     1
102
RTVSPost2010Prop49
280
     0
102
RTVSPost2010PropOp49
 70
     1
102
RTVSPost2010Prop50
 90
       50
102
RTVSPost2010PropOp50
 70
     1
102
RTVSPost2010Prop51ColorIndex
 90
      256
102
RTVSPost2010Prop51ColorRGB
 90
-16777216
102
RTVSPost2010PropOp51
 70
     0
102
RTVSPost2010Prop52
140
1.0
102
RTVSPost2010PropOp52
 70
     0
102
RTVSPost2010Prop53
 90
        2
102
RTVSPost2010PropOp53
 70
     1
102
RTVSPost2010Prop54
  1
strokes_ogs.tif
102
RTVSPost2010PropOp54
 70
     1
102
RTVSPost2010Prop55
280
     0
102
RTVSPost2010PropOp55
 70
     1
102
RTVSPost2010Prop56
140
1.0
102
RTVSPost2010PropOp56
 70
     1
102
RTVSPost2010Prop57
140
1.0
102
RTVSPost2010PropOp57
 70
     1
102
RTVSPropertyOp0
 70
     1
102
RTVSPropertyOp1
 70
     1
102
RTVSPropertyOp2
 70
     1
102
RTVSPropertyOp3
 70
     1
102
RTVSPropertyOp4
 70
     1
102
RTVSPropertyOp5
 70
     1
102
RTVSPropertyOp6
 70
     1
102
RTVSPropertyOp7
 70
     1
102
RTVSPropertyOp8
 70
     1
102
RTVSPropertyOp9
 70
     1
102
RTVSPropertyOp10
 70
     1
102
RTVSPropertyOp11
 70
     1
102
RTVSPropertyOp12
 70
     1
102
RTVSPropertyOp13
 70
     1
102
RTVSPropertyOp14
 70
     1
102
RTVSPropertyOp15
 70
     1
102
RTVSPropertyOp16
 70
     1
102
RTVSPropertyOp17
 70
     1
102
RTVSPropertyOp18
 70
     1
102
RTVSPropertyOp19
 70
     1
102
RTVSPropertyOp20
 70
     1
102
RTVSPropertyOp21
 70
     1
102
RTVSPropertyOp22
 70
     1
102
RTVSPropertyOp23
 70
     1
102
RTVSPropertyOp24
 70
     1
102
RTVSPropertyOp25
 70
     1
102
RTVSPropertyOp26
 70
     1
102
RTVSPropertyOp27
 70
     1
102
RTVSPropertyOp28
 70
     1
102
RTVSPropertyOp29
 70
     1
102
RTVSPropertyOp30
 70
     1
102
RTVSPropertyOp31
 70
     1
102
RTVSPropertyOp32
 70
     1
102
RTVSPropertyOp33
 70
     1
102
RTVSPropertyOp34
 70
     1
102
RTVSPropertyOp35
 70
     1
102
RTVSPropertyOp36
 70
     1
102
RTVSPropertyOp37
 70
     1
102
RTVSPropertyOp38
 70
     1
102
RTVSPropertyOp39
 70
     1
102
RTVSPropertyOp40
 70
     1
102
RTVSPropertyOp41
 70
     1
102
RTVSPropertyOp42
 70
     1
102
RTVSPropertyOp43
 70
     1
102
RTVSPropertyOp44
 70
     1
102
RTVSPropertyOp45
 70
     1
102
RTVSPropertyOp46
 70
     1
102
RTVSPropertyOp47
 70
     1
102
RTVSPropertyOp48
 70
     1
102
RTVSPropertyOp49
 70
     1
102
RTVSPropertyOp50
 70
     1
102
RTVSPropertyOp51
 70
     0
102
RTVSPropertyOp52
 70
     0
102
RTVSPropertyOp53
 70
     1
102
RTVSPropertyOp54
 70
     1
102
RTVSPropertyOp55
 70
     1
102
RTVSPropertyOp56
 70
     1
102
RTVSPropertyOp57
 70
     1
102
RTVSPropertyOp58
 70
     1
102
RTVSPropertyOp59
 70
     1
102
RTVSPropertyOp60
 70
     1
102
RTVSPropertyOp61
 70
     1
102
RTVSPropertyOp62
 70
     1
  0
XRECORD
  5
327D
102
{ACAD_REACTORS
330
327C
102
}
330
327C
100
AcDbXrecord
280
     1
102
RTVSPost2010Prop28
280
     0
102
RTVSPost2010PropOp28
 70
     1
102
RTVSPost2010Prop29
280
     1
102
RTVSPost2010PropOp29
 70
     1
102
RTVSPost2010Prop30
280
     1
102
RTVSPost2010PropOp30
 70
     1
102
RTVSPost2010Prop31
280
     0
102
RTVSPost2010PropOp31
 70
     1
102
RTVSPost2010Prop32
280
     0
102
RTVSPost2010PropOp32
 70
     1
102
RTVSPost2010Prop33
280
     0
102
RTVSPost2010PropOp33
 70
     1
102
RTVSPost2010Prop34
280
     0
102
RTVSPost2010PropOp34
 70
     1
102
RTVSPost2010Prop35
280
     0
102
RTVSPost2010PropOp35
 70
     1
102
RTVSPost2010Prop36
280
     0
102
RTVSPost2010PropOp36
 70
     1
102
RTVSPost2010Prop37
 90
       50
102
RTVSPost2010PropOp37
 70
     1
102
RTVSPost2010Prop38
140
0.0
102
RTVSPost2010PropOp38
 70
     1
102
RTVSPost2010Prop39
140
1.0
102
RTVSPost2010PropOp39
 70
     1
102
RTVSPost2010Prop40
 90
        0
102
RTVSPost2010PropOp40
 70
     1
102
RTVSPost2010Prop41ColorIndex
 90
       18
102
RTVSPost2010Prop41ColorRGB
 90
        0
102
RTVSPost2010PropOp41
 70
     1
102
RTVSPost2010Prop42
 90
       50
102
RTVSPost2010PropOp42
 70
     1
102
RTVSPost2010Prop43
 90
        3
102
RTVSPost2010PropOp43
 70
     1
102
RTVSPost2010Prop44ColorIndex
 90
        5
102
RTVSPost2010Prop44ColorRGB
 90
      255
102
RTVSPost2010PropOp44
 70
     1
102
RTVSPost2010Prop45
280
     0
102
RTVSPost2010PropOp45
 70
     1
102
RTVSPost2010Prop46
 90
       50
102
RTVSPost2010PropOp46
 70
     1
102
RTVSPost2010Prop47
 90
       50
102
RTVSPost2010PropOp47
 70
     1
102
RTVSPost2010Prop48
 90
       50
102
RTVSPost2010PropOp48
 70
     1
102
RTVSPost2010Prop49
280
     0
102
RTVSPost2010PropOp49
 70
     1
102
RTVSPost2010Prop50
 90
       50
102
RTVSPost2010PropOp50
 70
     1
102
RTVSPost2010Prop51ColorIndex
 90
      256
102
RTVSPost2010Prop51ColorRGB
 90
-16777216
102
RTVSPost2010PropOp51
 70
     0
102
RTVSPost2010Prop52
140
1.0
102
RTVSPost2010PropOp52
 70
     0
102
RTVSPost2010Prop53
 90
        2
102
RTVSPost2010PropOp53
 70
     1
102
RTVSPost2010Prop54
  1
strokes_ogs.tif
102
RTVSPost2010PropOp54
 70
     1
102
RTVSPost2010Prop55
280
     0
102
RTVSPost2010PropOp55
 70
     1
102
RTVSPost2010Prop56
140
1.0
102
RTVSPost2010PropOp56
 70
     1
102
RTVSPost2010Prop57
140
1.0
102
RTVSPost2010PropOp57
 70
     1
102
RTVSPropertyOp0
 70
     1
102
RTVSPropertyOp1
 70
     1
102
RTVSPropertyOp2
 70
     1
102
RTVSPropertyOp3
 70
     1
102
RTVSPropertyOp4
 70
     1
102
RTVSPropertyOp5
 70
     1
102
RTVSPropertyOp6
 70
     1
102
RTVSPropertyOp7
 70
     1
102
RTVSPropertyOp8
 70
     1
102
RTVSPropertyOp9
 70
     1
102
RTVSPropertyOp10
 70
     1
102
RTVSPropertyOp11
 70
     1
102
RTVSPropertyOp12
 70
     1
102
RTVSPropertyOp13
 70
     1
102
RTVSPropertyOp14
 70
     1
102
RTVSPropertyOp15
 70
     1
102
RTVSPropertyOp16
 70
     1
102
RTVSPropertyOp17
 70
     1
102
RTVSPropertyOp18
 70
     1
102
RTVSPropertyOp19
 70
     1
102
RTVSPropertyOp20
 70
     1
102
RTVSPropertyOp21
 70
     1
102
RTVSPropertyOp22
 70
     1
102
RTVSPropertyOp23
 70
     1
102
RTVSPropertyOp24
 70
     1
102
RTVSPropertyOp25
 70
     1
102
RTVSPropertyOp26
 70
     1
102
RTVSPropertyOp27
 70
     1
102
RTVSPropertyOp28
 70
     1
102
RTVSPropertyOp29
 70
     1
102
RTVSPropertyOp30
 70
     1
102
RTVSPropertyOp31
 70
     1
102
RTVSPropertyOp32
 70
     1
102
RTVSPropertyOp33
 70
     1
102
RTVSPropertyOp34
 70
     1
102
RTVSPropertyOp35
 70
     1
102
RTVSPropertyOp36
 70
     1
102
RTVSPropertyOp37
 70
     1
102
RTVSPropertyOp38
 70
     1
102
RTVSPropertyOp39
 70
     1
102
RTVSPropertyOp40
 70
     1
102
RTVSPropertyOp41
 70
     1
102
RTVSPropertyOp42
 70
     1
102
RTVSPropertyOp43
 70
     1
102
RTVSPropertyOp44
 70
     1
102
RTVSPropertyOp45
 70
     1
102
RTVSPropertyOp46
 70
     1
102
RTVSPropertyOp47
 70
     1
102
RTVSPropertyOp48
 70
     1
102
RTVSPropertyOp49
 70
     1
102
RTVSPropertyOp50
 70
     1
102
RTVSPropertyOp51
 70
     0
102
RTVSPropertyOp52
 70
     0
102
RTVSPropertyOp53
 70
     1
102
RTVSPropertyOp54
 70
     1
102
RTVSPropertyOp55
 70
     1
102
RTVSPropertyOp56
 70
     1
102
RTVSPropertyOp57
 70
     1
102
RTVSPropertyOp58
 70
     1
102
RTVSPropertyOp59
 70
     1
102
RTVSPropertyOp60
 70
     1
102
RTVSPropertyOp61
 70
     1
102
RTVSPropertyOp62
 70
     1
  0
XRECORD
  5
3277
102
{ACAD_REACTORS
330
3276
102
}
330
3276
100
AcDbXrecord
280
     1
102
RTVSPost2010Prop28
280
     0
102
RTVSPost2010PropOp28
 70
     1
102
RTVSPost2010Prop29
280
     1
102
RTVSPost2010PropOp29
 70
     1
102
RTVSPost2010Prop30
280
     1
102
RTVSPost2010PropOp30
 70
     1
102
RTVSPost2010Prop31
280
     0
102
RTVSPost2010PropOp31
 70
     1
102
RTVSPost2010Prop32
280
     0
102
RTVSPost2010PropOp32
 70
     1
102
RTVSPost2010Prop33
280
     0
102
RTVSPost2010PropOp33
 70
     1
102
RTVSPost2010Prop34
280
     0
102
RTVSPost2010PropOp34
 70
     1
102
RTVSPost2010Prop35
280
     0
102
RTVSPost2010PropOp35
 70
     1
102
RTVSPost2010Prop36
280
     0
102
RTVSPost2010PropOp36
 70
     1
102
RTVSPost2010Prop37
 90
       50
102
RTVSPost2010PropOp37
 70
     1
102
RTVSPost2010Prop38
140
0.0
102
RTVSPost2010PropOp38
 70
     1
102
RTVSPost2010Prop39
140
1.0
102
RTVSPost2010PropOp39
 70
     1
102
RTVSPost2010Prop40
 90
        0
102
RTVSPost2010PropOp40
 70
     1
102
RTVSPost2010Prop41ColorIndex
 90
       18
102
RTVSPost2010Prop41ColorRGB
 90
        0
102
RTVSPost2010PropOp41
 70
     1
102
RTVSPost2010Prop42
 90
       50
102
RTVSPost2010PropOp42
 70
     1
102
RTVSPost2010Prop43
 90
        3
102
RTVSPost2010PropOp43
 70
     1
102
RTVSPost2010Prop44ColorIndex
 90
        5
102
RTVSPost2010Prop44ColorRGB
 90
      255
102
RTVSPost2010PropOp44
 70
     1
102
RTVSPost2010Prop45
280
     0
102
RTVSPost2010PropOp45
 70
     1
102
RTVSPost2010Prop46
 90
       50
102
RTVSPost2010PropOp46
 70
     1
102
RTVSPost2010Prop47
 90
       50
102
RTVSPost2010PropOp47
 70
     1
102
RTVSPost2010Prop48
 90
       50
102
RTVSPost2010PropOp48
 70
     1
102
RTVSPost2010Prop49
280
     0
102
RTVSPost2010PropOp49
 70
     1
102
RTVSPost2010Prop50
 90
       50
102
RTVSPost2010PropOp50
 70
     1
102
RTVSPost2010Prop51ColorIndex
 90
      256
102
RTVSPost2010Prop51ColorRGB
 90
-16777216
102
RTVSPost2010PropOp51
 70
     0
102
RTVSPost2010Prop52
140
1.0
102
RTVSPost2010PropOp52
 70
     0
102
RTVSPost2010Prop53
 90
        2
102
RTVSPost2010PropOp53
 70
     1
102
RTVSPost2010Prop54
  1
strokes_ogs.tif
102
RTVSPost2010PropOp54
 70
     1
102
RTVSPost2010Prop55
280
     0
102
RTVSPost2010PropOp55
 70
     1
102
RTVSPost2010Prop56
140
1.0
102
RTVSPost2010PropOp56
 70
     1
102
RTVSPost2010Prop57
140
1.0
102
RTVSPost2010PropOp57
 70
     1
102
RTVSPropertyOp0
 70
     1
102
RTVSPropertyOp1
 70
     1
102
RTVSPropertyOp2
 70
     1
102
RTVSPropertyOp3
 70
     1
102
RTVSPropertyOp4
 70
     1
102
RTVSPropertyOp5
 70
     1
102
RTVSPropertyOp6
 70
     1
102
RTVSPropertyOp7
 70
     1
102
RTVSPropertyOp8
 70
     1
102
RTVSPropertyOp9
 70
     1
102
RTVSPropertyOp10
 70
     1
102
RTVSPropertyOp11
 70
     1
102
RTVSPropertyOp12
 70
     1
102
RTVSPropertyOp13
 70
     1
102
RTVSPropertyOp14
 70
     1
102
RTVSPropertyOp15
 70
     1
102
RTVSPropertyOp16
 70
     1
102
RTVSPropertyOp17
 70
     1
102
RTVSPropertyOp18
 70
     1
102
RTVSPropertyOp19
 70
     1
102
RTVSPropertyOp20
 70
     1
102
RTVSPropertyOp21
 70
     1
102
RTVSPropertyOp22
 70
     1
102
RTVSPropertyOp23
 70
     1
102
RTVSPropertyOp24
 70
     1
102
RTVSPropertyOp25
 70
     1
102
RTVSPropertyOp26
 70
     1
102
RTVSPropertyOp27
 70
     1
102
RTVSPropertyOp28
 70
     1
102
RTVSPropertyOp29
 70
     1
102
RTVSPropertyOp30
 70
     1
102
RTVSPropertyOp31
 70
     1
102
RTVSPropertyOp32
 70
     1
102
RTVSPropertyOp33
 70
     1
102
RTVSPropertyOp34
 70
     1
102
RTVSPropertyOp35
 70
     1
102
RTVSPropertyOp36
 70
     1
102
RTVSPropertyOp37
 70
     1
102
RTVSPropertyOp38
 70
     1
102
RTVSPropertyOp39
 70
     1
102
RTVSPropertyOp40
 70
     1
102
RTVSPropertyOp41
 70
     1
102
RTVSPropertyOp42
 70
     1
102
RTVSPropertyOp43
 70
     1
102
RTVSPropertyOp44
 70
     1
102
RTVSPropertyOp45
 70
     1
102
RTVSPropertyOp46
 70
     1
102
RTVSPropertyOp47
 70
     1
102
RTVSPropertyOp48
 70
     1
102
RTVSPropertyOp49
 70
     1
102
RTVSPropertyOp50
 70
     1
102
RTVSPropertyOp51
 70
     0
102
RTVSPropertyOp52
 70
     0
102
RTVSPropertyOp53
 70
     1
102
RTVSPropertyOp54
 70
     1
102
RTVSPropertyOp55
 70
     1
102
RTVSPropertyOp56
 70
     1
102
RTVSPropertyOp57
 70
     1
102
RTVSPropertyOp58
 70
     1
102
RTVSPropertyOp59
 70
     1
102
RTVSPropertyOp60
 70
     1
102
RTVSPropertyOp61
 70
     1
102
RTVSPropertyOp62
 70
     1
  0
XRECORD
  5
3279
102
{ACAD_REACTORS
330
3278
102
}
330
3278
100
AcDbXrecord
280
     1
102
RTVSPost2010Prop28
280
     0
102
RTVSPost2010PropOp28
 70
     1
102
RTVSPost2010Prop29
280
     1
102
RTVSPost2010PropOp29
 70
     1
102
RTVSPost2010Prop30
280
     1
102
RTVSPost2010PropOp30
 70
     1
102
RTVSPost2010Prop31
280
     0
102
RTVSPost2010PropOp31
 70
     1
102
RTVSPost2010Prop32
280
     0
102
RTVSPost2010PropOp32
 70
     1
102
RTVSPost2010Prop33
280
     0
102
RTVSPost2010PropOp33
 70
     1
102
RTVSPost2010Prop34
280
     0
102
RTVSPost2010PropOp34
 70
     1
102
RTVSPost2010Prop35
280
     0
102
RTVSPost2010PropOp35
 70
     1
102
RTVSPost2010Prop36
280
     0
102
RTVSPost2010PropOp36
 70
     1
102
RTVSPost2010Prop37
 90
       50
102
RTVSPost2010PropOp37
 70
     1
102
RTVSPost2010Prop38
140
0.0
102
RTVSPost2010PropOp38
 70
     1
102
RTVSPost2010Prop39
140
1.0
102
RTVSPost2010PropOp39
 70
     1
102
RTVSPost2010Prop40
 90
        0
102
RTVSPost2010PropOp40
 70
     1
102
RTVSPost2010Prop41ColorIndex
 90
       18
102
RTVSPost2010Prop41ColorRGB
 90
        0
102
RTVSPost2010PropOp41
 70
     1
102
RTVSPost2010Prop42
 90
       50
102
RTVSPost2010PropOp42
 70
     1
102
RTVSPost2010Prop43
 90
        3
102
RTVSPost2010PropOp43
 70
     1
102
RTVSPost2010Prop44ColorIndex
 90
        5
102
RTVSPost2010Prop44ColorRGB
 90
      255
102
RTVSPost2010PropOp44
 70
     1
102
RTVSPost2010Prop45
280
     0
102
RTVSPost2010PropOp45
 70
     1
102
RTVSPost2010Prop46
 90
       50
102
RTVSPost2010PropOp46
 70
     1
102
RTVSPost2010Prop47
 90
       50
102
RTVSPost2010PropOp47
 70
     1
102
RTVSPost2010Prop48
 90
       50
102
RTVSPost2010PropOp48
 70
     1
102
RTVSPost2010Prop49
280
     0
102
RTVSPost2010PropOp49
 70
     1
102
RTVSPost2010Prop50
 90
       50
102
RTVSPost2010PropOp50
 70
     1
102
RTVSPost2010Prop51ColorIndex
 90
      256
102
RTVSPost2010Prop51ColorRGB
 90
-16777216
102
RTVSPost2010PropOp51
 70
     0
102
RTVSPost2010Prop52
140
1.0
102
RTVSPost2010PropOp52
 70
     0
102
RTVSPost2010Prop53
 90
        2
102
RTVSPost2010PropOp53
 70
     1
102
RTVSPost2010Prop54
  1
strokes_ogs.tif
102
RTVSPost2010PropOp54
 70
     1
102
RTVSPost2010Prop55
280
     0
102
RTVSPost2010PropOp55
 70
     1
102
RTVSPost2010Prop56
140
1.0
102
RTVSPost2010PropOp56
 70
     1
102
RTVSPost2010Prop57
140
1.0
102
RTVSPost2010PropOp57
 70
     1
102
RTVSPropertyOp0
 70
     1
102
RTVSPropertyOp1
 70
     1
102
RTVSPropertyOp2
 70
     1
102
RTVSPropertyOp3
 70
     1
102
RTVSPropertyOp4
 70
     1
102
RTVSPropertyOp5
 70
     1
102
RTVSPropertyOp6
 70
     1
102
RTVSPropertyOp7
 70
     1
102
RTVSPropertyOp8
 70
     1
102
RTVSPropertyOp9
 70
     1
102
RTVSPropertyOp10
 70
     1
102
RTVSPropertyOp11
 70
     1
102
RTVSPropertyOp12
 70
     1
102
RTVSPropertyOp13
 70
     1
102
RTVSPropertyOp14
 70
     1
102
RTVSPropertyOp15
 70
     1
102
RTVSPropertyOp16
 70
     1
102
RTVSPropertyOp17
 70
     1
102
RTVSPropertyOp18
 70
     1
102
RTVSPropertyOp19
 70
     1
102
RTVSPropertyOp20
 70
     1
102
RTVSPropertyOp21
 70
     1
102
RTVSPropertyOp22
 70
     1
102
RTVSPropertyOp23
 70
     1
102
RTVSPropertyOp24
 70
     1
102
RTVSPropertyOp25
 70
     1
102
RTVSPropertyOp26
 70
     1
102
RTVSPropertyOp27
 70
     1
102
RTVSPropertyOp28
 70
     1
102
RTVSPropertyOp29
 70
     1
102
RTVSPropertyOp30
 70
     1
102
RTVSPropertyOp31
 70
     1
102
RTVSPropertyOp32
 70
     1
102
RTVSPropertyOp33
 70
     1
102
RTVSPropertyOp34
 70
     1
102
RTVSPropertyOp35
 70
     1
102
RTVSPropertyOp36
 70
     1
102
RTVSPropertyOp37
 70
     1
102
RTVSPropertyOp38
 70
     1
102
RTVSPropertyOp39
 70
     1
102
RTVSPropertyOp40
 70
     1
102
RTVSPropertyOp41
 70
     1
102
RTVSPropertyOp42
 70
     1
102
RTVSPropertyOp43
 70
     1
102
RTVSPropertyOp44
 70
     1
102
RTVSPropertyOp45
 70
     1
102
RTVSPropertyOp46
 70
     1
102
RTVSPropertyOp47
 70
     1
102
RTVSPropertyOp48
 70
     1
102
RTVSPropertyOp49
 70
     1
102
RTVSPropertyOp50
 70
     1
102
RTVSPropertyOp51
 70
     0
102
RTVSPropertyOp52
 70
     0
102
RTVSPropertyOp53
 70
     1
102
RTVSPropertyOp54
 70
     1
102
RTVSPropertyOp55
 70
     1
102
RTVSPropertyOp56
 70
     1
102
RTVSPropertyOp57
 70
     1
102
RTVSPropertyOp58
 70
     1
102
RTVSPropertyOp59
 70
     1
102
RTVSPropertyOp60
 70
     1
102
RTVSPropertyOp61
 70
     1
102
RTVSPropertyOp62
 70
     1
  0
XRECORD
  5
326F
102
{ACAD_REACTORS
330
326E
102
}
330
326E
100
AcDbXrecord
280
     1
102
RTVSPost2010Prop28
280
     0
102
RTVSPost2010PropOp28
 70
     1
102
RTVSPost2010Prop29
280
     1
102
RTVSPost2010PropOp29
 70
     1
102
RTVSPost2010Prop30
280
     1
102
RTVSPost2010PropOp30
 70
     1
102
RTVSPost2010Prop31
280
     0
102
RTVSPost2010PropOp31
 70
     1
102
RTVSPost2010Prop32
280
     0
102
RTVSPost2010PropOp32
 70
     1
102
RTVSPost2010Prop33
280
     0
102
RTVSPost2010PropOp33
 70
     1
102
RTVSPost2010Prop34
280
     0
102
RTVSPost2010PropOp34
 70
     1
102
RTVSPost2010Prop35
280
     0
102
RTVSPost2010PropOp35
 70
     1
102
RTVSPost2010Prop36
280
     0
102
RTVSPost2010PropOp36
 70
     1
102
RTVSPost2010Prop37
 90
       50
102
RTVSPost2010PropOp37
 70
     1
102
RTVSPost2010Prop38
140
0.0
102
RTVSPost2010PropOp38
 70
     1
102
RTVSPost2010Prop39
140
1.0
102
RTVSPost2010PropOp39
 70
     1
102
RTVSPost2010Prop40
 90
        0
102
RTVSPost2010PropOp40
 70
     1
102
RTVSPost2010Prop41ColorIndex
 90
       18
102
RTVSPost2010Prop41ColorRGB
 90
        0
102
RTVSPost2010PropOp41
 70
     1
102
RTVSPost2010Prop42
 90
       50
102
RTVSPost2010PropOp42
 70
     1
102
RTVSPost2010Prop43
 90
        3
102
RTVSPost2010PropOp43
 70
     1
102
RTVSPost2010Prop44ColorIndex
 90
        5
102
RTVSPost2010Prop44ColorRGB
 90
      255
102
RTVSPost2010PropOp44
 70
     1
102
RTVSPost2010Prop45
280
     0
102
RTVSPost2010PropOp45
 70
     1
102
RTVSPost2010Prop46
 90
       50
102
RTVSPost2010PropOp46
 70
     1
102
RTVSPost2010Prop47
 90
       50
102
RTVSPost2010PropOp47
 70
     1
102
RTVSPost2010Prop48
 90
       50
102
RTVSPost2010PropOp48
 70
     1
102
RTVSPost2010Prop49
280
     0
102
RTVSPost2010PropOp49
 70
     1
102
RTVSPost2010Prop50
 90
       50
102
RTVSPost2010PropOp50
 70
     1
102
RTVSPost2010Prop51ColorIndex
 90
      256
102
RTVSPost2010Prop51ColorRGB
 90
-16777216
102
RTVSPost2010PropOp51
 70
     0
102
RTVSPost2010Prop52
140
1.0
102
RTVSPost2010PropOp52
 70
     0
102
RTVSPost2010Prop53
 90
        2
102
RTVSPost2010PropOp53
 70
     1
102
RTVSPost2010Prop54
  1
strokes_ogs.tif
102
RTVSPost2010PropOp54
 70
     1
102
RTVSPost2010Prop55
280
     0
102
RTVSPost2010PropOp55
 70
     1
102
RTVSPost2010Prop56
140
1.0
102
RTVSPost2010PropOp56
 70
     1
102
RTVSPost2010Prop57
140
1.0
102
RTVSPost2010PropOp57
 70
     1
102
RTVSPropertyOp0
 70
     1
102
RTVSPropertyOp1
 70
     1
102
RTVSPropertyOp2
 70
     1
102
RTVSPropertyOp3
 70
     1
102
RTVSPropertyOp4
 70
     1
102
RTVSPropertyOp5
 70
     1
102
RTVSPropertyOp6
 70
     1
102
RTVSPropertyOp7
 70
     1
102
RTVSPropertyOp8
 70
     1
102
RTVSPropertyOp9
 70
     1
102
RTVSPropertyOp10
 70
     1
102
RTVSPropertyOp11
 70
     1
102
RTVSPropertyOp12
 70
     1
102
RTVSPropertyOp13
 70
     1
102
RTVSPropertyOp14
 70
     1
102
RTVSPropertyOp15
 70
     1
102
RTVSPropertyOp16
 70
     1
102
RTVSPropertyOp17
 70
     1
102
RTVSPropertyOp18
 70
     1
102
RTVSPropertyOp19
 70
     1
102
RTVSPropertyOp20
 70
     1
102
RTVSPropertyOp21
 70
     1
102
RTVSPropertyOp22
 70
     1
102
RTVSPropertyOp23
 70
     1
102
RTVSPropertyOp24
 70
     1
102
RTVSPropertyOp25
 70
     1
102
RTVSPropertyOp26
 70
     1
102
RTVSPropertyOp27
 70
     1
102
RTVSPropertyOp28
 70
     1
102
RTVSPropertyOp29
 70
     1
102
RTVSPropertyOp30
 70
     1
102
RTVSPropertyOp31
 70
     1
102
RTVSPropertyOp32
 70
     1
102
RTVSPropertyOp33
 70
     1
102
RTVSPropertyOp34
 70
     1
102
RTVSPropertyOp35
 70
     1
102
RTVSPropertyOp36
 70
     1
102
RTVSPropertyOp37
 70
     1
102
RTVSPropertyOp38
 70
     1
102
RTVSPropertyOp39
 70
     1
102
RTVSPropertyOp40
 70
     1
102
RTVSPropertyOp41
 70
     1
102
RTVSPropertyOp42
 70
     1
102
RTVSPropertyOp43
 70
     1
102
RTVSPropertyOp44
 70
     1
102
RTVSPropertyOp45
 70
     1
102
RTVSPropertyOp46
 70
     1
102
RTVSPropertyOp47
 70
     1
102
RTVSPropertyOp48
 70
     1
102
RTVSPropertyOp49
 70
     1
102
RTVSPropertyOp50
 70
     1
102
RTVSPropertyOp51
 70
     0
102
RTVSPropertyOp52
 70
     0
102
RTVSPropertyOp53
 70
     1
102
RTVSPropertyOp54
 70
     1
102
RTVSPropertyOp55
 70
     1
102
RTVSPropertyOp56
 70
     1
102
RTVSPropertyOp57
 70
     1
102
RTVSPropertyOp58
 70
     1
102
RTVSPropertyOp59
 70
     1
102
RTVSPropertyOp60
 70
     1
102
RTVSPropertyOp61
 70
     1
102
RTVSPropertyOp62
 70
     1
  0
XRECORD
  5
3263
102
{ACAD_REACTORS
330
3262
102
}
330
3262
100
AcDbXrecord
280
     1
102
RTVSPost2010Prop28
280
     0
102
RTVSPost2010PropOp28
 70
     1
102
RTVSPost2010Prop29
280
     1
102
RTVSPost2010PropOp29
 70
     1
102
RTVSPost2010Prop30
280
     1
102
RTVSPost2010PropOp30
 70
     1
102
RTVSPost2010Prop31
280
     0
102
RTVSPost2010PropOp31
 70
     1
102
RTVSPost2010Prop32
280
     0
102
RTVSPost2010PropOp32
 70
     1
102
RTVSPost2010Prop33
280
     0
102
RTVSPost2010PropOp33
 70
     1
102
RTVSPost2010Prop34
280
     0
102
RTVSPost2010PropOp34
 70
     1
102
RTVSPost2010Prop35
280
     0
102
RTVSPost2010PropOp35
 70
     1
102
RTVSPost2010Prop36
280
     0
102
RTVSPost2010PropOp36
 70
     1
102
RTVSPost2010Prop37
 90
       50
102
RTVSPost2010PropOp37
 70
     1
102
RTVSPost2010Prop38
140
0.0
102
RTVSPost2010PropOp38
 70
     1
102
RTVSPost2010Prop39
140
1.0
102
RTVSPost2010PropOp39
 70
     1
102
RTVSPost2010Prop40
 90
        0
102
RTVSPost2010PropOp40
 70
     1
102
RTVSPost2010Prop41ColorIndex
 90
       18
102
RTVSPost2010Prop41ColorRGB
 90
        0
102
RTVSPost2010PropOp41
 70
     1
102
RTVSPost2010Prop42
 90
       50
102
RTVSPost2010PropOp42
 70
     1
102
RTVSPost2010Prop43
 90
        3
102
RTVSPost2010PropOp43
 70
     1
102
RTVSPost2010Prop44ColorIndex
 90
        5
102
RTVSPost2010Prop44ColorRGB
 90
      255
102
RTVSPost2010PropOp44
 70
     1
102
RTVSPost2010Prop45
280
     0
102
RTVSPost2010PropOp45
 70
     1
102
RTVSPost2010Prop46
 90
       50
102
RTVSPost2010PropOp46
 70
     1
102
RTVSPost2010Prop47
 90
       50
102
RTVSPost2010PropOp47
 70
     1
102
RTVSPost2010Prop48
 90
       50
102
RTVSPost2010PropOp48
 70
     1
102
RTVSPost2010Prop49
280
     0
102
RTVSPost2010PropOp49
 70
     1
102
RTVSPost2010Prop50
 90
       50
102
RTVSPost2010PropOp50
 70
     1
102
RTVSPost2010Prop51ColorIndex
 90
      256
102
RTVSPost2010Prop51ColorRGB
 90
-16777216
102
RTVSPost2010PropOp51
 70
     0
102
RTVSPost2010Prop52
140
1.0
102
RTVSPost2010PropOp52
 70
     0
102
RTVSPost2010Prop53
 90
        2
102
RTVSPost2010PropOp53
 70
     1
102
RTVSPost2010Prop54
  1
strokes_ogs.tif
102
RTVSPost2010PropOp54
 70
     1
102
RTVSPost2010Prop55
280
     0
102
RTVSPost2010PropOp55
 70
     1
102
RTVSPost2010Prop56
140
1.0
102
RTVSPost2010PropOp56
 70
     1
102
RTVSPost2010Prop57
140
1.0
102
RTVSPost2010PropOp57
 70
     1
102
RTVSPropertyOp0
 70
     1
102
RTVSPropertyOp1
 70
     1
102
RTVSPropertyOp2
 70
     1
102
RTVSPropertyOp3
 70
     1
102
RTVSPropertyOp4
 70
     1
102
RTVSPropertyOp5
 70
     1
102
RTVSPropertyOp6
 70
     1
102
RTVSPropertyOp7
 70
     1
102
RTVSPropertyOp8
 70
     1
102
RTVSPropertyOp9
 70
     1
102
RTVSPropertyOp10
 70
     1
102
RTVSPropertyOp11
 70
     1
102
RTVSPropertyOp12
 70
     1
102
RTVSPropertyOp13
 70
     1
102
RTVSPropertyOp14
 70
     1
102
RTVSPropertyOp15
 70
     1
102
RTVSPropertyOp16
 70
     1
102
RTVSPropertyOp17
 70
     1
102
RTVSPropertyOp18
 70
     1
102
RTVSPropertyOp19
 70
     1
102
RTVSPropertyOp20
 70
     1
102
RTVSPropertyOp21
 70
     1
102
RTVSPropertyOp22
 70
     1
102
RTVSPropertyOp23
 70
     1
102
RTVSPropertyOp24
 70
     1
102
RTVSPropertyOp25
 70
     1
102
RTVSPropertyOp26
 70
     1
102
RTVSPropertyOp27
 70
     1
102
RTVSPropertyOp28
 70
     1
102
RTVSPropertyOp29
 70
     1
102
RTVSPropertyOp30
 70
     1
102
RTVSPropertyOp31
 70
     1
102
RTVSPropertyOp32
 70
     1
102
RTVSPropertyOp33
 70
     1
102
RTVSPropertyOp34
 70
     1
102
RTVSPropertyOp35
 70
     1
102
RTVSPropertyOp36
 70
     1
102
RTVSPropertyOp37
 70
     1
102
RTVSPropertyOp38
 70
     1
102
RTVSPropertyOp39
 70
     1
102
RTVSPropertyOp40
 70
     1
102
RTVSPropertyOp41
 70
     1
102
RTVSPropertyOp42
 70
     1
102
RTVSPropertyOp43
 70
     1
102
RTVSPropertyOp44
 70
     1
102
RTVSPropertyOp45
 70
     1
102
RTVSPropertyOp46
 70
     1
102
RTVSPropertyOp47
 70
     1
102
RTVSPropertyOp48
 70
     1
102
RTVSPropertyOp49
 70
     1
102
RTVSPropertyOp50
 70
     1
102
RTVSPropertyOp51
 70
     0
102
RTVSPropertyOp52
 70
     0
102
RTVSPropertyOp53
 70
     1
102
RTVSPropertyOp54
 70
     1
102
RTVSPropertyOp55
 70
     1
102
RTVSPropertyOp56
 70
     1
102
RTVSPropertyOp57
 70
     1
102
RTVSPropertyOp58
 70
     1
102
RTVSPropertyOp59
 70
     1
102
RTVSPropertyOp60
 70
     1
102
RTVSPropertyOp61
 70
     1
102
RTVSPropertyOp62
 70
     1
  0
XRECORD
  5
327B
102
{ACAD_REACTORS
330
327A
102
}
330
327A
100
AcDbXrecord
280
     1
102
RTVSPost2010Prop28
280
     0
102
RTVSPost2010PropOp28
 70
     1
102
RTVSPost2010Prop29
280
     1
102
RTVSPost2010PropOp29
 70
     1
102
RTVSPost2010Prop30
280
     1
102
RTVSPost2010PropOp30
 70
     1
102
RTVSPost2010Prop31
280
     0
102
RTVSPost2010PropOp31
 70
     1
102
RTVSPost2010Prop32
280
     0
102
RTVSPost2010PropOp32
 70
     1
102
RTVSPost2010Prop33
280
     0
102
RTVSPost2010PropOp33
 70
     1
102
RTVSPost2010Prop34
280
     0
102
RTVSPost2010PropOp34
 70
     1
102
RTVSPost2010Prop35
280
     0
102
RTVSPost2010PropOp35
 70
     1
102
RTVSPost2010Prop36
280
     0
102
RTVSPost2010PropOp36
 70
     1
102
RTVSPost2010Prop37
 90
       50
102
RTVSPost2010PropOp37
 70
     1
102
RTVSPost2010Prop38
140
0.0
102
RTVSPost2010PropOp38
 70
     1
102
RTVSPost2010Prop39
140
1.0
102
RTVSPost2010PropOp39
 70
     1
102
RTVSPost2010Prop40
 90
        0
102
RTVSPost2010PropOp40
 70
     1
102
RTVSPost2010Prop41ColorIndex
 90
       18
102
RTVSPost2010Prop41ColorRGB
 90
        0
102
RTVSPost2010PropOp41
 70
     1
102
RTVSPost2010Prop42
 90
       50
102
RTVSPost2010PropOp42
 70
     1
102
RTVSPost2010Prop43
 90
        3
102
RTVSPost2010PropOp43
 70
     1
102
RTVSPost2010Prop44ColorIndex
 90
        5
102
RTVSPost2010Prop44ColorRGB
 90
      255
102
RTVSPost2010PropOp44
 70
     1
102
RTVSPost2010Prop45
280
     0
102
RTVSPost2010PropOp45
 70
     1
102
RTVSPost2010Prop46
 90
       50
102
RTVSPost2010PropOp46
 70
     1
102
RTVSPost2010Prop47
 90
       50
102
RTVSPost2010PropOp47
 70
     1
102
RTVSPost2010Prop48
 90
       50
102
RTVSPost2010PropOp48
 70
     1
102
RTVSPost2010Prop49
280
     0
102
RTVSPost2010PropOp49
 70
     1
102
RTVSPost2010Prop50
 90
       50
102
RTVSPost2010PropOp50
 70
     1
102
RTVSPost2010Prop51ColorIndex
 90
      256
102
RTVSPost2010Prop51ColorRGB
 90
-16777216
102
RTVSPost2010PropOp51
 70
     0
102
RTVSPost2010Prop52
140
1.0
102
RTVSPost2010PropOp52
 70
     0
102
RTVSPost2010Prop53
 90
        2
102
RTVSPost2010PropOp53
 70
     1
102
RTVSPost2010Prop54
  1
strokes_ogs.tif
102
RTVSPost2010PropOp54
 70
     1
102
RTVSPost2010Prop55
280
     0
102
RTVSPost2010PropOp55
 70
     1
102
RTVSPost2010Prop56
140
1.0
102
RTVSPost2010PropOp56
 70
     1
102
RTVSPost2010Prop57
140
1.0
102
RTVSPost2010PropOp57
 70
     1
102
RTVSPropertyOp0
 70
     1
102
RTVSPropertyOp1
 70
     1
102
RTVSPropertyOp2
 70
     1
102
RTVSPropertyOp3
 70
     1
102
RTVSPropertyOp4
 70
     1
102
RTVSPropertyOp5
 70
     1
102
RTVSPropertyOp6
 70
     1
102
RTVSPropertyOp7
 70
     1
102
RTVSPropertyOp8
 70
     1
102
RTVSPropertyOp9
 70
     1
102
RTVSPropertyOp10
 70
     1
102
RTVSPropertyOp11
 70
     1
102
RTVSPropertyOp12
 70
     1
102
RTVSPropertyOp13
 70
     1
102
RTVSPropertyOp14
 70
     1
102
RTVSPropertyOp15
 70
     1
102
RTVSPropertyOp16
 70
     1
102
RTVSPropertyOp17
 70
     1
102
RTVSPropertyOp18
 70
     1
102
RTVSPropertyOp19
 70
     1
102
RTVSPropertyOp20
 70
     1
102
RTVSPropertyOp21
 70
     1
102
RTVSPropertyOp22
 70
     1
102
RTVSPropertyOp23
 70
     1
102
RTVSPropertyOp24
 70
     1
102
RTVSPropertyOp25
 70
     1
102
RTVSPropertyOp26
 70
     1
102
RTVSPropertyOp27
 70
     1
102
RTVSPropertyOp28
 70
     1
102
RTVSPropertyOp29
 70
     1
102
RTVSPropertyOp30
 70
     1
102
RTVSPropertyOp31
 70
     1
102
RTVSPropertyOp32
 70
     1
102
RTVSPropertyOp33
 70
     1
102
RTVSPropertyOp34
 70
     1
102
RTVSPropertyOp35
 70
     1
102
RTVSPropertyOp36
 70
     1
102
RTVSPropertyOp37
 70
     1
102
RTVSPropertyOp38
 70
     1
102
RTVSPropertyOp39
 70
     1
102
RTVSPropertyOp40
 70
     1
102
RTVSPropertyOp41
 70
     1
102
RTVSPropertyOp42
 70
     1
102
RTVSPropertyOp43
 70
     1
102
RTVSPropertyOp44
 70
     1
102
RTVSPropertyOp45
 70
     1
102
RTVSPropertyOp46
 70
     1
102
RTVSPropertyOp47
 70
     1
102
RTVSPropertyOp48
 70
     1
102
RTVSPropertyOp49
 70
     1
102
RTVSPropertyOp50
 70
     1
102
RTVSPropertyOp51
 70
     0
102
RTVSPropertyOp52
 70
     0
102
RTVSPropertyOp53
 70
     1
102
RTVSPropertyOp54
 70
     1
102
RTVSPropertyOp55
 70
     1
102
RTVSPropertyOp56
 70
     1
102
RTVSPropertyOp57
 70
     1
102
RTVSPropertyOp58
 70
     1
102
RTVSPropertyOp59
 70
     1
102
RTVSPropertyOp60
 70
     1
102
RTVSPropertyOp61
 70
     1
102
RTVSPropertyOp62
 70
     1
  0
ENDSEC
  0
EOF
