  0
SECTION
  2
HEADER
  9
$ACADVER
  1
AC1015
  9
$ACADMAINTVER
 70
    20
  9
$DWGCODEPAGE
  3
ANSI_1252
  9
$INSBASE
 10
0.0
 20
0.0
 30
0.0
  9
$EXTMIN
 10
-88.64786667940832
 20
-26.80628346056051
 30
-0.0015258207003583
  9
$EXTMAX
 10
118.1226868694631
 20
28.00167263160424
 30
0.0000000349246037
  9
$LIMMIN
 10
0.0
 20
0.0
  9
$LIMMAX
 10
12.0
 20
9.0
  9
$ORTHOMODE
 70
     0
  9
$REGENMODE
 70
     1
  9
$FILLMODE
 70
     1
  9
$QTEXTMODE
 70
     0
  9
$MIRRTEXT
 70
     1
  9
$LTSCALE
 40
1.0
  9
$ATTMODE
 70
     1
  9
$TEXTSIZE
 40
3.0
  9
$TRACEWID
 40
10.0
  9
$TEXTSTYLE
  7
SANDVIK_STYLE
  9
$CLAYER
  8
SK2
  9
$CELTYPE
  6
ByLayer
  9
$CECOLOR
 62
   256
  9
$CELTSCALE
 40
1.0
  9
$DISPSILH
 70
     0
  9
$DIMSCALE
 40
0.0
  9
$DIMASZ
 40
4.57
  9
$DIMEXO
 40
0.0
  9
$DIMDLI
 40
0.38
  9
$DIMRND
 40
0.0
  9
$DIMDLE
 40
0.0
  9
$DIMEXE
 40
5.0
  9
$DIMTP
 40
0.0
  9
$DIMTM
 40
0.0
  9
$DIMTXT
 40
4.5
  9
$DIMCEN
 40
0.09
  9
$DIMTSZ
 40
0.0
  9
$DIMTOL
 70
     0
  9
$DIMLIM
 70
     0
  9
$DIMTIH
 70
     0
  9
$DIMTOH
 70
     0
  9
$DIMSE1
 70
     0
  9
$DIMSE2
 70
     0
  9
$DIMTAD
 70
     1
  9
$DIMZIN
 70
     8
  9
$DIMBLK
  1

  9
$DIMASO
 70
     1
  9
$DIMSHO
 70
     1
  9
$DIMPOST
  1
 
  9
$DIMAPOST
  1
 
  9
$DIMALT
 70
     0
  9
$DIMALTD
 70
     2
  9
$DIMALTF
 40
25.4
  9
$DIMLFAC
 40
1.0
  9
$DIMTOFL
 70
     0
  9
$DIMTVP
 40
0.0
  9
$DIMTIX
 70
     0
  9
$DIMSOXD
 70
     0
  9
$DIMSAH
 70
     0
  9
$DIMBLK1
  1

  9
$DIMBLK2
  1

  9
$DIMSTYLE
  2
SANDVIK_DIM
  9
$DIMCLRD
 70
   256
  9
$DIMCLRE
 70
   256
  9
$DIMCLRT
 70
   256
  9
$DIMTFAC
 40
1.0
  9
$DIMGAP
 40
2.299999999999998
  9
$DIMJUST
 70
     0
  9
$DIMSD1
 70
     0
  9
$DIMSD2
 70
     0
  9
$DIMTOLJ
 70
     1
  9
$DIMTZIN
 70
     0
  9
$DIMALTZ
 70
     0
  9
$DIMALTTZ
 70
     0
  9
$DIMUPT
 70
     0
  9
$DIMDEC
 70
     2
  9
$DIMTDEC
 70
     2
  9
$DIMALTU
 70
     2
  9
$DIMALTTD
 70
     2
  9
$DIMTXSTY
  7
SANDVIK_STYLE
  9
$DIMAUNIT
 70
     0
  9
$DIMADEC
 70
     0
  9
$DIMALTRND
 40
0.0
  9
$DIMAZIN
 70
     0
  9
$DIMDSEP
 70
    46
  9
$DIMATFIT
 70
     3
  9
$DIMFRAC
 70
     0
  9
$DIMLDRBLK
  1

  9
$DIMLUNIT
 70
     2
  9
$DIMLWD
 70
    -2
  9
$DIMLWE
 70
    -2
  9
$DIMTMOVE
 70
     2
  9
$LUNITS
 70
     2
  9
$LUPREC
 70
     2
  9
$SKETCHINC
 40
0.0
  9
$FILLETRAD
 40
0.0
  9
$AUNITS
 70
     0
  9
$AUPREC
 70
     2
  9
$MENU
  1
acad
  9
$ELEVATION
 40
0.0
  9
$PELEVATION
 40
0.0
  9
$THICKNESS
 40
0.0
  9
$LIMCHECK
 70
     0
  9
$CHAMFERA
 40
0.0
  9
$CHAMFERB
 40
0.0
  9
$CHAMFERC
 40
0.0
  9
$CHAMFERD
 40
0.0
  9
$SKPOLY
 70
     0
  9
$TDCREATE
 40
2455817.646292060
  9
$TDUCREATE
 40
2455817.562958727
  9
$TDUPDATE
 40
2456818.533974364
  9
$TDUUPDATE
 40
2456818.450641030
  9
$TDINDWG
 40
0.0922438079
  9
$TDUSRTIMER
 40
0.0922437500
  9
$USRTIMER
 70
     1
  9
$ANGBASE
 50
0.0
  9
$ANGDIR
 70
     0
  9
$PDMODE
 70
     0
  9
$PDSIZE
 40
0.0
  9
$PLINEWID
 40
0.0
  9
$SPLFRAME
 70
     0
  9
$SPLINETYPE
 70
     6
  9
$SPLINESEGS
 70
     8
  9
$HANDSEED
  5
310D
  9
$SURFTAB1
 70
     6
  9
$SURFTAB2
 70
     6
  9
$SURFTYPE
 70
     6
  9
$SURFU
 70
     6
  9
$SURFV
 70
     6
  9
$UCSBASE
  2

  9
$UCSNAME
  2

  9
$UCSORG
 10
0.0
 20
0.0
 30
0.0
  9
$UCSXDIR
 10
1.0
 20
0.0
 30
0.0
  9
$UCSYDIR
 10
0.0
 20
1.0
 30
0.0
  9
$UCSORTHOREF
  2

  9
$UCSORTHOVIEW
 70
     0
  9
$UCSORGTOP
 10
0.0
 20
0.0
 30
0.0
  9
$UCSORGBOTTOM
 10
0.0
 20
0.0
 30
0.0
  9
$UCSORGLEFT
 10
0.0
 20
0.0
 30
0.0
  9
$UCSORGRIGHT
 10
0.0
 20
0.0
 30
0.0
  9
$UCSORGFRONT
 10
0.0
 20
0.0
 30
0.0
  9
$UCSORGBACK
 10
0.0
 20
0.0
 30
0.0
  9
$PUCSBASE
  2

  9
$PUCSNAME
  2

  9
$PUCSORG
 10
0.0
 20
0.0
 30
0.0
  9
$PUCSXDIR
 10
1.0
 20
0.0
 30
0.0
  9
$PUCSYDIR
 10
0.0
 20
1.0
 30
0.0
  9
$PUCSORTHOREF
  2

  9
$PUCSORTHOVIEW
 70
     0
  9
$PUCSORGTOP
 10
0.0
 20
0.0
 30
0.0
  9
$PUCSORGBOTTOM
 10
0.0
 20
0.0
 30
0.0
  9
$PUCSORGLEFT
 10
0.0
 20
0.0
 30
0.0
  9
$PUCSORGRIGHT
 10
0.0
 20
0.0
 30
0.0
  9
$PUCSORGFRONT
 10
0.0
 20
0.0
 30
0.0
  9
$PUCSORGBACK
 10
0.0
 20
0.0
 30
0.0
  9
$USERI1
 70
     0
  9
$USERI2
 70
     0
  9
$USERI3
 70
     0
  9
$USERI4
 70
     0
  9
$USERI5
 70
     0
  9
$USERR1
 40
0.0
  9
$USERR2
 40
0.0
  9
$USERR3
 40
0.0
  9
$USERR4
 40
0.0
  9
$USERR5
 40
0.0
  9
$WORLDVIEW
 70
     1
  9
$SHADEDGE
 70
     3
  9
$SHADEDIF
 70
    70
  9
$TILEMODE
 70
     1
  9
$MAXACTVP
 70
    16
  9
$PINSBASE
 10
0.0
 20
0.0
 30
0.0
  9
$PLIMCHECK
 70
     0
  9
$PEXTMIN
 10
1.000000000000000E+20
 20
1.000000000000000E+20
 30
1.000000000000000E+20
  9
$PEXTMAX
 10
-1.000000000000000E+20
 20
-1.000000000000000E+20
 30
-1.000000000000000E+20
  9
$PLIMMIN
 10
0.0
 20
0.0
  9
$PLIMMAX
 10
12.0
 20
9.0
  9
$UNITMODE
 70
     0
  9
$VISRETAIN
 70
     0
  9
$PLINEGEN
 70
     0
  9
$PSLTSCALE
 70
     1
  9
$TREEDEPTH
 70
  3020
  9
$CMLSTYLE
  2
Standard
  9
$CMLJUST
 70
     0
  9
$CMLSCALE
 40
1.0
  9
$PROXYGRAPHICS
 70
     1
  9
$MEASUREMENT
 70
     0
  9
$CELWEIGHT
370
    -1
  9
$ENDCAPS
280
     0
  9
$JOINSTYLE
280
     0
  9
$LWDISPLAY
290
     0
  9
$INSUNITS
 70
     0
  9
$HYPERLINKBASE
  1

  9
$STYLESHEET
  1

  9
$XEDIT
290
     1
  9
$CEPSNTYPE
380
     0
  9
$PSTYLEMODE
290
     1
  9
$FINGERPRINTGUID
  2
{BC6BEBD7-5C89-4B2E-99DC-E3119A1637E9}
  9
$VERSIONGUID
  2
{33B1BEEF-05B5-4225-A02C-D567EB700B43}
  9
$EXTNAMES
290
     1
  9
$PSVPSCALE
 40
0.0
  9
$OLESTARTUP
290
     0
  0
ENDSEC
  0
SECTION
  2
CLASSES
  0
CLASS
  1
ACDBDICTIONARYWDFLT
  2
AcDbDictionaryWithDefault
  3
ObjectDBX Classes
 90
        0
280
     0
281
     0
  0
CLASS
  1
MATERIAL
  2
AcDbMaterial
  3
ObjectDBX Classes
 90
     1153
280
     0
281
     0
  0
CLASS
  1
VISUALSTYLE
  2
AcDbVisualStyle
  3
ObjectDBX Classes
 90
     4095
280
     0
281
     0
  0
CLASS
  1
TABLESTYLE
  2
AcDbTableStyle
  3
ObjectDBX Classes
 90
     4095
280
     0
281
     0
  0
CLASS
  1
SCALE
  2
AcDbScale
  3
ObjectDBX Classes
 90
     1153
280
     0
281
     0
  0
CLASS
  1
MLEADERSTYLE
  2
AcDbMLeaderStyle
  3
ACDB_MLEADERSTYLE_CLASS
 90
     4095
280
     0
281
     0
  0
CLASS
  1
ACDBSECTIONVIEWSTYLE
  2
AcDbSectionViewStyle
  3
ObjectDBX Classes
 90
     1025
280
     0
281
     0
  0
CLASS
  1
ACDBDETAILVIEWSTYLE
  2
AcDbDetailViewStyle
  3
ObjectDBX Classes
 90
     1025
280
     0
281
     0
  0
CLASS
  1
EXACXREFPANELOBJECT
  2
ExAcXREFPanelObject
  3
EXAC_ESW
 90
     1025
280
     0
281
     0
  0
CLASS
  1
NPOCOLLECTION
  2
AcDbImpNonPersistentObjectsCollection
  3
ObjectDBX Classes
 90
     1153
280
     0
281
     0
  0
CLASS
  1
DICTIONARYVAR
  2
AcDbDictionaryVar
  3
ObjectDBX Classes
 90
        0
280
     0
281
     0
  0
CLASS
  1
CELLSTYLEMAP
  2
AcDbCellStyleMap
  3
ObjectDBX Classes
 90
     1152
280
     0
281
     0
  0
CLASS
  1
ACDBPLACEHOLDER
  2
AcDbPlaceHolder
  3
ObjectDBX Classes
 90
        0
280
     0
281
     0
  0
CLASS
  1
LAYOUT
  2
AcDbLayout
  3
ObjectDBX Classes
 90
        0
280
     0
281
     0
  0
ENDSEC
  0
SECTION
  2
TABLES
  0
TABLE
  2
VPORT
  5
BDF
330
0
100
AcDbSymbolTable
 70
     1
  0
VPORT
  5
301F
330
BDF
100
AcDbSymbolTableRecord
100
AcDbViewportTableRecord
  2
*Active
 70
     0
 10
0.0
 20
0.0
 11
1.0
 21
1.0
 12
14.7374100950274
 22
0.5976945855218645
 13
0.0
 23
0.0
 14
1.0
 24
1.0
 15
0.0
 25
0.0
 16
0.0
 26
0.0
 36
1.0
 17
0.0
 27
0.0
 37
0.0
 40
104.7702518355525
 41
2.2
 42
50.0
 43
0.0
 44
0.0
 50
0.0
 51
0.0
 71
     0
 72
   100
 73
     1
 74
     1
 75
     0
 76
     0
 77
     0
 78
     0
281
     0
 65
     1
110
0.0
120
0.0
130
0.0
111
1.0
121
0.0
131
0.0
112
0.0
122
1.0
132
0.0
 79
     0
146
0.0
1001
ACAD_NAV_VCDISPLAY
1070
     3
  0
ENDTAB
  0
TABLE
  2
LTYPE
  5
BDC
330
0
100
AcDbSymbolTable
 70
     4
  0
LTYPE
  5
BEA
330
BDC
100
AcDbSymbolTableRecord
100
AcDbLinetypeTableRecord
  2
ByBlock
 70
     0
  3

 72
    65
 73
     0
 40
0.0
  0
LTYPE
  5
BEB
330
BDC
100
AcDbSymbolTableRecord
100
AcDbLinetypeTableRecord
  2
ByLayer
 70
     0
  3

 72
    65
 73
     0
 40
0.0
  0
LTYPE
  5
BEC
330
BDC
100
AcDbSymbolTableRecord
100
AcDbLinetypeTableRecord
  2
CONTINUOUS
 70
     0
  3
Solid line
 72
    65
 73
     0
 40
0.0
  0
LTYPE
  5
BFE
330
BDC
100
AcDbSymbolTableRecord
100
AcDbLinetypeTableRecord
  2
CENTER
 70
     0
  3
____ _ ____ _ ____ _ ____ _ ____ _ ____ _ ____
 72
    65
 73
     4
 40
5.059897
 49
3.162434999999998
 74
     0
 49
-0.6324870000000003
 74
     0
 49
0.6324870000000003
 74
     0
 49
-0.6324870000000003
 74
     0
  0
LTYPE
  5
BFF
330
BDC
100
AcDbSymbolTableRecord
100
AcDbLinetypeTableRecord
  2
DASHED
 70
     0
  3
__ __ __ __ __ __ __ __ __ __ __ __ __ __ __ __
 72
    65
 73
     2
 40
7.589844999999997
 49
5.059897
 74
     0
 49
-2.529948
 74
     0
  0
LTYPE
  5
306B
330
BDC
100
AcDbSymbolTableRecord
100
AcDbLinetypeTableRecord
  2
PHANTOM2
 70
     0
  3
Phantom (.5x) ___ _ _ ___ _ _ ___ _ _ ___ _ _
 72
    65
 73
     6
 40
1.25
 49
0.625
 74
     0
 49
-0.125
 74
     0
 49
0.125
 74
     0
 49
-0.125
 74
     0
 49
0.125
 74
     0
 49
-0.125
 74
     0
  0
ENDTAB
  0
TABLE
  2
LAYER
  5
BD9
330
0
100
AcDbSymbolTable
 70
    40
  0
LAYER
  5
BE7
102
{ACAD_XDICTIONARY
360
3073
102
}
330
BD9
100
AcDbSymbolTableRecord
100
AcDbLayerTableRecord
  2
0
 70
     0
 62
     7
  6
CONTINUOUS
370
    -3
390
BE6
  0
LAYER
  5
BFB
102
{ACAD_XDICTIONARY
360
3075
102
}
330
BD9
100
AcDbSymbolTableRecord
100
AcDbLayerTableRecord
  2
3
 70
     0
 62
     1
  6
DASHED
370
    -3
390
BE6
  0
LAYER
  5
C00
102
{ACAD_XDICTIONARY
360
3077
102
}
330
BD9
100
AcDbSymbolTableRecord
100
AcDbLayerTableRecord
  2
1
 70
     0
 62
     4
  6
CONTINUOUS
370
    -3
390
BE6
  0
LAYER
  5
C01
102
{ACAD_XDICTIONARY
360
3079
102
}
330
BD9
100
AcDbSymbolTableRecord
100
AcDbLayerTableRecord
  2
61
 70
     0
 62
     5
  6
CONTINUOUS
370
    -3
390
BE6
  0
LAYER
  5
C02
102
{ACAD_XDICTIONARY
360
307B
102
}
330
BD9
100
AcDbSymbolTableRecord
100
AcDbLayerTableRecord
  2
62
 70
     0
 62
    -5
  6
CONTINUOUS
370
    -3
390
BE6
  0
LAYER
  5
C03
102
{ACAD_XDICTIONARY
360
307D
102
}
330
BD9
100
AcDbSymbolTableRecord
100
AcDbLayerTableRecord
  2
63
 70
     0
 62
    -5
  6
CONTINUOUS
370
    -3
390
BE6
  0
LAYER
  5
C04
102
{ACAD_XDICTIONARY
360
307F
102
}
330
BD9
100
AcDbSymbolTableRecord
100
AcDbLayerTableRecord
  2
64
 70
     0
 62
    -5
  6
CONTINUOUS
370
    -3
390
BE6
  0
LAYER
  5
C05
102
{ACAD_XDICTIONARY
360
3081
102
}
330
BD9
100
AcDbSymbolTableRecord
100
AcDbLayerTableRecord
  2
65
 70
     0
 62
    -5
  6
CONTINUOUS
370
    -3
390
BE6
  0
LAYER
  5
C06
102
{ACAD_XDICTIONARY
360
3083
102
}
330
BD9
100
AcDbSymbolTableRecord
100
AcDbLayerTableRecord
  2
66
 70
     0
 62
    -5
  6
CONTINUOUS
370
    -3
390
BE6
  0
LAYER
  5
C07
102
{ACAD_XDICTIONARY
360
3085
102
}
330
BD9
100
AcDbSymbolTableRecord
100
AcDbLayerTableRecord
  2
67
 70
     0
 62
    -5
  6
CONTINUOUS
370
    -3
390
BE6
  0
LAYER
  5
C08
102
{ACAD_XDICTIONARY
360
3087
102
}
330
BD9
100
AcDbSymbolTableRecord
100
AcDbLayerTableRecord
  2
68
 70
     0
 62
    -5
  6
CONTINUOUS
370
    -3
390
BE6
  0
LAYER
  5
C09
102
{ACAD_XDICTIONARY
360
3089
102
}
330
BD9
100
AcDbSymbolTableRecord
100
AcDbLayerTableRecord
  2
69
 70
     0
 62
    -5
  6
CONTINUOUS
370
    -3
390
BE6
  0
LAYER
  5
C0A
102
{ACAD_XDICTIONARY
360
308B
102
}
330
BD9
100
AcDbSymbolTableRecord
100
AcDbLayerTableRecord
  2
70
 70
     0
 62
     5
  6
CONTINUOUS
370
    -3
390
BE6
  0
LAYER
  5
C0B
102
{ACAD_XDICTIONARY
360
308D
102
}
330
BD9
100
AcDbSymbolTableRecord
100
AcDbLayerTableRecord
  2
2
 70
     0
 62
     7
  6
CONTINUOUS
370
    -3
390
BE6
  0
LAYER
  5
C0C
102
{ACAD_XDICTIONARY
360
308F
102
}
330
BD9
100
AcDbSymbolTableRecord
100
AcDbLayerTableRecord
  2
4
 70
     0
 62
    -2
  6
CENTER
370
    -3
390
BE6
  0
LAYER
  5
C0D
102
{ACAD_XDICTIONARY
360
3091
102
}
330
BD9
100
AcDbSymbolTableRecord
100
AcDbLayerTableRecord
  2
5
 70
     0
 62
    -7
  6
CONTINUOUS
370
    -3
390
BE6
  0
LAYER
  5
C0E
102
{ACAD_XDICTIONARY
360
3093
102
}
330
BD9
100
AcDbSymbolTableRecord
100
AcDbLayerTableRecord
  2
SK1
 70
     0
 62
     4
  6
CONTINUOUS
370
    -3
390
BE6
  0
LAYER
  5
C0F
102
{ACAD_XDICTIONARY
360
3095
102
}
330
BD9
100
AcDbSymbolTableRecord
100
AcDbLayerTableRecord
  2
6
 70
     0
 62
     5
  6
CONTINUOUS
370
    -3
390
BE6
  0
LAYER
  5
C10
102
{ACAD_XDICTIONARY
360
3097
102
}
330
BD9
100
AcDbSymbolTableRecord
100
AcDbLayerTableRecord
  2
SK2
 70
     0
 62
     7
  6
CONTINUOUS
370
    -3
390
BE6
  0
LAYER
  5
C11
102
{ACAD_XDICTIONARY
360
3099
102
}
330
BD9
100
AcDbSymbolTableRecord
100
AcDbLayerTableRecord
  2
SK3
 70
     0
 62
     1
  6
DASHED
370
    -3
390
BE6
  0
LAYER
  5
C12
102
{ACAD_XDICTIONARY
360
309B
102
}
330
BD9
100
AcDbSymbolTableRecord
100
AcDbLayerTableRecord
  2
SK4
 70
     0
 62
     2
  6
CENTER
370
    -3
390
BE6
  0
LAYER
  5
C13
102
{ACAD_XDICTIONARY
360
309D
102
}
330
BD9
100
AcDbSymbolTableRecord
100
AcDbLayerTableRecord
  2
CUT
 70
     0
 62
     1
  6
CONTINUOUS
370
    -3
390
BE6
  0
LAYER
  5
C14
102
{ACAD_XDICTIONARY
360
309F
102
}
330
BD9
100
AcDbSymbolTableRecord
100
AcDbLayerTableRecord
  2
SK6
 70
     0
 62
     5
  6
CONTINUOUS
370
    -3
390
BE6
  0
LAYER
  5
C15
102
{ACAD_XDICTIONARY
360
30A1
102
}
330
BD9
100
AcDbSymbolTableRecord
100
AcDbLayerTableRecord
  2
80
 70
     0
 62
    -2
  6
CENTER
370
    -3
390
BE6
  0
LAYER
  5
C16
102
{ACAD_XDICTIONARY
360
30A3
102
}
330
BD9
100
AcDbSymbolTableRecord
100
AcDbLayerTableRecord
  2
81
 70
     0
 62
    -2
  6
CENTER
370
    -3
390
BE6
  0
LAYER
  5
C17
102
{ACAD_XDICTIONARY
360
30A5
102
}
330
BD9
100
AcDbSymbolTableRecord
100
AcDbLayerTableRecord
  2
82
 70
     0
 62
    -2
  6
CENTER
370
    -3
390
BE6
  0
LAYER
  5
C18
102
{ACAD_XDICTIONARY
360
30A7
102
}
330
BD9
100
AcDbSymbolTableRecord
100
AcDbLayerTableRecord
  2
NOCUT
 70
     0
 62
     7
  6
CONTINUOUS
370
    -3
390
BE6
  0
LAYER
  5
C19
102
{ACAD_XDICTIONARY
360
30A9
102
}
330
BD9
100
AcDbSymbolTableRecord
100
AcDbLayerTableRecord
  2
50
 70
     0
 62
    -7
  6
CONTINUOUS
370
    -3
390
BE6
  0
LAYER
  5
C1A
102
{ACAD_XDICTIONARY
360
30AB
102
}
330
BD9
100
AcDbSymbolTableRecord
100
AcDbLayerTableRecord
  2
51
 70
     0
 62
     7
  6
CONTINUOUS
370
    -3
390
BE6
  0
LAYER
  5
C1B
102
{ACAD_XDICTIONARY
360
30AD
102
}
330
BD9
100
AcDbSymbolTableRecord
100
AcDbLayerTableRecord
  2
52
 70
     0
 62
    -7
  6
CONTINUOUS
370
    -3
390
BE6
  0
LAYER
  5
C1C
102
{ACAD_XDICTIONARY
360
30AF
102
}
330
BD9
100
AcDbSymbolTableRecord
100
AcDbLayerTableRecord
  2
53
 70
     0
 62
    -7
  6
CONTINUOUS
370
    -3
390
BE6
  0
LAYER
  5
C1D
102
{ACAD_XDICTIONARY
360
30B1
102
}
330
BD9
100
AcDbSymbolTableRecord
100
AcDbLayerTableRecord
  2
54
 70
     0
 62
    -7
  6
CONTINUOUS
370
    -3
390
BE6
  0
LAYER
  5
C1E
102
{ACAD_XDICTIONARY
360
30B3
102
}
330
BD9
100
AcDbSymbolTableRecord
100
AcDbLayerTableRecord
  2
55
 70
     0
 62
    -7
  6
CONTINUOUS
370
    -3
390
BE6
  0
LAYER
  5
C1F
102
{ACAD_XDICTIONARY
360
30B5
102
}
330
BD9
100
AcDbSymbolTableRecord
100
AcDbLayerTableRecord
  2
56
 70
     0
 62
    -7
  6
CONTINUOUS
370
    -3
390
BE6
  0
LAYER
  5
C20
102
{ACAD_XDICTIONARY
360
30B7
102
}
330
BD9
100
AcDbSymbolTableRecord
100
AcDbLayerTableRecord
  2
57
 70
     0
 62
    -7
  6
CONTINUOUS
370
    -3
390
BE6
  0
LAYER
  5
C21
102
{ACAD_XDICTIONARY
360
30B9
102
}
330
BD9
100
AcDbSymbolTableRecord
100
AcDbLayerTableRecord
  2
58
 70
     0
 62
    -7
  6
CONTINUOUS
370
    -3
390
BE6
  0
LAYER
  5
C22
102
{ACAD_XDICTIONARY
360
30BB
102
}
330
BD9
100
AcDbSymbolTableRecord
100
AcDbLayerTableRecord
  2
2L
 70
     0
 62
     7
  6
CONTINUOUS
370
    -3
390
BE6
  0
LAYER
  5
C23
102
{ACAD_XDICTIONARY
360
30BD
102
}
330
BD9
100
AcDbSymbolTableRecord
100
AcDbLayerTableRecord
  2
59
 70
     0
 62
    -7
  6
CONTINUOUS
370
    -3
390
BE6
  0
LAYER
  5
C24
330
BD9
100
AcDbSymbolTableRecord
100
AcDbLayerTableRecord
  2
DEFPOINTS
 70
     0
 62
     7
  6
CONTINUOUS
290
     0
370
    -3
390
BE6
  0
LAYER
  5
C42
102
{ACAD_XDICTIONARY
360
30BF
102
}
330
BD9
100
AcDbSymbolTableRecord
100
AcDbLayerTableRecord
  2
TFR-TRI
 70
     0
 62
     7
  6
CONTINUOUS
370
    -3
390
BE6
  0
ENDTAB
  0
TABLE
  2
STYLE
  5
BDA
330
0
100
AcDbSymbolTable
 70
     2
  0
STYLE
  5
BE8
330
BDA
100
AcDbSymbolTableRecord
100
AcDbTextStyleTableRecord
  2
STANDARD
 70
     0
 40
0.0
 41
1.0
 50
0.0
 71
     0
 42
4.5
  3
simplex.shx
  4

  0
STYLE
  5
BFC
330
BDA
100
AcDbSymbolTableRecord
100
AcDbTextStyleTableRecord
  2
SANDVIK_STYLE
 70
     0
 40
3.0
 41
1.0
 50
0.0
 71
     0
 42
3.0
  3
simplex.shx
  4

  0
ENDTAB
  0
TABLE
  2
VIEW
  5
BDD
330
0
100
AcDbSymbolTable
 70
     0
  0
ENDTAB
  0
TABLE
  2
UCS
  5
BDE
330
0
100
AcDbSymbolTable
 70
     0
  0
ENDTAB
  0
TABLE
  2
APPID
  5
BE0
330
0
100
AcDbSymbolTable
 70
     4
  0
APPID
  5
BE9
330
BE0
100
AcDbSymbolTableRecord
100
AcDbRegAppTableRecord
  2
ACAD
 70
     0
  0
APPID
  5
30C3
330
BE0
100
AcDbSymbolTableRecord
100
AcDbRegAppTableRecord
  2
DCO15
 70
     0
  0
APPID
  5
30CF
330
BE0
100
AcDbSymbolTableRecord
100
AcDbRegAppTableRecord
  2
ACAD_NAV_VCDISPLAY
 70
     0
  0
APPID
  5
310C
330
BE0
100
AcDbSymbolTableRecord
100
AcDbRegAppTableRecord
  2
ACAD_MLEADERVER
 70
     0
  0
ENDTAB
  0
TABLE
  2
DIMSTYLE
  5
BE1
330
0
100
AcDbSymbolTable
 70
     2
100
AcDbDimStyleTable
 71
     1
340
C26
  0
DIMSTYLE
105
C25
330
BE1
100
AcDbSymbolTableRecord
100
AcDbDimStyleTableRecord
  2
STANDARD
 70
     0
  3
 
  4
 
 41
3.0
 42
2.5
 43
10.0
 44
2.5
 46
1.25
 73
     0
 74
     0
140
3.0
141
-3.0
143
0.039
145
1.5
146
0.75
147
1.5
271
     2
272
     2
279
     2
340
BFC
  0
DIMSTYLE
105
C26
102
{ACAD_REACTORS
330
2F56
330
2F64
330
2F90
330
2F9D
330
2FAA
330
2FB7
330
2FC4
102
}
330
BE1
100
AcDbSymbolTableRecord
100
AcDbDimStyleTableRecord
  2
SANDVIK_DIM
 70
     0
  3
 
  4
 
 40
0.0
 41
4.57
 42
0.0
 44
5.0
 73
     0
 74
     0
 77
     1
 78
     8
140
4.5
147
2.299999999999998
176
   256
177
   256
178
   256
271
     2
272
     2
279
     2
340
BFC
  0
ENDTAB
  0
TABLE
  2
BLOCK_RECORD
  5
BD8
330
0
100
AcDbSymbolTable
 70
     9
  0
BLOCK_RECORD
  5
BF7
330
BD8
100
AcDbSymbolTableRecord
100
AcDbBlockTableRecord
  2
*Model_Space
340
BFA
  0
BLOCK_RECORD
  5
BF3
330
BD8
100
AcDbSymbolTableRecord
100
AcDbBlockTableRecord
  2
*Paper_Space
340
BF6
  0
BLOCK_RECORD
  5
C28
330
BD8
100
AcDbSymbolTableRecord
100
AcDbBlockTableRecord
  2
$MODEL_SPACE
340
0
  0
BLOCK_RECORD
  5
C2A
330
BD8
100
AcDbSymbolTableRecord
100
AcDbBlockTableRecord
  2
$PAPER_SPACE
340
0
  0
BLOCK_RECORD
  5
2F57
330
BD8
100
AcDbSymbolTableRecord
100
AcDbBlockTableRecord
  2
*D2
340
0
  0
BLOCK_RECORD
  5
2F65
330
BD8
100
AcDbSymbolTableRecord
100
AcDbBlockTableRecord
  2
*D3
340
0
  0
BLOCK_RECORD
  5
2F91
330
BD8
100
AcDbSymbolTableRecord
100
AcDbBlockTableRecord
  2
*D4
340
0
  0
BLOCK_RECORD
  5
2F9E
330
BD8
100
AcDbSymbolTableRecord
100
AcDbBlockTableRecord
  2
*D5
340
0
  0
BLOCK_RECORD
  5
2FAB
330
BD8
100
AcDbSymbolTableRecord
100
AcDbBlockTableRecord
  2
*D6
340
0
  0
BLOCK_RECORD
  5
2FB8
330
BD8
100
AcDbSymbolTableRecord
100
AcDbBlockTableRecord
  2
*D7
340
0
  0
BLOCK_RECORD
  5
2FC5
330
BD8
100
AcDbSymbolTableRecord
100
AcDbBlockTableRecord
  2
*D8
340
0
  0
ENDTAB
  0
ENDSEC
  0
SECTION
  2
BLOCKS
  0
BLOCK
  5
BF8
330
BF7
100
AcDbEntity
  8
0
100
AcDbBlockBegin
  2
*Model_Space
 70
     0
 10
0.0
 20
0.0
 30
0.0
  3
*Model_Space
  1

  0
ENDBLK
  5
BF9
330
BF7
100
AcDbEntity
  8
0
100
AcDbBlockEnd
  0
BLOCK
  5
BF4
330
BF3
100
AcDbEntity
 67
     1
  8
0
100
AcDbBlockBegin
  2
*Paper_Space
 70
     0
 10
0.0
 20
0.0
 30
0.0
  3
*Paper_Space
  1

  0
ENDBLK
  5
BF5
330
BF3
100
AcDbEntity
 67
     1
  8
0
100
AcDbBlockEnd
  0
BLOCK
  5
C29
330
C28
100
AcDbEntity
  8
0
100
AcDbBlockBegin
  2
$MODEL_SPACE
 70
     0
 10
0.0
 20
0.0
 30
0.0
  3
$MODEL_SPACE
  1

  0
ENDBLK
  5
AEF
330
C28
100
AcDbEntity
  8
0
100
AcDbBlockEnd
  0
BLOCK
  5
C2B
330
C2A
100
AcDbEntity
  8
0
100
AcDbBlockBegin
  2
$PAPER_SPACE
 70
     0
 10
0.0
 20
0.0
 30
0.0
  3
$PAPER_SPACE
  1

  0
ENDBLK
  5
AEB
330
C2A
100
AcDbEntity
  8
0
100
AcDbBlockEnd
  0
BLOCK
  5
2F62
330
2F57
100
AcDbEntity
  8
0
100
AcDbBlockBegin
  2
*D2
 70
     1
 10
0.0
 20
0.0
 30
0.0
  3
*D2
  1

  0
LINE
  5
2FE5
330
2F57
100
AcDbEntity
  8
SK2
370
    -2
100
AcDbLine
 10
-35.35048199999999
 20
3.000001000000001
 30
0.0
 11
-45.02672280209618
 21
3.000001000000002
 31
0.0
  0
LINE
  5
2FE6
330
2F57
100
AcDbEntity
  8
SK2
370
    -2
100
AcDbLine
 10
-35.35048199999999
 20
-3.000001000000001
 30
0.0
 11
-45.02672280209618
 21
-3.000000999999998
 31
0.0
  0
LINE
  5
2FE7
330
2F57
100
AcDbEntity
  8
SK2
370
    -2
100
AcDbLine
 10
-40.02672280209618
 20
7.570001000000002
 30
0.0
 11
-40.02672280209618
 21
12.140001
 31
0.0
  0
LINE
  5
2FE8
330
2F57
100
AcDbEntity
  8
SK2
370
    -2
100
AcDbLine
 10
-40.02672280209618
 20
-7.570000999999998
 30
0.0
 11
-40.02672280209618
 21
-12.140001
 31
0.0
  0
MTEXT
  5
2FE9
330
2F57
100
AcDbEntity
  8
SK2
100
AcDbMText
 10
-39.85015839851451
 20
-16.58200029090278
 30
0.0
 40
3.0
 41
0.0
 71
     5
 72
     1
  1
\A1;%%C 6 
  7
SANDVIK_STYLE
 11
0.0000000000000001
 21
1.0
 31
0.0
 73
     1
 44
1.0
1001
ACAD
1000
MTEXTBEGIN
1070
    73
1070
     1
1070
    44
1040
1.0
1070
    74
1070
     0
1000
MTEXTEND
  0
SOLID
  5
2FEA
330
2F57
100
AcDbEntity
  8
SK2
100
AcDbTrace
 10
-40.78838946876286
 20
7.570001000000002
 30
0.0
 11
-39.26505613542953
 21
7.570001000000002
 31
0.0
 12
-40.02672280209618
 22
3.000001000000001
 32
0.0
 13
-40.02672280209618
 23
3.000001000000001
 33
0.0
  0
SOLID
  5
2FEB
330
2F57
100
AcDbEntity
  8
SK2
100
AcDbTrace
 10
-40.78838946876286
 20
-7.570000999999998
 30
0.0
 11
-39.26505613542953
 21
-7.570000999999998
 31
0.0
 12
-40.02672280209618
 22
-3.000000999999998
 32
0.0
 13
-40.02672280209618
 23
-3.000000999999998
 33
0.0
  0
POINT
  5
2FEC
330
2F57
100
AcDbEntity
  8
DEFPOINTS
 62
     0
100
AcDbPoint
 10
-35.35048199999999
 20
3.000001000000001
 30
0.0
  0
POINT
  5
2FED
330
2F57
100
AcDbEntity
  8
DEFPOINTS
 62
     0
100
AcDbPoint
 10
-35.35048199999999
 20
-3.000001000000001
 30
0.0
  0
POINT
  5
2FEE
330
2F57
100
AcDbEntity
  8
DEFPOINTS
 62
     0
100
AcDbPoint
 10
-40.02672280209618
 20
-3.000000999999998
 30
0.0
  0
ENDBLK
  5
2F63
330
2F57
100
AcDbEntity
  8
0
100
AcDbBlockEnd
  0
BLOCK
  5
2F70
330
2F65
100
AcDbEntity
  8
0
100
AcDbBlockBegin
  2
*D3
 70
     1
 10
0.0
 20
0.0
 30
0.0
  3
*D3
  1

  0
LINE
  5
3003
330
2F65
100
AcDbEntity
  8
2
370
    -2
100
AcDbLine
 10
109.1031104445683
 20
-2.249999999999999
 30
0.0
 11
118.1179850582202
 21
-2.25
 31
0.0
  0
LINE
  5
3004
330
2F65
100
AcDbEntity
  8
2
370
    -2
100
AcDbLine
 10
109.0201038386559
 20
2.25
 30
0.0
 11
118.1179850582202
 21
2.249999999999997
 31
0.0
  0
LINE
  5
3005
330
2F65
100
AcDbEntity
  8
2
370
    -2
100
AcDbLine
 10
113.1179850582202
 20
-6.82
 30
0.0
 11
113.1179850582202
 21
-11.39
 31
0.0
  0
LINE
  5
3006
330
2F65
100
AcDbEntity
  8
2
370
    -2
100
AcDbLine
 10
113.1179850582202
 20
6.82
 30
0.0
 11
113.1179850582202
 21
11.39
 31
0.0
  0
MTEXT
  5
3007
330
2F65
100
AcDbEntity
  8
2
100
AcDbMText
 10
112.9503074809711
 20
-18.09045565515855
 30
0.0
 40
3.0
 41
0.0
 71
     5
 72
     1
  1
\A1;%%C 4.5 
  7
SANDVIK_STYLE
 11
0.0000000000000001
 21
1.0
 31
0.0
 73
     1
 44
1.0
1001
ACAD
1000
MTEXTBEGIN
1070
    73
1070
     1
1070
    44
1040
1.0
1070
    74
1070
     0
1000
MTEXTEND
  0
SOLID
  5
3008
330
2F65
100
AcDbEntity
  8
2
100
AcDbTrace
 10
112.3563183915535
 20
-6.82
 30
0.0
 11
113.8796517248868
 21
-6.82
 31
0.0
 12
113.1179850582202
 22
-2.25
 32
0.0
 13
113.1179850582202
 23
-2.25
 33
0.0
  0
SOLID
  5
3009
330
2F65
100
AcDbEntity
  8
2
100
AcDbTrace
 10
112.3563183915535
 20
6.82
 30
0.0
 11
113.8796517248868
 21
6.82
 31
0.0
 12
113.1179850582202
 22
2.249999999999999
 32
0.0
 13
113.1179850582202
 23
2.249999999999999
 33
0.0
  0
POINT
  5
300A
330
2F65
100
AcDbEntity
  8
DEFPOINTS
 62
     0
100
AcDbPoint
 10
109.1031104445683
 20
-2.249999999999999
 30
0.0
  0
POINT
  5
300B
330
2F65
100
AcDbEntity
  8
DEFPOINTS
 62
     0
100
AcDbPoint
 10
109.0201038386559
 20
2.25
 30
0.0
  0
POINT
  5
300C
330
2F65
100
AcDbEntity
  8
DEFPOINTS
 62
     0
100
AcDbPoint
 10
113.1179850582202
 20
2.249999999999999
 30
0.0
  0
ENDBLK
  5
2F71
330
2F65
100
AcDbEntity
  8
0
100
AcDbBlockEnd
  0
BLOCK
  5
2F9B
330
2F91
100
AcDbEntity
  8
0
100
AcDbBlockBegin
  2
*D4
 70
     1
 10
0.0
 20
0.0
 30
0.0
  3
*D4
  1

  0
LINE
  5
2F92
330
2F91
100
AcDbEntity
  8
SK2
370
    -2
100
AcDbLine
 10
109.155787
 20
2.25
 30
0.0
 11
109.155787
 21
10.78456408768909
 31
0.0
  0
LINE
  5
2F93
330
2F91
100
AcDbEntity
  8
SK2
370
    -2
100
AcDbLine
 10
19.155787
 20
2.250000000000019
 30
0.0
 11
19.155787
 21
10.78456408768909
 31
0.0
  0
LINE
  5
2F94
330
2F91
100
AcDbEntity
  8
SK2
370
    -2
100
AcDbLine
 10
104.585787
 20
5.784564087689091
 30
0.0
 11
23.725787
 21
5.784564087689091
 31
0.0
  0
SOLID
  5
2F95
330
2F91
100
AcDbEntity
  8
SK2
100
AcDbTrace
 10
104.585787
 20
6.546230754355756
 30
0.0
 11
104.585787
 21
5.022897421022424
 31
0.0
 12
109.155787
 22
5.784564087689091
 32
0.0
 13
109.155787
 23
5.784564087689091
 33
0.0
  0
SOLID
  5
2F96
330
2F91
100
AcDbEntity
  8
SK2
100
AcDbTrace
 10
23.725787
 20
6.546230754355756
 30
0.0
 11
23.725787
 21
5.022897421022424
 31
0.0
 12
19.155787
 22
5.784564087689091
 32
0.0
 13
19.155787
 23
5.784564087689091
 33
0.0
  0
MTEXT
  5
2F97
330
2F91
100
AcDbEntity
  8
SK2
100
AcDbMText
 10
64.15578700000001
 20
9.58456408768909
 30
0.0
 40
3.0
 41
0.0
 71
     5
 72
     1
  1
\A1;90 
  7
SANDVIK_STYLE
 73
     1
 44
1.0
1001
ACAD
1000
MTEXTBEGIN
1070
    73
1070
     1
1070
    44
1040
1.0
1070
    74
1070
     0
1000
MTEXTEND
  0
POINT
  5
2F98
330
2F91
100
AcDbEntity
  8
DEFPOINTS
 62
     0
100
AcDbPoint
 10
109.155787
 20
2.25
 30
0.0
  0
POINT
  5
2F99
330
2F91
100
AcDbEntity
  8
DEFPOINTS
 62
     0
100
AcDbPoint
 10
19.155787
 20
2.250000000000019
 30
0.0
  0
POINT
  5
2F9A
330
2F91
100
AcDbEntity
  8
DEFPOINTS
 62
     0
100
AcDbPoint
 10
19.155787
 20
5.784564087689091
 30
0.0
  0
ENDBLK
  5
2F9C
330
2F91
100
AcDbEntity
  8
0
100
AcDbBlockEnd
  0
BLOCK
  5
2FA8
330
2F9E
100
AcDbEntity
  8
0
100
AcDbBlockBegin
  2
*D5
 70
     1
 10
0.0
 20
0.0
 30
0.0
  3
*D5
  1

  0
LINE
  5
300D
330
2F9E
100
AcDbEntity
  8
2
370
    -2
100
AcDbLine
 10
109.99997
 20
-0.0000000000000018
 30
0.0
 11
109.99997
 21
-13.46389948030412
 31
0.0
  0
LINE
  5
300E
330
2F9E
100
AcDbEntity
  8
2
370
    -2
100
AcDbLine
 10
5.997696000000003
 20
-2.142346499999999
 30
0.0
 11
5.997696000000002
 21
-13.46389948030412
 31
0.0
  0
LINE
  5
300F
330
2F9E
100
AcDbEntity
  8
2
370
    -2
100
AcDbLine
 10
105.42997
 20
-8.463899480304121
 30
0.0
 11
10.567696
 21
-8.463899480304121
 31
0.0
  0
SOLID
  5
3010
330
2F9E
100
AcDbEntity
  8
2
100
AcDbTrace
 10
105.42997
 20
-7.702232813637454
 30
0.0
 11
105.42997
 21
-9.225566146970786
 31
0.0
 12
109.99997
 22
-8.463899480304121
 32
0.0
 13
109.99997
 23
-8.463899480304121
 33
0.0
  0
SOLID
  5
3011
330
2F9E
100
AcDbEntity
  8
2
100
AcDbTrace
 10
10.567696
 20
-7.702232813637454
 30
0.0
 11
10.567696
 21
-9.225566146970786
 31
0.0
 12
5.997696000000003
 22
-8.463899480304121
 32
0.0
 13
5.997696000000003
 23
-8.463899480304121
 33
0.0
  0
MTEXT
  5
3012
330
2F9E
100
AcDbEntity
  8
2
100
AcDbMText
 10
57.99883300000001
 20
-4.663899480304121
 30
0.0
 40
3.0
 41
0.0
 71
     5
 72
     1
  1
\A1;104 
  7
SANDVIK_STYLE
 73
     1
 44
1.0
1001
ACAD
1000
MTEXTBEGIN
1070
    73
1070
     1
1070
    44
1040
1.0
1070
    74
1070
     0
1000
MTEXTEND
  0
POINT
  5
3013
330
2F9E
100
AcDbEntity
  8
DEFPOINTS
 62
     0
100
AcDbPoint
 10
109.99997
 20
-0.0000000000000018
 30
0.0
  0
POINT
  5
3014
330
2F9E
100
AcDbEntity
  8
DEFPOINTS
 62
     0
100
AcDbPoint
 10
5.997696000000003
 20
-2.142346499999999
 30
0.0
  0
POINT
  5
3015
330
2F9E
100
AcDbEntity
  8
DEFPOINTS
 62
     0
100
AcDbPoint
 10
5.997696000000003
 20
-8.463899480304121
 30
0.0
  0
ENDBLK
  5
2FA9
330
2F9E
100
AcDbEntity
  8
0
100
AcDbBlockEnd
  0
BLOCK
  5
2FB5
330
2FAB
100
AcDbEntity
  8
0
100
AcDbBlockBegin
  2
*D6
 70
     1
 10
0.0
 20
0.0
 30
0.0
  3
*D6
  1

  0
LINE
  5
3016
330
2FAB
100
AcDbEntity
  8
2
370
    -2
100
AcDbLine
 10
0.0
 20
-3.000001000000001
 30
0.0
 11
-0.000000000000001
 21
-19.87353728183535
 31
0.0
  0
LINE
  5
3017
330
2FAB
100
AcDbEntity
  8
2
370
    -2
100
AcDbLine
 10
109.99997
 20
-0.0000000000000018
 30
0.0
 11
109.99997
 21
-19.87353728183535
 31
0.0
  0
LINE
  5
3018
330
2FAB
100
AcDbEntity
  8
2
370
    -2
100
AcDbLine
 10
4.569999999999998
 20
-14.87353728183535
 30
0.0
 11
105.42997
 21
-14.87353728183535
 31
0.0
  0
SOLID
  5
3019
330
2FAB
100
AcDbEntity
  8
2
100
AcDbTrace
 10
4.569999999999998
 20
-14.11187061516869
 30
0.0
 11
4.569999999999998
 21
-15.63520394850202
 31
0.0
 12
-0.0000000000000007
 22
-14.87353728183535
 32
0.0
 13
-0.0000000000000007
 23
-14.87353728183535
 33
0.0
  0
SOLID
  5
301A
330
2FAB
100
AcDbEntity
  8
2
100
AcDbTrace
 10
105.42997
 20
-14.11187061516869
 30
0.0
 11
105.42997
 21
-15.63520394850202
 31
0.0
 12
109.99997
 22
-14.87353728183535
 32
0.0
 13
109.99997
 23
-14.87353728183535
 33
0.0
  0
MTEXT
  5
301B
330
2FAB
100
AcDbEntity
  8
2
100
AcDbMText
 10
54.999985
 20
-11.07353728183535
 30
0.0
 40
3.0
 41
0.0
 71
     5
 72
     1
  1
\A1;110 
  7
SANDVIK_STYLE
 73
     1
 44
1.0
1001
ACAD
1000
MTEXTBEGIN
1070
    73
1070
     1
1070
    44
1040
1.0
1070
    74
1070
     0
1000
MTEXTEND
  0
POINT
  5
301C
330
2FAB
100
AcDbEntity
  8
DEFPOINTS
 62
     0
100
AcDbPoint
 10
0.0
 20
-3.000001000000001
 30
0.0
  0
POINT
  5
301D
330
2FAB
100
AcDbEntity
  8
DEFPOINTS
 62
     0
100
AcDbPoint
 10
109.99997
 20
-0.0000000000000018
 30
0.0
  0
POINT
  5
301E
330
2FAB
100
AcDbEntity
  8
DEFPOINTS
 62
     0
100
AcDbPoint
 10
109.99997
 20
-14.87353728183535
 30
0.0
  0
ENDBLK
  5
2FB6
330
2FAB
100
AcDbEntity
  8
0
100
AcDbBlockEnd
  0
BLOCK
  5
2FC2
330
2FB8
100
AcDbEntity
  8
0
100
AcDbBlockBegin
  2
*D7
 70
     1
 10
0.0
 20
0.0
 30
0.0
  3
*D7
  1

  0
LINE
  5
2FB9
330
2FB8
100
AcDbEntity
  8
SK2
370
    -2
100
AcDbLine
 10
109.99997
 20
0.0
 30
0.0
 11
109.99997
 21
-26.80461108416011
 31
0.0
  0
LINE
  5
2FBA
330
2FB8
100
AcDbEntity
  8
SK2
370
    -2
100
AcDbLine
 10
-36.0
 20
-2.625001000000001
 30
0.0
 11
-36.0
 21
-26.80461108416011
 31
0.0
  0
LINE
  5
2FBB
330
2FB8
100
AcDbEntity
  8
SK2
370
    -2
100
AcDbLine
 10
105.42997
 20
-21.80461108416011
 30
0.0
 11
-31.43
 21
-21.80461108416011
 31
0.0
  0
SOLID
  5
2FBC
330
2FB8
100
AcDbEntity
  8
SK2
100
AcDbTrace
 10
105.42997
 20
-21.04294441749345
 30
0.0
 11
105.42997
 21
-22.56627775082678
 31
0.0
 12
109.99997
 22
-21.80461108416011
 32
0.0
 13
109.99997
 23
-21.80461108416011
 33
0.0
  0
SOLID
  5
2FBD
330
2FB8
100
AcDbEntity
  8
SK2
100
AcDbTrace
 10
-31.43
 20
-21.04294441749345
 30
0.0
 11
-31.43
 21
-22.56627775082678
 31
0.0
 12
-36.0
 22
-21.80461108416011
 32
0.0
 13
-36.0
 23
-21.80461108416011
 33
0.0
  0
MTEXT
  5
2FBE
330
2FB8
100
AcDbEntity
  8
SK2
100
AcDbMText
 10
36.99998499999999
 20
-18.00461108416012
 30
0.0
 40
3.0
 41
0.0
 71
     5
 72
     1
  1
\A1;146 
  7
SANDVIK_STYLE
 73
     1
 44
1.0
1001
ACAD
1000
MTEXTBEGIN
1070
    73
1070
     1
1070
    44
1040
1.0
1070
    74
1070
     0
1000
MTEXTEND
  0
POINT
  5
2FBF
330
2FB8
100
AcDbEntity
  8
DEFPOINTS
 62
     0
100
AcDbPoint
 10
109.99997
 20
0.0
 30
0.0
  0
POINT
  5
2FC0
330
2FB8
100
AcDbEntity
  8
DEFPOINTS
 62
     0
100
AcDbPoint
 10
-36.0
 20
-2.625001000000001
 30
0.0
  0
POINT
  5
2FC1
330
2FB8
100
AcDbEntity
  8
DEFPOINTS
 62
     0
100
AcDbPoint
 10
-36.0
 20
-21.80461108416011
 30
0.0
  0
ENDBLK
  5
2FC3
330
2FB8
100
AcDbEntity
  8
0
100
AcDbBlockEnd
  0
BLOCK
  5
2FCF
330
2FC5
100
AcDbEntity
  8
0
100
AcDbBlockBegin
  2
*D8
 70
     1
 10
0.0
 20
0.0
 30
0.0
  3
*D8
  1

  0
LINE
  5
2FC6
330
2FC5
100
AcDbEntity
  8
SK2
370
    -2
100
AcDbLine
 10
-36.0
 20
-2.625001000000001
 30
0.0
 11
-36.0
 21
-19.87353728183535
 31
0.0
  0
LINE
  5
2FC7
330
2FC5
100
AcDbEntity
  8
SK2
370
    -2
100
AcDbLine
 10
0.0
 20
-3.000001000000001
 30
0.0
 11
-0.000000000000001
 21
-19.87353728183535
 31
0.0
  0
LINE
  5
2FC8
330
2FC5
100
AcDbEntity
  8
SK2
370
    -2
100
AcDbLine
 10
-31.43
 20
-14.87353728183535
 30
0.0
 11
-4.570000000000001
 21
-14.87353728183535
 31
0.0
  0
SOLID
  5
2FC9
330
2FC5
100
AcDbEntity
  8
SK2
100
AcDbTrace
 10
-31.43
 20
-14.11187061516869
 30
0.0
 11
-31.43
 21
-15.63520394850202
 31
0.0
 12
-36.0
 22
-14.87353728183535
 32
0.0
 13
-36.0
 23
-14.87353728183535
 33
0.0
  0
SOLID
  5
2FCA
330
2FC5
100
AcDbEntity
  8
SK2
100
AcDbTrace
 10
-4.570000000000001
 20
-14.11187061516869
 30
0.0
 11
-4.570000000000001
 21
-15.63520394850202
 31
0.0
 12
-0.0000000000000007
 22
-14.87353728183535
 32
0.0
 13
-0.0000000000000007
 23
-14.87353728183535
 33
0.0
  0
MTEXT
  5
2FCB
330
2FC5
100
AcDbEntity
  8
SK2
100
AcDbMText
 10
-18.0
 20
-11.07353728183535
 30
0.0
 40
3.0
 41
0.0
 71
     5
 72
     1
  1
\A1;36 
  7
SANDVIK_STYLE
 73
     1
 44
1.0
1001
ACAD
1000
MTEXTBEGIN
1070
    73
1070
     1
1070
    44
1040
1.0
1070
    74
1070
     0
1000
MTEXTEND
  0
POINT
  5
2FCC
330
2FC5
100
AcDbEntity
  8
DEFPOINTS
 62
     0
100
AcDbPoint
 10
-36.0
 20
-2.625001000000001
 30
0.0
  0
POINT
  5
2FCD
330
2FC5
100
AcDbEntity
  8
DEFPOINTS
 62
     0
100
AcDbPoint
 10
0.0
 20
-3.000001000000001
 30
0.0
  0
POINT
  5
2FCE
330
2FC5
100
AcDbEntity
  8
DEFPOINTS
 62
     0
100
AcDbPoint
 10
-0.0000000000000007
 20
-14.87353728183535
 30
0.0
  0
ENDBLK
  5
2FD0
330
2FC5
100
AcDbEntity
  8
0
100
AcDbBlockEnd
  0
ENDSEC
  0
SECTION
  2
ENTITIES
  0
TEXT
  5
62
330
BF7
100
AcDbEntity
  8
SK6
100
AcDbText
 10
-18.5
 20
25.0
 30
0.0
 40
3.0
  1
861.1-0450-090A1-GM
 41
0.7540842026666669
  7
SANDVIK_STYLE
 72
     5
 11
21.897368
 21
25.0
 31
0.0
100
AcDbText
  0
LINE
  5
2C8E
330
BF7
100
AcDbEntity
  8
SK1
100
AcDbLine
 10
0.0
 20
3.000001000000001
 30
0.0
 11
0.0
 21
-3.000001000000001
 31
0.0
  0
ARC
  5
2C8F
330
BF7
100
AcDbEntity
  8
1
100
AcDbCircle
 10
0.5
 20
2.750001000000001
 30
0.0
 40
0.4999999906281083
100
AcDbArc
 50
180.0
 51
270.0
  0
ARC
  5
2C90
330
BF7
100
AcDbEntity
  8
1
100
AcDbCircle
 10
0.5
 20
-2.750001000000001
 30
0.0
 40
0.4999999906281083
100
AcDbArc
 50
90.0
 51
180.0
  0
LINE
  5
2C91
330
BF7
100
AcDbEntity
  8
1
100
AcDbLine
 10
14.90052
 20
1.026589999999995
 30
0.0
 11
13.172416
 21
1.755490999999999
 31
0.0
  0
LINE
  5
2C92
330
BF7
100
AcDbEntity
  8
1
100
AcDbLine
 10
16.34516300000001
 20
0.2081869999999988
 30
0.0
 11
14.90052
 21
1.026589999999995
 31
0.0
  0
LINE
  5
2C93
330
BF7
100
AcDbEntity
  8
1
100
AcDbLine
 10
17.78980600000001
 20
-0.6436390000000003
 30
0.0
 11
16.34516300000001
 21
0.2081869999999988
 31
0.0
  0
LINE
  5
2C94
330
BF7
100
AcDbEntity
  8
1
100
AcDbLine
 10
19.23443600000002
 20
-1.39213
 30
0.0
 11
17.78980600000001
 21
-0.6436390000000003
 31
0.0
  0
LINE
  5
2C95
330
BF7
100
AcDbEntity
  8
1
100
AcDbLine
 10
20.679079
 20
-1.917116
 30
0.0
 11
19.23443600000002
 21
-1.39213
 31
0.0
  0
LINE
  5
2C96
330
BF7
100
AcDbEntity
  8
1
100
AcDbLine
 10
22.12371
 20
-2.134317999999999
 30
0.0
 11
20.679079
 21
-1.917116
 31
0.0
  0
LINE
  5
2C97
330
BF7
100
AcDbEntity
  8
1
100
AcDbLine
 10
22.32191800000001
 20
-2.117102999999999
 30
0.0
 11
22.12371
 21
-2.134317999999999
 31
0.0
  0
LINE
  5
2C98
330
BF7
100
AcDbEntity
  8
1
100
AcDbLine
 10
22.40715900000001
 20
-2.1097
 30
0.0
 11
22.32191800000001
 21
-2.117102999999999
 31
0.0
  0
LINE
  5
2C99
330
BF7
100
AcDbEntity
  8
1
100
AcDbLine
 10
36.57009100000003
 20
1.430014000000003
 30
0.0
 11
35.11738100000001
 21
1.939978999999996
 31
0.0
  0
LINE
  5
2C9A
330
BF7
100
AcDbEntity
  8
1
100
AcDbLine
 10
38.01472199999999
 20
0.6915329999999999
 30
0.0
 11
36.57009100000003
 21
1.430014000000003
 31
0.0
  0
LINE
  5
2C9B
330
BF7
100
AcDbEntity
  8
1
100
AcDbLine
 10
39.45936400000002
 20
-0.1579559999999986
 30
0.0
 11
38.01472199999999
 21
0.6915329999999999
 31
0.0
  0
LINE
  5
2C9C
330
BF7
100
AcDbEntity
  8
1
100
AcDbLine
 10
40.90399500000001
 20
-0.9820880000000007
 30
0.0
 11
39.45936400000002
 21
-0.1579559999999986
 31
0.0
  0
LINE
  5
2C9D
330
BF7
100
AcDbEntity
  8
1
100
AcDbLine
 10
42.34863800000002
 20
-1.648546000000003
 30
0.0
 11
40.90399500000001
 21
-0.9820880000000007
 31
0.0
  0
LINE
  5
2C9E
330
BF7
100
AcDbEntity
  8
1
100
AcDbLine
 10
43.79328100000001
 20
-2.050324999999999
 30
0.0
 11
42.34863800000002
 21
-1.648546000000003
 31
0.0
  0
LINE
  5
2C9F
330
BF7
100
AcDbEntity
  8
1
100
AcDbLine
 10
44.85710899999999
 20
-2.103785999999999
 30
0.0
 11
43.79328100000001
 21
-2.050324999999999
 31
0.0
  0
LINE
  5
2CA0
330
BF7
100
AcDbEntity
  8
1
100
AcDbLine
 10
59.68428
 20
1.137869000000002
 30
0.0
 11
58.192959
 21
1.767739000000002
 31
0.0
  0
LINE
  5
2CA1
330
BF7
100
AcDbEntity
  8
1
100
AcDbLine
 10
61.12892299999998
 20
0.3361889999999974
 30
0.0
 11
59.68428
 21
1.137869000000002
 31
0.0
  0
LINE
  5
2CA2
330
BF7
100
AcDbEntity
  8
1
100
AcDbLine
 10
62.57356600000003
 20
-0.5194609999999999
 30
0.0
 11
61.12892299999998
 21
0.3361889999999974
 31
0.0
  0
LINE
  5
2CA3
330
BF7
100
AcDbEntity
  8
1
100
AcDbLine
 10
64.01819699999999
 20
-1.291713
 30
0.0
 11
62.57356600000003
 21
-0.5194609999999999
 31
0.0
  0
LINE
  5
2CA4
330
BF7
100
AcDbEntity
  8
1
100
AcDbLine
 10
65.46284000000003
 20
-1.856573
 30
0.0
 11
64.01819699999999
 21
-1.291713
 31
0.0
  0
LINE
  5
2CA5
330
BF7
100
AcDbEntity
  8
1
100
AcDbLine
 10
66.90747099999999
 20
-2.123357999999999
 30
0.0
 11
65.46284000000003
 21
-1.856573
 31
0.0
  0
LINE
  5
2CA6
330
BF7
100
AcDbEntity
  8
1
100
AcDbLine
 10
67.32154399999997
 20
-2.102115
 30
0.0
 11
66.90747099999999
 21
-2.123357999999999
 31
0.0
  0
LINE
  5
2CA7
330
BF7
100
AcDbEntity
  8
1
100
AcDbLine
 10
67.48558500000001
 20
-2.093697999999998
 30
0.0
 11
67.32154399999997
 21
-2.102115
 31
0.0
  0
LINE
  5
2CA8
330
BF7
100
AcDbEntity
  8
1
100
AcDbLine
 10
82.79848200000001
 20
0.8123349999999971
 30
0.0
 11
80.19098600000003
 21
1.898695999999996
 31
0.0
  0
LINE
  5
2CA9
330
BF7
100
AcDbEntity
  8
1
100
AcDbLine
 10
84.24312499999997
 20
-0.0290250000000008
 30
0.0
 11
82.79848200000001
 21
0.8123349999999971
 31
0.0
  0
LINE
  5
2CAA
330
BF7
100
AcDbEntity
  8
1
100
AcDbLine
 10
85.687756
 20
-0.8657229999999991
 30
0.0
 11
84.24312499999997
 21
-0.0290250000000008
 31
0.0
  0
LINE
  5
2CAB
330
BF7
100
AcDbEntity
  8
1
100
AcDbLine
 10
87.13239899999997
 20
-1.563444
 30
0.0
 11
85.687756
 21
-0.8657229999999991
 31
0.0
  0
LINE
  5
2CAC
330
BF7
100
AcDbEntity
  8
1
100
AcDbLine
 10
88.57704100000002
 20
-2.01012
 30
0.0
 11
87.13239899999997
 21
-1.563444
 31
0.0
  0
LINE
  5
2CAD
330
BF7
100
AcDbEntity
  8
1
100
AcDbLine
 10
89.85994499999998
 20
-2.120208
 30
0.0
 11
88.57704100000002
 21
-2.01012
 31
0.0
  0
LINE
  5
2CAE
330
BF7
100
AcDbEntity
  8
1
100
AcDbLine
 10
105.912684
 20
0.4629709999999996
 30
0.0
 11
103.237605
 21
1.740811999999997
 31
0.0
  0
LINE
  5
2CAF
330
BF7
100
AcDbEntity
  8
1
100
AcDbLine
 10
107.357327
 20
-0.3933859999999996
 30
0.0
 11
105.912684
 21
0.4629709999999996
 31
0.0
  0
LINE
  5
2CB0
330
BF7
100
AcDbEntity
  8
1
100
AcDbLine
 10
108.258943
 20
-0.9043950000000007
 30
0.0
 11
107.357327
 21
-0.3933859999999996
 31
0.0
  0
LINE
  5
2CB1
330
BF7
100
AcDbEntity
  8
1
100
AcDbLine
 10
109.160547
 20
-1.358376999999999
 30
0.0
 11
108.258943
 21
-0.9043950000000007
 31
0.0
  0
LINE
  5
2CB2
330
BF7
100
AcDbEntity
  8
1
100
AcDbLine
 10
7.677336000000011
 20
-1.248083
 30
0.0
 11
6.232699000000009
 21
-0.4666900000000034
 31
0.0
  0
LINE
  5
2CB3
330
BF7
100
AcDbEntity
  8
1
100
AcDbLine
 10
9.121972000000011
 20
-1.8291
 30
0.0
 11
7.677336000000011
 21
-1.248083
 31
0.0
  0
LINE
  5
2CB4
330
BF7
100
AcDbEntity
  8
1
100
AcDbLine
 10
10.566615
 20
-2.116470999999999
 30
0.0
 11
9.121972000000011
 21
-1.8291
 31
0.0
  0
LINE
  5
2CB5
330
BF7
100
AcDbEntity
  8
1
100
AcDbLine
 10
11.387235
 20
-2.086668999999999
 30
0.0
 11
10.566615
 21
-2.116470999999999
 31
0.0
  0
LINE
  5
2CB6
330
BF7
100
AcDbEntity
  8
1
100
AcDbLine
 10
26.45762700000001
 20
0.8622319999999985
 30
0.0
 11
24.073325
 21
1.852233
 31
0.0
  0
LINE
  5
2CB7
330
BF7
100
AcDbEntity
  8
1
100
AcDbLine
 10
27.90227
 20
0.0252079999999992
 30
0.0
 11
26.45762700000001
 21
0.8622319999999985
 31
0.0
  0
LINE
  5
2CB8
330
BF7
100
AcDbEntity
  8
1
100
AcDbLine
 10
29.34690000000001
 20
-0.8158600000000005
 30
0.0
 11
27.90227
 21
0.0252079999999992
 31
0.0
  0
LINE
  5
2CB9
330
BF7
100
AcDbEntity
  8
1
100
AcDbLine
 10
30.79154300000002
 20
-1.525943
 30
0.0
 11
29.34690000000001
 21
-0.8158600000000005
 31
0.0
  0
LINE
  5
2CBA
330
BF7
100
AcDbEntity
  8
1
100
AcDbLine
 10
32.23617400000001
 20
-1.99104
 30
0.0
 11
30.79154300000002
 21
-1.525943
 31
0.0
  0
LINE
  5
2CBB
330
BF7
100
AcDbEntity
  8
1
100
AcDbLine
 10
33.62328700000001
 20
-2.130674000000002
 30
0.0
 11
32.23617400000001
 21
-1.99104
 31
0.0
  0
LINE
  5
2CBC
330
BF7
100
AcDbEntity
  8
1
100
AcDbLine
 10
49.57182800000001
 20
0.5157559999999997
 30
0.0
 11
47.21805999999999
 21
1.644859999999996
 31
0.0
  0
LINE
  5
2CBD
330
BF7
100
AcDbEntity
  8
1
100
AcDbLine
 10
51.01645900000001
 20
-0.3399600000000014
 30
0.0
 11
49.57182800000001
 21
0.5157559999999997
 31
0.0
  0
LINE
  5
2CBE
330
BF7
100
AcDbEntity
  8
1
100
AcDbLine
 10
52.46110200000001
 20
-1.141093000000001
 30
0.0
 11
51.01645900000001
 21
-0.3399600000000014
 31
0.0
  0
LINE
  5
2CBF
330
BF7
100
AcDbEntity
  8
1
100
AcDbLine
 10
53.90573299999999
 20
-1.759024
 30
0.0
 11
52.46110200000001
 21
-1.141093000000001
 31
0.0
  0
LINE
  5
2CC0
330
BF7
100
AcDbEntity
  8
1
100
AcDbLine
 10
55.35037600000001
 20
-2.094550999999999
 30
0.0
 11
53.90573299999999
 21
-1.759024
 31
0.0
  0
LINE
  5
2CC1
330
BF7
100
AcDbEntity
  8
1
100
AcDbLine
 10
56.071637
 20
-2.094161999999999
 30
0.0
 11
55.35037600000001
 21
-2.094550999999999
 31
0.0
  0
LINE
  5
2CC2
330
BF7
100
AcDbEntity
  8
1
100
AcDbLine
 10
56.47209799999998
 20
-2.093947
 30
0.0
 11
56.071637
 21
-2.094161999999999
 31
0.0
  0
LINE
  5
2CC3
330
BF7
100
AcDbEntity
  8
1
100
AcDbLine
 10
71.241387
 20
0.9786979999999978
 30
0.0
 11
69.129246
 21
1.832378999999999
 31
0.0
  0
LINE
  5
2CC4
330
BF7
100
AcDbEntity
  8
1
100
AcDbLine
 10
72.68601800000002
 20
0.1541509999999988
 30
0.0
 11
71.241387
 21
0.9786979999999978
 31
0.0
  0
LINE
  5
2CC5
330
BF7
100
AcDbEntity
  8
1
100
AcDbLine
 10
74.130661
 20
-0.6951469999999988
 30
0.0
 11
72.68601800000002
 21
0.1541509999999988
 31
0.0
  0
LINE
  5
2CC6
330
BF7
100
AcDbEntity
  8
1
100
AcDbLine
 10
75.57530400000001
 20
-1.432836
 30
0.0
 11
74.130661
 21
-0.6951469999999988
 31
0.0
  0
LINE
  5
2CC7
330
BF7
100
AcDbEntity
  8
1
100
AcDbLine
 10
77.019935
 20
-1.940477
 30
0.0
 11
75.57530400000001
 21
-1.432836
 31
0.0
  0
LINE
  5
2CC8
330
BF7
100
AcDbEntity
  8
1
100
AcDbLine
 10
78.46457699999998
 20
-2.136575
 30
0.0
 11
77.019935
 21
-1.940477
 31
0.0
  0
LINE
  5
2CC9
330
BF7
100
AcDbEntity
  8
1
100
AcDbLine
 10
78.62613500000001
 20
-2.120146
 30
0.0
 11
78.46457699999998
 21
-2.136575
 31
0.0
  0
LINE
  5
2CCA
330
BF7
100
AcDbEntity
  8
1
100
AcDbLine
 10
94.355589
 20
0.6400009999999982
 30
0.0
 11
92.095456
 21
1.686264
 31
0.0
  0
LINE
  5
2CCB
330
BF7
100
AcDbEntity
  8
1
100
AcDbLine
 10
95.80021999999999
 20
-0.211983
 30
0.0
 11
94.355589
 21
0.6400009999999982
 31
0.0
  0
LINE
  5
2CCC
330
BF7
100
AcDbEntity
  8
1
100
AcDbLine
 10
97.24486300000002
 20
-1.029937
 30
0.0
 11
95.80021999999999
 21
-0.211983
 31
0.0
  0
LINE
  5
2CCD
330
BF7
100
AcDbEntity
  8
1
100
AcDbLine
 10
98.68949300000004
 20
-1.682546999999999
 30
0.0
 11
97.24486300000002
 21
-1.029937
 31
0.0
  0
LINE
  5
2CCE
330
BF7
100
AcDbEntity
  8
1
100
AcDbLine
 10
100.134136
 20
-2.064993999999997
 30
0.0
 11
98.68949300000004
 21
-1.682546999999999
 31
0.0
  0
LINE
  5
2CCF
330
BF7
100
AcDbEntity
  8
1
100
AcDbLine
 10
101.068042
 20
-2.097914999999999
 30
0.0
 11
100.134136
 21
-2.064993999999997
 31
0.0
  0
LINE
  5
2CD0
330
BF7
100
AcDbEntity
  8
1
100
AcDbLine
 10
10.202194
 20
-0.4666900000000034
 30
0.0
 11
6.232699000000009
 21
-0.4666900000000034
 31
0.0
  0
LINE
  5
2CD1
330
BF7
100
AcDbEntity
  8
1
100
AcDbLine
 10
6.064988999999997
 20
-0.4730139999999993
 30
0.0
 11
5.916712000000018
 21
-0.4912540000000015
 31
0.0
  0
LINE
  5
2CD2
330
BF7
100
AcDbEntity
  8
1
100
AcDbLine
 10
6.232699000000009
 20
-0.4666900000000034
 30
0.0
 11
6.064988999999997
 21
-0.4730139999999993
 31
0.0
  0
LINE
  5
2CD3
330
BF7
100
AcDbEntity
  8
1
100
AcDbLine
 10
6.232699000000009
 20
0.2189449999999979
 30
0.0
 11
6.232699000000009
 21
-0.4666900000000034
 31
0.0
  0
LINE
  5
2CD4
330
BF7
100
AcDbEntity
  8
SK1
100
AcDbLine
 10
-36.0
 20
-1.896452
 30
0.0
 11
-35.35048199999999
 21
-2.11655
 31
0.0
  0
LINE
  5
2CD5
330
BF7
100
AcDbEntity
  8
1
100
AcDbLine
 10
109.970479
 20
0.1555889999999991
 30
0.0
 11
109.483735
 21
0.6221449999999999
 31
0.0
  0
LINE
  5
2CD6
330
BF7
100
AcDbEntity
  8
1
100
AcDbLine
 10
9.336912000000012
 20
0.6829000000000001
 30
0.0
 11
11.772283
 21
-0.6941260000000007
 31
0.0
  0
LINE
  5
2CD7
330
BF7
100
AcDbEntity
  8
1
100
AcDbLine
 10
6.901523000000011
 20
2.127966999999997
 30
0.0
 11
9.336912000000012
 21
0.6829000000000001
 31
0.0
  0
LINE
  5
2CD8
330
BF7
100
AcDbEntity
  8
1
100
AcDbLine
 10
109.922553
 20
0.4405910000000013
 30
0.0
 11
109.882802
 21
0.6342569999999981
 31
0.0
  0
LINE
  5
2CD9
330
BF7
100
AcDbEntity
  8
1
100
AcDbLine
 10
109.372041
 20
0.5784009999999995
 30
0.0
 11
109.371569
 21
0.5770049999999998
 31
0.0
  0
LINE
  5
2CDA
330
BF7
100
AcDbEntity
  8
1
100
AcDbLine
 10
109.372623
 20
0.5797999999999988
 30
0.0
 11
109.372041
 21
0.5784009999999995
 31
0.0
  0
LINE
  5
2CDB
330
BF7
100
AcDbEntity
  8
1
100
AcDbLine
 10
109.374209
 20
0.5835580000000001
 30
0.0
 11
109.372623
 21
0.5797999999999988
 31
0.0
  0
LINE
  5
2CDC
330
BF7
100
AcDbEntity
  8
1
100
AcDbLine
 10
109.385933
 20
0.5966139999999989
 30
0.0
 11
109.374209
 21
0.5835580000000001
 31
0.0
  0
LINE
  5
2CDD
330
BF7
100
AcDbEntity
  8
1
100
AcDbLine
 10
109.404985
 20
0.6072569999999971
 30
0.0
 11
109.385933
 21
0.5966139999999989
 31
0.0
  0
LINE
  5
2CDE
330
BF7
100
AcDbEntity
  8
1
100
AcDbLine
 10
109.433447
 20
0.6161410000000025
 30
0.0
 11
109.404985
 21
0.6072569999999971
 31
0.0
  0
LINE
  5
2CDF
330
BF7
100
AcDbEntity
  8
1
100
AcDbLine
 10
109.483735
 20
0.6221449999999999
 30
0.0
 11
109.433447
 21
0.6161410000000025
 31
0.0
  0
LINE
  5
2CE0
330
BF7
100
AcDbEntity
  8
1
100
AcDbLine
 10
108.979575
 20
0.5741319999999988
 30
0.0
 11
109.372623
 21
0.5797999999999988
 31
0.0
  0
LINE
  5
2CE1
330
BF7
100
AcDbEntity
  8
1
100
AcDbLine
 10
90.12039399999999
 20
0.2610869999999998
 30
0.0
 11
95.29821500000002
 21
-0.4866550000000025
 31
0.0
  0
LINE
  5
2CE2
330
BF7
100
AcDbEntity
  8
1
100
AcDbLine
 10
87.425949
 20
0.5538020000000011
 30
0.0
 11
90.12039399999999
 21
0.2610869999999998
 31
0.0
  0
LINE
  5
2CE3
330
BF7
100
AcDbEntity
  8
1
100
AcDbLine
 10
87.41698600000002
 20
0.5537840000000003
 30
0.0
 11
87.425949
 21
0.5538020000000011
 31
0.0
  0
LINE
  5
2CE4
330
BF7
100
AcDbEntity
  8
1
100
AcDbLine
 10
70.19226300000003
 20
-0.1535050000000027
 30
0.0
 11
72.82125699999999
 21
-0.4833140000000001
 31
0.0
  0
LINE
  5
2CE5
330
BF7
100
AcDbEntity
  8
1
100
AcDbLine
 10
67.905653
 20
0.2174310000000013
 30
0.0
 11
70.19226300000003
 21
-0.1535050000000027
 31
0.0
  0
LINE
  5
2CE6
330
BF7
100
AcDbEntity
  8
1
100
AcDbLine
 10
65.61915300000001
 20
0.502875999999997
 30
0.0
 11
67.905653
 21
0.2174310000000013
 31
0.0
  0
LINE
  5
2CE7
330
BF7
100
AcDbEntity
  8
1
100
AcDbLine
 10
64.98937099999999
 20
0.5210979999999985
 30
0.0
 11
65.61915300000001
 21
0.502875999999997
 31
0.0
  0
LINE
  5
2CE8
330
BF7
100
AcDbEntity
  8
1
100
AcDbLine
 10
47.977158
 20
-0.1988090000000007
 30
0.0
 11
50.30935600000001
 21
-0.4940640000000017
 31
0.0
  0
LINE
  5
2CE9
330
BF7
100
AcDbEntity
  8
1
100
AcDbLine
 10
45.69057299999999
 20
0.172936
 30
0.0
 11
47.977158
 21
-0.1988090000000007
 31
0.0
  0
LINE
  5
2CEA
330
BF7
100
AcDbEntity
  8
1
100
AcDbLine
 10
43.40306700000001
 20
0.476847999999997
 30
0.0
 11
45.69057299999999
 21
0.172936
 31
0.0
  0
LINE
  5
2CEB
330
BF7
100
AcDbEntity
  8
1
100
AcDbLine
 10
42.51965499999999
 20
0.5215220000000011
 30
0.0
 11
43.40306700000001
 21
0.476847999999997
 31
0.0
  0
LINE
  5
2CEC
330
BF7
100
AcDbEntity
  8
1
100
AcDbLine
 10
24.90056300000001
 20
-0.1064860000000003
 30
0.0
 11
27.844376
 21
-0.4823309999999985
 31
0.0
  0
LINE
  5
2CED
330
BF7
100
AcDbEntity
  8
1
100
AcDbLine
 10
22.406094
 20
0.2925930000000001
 30
0.0
 11
24.90056300000001
 21
-0.1064860000000003
 31
0.0
  0
LINE
  5
2CEE
330
BF7
100
AcDbEntity
  8
1
100
AcDbLine
 10
20.03710100000001
 20
0.5418960000000013
 30
0.0
 11
22.406094
 21
0.2925930000000001
 31
0.0
  0
LINE
  5
2CEF
330
BF7
100
AcDbEntity
  8
1
100
AcDbLine
 10
109.882802
 20
0.6342569999999981
 30
0.0
 11
109.885879
 21
0.6410330000000002
 31
0.0
  0
LINE
  5
2CF0
330
BF7
100
AcDbEntity
  8
1
100
AcDbLine
 10
109.882802
 20
0.6342569999999981
 30
0.0
 11
109.483735
 21
0.6221449999999999
 31
0.0
  0
LINE
  5
2CF1
330
BF7
100
AcDbEntity
  8
1
100
AcDbLine
 10
9.935549000000008
 20
0.4434259999999989
 30
0.0
 11
11.772283
 21
-0.6941260000000007
 31
0.0
  0
LINE
  5
2CF2
330
BF7
100
AcDbEntity
  8
1
100
AcDbLine
 10
103.019631
 20
-0.0030210000000004
 30
0.0
 11
106.57782
 21
-0.4800600000000017
 31
0.0
  0
LINE
  5
2CF3
330
BF7
100
AcDbEntity
  8
1
100
AcDbLine
 10
100.901713
 20
0.3278169999999996
 30
0.0
 11
103.019631
 21
-0.0030210000000004
 31
0.0
  0
LINE
  5
2CF4
330
BF7
100
AcDbEntity
  8
1
100
AcDbLine
 10
98.792769
 20
0.5226180000000014
 30
0.0
 11
100.901713
 21
0.3278169999999996
 31
0.0
  0
LINE
  5
2CF5
330
BF7
100
AcDbEntity
  8
1
100
AcDbLine
 10
79.33960899999998
 20
0.1893859999999989
 30
0.0
 11
84.091681
 21
-0.4762599999999999
 31
0.0
  0
LINE
  5
2CF6
330
BF7
100
AcDbEntity
  8
1
100
AcDbLine
 10
77.052479
 20
0.4869609999999974
 30
0.0
 11
79.33960899999998
 21
0.1893859999999989
 31
0.0
  0
LINE
  5
2CF7
330
BF7
100
AcDbEntity
  8
1
100
AcDbLine
 10
76.22673
 20
0.5249919999999975
 30
0.0
 11
77.052479
 21
0.4869609999999974
 31
0.0
  0
LINE
  5
2CF8
330
BF7
100
AcDbEntity
  8
1
100
AcDbLine
 10
57.53269200000001
 20
0.0782479999999986
 30
0.0
 11
61.56159999999999
 21
-0.4615050000000025
 31
0.0
  0
LINE
  5
2CF9
330
BF7
100
AcDbEntity
  8
1
100
AcDbLine
 10
54.83716800000002
 20
0.4585799999999979
 30
0.0
 11
57.53269200000001
 21
0.0782479999999986
 31
0.0
  0
LINE
  5
2CFA
330
BF7
100
AcDbEntity
  8
1
100
AcDbLine
 10
53.76460800000001
 20
0.5210580000000001
 30
0.0
 11
54.83716800000002
 21
0.4585799999999979
 31
0.0
  0
LINE
  5
2CFB
330
BF7
100
AcDbEntity
  8
1
100
AcDbLine
 10
36.542452
 20
-0.1690229999999993
 30
0.0
 11
39.07386200000001
 21
-0.4868710000000008
 31
0.0
  0
LINE
  5
2CFC
330
BF7
100
AcDbEntity
  8
1
100
AcDbLine
 10
34.256024
 20
0.2024489999999979
 30
0.0
 11
36.542452
 21
-0.1690229999999993
 31
0.0
  0
LINE
  5
2CFD
330
BF7
100
AcDbEntity
  8
1
100
AcDbLine
 10
31.969536
 20
0.4941250000000005
 30
0.0
 11
34.256024
 21
0.2024489999999979
 31
0.0
  0
LINE
  5
2CFE
330
BF7
100
AcDbEntity
  8
1
100
AcDbLine
 10
31.26543600000001
 20
0.5240650000000004
 30
0.0
 11
31.969536
 21
0.4941250000000005
 31
0.0
  0
LINE
  5
2CFF
330
BF7
100
AcDbEntity
  8
1
100
AcDbLine
 10
12.426906
 20
0.0947669999999974
 30
0.0
 11
16.569192
 21
-0.4716830000000023
 31
0.0
  0
LINE
  5
2D00
330
BF7
100
AcDbEntity
  8
1
100
AcDbLine
 10
9.935549000000008
 20
0.4434259999999989
 30
0.0
 11
12.426906
 21
0.0947669999999974
 31
0.0
  0
LINE
  5
2D01
330
BF7
100
AcDbEntity
  8
1
100
AcDbLine
 10
10.306966
 20
0.7938550000000008
 30
0.0
 11
9.935549000000008
 21
0.4434259999999989
 31
0.0
  0
LINE
  5
2D02
330
BF7
100
AcDbEntity
  8
1
100
AcDbLine
 10
10.50009200000001
 20
0.9922229999999991
 30
0.0
 11
10.306966
 21
0.7938550000000008
 31
0.0
  0
LINE
  5
2D03
330
BF7
100
AcDbEntity
  8
1
100
AcDbLine
 10
10.669244
 20
1.171337
 30
0.0
 11
10.50009200000001
 21
0.9922229999999991
 31
0.0
  0
LINE
  5
2D04
330
BF7
100
AcDbEntity
  8
1
100
AcDbLine
 10
10.85601700000001
 20
1.369879999999997
 30
0.0
 11
10.669244
 21
1.171337
 31
0.0
  0
LINE
  5
2D05
330
BF7
100
AcDbEntity
  8
1
100
AcDbLine
 10
11.020875
 20
1.539933999999997
 30
0.0
 11
10.85601700000001
 21
1.369879999999997
 31
0.0
  0
LINE
  5
2D06
330
BF7
100
AcDbEntity
  8
1
100
AcDbLine
 10
11.205094
 20
1.714289999999997
 30
0.0
 11
11.020875
 21
1.539933999999997
 31
0.0
  0
LINE
  5
2D07
330
BF7
100
AcDbEntity
  8
1
100
AcDbLine
 10
11.373143
 20
1.848918
 30
0.0
 11
11.205094
 21
1.714289999999997
 31
0.0
  0
LINE
  5
2D08
330
BF7
100
AcDbEntity
  8
1
100
AcDbLine
 10
11.56295700000001
 20
1.961385999999996
 30
0.0
 11
11.373143
 21
1.848918
 31
0.0
  0
LINE
  5
2D09
330
BF7
100
AcDbEntity
  8
1
100
AcDbLine
 10
11.752353
 20
2.027427999999996
 30
0.0
 11
11.56295700000001
 21
1.961385999999996
 31
0.0
  0
LINE
  5
2D0A
330
BF7
100
AcDbEntity
  8
1
100
AcDbLine
 10
11.778345
 20
2.032941999999998
 30
0.0
 11
11.752353
 21
2.027427999999996
 31
0.0
  0
LINE
  5
2D0B
330
BF7
100
AcDbEntity
  8
SK1
100
AcDbLine
 10
-36.0
 20
-2.436084999999998
 30
0.0
 11
-36.0
 21
-1.896452
 31
0.0
  0
LINE
  5
2D0C
330
BF7
100
AcDbEntity
  8
SK1
100
AcDbLine
 10
-36.0
 20
-2.625001000000001
 30
0.0
 11
-36.0
 21
-2.436084999999998
 31
0.0
  0
LINE
  5
2D0D
330
BF7
100
AcDbEntity
  8
SK1
100
AcDbLine
 10
-36.0
 20
-1.080045000000001
 30
0.0
 11
-36.0
 21
-1.896452
 31
0.0
  0
LINE
  5
2D0E
330
BF7
100
AcDbEntity
  8
SK1
100
AcDbLine
 10
-35.35048199999999
 20
-2.897210000000001
 30
0.0
 11
-35.35048199999999
 21
-3.000001000000001
 31
0.0
  0
LINE
  5
2D0F
330
BF7
100
AcDbEntity
  8
SK1
100
AcDbLine
 10
-35.35048199999999
 20
-2.595842000000001
 30
0.0
 11
-35.35048199999999
 21
-2.897210000000001
 31
0.0
  0
LINE
  5
2D10
330
BF7
100
AcDbEntity
  8
SK1
100
AcDbLine
 10
-35.35048199999999
 20
-2.11655
 30
0.0
 11
-35.35048199999999
 21
-2.595842000000001
 31
0.0
  0
LINE
  5
2D11
330
BF7
100
AcDbEntity
  8
SK1
100
AcDbLine
 10
-35.35048199999999
 20
-0.4774330000000015
 30
0.0
 11
-35.35048199999999
 21
-1.300183
 31
0.0
  0
LINE
  5
2D12
330
BF7
100
AcDbEntity
  8
SK1
100
AcDbLine
 10
-35.35048199999999
 20
0.3847629999999995
 30
0.0
 11
-35.35048199999999
 21
-0.4774330000000015
 31
0.0
  0
LINE
  5
2D13
330
BF7
100
AcDbEntity
  8
SK1
100
AcDbLine
 10
-35.35048199999999
 20
1.215168999999999
 30
0.0
 11
-35.35048199999999
 21
0.3847629999999995
 31
0.0
  0
LINE
  5
2D14
330
BF7
100
AcDbEntity
  8
SK1
100
AcDbLine
 10
-35.35048199999999
 20
1.945177999999997
 30
0.0
 11
-35.35048199999999
 21
1.215168999999999
 31
0.0
  0
LINE
  5
2D15
330
BF7
100
AcDbEntity
  8
SK1
100
AcDbLine
 10
-35.35048199999999
 20
2.514483999999995
 30
0.0
 11
-35.35048199999999
 21
1.945177999999997
 31
0.0
  0
LINE
  5
2D16
330
BF7
100
AcDbEntity
  8
SK1
100
AcDbLine
 10
-35.35048199999999
 20
2.876046999999995
 30
0.0
 11
-35.35048199999999
 21
2.514483999999995
 31
0.0
  0
LINE
  5
2D17
330
BF7
100
AcDbEntity
  8
SK1
100
AcDbLine
 10
-35.35048199999999
 20
3.000001000000001
 30
0.0
 11
-35.35048199999999
 21
2.876046999999995
 31
0.0
  0
LINE
  5
2D18
330
BF7
100
AcDbEntity
  8
SK1
100
AcDbLine
 10
-35.35048199999999
 20
-1.300183
 30
0.0
 11
-36.0
 21
-1.080084999999999
 31
0.0
  0
LINE
  5
2D19
330
BF7
100
AcDbEntity
  8
SK1
100
AcDbLine
 10
-36.0
 20
2.519101000000002
 30
0.0
 11
-36.0
 21
2.625
 31
0.0
  0
LINE
  5
2D1A
330
BF7
100
AcDbEntity
  8
SK1
100
AcDbLine
 10
-36.0
 20
2.210005999999999
 30
0.0
 11
-36.0
 21
2.519101000000002
 31
0.0
  0
LINE
  5
2D1B
330
BF7
100
AcDbEntity
  8
SK1
100
AcDbLine
 10
-36.0
 20
1.72265
 30
0.0
 11
-36.0
 21
2.210005999999999
 31
0.0
  0
LINE
  5
2D1C
330
BF7
100
AcDbEntity
  8
SK1
100
AcDbLine
 10
-36.0
 20
1.096340999999998
 30
0.0
 11
-36.0
 21
1.72265
 31
0.0
  0
LINE
  5
2D1D
330
BF7
100
AcDbEntity
  8
SK1
100
AcDbLine
 10
-36.0
 20
0.3816020000000009
 30
0.0
 11
-36.0
 21
1.096340999999998
 31
0.0
  0
LINE
  5
2D1E
330
BF7
100
AcDbEntity
  8
SK1
100
AcDbLine
 10
-36.0
 20
-0.3639200000000002
 30
0.0
 11
-36.0
 21
0.3816020000000009
 31
0.0
  0
LINE
  5
2D1F
330
BF7
100
AcDbEntity
  8
SK1
100
AcDbLine
 10
-36.0
 20
-1.080084999999999
 30
0.0
 11
-36.0
 21
-0.3639200000000002
 31
0.0
  0
LINE
  5
2D20
330
BF7
100
AcDbEntity
  8
1
100
AcDbLine
 10
109.993442
 20
0.0531569999999988
 30
0.0
 11
109.970479
 21
0.1555889999999991
 31
0.0
  0
LINE
  5
2D21
330
BF7
100
AcDbEntity
  8
1
100
AcDbLine
 10
109.970479
 20
0.1555889999999991
 30
0.0
 11
109.922553
 21
0.4405910000000013
 31
0.0
  0
LINE
  5
2D22
330
BF7
100
AcDbEntity
  8
1
100
AcDbLine
 10
109.885879
 20
0.6410330000000002
 30
0.0
 11
109.922553
 21
0.4405910000000013
 31
0.0
  0
LINE
  5
2D23
330
BF7
100
AcDbEntity
  8
1
100
AcDbLine
 10
109.259076
 20
1.633739000000002
 30
0.0
 11
109.155787
 21
1.805576000000002
 31
0.0
  0
LINE
  5
2D24
330
BF7
100
AcDbEntity
  8
1
100
AcDbLine
 10
109.380265
 20
1.438377999999995
 30
0.0
 11
109.259076
 21
1.633739000000002
 31
0.0
  0
LINE
  5
2D25
330
BF7
100
AcDbEntity
  8
1
100
AcDbLine
 10
109.566918
 20
1.144896999999995
 30
0.0
 11
109.380265
 21
1.438377999999995
 31
0.0
  0
LINE
  5
2D26
330
BF7
100
AcDbEntity
  8
1
100
AcDbLine
 10
109.753571
 20
0.8519339999999997
 30
0.0
 11
109.566918
 21
1.144896999999995
 31
0.0
  0
LINE
  5
2D27
330
BF7
100
AcDbEntity
  8
1
100
AcDbLine
 10
109.885879
 20
0.6410330000000002
 30
0.0
 11
109.753571
 21
0.8519339999999997
 31
0.0
  0
LINE
  5
2D28
330
BF7
100
AcDbEntity
  8
1
100
AcDbLine
 10
9.287606000000009
 20
0.0334620000000001
 30
0.0
 11
8.929821000000004
 21
0.2189449999999979
 31
0.0
  0
LINE
  5
2D29
330
BF7
100
AcDbEntity
  8
1
100
AcDbLine
 10
9.692365000000007
 20
-0.181519999999999
 30
0.0
 11
9.287606000000009
 21
0.0334620000000001
 31
0.0
  0
LINE
  5
2D2A
330
BF7
100
AcDbEntity
  8
1
100
AcDbLine
 10
9.948484000000007
 20
-0.3221330000000009
 30
0.0
 11
9.692365000000007
 21
-0.181519999999999
 31
0.0
  0
LINE
  5
2D2B
330
BF7
100
AcDbEntity
  8
1
100
AcDbLine
 10
10.202194
 20
-0.4666900000000034
 30
0.0
 11
9.948484000000007
 21
-0.3221330000000009
 31
0.0
  0
LINE
  5
2D2C
330
BF7
100
AcDbEntity
  8
1
100
AcDbLine
 10
9.749072000000012
 20
0.0532039999999974
 30
0.0
 11
7.768791000000008
 21
0.9202829999999975
 31
0.0
  0
LINE
  5
2D2D
330
BF7
100
AcDbEntity
  8
1
100
AcDbLine
 10
11.772283
 20
-0.6941260000000007
 30
0.0
 11
9.749072000000012
 21
0.0532039999999974
 31
0.0
  0
LINE
  5
2D2E
330
BF7
100
AcDbEntity
  8
1
100
AcDbLine
 10
104.659005
 20
-1.373996
 30
0.0
 11
107.721294
 21
-1.137098000000001
 31
0.0
  0
LINE
  5
2D2F
330
BF7
100
AcDbEntity
  8
1
100
AcDbLine
 10
102.823676
 20
-1.021520000000001
 30
0.0
 11
104.659005
 21
-1.373996
 31
0.0
  0
LINE
  5
2D30
330
BF7
100
AcDbEntity
  8
1
100
AcDbLine
 10
101.073057
 20
-0.4384820000000005
 30
0.0
 11
102.823676
 21
-1.021520000000001
 31
0.0
  0
LINE
  5
2D31
330
BF7
100
AcDbEntity
  8
1
100
AcDbLine
 10
100.399273
 20
-0.1746900000000018
 30
0.0
 11
101.073057
 21
-0.4384820000000005
 31
0.0
  0
LINE
  5
2D32
330
BF7
100
AcDbEntity
  8
1
100
AcDbLine
 10
81.81106600000003
 20
-1.332227999999999
 30
0.0
 11
85.19923199999999
 21
-1.168136
 31
0.0
  0
LINE
  5
2D33
330
BF7
100
AcDbEntity
  8
1
100
AcDbLine
 10
80.05946600000001
 20
-0.9456369999999978
 30
0.0
 11
81.81106600000003
 21
-1.332227999999999
 31
0.0
  0
LINE
  5
2D34
330
BF7
100
AcDbEntity
  8
1
100
AcDbLine
 10
78.30869999999999
 20
-0.3376400000000004
 30
0.0
 11
80.05946600000001
 21
-0.9456369999999978
 31
0.0
  0
LINE
  5
2D35
330
BF7
100
AcDbEntity
  8
1
100
AcDbLine
 10
77.59990200000001
 20
-0.0595689999999998
 30
0.0
 11
78.30869999999999
 21
-0.3376400000000004
 31
0.0
  0
LINE
  5
2D36
330
BF7
100
AcDbEntity
  8
1
100
AcDbLine
 10
60.79808100000001
 20
-1.416427999999999
 30
0.0
 11
62.722927
 21
-1.160133999999998
 31
0.0
  0
LINE
  5
2D37
330
BF7
100
AcDbEntity
  8
1
100
AcDbLine
 10
59.04712199999999
 20
-1.292127
 30
0.0
 11
60.79808100000001
 21
-1.416427999999999
 31
0.0
  0
LINE
  5
2D38
330
BF7
100
AcDbEntity
  8
1
100
AcDbLine
 10
57.29577499999999
 20
-0.8650319999999991
 30
0.0
 11
59.04712199999999
 21
-1.292127
 31
0.0
  0
LINE
  5
2D39
330
BF7
100
AcDbEntity
  8
1
100
AcDbLine
 10
55.54510699999999
 20
-0.2354090000000006
 30
0.0
 11
57.29577499999999
 21
-0.8650319999999991
 31
0.0
  0
LINE
  5
2D3A
330
BF7
100
AcDbEntity
  8
1
100
AcDbLine
 10
55.04646999999999
 20
-0.0402839999999998
 30
0.0
 11
55.54510699999999
 21
-0.2354090000000006
 31
0.0
  0
LINE
  5
2D3B
330
BF7
100
AcDbEntity
  8
1
100
AcDbLine
 10
38.034548
 20
-1.419035
 30
0.0
 11
40.22832199999998
 21
-1.145048999999999
 31
0.0
  0
LINE
  5
2D3C
330
BF7
100
AcDbEntity
  8
1
100
AcDbLine
 10
36.283771
 20
-1.245836999999998
 30
0.0
 11
38.034548
 21
-1.419035
 31
0.0
  0
LINE
  5
2D3D
330
BF7
100
AcDbEntity
  8
1
100
AcDbLine
 10
34.53298200000001
 20
-0.7805339999999994
 30
0.0
 11
36.283771
 21
-1.245836999999998
 31
0.0
  0
LINE
  5
2D3E
330
BF7
100
AcDbEntity
  8
1
100
AcDbLine
 10
32.91569900000001
 20
-0.1814450000000001
 30
0.0
 11
34.53298200000001
 21
-0.7805339999999994
 31
0.0
  0
LINE
  5
2D3F
330
BF7
100
AcDbEntity
  8
1
100
AcDbLine
 10
15.27078600000001
 20
-1.414999999999999
 30
0.0
 11
17.74281200000001
 21
-1.133863
 31
0.0
  0
LINE
  5
2D40
330
BF7
100
AcDbEntity
  8
1
100
AcDbLine
 10
13.52061399999999
 20
-1.192719
 30
0.0
 11
15.27078600000001
 21
-1.414999999999999
 31
0.0
  0
LINE
  5
2D41
330
BF7
100
AcDbEntity
  8
1
100
AcDbLine
 10
11.772283
 20
-0.6941260000000007
 30
0.0
 11
13.52061399999999
 21
-1.192719
 31
0.0
  0
LINE
  5
2D42
330
BF7
100
AcDbEntity
  8
1
100
AcDbLine
 10
10.93283600000001
 20
-0.8796539999999986
 30
0.0
 11
10.202194
 21
-0.4666900000000034
 31
0.0
  0
LINE
  5
2D43
330
BF7
100
AcDbEntity
  8
1
100
AcDbLine
 10
12.13928500000001
 20
-1.47416
 30
0.0
 11
10.93283600000001
 21
-0.8796539999999986
 31
0.0
  0
LINE
  5
2D44
330
BF7
100
AcDbEntity
  8
1
100
AcDbLine
 10
13.311603
 20
-1.89367
 30
0.0
 11
12.13928500000001
 21
-1.47416
 31
0.0
  0
LINE
  5
2D45
330
BF7
100
AcDbEntity
  8
1
100
AcDbLine
 10
14.517815
 20
-2.114930000000001
 30
0.0
 11
13.311603
 21
-1.89367
 31
0.0
  0
LINE
  5
2D46
330
BF7
100
AcDbEntity
  8
1
100
AcDbLine
 10
15.69010300000001
 20
-2.102274
 30
0.0
 11
14.517815
 21
-2.114930000000001
 31
0.0
  0
LINE
  5
2D47
330
BF7
100
AcDbEntity
  8
1
100
AcDbLine
 10
16.896437
 20
-1.856340000000002
 30
0.0
 11
15.69010300000001
 21
-2.102274
 31
0.0
  0
LINE
  5
2D48
330
BF7
100
AcDbEntity
  8
1
100
AcDbLine
 10
18.06876100000001
 20
-1.416955
 30
0.0
 11
16.896437
 21
-1.856340000000002
 31
0.0
  0
LINE
  5
2D49
330
BF7
100
AcDbEntity
  8
1
100
AcDbLine
 10
18.17026899999999
 20
-1.365744999999999
 30
0.0
 11
18.06876100000001
 21
-1.416955
 31
0.0
  0
LINE
  5
2D4A
330
BF7
100
AcDbEntity
  8
1
100
AcDbLine
 10
27.58358800000001
 20
1.999304999999998
 30
0.0
 11
26.28940800000001
 21
2.126556
 31
0.0
  0
LINE
  5
2D4B
330
BF7
100
AcDbEntity
  8
1
100
AcDbLine
 10
28.789873
 20
1.637105999999999
 30
0.0
 11
27.58358800000001
 21
1.999304999999998
 31
0.0
  0
LINE
  5
2D4C
330
BF7
100
AcDbEntity
  8
1
100
AcDbLine
 10
29.96210000000001
 20
1.108261999999998
 30
0.0
 11
28.789873
 21
1.637105999999999
 31
0.0
  0
LINE
  5
2D4D
330
BF7
100
AcDbEntity
  8
1
100
AcDbLine
 10
31.16838600000001
 20
0.441780999999999
 30
0.0
 11
29.96210000000001
 21
1.108261999999998
 31
0.0
  0
LINE
  5
2D4E
330
BF7
100
AcDbEntity
  8
1
100
AcDbLine
 10
32.340698
 20
-0.2541520000000013
 30
0.0
 11
31.16838600000001
 21
0.441780999999999
 31
0.0
  0
LINE
  5
2D4F
330
BF7
100
AcDbEntity
  8
1
100
AcDbLine
 10
33.54718900000002
 20
-0.9414160000000002
 30
0.0
 11
32.340698
 21
-0.2541520000000013
 31
0.0
  0
LINE
  5
2D50
330
BF7
100
AcDbEntity
  8
1
100
AcDbLine
 10
34.71963400000002
 20
-1.508552
 30
0.0
 11
33.54718900000002
 21
-0.9414160000000002
 31
0.0
  0
LINE
  5
2D51
330
BF7
100
AcDbEntity
  8
1
100
AcDbLine
 10
35.926029
 20
-1.924301999999999
 30
0.0
 11
34.71963400000002
 21
-1.508552
 31
0.0
  0
LINE
  5
2D52
330
BF7
100
AcDbEntity
  8
1
100
AcDbLine
 10
37.098401
 20
-2.121335999999999
 30
0.0
 11
35.926029
 21
-1.924301999999999
 31
0.0
  0
LINE
  5
2D53
330
BF7
100
AcDbEntity
  8
1
100
AcDbLine
 10
38.30448100000001
 20
-2.088817000000001
 30
0.0
 11
37.098401
 21
-2.121335999999999
 31
0.0
  0
LINE
  5
2D54
330
BF7
100
AcDbEntity
  8
1
100
AcDbLine
 10
39.47669600000001
 20
-1.832118
 30
0.0
 11
38.30448100000001
 21
-2.088817000000001
 31
0.0
  0
LINE
  5
2D55
330
BF7
100
AcDbEntity
  8
1
100
AcDbLine
 10
40.68315100000001
 20
-1.365296999999997
 30
0.0
 11
39.47669600000001
 21
-1.832118
 31
0.0
  0
LINE
  5
2D56
330
BF7
100
AcDbEntity
  8
1
100
AcDbLine
 10
40.68594899999999
 20
-1.363856999999999
 30
0.0
 11
40.68315100000001
 21
-1.365296999999997
 31
0.0
  0
LINE
  5
2D57
330
BF7
100
AcDbEntity
  8
1
100
AcDbLine
 10
50.19782000000001
 20
1.974178999999999
 30
0.0
 11
48.78972999999999
 21
2.121253999999995
 31
0.0
  0
LINE
  5
2D58
330
BF7
100
AcDbEntity
  8
1
100
AcDbLine
 10
51.37010800000002
 20
1.605893999999999
 30
0.0
 11
50.19782000000001
 21
1.974178999999999
 31
0.0
  0
LINE
  5
2D59
330
BF7
100
AcDbEntity
  8
1
100
AcDbLine
 10
52.576841
 20
1.049133
 30
0.0
 11
51.37010800000002
 21
1.605893999999999
 31
0.0
  0
LINE
  5
2D5A
330
BF7
100
AcDbEntity
  8
1
100
AcDbLine
 10
53.74948
 20
0.3942669999999992
 30
0.0
 11
52.576841
 21
1.049133
 31
0.0
  0
LINE
  5
2D5B
330
BF7
100
AcDbEntity
  8
1
100
AcDbLine
 10
54.95529300000001
 20
-0.3219300000000018
 30
0.0
 11
53.74948
 21
0.3942669999999992
 31
0.0
  0
LINE
  5
2D5C
330
BF7
100
AcDbEntity
  8
1
100
AcDbLine
 10
56.12721800000002
 20
-0.9839839999999997
 30
0.0
 11
54.95529300000001
 21
-0.3219300000000018
 31
0.0
  0
LINE
  5
2D5D
330
BF7
100
AcDbEntity
  8
1
100
AcDbLine
 10
57.33347900000001
 20
-1.555918
 30
0.0
 11
56.12721800000002
 21
-0.9839839999999997
 31
0.0
  0
LINE
  5
2D5E
330
BF7
100
AcDbEntity
  8
1
100
AcDbLine
 10
58.50575499999999
 20
-1.944572
 30
0.0
 11
57.33347900000001
 21
-1.555918
 31
0.0
  0
LINE
  5
2D5F
330
BF7
100
AcDbEntity
  8
1
100
AcDbLine
 10
59.71222199999999
 20
-2.128603999999999
 30
0.0
 11
58.50575499999999
 21
-1.944572
 31
0.0
  0
LINE
  5
2D60
330
BF7
100
AcDbEntity
  8
1
100
AcDbLine
 10
60.88461899999998
 20
-2.078148999999998
 30
0.0
 11
59.71222199999999
 21
-2.128603999999999
 31
0.0
  0
LINE
  5
2D61
330
BF7
100
AcDbEntity
  8
1
100
AcDbLine
 10
62.090856
 20
-1.796111999999999
 30
0.0
 11
60.88461899999998
 21
-2.078148999999998
 31
0.0
  0
LINE
  5
2D62
330
BF7
100
AcDbEntity
  8
1
100
AcDbLine
 10
63.172585
 20
-1.364336999999999
 30
0.0
 11
62.090856
 21
-1.796111999999999
 31
0.0
  0
LINE
  5
2D63
330
BF7
100
AcDbEntity
  8
1
100
AcDbLine
 10
72.77826000000001
 20
1.955264000000003
 30
0.0
 11
71.288586
 21
2.114077999999995
 31
0.0
  0
LINE
  5
2D64
330
BF7
100
AcDbEntity
  8
1
100
AcDbLine
 10
73.98454599999998
 20
1.560041999999999
 30
0.0
 11
72.77826000000001
 21
1.955264000000003
 31
0.0
  0
LINE
  5
2D65
330
BF7
100
AcDbEntity
  8
1
100
AcDbLine
 10
75.15672499999998
 20
1.007322999999998
 30
0.0
 11
73.98454599999998
 21
1.560041999999999
 31
0.0
  0
LINE
  5
2D66
330
BF7
100
AcDbEntity
  8
1
100
AcDbLine
 10
76.36308300000002
 20
0.32742
 30
0.0
 11
75.15672499999998
 21
1.007322999999998
 31
0.0
  0
LINE
  5
2D67
330
BF7
100
AcDbEntity
  8
1
100
AcDbLine
 10
77.535516
 20
-0.3691550000000028
 30
0.0
 11
76.36308300000002
 21
0.32742
 31
0.0
  0
LINE
  5
2D68
330
BF7
100
AcDbEntity
  8
1
100
AcDbLine
 10
78.74169200000003
 20
-1.044235
 30
0.0
 11
77.535516
 21
-0.3691550000000028
 31
0.0
  0
LINE
  5
2D69
330
BF7
100
AcDbEntity
  8
1
100
AcDbLine
 10
79.913895
 20
-1.588433
 30
0.0
 11
78.74169200000003
 21
-1.044235
 31
0.0
  0
LINE
  5
2D6A
330
BF7
100
AcDbEntity
  8
1
100
AcDbLine
 10
81.12045900000003
 20
-1.971934999999998
 30
0.0
 11
79.913895
 21
-1.588433
 31
0.0
  0
LINE
  5
2D6B
330
BF7
100
AcDbEntity
  8
1
100
AcDbLine
 10
82.29289300000003
 20
-2.132449999999997
 30
0.0
 11
81.12045900000003
 21
-1.971934999999998
 31
0.0
  0
LINE
  5
2D6C
330
BF7
100
AcDbEntity
  8
1
100
AcDbLine
 10
83.49913
 20
-2.061081999999998
 30
0.0
 11
82.29289300000003
 21
-2.132449999999997
 31
0.0
  0
LINE
  5
2D6D
330
BF7
100
AcDbEntity
  8
1
100
AcDbLine
 10
84.67153900000003
 20
-1.769574999999998
 30
0.0
 11
83.49913
 21
-2.061081999999998
 31
0.0
  0
LINE
  5
2D6E
330
BF7
100
AcDbEntity
  8
1
100
AcDbLine
 10
85.666875
 20
-1.360561
 30
0.0
 11
84.67153900000003
 21
-1.769574999999998
 31
0.0
  0
LINE
  5
2D6F
330
BF7
100
AcDbEntity
  8
1
100
AcDbLine
 10
95.39206900000001
 20
1.926840999999999
 30
0.0
 11
93.78889599999999
 21
2.111903999999999
 31
0.0
  0
LINE
  5
2D70
330
BF7
100
AcDbEntity
  8
1
100
AcDbLine
 10
96.56434500000001
 20
1.527152999999997
 30
0.0
 11
95.39206900000001
 21
1.926840999999999
 31
0.0
  0
LINE
  5
2D71
330
BF7
100
AcDbEntity
  8
1
100
AcDbLine
 10
97.77049699999999
 20
0.9469039999999999
 30
0.0
 11
96.56434500000001
 21
1.527152999999997
 31
0.0
  0
LINE
  5
2D72
330
BF7
100
AcDbEntity
  8
1
100
AcDbLine
 10
98.942676
 20
0.2803719999999998
 30
0.0
 11
97.77049699999999
 21
0.9469039999999999
 31
0.0
  0
LINE
  5
2D73
330
BF7
100
AcDbEntity
  8
1
100
AcDbLine
 10
100.149191
 20
-0.4357770000000018
 30
0.0
 11
98.942676
 21
0.2803719999999998
 31
0.0
  0
LINE
  5
2D74
330
BF7
100
AcDbEntity
  8
1
100
AcDbLine
 10
101.3216239999999
 20
-1.085620000000002
 30
0.0
 11
100.149191
 21
-0.4357770000000018
 31
0.0
  0
LINE
  5
2D75
330
BF7
100
AcDbEntity
  8
1
100
AcDbLine
 10
102.524276
 20
-1.631754
 30
0.0
 11
101.3216239999999
 21
-1.085620000000002
 31
0.0
  0
LINE
  5
2D76
330
BF7
100
AcDbEntity
  8
1
100
AcDbLine
 10
103.693245
 20
-1.988277
 30
0.0
 11
102.524276
 21
-1.631754
 31
0.0
  0
LINE
  5
2D77
330
BF7
100
AcDbEntity
  8
1
100
AcDbLine
 10
104.717299
 20
-2.128889
 30
0.0
 11
103.693245
 21
-1.988277
 31
0.0
  0
LINE
  5
2D78
330
BF7
100
AcDbEntity
  8
1
100
AcDbLine
 10
105.720266
 20
-2.098894
 30
0.0
 11
104.717299
 21
-2.128889
 31
0.0
  0
LINE
  5
2D79
330
BF7
100
AcDbEntity
  8
1
100
AcDbLine
 10
106.586577
 20
-1.940533999999999
 30
0.0
 11
105.720266
 21
-2.098894
 31
0.0
  0
LINE
  5
2D7A
330
BF7
100
AcDbEntity
  8
1
100
AcDbLine
 10
107.452888
 20
-1.670013
 30
0.0
 11
106.586577
 21
-1.940533999999999
 31
0.0
  0
LINE
  5
2D7B
330
BF7
100
AcDbEntity
  8
1
100
AcDbLine
 10
94.06815500000002
 20
-1.415494999999999
 30
0.0
 11
96.461444
 21
-1.142149999999999
 31
0.0
  0
LINE
  5
2D7C
330
BF7
100
AcDbEntity
  8
1
100
AcDbLine
 10
92.317026
 20
-1.202411999999998
 30
0.0
 11
94.06815500000002
 21
-1.415494999999999
 31
0.0
  0
LINE
  5
2D7D
330
BF7
100
AcDbEntity
  8
1
100
AcDbLine
 10
90.566249
 20
-0.7073779999999985
 30
0.0
 11
92.317026
 21
-1.202411999999998
 31
0.0
  0
LINE
  5
2D7E
330
BF7
100
AcDbEntity
  8
1
100
AcDbLine
 10
89.04772500000001
 20
-0.1339280000000009
 30
0.0
 11
90.566249
 21
-0.7073779999999985
 31
0.0
  0
LINE
  5
2D7F
330
BF7
100
AcDbEntity
  8
1
100
AcDbLine
 10
71.30484000000001
 20
-1.404916
 30
0.0
 11
73.95025800000002
 21
-1.141324
 31
0.0
  0
LINE
  5
2D80
330
BF7
100
AcDbEntity
  8
1
100
AcDbLine
 10
69.553809
 20
-1.144260999999999
 30
0.0
 11
71.30484000000001
 21
-1.404916
 31
0.0
  0
LINE
  5
2D81
330
BF7
100
AcDbEntity
  8
1
100
AcDbLine
 10
67.80303100000001
 20
-0.615158000000001
 30
0.0
 11
69.553809
 21
-1.144260999999999
 31
0.0
  0
LINE
  5
2D82
330
BF7
100
AcDbEntity
  8
1
100
AcDbLine
 10
66.13102800000001
 20
0.0278109999999998
 30
0.0
 11
67.80303100000001
 21
-0.615158000000001
 31
0.0
  0
LINE
  5
2D83
330
BF7
100
AcDbEntity
  8
1
100
AcDbLine
 10
48.54146500000002
 20
-1.386414000000002
 30
0.0
 11
51.51169300000001
 21
-1.132649999999998
 31
0.0
  0
LINE
  5
2D84
330
BF7
100
AcDbEntity
  8
1
100
AcDbLine
 10
46.79000900000001
 20
-1.079137999999999
 30
0.0
 11
48.54146500000002
 21
-1.386414000000002
 31
0.0
  0
LINE
  5
2D85
330
BF7
100
AcDbEntity
  8
1
100
AcDbLine
 10
45.03865099999997
 20
-0.5189640000000006
 30
0.0
 11
46.79000900000001
 21
-1.079137999999999
 31
0.0
  0
LINE
  5
2D86
330
BF7
100
AcDbEntity
  8
1
100
AcDbLine
 10
44.077142
 20
-0.1447650000000031
 30
0.0
 11
45.03865099999997
 21
-0.5189640000000006
 31
0.0
  0
LINE
  5
2D87
330
BF7
100
AcDbEntity
  8
1
100
AcDbLine
 10
25.777424
 20
-1.359411
 30
0.0
 11
28.96161600000002
 21
-1.152415000000001
 31
0.0
  0
LINE
  5
2D88
330
BF7
100
AcDbEntity
  8
1
100
AcDbLine
 10
24.02665800000001
 20
-1.008037999999998
 30
0.0
 11
25.777424
 21
-1.359411
 31
0.0
  0
LINE
  5
2D89
330
BF7
100
AcDbEntity
  8
1
100
AcDbLine
 10
22.275603
 20
-0.4204800000000013
 30
0.0
 11
24.02665800000001
 21
-1.008037999999998
 31
0.0
  0
LINE
  5
2D8A
330
BF7
100
AcDbEntity
  8
1
100
AcDbLine
 10
21.137445
 20
0.0253569999999996
 30
0.0
 11
22.275603
 21
-0.4204800000000013
 31
0.0
  0
LINE
  5
2D8B
330
BF7
100
AcDbEntity
  8
1
100
AcDbLine
 10
16.896437
 20
1.856339
 30
0.0
 11
15.03998600000001
 21
2.109290999999998
 31
0.0
  0
LINE
  5
2D8C
330
BF7
100
AcDbEntity
  8
1
100
AcDbLine
 10
18.06876100000001
 20
1.416954999999996
 30
0.0
 11
16.896437
 21
1.856339
 31
0.0
  0
LINE
  5
2D8D
330
BF7
100
AcDbEntity
  8
1
100
AcDbLine
 10
19.274902
 20
0.8084919999999975
 30
0.0
 11
18.06876100000001
 21
1.416954999999996
 31
0.0
  0
LINE
  5
2D8E
330
BF7
100
AcDbEntity
  8
1
100
AcDbLine
 10
20.44704399999999
 20
0.1294159999999991
 30
0.0
 11
19.274902
 21
0.8084919999999975
 31
0.0
  0
LINE
  5
2D8F
330
BF7
100
AcDbEntity
  8
1
100
AcDbLine
 10
21.65352299999999
 20
-0.5831879999999999
 30
0.0
 11
20.44704399999999
 21
0.1294159999999991
 31
0.0
  0
LINE
  5
2D90
330
BF7
100
AcDbEntity
  8
1
100
AcDbLine
 10
22.825956
 20
-1.213554000000002
 30
0.0
 11
21.65352299999999
 21
-0.5831879999999999
 31
0.0
  0
LINE
  5
2D91
330
BF7
100
AcDbEntity
  8
1
100
AcDbLine
 10
24.032472
 20
-1.726979
 30
0.0
 11
22.825956
 21
-1.213554000000002
 31
0.0
  0
LINE
  5
2D92
330
BF7
100
AcDbEntity
  8
1
100
AcDbLine
 10
25.204954
 20
-2.040284999999999
 30
0.0
 11
24.032472
 21
-1.726979
 31
0.0
  0
LINE
  5
2D93
330
BF7
100
AcDbEntity
  8
1
100
AcDbLine
 10
26.41126300000002
 20
-2.136249999999999
 30
0.0
 11
25.204954
 21
-2.040284999999999
 31
0.0
  0
LINE
  5
2D94
330
BF7
100
AcDbEntity
  8
1
100
AcDbLine
 10
27.58358800000001
 20
-1.999304999999998
 30
0.0
 11
26.41126300000002
 21
-2.136249999999999
 31
0.0
  0
LINE
  5
2D95
330
BF7
100
AcDbEntity
  8
1
100
AcDbLine
 10
28.789873
 20
-1.637105
 30
0.0
 11
27.58358800000001
 21
-1.999304999999998
 31
0.0
  0
LINE
  5
2D96
330
BF7
100
AcDbEntity
  8
1
100
AcDbLine
 10
29.41367199999999
 20
-1.355685
 30
0.0
 11
28.789873
 21
-1.637105
 31
0.0
  0
LINE
  5
2D97
330
BF7
100
AcDbEntity
  8
1
100
AcDbLine
 10
39.47669600000001
 20
1.832119000000002
 30
0.0
 11
37.53880600000001
 21
2.109460999999999
 31
0.0
  0
LINE
  5
2D98
330
BF7
100
AcDbEntity
  8
1
100
AcDbLine
 10
40.68315100000001
 20
1.365295999999996
 30
0.0
 11
39.47669600000001
 21
1.832119000000002
 31
0.0
  0
LINE
  5
2D99
330
BF7
100
AcDbEntity
  8
1
100
AcDbLine
 10
41.85542699999999
 20
0.7637609999999988
 30
0.0
 11
40.68315100000001
 21
1.365295999999996
 31
0.0
  0
LINE
  5
2D9A
330
BF7
100
AcDbEntity
  8
1
100
AcDbLine
 10
43.06166400000001
 20
0.0608729999999973
 30
0.0
 11
41.85542699999999
 21
0.7637609999999988
 31
0.0
  0
LINE
  5
2D9B
330
BF7
100
AcDbEntity
  8
1
100
AcDbLine
 10
44.234061
 20
-0.6292240000000007
 30
0.0
 11
43.06166400000001
 21
0.0608729999999973
 31
0.0
  0
LINE
  5
2D9C
330
BF7
100
AcDbEntity
  8
1
100
AcDbLine
 10
45.44047900000001
 20
-1.269096000000001
 30
0.0
 11
44.234061
 21
-0.6292240000000007
 31
0.0
  0
LINE
  5
2D9D
330
BF7
100
AcDbEntity
  8
1
100
AcDbLine
 10
46.61281600000001
 20
-1.754845999999999
 30
0.0
 11
45.44047900000001
 21
-1.269096000000001
 31
0.0
  0
LINE
  5
2D9E
330
BF7
100
AcDbEntity
  8
1
100
AcDbLine
 10
47.81920999999999
 20
-2.059598
 30
0.0
 11
46.61281600000001
 21
-1.754845999999999
 31
0.0
  0
LINE
  5
2D9F
330
BF7
100
AcDbEntity
  8
1
100
AcDbLine
 10
48.991559
 20
-2.134075999999999
 30
0.0
 11
47.81920999999999
 21
-2.059598
 31
0.0
  0
LINE
  5
2DA0
330
BF7
100
AcDbEntity
  8
1
100
AcDbLine
 10
50.19782000000001
 20
-1.974180999999996
 30
0.0
 11
48.991559
 21
-2.134075999999999
 31
0.0
  0
LINE
  5
2DA1
330
BF7
100
AcDbEntity
  8
1
100
AcDbLine
 10
51.37010800000002
 20
-1.605895
 30
0.0
 11
50.19782000000001
 21
-1.974180999999996
 31
0.0
  0
LINE
  5
2DA2
330
BF7
100
AcDbEntity
  8
1
100
AcDbLine
 10
51.91553200000001
 20
-1.354248
 30
0.0
 11
51.37010800000002
 21
-1.605895
 31
0.0
  0
LINE
  5
2DA3
330
BF7
100
AcDbEntity
  8
1
100
AcDbLine
 10
62.090856
 20
1.796110999999999
 30
0.0
 11
60.036136
 21
2.114663
 31
0.0
  0
LINE
  5
2DA4
330
BF7
100
AcDbEntity
  8
1
100
AcDbLine
 10
63.26309499999999
 20
1.328207000000001
 30
0.0
 11
62.090856
 21
1.796110999999999
 31
0.0
  0
LINE
  5
2DA5
330
BF7
100
AcDbEntity
  8
1
100
AcDbLine
 10
64.46940500000001
 20
0.6998289999999976
 30
0.0
 11
63.26309499999999
 21
1.328207000000001
 31
0.0
  0
LINE
  5
2DA6
330
BF7
100
AcDbEntity
  8
1
100
AcDbLine
 10
65.64177800000002
 20
0.0131690000000013
 30
0.0
 11
64.46940500000001
 21
0.6998289999999976
 31
0.0
  0
LINE
  5
2DA7
330
BF7
100
AcDbEntity
  8
1
100
AcDbLine
 10
66.84817200000001
 20
-0.6940439999999981
 30
0.0
 11
65.64177800000002
 21
0.0131690000000013
 31
0.0
  0
LINE
  5
2DA8
330
BF7
100
AcDbEntity
  8
1
100
AcDbLine
 10
68.02051999999999
 20
-1.307308000000001
 30
0.0
 11
66.84817200000001
 21
-0.6940439999999981
 31
0.0
  0
LINE
  5
2DA9
330
BF7
100
AcDbEntity
  8
1
100
AcDbLine
 10
69.22692699999998
 20
-1.792792000000002
 30
0.0
 11
68.02051999999999
 21
-1.307308000000001
 31
0.0
  0
LINE
  5
2DAA
330
BF7
100
AcDbEntity
  8
1
100
AcDbLine
 10
70.39930000000002
 20
-2.071864000000001
 30
0.0
 11
69.22692699999998
 21
-1.792792000000002
 31
0.0
  0
LINE
  5
2DAB
330
BF7
100
AcDbEntity
  8
1
100
AcDbLine
 10
71.60575399999998
 20
-2.129134
 30
0.0
 11
70.39930000000002
 21
-2.071864000000001
 31
0.0
  0
LINE
  5
2DAC
330
BF7
100
AcDbEntity
  8
1
100
AcDbLine
 10
72.77826000000001
 20
-1.955265
 30
0.0
 11
71.60575399999998
 21
-2.129134
 31
0.0
  0
LINE
  5
2DAD
330
BF7
100
AcDbEntity
  8
1
100
AcDbLine
 10
73.98454599999998
 20
-1.560043
 30
0.0
 11
72.77826000000001
 21
-1.955265
 31
0.0
  0
LINE
  5
2DAE
330
BF7
100
AcDbEntity
  8
1
100
AcDbLine
 10
74.40376700000001
 20
-1.362369
 30
0.0
 11
73.98454599999998
 21
-1.560043
 31
0.0
  0
LINE
  5
2DAF
330
BF7
100
AcDbEntity
  8
1
100
AcDbLine
 10
84.67153900000003
 20
1.769573999999997
 30
0.0
 11
82.53644599999999
 21
2.118039000000003
 31
0.0
  0
LINE
  5
2DB0
330
BF7
100
AcDbEntity
  8
1
100
AcDbLine
 10
85.877545
 20
1.273991999999998
 30
0.0
 11
84.67153900000003
 21
1.769573999999997
 31
0.0
  0
LINE
  5
2DB1
330
BF7
100
AcDbEntity
  8
1
100
AcDbLine
 10
87.04948200000002
 20
0.6544770000000001
 30
0.0
 11
85.877545
 21
1.273991999999998
 31
0.0
  0
LINE
  5
2DB2
330
BF7
100
AcDbEntity
  8
1
100
AcDbLine
 10
88.25614300000003
 20
-0.0550650000000026
 30
0.0
 11
87.04948200000002
 21
0.6544770000000001
 31
0.0
  0
LINE
  5
2DB3
330
BF7
100
AcDbEntity
  8
1
100
AcDbLine
 10
89.428782
 20
-0.7393830000000003
 30
0.0
 11
88.25614300000003
 21
-0.0550650000000026
 31
0.0
  0
LINE
  5
2DB4
330
BF7
100
AcDbEntity
  8
1
100
AcDbLine
 10
90.63491000000002
 20
-1.360665999999997
 30
0.0
 11
89.428782
 21
-0.7393830000000003
 31
0.0
  0
LINE
  5
2DB5
330
BF7
100
AcDbEntity
  8
1
100
AcDbLine
 10
91.807137
 20
-1.818374999999999
 30
0.0
 11
90.63491000000002
 21
-1.360665999999997
 31
0.0
  0
LINE
  5
2DB6
330
BF7
100
AcDbEntity
  8
1
100
AcDbLine
 10
93.01355599999999
 20
-2.087569999999999
 30
0.0
 11
91.807137
 21
-1.818374999999999
 31
0.0
  0
LINE
  5
2DB7
330
BF7
100
AcDbEntity
  8
1
100
AcDbLine
 10
94.185856
 20
-2.124363999999999
 30
0.0
 11
93.01355599999999
 21
-2.087569999999999
 31
0.0
  0
LINE
  5
2DB8
330
BF7
100
AcDbEntity
  8
1
100
AcDbLine
 10
95.39206900000001
 20
-1.926841999999999
 30
0.0
 11
94.185856
 21
-2.124363999999999
 31
0.0
  0
LINE
  5
2DB9
330
BF7
100
AcDbEntity
  8
1
100
AcDbLine
 10
96.56434500000001
 20
-1.527152999999997
 30
0.0
 11
95.39206900000001
 21
-1.926841999999999
 31
0.0
  0
LINE
  5
2DBA
330
BF7
100
AcDbEntity
  8
1
100
AcDbLine
 10
96.919325
 20
-1.356380999999997
 30
0.0
 11
96.56434500000001
 21
-1.527152999999997
 31
0.0
  0
LINE
  5
2DBB
330
BF7
100
AcDbEntity
  8
1
100
AcDbLine
 10
106.586577
 20
1.940533000000002
 30
0.0
 11
105.037846
 21
2.119300999999999
 31
0.0
  0
LINE
  5
2DBC
330
BF7
100
AcDbEntity
  8
1
100
AcDbLine
 10
107.452888
 20
1.670013
 30
0.0
 11
106.586577
 21
1.940533000000002
 31
0.0
  0
LINE
  5
2DBD
330
BF7
100
AcDbEntity
  8
1
100
AcDbLine
 10
109.159167
 20
-1.203614000000001
 30
0.0
 11
109.162606
 21
-1.082086999999996
 31
0.0
  0
LINE
  5
2DBE
330
BF7
100
AcDbEntity
  8
1
100
AcDbLine
 10
109.160547
 20
-1.358376999999999
 30
0.0
 11
109.159167
 21
-1.203614000000001
 31
0.0
  0
LINE
  5
2DBF
330
BF7
100
AcDbEntity
  8
1
100
AcDbLine
 10
109.99997
 20
0.0175069999999984
 30
0.0
 11
109.99997
 21
-0.017507000000002
 31
0.0
  0
LINE
  5
2DC0
330
BF7
100
AcDbEntity
  8
1
100
AcDbLine
 10
109.993442
 20
-0.0531569999999988
 30
0.0
 11
109.970479
 21
-0.1555900000000001
 31
0.0
  0
LINE
  5
2DC1
330
BF7
100
AcDbEntity
  8
1
100
AcDbLine
 10
109.970479
 20
-0.1555900000000001
 30
0.0
 11
109.922553
 21
-0.4405910000000013
 31
0.0
  0
LINE
  5
2DC2
330
BF7
100
AcDbEntity
  8
1
100
AcDbLine
 10
109.885879
 20
-0.6410349999999987
 30
0.0
 11
109.922553
 21
-0.4405910000000013
 31
0.0
  0
LINE
  5
2DC3
330
BF7
100
AcDbEntity
  8
1
100
AcDbLine
 10
109.259076
 20
-1.633740999999999
 30
0.0
 11
109.155787
 21
-1.805576000000002
 31
0.0
  0
LINE
  5
2DC4
330
BF7
100
AcDbEntity
  8
1
100
AcDbLine
 10
109.380265
 20
-1.438379000000001
 30
0.0
 11
109.259076
 21
-1.633740999999999
 31
0.0
  0
LINE
  5
2DC5
330
BF7
100
AcDbEntity
  8
1
100
AcDbLine
 10
109.566918
 20
-1.144898000000001
 30
0.0
 11
109.380265
 21
-1.438379000000001
 31
0.0
  0
LINE
  5
2DC6
330
BF7
100
AcDbEntity
  8
1
100
AcDbLine
 10
109.753571
 20
-0.8519350000000008
 30
0.0
 11
109.566918
 21
-1.144898000000001
 31
0.0
  0
LINE
  5
2DC7
330
BF7
100
AcDbEntity
  8
1
100
AcDbLine
 10
109.885879
 20
-0.6410349999999987
 30
0.0
 11
109.753571
 21
-0.8519350000000008
 31
0.0
  0
LINE
  5
2DC8
330
BF7
100
AcDbEntity
  8
1
100
AcDbLine
 10
109.160705
 20
-1.367589000000002
 30
0.0
 11
109.160547
 21
-1.358376999999999
 31
0.0
  0
LINE
  5
2DC9
330
BF7
100
AcDbEntity
  8
1
100
AcDbLine
 10
109.156611
 20
-1.423906999999999
 30
0.0
 11
109.160705
 21
-1.367589000000002
 31
0.0
  0
LINE
  5
2DCA
330
BF7
100
AcDbEntity
  8
1
100
AcDbLine
 10
109.145044
 20
-1.484930000000002
 30
0.0
 11
109.156611
 21
-1.423906999999999
 31
0.0
  0
LINE
  5
2DCB
330
BF7
100
AcDbEntity
  8
1
100
AcDbLine
 10
109.123413
 20
-1.560666000000001
 30
0.0
 11
109.145044
 21
-1.484930000000002
 31
0.0
  0
LINE
  5
2DCC
330
BF7
100
AcDbEntity
  8
1
100
AcDbLine
 10
109.155787
 20
-1.805576000000002
 30
0.0
 11
109.123413
 21
-1.560666000000001
 31
0.0
  0
LINE
  5
2DCD
330
BF7
100
AcDbEntity
  8
1
100
AcDbLine
 10
108.785134
 20
-1.657444999999999
 30
0.0
 11
109.155787
 21
-1.805576000000002
 31
0.0
  0
LINE
  5
2DCE
330
BF7
100
AcDbEntity
  8
1
100
AcDbLine
 10
107.624413
 20
-1.088954000000001
 30
0.0
 11
108.785134
 21
-1.657444999999999
 31
0.0
  0
LINE
  5
2DCF
330
BF7
100
AcDbEntity
  8
1
100
AcDbLine
 10
106.497532
 20
-0.4258920000000012
 30
0.0
 11
107.624413
 21
-1.088954000000001
 31
0.0
  0
LINE
  5
2DD0
330
BF7
100
AcDbEntity
  8
1
100
AcDbLine
 10
105.336641
 20
0.3017889999999994
 30
0.0
 11
106.497532
 21
-0.4258920000000012
 31
0.0
  0
LINE
  5
2DD1
330
BF7
100
AcDbEntity
  8
1
100
AcDbLine
 10
104.20764
 20
0.9779739999999994
 30
0.0
 11
105.336641
 21
0.3017889999999994
 31
0.0
  0
LINE
  5
2DD2
330
BF7
100
AcDbEntity
  8
1
100
AcDbLine
 10
103.046059
 20
1.572569
 30
0.0
 11
104.20764
 21
0.9779739999999994
 31
0.0
  0
LINE
  5
2DD3
330
BF7
100
AcDbEntity
  8
1
100
AcDbLine
 10
101.917506
 20
1.994052000000003
 30
0.0
 11
103.046059
 21
1.572569
 31
0.0
  0
LINE
  5
2DD4
330
BF7
100
AcDbEntity
  8
1
100
AcDbLine
 10
100.757015
 20
2.221953999999996
 30
0.0
 11
101.917506
 21
1.994052000000003
 31
0.0
  0
LINE
  5
2DD5
330
BF7
100
AcDbEntity
  8
1
100
AcDbLine
 10
99.62964900000001
 20
2.222414
 30
0.0
 11
100.757015
 21
2.221953999999996
 31
0.0
  0
LINE
  5
2DD6
330
BF7
100
AcDbEntity
  8
1
100
AcDbLine
 10
98.46822500000001
 20
1.993596999999996
 30
0.0
 11
99.62964900000001
 21
2.222414
 31
0.0
  0
LINE
  5
2DD7
330
BF7
100
AcDbEntity
  8
1
100
AcDbLine
 10
97.33848600000001
 20
1.571908999999998
 30
0.0
 11
98.46822500000001
 21
1.993596999999996
 31
0.0
  0
LINE
  5
2DD8
330
BF7
100
AcDbEntity
  8
1
100
AcDbLine
 10
96.917763
 20
1.357071999999997
 30
0.0
 11
97.33848600000001
 21
1.571908999999998
 31
0.0
  0
LINE
  5
2DD9
330
BF7
100
AcDbEntity
  8
1
100
AcDbLine
 10
87.02053500000003
 20
-1.933030999999999
 30
0.0
 11
88.941481
 21
-2.225503999999999
 31
0.0
  0
LINE
  5
2DDA
330
BF7
100
AcDbEntity
  8
1
100
AcDbLine
 10
85.89109800000001
 20
-1.481268
 30
0.0
 11
87.02053500000003
 21
-1.933030999999999
 31
0.0
  0
LINE
  5
2DDB
330
BF7
100
AcDbEntity
  8
1
100
AcDbLine
 10
84.73012299999998
 20
-0.8657529999999978
 30
0.0
 11
85.89109800000001
 21
-1.481268
 31
0.0
  0
LINE
  5
2DDC
330
BF7
100
AcDbEntity
  8
1
100
AcDbLine
 10
83.602781
 20
-0.1792589999999983
 30
0.0
 11
84.73012299999998
 21
-0.8657529999999978
 31
0.0
  0
LINE
  5
2DDD
330
BF7
100
AcDbEntity
  8
1
100
AcDbLine
 10
82.441127
 20
0.5450580000000011
 30
0.0
 11
83.602781
 21
-0.1792589999999983
 31
0.0
  0
LINE
  5
2DDE
330
BF7
100
AcDbEntity
  8
1
100
AcDbLine
 10
81.31221100000002
 20
1.194994000000001
 30
0.0
 11
82.441127
 21
0.5450580000000011
 31
0.0
  0
LINE
  5
2DDF
330
BF7
100
AcDbEntity
  8
1
100
AcDbLine
 10
80.15187800000003
 20
1.740460999999999
 30
0.0
 11
81.31221100000002
 21
1.194994000000001
 31
0.0
  0
LINE
  5
2DE0
330
BF7
100
AcDbEntity
  8
1
100
AcDbLine
 10
79.023301
 20
2.096377000000003
 30
0.0
 11
80.15187800000003
 21
1.740460999999999
 31
0.0
  0
LINE
  5
2DE1
330
BF7
100
AcDbEntity
  8
1
100
AcDbLine
 10
77.861489
 20
2.247414999999996
 30
0.0
 11
79.023301
 21
2.096377000000003
 31
0.0
  0
LINE
  5
2DE2
330
BF7
100
AcDbEntity
  8
1
100
AcDbLine
 10
76.733869
 20
2.169874
 30
0.0
 11
77.861489
 21
2.247414999999996
 31
0.0
  0
LINE
  5
2DE3
330
BF7
100
AcDbEntity
  8
1
100
AcDbLine
 10
75.57317199999999
 20
1.866597999999999
 30
0.0
 11
76.733869
 21
2.169874
 31
0.0
  0
LINE
  5
2DE4
330
BF7
100
AcDbEntity
  8
1
100
AcDbLine
 10
74.443905
 20
1.386127999999995
 30
0.0
 11
75.57317199999999
 21
1.866597999999999
 31
0.0
  0
LINE
  5
2DE5
330
BF7
100
AcDbEntity
  8
1
100
AcDbLine
 10
74.40063000000002
 20
1.362415999999999
 30
0.0
 11
74.443905
 21
1.386127999999995
 31
0.0
  0
LINE
  5
2DE6
330
BF7
100
AcDbEntity
  8
1
100
AcDbLine
 10
65.28608199999999
 20
-2.133608000000001
 30
0.0
 11
66.43959699999999
 21
-2.247485000000001
 31
0.0
  0
LINE
  5
2DE7
330
BF7
100
AcDbEntity
  8
1
100
AcDbLine
 10
64.125022
 20
-1.794633999999997
 30
0.0
 11
65.28608199999999
 21
-2.133608000000001
 31
0.0
  0
LINE
  5
2DE8
330
BF7
100
AcDbEntity
  8
1
100
AcDbLine
 10
62.99600900000001
 20
-1.286246000000001
 30
0.0
 11
64.125022
 21
-1.794633999999997
 31
0.0
  0
LINE
  5
2DE9
330
BF7
100
AcDbEntity
  8
1
100
AcDbLine
 10
61.83553
 20
-0.6314630000000001
 30
0.0
 11
62.99600900000001
 21
-1.286246000000001
 31
0.0
  0
LINE
  5
2DEA
330
BF7
100
AcDbEntity
  8
1
100
AcDbLine
 10
60.707873
 20
0.0687379999999998
 30
0.0
 11
61.83553
 21
-0.6314630000000001
 31
0.0
  0
LINE
  5
2DEB
330
BF7
100
AcDbEntity
  8
1
100
AcDbLine
 10
59.54564999999998
 20
0.7820099999999997
 30
0.0
 11
60.707873
 21
0.0687379999999998
 31
0.0
  0
LINE
  5
2DEC
330
BF7
100
AcDbEntity
  8
1
100
AcDbLine
 10
58.41673400000002
 20
1.398154999999999
 30
0.0
 11
59.54564999999998
 21
0.7820099999999997
 31
0.0
  0
LINE
  5
2DED
330
BF7
100
AcDbEntity
  8
1
100
AcDbLine
 10
57.256715
 20
1.886735999999999
 30
0.0
 11
58.41673400000002
 21
1.398154999999999
 31
0.0
  0
LINE
  5
2DEE
330
BF7
100
AcDbEntity
  8
1
100
AcDbLine
 10
56.12856200000002
 20
2.173383
 30
0.0
 11
57.256715
 21
1.886735999999999
 31
0.0
  0
LINE
  5
2DEF
330
BF7
100
AcDbEntity
  8
1
100
AcDbLine
 10
54.96718700000002
 20
2.245602
 30
0.0
 11
56.12856200000002
 21
2.173383
 31
0.0
  0
LINE
  5
2DF0
330
BF7
100
AcDbEntity
  8
1
100
AcDbLine
 10
53.83930000000001
 20
2.091087
 30
0.0
 11
54.96718700000002
 21
2.245602
 31
0.0
  0
LINE
  5
2DF1
330
BF7
100
AcDbEntity
  8
1
100
AcDbLine
 10
52.67747700000001
 20
1.717323999999996
 30
0.0
 11
53.83930000000001
 21
2.091087
 31
0.0
  0
LINE
  5
2DF2
330
BF7
100
AcDbEntity
  8
1
100
AcDbLine
 10
51.914127
 20
1.355596999999995
 30
0.0
 11
52.67747700000001
 21
1.717323999999996
 31
0.0
  0
LINE
  5
2DF3
330
BF7
100
AcDbEntity
  8
1
100
AcDbLine
 10
42.39108900000002
 20
-2.041749000000002
 30
0.0
 11
43.94090999999999
 21
-2.222659
 31
0.0
  0
LINE
  5
2DF4
330
BF7
100
AcDbEntity
  8
1
100
AcDbLine
 10
41.23015000000001
 20
-1.634651
 30
0.0
 11
42.39108900000002
 21
-2.041749000000002
 31
0.0
  0
LINE
  5
2DF5
330
BF7
100
AcDbEntity
  8
1
100
AcDbLine
 10
40.10166999999998
 20
-1.075827
 30
0.0
 11
41.23015000000001
 21
-1.634651
 31
0.0
  0
LINE
  5
2DF6
330
BF7
100
AcDbEntity
  8
1
100
AcDbLine
 10
38.94107
 20
-0.3900539999999992
 30
0.0
 11
40.10166999999998
 21
-1.075827
 31
0.0
  0
LINE
  5
2DF7
330
BF7
100
AcDbEntity
  8
1
100
AcDbLine
 10
37.81306200000003
 20
0.3157989999999984
 30
0.0
 11
38.94107
 21
-0.3900539999999992
 31
0.0
  0
LINE
  5
2DF8
330
BF7
100
AcDbEntity
  8
1
100
AcDbLine
 10
36.65116600000003
 20
1.009443
 30
0.0
 11
37.81306200000003
 21
0.3157989999999984
 31
0.0
  0
LINE
  5
2DF9
330
BF7
100
AcDbEntity
  8
1
100
AcDbLine
 10
35.522323
 20
1.583453999999998
 30
0.0
 11
36.65116600000003
 21
1.009443
 31
0.0
  0
LINE
  5
2DFA
330
BF7
100
AcDbEntity
  8
1
100
AcDbLine
 10
34.36206200000001
 20
2.009862999999999
 30
0.0
 11
35.522323
 21
1.583453999999998
 31
0.0
  0
LINE
  5
2DFB
330
BF7
100
AcDbEntity
  8
1
100
AcDbLine
 10
33.23421200000002
 20
2.224202999999995
 30
0.0
 11
34.36206200000001
 21
2.009862999999999
 31
0.0
  0
LINE
  5
2DFC
330
BF7
100
AcDbEntity
  8
1
100
AcDbLine
 10
32.07234000000001
 20
2.216381999999998
 30
0.0
 11
33.23421200000002
 21
2.224202999999995
 31
0.0
  0
LINE
  5
2DFD
330
BF7
100
AcDbEntity
  8
1
100
AcDbLine
 10
30.94346000000002
 20
1.986693999999999
 30
0.0
 11
32.07234000000001
 21
2.216381999999998
 31
0.0
  0
LINE
  5
2DFE
330
BF7
100
AcDbEntity
  8
1
100
AcDbLine
 10
29.78291999999999
 20
1.547315999999997
 30
0.0
 11
30.94346000000002
 21
1.986693999999999
 31
0.0
  0
LINE
  5
2DFF
330
BF7
100
AcDbEntity
  8
1
100
AcDbLine
 10
29.41372
 20
1.356942
 30
0.0
 11
29.78291999999999
 21
1.547315999999997
 31
0.0
  0
LINE
  5
2E00
330
BF7
100
AcDbEntity
  8
1
100
AcDbLine
 10
19.49655700000001
 20
-1.925866999999999
 30
0.0
 11
21.444052
 21
-2.225484999999999
 31
0.0
  0
LINE
  5
2E01
330
BF7
100
AcDbEntity
  8
1
100
AcDbLine
 10
18.33533900000002
 20
-1.454959999999999
 30
0.0
 11
19.49655700000001
 21
-1.925866999999999
 31
0.0
  0
LINE
  5
2E02
330
BF7
100
AcDbEntity
  8
1
100
AcDbLine
 10
17.20690800000001
 20
-0.8514669999999995
 30
0.0
 11
18.33533900000002
 21
-1.454959999999999
 31
0.0
  0
LINE
  5
2E03
330
BF7
100
AcDbEntity
  8
1
100
AcDbLine
 10
16.04783400000001
 20
-0.1447350000000007
 30
0.0
 11
17.20690800000001
 21
-0.8514669999999995
 31
0.0
  0
LINE
  5
2E04
330
BF7
100
AcDbEntity
  8
1
100
AcDbLine
 10
14.92120700000001
 20
0.5570419999999992
 30
0.0
 11
16.04783400000001
 21
-0.1447350000000007
 31
0.0
  0
LINE
  5
2E05
330
BF7
100
AcDbEntity
  8
1
100
AcDbLine
 10
13.76680800000001
 20
1.219267999999998
 30
0.0
 11
14.92120700000001
 21
0.5570419999999992
 31
0.0
  0
LINE
  5
2E06
330
BF7
100
AcDbEntity
  8
1
100
AcDbLine
 10
12.64523100000001
 20
1.743527999999996
 30
0.0
 11
13.76680800000001
 21
1.219267999999998
 31
0.0
  0
LINE
  5
2E07
330
BF7
100
AcDbEntity
  8
1
100
AcDbLine
 10
11.778345
 20
2.032933000000003
 30
0.0
 11
12.64523100000001
 21
1.743527999999996
 31
0.0
  0
LINE
  5
2E08
330
BF7
100
AcDbEntity
  8
1
100
AcDbLine
 10
10.709878
 20
2.221623999999998
 30
0.0
 11
11.778345
 21
2.032933000000003
 31
0.0
  0
LINE
  5
2E09
330
BF7
100
AcDbEntity
  8
1
100
AcDbLine
 10
9.690161000000015
 20
2.245537999999998
 30
0.0
 11
10.709878
 21
2.221623999999998
 31
0.0
  0
LINE
  5
2E0A
330
BF7
100
AcDbEntity
  8
1
100
AcDbLine
 10
8.638929000000002
 20
2.193396999999996
 30
0.0
 11
9.690161000000015
 21
2.245537999999998
 31
0.0
  0
LINE
  5
2E0B
330
BF7
100
AcDbEntity
  8
1
100
AcDbLine
 10
7.560058000000013
 20
2.139658
 30
0.0
 11
8.638929000000002
 21
2.193396999999996
 31
0.0
  0
LINE
  5
2E0C
330
BF7
100
AcDbEntity
  8
1
100
AcDbLine
 10
6.901523000000011
 20
2.127966999999997
 30
0.0
 11
7.560058000000013
 21
2.139658
 31
0.0
  0
LINE
  5
2E0D
330
BF7
100
AcDbEntity
  8
1
100
AcDbLine
 10
6.496430000000002
 20
2.212814999999995
 30
0.0
 11
6.901523000000011
 21
2.127966999999997
 31
0.0
  0
LINE
  5
2E0E
330
BF7
100
AcDbEntity
  8
1
100
AcDbLine
 10
6.154784000000005
 20
2.249958999999996
 30
0.0
 11
6.496430000000002
 21
2.212814999999995
 31
0.0
  0
LINE
  5
2E0F
330
BF7
100
AcDbEntity
  8
1
100
AcDbLine
 10
6.030549000000008
 20
2.230008000000001
 30
0.0
 11
6.154784000000005
 21
2.249958999999996
 31
0.0
  0
LINE
  5
2E10
330
BF7
100
AcDbEntity
  8
1
100
AcDbLine
 10
5.993341999999997
 20
2.156041999999998
 30
0.0
 11
6.030549000000008
 21
2.230008000000001
 31
0.0
  0
LINE
  5
2E11
330
BF7
100
AcDbEntity
  8
1
100
AcDbLine
 10
6.093462999999998
 20
2.014175
 30
0.0
 11
5.993341999999997
 21
2.156041999999998
 31
0.0
  0
LINE
  5
2E12
330
BF7
100
AcDbEntity
  8
1
100
AcDbLine
 10
6.296290999999996
 20
1.840402999999998
 30
0.0
 11
6.093462999999998
 21
2.014175
 31
0.0
  0
LINE
  5
2E13
330
BF7
100
AcDbEntity
  8
1
100
AcDbLine
 10
6.597884000000008
 20
1.625357
 30
0.0
 11
6.296290999999996
 21
1.840402999999998
 31
0.0
  0
LINE
  5
2E14
330
BF7
100
AcDbEntity
  8
1
100
AcDbLine
 10
6.941163999999999
 20
1.404591999999996
 30
0.0
 11
6.597884000000008
 21
1.625357
 31
0.0
  0
LINE
  5
2E15
330
BF7
100
AcDbEntity
  8
1
100
AcDbLine
 10
7.768803000000004
 20
0.9202769999999985
 30
0.0
 11
6.941163999999999
 21
1.404591999999996
 31
0.0
  0
LINE
  5
2E16
330
BF7
100
AcDbEntity
  8
1
100
AcDbLine
 10
8.351761000000008
 20
0.5763479999999995
 30
0.0
 11
7.768779000000008
 21
0.9202829999999975
 31
0.0
  0
LINE
  5
2E17
330
BF7
100
AcDbEntity
  8
1
100
AcDbLine
 10
8.929821000000004
 20
0.2189449999999979
 30
0.0
 11
8.351761000000008
 21
0.5763479999999995
 31
0.0
  0
LINE
  5
2E18
330
BF7
100
AcDbEntity
  8
1
100
AcDbLine
 10
8.929821000000004
 20
0.2189449999999979
 30
0.0
 11
6.232699000000009
 21
0.2189449999999979
 31
0.0
  0
LINE
  5
2E19
330
BF7
100
AcDbEntity
  8
1
100
AcDbLine
 10
5.920297000000005
 20
-0.3792680000000033
 30
0.0
 11
5.916712000000018
 21
-0.4912540000000015
 31
0.0
  0
LINE
  5
2E1A
330
BF7
100
AcDbEntity
  8
1
100
AcDbLine
 10
5.981375999999997
 20
-0.0457390000000011
 30
0.0
 11
5.920297000000005
 21
-0.3792680000000033
 31
0.0
  0
LINE
  5
2E1B
330
BF7
100
AcDbEntity
  8
1
100
AcDbLine
 10
6.057987999999993
 20
0.1102430000000005
 30
0.0
 11
5.981375999999997
 21
-0.0457390000000011
 31
0.0
  0
LINE
  5
2E1C
330
BF7
100
AcDbEntity
  8
1
100
AcDbLine
 10
6.125184000000003
 20
0.1806359999999998
 30
0.0
 11
6.057987999999993
 21
0.1102430000000005
 31
0.0
  0
LINE
  5
2E1D
330
BF7
100
AcDbEntity
  8
1
100
AcDbLine
 10
6.175652999999996
 20
0.2084590000000013
 30
0.0
 11
6.125184000000003
 21
0.1806359999999998
 31
0.0
  0
LINE
  5
2E1E
330
BF7
100
AcDbEntity
  8
1
100
AcDbLine
 10
6.232699000000009
 20
0.2189449999999979
 30
0.0
 11
6.175652999999996
 21
0.2084590000000013
 31
0.0
  0
LINE
  5
2E1F
330
BF7
100
AcDbEntity
  8
1
100
AcDbLine
 10
100.540047
 20
-2.246003999999999
 30
0.0
 11
101.821933
 21
-2.137618000000003
 31
0.0
  0
LINE
  5
2E20
330
BF7
100
AcDbEntity
  8
1
100
AcDbLine
 10
99.41177199999998
 20
-2.093904000000001
 30
0.0
 11
100.540047
 21
-2.246003999999999
 31
0.0
  0
LINE
  5
2E21
330
BF7
100
AcDbEntity
  8
1
100
AcDbLine
 10
98.25826999999998
 20
-1.725515999999997
 30
0.0
 11
99.41177199999998
 21
-2.093904000000001
 31
0.0
  0
LINE
  5
2E22
330
BF7
100
AcDbEntity
  8
1
100
AcDbLine
 10
97.136875
 20
-1.196774000000001
 30
0.0
 11
98.25826999999998
 21
-1.725515999999997
 31
0.0
  0
LINE
  5
2E23
330
BF7
100
AcDbEntity
  8
1
100
AcDbLine
 10
96.00849200000002
 20
-0.5473549999999996
 30
0.0
 11
97.136875
 21
-1.196774000000001
 31
0.0
  0
LINE
  5
2E24
330
BF7
100
AcDbEntity
  8
1
100
AcDbLine
 10
94.84749200000001
 20
0.176400000000001
 30
0.0
 11
96.00849200000002
 21
-0.5473549999999996
 31
0.0
  0
LINE
  5
2E25
330
BF7
100
AcDbEntity
  8
1
100
AcDbLine
 10
93.719218
 20
0.862803999999997
 30
0.0
 11
94.84749200000001
 21
0.176400000000001
 31
0.0
  0
LINE
  5
2E26
330
BF7
100
AcDbEntity
  8
1
100
AcDbLine
 10
92.56573899999999
 20
1.476265999999997
 30
0.0
 11
93.719218
 21
0.862803999999997
 31
0.0
  0
LINE
  5
2E27
330
BF7
100
AcDbEntity
  8
1
100
AcDbLine
 10
91.444369
 20
1.927539999999995
 30
0.0
 11
92.56573899999999
 21
1.476265999999997
 31
0.0
  0
LINE
  5
2E28
330
BF7
100
AcDbEntity
  8
1
100
AcDbLine
 10
90.31611899999999
 20
2.192320000000002
 30
0.0
 11
91.444369
 21
1.927539999999995
 31
0.0
  0
LINE
  5
2E29
330
BF7
100
AcDbEntity
  8
1
100
AcDbLine
 10
89.50156099999999
 20
2.225859999999996
 30
0.0
 11
90.31611899999999
 21
2.192320000000002
 31
0.0
  0
LINE
  5
2E2A
330
BF7
100
AcDbEntity
  8
1
100
AcDbLine
 10
77.81757199999998
 20
-2.233349
 30
0.0
 11
79.27433900000003
 21
-2.137610999999999
 31
0.0
  0
LINE
  5
2E2B
330
BF7
100
AcDbEntity
  8
1
100
AcDbLine
 10
76.66409399999999
 20
-2.031989999999999
 30
0.0
 11
77.81757199999998
 21
-2.233349
 31
0.0
  0
LINE
  5
2E2C
330
BF7
100
AcDbEntity
  8
1
100
AcDbLine
 10
75.54273600000001
 20
-1.635540000000001
 30
0.0
 11
76.66409399999999
 21
-2.031989999999999
 31
0.0
  0
LINE
  5
2E2D
330
BF7
100
AcDbEntity
  8
1
100
AcDbLine
 10
74.414352
 20
-1.076143
 30
0.0
 11
75.54273600000001
 21
-1.635540000000001
 31
0.0
  0
LINE
  5
2E2E
330
BF7
100
AcDbEntity
  8
1
100
AcDbLine
 10
73.253353
 20
-0.3906089999999977
 30
0.0
 11
74.414352
 21
-1.076143
 31
0.0
  0
LINE
  5
2E2F
330
BF7
100
AcDbEntity
  8
1
100
AcDbLine
 10
72.125078
 20
0.3152870000000014
 30
0.0
 11
73.253353
 21
-0.3906089999999977
 31
0.0
  0
LINE
  5
2E30
330
BF7
100
AcDbEntity
  8
1
100
AcDbLine
 10
70.97159999999998
 20
1.004319999999998
 30
0.0
 11
72.125078
 21
0.3152870000000014
 31
0.0
  0
LINE
  5
2E31
330
BF7
100
AcDbEntity
  8
1
100
AcDbLine
 10
69.85022900000001
 20
1.575711999999999
 30
0.0
 11
70.97159999999998
 21
1.004319999999998
 31
0.0
  0
LINE
  5
2E32
330
BF7
100
AcDbEntity
  8
1
100
AcDbLine
 10
68.721967
 20
1.995858999999995
 30
0.0
 11
69.85022900000001
 21
1.575711999999999
 31
0.0
  0
LINE
  5
2E33
330
BF7
100
AcDbEntity
  8
1
100
AcDbLine
 10
67.568477
 20
2.222056999999999
 30
0.0
 11
68.721967
 21
1.995858999999995
 31
0.0
  0
LINE
  5
2E34
330
BF7
100
AcDbEntity
  8
1
100
AcDbLine
 10
67.002329
 20
2.222481000000001
 30
0.0
 11
67.568477
 21
2.222056999999999
 31
0.0
  0
LINE
  5
2E35
330
BF7
100
AcDbEntity
  8
1
100
AcDbLine
 10
55.06214200000002
 20
-2.208194999999999
 30
0.0
 11
56.747711
 21
-2.137227999999999
 31
0.0
  0
LINE
  5
2E36
330
BF7
100
AcDbEntity
  8
1
100
AcDbLine
 10
53.93383199999998
 20
-1.965707
 30
0.0
 11
55.06214200000002
 21
-2.208194999999999
 31
0.0
  0
LINE
  5
2E37
330
BF7
100
AcDbEntity
  8
1
100
AcDbLine
 10
52.78031700000003
 20
-1.518016999999999
 30
0.0
 11
53.93383199999998
 21
-1.965707
 31
0.0
  0
LINE
  5
2E38
330
BF7
100
AcDbEntity
  8
1
100
AcDbLine
 10
51.65889799999999
 20
-0.9325900000000013
 30
0.0
 11
52.78031700000003
 21
-1.518016999999999
 31
0.0
  0
LINE
  5
2E39
330
BF7
100
AcDbEntity
  8
1
100
AcDbLine
 10
50.53066000000001
 20
-0.2521440000000013
 30
0.0
 11
51.65889799999999
 21
-0.9325900000000013
 31
0.0
  0
LINE
  5
2E3A
330
BF7
100
AcDbEntity
  8
1
100
AcDbLine
 10
49.377194
 20
0.4686120000000004
 30
0.0
 11
50.53066000000001
 21
-0.2521440000000013
 31
0.0
  0
LINE
  5
2E3B
330
BF7
100
AcDbEntity
  8
1
100
AcDbLine
 10
48.25584799999997
 20
1.123734999999995
 30
0.0
 11
49.377194
 21
0.4686120000000004
 31
0.0
  0
LINE
  5
2E3C
330
BF7
100
AcDbEntity
  8
1
100
AcDbLine
 10
47.127465
 20
1.672526
 30
0.0
 11
48.25584799999997
 21
1.123734999999995
 31
0.0
  0
LINE
  5
2E3D
330
BF7
100
AcDbEntity
  8
1
100
AcDbLine
 10
45.96648900000001
 20
2.064828999999999
 30
0.0
 11
47.127465
 21
1.672526
 31
0.0
  0
LINE
  5
2E3E
330
BF7
100
AcDbEntity
  8
1
100
AcDbLine
 10
44.838251
 20
2.240176
 30
0.0
 11
45.96648900000001
 21
2.064828999999999
 31
0.0
  0
LINE
  5
2E3F
330
BF7
100
AcDbEntity
  8
1
100
AcDbLine
 10
44.504684
 20
2.226086999999999
 30
0.0
 11
44.838251
 21
2.240176
 31
0.0
  0
LINE
  5
2E40
330
BF7
100
AcDbEntity
  8
1
100
AcDbLine
 10
32.33958400000001
 20
-2.177119
 30
0.0
 11
34.27582700000001
 21
-2.137402999999999
 31
0.0
  0
LINE
  5
2E41
330
BF7
100
AcDbEntity
  8
1
100
AcDbLine
 10
31.18612900000001
 20
-1.885340000000002
 30
0.0
 11
32.33958400000001
 21
-2.177119
 31
0.0
  0
LINE
  5
2E42
330
BF7
100
AcDbEntity
  8
1
100
AcDbLine
 10
30.064807
 20
-1.415380000000002
 30
0.0
 11
31.18612900000001
 21
-1.885340000000002
 31
0.0
  0
LINE
  5
2E43
330
BF7
100
AcDbEntity
  8
1
100
AcDbLine
 10
28.93653300000001
 20
-0.8037050000000006
 30
0.0
 11
30.064807
 21
-1.415380000000002
 31
0.0
  0
LINE
  5
2E44
330
BF7
100
AcDbEntity
  8
1
100
AcDbLine
 10
27.783055
 20
-0.0970730000000018
 30
0.0
 11
28.93653300000001
 21
-0.8037050000000006
 31
0.0
  0
LINE
  5
2E45
330
BF7
100
AcDbEntity
  8
1
100
AcDbLine
 10
26.66168400000001
 20
0.6001200000000006
 30
0.0
 11
27.783055
 21
-0.0970730000000018
 31
0.0
  0
LINE
  5
2E46
330
BF7
100
AcDbEntity
  8
1
100
AcDbLine
 10
25.53328900000001
 20
1.242628999999997
 30
0.0
 11
26.66168400000001
 21
0.6001200000000006
 31
0.0
  0
LINE
  5
2E47
330
BF7
100
AcDbEntity
  8
1
100
AcDbLine
 10
24.372277
 20
1.775433000000003
 30
0.0
 11
25.53328900000001
 21
1.242628999999997
 31
0.0
  0
LINE
  5
2E48
330
BF7
100
AcDbEntity
  8
1
100
AcDbLine
 10
23.24400300000001
 20
2.116348999999999
 30
0.0
 11
24.372277
 21
1.775433000000003
 31
0.0
  0
LINE
  5
2E49
330
BF7
100
AcDbEntity
  8
1
100
AcDbLine
 10
22.090548
 20
2.249334999999998
 30
0.0
 11
23.24400300000001
 21
2.116348999999999
 31
0.0
  0
LINE
  5
2E4A
330
BF7
100
AcDbEntity
  8
1
100
AcDbLine
 10
22.00541600000001
 20
2.242309999999998
 30
0.0
 11
22.090548
 21
2.249334999999998
 31
0.0
  0
LINE
  5
2E4B
330
BF7
100
AcDbEntity
  8
1
100
AcDbLine
 10
10.75994200000001
 20
-2.249996000000002
 30
0.0
 11
11.887901
 21
-2.137443999999998
 31
0.0
  0
LINE
  5
2E4C
330
BF7
100
AcDbEntity
  8
1
100
AcDbLine
 10
9.631668000000003
 20
-2.140486999999999
 30
0.0
 11
10.75994200000001
 21
-2.249996000000002
 31
0.0
  0
LINE
  5
2E4D
330
BF7
100
AcDbEntity
  8
1
100
AcDbLine
 10
8.478104000000001
 20
-1.810857999999999
 30
0.0
 11
9.631668000000003
 21
-2.140486999999999
 31
0.0
  0
LINE
  5
2E4E
330
BF7
100
AcDbEntity
  8
1
100
AcDbLine
 10
7.356667000000001
 20
-1.311393000000002
 30
0.0
 11
8.478104000000001
 21
-1.810857999999999
 31
0.0
  0
LINE
  5
2E4F
330
BF7
100
AcDbEntity
  8
1
100
AcDbLine
 10
6.203655000000011
 20
-0.6654230000000007
 30
0.0
 11
7.356667000000001
 21
-1.311393000000002
 31
0.0
  0
LINE
  5
2E50
330
BF7
100
AcDbEntity
  8
1
100
AcDbLine
 10
5.916712000000018
 20
-0.4912540000000015
 30
0.0
 11
6.203655000000011
 21
-0.6654230000000007
 31
0.0
  0
LINE
  5
2E51
330
BF7
100
AcDbEntity
  8
1
100
AcDbLine
 10
108.785134
 20
1.657444
 30
0.0
 11
109.155787
 21
1.805576000000002
 31
0.0
  0
LINE
  5
2E52
330
BF7
100
AcDbEntity
  8
1
100
AcDbLine
 10
108.006415
 20
1.276047999999998
 30
0.0
 11
108.785134
 21
1.657444
 31
0.0
  0
LINE
  5
2E53
330
BF7
100
AcDbEntity
  8
1
100
AcDbLine
 10
98.46822500000001
 20
-1.993599000000003
 30
0.0
 11
100.190141
 21
-2.222184999999999
 31
0.0
  0
LINE
  5
2E54
330
BF7
100
AcDbEntity
  8
1
100
AcDbLine
 10
97.33848600000001
 20
-1.571908
 30
0.0
 11
98.46822500000001
 21
-1.993599000000003
 31
0.0
  0
LINE
  5
2E55
330
BF7
100
AcDbEntity
  8
1
100
AcDbLine
 10
96.177413
 20
-0.9790300000000016
 30
0.0
 11
97.33848600000001
 21
-1.571908
 31
0.0
  0
LINE
  5
2E56
330
BF7
100
AcDbEntity
  8
1
100
AcDbLine
 10
95.050217
 20
-0.3029779999999995
 30
0.0
 11
96.177413
 21
-0.9790300000000016
 31
0.0
  0
LINE
  5
2E57
330
BF7
100
AcDbEntity
  8
1
100
AcDbLine
 10
93.88912000000001
 20
0.4240259999999978
 30
0.0
 11
95.050217
 21
-0.3029779999999995
 31
0.0
  0
LINE
  5
2E58
330
BF7
100
AcDbEntity
  8
1
100
AcDbLine
 10
92.760204
 20
1.087863000000002
 30
0.0
 11
93.88912000000001
 21
0.4240259999999978
 31
0.0
  0
LINE
  5
2E59
330
BF7
100
AcDbEntity
  8
1
100
AcDbLine
 10
91.59910700000001
 20
1.658966999999999
 30
0.0
 11
92.760204
 21
1.087863000000002
 31
0.0
  0
LINE
  5
2E5A
330
BF7
100
AcDbEntity
  8
1
100
AcDbLine
 10
90.47045799999999
 20
2.048357000000001
 30
0.0
 11
91.59910700000001
 21
1.658966999999999
 31
0.0
  0
LINE
  5
2E5B
330
BF7
100
AcDbEntity
  8
1
100
AcDbLine
 10
89.30915500000002
 20
2.238085999999999
 30
0.0
 11
90.47045799999999
 21
2.048357000000001
 31
0.0
  0
LINE
  5
2E5C
330
BF7
100
AcDbEntity
  8
1
100
AcDbLine
 10
88.18155900000002
 20
2.199498999999998
 30
0.0
 11
89.30915500000002
 21
2.238085999999999
 31
0.0
  0
LINE
  5
2E5D
330
BF7
100
AcDbEntity
  8
1
100
AcDbLine
 10
87.02053500000003
 20
1.933029999999997
 30
0.0
 11
88.18155900000002
 21
2.199498999999998
 31
0.0
  0
LINE
  5
2E5E
330
BF7
100
AcDbEntity
  8
1
100
AcDbLine
 10
85.89109800000001
 20
1.481268
 30
0.0
 11
87.02053500000003
 21
1.933029999999997
 31
0.0
  0
LINE
  5
2E5F
330
BF7
100
AcDbEntity
  8
1
100
AcDbLine
 10
85.66454999999997
 20
1.361157000000002
 30
0.0
 11
85.89109800000001
 21
1.481268
 31
0.0
  0
LINE
  5
2E60
330
BF7
100
AcDbEntity
  8
1
100
AcDbLine
 10
75.57317199999999
 20
-1.866599
 30
0.0
 11
77.689625
 21
-2.235599
 31
0.0
  0
LINE
  5
2E61
330
BF7
100
AcDbEntity
  8
1
100
AcDbLine
 10
74.443905
 20
-1.386127999999999
 30
0.0
 11
75.57317199999999
 21
-1.866599
 31
0.0
  0
LINE
  5
2E62
330
BF7
100
AcDbEntity
  8
1
100
AcDbLine
 10
73.28286900000001
 20
-0.7499369999999992
 30
0.0
 11
74.443905
 21
-1.386127999999999
 31
0.0
  0
LINE
  5
2E63
330
BF7
100
AcDbEntity
  8
1
100
AcDbLine
 10
72.15526100000002
 20
-0.0551749999999984
 30
0.0
 11
73.28286900000001
 21
-0.7499369999999992
 31
0.0
  0
LINE
  5
2E64
330
BF7
100
AcDbEntity
  8
1
100
AcDbLine
 10
70.993401
 20
0.6648029999999992
 30
0.0
 11
72.15526100000002
 21
-0.0551749999999984
 31
0.0
  0
LINE
  5
2E65
330
BF7
100
AcDbEntity
  8
1
100
AcDbLine
 10
69.86431500000001
 20
1.298553999999998
 30
0.0
 11
70.993401
 21
0.6648029999999992
 31
0.0
  0
LINE
  5
2E66
330
BF7
100
AcDbEntity
  8
1
100
AcDbLine
 10
68.704115
 20
1.816266999999999
 30
0.0
 11
69.86431500000001
 21
1.298553999999998
 31
0.0
  0
LINE
  5
2E67
330
BF7
100
AcDbEntity
  8
1
100
AcDbLine
 10
67.57591300000001
 20
2.138108000000002
 30
0.0
 11
68.704115
 21
1.816266999999999
 31
0.0
  0
LINE
  5
2E68
330
BF7
100
AcDbEntity
  8
1
100
AcDbLine
 10
66.41410200000001
 20
2.249938
 30
0.0
 11
67.57591300000001
 21
2.138108000000002
 31
0.0
  0
LINE
  5
2E69
330
BF7
100
AcDbEntity
  8
1
100
AcDbLine
 10
65.28608199999999
 20
2.133608000000001
 30
0.0
 11
66.41410200000001
 21
2.249938
 31
0.0
  0
LINE
  5
2E6A
330
BF7
100
AcDbEntity
  8
1
100
AcDbLine
 10
64.125022
 20
1.794633
 30
0.0
 11
65.28608199999999
 21
2.133608000000001
 31
0.0
  0
LINE
  5
2E6B
330
BF7
100
AcDbEntity
  8
1
100
AcDbLine
 10
63.17028400000001
 20
1.364716999999997
 30
0.0
 11
64.125022
 21
1.794633
 31
0.0
  0
LINE
  5
2E6C
330
BF7
100
AcDbEntity
  8
1
100
AcDbLine
 10
53.83930000000001
 20
-2.091086999999997
 30
0.0
 11
55.19110700000002
 21
-2.231677999999997
 31
0.0
  0
LINE
  5
2E6D
330
BF7
100
AcDbEntity
  8
1
100
AcDbLine
 10
52.67747700000001
 20
-1.717324
 30
0.0
 11
53.83930000000001
 21
-2.091086999999997
 31
0.0
  0
LINE
  5
2E6E
330
BF7
100
AcDbEntity
  8
1
100
AcDbLine
 10
51.54827
 20
-1.182234999999998
 30
0.0
 11
52.67747700000001
 21
-1.717324
 31
0.0
  0
LINE
  5
2E6F
330
BF7
100
AcDbEntity
  8
1
100
AcDbLine
 10
50.388687
 20
-0.5113400000000006
 30
0.0
 11
51.54827
 21
-1.182234999999998
 31
0.0
  0
LINE
  5
2E70
330
BF7
100
AcDbEntity
  8
1
100
AcDbLine
 10
49.26118800000001
 20
0.1915759999999977
 30
0.0
 11
50.388687
 21
-0.5113400000000006
 31
0.0
  0
LINE
  5
2E71
330
BF7
100
AcDbEntity
  8
1
100
AcDbLine
 10
48.09821400000001
 20
0.8968410000000018
 30
0.0
 11
49.26118800000001
 21
0.1915759999999977
 31
0.0
  0
LINE
  5
2E72
330
BF7
100
AcDbEntity
  8
1
100
AcDbLine
 10
46.96892299999999
 20
1.493766999999997
 30
0.0
 11
48.09821400000001
 21
0.8968410000000018
 31
0.0
  0
LINE
  5
2E73
330
BF7
100
AcDbEntity
  8
1
100
AcDbLine
 10
45.80951000000001
 20
1.95137
 30
0.0
 11
46.96892299999999
 21
1.493766999999997
 31
0.0
  0
LINE
  5
2E74
330
BF7
100
AcDbEntity
  8
1
100
AcDbLine
 10
44.68179300000001
 20
2.201953999999997
 30
0.0
 11
45.80951000000001
 21
1.95137
 31
0.0
  0
LINE
  5
2E75
330
BF7
100
AcDbEntity
  8
1
100
AcDbLine
 10
43.51970299999999
 20
2.234428999999997
 30
0.0
 11
44.68179300000001
 21
2.201953999999997
 31
0.0
  0
LINE
  5
2E76
330
BF7
100
AcDbEntity
  8
1
100
AcDbLine
 10
42.39108900000002
 20
2.041746999999996
 30
0.0
 11
43.51970299999999
 21
2.234428999999997
 31
0.0
  0
LINE
  5
2E77
330
BF7
100
AcDbEntity
  8
1
100
AcDbLine
 10
41.23015000000001
 20
1.634649999999999
 30
0.0
 11
42.39108900000002
 21
2.041746999999996
 31
0.0
  0
LINE
  5
2E78
330
BF7
100
AcDbEntity
  8
1
100
AcDbLine
 10
40.68521000000001
 20
1.364795999999997
 30
0.0
 11
41.23015000000001
 21
1.634649999999999
 31
0.0
  0
LINE
  5
2E79
330
BF7
100
AcDbEntity
  8
1
100
AcDbLine
 10
30.94346000000002
 20
-1.986695
 30
0.0
 11
32.69251700000001
 21
-2.220558
 31
0.0
  0
LINE
  5
2E7A
330
BF7
100
AcDbEntity
  8
1
100
AcDbLine
 10
29.78291999999999
 20
-1.547315999999997
 30
0.0
 11
30.94346000000002
 21
-1.986695
 31
0.0
  0
LINE
  5
2E7B
330
BF7
100
AcDbEntity
  8
1
100
AcDbLine
 10
28.654949
 20
-0.9656920000000004
 30
0.0
 11
29.78291999999999
 21
-1.547315999999997
 31
0.0
  0
LINE
  5
2E7C
330
BF7
100
AcDbEntity
  8
1
100
AcDbLine
 10
27.493574
 20
-0.2672230000000013
 30
0.0
 11
28.654949
 21
-0.9656920000000004
 31
0.0
  0
LINE
  5
2E7D
330
BF7
100
AcDbEntity
  8
1
100
AcDbLine
 10
26.36496000000001
 20
0.438866000000001
 30
0.0
 11
27.493574
 21
-0.2672230000000013
 31
0.0
  0
LINE
  5
2E7E
330
BF7
100
AcDbEntity
  8
1
100
AcDbLine
 10
25.20386400000001
 20
1.118704999999998
 30
0.0
 11
26.36496000000001
 21
0.438866000000001
 31
0.0
  0
LINE
  5
2E7F
330
BF7
100
AcDbEntity
  8
1
100
AcDbLine
 10
24.07554100000002
 20
1.668474999999999
 30
0.0
 11
25.20386400000001
 21
1.118704999999998
 31
0.0
  0
LINE
  5
2E80
330
BF7
100
AcDbEntity
  8
1
100
AcDbLine
 10
22.914626
 20
2.062495000000001
 30
0.0
 11
24.07554100000002
 21
1.668474999999999
 31
0.0
  0
LINE
  5
2E81
330
BF7
100
AcDbEntity
  8
1
100
AcDbLine
 10
21.786328
 20
2.239621999999997
 30
0.0
 11
22.914626
 21
2.062495000000001
 31
0.0
  0
LINE
  5
2E82
330
BF7
100
AcDbEntity
  8
1
100
AcDbLine
 10
20.62503700000001
 20
2.191652999999997
 30
0.0
 11
21.786328
 21
2.239621999999997
 31
0.0
  0
LINE
  5
2E83
330
BF7
100
AcDbEntity
  8
1
100
AcDbLine
 10
19.49655700000001
 20
1.925865999999999
 30
0.0
 11
20.62503700000001
 21
2.191652999999997
 31
0.0
  0
LINE
  5
2E84
330
BF7
100
AcDbEntity
  8
1
100
AcDbLine
 10
18.33533900000002
 20
1.454958
 30
0.0
 11
19.49655700000001
 21
1.925865999999999
 31
0.0
  0
LINE
  5
2E85
330
BF7
100
AcDbEntity
  8
1
100
AcDbLine
 10
18.1697
 20
1.366370999999997
 30
0.0
 11
18.33533900000002
 21
1.454958
 31
0.0
  0
LINE
  5
2E86
330
BF7
100
AcDbEntity
  8
1
100
AcDbLine
 10
8.638929000000002
 20
-2.193399000000002
 30
0.0
 11
9.979090999999996
 21
-2.238762999999997
 31
0.0
  0
LINE
  5
2E87
330
BF7
100
AcDbEntity
  8
1
100
AcDbLine
 10
7.560058000000013
 20
-2.139658999999997
 30
0.0
 11
8.638929000000002
 21
-2.193399000000002
 31
0.0
  0
LINE
  5
2E88
330
BF7
100
AcDbEntity
  8
1
100
AcDbLine
 10
6.901523000000011
 20
-2.127968000000002
 30
0.0
 11
7.560058000000013
 21
-2.139658999999997
 31
0.0
  0
LINE
  5
2E89
330
BF7
100
AcDbEntity
  8
1
100
AcDbLine
 10
6.496430000000002
 20
-2.212815000000002
 30
0.0
 11
6.901523000000011
 21
-2.127968000000002
 31
0.0
  0
LINE
  5
2E8A
330
BF7
100
AcDbEntity
  8
1
100
AcDbLine
 10
6.165261000000014
 20
-2.248820000000002
 30
0.0
 11
6.496430000000002
 21
-2.212815000000002
 31
0.0
  0
LINE
  5
2E8B
330
BF7
100
AcDbEntity
  8
1
100
AcDbLine
 10
108.507268
 20
-1.260142
 30
0.0
 11
109.123413
 21
-1.560666000000001
 31
0.0
  0
LINE
  5
2E8C
330
BF7
100
AcDbEntity
  8
1
100
AcDbLine
 10
107.35379
 20
-0.605239000000001
 30
0.0
 11
108.507268
 21
-1.260142
 31
0.0
  0
LINE
  5
2E8D
330
BF7
100
AcDbEntity
  8
1
100
AcDbLine
 10
106.232432
 20
0.0917589999999997
 30
0.0
 11
107.35379
 21
-0.605239000000001
 31
0.0
  0
LINE
  5
2E8E
330
BF7
100
AcDbEntity
  8
1
100
AcDbLine
 10
105.104048
 20
0.7839659999999995
 30
0.0
 11
106.232432
 21
0.0917589999999997
 31
0.0
  0
LINE
  5
2E8F
330
BF7
100
AcDbEntity
  8
1
100
AcDbLine
 10
103.943085
 20
1.414959999999996
 30
0.0
 11
105.104048
 21
0.7839659999999995
 31
0.0
  0
LINE
  5
2E90
330
BF7
100
AcDbEntity
  8
1
100
AcDbLine
 10
102.814835
 20
1.887408
 30
0.0
 11
103.943085
 21
1.414959999999996
 31
0.0
  0
LINE
  5
2E91
330
BF7
100
AcDbEntity
  8
1
100
AcDbLine
 10
101.661381
 20
2.178075999999999
 30
0.0
 11
102.814835
 21
1.887408
 31
0.0
  0
LINE
  5
2E92
330
BF7
100
AcDbEntity
  8
1
100
AcDbLine
 10
100.751177
 20
2.233214999999996
 30
0.0
 11
101.661381
 21
2.178075999999999
 31
0.0
  0
LINE
  5
2E93
330
BF7
100
AcDbEntity
  8
1
100
AcDbLine
 10
89.16264000000003
 20
-2.239815
 30
0.0
 11
90.548166
 21
-2.137861
 31
0.0
  0
LINE
  5
2E94
330
BF7
100
AcDbEntity
  8
1
100
AcDbLine
 10
88.04128199999999
 20
-2.065018000000002
 30
0.0
 11
89.16264000000003
 21
-2.239815
 31
0.0
  0
LINE
  5
2E95
330
BF7
100
AcDbEntity
  8
1
100
AcDbLine
 10
86.91291099999999
 20
-1.686453
 30
0.0
 11
88.04128199999999
 21
-2.065018000000002
 31
0.0
  0
LINE
  5
2E96
330
BF7
100
AcDbEntity
  8
1
100
AcDbLine
 10
85.75193500000002
 20
-1.124143
 30
0.0
 11
86.91291099999999
 21
-1.686453
 31
0.0
  0
LINE
  5
2E97
330
BF7
100
AcDbEntity
  8
1
100
AcDbLine
 10
84.62368500000001
 20
-0.4648369999999993
 30
0.0
 11
85.75193500000002
 21
-1.124143
 31
0.0
  0
LINE
  5
2E98
330
BF7
100
AcDbEntity
  8
1
100
AcDbLine
 10
83.47024300000002
 20
0.255979
 30
0.0
 11
84.62368500000001
 21
-0.4648369999999993
 31
0.0
  0
LINE
  5
2E99
330
BF7
100
AcDbEntity
  8
1
100
AcDbLine
 10
82.348897
 20
0.9321219999999959
 30
0.0
 11
83.47024300000002
 21
0.255979
 31
0.0
  0
LINE
  5
2E9A
330
BF7
100
AcDbEntity
  8
1
100
AcDbLine
 10
81.22062299999997
 20
1.520833999999996
 30
0.0
 11
82.348897
 21
0.9321219999999959
 31
0.0
  0
LINE
  5
2E9B
330
BF7
100
AcDbEntity
  8
1
100
AcDbLine
 10
80.06716899999998
 20
1.967539000000002
 30
0.0
 11
81.22062299999997
 21
1.520833999999996
 31
0.0
  0
LINE
  5
2E9C
330
BF7
100
AcDbEntity
  8
1
100
AcDbLine
 10
78.94582199999998
 20
2.208079999999998
 30
0.0
 11
80.06716899999998
 21
1.967539000000002
 31
0.0
  0
LINE
  5
2E9D
330
BF7
100
AcDbEntity
  8
1
100
AcDbLine
 10
78.25196899999999
 20
2.223618999999998
 30
0.0
 11
78.94582199999998
 21
2.208079999999998
 31
0.0
  0
LINE
  5
2E9E
330
BF7
100
AcDbEntity
  8
1
100
AcDbLine
 10
66.447082
 20
-2.222893999999999
 30
0.0
 11
67.99892500000002
 21
-2.137647
 31
0.0
  0
LINE
  5
2E9F
330
BF7
100
AcDbEntity
  8
1
100
AcDbLine
 10
65.31869900000001
 20
-2.005532999999998
 30
0.0
 11
66.447082
 21
-2.222893999999999
 31
0.0
  0
LINE
  5
2EA0
330
BF7
100
AcDbEntity
  8
1
100
AcDbLine
 10
64.15771099999999
 20
-1.576129
 30
0.0
 11
65.31869900000001
 21
-2.005532999999998
 31
0.0
  0
LINE
  5
2EA1
330
BF7
100
AcDbEntity
  8
1
100
AcDbLine
 10
63.02944899999999
 20
-1.000958
 30
0.0
 11
64.15771099999999
 21
-1.576129
 31
0.0
  0
LINE
  5
2EA2
330
BF7
100
AcDbEntity
  8
1
100
AcDbLine
 10
61.87599499999999
 20
-0.3115699999999997
 30
0.0
 11
63.02944899999999
 21
-1.000958
 31
0.0
  0
LINE
  5
2EA3
330
BF7
100
AcDbEntity
  8
1
100
AcDbLine
 10
60.754649
 20
0.3900039999999976
 30
0.0
 11
61.87599499999999
 21
-0.3115699999999997
 31
0.0
  0
LINE
  5
2EA4
330
BF7
100
AcDbEntity
  8
1
100
AcDbLine
 10
59.62638700000002
 20
1.057498999999998
 30
0.0
 11
60.754649
 21
0.3900039999999976
 31
0.0
  0
LINE
  5
2EA5
330
BF7
100
AcDbEntity
  8
1
100
AcDbLine
 10
58.47291999999999
 20
1.631809999999996
 30
0.0
 11
59.62638700000002
 21
1.057498999999998
 31
0.0
  0
LINE
  5
2EA6
330
BF7
100
AcDbEntity
  8
1
100
AcDbLine
 10
57.351562
 20
2.029653999999996
 30
0.0
 11
58.47291999999999
 21
1.631809999999996
 31
0.0
  0
LINE
  5
2EA7
330
BF7
100
AcDbEntity
  8
1
100
AcDbLine
 10
56.22316600000002
 20
2.230677000000003
 30
0.0
 11
57.351562
 21
2.029653999999996
 31
0.0
  0
LINE
  5
2EA8
330
BF7
100
AcDbEntity
  8
1
100
AcDbLine
 10
55.75433600000001
 20
2.221595999999998
 30
0.0
 11
56.22316600000002
 21
2.230677000000003
 31
0.0
  0
LINE
  5
2EA9
330
BF7
100
AcDbEntity
  8
1
100
AcDbLine
 10
43.68479699999999
 20
-2.191452
 30
0.0
 11
45.499657
 21
-2.137381999999997
 31
0.0
  0
LINE
  5
2EAA
330
BF7
100
AcDbEntity
  8
1
100
AcDbLine
 10
42.56347500000001
 20
-1.927804
 30
0.0
 11
43.68479699999999
 21
-2.191452
 31
0.0
  0
LINE
  5
2EAB
330
BF7
100
AcDbEntity
  8
1
100
AcDbLine
 10
41.43507999999999
 20
-1.473321000000002
 30
0.0
 11
42.56347500000001
 21
-1.927804
 31
0.0
  0
LINE
  5
2EAC
330
BF7
100
AcDbEntity
  8
1
100
AcDbLine
 10
40.27406800000004
 20
-0.8548330000000028
 30
0.0
 11
41.43507999999999
 21
-1.473321000000002
 31
0.0
  0
LINE
  5
2EAD
330
BF7
100
AcDbEntity
  8
1
100
AcDbLine
 10
39.14579300000001
 20
-0.167783
 30
0.0
 11
40.27406800000004
 21
-0.8548330000000028
 31
0.0
  0
LINE
  5
2EAE
330
BF7
100
AcDbEntity
  8
1
100
AcDbLine
 10
37.99230300000001
 20
0.5511589999999984
 30
0.0
 11
39.14579300000001
 21
-0.167783
 31
0.0
  0
LINE
  5
2EAF
330
BF7
100
AcDbEntity
  8
1
100
AcDbLine
 10
36.87092
 20
1.196358999999997
 30
0.0
 11
37.99230300000001
 21
0.5511589999999984
 31
0.0
  0
LINE
  5
2EB0
330
BF7
100
AcDbEntity
  8
1
100
AcDbLine
 10
35.74264599999999
 20
1.727985999999996
 30
0.0
 11
36.87092
 21
1.196358999999997
 31
0.0
  0
LINE
  5
2EB1
330
BF7
100
AcDbEntity
  8
1
100
AcDbLine
 10
34.58918
 20
2.095299
 30
0.0
 11
35.74264599999999
 21
1.727985999999996
 31
0.0
  0
LINE
  5
2EB2
330
BF7
100
AcDbEntity
  8
1
100
AcDbLine
 10
33.46783300000002
 20
2.245970999999996
 30
0.0
 11
34.58918
 21
2.095299
 31
0.0
  0
LINE
  5
2EB3
330
BF7
100
AcDbEntity
  8
1
100
AcDbLine
 10
33.25506800000002
 20
2.232987
 30
0.0
 11
33.46783300000002
 21
2.245970999999996
 31
0.0
  0
LINE
  5
2EB4
330
BF7
100
AcDbEntity
  8
1
100
AcDbLine
 10
20.96921400000001
 20
-2.156802000000002
 30
0.0
 11
23.061722
 21
-2.137366
 31
0.0
  0
LINE
  5
2EB5
330
BF7
100
AcDbEntity
  8
1
100
AcDbLine
 10
19.84096400000001
 20
-1.852041999999999
 30
0.0
 11
20.96921400000001
 21
-2.156802000000002
 31
0.0
  0
LINE
  5
2EB6
330
BF7
100
AcDbEntity
  8
1
100
AcDbLine
 10
18.68751
 20
-1.352330000000002
 30
0.0
 11
19.84096400000001
 21
-1.852041999999999
 31
0.0
  0
LINE
  5
2EB7
330
BF7
100
AcDbEntity
  8
1
100
AcDbLine
 10
17.56616400000001
 20
-0.7326200000000008
 30
0.0
 11
18.68751
 21
-1.352330000000002
 31
0.0
  0
LINE
  5
2EB8
330
BF7
100
AcDbEntity
  8
1
100
AcDbLine
 10
16.437914
 20
-0.0373240000000017
 30
0.0
 11
17.56616400000001
 21
-0.7326200000000008
 31
0.0
  0
LINE
  5
2EB9
330
BF7
100
AcDbEntity
  8
1
100
AcDbLine
 10
15.28443500000001
 20
0.676787000000001
 30
0.0
 11
16.437914
 21
-0.0373240000000017
 31
0.0
  0
LINE
  5
2EBA
330
BF7
100
AcDbEntity
  8
1
100
AcDbLine
 10
14.163065
 20
1.304891999999998
 30
0.0
 11
15.28443500000001
 21
0.676787000000001
 31
0.0
  0
LINE
  5
2EBB
330
BF7
100
AcDbEntity
  8
1
100
AcDbLine
 10
13.034791
 20
1.808666999999999
 30
0.0
 11
14.163065
 21
1.304891999999998
 31
0.0
  0
LINE
  5
2EBC
330
BF7
100
AcDbEntity
  8
1
100
AcDbLine
 10
11.88131200000001
 20
2.139333999999998
 30
0.0
 11
13.034791
 21
1.808666999999999
 31
0.0
  0
LINE
  5
2EBD
330
BF7
100
AcDbEntity
  8
1
100
AcDbLine
 10
10.75994200000001
 20
2.249995000000001
 30
0.0
 11
11.88131200000001
 21
2.139333999999998
 31
0.0
  0
LINE
  5
2EBE
330
BF7
100
AcDbEntity
  8
1
100
AcDbLine
 10
10.754267
 20
2.249443999999999
 30
0.0
 11
10.75994200000001
 21
2.249995000000001
 31
0.0
  0
LINE
  5
2EBF
330
BF7
100
AcDbEntity
  8
1
100
AcDbLine
 10
0.5
 20
1.854344
 30
0.0
 11
0.5
 21
1.393046999999999
 31
0.0
  0
LINE
  5
2EC0
330
BF7
100
AcDbEntity
  8
1
100
AcDbLine
 10
0.5
 20
2.148827
 30
0.0
 11
0.5
 21
1.854344
 31
0.0
  0
LINE
  5
2EC1
330
BF7
100
AcDbEntity
  8
1
100
AcDbLine
 10
0.5
 20
2.249997999999997
 30
0.0
 11
0.5
 21
2.148827
 31
0.0
  0
LINE
  5
2EC2
330
BF7
100
AcDbEntity
  8
1
100
AcDbLine
 10
0.5
 20
-2.135968
 30
0.0
 11
0.5
 21
-2.25
 31
0.0
  0
LINE
  5
2EC3
330
BF7
100
AcDbEntity
  8
1
100
AcDbLine
 10
0.5
 20
-1.805365
 30
0.0
 11
0.5
 21
-2.135968
 31
0.0
  0
LINE
  5
2EC4
330
BF7
100
AcDbEntity
  8
1
100
AcDbLine
 10
0.5
 20
-1.291710999999998
 30
0.0
 11
0.5
 21
-1.805365
 31
0.0
  0
LINE
  5
2EC5
330
BF7
100
AcDbEntity
  8
1
100
AcDbLine
 10
0.5
 20
-0.6470860000000016
 30
0.0
 11
0.5
 21
-1.291710999999998
 31
0.0
  0
LINE
  5
2EC6
330
BF7
100
AcDbEntity
  8
1
100
AcDbLine
 10
0.5
 20
0.0631500000000003
 30
0.0
 11
0.5
 21
-0.6470860000000016
 31
0.0
  0
LINE
  5
2EC7
330
BF7
100
AcDbEntity
  8
1
100
AcDbLine
 10
0.5
 20
0.7669800000000003
 30
0.0
 11
0.5
 21
0.0631500000000003
 31
0.0
  0
LINE
  5
2EC8
330
BF7
100
AcDbEntity
  8
1
100
AcDbLine
 10
0.5
 20
1.393046999999999
 30
0.0
 11
0.5
 21
0.7669800000000003
 31
0.0
  0
LINE
  5
2EC9
330
BF7
100
AcDbEntity
  8
1
100
AcDbLine
 10
107.800565
 20
-1.432486
 30
0.0
 11
107.452888
 21
-1.670013
 31
0.0
  0
LINE
  5
2ECA
330
BF7
100
AcDbEntity
  8
1
100
AcDbLine
 10
108.006609
 20
-1.276147999999998
 30
0.0
 11
107.800565
 21
-1.432486
 31
0.0
  0
LINE
  5
2ECB
330
BF7
100
AcDbEntity
  8
1
100
AcDbLine
 10
109.993442
 20
-0.0531569999999988
 30
0.0
 11
109.99997
 21
-0.017507000000002
 31
0.0
  0
LINE
  5
2ECC
330
BF7
100
AcDbEntity
  8
1
100
AcDbLine
 10
108.252802
 20
0.2560129999999994
 30
0.0
 11
108.970055
 21
-0.4615140000000011
 31
0.0
  0
LINE
  5
2ECD
330
BF7
100
AcDbEntity
  8
1
100
AcDbLine
 10
107.764848
 20
0.8968079999999998
 30
0.0
 11
108.252802
 21
0.2560129999999994
 31
0.0
  0
LINE
  5
2ECE
330
BF7
100
AcDbEntity
  8
1
100
AcDbLine
 10
107.543228
 20
1.317102999999995
 30
0.0
 11
107.764848
 21
0.8968079999999998
 31
0.0
  0
LINE
  5
2ECF
330
BF7
100
AcDbEntity
  8
1
100
AcDbLine
 10
107.452888
 20
1.670013
 30
0.0
 11
107.543228
 21
1.317102999999995
 31
0.0
  0
LINE
  5
2ED0
330
BF7
100
AcDbEntity
  8
1
100
AcDbLine
 10
107.800565
 20
1.432484999999999
 30
0.0
 11
107.452888
 21
1.670013
 31
0.0
  0
LINE
  5
2ED1
330
BF7
100
AcDbEntity
  8
1
100
AcDbLine
 10
108.206633
 20
1.124373999999998
 30
0.0
 11
107.800565
 21
1.432484999999999
 31
0.0
  0
LINE
  5
2ED2
330
BF7
100
AcDbEntity
  8
1
100
AcDbLine
 10
108.306033
 20
1.039895000000001
 30
0.0
 11
108.206633
 21
1.124373999999998
 31
0.0
  0
LINE
  5
2ED3
330
BF7
100
AcDbEntity
  8
1
100
AcDbLine
 10
108.327834
 20
1.020233999999997
 30
0.0
 11
108.306033
 21
1.039895000000001
 31
0.0
  0
LINE
  5
2ED4
330
BF7
100
AcDbEntity
  8
1
100
AcDbLine
 10
108.385897
 20
0.968599000000001
 30
0.0
 11
108.327834
 21
1.020233999999997
 31
0.0
  0
LINE
  5
2ED5
330
BF7
100
AcDbEntity
  8
1
100
AcDbLine
 10
108.80415
 20
0.6535839999999986
 30
0.0
 11
108.385897
 21
0.968599000000001
 31
0.0
  0
LINE
  5
2ED6
330
BF7
100
AcDbEntity
  8
1
100
AcDbLine
 10
109.069674
 20
0.5193380000000012
 30
0.0
 11
108.80415
 21
0.6535839999999986
 31
0.0
  0
LINE
  5
2ED7
330
BF7
100
AcDbEntity
  8
1
100
AcDbLine
 10
109.228143
 20
0.4854199999999979
 30
0.0
 11
109.069674
 21
0.5193380000000012
 31
0.0
  0
LINE
  5
2ED8
330
BF7
100
AcDbEntity
  8
1
100
AcDbLine
 10
109.322032
 20
0.5081530000000001
 30
0.0
 11
109.228143
 21
0.4854199999999979
 31
0.0
  0
LINE
  5
2ED9
330
BF7
100
AcDbEntity
  8
1
100
AcDbLine
 10
109.371569
 20
0.5770049999999998
 30
0.0
 11
109.322032
 21
0.5081530000000001
 31
0.0
  0
LINE
  5
2EDA
330
BF7
100
AcDbEntity
  8
1
100
AcDbLine
 10
109.975687
 20
-0.002047000000001
 30
0.0
 11
109.371569
 21
0.5770049999999998
 31
0.0
  0
LINE
  5
2EDB
330
BF7
100
AcDbEntity
  8
1
100
AcDbLine
 10
109.378376
 20
-0.027352999999998
 30
0.0
 11
109.580544
 21
-0.182582
 31
0.0
  0
LINE
  5
2EDC
330
BF7
100
AcDbEntity
  8
1
100
AcDbLine
 10
109.134713
 20
0.1196470000000005
 30
0.0
 11
109.378376
 21
-0.027352999999998
 31
0.0
  0
LINE
  5
2EDD
330
BF7
100
AcDbEntity
  8
1
100
AcDbLine
 10
109.054825
 20
0.1474440000000001
 30
0.0
 11
109.134713
 21
0.1196470000000005
 31
0.0
  0
LINE
  5
2EDE
330
BF7
100
AcDbEntity
  8
1
100
AcDbLine
 10
109.019386
 20
0.1481549999999991
 30
0.0
 11
109.054825
 21
0.1474440000000001
 31
0.0
  0
LINE
  5
2EDF
330
BF7
100
AcDbEntity
  8
1
100
AcDbLine
 10
109.00467
 20
0.1401739999999982
 30
0.0
 11
109.019386
 21
0.1481549999999991
 31
0.0
  0
LINE
  5
2EE0
330
BF7
100
AcDbEntity
  8
1
100
AcDbLine
 10
108.997488
 20
0.1209919999999975
 30
0.0
 11
109.00467
 21
0.1401739999999982
 31
0.0
  0
LINE
  5
2EE1
330
BF7
100
AcDbEntity
  8
1
100
AcDbLine
 10
109.003338
 20
0.0902150000000006
 30
0.0
 11
108.997488
 21
0.1209919999999975
 31
0.0
  0
LINE
  5
2EE2
330
BF7
100
AcDbEntity
  8
1
100
AcDbLine
 10
109.019434
 20
0.0555130000000013
 30
0.0
 11
109.003338
 21
0.0902150000000006
 31
0.0
  0
LINE
  5
2EE3
330
BF7
100
AcDbEntity
  8
1
100
AcDbLine
 10
109.07929
 20
-0.0309580000000018
 30
0.0
 11
109.019434
 21
0.0555130000000013
 31
0.0
  0
LINE
  5
2EE4
330
BF7
100
AcDbEntity
  8
1
100
AcDbLine
 10
109.229269
 20
-0.1916390000000021
 30
0.0
 11
109.07929
 21
-0.0309580000000018
 31
0.0
  0
LINE
  5
2EE5
330
BF7
100
AcDbEntity
  8
1
100
AcDbLine
 10
109.341072
 20
-0.2919979999999995
 30
0.0
 11
109.229269
 21
-0.1916390000000021
 31
0.0
  0
LINE
  5
2EE6
330
BF7
100
AcDbEntity
  8
1
100
AcDbLine
 10
109.580544
 20
-0.182582
 30
0.0
 11
109.975687
 21
-0.002047000000001
 31
0.0
  0
LINE
  5
2EE7
330
BF7
100
AcDbEntity
  8
1
100
AcDbLine
 10
109.975687
 20
-0.002047000000001
 30
0.0
 11
109.993442
 21
0.0531569999999988
 31
0.0
  0
LINE
  5
2EE8
330
BF7
100
AcDbEntity
  8
1
100
AcDbLine
 10
109.993442
 20
0.0531569999999988
 30
0.0
 11
109.99997
 21
0.0175069999999984
 31
0.0
  0
LINE
  5
2EE9
330
BF7
100
AcDbEntity
  8
1
100
AcDbLine
 10
109.99997
 20
0.0175069999999984
 30
0.0
 11
109.162606
 21
-1.082086999999996
 31
0.0
  0
LINE
  5
2EEA
330
BF7
100
AcDbEntity
  8
1
100
AcDbLine
 10
109.003604
 20
-0.6015979999999992
 30
0.0
 11
108.970055
 21
-0.4615140000000011
 31
0.0
  0
LINE
  5
2EEB
330
BF7
100
AcDbEntity
  8
1
100
AcDbLine
 10
109.076396
 20
-0.8491630000000006
 30
0.0
 11
109.003604
 21
-0.6015979999999992
 31
0.0
  0
LINE
  5
2EEC
330
BF7
100
AcDbEntity
  8
1
100
AcDbLine
 10
109.162606
 20
-1.082086999999996
 30
0.0
 11
109.076396
 21
-0.8491630000000006
 31
0.0
  0
LINE
  5
2EED
330
BF7
100
AcDbEntity
  8
1
100
AcDbLine
 10
108.970055
 20
-0.4615140000000011
 30
0.0
 11
109.341072
 21
-0.2919979999999995
 31
0.0
  0
LINE
  5
2EEE
330
BF7
100
AcDbEntity
  8
1
100
AcDbLine
 10
109.595162
 20
-0.2418720000000007
 30
0.0
 11
109.580544
 21
-0.182582
 31
0.0
  0
LINE
  5
2EEF
330
BF7
100
AcDbEntity
  8
1
100
AcDbLine
 10
109.604428
 20
-0.3137140000000009
 30
0.0
 11
109.595162
 21
-0.2418720000000007
 31
0.0
  0
LINE
  5
2EF0
330
BF7
100
AcDbEntity
  8
1
100
AcDbLine
 10
109.603858
 20
-0.3781390000000009
 30
0.0
 11
109.604428
 21
-0.3137140000000009
 31
0.0
  0
LINE
  5
2EF1
330
BF7
100
AcDbEntity
  8
1
100
AcDbLine
 10
109.592764
 20
-0.4374950000000021
 30
0.0
 11
109.603858
 21
-0.3781390000000009
 31
0.0
  0
LINE
  5
2EF2
330
BF7
100
AcDbEntity
  8
1
100
AcDbLine
 10
109.569074
 20
-0.4851650000000022
 30
0.0
 11
109.592764
 21
-0.4374950000000021
 31
0.0
  0
LINE
  5
2EF3
330
BF7
100
AcDbEntity
  8
1
100
AcDbLine
 10
109.537741
 20
-0.5095460000000003
 30
0.0
 11
109.569074
 21
-0.4851650000000022
 31
0.0
  0
LINE
  5
2EF4
330
BF7
100
AcDbEntity
  8
1
100
AcDbLine
 10
109.517684
 20
-0.5137140000000004
 30
0.0
 11
109.537741
 21
-0.5095460000000003
 31
0.0
  0
LINE
  5
2EF5
330
BF7
100
AcDbEntity
  8
1
100
AcDbLine
 10
109.465943
 20
-0.4970409999999994
 30
0.0
 11
109.517684
 21
-0.5137140000000004
 31
0.0
  0
LINE
  5
2EF6
330
BF7
100
AcDbEntity
  8
1
100
AcDbLine
 10
109.407456
 20
-0.4369170000000011
 30
0.0
 11
109.465943
 21
-0.4970409999999994
 31
0.0
  0
LINE
  5
2EF7
330
BF7
100
AcDbEntity
  8
1
100
AcDbLine
 10
109.363648
 20
-0.3560639999999999
 30
0.0
 11
109.407456
 21
-0.4369170000000011
 31
0.0
  0
LINE
  5
2EF8
330
BF7
100
AcDbEntity
  8
1
100
AcDbLine
 10
109.341072
 20
-0.2919979999999995
 30
0.0
 11
109.363648
 21
-0.3560639999999999
 31
0.0
  0
LINE
  5
2EF9
330
BF7
100
AcDbEntity
  8
SK1
100
AcDbLine
 10
-35.35048199999999
 20
-1.732599999999996
 30
0.0
 11
-35.35048199999999
 21
-2.11655
 31
0.0
  0
LINE
  5
2EFA
330
BF7
100
AcDbEntity
  8
SK1
100
AcDbLine
 10
-35.35048199999999
 20
-1.300183
 30
0.0
 11
-35.35048199999999
 21
-1.732599999999996
 31
0.0
  0
LINE
  5
2EFB
330
BF7
100
AcDbEntity
  8
1
100
AcDbLine
 10
108.686412
 20
0.096501
 30
0.0
 11
109.57737
 21
-0.1260879999999993
 31
0.0
  0
LINE
  5
2EFC
330
BF7
100
AcDbEntity
  8
1
100
AcDbLine
 10
26.311972
 20
2.137504999999999
 30
0.0
 11
23.06055900000001
 21
2.137504999999999
 31
0.0
  0
LINE
  5
2EFD
330
BF7
100
AcDbEntity
  8
1
100
AcDbLine
 10
48.81127599999999
 20
2.137495999999995
 30
0.0
 11
45.49896700000002
 21
2.137495999999995
 31
0.0
  0
LINE
  5
2EFE
330
BF7
100
AcDbEntity
  8
1
100
AcDbLine
 10
71.31098099999999
 20
2.137492999999999
 30
0.0
 11
67.99972500000001
 21
2.137492999999999
 31
0.0
  0
LINE
  5
2EFF
330
BF7
100
AcDbEntity
  8
1
100
AcDbLine
 10
93.81092700000001
 20
2.137489999999995
 30
0.0
 11
90.549789
 21
2.137489999999995
 31
0.0
  0
LINE
  5
2F00
330
BF7
100
AcDbEntity
  8
1
100
AcDbLine
 10
103.064093
 20
-2.137490999999999
 30
0.0
 11
105.060931
 21
-2.137490999999999
 31
0.0
  0
LINE
  5
2F01
330
BF7
100
AcDbEntity
  8
1
100
AcDbLine
 10
101.067255
 20
-2.137490999999999
 30
0.0
 11
103.064093
 21
-2.137490999999999
 31
0.0
  0
LINE
  5
2F02
330
BF7
100
AcDbEntity
  8
1
100
AcDbLine
 10
80.56351700000002
 20
-2.137493999999999
 30
0.0
 11
82.56035500000001
 21
-2.137493999999999
 31
0.0
  0
LINE
  5
2F03
330
BF7
100
AcDbEntity
  8
1
100
AcDbLine
 10
78.56667899999997
 20
-2.137493999999999
 30
0.0
 11
80.56351700000002
 21
-2.137493999999999
 31
0.0
  0
LINE
  5
2F04
330
BF7
100
AcDbEntity
  8
1
100
AcDbLine
 10
58.06428500000001
 20
-2.137490000000003
 30
0.0
 11
60.06112300000001
 21
-2.137490000000003
 31
0.0
  0
LINE
  5
2F05
330
BF7
100
AcDbEntity
  8
1
100
AcDbLine
 10
56.06744699999999
 20
-2.137490000000003
 30
0.0
 11
58.06428500000001
 21
-2.137490000000003
 31
0.0
  0
LINE
  5
2F06
330
BF7
100
AcDbEntity
  8
1
100
AcDbLine
 10
35.564871
 20
-2.137496999999999
 30
0.0
 11
37.56170900000001
 21
-2.137496999999999
 31
0.0
  0
LINE
  5
2F07
330
BF7
100
AcDbEntity
  8
1
100
AcDbLine
 10
33.56803300000001
 20
-2.137496999999999
 30
0.0
 11
35.564871
 21
-2.137496999999999
 31
0.0
  0
LINE
  5
2F08
330
BF7
100
AcDbEntity
  8
1
100
AcDbLine
 10
13.066293
 20
-2.137493000000002
 30
0.0
 11
15.06313100000001
 21
-2.137493000000002
 31
0.0
  0
LINE
  5
2F09
330
BF7
100
AcDbEntity
  8
1
100
AcDbLine
 10
11.069455
 20
-2.137493000000002
 30
0.0
 11
13.066293
 21
-2.137493000000002
 31
0.0
  0
LINE
  5
2F0A
330
BF7
100
AcDbEntity
  8
1
100
AcDbLine
 10
15.06313100000001
 20
2.137492999999999
 30
0.0
 11
11.887786
 21
2.137492999999999
 31
0.0
  0
LINE
  5
2F0B
330
BF7
100
AcDbEntity
  8
1
100
AcDbLine
 10
37.56170900000001
 20
2.137495999999995
 30
0.0
 11
34.27516100000001
 21
2.137495999999995
 31
0.0
  0
LINE
  5
2F0C
330
BF7
100
AcDbEntity
  8
1
100
AcDbLine
 10
60.06112300000001
 20
2.137489999999995
 30
0.0
 11
56.74624499999999
 21
2.137489999999995
 31
0.0
  0
LINE
  5
2F0D
330
BF7
100
AcDbEntity
  8
1
100
AcDbLine
 10
82.56035500000001
 20
2.137492999999999
 30
0.0
 11
79.27493299999999
 21
2.137492999999999
 31
0.0
  0
LINE
  5
2F0E
330
BF7
100
AcDbEntity
  8
1
100
AcDbLine
 10
105.060931
 20
2.137489999999995
 30
0.0
 11
101.82249
 21
2.137489999999995
 31
0.0
  0
LINE
  5
2F0F
330
BF7
100
AcDbEntity
  8
1
100
AcDbLine
 10
91.81408900000002
 20
-2.137490999999999
 30
0.0
 11
93.81092700000001
 21
-2.137490999999999
 31
0.0
  0
LINE
  5
2F10
330
BF7
100
AcDbEntity
  8
1
100
AcDbLine
 10
89.81726400000002
 20
-2.137490999999999
 30
0.0
 11
91.81408900000002
 21
-2.137490999999999
 31
0.0
  0
LINE
  5
2F11
330
BF7
100
AcDbEntity
  8
1
100
AcDbLine
 10
69.31414300000003
 20
-2.137493000000002
 30
0.0
 11
71.31098099999999
 21
-2.137493000000002
 31
0.0
  0
LINE
  5
2F12
330
BF7
100
AcDbEntity
  8
1
100
AcDbLine
 10
67.31730500000001
 20
-2.137493000000002
 30
0.0
 11
69.31414300000003
 21
-2.137493000000002
 31
0.0
  0
LINE
  5
2F13
330
BF7
100
AcDbEntity
  8
1
100
AcDbLine
 10
46.81443900000002
 20
-2.137496999999999
 30
0.0
 11
48.81127599999999
 21
-2.137496999999999
 31
0.0
  0
LINE
  5
2F14
330
BF7
100
AcDbEntity
  8
1
100
AcDbLine
 10
44.81760099999998
 20
-2.137496999999999
 30
0.0
 11
46.81443900000002
 21
-2.137496999999999
 31
0.0
  0
LINE
  5
2F15
330
BF7
100
AcDbEntity
  8
1
100
AcDbLine
 10
24.31513400000002
 20
-2.137505999999997
 30
0.0
 11
26.311972
 21
-2.137505999999997
 31
0.0
  0
LINE
  5
2F16
330
BF7
100
AcDbEntity
  8
1
100
AcDbLine
 10
22.31829600000001
 20
-2.137505999999997
 30
0.0
 11
24.31513400000002
 21
-2.137505999999997
 31
0.0
  0
LINE
  5
2F17
330
BF7
100
AcDbEntity
  8
1
100
AcDbLine
 10
25.219027
 20
1.394520999999997
 30
0.0
 11
25.28894800000001
 21
1.367620999999995
 31
0.0
  0
LINE
  5
2F18
330
BF7
100
AcDbEntity
  8
1
100
AcDbLine
 10
25.149107
 20
1.421420999999995
 30
0.0
 11
25.219027
 21
1.394520999999997
 31
0.0
  0
LINE
  5
2F19
330
BF7
100
AcDbEntity
  8
1
100
AcDbLine
 10
47.341599
 20
1.539839999999997
 30
0.0
 11
47.78664200000003
 21
1.368769
 31
0.0
  0
LINE
  5
2F1A
330
BF7
100
AcDbEntity
  8
1
100
AcDbLine
 10
46.896556
 20
1.710910999999999
 30
0.0
 11
47.341599
 21
1.539839999999997
 31
0.0
  0
LINE
  5
2F1B
330
BF7
100
AcDbEntity
  8
1
100
AcDbLine
 10
69.68048399999999
 20
1.601794
 30
0.0
 11
70.28606800000003
 21
1.369058999999995
 31
0.0
  0
LINE
  5
2F1C
330
BF7
100
AcDbEntity
  8
1
100
AcDbLine
 10
69.07491300000001
 20
1.834528999999999
 30
0.0
 11
69.68048399999999
 21
1.601794
 31
0.0
  0
LINE
  5
2F1D
330
BF7
100
AcDbEntity
  8
1
100
AcDbLine
 10
11.382705
 20
-2.146538999999999
 30
0.0
 11
11.06934600000001
 21
-2.137493000000002
 31
0.0
  0
LINE
  5
2F1E
330
BF7
100
AcDbEntity
  8
1
100
AcDbLine
 10
13.45774200000001
 20
1.591169
 30
0.0
 11
14.040434
 21
1.366878999999997
 31
0.0
  0
LINE
  5
2F1F
330
BF7
100
AcDbEntity
  8
1
100
AcDbLine
 10
12.875044
 20
1.815456
 30
0.0
 11
13.45774200000001
 21
1.591169
 31
0.0
  0
LINE
  5
2F20
330
BF7
100
AcDbEntity
  8
1
100
AcDbLine
 10
36.36585200000001
 20
1.434334999999996
 30
0.0
 11
36.537595
 21
1.368298999999999
 31
0.0
  0
LINE
  5
2F21
330
BF7
100
AcDbEntity
  8
1
100
AcDbLine
 10
58.96344300000001
 20
1.396968
 30
0.0
 11
59.03606400000001
 21
1.369052999999996
 31
0.0
  0
LINE
  5
2F22
330
BF7
100
AcDbEntity
  8
1
100
AcDbLine
 10
58.89082099999999
 20
1.424878999999996
 30
0.0
 11
58.96344300000001
 21
1.396968
 31
0.0
  0
LINE
  5
2F23
330
BF7
100
AcDbEntity
  8
1
100
AcDbLine
 10
102.90675
 20
1.803311
 30
0.0
 11
104.040778
 21
1.366707000000001
 31
0.0
  0
LINE
  5
2F24
330
BF7
100
AcDbEntity
  8
1
100
AcDbLine
 10
67.48545100000001
 20
-2.146593000000001
 30
0.0
 11
67.317002
 21
-2.137490999999999
 31
0.0
  0
LINE
  5
2F25
330
BF7
100
AcDbEntity
  8
1
100
AcDbLine
 10
22.40713500000001
 20
-2.143895
 30
0.0
 11
22.31796899999999
 21
-2.137505999999997
 31
0.0
  0
LINE
  5
2F26
330
BF7
100
AcDbEntity
  8
1
100
AcDbLine
 10
87.61736200000001
 20
0.4630979999999987
 30
0.0
 11
85.97810900000002
 21
1.232218999999999
 31
0.0
  0
LINE
  5
2F27
330
BF7
100
AcDbEntity
  8
1
100
AcDbLine
 10
89.28814100000002
 20
-0.2326110000000021
 30
0.0
 11
87.61736200000001
 21
0.4630979999999987
 31
0.0
  0
LINE
  5
2F28
330
BF7
100
AcDbEntity
  8
1
100
AcDbLine
 10
65.13370499999999
 20
0.455842999999998
 30
0.0
 11
63.50314800000001
 21
1.220370999999995
 31
0.0
  0
LINE
  5
2F29
330
BF7
100
AcDbEntity
  8
1
100
AcDbLine
 10
66.79559499999999
 20
-0.2355540000000005
 30
0.0
 11
65.13370499999999
 21
0.455842999999998
 31
0.0
  0
LINE
  5
2F2A
330
BF7
100
AcDbEntity
  8
1
100
AcDbLine
 10
42.64073500000001
 20
0.4527329999999985
 30
0.0
 11
41.01129200000002
 21
1.216579999999999
 31
0.0
  0
LINE
  5
2F2B
330
BF7
100
AcDbEntity
  8
1
100
AcDbLine
 10
44.30142599999999
 20
-0.2378600000000013
 30
0.0
 11
42.64073500000001
 21
0.4527329999999985
 31
0.0
  0
LINE
  5
2F2C
330
BF7
100
AcDbEntity
  8
1
100
AcDbLine
 10
21.478183
 20
-0.1033310000000007
 30
0.0
 11
21.14021899999999
 21
0.0369410000000023
 31
0.0
  0
LINE
  5
2F2D
330
BF7
100
AcDbEntity
  8
1
100
AcDbLine
 10
21.816147
 20
-0.2436059999999998
 30
0.0
 11
21.478183
 21
-0.1033310000000007
 31
0.0
  0
LINE
  5
2F2E
330
BF7
100
AcDbEntity
  8
1
100
AcDbLine
 10
19.81672900000001
 20
0.5960810000000018
 30
0.0
 11
18.51809200000001
 21
1.214553999999999
 31
0.0
  0
LINE
  5
2F2F
330
BF7
100
AcDbEntity
  8
1
100
AcDbLine
 10
21.14021899999999
 20
0.0369410000000023
 30
0.0
 11
19.81672900000001
 21
0.5960810000000018
 31
0.0
  0
LINE
  5
2F30
330
BF7
100
AcDbEntity
  8
1
100
AcDbLine
 10
98.89573099999999
 20
0.4505139999999983
 30
0.0
 11
97.275602
 21
1.209784999999995
 31
0.0
  0
LINE
  5
2F31
330
BF7
100
AcDbEntity
  8
1
100
AcDbLine
 10
100.546962
 20
-0.2360630000000015
 30
0.0
 11
98.89573099999999
 21
0.4505139999999983
 31
0.0
  0
LINE
  5
2F32
330
BF7
100
AcDbEntity
  8
1
100
AcDbLine
 10
76.39899399999999
 20
0.4494419999999977
 30
0.0
 11
74.764428
 21
1.216395000000001
 31
0.0
  0
LINE
  5
2F33
330
BF7
100
AcDbEntity
  8
1
100
AcDbLine
 10
78.06472299999999
 20
-0.2430170000000018
 30
0.0
 11
76.39899399999999
 21
0.4494419999999977
 31
0.0
  0
LINE
  5
2F34
330
BF7
100
AcDbEntity
  8
1
100
AcDbLine
 10
53.89836899999999
 20
0.4493060000000001
 30
0.0
 11
52.26784799999999
 21
1.21337
 31
0.0
  0
LINE
  5
2F35
330
BF7
100
AcDbEntity
  8
1
100
AcDbLine
 10
55.56013800000002
 20
-0.2412799999999997
 30
0.0
 11
53.89836899999999
 21
0.4493060000000001
 31
0.0
  0
LINE
  5
2F36
330
BF7
100
AcDbEntity
  8
1
100
AcDbLine
 10
31.378596
 20
0.4580780000000006
 30
0.0
 11
29.74874100000001
 21
1.222457000000001
 31
0.0
  0
LINE
  5
2F37
330
BF7
100
AcDbEntity
  8
1
100
AcDbLine
 10
33.03978300000002
 20
-0.2332670000000014
 30
0.0
 11
31.378596
 21
0.4580780000000006
 31
0.0
  0
LINE
  5
2F38
330
BF7
100
AcDbEntity
  8
SK1
100
AcDbLine
 10
-36.0
 20
-2.625001000000001
 30
0.0
 11
-35.35048199999999
 21
-3.000001000000001
 31
0.0
  0
LINE
  5
2F39
330
BF7
100
AcDbEntity
  8
1
100
AcDbLine
 10
0.5
 20
-2.25
 30
0.0
 11
6.165739000000002
 21
-2.25
 31
0.0
  0
LINE
  5
2F3A
330
BF7
100
AcDbEntity
  8
1
100
AcDbLine
 10
9.979127000000003
 20
-2.25
 30
0.0
 11
10.75355900000001
 21
-2.25
 31
0.0
  0
LINE
  5
2F3B
330
BF7
100
AcDbEntity
  8
1
100
AcDbLine
 10
21.443156
 20
-2.25
 30
0.0
 11
22.004071
 21
-2.25
 31
0.0
  0
LINE
  5
2F3C
330
BF7
100
AcDbEntity
  8
1
100
AcDbLine
 10
32.691924
 20
-2.25
 30
0.0
 11
33.254402
 21
-2.25
 31
0.0
  0
LINE
  5
2F3D
330
BF7
100
AcDbEntity
  8
1
100
AcDbLine
 10
43.94029200000002
 20
-2.25
 30
0.0
 11
44.50438099999998
 21
-2.25
 31
0.0
  0
LINE
  5
2F3E
330
BF7
100
AcDbEntity
  8
1
100
AcDbLine
 10
55.19018700000001
 20
-2.25
 30
0.0
 11
55.753985
 21
-2.25
 31
0.0
  0
LINE
  5
2F3F
330
BF7
100
AcDbEntity
  8
1
100
AcDbLine
 10
66.440481
 20
-2.25
 30
0.0
 11
67.00350399999999
 21
-2.25
 31
0.0
  0
LINE
  5
2F40
330
BF7
100
AcDbEntity
  8
1
100
AcDbLine
 10
77.691078
 20
-2.25
 30
0.0
 11
78.25299899999997
 21
-2.25
 31
0.0
  0
LINE
  5
2F41
330
BF7
100
AcDbEntity
  8
1
100
AcDbLine
 10
88.94160300000001
 20
-2.25
 30
0.0
 11
89.502663
 21
-2.25
 31
0.0
  0
LINE
  5
2F42
330
BF7
100
AcDbEntity
  8
1
100
AcDbLine
 10
100.190976
 20
-2.25
 30
0.0
 11
100.75263
 21
-2.25
 31
0.0
  0
LINE
  5
2F43
330
BF7
100
AcDbEntity
  8
1
100
AcDbLine
 10
100.75263
 20
2.249997999999997
 30
0.0
 11
100.190976
 21
2.249997999999997
 31
0.0
  0
LINE
  5
2F44
330
BF7
100
AcDbEntity
  8
1
100
AcDbLine
 10
89.502663
 20
2.249997999999997
 30
0.0
 11
88.94160300000001
 21
2.249997999999997
 31
0.0
  0
LINE
  5
2F45
330
BF7
100
AcDbEntity
  8
1
100
AcDbLine
 10
78.25299899999997
 20
2.249997999999997
 30
0.0
 11
77.691078
 21
2.249997999999997
 31
0.0
  0
LINE
  5
2F46
330
BF7
100
AcDbEntity
  8
1
100
AcDbLine
 10
67.00350399999999
 20
2.249997999999997
 30
0.0
 11
66.440481
 21
2.249997999999997
 31
0.0
  0
LINE
  5
2F47
330
BF7
100
AcDbEntity
  8
1
100
AcDbLine
 10
55.753985
 20
2.249997999999997
 30
0.0
 11
55.19018700000001
 21
2.249997999999997
 31
0.0
  0
LINE
  5
2F48
330
BF7
100
AcDbEntity
  8
1
100
AcDbLine
 10
44.50438099999998
 20
2.249997999999997
 30
0.0
 11
43.94029200000002
 21
2.249997999999997
 31
0.0
  0
LINE
  5
2F49
330
BF7
100
AcDbEntity
  8
1
100
AcDbLine
 10
33.254402
 20
2.249997999999997
 30
0.0
 11
32.691924
 21
2.249997999999997
 31
0.0
  0
LINE
  5
2F4A
330
BF7
100
AcDbEntity
  8
1
100
AcDbLine
 10
22.004071
 20
2.249997999999997
 30
0.0
 11
21.443156
 21
2.249997999999997
 31
0.0
  0
LINE
  5
2F4B
330
BF7
100
AcDbEntity
  8
1
100
AcDbLine
 10
10.75355900000001
 20
2.249997999999997
 30
0.0
 11
9.979127000000003
 21
2.249997999999997
 31
0.0
  0
LINE
  5
2F4C
330
BF7
100
AcDbEntity
  8
1
100
AcDbLine
 10
6.165739000000002
 20
2.249997999999997
 30
0.0
 11
0.5
 21
2.249997999999997
 31
0.0
  0
LINE
  5
2F4D
330
BF7
100
AcDbEntity
  8
SK1
100
AcDbLine
 10
-35.35048199999999
 20
3.000001000000001
 30
0.0
 11
-36.0
 21
2.625
 31
0.0
  0
LINE
  5
2F4E
330
BF7
100
AcDbEntity
  8
SK1
100
AcDbLine
 10
0.0
 20
3.000001000000001
 30
0.0
 11
-35.35048199999999
 21
3.000001000000001
 31
0.0
  0
LINE
  5
2F4F
330
BF7
100
AcDbEntity
  8
SK1
100
AcDbLine
 10
-35.35048199999999
 20
-3.000001000000001
 30
0.0
 11
0.0
 21
-3.000001000000001
 31
0.0
  0
POINT
  5
2F52
330
BF7
100
AcDbEntity
  8
61
  6
Continuous
 62
    43
100
AcDbPoint
 10
-88.641269
 20
-25.291401
 30
0.0
  0
LINE
  5
2F53
330
BF7
100
AcDbEntity
  8
SK4
100
AcDbLine
 10
0.0
 20
0.0
 30
0.0
 11
-37.80699393093937
 21
0.0000000000000046
 31
0.0
  0
LINE
  5
2F54
330
BF7
100
AcDbEntity
  8
SK4
100
AcDbLine
 10
0.0
 20
0.0
 30
0.0
 11
111.7298957437579
 21
0.0
 31
0.0
  0
LINE
  5
2F55
330
BF7
100
AcDbEntity
  8
1
100
AcDbLine
 10
0.0000000093718917
 20
2.750001000000001
 30
0.0
 11
0.0000000093718907
 21
-2.750001000000001
 31
0.0
  0
DIMENSION
  5
2F56
330
BF7
100
AcDbEntity
  8
SK2
100
AcDbDimension
  2
*D2
 10
-40.02672280209618
 20
-3.000000999999998
 30
0.0
 11
-39.85015839851451
 21
-16.58200029090278
 31
0.0
 70
   160
  1
%%C <>
 71
     5
 42
6.000002000000002
  3
SANDVIK_DIM
100
AcDbAlignedDimension
 13
-35.35048199999999
 23
3.000001000000001
 33
0.0
 14
-35.35048199999999
 24
-3.000001000000001
 34
0.0
 50
90.0
100
AcDbRotatedDimension
1001
ACAD
1000
DSTYLE
1002
{
1070
    40
1040
1.0
1002
}
  0
DIMENSION
  5
2F64
330
BF7
100
AcDbEntity
  8
2
100
AcDbDimension
  2
*D3
 10
113.1179850582202
 20
2.249999999999999
 30
0.0
 11
112.9503074809711
 21
-18.09045565515855
 31
0.0
 70
   160
  1
%%C <>
 71
     5
 42
4.5
  3
SANDVIK_DIM
100
AcDbAlignedDimension
 13
109.1031104445683
 23
-2.249999999999999
 33
0.0
 14
109.0201038386559
 24
2.25
 34
0.0
 50
90.0
100
AcDbRotatedDimension
1001
ACAD
1000
DSTYLE
1002
{
1070
    40
1040
1.0
1002
}
  0
DIMENSION
  5
2F90
330
BF7
100
AcDbEntity
  8
SK2
100
AcDbDimension
  2
*D4
 10
19.155787
 20
5.784564087689091
 30
0.0
 11
64.15578700000001
 21
9.58456408768909
 31
0.0
 70
    32
 71
     5
 42
90.0
  3
SANDVIK_DIM
100
AcDbAlignedDimension
 13
109.155787
 23
2.25
 33
0.0
 14
19.155787
 24
2.250000000000019
 34
0.0
100
AcDbRotatedDimension
1001
ACAD
1000
DSTYLE
1002
{
1070
    40
1040
1.0
1002
}
  0
DIMENSION
  5
2F9D
330
BF7
100
AcDbEntity
  8
2
100
AcDbDimension
  2
*D5
 10
5.997696000000003
 20
-8.463899480304121
 30
0.0
 11
57.99883300000001
 21
-4.663899480304121
 31
0.0
 70
    32
 71
     5
 42
104.002274
  3
SANDVIK_DIM
100
AcDbAlignedDimension
 13
109.99997
 23
-0.0000000000000018
 33
0.0
 14
5.997696000000003
 24
-2.142346499999999
 34
0.0
100
AcDbRotatedDimension
1001
ACAD
1000
DSTYLE
1002
{
1070
    40
1040
1.0
1002
}
  0
DIMENSION
  5
2FAA
330
BF7
100
AcDbEntity
  8
2
100
AcDbDimension
  2
*D6
 10
109.99997
 20
-14.87353728183535
 30
0.0
 11
54.999985
 21
-11.07353728183535
 31
0.0
 70
    32
 71
     5
 42
109.99997
  3
SANDVIK_DIM
100
AcDbAlignedDimension
 13
0.0
 23
-3.000001000000001
 33
0.0
 14
109.99997
 24
-0.0000000000000018
 34
0.0
100
AcDbRotatedDimension
1001
ACAD
1000
DSTYLE
1002
{
1070
    40
1040
1.0
1002
}
  0
DIMENSION
  5
2FB7
330
BF7
100
AcDbEntity
  8
SK2
100
AcDbDimension
  2
*D7
 10
-36.0
 20
-21.80461108416011
 30
0.0
 11
36.99998499999999
 21
-18.00461108416012
 31
0.0
 70
    32
 71
     5
 42
145.99997
  3
SANDVIK_DIM
100
AcDbAlignedDimension
 13
109.99997
 23
0.0
 33
0.0
 14
-36.0
 24
-2.625001000000001
 34
0.0
100
AcDbRotatedDimension
1001
ACAD
1000
DSTYLE
1002
{
1070
    40
1040
1.0
1002
}
  0
DIMENSION
  5
2FC4
330
BF7
100
AcDbEntity
  8
SK2
100
AcDbDimension
  2
*D8
 10
-0.0000000000000007
 20
-14.87353728183535
 30
0.0
 11
-18.0
 21
-11.07353728183535
 31
0.0
 70
    32
 71
     5
 42
36.0
  3
SANDVIK_DIM
100
AcDbAlignedDimension
 13
-36.0
 23
-2.625001000000001
 33
0.0
 14
0.0
 24
-3.000001000000001
 34
0.0
100
AcDbRotatedDimension
1001
ACAD
1000
DSTYLE
1002
{
1070
    40
1040
1.0
1002
}
  0
ENDSEC
  0
SECTION
  2
OBJECTS
  0
DICTIONARY
  5
BE3
330
0
100
AcDbDictionary
281
     1
  3
ACAD_CIP_PREVIOUS_PRODUCT_INFO
350
3070
  3
ACAD_COLOR
350
BF2
  3
ACAD_DETAILVIEWSTYLE
350
306D
  3
ACAD_GROUP
350
BE4
  3
ACAD_LAYOUT
350
BF0
  3
ACAD_MATERIAL
350
BF1
  3
ACAD_MLEADERSTYLE
350
3068
  3
ACAD_MLINESTYLE
350
BED
  3
ACAD_PLOTSETTINGS
350
BEF
  3
ACAD_PLOTSTYLENAME
350
BE5
  3
ACAD_SCALELIST
350
3056
  3
ACAD_SECTIONVIEWSTYLE
350
306A
  3
ACAD_TABLESTYLE
350
3054
  3
ACAD_VISUALSTYLE
350
303B
  3
ACDB_RECOMPOSE_DATA
350
30D2
  3
AcDbVariableDictionary
350
30C5
  3
ASE_INDEX_DICTIONARY
350
30C2
  3
DWGPROPS
350
30D3
  0
DICTIONARY
  5
3073
330
BE7
100
AcDbDictionary
280
     1
281
     1
  3
ADSK_XREC_LAYER_RECONCILED
360
3074
  0
DICTIONARY
  5
3075
330
BFB
100
AcDbDictionary
280
     1
281
     1
  3
ADSK_XREC_LAYER_RECONCILED
360
3076
  0
DICTIONARY
  5
3077
330
C00
100
AcDbDictionary
280
     1
281
     1
  3
ADSK_XREC_LAYER_RECONCILED
360
3078
  0
DICTIONARY
  5
3079
330
C01
100
AcDbDictionary
280
     1
281
     1
  3
ADSK_XREC_LAYER_RECONCILED
360
307A
  0
DICTIONARY
  5
307B
330
C02
100
AcDbDictionary
280
     1
281
     1
  3
ADSK_XREC_LAYER_RECONCILED
360
307C
  0
DICTIONARY
  5
307D
330
C03
100
AcDbDictionary
280
     1
281
     1
  3
ADSK_XREC_LAYER_RECONCILED
360
307E
  0
DICTIONARY
  5
307F
330
C04
100
AcDbDictionary
280
     1
281
     1
  3
ADSK_XREC_LAYER_RECONCILED
360
3080
  0
DICTIONARY
  5
3081
330
C05
100
AcDbDictionary
280
     1
281
     1
  3
ADSK_XREC_LAYER_RECONCILED
360
3082
  0
DICTIONARY
  5
3083
330
C06
100
AcDbDictionary
280
     1
281
     1
  3
ADSK_XREC_LAYER_RECONCILED
360
3084
  0
DICTIONARY
  5
3085
330
C07
100
AcDbDictionary
280
     1
281
     1
  3
ADSK_XREC_LAYER_RECONCILED
360
3086
  0
DICTIONARY
  5
3087
330
C08
100
AcDbDictionary
280
     1
281
     1
  3
ADSK_XREC_LAYER_RECONCILED
360
3088
  0
DICTIONARY
  5
3089
330
C09
100
AcDbDictionary
280
     1
281
     1
  3
ADSK_XREC_LAYER_RECONCILED
360
308A
  0
DICTIONARY
  5
308B
330
C0A
100
AcDbDictionary
280
     1
281
     1
  3
ADSK_XREC_LAYER_RECONCILED
360
308C
  0
DICTIONARY
  5
308D
330
C0B
100
AcDbDictionary
280
     1
281
     1
  3
ADSK_XREC_LAYER_RECONCILED
360
308E
  0
DICTIONARY
  5
308F
330
C0C
100
AcDbDictionary
280
     1
281
     1
  3
ADSK_XREC_LAYER_RECONCILED
360
3090
  0
DICTIONARY
  5
3091
330
C0D
100
AcDbDictionary
280
     1
281
     1
  3
ADSK_XREC_LAYER_RECONCILED
360
3092
  0
DICTIONARY
  5
3093
330
C0E
100
AcDbDictionary
280
     1
281
     1
  3
ADSK_XREC_LAYER_RECONCILED
360
3094
  0
DICTIONARY
  5
3095
330
C0F
100
AcDbDictionary
280
     1
281
     1
  3
ADSK_XREC_LAYER_RECONCILED
360
3096
  0
DICTIONARY
  5
3097
330
C10
100
AcDbDictionary
280
     1
281
     1
  3
ADSK_XREC_LAYER_RECONCILED
360
3098
  0
DICTIONARY
  5
3099
330
C11
100
AcDbDictionary
280
     1
281
     1
  3
ADSK_XREC_LAYER_RECONCILED
360
309A
  0
DICTIONARY
  5
309B
330
C12
100
AcDbDictionary
280
     1
281
     1
  3
ADSK_XREC_LAYER_RECONCILED
360
309C
  0
DICTIONARY
  5
309D
330
C13
100
AcDbDictionary
280
     1
281
     1
  3
ADSK_XREC_LAYER_RECONCILED
360
309E
  0
DICTIONARY
  5
309F
330
C14
100
AcDbDictionary
280
     1
281
     1
  3
ADSK_XREC_LAYER_RECONCILED
360
30A0
  0
DICTIONARY
  5
30A1
330
C15
100
AcDbDictionary
280
     1
281
     1
  3
ADSK_XREC_LAYER_RECONCILED
360
30A2
  0
DICTIONARY
  5
30A3
330
C16
100
AcDbDictionary
280
     1
281
     1
  3
ADSK_XREC_LAYER_RECONCILED
360
30A4
  0
DICTIONARY
  5
30A5
330
C17
100
AcDbDictionary
280
     1
281
     1
  3
ADSK_XREC_LAYER_RECONCILED
360
30A6
  0
DICTIONARY
  5
30A7
330
C18
100
AcDbDictionary
280
     1
281
     1
  3
ADSK_XREC_LAYER_RECONCILED
360
30A8
  0
DICTIONARY
  5
30A9
330
C19
100
AcDbDictionary
280
     1
281
     1
  3
ADSK_XREC_LAYER_RECONCILED
360
30AA
  0
DICTIONARY
  5
30AB
330
C1A
100
AcDbDictionary
280
     1
281
     1
  3
ADSK_XREC_LAYER_RECONCILED
360
30AC
  0
DICTIONARY
  5
30AD
330
C1B
100
AcDbDictionary
280
     1
281
     1
  3
ADSK_XREC_LAYER_RECONCILED
360
30AE
  0
DICTIONARY
  5
30AF
330
C1C
100
AcDbDictionary
280
     1
281
     1
  3
ADSK_XREC_LAYER_RECONCILED
360
30B0
  0
DICTIONARY
  5
30B1
330
C1D
100
AcDbDictionary
280
     1
281
     1
  3
ADSK_XREC_LAYER_RECONCILED
360
30B2
  0
DICTIONARY
  5
30B3
330
C1E
100
AcDbDictionary
280
     1
281
     1
  3
ADSK_XREC_LAYER_RECONCILED
360
30B4
  0
DICTIONARY
  5
30B5
330
C1F
100
AcDbDictionary
280
     1
281
     1
  3
ADSK_XREC_LAYER_RECONCILED
360
30B6
  0
DICTIONARY
  5
30B7
330
C20
100
AcDbDictionary
280
     1
281
     1
  3
ADSK_XREC_LAYER_RECONCILED
360
30B8
  0
DICTIONARY
  5
30B9
330
C21
100
AcDbDictionary
280
     1
281
     1
  3
ADSK_XREC_LAYER_RECONCILED
360
30BA
  0
DICTIONARY
  5
30BB
330
C22
100
AcDbDictionary
280
     1
281
     1
  3
ADSK_XREC_LAYER_RECONCILED
360
30BC
  0
DICTIONARY
  5
30BD
330
C23
100
AcDbDictionary
280
     1
281
     1
  3
ADSK_XREC_LAYER_RECONCILED
360
30BE
  0
DICTIONARY
  5
30BF
330
C42
100
AcDbDictionary
280
     1
281
     1
  3
ADSK_XREC_LAYER_RECONCILED
360
30C0
  0
XRECORD
  5
3070
102
{ACAD_REACTORS
330
BE3
102
}
330
BE3
100
AcDbXrecord
280
     1
300
AMECH_PP
300
2013
300
PDSU_F_S
  0
DICTIONARY
  5
BF2
102
{ACAD_REACTORS
330
BE3
102
}
330
BE3
100
AcDbDictionary
281
     1
  0
DICTIONARY
  5
306D
102
{ACAD_REACTORS
330
BE3
102
}
330
BE3
100
AcDbDictionary
281
     1
  3
Imperial24
350
306E
  0
DICTIONARY
  5
BE4
102
{ACAD_REACTORS
330
BE3
102
}
330
BE3
100
AcDbDictionary
281
     1
  0
DICTIONARY
  5
BF0
102
{ACAD_REACTORS
330
BE3
102
}
330
BE3
100
AcDbDictionary
281
     1
  3
Layout1
350
BF6
  3
Model
350
BFA
  0
DICTIONARY
  5
BF1
102
{ACAD_REACTORS
330
BE3
102
}
330
BE3
100
AcDbDictionary
281
     1
  3
ByBlock
350
302B
  3
ByLayer
350
3023
  3
Global
350
3033
  0
DICTIONARY
  5
3068
102
{ACAD_REACTORS
330
BE3
102
}
330
BE3
100
AcDbDictionary
281
     1
  3
Standard
350
3069
  0
DICTIONARY
  5
BED
102
{ACAD_REACTORS
330
BE3
102
}
330
BE3
100
AcDbDictionary
281
     1
  3
Standard
350
BEE
  0
DICTIONARY
  5
BEF
102
{ACAD_REACTORS
330
BE3
102
}
330
BE3
100
AcDbDictionary
281
     1
  0
ACDBDICTIONARYWDFLT
  5
BE5
102
{ACAD_REACTORS
330
BE3
102
}
330
BE3
100
AcDbDictionary
281
     1
  3
Normal
350
BE6
100
AcDbDictionaryWithDefault
340
BE6
  0
DICTIONARY
  5
3056
102
{ACAD_REACTORS
330
BE3
102
}
330
BE3
100
AcDbDictionary
281
     1
  3
A0
350
3057
  3
A1
350
3058
  3
A2
350
3059
  3
A3
350
305A
  3
A4
350
305B
  3
A5
350
305C
  3
A6
350
305D
  3
A7
350
305E
  3
A8
350
305F
  3
A9
350
3060
  3
B0
350
3061
  3
B1
350
3062
  3
B2
350
3063
  3
B3
350
3064
  3
B4
350
3065
  3
B5
350
3066
  3
B6
350
3067
  0
DICTIONARY
  5
306A
102
{ACAD_REACTORS
330
BE3
102
}
330
BE3
100
AcDbDictionary
281
     1
  3
Imperial24
350
306C
  0
DICTIONARY
  5
3054
102
{ACAD_REACTORS
330
BE3
102
}
330
BE3
100
AcDbDictionary
281
     1
  3
Standard
350
3055
  0
DICTIONARY
  5
303B
102
{ACAD_REACTORS
330
BE3
102
}
330
BE3
100
AcDbDictionary
281
     1
  3
2dWireframe
350
3041
  3
Basic
350
3040
  3
Brighten
350
3047
  3
ColorChange
350
304B
  3
Conceptual
350
3044
  3
Dim
350
3046
  3
EdgeColorOff
350
3053
  3
Facepattern
350
304A
  3
Flat
350
303C
  3
FlatWithEdges
350
303D
  3
Gouraud
350
303E
  3
GouraudWithEdges
350
303F
  3
Hidden
350
3043
  3
JitterOff
350
3051
  3
Linepattern
350
3049
  3
OverhangOff
350
3052
  3
Realistic
350
3045
  3
Shaded
350
3050
  3
Shaded with edges
350
304F
  3
Shades of Gray
350
304C
  3
Sketchy
350
304D
  3
Thicken
350
3048
  3
Wireframe
350
3042
  3
X-Ray
350
304E
  0
XRECORD
  5
30D2
102
{ACAD_REACTORS
330
BE3
102
}
330
BE3
100
AcDbXrecord
280
     1
 90
        1
330
3055
  0
DICTIONARY
  5
30C5
102
{ACAD_REACTORS
330
BE3
102
}
330
BE3
100
AcDbDictionary
281
     1
  3
CANNOSCALE
350
30CA
  3
CMLEADERSTYLE
350
30C7
  3
CTABLESTYLE
350
30C6
  3
CVIEWDETAILSTYLE
350
30C8
  3
CVIEWSECTIONSTYLE
350
30C9
  3
DIMASSOC
350
30CE
  3
INDEXCTL
350
30CC
  3
SORTENTS
350
30CB
  3
XCLIPFRAME
350
30CD
  0
DICTIONARY
  5
30C2
102
{ACAD_REACTORS
330
BE3
102
}
330
BE3
100
AcDbDictionary
281
     1
  3
ASEBlockHierarchyIndexRecord
350
30C4
1001
DCO15
1040
1815723831.385
  0
XRECORD
  5
30D3
102
{ACAD_REACTORS
330
BE3
102
}
330
BE3
100
AcDbXrecord
280
     1
  1
DWGPROPS COOKIE
  2

  3

  4

  6

  7

  8
Micke
  9

300
=
301
=
302
=
303
=
304
=
305
=
306
=
307
=
308
=
309
=
 40
0.0922430787037037
 41
2455817.64629206
 42
2456818.533974364
  1

 90
        0
  0
XRECORD
  5
3074
102
{ACAD_REACTORS
330
3073
102
}
330
3073
100
AcDbXrecord
280
     1
290
     1
  0
XRECORD
  5
3076
102
{ACAD_REACTORS
330
3075
102
}
330
3075
100
AcDbXrecord
280
     1
290
     1
  0
XRECORD
  5
3078
102
{ACAD_REACTORS
330
3077
102
}
330
3077
100
AcDbXrecord
280
     1
290
     1
  0
XRECORD
  5
307A
102
{ACAD_REACTORS
330
3079
102
}
330
3079
100
AcDbXrecord
280
     1
290
     1
  0
XRECORD
  5
307C
102
{ACAD_REACTORS
330
307B
102
}
330
307B
100
AcDbXrecord
280
     1
290
     1
  0
XRECORD
  5
307E
102
{ACAD_REACTORS
330
307D
102
}
330
307D
100
AcDbXrecord
280
     1
290
     1
  0
XRECORD
  5
3080
102
{ACAD_REACTORS
330
307F
102
}
330
307F
100
AcDbXrecord
280
     1
290
     1
  0
XRECORD
  5
3082
102
{ACAD_REACTORS
330
3081
102
}
330
3081
100
AcDbXrecord
280
     1
290
     1
  0
XRECORD
  5
3084
102
{ACAD_REACTORS
330
3083
102
}
330
3083
100
AcDbXrecord
280
     1
290
     1
  0
XRECORD
  5
3086
102
{ACAD_REACTORS
330
3085
102
}
330
3085
100
AcDbXrecord
280
     1
290
     1
  0
XRECORD
  5
3088
102
{ACAD_REACTORS
330
3087
102
}
330
3087
100
AcDbXrecord
280
     1
290
     1
  0
XRECORD
  5
308A
102
{ACAD_REACTORS
330
3089
102
}
330
3089
100
AcDbXrecord
280
     1
290
     1
  0
XRECORD
  5
308C
102
{ACAD_REACTORS
330
308B
102
}
330
308B
100
AcDbXrecord
280
     1
290
     1
  0
XRECORD
  5
308E
102
{ACAD_REACTORS
330
308D
102
}
330
308D
100
AcDbXrecord
280
     1
290
     1
  0
XRECORD
  5
3090
102
{ACAD_REACTORS
330
308F
102
}
330
308F
100
AcDbXrecord
280
     1
290
     1
  0
XRECORD
  5
3092
102
{ACAD_REACTORS
330
3091
102
}
330
3091
100
AcDbXrecord
280
     1
290
     1
  0
XRECORD
  5
3094
102
{ACAD_REACTORS
330
3093
102
}
330
3093
100
AcDbXrecord
280
     1
290
     1
  0
XRECORD
  5
3096
102
{ACAD_REACTORS
330
3095
102
}
330
3095
100
AcDbXrecord
280
     1
290
     1
  0
XRECORD
  5
3098
102
{ACAD_REACTORS
330
3097
102
}
330
3097
100
AcDbXrecord
280
     1
290
     1
  0
XRECORD
  5
309A
102
{ACAD_REACTORS
330
3099
102
}
330
3099
100
AcDbXrecord
280
     1
290
     1
  0
XRECORD
  5
309C
102
{ACAD_REACTORS
330
309B
102
}
330
309B
100
AcDbXrecord
280
     1
290
     1
  0
XRECORD
  5
309E
102
{ACAD_REACTORS
330
309D
102
}
330
309D
100
AcDbXrecord
280
     1
290
     1
  0
XRECORD
  5
30A0
102
{ACAD_REACTORS
330
309F
102
}
330
309F
100
AcDbXrecord
280
     1
290
     1
  0
XRECORD
  5
30A2
102
{ACAD_REACTORS
330
30A1
102
}
330
30A1
100
AcDbXrecord
280
     1
290
     1
  0
XRECORD
  5
30A4
102
{ACAD_REACTORS
330
30A3
102
}
330
30A3
100
AcDbXrecord
280
     1
290
     1
  0
XRECORD
  5
30A6
102
{ACAD_REACTORS
330
30A5
102
}
330
30A5
100
AcDbXrecord
280
     1
290
     1
  0
XRECORD
  5
30A8
102
{ACAD_REACTORS
330
30A7
102
}
330
30A7
100
AcDbXrecord
280
     1
290
     1
  0
XRECORD
  5
30AA
102
{ACAD_REACTORS
330
30A9
102
}
330
30A9
100
AcDbXrecord
280
     1
290
     1
  0
XRECORD
  5
30AC
102
{ACAD_REACTORS
330
30AB
102
}
330
30AB
100
AcDbXrecord
280
     1
290
     1
  0
XRECORD
  5
30AE
102
{ACAD_REACTORS
330
30AD
102
}
330
30AD
100
AcDbXrecord
280
     1
290
     1
  0
XRECORD
  5
30B0
102
{ACAD_REACTORS
330
30AF
102
}
330
30AF
100
AcDbXrecord
280
     1
290
     1
  0
XRECORD
  5
30B2
102
{ACAD_REACTORS
330
30B1
102
}
330
30B1
100
AcDbXrecord
280
     1
290
     1
  0
XRECORD
  5
30B4
102
{ACAD_REACTORS
330
30B3
102
}
330
30B3
100
AcDbXrecord
280
     1
290
     1
  0
XRECORD
  5
30B6
102
{ACAD_REACTORS
330
30B5
102
}
330
30B5
100
AcDbXrecord
280
     1
290
     1
  0
XRECORD
  5
30B8
102
{ACAD_REACTORS
330
30B7
102
}
330
30B7
100
AcDbXrecord
280
     1
290
     1
  0
XRECORD
  5
30BA
102
{ACAD_REACTORS
330
30B9
102
}
330
30B9
100
AcDbXrecord
280
     1
290
     1
  0
XRECORD
  5
30BC
102
{ACAD_REACTORS
330
30BB
102
}
330
30BB
100
AcDbXrecord
280
     1
290
     1
  0
XRECORD
  5
30BE
102
{ACAD_REACTORS
330
30BD
102
}
330
30BD
100
AcDbXrecord
280
     1
290
     1
  0
XRECORD
  5
30C0
102
{ACAD_REACTORS
330
30BF
102
}
330
30BF
100
AcDbXrecord
280
     1
290
     1
  0
ACDBDETAILVIEWSTYLE
  5
306E
102
{ACAD_REACTORS
330
306D
102
}
330
306D
100
AcDbModelDocViewStyle
 70
     0
  3
Imperial24
290
     0
100
AcDbDetailViewStyle
 70
     0
 71
     0
 90
        3
 71
     1
340
BE8
 40
0.24
340
0
 40
0.24
300

 40
0.36
280
     3
 71
     2
340
BEC
 90
       25
 71
     3
340
BE8
 40
0.24
 90
        1
 40
0.75
 90
        1
300
%<\AcVar ViewType \f "%tc1">% %<\AcVar ViewDetailId>%\PSCALE %<\AcVar ViewScale \f "%sn">%
 71
     4
340
BEC
 90
       25
340
BEC
 90
       25
280
     0
  0
LAYOUT
  5
BF6
102
{ACAD_XDICTIONARY
360
30D4
102
}
102
{ACAD_REACTORS
330
BF0
102
}
330
BF0
100
AcDbPlotSettings
  1

  2
\\GBCFS501\GBCPR502
  4

  6

 40
0.0
 41
0.0
 42
0.0
 43
0.0
 44
0.0
 45
0.0
 46
0.0
 47
0.0
 48
0.0
 49
0.0
140
0.0
141
0.0
142
1.0
143
1.0
 70
   688
 72
     0
 73
     0
 74
     5
  7

 75
    16
147
1.0
148
0.0
149
0.0
100
AcDbLayout
  1
Layout1
 70
     1
 71
     1
 10
0.0
 20
0.0
 11
12.0
 21
9.0
 12
0.0
 22
0.0
 32
0.0
 14
1.000000000000000E+20
 24
1.000000000000000E+20
 34
1.000000000000000E+20
 15
-1.000000000000000E+20
 25
-1.000000000000000E+20
 35
-1.000000000000000E+20
146
0.0
 13
0.0
 23
0.0
 33
0.0
 16
1.0
 26
0.0
 36
0.0
 17
0.0
 27
1.0
 37
0.0
 76
     0
330
BF3
  0
LAYOUT
  5
BFA
102
{ACAD_XDICTIONARY
360
30D6
102
}
102
{ACAD_REACTORS
330
BF0
102
}
330
BF0
100
AcDbPlotSettings
  1

  2
\\GBCFS501\GBCPR502
  4

  6

 40
0.0
 41
0.0
 42
0.0
 43
0.0
 44
0.0
 45
0.0
 46
0.0
 47
0.0
 48
0.0
 49
0.0
140
0.0
141
0.0
142
1.0
143
1.0
 70
  1712
 72
     0
 73
     0
 74
     0
  7

 75
     0
147
1.0
148
0.0
149
0.0
100
AcDbLayout
  1
Model
 70
     1
 71
     0
 10
0.0
 20
0.0
 11
12.0
 21
9.0
 12
0.0
 22
0.0
 32
0.0
 14
0.0
 24
0.0
 34
0.0
 15
0.0
 25
0.0
 35
0.0
146
0.0
 13
0.0
 23
0.0
 33
0.0
 16
1.0
 26
0.0
 36
0.0
 17
0.0
 27
1.0
 37
0.0
 76
     0
330
BF7
331
301F
  0
MATERIAL
  5
302B
102
{ACAD_XDICTIONARY
360
302C
102
}
102
{ACAD_REACTORS
330
BF1
102
}
330
BF1
100
AcDbMaterial
  1
ByBlock
 72
     0
 43
0.0208333333333333
 43
0.0
 43
0.0
 43
0.0
 43
0.0
 43
0.0208333333333333
 43
0.0
 43
0.0
 43
0.0
 43
0.0
 43
1.0
 43
0.0
 43
0.0
 43
0.0
 43
0.0
 43
1.0
 77
     0
 47
0.0208333333333333
 47
0.0
 47
0.0
 47
0.0
 47
0.0
 47
0.0208333333333333
 47
0.0
 47
0.0
 47
0.0
 47
0.0
 47
1.0
 47
0.0
 47
0.0
 47
0.0
 47
0.0
 47
1.0
171
     0
 49
0.0208333333333333
 49
0.0
 49
0.0
 49
0.0
 49
0.0
 49
0.0208333333333333
 49
0.0
 49
0.0
 49
0.0
 49
0.0
 49
1.0
 49
0.0
 49
0.0
 49
0.0
 49
0.0
 49
1.0
175
     0
142
0.0208333333333333
142
0.0
142
0.0
142
0.0
142
0.0
142
0.0208333333333333
142
0.0
142
0.0
142
0.0
142
0.0
142
1.0
142
0.0
142
0.0
142
0.0
142
0.0
142
1.0
179
     0
144
0.0208333333333333
144
0.0
144
0.0
144
0.0
144
0.0
144
0.0208333333333333
144
0.0
144
0.0
144
0.0
144
0.0
144
1.0
144
0.0
144
0.0
144
0.0
144
0.0
144
1.0
147
0.0208333333333333
147
0.0
147
0.0
147
0.0
147
0.0
147
0.0208333333333333
147
0.0
147
0.0
147
0.0
147
0.0
147
1.0
147
0.0
147
0.0
147
0.0
147
0.0
147
1.0
  0
MATERIAL
  5
3023
102
{ACAD_XDICTIONARY
360
3024
102
}
102
{ACAD_REACTORS
330
BF1
102
}
330
BF1
100
AcDbMaterial
  1
ByLayer
 72
     0
 43
0.0208333333333333
 43
0.0
 43
0.0
 43
0.0
 43
0.0
 43
0.0208333333333333
 43
0.0
 43
0.0
 43
0.0
 43
0.0
 43
1.0
 43
0.0
 43
0.0
 43
0.0
 43
0.0
 43
1.0
 77
     0
 47
0.0208333333333333
 47
0.0
 47
0.0
 47
0.0
 47
0.0
 47
0.0208333333333333
 47
0.0
 47
0.0
 47
0.0
 47
0.0
 47
1.0
 47
0.0
 47
0.0
 47
0.0
 47
0.0
 47
1.0
171
     0
 49
0.0208333333333333
 49
0.0
 49
0.0
 49
0.0
 49
0.0
 49
0.0208333333333333
 49
0.0
 49
0.0
 49
0.0
 49
0.0
 49
1.0
 49
0.0
 49
0.0
 49
0.0
 49
0.0
 49
1.0
175
     0
142
0.0208333333333333
142
0.0
142
0.0
142
0.0
142
0.0
142
0.0208333333333333
142
0.0
142
0.0
142
0.0
142
0.0
142
1.0
142
0.0
142
0.0
142
0.0
142
0.0
142
1.0
179
     0
144
0.0208333333333333
144
0.0
144
0.0
144
0.0
144
0.0
144
0.0208333333333333
144
0.0
144
0.0
144
0.0
144
0.0
144
1.0
144
0.0
144
0.0
144
0.0
144
0.0
144
1.0
147
0.0208333333333333
147
0.0
147
0.0
147
0.0
147
0.0
147
0.0208333333333333
147
0.0
147
0.0
147
0.0
147
0.0
147
1.0
147
0.0
147
0.0
147
0.0
147
0.0
147
1.0
  0
MATERIAL
  5
3033
102
{ACAD_XDICTIONARY
360
3034
102
}
102
{ACAD_REACTORS
330
BF1
102
}
330
BF1
100
AcDbMaterial
  1
Global
 72
     0
 43
0.0208333333333333
 43
0.0
 43
0.0
 43
0.0
 43
0.0
 43
0.0208333333333333
 43
0.0
 43
0.0
 43
0.0
 43
0.0
 43
1.0
 43
0.0
 43
0.0
 43
0.0
 43
0.0
 43
1.0
 77
     0
 47
0.0208333333333333
 47
0.0
 47
0.0
 47
0.0
 47
0.0
 47
0.0208333333333333
 47
0.0
 47
0.0
 47
0.0
 47
0.0
 47
1.0
 47
0.0
 47
0.0
 47
0.0
 47
0.0
 47
1.0
171
     0
 49
0.0208333333333333
 49
0.0
 49
0.0
 49
0.0
 49
0.0
 49
0.0208333333333333
 49
0.0
 49
0.0
 49
0.0
 49
0.0
 49
1.0
 49
0.0
 49
0.0
 49
0.0
 49
0.0
 49
1.0
175
     0
142
0.0208333333333333
142
0.0
142
0.0
142
0.0
142
0.0
142
0.0208333333333333
142
0.0
142
0.0
142
0.0
142
0.0
142
1.0
142
0.0
142
0.0
142
0.0
142
0.0
142
1.0
179
     0
144
0.0208333333333333
144
0.0
144
0.0
144
0.0
144
0.0
144
0.0208333333333333
144
0.0
144
0.0
144
0.0
144
0.0
144
1.0
144
0.0
144
0.0
144
0.0
144
0.0
144
1.0
147
0.0208333333333333
147
0.0
147
0.0
147
0.0
147
0.0
147
0.0208333333333333
147
0.0
147
0.0
147
0.0
147
0.0
147
1.0
147
0.0
147
0.0
147
0.0
147
0.0
147
1.0
  0
MLEADERSTYLE
  5
3069
102
{ACAD_REACTORS
330
3068
102
}
330
3068
100
AcDbMLeaderStyle
170
     2
171
     1
172
     0
 90
        2
 40
0.0
 41
0.0
173
     1
 91
-1056964608
340
BEA
 92
       -2
290
     1
 42
0.09
291
     1
 43
0.36
  3
Standard
 44
0.18
300

342
BE8
174
     1
178
     6
175
     1
176
     0
 93
-1056964608
 45
0.18
292
     0
297
     0
 46
0.18
 94
-1056964608
 47
1.0
 49
1.0
140
1.0
293
     1
141
0.0
294
     1
177
     0
142
1.0
295
     0
296
     0
143
0.125
1001
ACAD_MLEADERVER
1070
     2
  0
MLINESTYLE
  5
BEE
102
{ACAD_REACTORS
330
BED
102
}
330
BED
100
AcDbMlineStyle
  2
STANDARD
 70
     0
  3

 62
   256
 51
90.0
 52
90.0
 71
     2
 49
0.5
 62
   256
  6
BYLAYER
 49
-0.5
 62
   256
  6
BYLAYER
  0
ACDBPLACEHOLDER
  5
BE6
102
{ACAD_REACTORS
330
BE5
102
}
330
BE5
  0
SCALE
  5
3057
102
{ACAD_REACTORS
330
3056
102
}
330
3056
100
AcDbScale
 70
     0
300
1:1
140
1.0
141
1.0
290
     1
  0
SCALE
  5
3058
102
{ACAD_REACTORS
330
3056
102
}
330
3056
100
AcDbScale
 70
     0
300
1/128" = 1'-0"
140
0.0078125
141
12.0
290
     0
  0
SCALE
  5
3059
102
{ACAD_REACTORS
330
3056
102
}
330
3056
100
AcDbScale
 70
     0
300
1/64" = 1'-0"
140
0.015625
141
12.0
290
     0
  0
SCALE
  5
305A
102
{ACAD_REACTORS
330
3056
102
}
330
3056
100
AcDbScale
 70
     0
300
1/32" = 1'-0"
140
0.03125
141
12.0
290
     0
  0
SCALE
  5
305B
102
{ACAD_REACTORS
330
3056
102
}
330
3056
100
AcDbScale
 70
     0
300
1/16" = 1'-0"
140
0.0625
141
12.0
290
     0
  0
SCALE
  5
305C
102
{ACAD_REACTORS
330
3056
102
}
330
3056
100
AcDbScale
 70
     0
300
3/32" = 1'-0"
140
0.09375
141
12.0
290
     0
  0
SCALE
  5
305D
102
{ACAD_REACTORS
330
3056
102
}
330
3056
100
AcDbScale
 70
     0
300
1/8" = 1'-0"
140
0.125
141
12.0
290
     0
  0
SCALE
  5
305E
102
{ACAD_REACTORS
330
3056
102
}
330
3056
100
AcDbScale
 70
     0
300
3/16" = 1'-0"
140
0.1875
141
12.0
290
     0
  0
SCALE
  5
305F
102
{ACAD_REACTORS
330
3056
102
}
330
3056
100
AcDbScale
 70
     0
300
1/4" = 1'-0"
140
0.25
141
12.0
290
     0
  0
SCALE
  5
3060
102
{ACAD_REACTORS
330
3056
102
}
330
3056
100
AcDbScale
 70
     0
300
3/8" = 1'-0"
140
0.375
141
12.0
290
     0
  0
SCALE
  5
3061
102
{ACAD_REACTORS
330
3056
102
}
330
3056
100
AcDbScale
 70
     0
300
1/2" = 1'-0"
140
0.5
141
12.0
290
     0
  0
SCALE
  5
3062
102
{ACAD_REACTORS
330
3056
102
}
330
3056
100
AcDbScale
 70
     0
300
3/4" = 1'-0"
140
0.75
141
12.0
290
     0
  0
SCALE
  5
3063
102
{ACAD_REACTORS
330
3056
102
}
330
3056
100
AcDbScale
 70
     0
300
1" = 1'-0"
140
1.0
141
12.0
290
     0
  0
SCALE
  5
3064
102
{ACAD_REACTORS
330
3056
102
}
330
3056
100
AcDbScale
 70
     0
300
1-1/2" = 1'-0"
140
1.5
141
12.0
290
     0
  0
SCALE
  5
3065
102
{ACAD_REACTORS
330
3056
102
}
330
3056
100
AcDbScale
 70
     0
300
3" = 1'-0"
140
3.0
141
12.0
290
     0
  0
SCALE
  5
3066
102
{ACAD_REACTORS
330
3056
102
}
330
3056
100
AcDbScale
 70
     0
300
6" = 1'-0"
140
6.0
141
12.0
290
     0
  0
SCALE
  5
3067
102
{ACAD_REACTORS
330
3056
102
}
330
3056
100
AcDbScale
 70
     0
300
1'-0" = 1'-0"
140
12.0
141
12.0
290
     0
  0
ACDBSECTIONVIEWSTYLE
  5
306C
102
{ACAD_REACTORS
330
306A
102
}
330
306A
100
AcDbModelDocViewStyle
 70
     0
  3
Imperial24
290
     0
100
AcDbSectionViewStyle
 70
     0
 71
     0
 90
       78
 71
     1
340
BE8
 40
0.24
340
0
340
0
 40
0.24
300
I, O, Q, S, X, Z
 40
0.48
 90
        3
 40
0.18
 90
        1
 71
     2
340
306B
 90
       25
340
BEC
 90
       50
 40
0.24
 40
0.0
 40
0.24
 71
     3
340
BE8
 40
0.24
 90
        1
 40
0.75
 90
        1
300
%<\AcVar ViewType \f "%tc1">% %<\AcVar ViewSectionStartId>%-%<\AcVar ViewSectionEndId>%\PSCALE %<\AcVar ViewScale \f "%sn">%
 71
     4
300
ANSI31
 40
1.0
 90
        0
290
     0
290
     0
 90
        6
 40
0.0
 40
1.570796326794896
 40
0.2617993877991494
 40
1.308996938995747
 40
-0.2617993877991494
 40
1.832595714594046
  0
TABLESTYLE
  5
3055
102
{ACAD_XDICTIONARY
360
30D0
102
}
102
{ACAD_REACTORS
330
3054
102
}
330
3054
100
AcDbTableStyle
  3
Standard
 70
     0
 71
     0
 40
0.06
 41
0.06
280
     0
281
     0
  7
STANDARD
140
0.18
170
     2
 62
     0
 63
     7
283
     0
274
    -2
284
     1
 64
     0
275
    -2
285
     1
 65
     0
276
    -2
286
     1
 66
     0
277
    -2
287
     1
 67
     0
278
    -2
288
     1
 68
     0
279
    -2
289
     1
 69
     0
  7
STANDARD
140
0.25
170
     5
 62
     0
 63
     7
283
     0
274
    -2
284
     1
 64
     0
275
    -2
285
     1
 65
     0
276
    -2
286
     1
 66
     0
277
    -2
287
     1
 67
     0
278
    -2
288
     1
 68
     0
279
    -2
289
     1
 69
     0
  7
STANDARD
140
0.18
170
     5
 62
     0
 63
     7
283
     0
274
    -2
284
     1
 64
     0
275
    -2
285
     1
 65
     0
276
    -2
286
     1
 66
     0
277
    -2
287
     1
 67
     0
278
    -2
288
     1
 68
     0
279
    -2
289
     1
 69
     0
  0
VISUALSTYLE
  5
3041
102
{ACAD_XDICTIONARY
360
30E5
102
}
102
{ACAD_REACTORS
330
303B
102
}
330
303B
100
AcDbVisualStyle
  2
2dWireframe
 70
     4
 71
     0
 72
     2
 73
     0
 90
        0
 40
-0.6
 41
-30.0
 62
     5
 63
     7
 74
     1
 91
        4
 64
     7
 65
   257
 75
     1
175
     1
 42
1.0
 92
        0
 66
   257
 43
1.0
 76
     1
 77
     6
 78
     2
 67
     7
 79
     5
170
     0
171
     0
290
     0
174
     0
 93
        1
 44
0.0
173
     0
291
     0
 45
0.0
1001
ACAD
1000
AcDbSavedByObjectVersion
1070
     0
  0
VISUALSTYLE
  5
3040
102
{ACAD_XDICTIONARY
360
30E3
102
}
102
{ACAD_REACTORS
330
303B
102
}
330
303B
100
AcDbVisualStyle
  2
Basic
 70
     7
 71
     1
 72
     0
 73
     1
 90
        0
 40
-0.6
 41
-30.0
 62
     5
 63
     7
 74
     0
 91
        4
 64
     7
 65
   257
 75
     1
175
     1
 42
1.0
 92
        8
 66
     7
 43
1.0
 76
     1
 77
     6
 78
     2
 67
     7
 79
     5
170
     0
171
     0
290
     0
174
     0
 93
        1
 44
0.0
173
     0
291
     1
 45
0.0
1001
ACAD
1000
AcDbSavedByObjectVersion
1070
     0
  0
VISUALSTYLE
  5
3047
102
{ACAD_XDICTIONARY
360
30F1
102
}
102
{ACAD_REACTORS
330
303B
102
}
330
303B
100
AcDbVisualStyle
  2
Brighten
 70
    12
 71
     2
 72
     2
 73
     0
 90
        0
 40
-0.6
 41
-30.0
 62
     5
 63
     7
 74
     1
 91
        4
 64
     7
 65
   257
 75
     1
175
     1
 42
1.0
 92
        8
 66
     7
 43
1.0
 76
     1
 77
     6
 78
     2
 67
     7
 79
     5
170
     0
171
     0
290
     0
174
     0
 93
        1
 44
50.0
173
     0
291
     1
 45
0.0
1001
ACAD
1000
AcDbSavedByObjectVersion
1070
     0
  0
VISUALSTYLE
  5
304B
102
{ACAD_XDICTIONARY
360
30F9
102
}
102
{ACAD_REACTORS
330
303B
102
}
330
303B
100
AcDbVisualStyle
  2
ColorChange
 70
    16
 71
     2
 72
     2
 73
     3
 90
        0
 40
-0.6
 41
-30.0
 62
     5
 63
     8
 74
     1
 91
        4
 64
     7
 65
   257
 75
     1
175
     1
 42
1.0
 92
        8
 66
     8
 43
1.0
 76
     1
 77
     6
 78
     2
 67
     7
 79
     5
170
     0
171
     0
290
     0
174
     0
 93
        1
 44
0.0
173
     0
291
     1
 45
0.0
1001
ACAD
1000
AcDbSavedByObjectVersion
1070
     0
  0
VISUALSTYLE
  5
3044
102
{ACAD_XDICTIONARY
360
30EB
102
}
102
{ACAD_REACTORS
330
303B
102
}
330
303B
100
AcDbVisualStyle
  2
Conceptual
 70
     9
 71
     3
 72
     2
 73
     0
 90
        0
 40
-0.6
 41
-30.0
 62
     5
 63
     7
 74
     2
 91
        2
 64
     7
 65
   257
 75
     1
175
     1
 42
179.0
 92
        8
 66
     7
 43
1.0
 76
     1
 77
     6
 78
     2
 67
     7
 79
     3
170
     0
171
     0
290
     0
174
     0
 93
        1
 44
0.0
173
     0
291
     0
 45
0.0
1001
ACAD
1000
AcDbSavedByObjectVersion
1070
     0
  0
VISUALSTYLE
  5
3046
102
{ACAD_XDICTIONARY
360
30EF
102
}
102
{ACAD_REACTORS
330
303B
102
}
330
303B
100
AcDbVisualStyle
  2
Dim
 70
    11
 71
     2
 72
     2
 73
     0
 90
        0
 40
-0.6
 41
-30.0
 62
     5
 63
     7
 74
     1
 91
        4
 64
     7
 65
   257
 75
     1
175
     1
 42
1.0
 92
        8
 66
     7
 43
1.0
 76
     1
 77
     6
 78
     2
 67
     7
 79
     5
170
     0
171
     0
290
     0
174
     0
 93
        1
 44
-50.0
173
     0
291
     1
 45
0.0
1001
ACAD
1000
AcDbSavedByObjectVersion
1070
     0
  0
VISUALSTYLE
  5
3053
102
{ACAD_XDICTIONARY
360
3109
102
}
102
{ACAD_REACTORS
330
303B
102
}
330
303B
100
AcDbVisualStyle
  2
EdgeColorOff
 70
    22
 71
     2
 72
     2
 73
     0
 90
        0
 40
-0.6
 41
-30.0
 62
     5
 63
     7
 74
     1
 91
        4
 64
     7
 65
   257
 75
     1
175
     1
 42
1.0
 92
        8
 66
     7
 43
1.0
 76
     1
 77
     6
 78
     2
 67
     7
 79
     5
170
     0
171
     0
290
     0
174
     0
 93
        1
 44
0.0
173
     0
291
     1
 45
0.0
1001
ACAD
1000
AcDbSavedByObjectVersion
1070
     0
  0
VISUALSTYLE
  5
304A
102
{ACAD_XDICTIONARY
360
30F7
102
}
102
{ACAD_REACTORS
330
303B
102
}
330
303B
100
AcDbVisualStyle
  2
Facepattern
 70
    15
 71
     2
 72
     2
 73
     0
 90
        0
 40
-0.6
 41
-30.0
 62
     5
 63
     7
 74
     1
 91
        4
 64
     7
 65
   257
 75
     1
175
     1
 42
1.0
 92
        8
 66
     7
 43
1.0
 76
     1
 77
     6
 78
     2
 67
     7
 79
     5
170
     0
171
     0
290
     0
174
     0
 93
        1
 44
0.0
173
     0
291
     1
 45
0.0
1001
ACAD
1000
AcDbSavedByObjectVersion
1070
     0
  0
VISUALSTYLE
  5
303C
102
{ACAD_XDICTIONARY
360
30DB
102
}
102
{ACAD_REACTORS
330
303B
102
}
330
303B
100
AcDbVisualStyle
  2
Flat
 70
     0
 71
     2
 72
     1
 73
     1
 90
        2
 40
-0.6
 41
30.0
 62
     5
 63
     7
 74
     0
 91
        0
 64
     7
 65
   257
 75
     1
175
     1
 42
1.0
 92
        8
 66
     7
 43
1.0
 76
     1
 77
     6
 78
     2
 67
     7
 79
     5
170
     0
171
     0
290
     0
174
     0
 93
       13
 44
0.0
173
     0
291
     1
 45
0.0
1001
ACAD
1000
AcDbSavedByObjectVersion
1070
     0
  0
VISUALSTYLE
  5
303D
102
{ACAD_XDICTIONARY
360
30DD
102
}
102
{ACAD_REACTORS
330
303B
102
}
330
303B
100
AcDbVisualStyle
  2
FlatWithEdges
 70
     1
 71
     2
 72
     1
 73
     1
 90
        2
 40
-0.6
 41
30.0
 62
     5
 63
     7
 74
     1
 91
        0
 64
     7
 65
   257
 75
     1
175
     1
 42
1.0
 92
        0
 66
   257
 43
1.0
 76
     1
 77
     6
 78
     2
 67
     7
 79
     5
170
     0
171
     0
290
     0
174
     0
 93
       13
 44
0.0
173
     0
291
     1
 45
0.0
1001
ACAD
1000
AcDbSavedByObjectVersion
1070
     0
  0
VISUALSTYLE
  5
303E
102
{ACAD_XDICTIONARY
360
30DF
102
}
102
{ACAD_REACTORS
330
303B
102
}
330
303B
100
AcDbVisualStyle
  2
Gouraud
 70
     2
 71
     2
 72
     2
 73
     1
 90
        2
 40
-0.6
 41
30.0
 62
     5
 63
     7
 74
     0
 91
        0
 64
     7
 65
   257
 75
     1
175
     1
 42
1.0
 92
        0
 66
     7
 43
1.0
 76
     1
 77
     6
 78
     2
 67
     7
 79
     5
170
     0
171
     0
290
     0
174
     0
 93
       13
 44
0.0
173
     0
291
     1
 45
0.0
1001
ACAD
1000
AcDbSavedByObjectVersion
1070
     0
  0
VISUALSTYLE
  5
303F
102
{ACAD_XDICTIONARY
360
30E1
102
}
102
{ACAD_REACTORS
330
303B
102
}
330
303B
100
AcDbVisualStyle
  2
GouraudWithEdges
 70
     3
 71
     2
 72
     2
 73
     1
 90
        2
 40
-0.6
 41
30.0
 62
     5
 63
     7
 74
     1
 91
        0
 64
     7
 65
   257
 75
     1
175
     1
 42
1.0
 92
        0
 66
   257
 43
1.0
 76
     1
 77
     6
 78
     2
 67
     7
 79
     5
170
     0
171
     0
290
     0
174
     0
 93
       13
 44
0.0
173
     0
291
     1
 45
0.0
1001
ACAD
1000
AcDbSavedByObjectVersion
1070
     0
  0
VISUALSTYLE
  5
3043
102
{ACAD_XDICTIONARY
360
30E9
102
}
102
{ACAD_REACTORS
330
303B
102
}
330
303B
100
AcDbVisualStyle
  2
Hidden
 70
     6
 71
     1
 72
     2
 73
     2
 90
        0
 40
-0.6
 41
-30.0
 62
     5
 63
     7
 74
     2
 91
        2
 64
     7
 65
   257
 75
     2
175
     1
 42
40.0
 92
        0
 66
   257
 43
1.0
 76
     1
 77
     6
 78
     2
 67
     7
 79
     3
170
     0
171
     0
290
     0
174
     0
 93
        1
 44
0.0
173
     0
291
     0
 45
0.0
1001
ACAD
1000
AcDbSavedByObjectVersion
1070
     0
  0
VISUALSTYLE
  5
3051
102
{ACAD_XDICTIONARY
360
3105
102
}
102
{ACAD_REACTORS
330
303B
102
}
330
303B
100
AcDbVisualStyle
  2
JitterOff
 70
    20
 71
     2
 72
     2
 73
     0
 90
        0
 40
-0.6
 41
-30.0
 62
     5
 63
     7
 74
     1
 91
        4
 64
     7
 65
   257
 75
     1
175
     1
 42
1.0
 92
       10
 66
     7
 43
1.0
 76
     1
 77
     6
 78
     2
 67
     7
 79
     5
170
     0
171
     0
290
     0
174
     0
 93
        1
 44
0.0
173
     0
291
     1
 45
0.0
1001
ACAD
1000
AcDbSavedByObjectVersion
1070
     0
  0
VISUALSTYLE
  5
3049
102
{ACAD_XDICTIONARY
360
30F5
102
}
102
{ACAD_REACTORS
330
303B
102
}
330
303B
100
AcDbVisualStyle
  2
Linepattern
 70
    14
 71
     2
 72
     2
 73
     0
 90
        0
 40
-0.6
 41
-30.0
 62
     5
 63
     7
 74
     1
 91
        4
 64
     7
 65
   257
 75
     7
175
     7
 42
1.0
 92
        8
 66
     7
 43
1.0
 76
     1
 77
     6
 78
     2
 67
     7
 79
     5
170
     0
171
     0
290
     0
174
     0
 93
        1
 44
0.0
173
     0
291
     1
 45
0.0
1001
ACAD
1000
AcDbSavedByObjectVersion
1070
     0
  0
VISUALSTYLE
  5
3052
102
{ACAD_XDICTIONARY
360
3107
102
}
102
{ACAD_REACTORS
330
303B
102
}
330
303B
100
AcDbVisualStyle
  2
OverhangOff
 70
    21
 71
     2
 72
     2
 73
     0
 90
        0
 40
-0.6
 41
-30.0
 62
     5
 63
     7
 74
     1
 91
        4
 64
     7
 65
   257
 75
     1
175
     1
 42
1.0
 92
        9
 66
     7
 43
1.0
 76
     1
 77
     6
 78
     2
 67
     7
 79
     5
170
     0
171
     0
290
     0
174
     0
 93
        1
 44
0.0
173
     0
291
     1
 45
0.0
1001
ACAD
1000
AcDbSavedByObjectVersion
1070
     0
  0
VISUALSTYLE
  5
3045
102
{ACAD_XDICTIONARY
360
30ED
102
}
102
{ACAD_REACTORS
330
303B
102
}
330
303B
100
AcDbVisualStyle
  2
Realistic
 70
     8
 71
     2
 72
     3
 73
     0
 90
        2
 40
-0.6
 41
30.0
 62
     5
 63
     7
 74
     0
 91
        0
 64
     7
 65
   257
 75
     1
175
     1
 42
1.0
 92
        8
 66
   257
 43
1.0
 76
     1
 77
     6
 78
     2
 67
     7
 79
     3
170
     0
171
     0
290
     0
174
     0
 93
       13
 44
0.0
173
     0
291
     0
 45
0.0
1001
ACAD
1000
AcDbSavedByObjectVersion
1070
     0
  0
VISUALSTYLE
  5
3050
102
{ACAD_XDICTIONARY
360
3103
102
}
102
{ACAD_REACTORS
330
303B
102
}
330
303B
100
AcDbVisualStyle
  2
Shaded
 70
    27
 71
     2
 72
     2
 73
     1
 90
        2
 40
-0.6
 41
30.0
 62
     5
 63
     7
 74
     0
 91
        4
 64
     7
 65
   257
 75
     1
175
     1
 42
1.0
 92
        8
 66
   257
 43
1.0
 76
     1
 77
     6
 78
     2
 67
     8
 79
     3
170
     0
171
     0
290
     0
174
     0
 93
        5
 44
0.0
173
     0
291
     0
 45
0.0
1001
ACAD
1000
AcDbSavedByObjectVersion
1070
     0
  0
VISUALSTYLE
  5
304F
102
{ACAD_XDICTIONARY
360
3101
102
}
102
{ACAD_REACTORS
330
303B
102
}
330
303B
100
AcDbVisualStyle
  2
Shaded with edges
 70
    26
 71
     2
 72
     2
 73
     1
 90
        2
 40
-0.6
 41
30.0
 62
     5
 63
     7
 74
     1
 91
       10
 64
     7
 65
   257
 75
     2
175
     1
 42
1.0
 92
        8
 66
   257
 43
1.0
 76
     1
 77
     6
 78
     2
 67
     7
 79
     3
170
     0
171
     0
290
     0
174
     0
 93
        5
 44
0.0
173
     0
291
     0
 45
0.0
1001
ACAD
1000
AcDbSavedByObjectVersion
1070
     0
  0
VISUALSTYLE
  5
304C
102
{ACAD_XDICTIONARY
360
30FB
102
}
102
{ACAD_REACTORS
330
303B
102
}
330
303B
100
AcDbVisualStyle
  2
Shades of Gray
 70
    23
 71
     2
 72
     2
 73
     3
 90
        0
 40
-0.6
 41
-30.0
 62
     5
 63
     7
 74
     2
 91
        2
 64
     7
 65
     7
 75
     1
175
     1
 42
40.0
 92
        8
 66
     7
 43
1.0
 76
     1
 77
     6
 78
     2
 67
     7
 79
     3
170
     0
171
     0
290
     0
174
     0
 93
        1
 44
0.0
173
     0
291
     0
 45
0.0
1001
ACAD
1000
AcDbSavedByObjectVersion
1070
     0
  0
VISUALSTYLE
  5
304D
102
{ACAD_XDICTIONARY
360
30FD
102
}
102
{ACAD_REACTORS
330
303B
102
}
330
303B
100
AcDbVisualStyle
  2
Sketchy
 70
    24
 71
     1
 72
     2
 73
     2
 90
        0
 40
-0.6
 41
-30.0
 62
     5
 63
     7
 74
     2
 91
        2
 64
     7
 65
     7
 75
     1
175
     1
 42
40.0
 92
       11
 66
     7
 43
1.0
 76
     1
 77
     6
 78
     2
 67
     7
 79
     6
170
     0
171
     0
290
     0
174
     0
 93
        1
 44
0.0
173
     0
291
     0
 45
0.0
1001
ACAD
1000
AcDbSavedByObjectVersion
1070
     0
  0
VISUALSTYLE
  5
3048
102
{ACAD_XDICTIONARY
360
30F3
102
}
102
{ACAD_REACTORS
330
303B
102
}
330
303B
100
AcDbVisualStyle
  2
Thicken
 70
    13
 71
     2
 72
     2
 73
     0
 90
        0
 40
-0.6
 41
-30.0
 62
     5
 63
     7
 74
     1
 91
        4
 64
     7
 65
   257
 75
     1
175
     1
 42
1.0
 92
       12
 66
     7
 43
1.0
 76
     1
 77
     6
 78
     2
 67
     7
 79
     5
170
     0
171
     0
290
     0
174
     0
 93
        1
 44
0.0
173
     0
291
     1
 45
0.0
1001
ACAD
1000
AcDbSavedByObjectVersion
1070
     0
  0
VISUALSTYLE
  5
3042
102
{ACAD_XDICTIONARY
360
30E7
102
}
102
{ACAD_REACTORS
330
303B
102
}
330
303B
100
AcDbVisualStyle
  2
Wireframe
 70
     5
 71
     0
 72
     2
 73
     0
 90
        0
 40
-0.6
 41
-30.0
 62
     5
 63
     7
 74
     1
 91
        4
 64
     7
 65
   257
 75
     1
175
     1
 42
1.0
 92
        0
 66
   257
 43
1.0
 76
     1
 77
     6
 78
     2
 67
     7
 79
     3
170
     0
171
     0
290
     0
174
     0
 93
        1
 44
0.0
173
     0
291
     0
 45
0.0
1001
ACAD
1000
AcDbSavedByObjectVersion
1070
     0
  0
VISUALSTYLE
  5
304E
102
{ACAD_XDICTIONARY
360
30FF
102
}
102
{ACAD_REACTORS
330
303B
102
}
330
303B
100
AcDbVisualStyle
  2
X-Ray
 70
    25
 71
     2
 72
     2
 73
     1
 90
        1
 40
0.5
 41
-30.0
 62
     5
 63
     7
 74
     1
 91
        0
 64
     7
 65
   257
 75
     1
175
     1
 42
1.0
 92
        8
 66
     7
 43
1.0
 76
     1
 77
     6
 78
     2
 67
     7
 79
     3
170
     0
171
     0
290
     0
174
     0
 93
       13
 44
0.0
173
     0
291
     0
 45
0.0
1001
ACAD
1000
AcDbSavedByObjectVersion
1070
     0
  0
DICTIONARYVAR
  5
30CA
102
{ACAD_REACTORS
330
30C5
102
}
330
30C5
100
DictionaryVariables
280
     0
  1
1:1
  0
DICTIONARYVAR
  5
30C7
102
{ACAD_REACTORS
330
30C5
102
}
330
30C5
100
DictionaryVariables
280
     0
  1
STANDARD
  0
DICTIONARYVAR
  5
30C6
102
{ACAD_REACTORS
330
30C5
102
}
330
30C5
100
DictionaryVariables
280
     0
  1
STANDARD
  0
DICTIONARYVAR
  5
30C8
102
{ACAD_REACTORS
330
30C5
102
}
330
30C5
100
DictionaryVariables
280
     0
  1
Imperial24
  0
DICTIONARYVAR
  5
30C9
102
{ACAD_REACTORS
330
30C5
102
}
330
30C5
100
DictionaryVariables
280
     0
  1
Imperial24
  0
DICTIONARYVAR
  5
30CE
102
{ACAD_REACTORS
330
30C5
102
}
330
30C5
100
DictionaryVariables
280
     0
  1
1
  0
DICTIONARYVAR
  5
30CC
102
{ACAD_REACTORS
330
30C5
102
}
330
30C5
100
DictionaryVariables
280
     0
  1
0
  0
DICTIONARYVAR
  5
30CB
102
{ACAD_REACTORS
330
30C5
102
}
330
30C5
100
DictionaryVariables
280
     0
  1
127
  0
DICTIONARYVAR
  5
30CD
102
{ACAD_REACTORS
330
30C5
102
}
330
30C5
100
DictionaryVariables
280
     0
  1
0
  0
XRECORD
  5
30C4
102
{ACAD_REACTORS
330
30C2
102
}
330
30C2
100
AcDbXrecord
280
     1
  0
DICTIONARY
  5
30D4
330
BF6
100
AcDbDictionary
280
     1
281
     1
  3
ACAD_XREC_ROUNDTRIP
360
30D5
  0
DICTIONARY
  5
30D6
330
BFA
100
AcDbDictionary
280
     1
281
     1
  3
ACAD_XREC_ROUNDTRIP
360
30D7
  0
DICTIONARY
  5
302C
330
302B
100
AcDbDictionary
280
     1
281
     1
  3
ACAD_XREC_ROUNDTRIP
360
30D9
  3
BUMPTILE
360
302E
  3
DIFFUSETILE
360
302D
  3
OPACITYTILE
360
3031
  3
REFLECTIONTILE
360
3030
  3
REFRACTIONTILE
360
3032
  3
SPECULARTILE
360
302F
  0
DICTIONARY
  5
3024
330
3023
100
AcDbDictionary
280
     1
281
     1
  3
ACAD_XREC_ROUNDTRIP
360
30D8
  3
BUMPTILE
360
3026
  3
DIFFUSETILE
360
3025
  3
OPACITYTILE
360
3029
  3
REFLECTIONTILE
360
3028
  3
REFRACTIONTILE
360
302A
  3
SPECULARTILE
360
3027
  0
DICTIONARY
  5
3034
330
3033
100
AcDbDictionary
280
     1
281
     1
  3
ACAD_XREC_ROUNDTRIP
360
30DA
  3
BUMPTILE
360
3036
  3
DIFFUSETILE
360
3035
  3
OPACITYTILE
360
3039
  3
REFLECTIONTILE
360
3038
  3
REFRACTIONTILE
360
303A
  3
SPECULARTILE
360
3037
  0
DICTIONARY
  5
30D0
330
3055
100
AcDbDictionary
280
     1
281
     1
  3
ACAD_ROUNDTRIP_2008_TABLESTYLE_CELLSTYLEMAP
360
30D1
  3
ACAD_XREC_ROUNDTRIP
360
310B
  0
DICTIONARY
  5
30E5
330
3041
100
AcDbDictionary
280
     1
281
     1
  3
ACAD_XREC_ROUNDTRIP
360
30E6
  0
DICTIONARY
  5
30E3
330
3040
100
AcDbDictionary
280
     1
281
     1
  3
ACAD_XREC_ROUNDTRIP
360
30E4
  0
DICTIONARY
  5
30F1
330
3047
100
AcDbDictionary
280
     1
281
     1
  3
ACAD_XREC_ROUNDTRIP
360
30F2
  0
DICTIONARY
  5
30F9
330
304B
100
AcDbDictionary
280
     1
281
     1
  3
ACAD_XREC_ROUNDTRIP
360
30FA
  0
DICTIONARY
  5
30EB
330
3044
100
AcDbDictionary
280
     1
281
     1
  3
ACAD_XREC_ROUNDTRIP
360
30EC
  0
DICTIONARY
  5
30EF
330
3046
100
AcDbDictionary
280
     1
281
     1
  3
ACAD_XREC_ROUNDTRIP
360
30F0
  0
DICTIONARY
  5
3109
330
3053
100
AcDbDictionary
280
     1
281
     1
  3
ACAD_XREC_ROUNDTRIP
360
310A
  0
DICTIONARY
  5
30F7
330
304A
100
AcDbDictionary
280
     1
281
     1
  3
ACAD_XREC_ROUNDTRIP
360
30F8
  0
DICTIONARY
  5
30DB
330
303C
100
AcDbDictionary
280
     1
281
     1
  3
ACAD_XREC_ROUNDTRIP
360
30DC
  0
DICTIONARY
  5
30DD
330
303D
100
AcDbDictionary
280
     1
281
     1
  3
ACAD_XREC_ROUNDTRIP
360
30DE
  0
DICTIONARY
  5
30DF
330
303E
100
AcDbDictionary
280
     1
281
     1
  3
ACAD_XREC_ROUNDTRIP
360
30E0
  0
DICTIONARY
  5
30E1
330
303F
100
AcDbDictionary
280
     1
281
     1
  3
ACAD_XREC_ROUNDTRIP
360
30E2
  0
DICTIONARY
  5
30E9
330
3043
100
AcDbDictionary
280
     1
281
     1
  3
ACAD_XREC_ROUNDTRIP
360
30EA
  0
DICTIONARY
  5
3105
330
3051
100
AcDbDictionary
280
     1
281
     1
  3
ACAD_XREC_ROUNDTRIP
360
3106
  0
DICTIONARY
  5
30F5
330
3049
100
AcDbDictionary
280
     1
281
     1
  3
ACAD_XREC_ROUNDTRIP
360
30F6
  0
DICTIONARY
  5
3107
330
3052
100
AcDbDictionary
280
     1
281
     1
  3
ACAD_XREC_ROUNDTRIP
360
3108
  0
DICTIONARY
  5
30ED
330
3045
100
AcDbDictionary
280
     1
281
     1
  3
ACAD_XREC_ROUNDTRIP
360
30EE
  0
DICTIONARY
  5
3103
330
3050
100
AcDbDictionary
280
     1
281
     1
  3
ACAD_XREC_ROUNDTRIP
360
3104
  0
DICTIONARY
  5
3101
330
304F
100
AcDbDictionary
280
     1
281
     1
  3
ACAD_XREC_ROUNDTRIP
360
3102
  0
DICTIONARY
  5
30FB
330
304C
100
AcDbDictionary
280
     1
281
     1
  3
ACAD_XREC_ROUNDTRIP
360
30FC
  0
DICTIONARY
  5
30FD
330
304D
100
AcDbDictionary
280
     1
281
     1
  3
ACAD_XREC_ROUNDTRIP
360
30FE
  0
DICTIONARY
  5
30F3
330
3048
100
AcDbDictionary
280
     1
281
     1
  3
ACAD_XREC_ROUNDTRIP
360
30F4
  0
DICTIONARY
  5
30E7
330
3042
100
AcDbDictionary
280
     1
281
     1
  3
ACAD_XREC_ROUNDTRIP
360
30E8
  0
DICTIONARY
  5
30FF
330
304E
100
AcDbDictionary
280
     1
281
     1
  3
ACAD_XREC_ROUNDTRIP
360
3100
  0
XRECORD
  5
30D5
102
{ACAD_REACTORS
330
30D4
102
}
330
30D4
100
AcDbXrecord
280
     1
102
SHADEPLOT
 70
     0
102
SHADEPLOTRESLEVEL
 70
     2
102
SHADEPLOTCUSTOMDPI
 70
   300
  0
XRECORD
  5
30D7
102
{ACAD_REACTORS
330
30D6
102
}
330
30D6
100
AcDbXrecord
280
     1
102
SHADEPLOT
 70
     0
102
SHADEPLOTRESLEVEL
 70
     2
102
SHADEPLOTCUSTOMDPI
 70
   300
  0
XRECORD
  5
30D9
102
{ACAD_REACTORS
330
302C
102
}
330
302C
100
AcDbXrecord
280
     1
102
MATERIAL
148
0.0
149
0.0
149
0.0
 93
        0
 94
      127
282
     0
 72
     0
 77
     0
171
     0
175
     0
179
     0
273
     0
  0
XRECORD
  5
302E
102
{ACAD_REACTORS
330
302C
102
}
330
302C
100
AcDbXrecord
280
     1
270
     1
271
     1
  0
XRECORD
  5
302D
102
{ACAD_REACTORS
330
302C
102
}
330
302C
100
AcDbXrecord
280
     1
270
     1
271
     1
  0
XRECORD
  5
3031
102
{ACAD_REACTORS
330
302C
102
}
330
302C
100
AcDbXrecord
280
     1
270
     1
271
     1
  0
XRECORD
  5
3030
102
{ACAD_REACTORS
330
302C
102
}
330
302C
100
AcDbXrecord
280
     1
270
     1
271
     1
  0
XRECORD
  5
3032
102
{ACAD_REACTORS
330
302C
102
}
330
302C
100
AcDbXrecord
280
     1
270
     1
271
     1
  0
XRECORD
  5
302F
102
{ACAD_REACTORS
330
302C
102
}
330
302C
100
AcDbXrecord
280
     1
270
     1
271
     1
  0
XRECORD
  5
30D8
102
{ACAD_REACTORS
330
3024
102
}
330
3024
100
AcDbXrecord
280
     1
102
MATERIAL
148
0.0
149
0.0
149
0.0
 93
        0
 94
      127
282
     0
 72
     0
 77
     0
171
     0
175
     0
179
     0
273
     0
  0
XRECORD
  5
3026
102
{ACAD_REACTORS
330
3024
102
}
330
3024
100
AcDbXrecord
280
     1
270
     1
271
     1
  0
XRECORD
  5
3025
102
{ACAD_REACTORS
330
3024
102
}
330
3024
100
AcDbXrecord
280
     1
270
     1
271
     1
  0
XRECORD
  5
3029
102
{ACAD_REACTORS
330
3024
102
}
330
3024
100
AcDbXrecord
280
     1
270
     1
271
     1
  0
XRECORD
  5
3028
102
{ACAD_REACTORS
330
3024
102
}
330
3024
100
AcDbXrecord
280
     1
270
     1
271
     1
  0
XRECORD
  5
302A
102
{ACAD_REACTORS
330
3024
102
}
330
3024
100
AcDbXrecord
280
     1
270
     1
271
     1
  0
XRECORD
  5
3027
102
{ACAD_REACTORS
330
3024
102
}
330
3024
100
AcDbXrecord
280
     1
270
     1
271
     1
  0
XRECORD
  5
30DA
102
{ACAD_REACTORS
330
3034
102
}
330
3034
100
AcDbXrecord
280
     1
102
MATERIAL
148
0.0
149
0.0
149
0.0
 93
        0
 94
      127
282
     0
 72
     0
 77
     0
171
     0
175
     0
179
     0
273
     0
  0
XRECORD
  5
3036
102
{ACAD_REACTORS
330
3034
102
}
330
3034
100
AcDbXrecord
280
     1
270
     1
271
     1
  0
XRECORD
  5
3035
102
{ACAD_REACTORS
330
3034
102
}
330
3034
100
AcDbXrecord
280
     1
270
     1
271
     1
  0
XRECORD
  5
3039
102
{ACAD_REACTORS
330
3034
102
}
330
3034
100
AcDbXrecord
280
     1
270
     1
271
     1
  0
XRECORD
  5
3038
102
{ACAD_REACTORS
330
3034
102
}
330
3034
100
AcDbXrecord
280
     1
270
     1
271
     1
  0
XRECORD
  5
303A
102
{ACAD_REACTORS
330
3034
102
}
330
3034
100
AcDbXrecord
280
     1
270
     1
271
     1
  0
XRECORD
  5
3037
102
{ACAD_REACTORS
330
3034
102
}
330
3034
100
AcDbXrecord
280
     1
270
     1
271
     1
  0
CELLSTYLEMAP
  5
30D1
102
{ACAD_REACTORS
330
30D0
102
}
330
30D0
100
AcDbCellStyleMap
 90
        3
300
CELLSTYLE
  1
TABLEFORMAT_BEGIN
 90
        5
170
     1
 91
        0
 92
    32768
 62
   257
 93
        1
300
CONTENTFORMAT
  1
CONTENTFORMAT_BEGIN
 90
        0
 91
        0
 92
      512
 93
        0
300

 40
0.0
140
1.0
 94
        5
 62
     0
340
BE8
144
0.25
309
CONTENTFORMAT_END
171
     0
 94
        0
309
TABLEFORMAT_END
  1
CELLSTYLE_BEGIN
 90
        1
 91
        1
300
_TITLE
309
CELLSTYLE_END
300
CELLSTYLE
  1
TABLEFORMAT_BEGIN
 90
        5
170
     1
 91
        0
 92
        0
 62
   257
 93
        1
300
CONTENTFORMAT
  1
CONTENTFORMAT_BEGIN
 90
        0
 91
        0
 92
      512
 93
        0
300

 40
0.0
140
1.0
 94
        5
 62
     0
340
BE8
144
0.18
309
CONTENTFORMAT_END
171
     0
 94
        0
309
TABLEFORMAT_END
  1
CELLSTYLE_BEGIN
 90
        2
 91
        1
300
_HEADER
309
CELLSTYLE_END
300
CELLSTYLE
  1
TABLEFORMAT_BEGIN
 90
        5
170
     1
 91
        0
 92
        0
 62
   257
 93
        1
300
CONTENTFORMAT
  1
CONTENTFORMAT_BEGIN
 90
        0
 91
        0
 92
      512
 93
        0
300

 40
0.0
140
1.0
 94
        2
 62
     0
340
BE8
144
0.18
309
CONTENTFORMAT_END
171
     0
 94
        0
309
TABLEFORMAT_END
  1
CELLSTYLE_BEGIN
 90
        3
 91
        2
300
_DATA
309
CELLSTYLE_END
  0
XRECORD
  5
310B
102
{ACAD_REACTORS
330
30D0
102
}
330
30D0
100
AcDbXrecord
280
     1
102
ACAD_ROUNDTRIP_PRE2007_TABLESTYLE
 90
      512
 91
        0
  1

 92
      512
 93
        0
  2

 94
      512
 95
        0
  3

  0
XRECORD
  5
30E6
102
{ACAD_REACTORS
330
30E5
102
}
330
30E5
100
AcDbXrecord
280
     1
102
RTVSPost2010Prop28
280
     1
102
RTVSPost2010PropOp28
 70
     1
102
RTVSPost2010Prop29
280
     1
102
RTVSPost2010PropOp29
 70
     1
102
RTVSPost2010Prop30
280
     0
102
RTVSPost2010PropOp30
 70
     1
102
RTVSPost2010Prop31
280
     0
102
RTVSPost2010PropOp31
 70
     1
102
RTVSPost2010Prop32
280
     0
102
RTVSPost2010PropOp32
 70
     1
102
RTVSPost2010Prop33
280
     0
102
RTVSPost2010PropOp33
 70
     1
102
RTVSPost2010Prop34
280
     0
102
RTVSPost2010PropOp34
 70
     1
102
RTVSPost2010Prop35
280
     0
102
RTVSPost2010PropOp35
 70
     1
102
RTVSPost2010Prop36
280
     0
102
RTVSPost2010PropOp36
 70
     1
102
RTVSPost2010Prop37
 90
       50
102
RTVSPost2010PropOp37
 70
     1
102
RTVSPost2010Prop38
140
0.0
102
RTVSPost2010PropOp38
 70
     1
102
RTVSPost2010Prop39
140
1.0
102
RTVSPost2010PropOp39
 70
     1
102
RTVSPost2010Prop40
 90
        0
102
RTVSPost2010PropOp40
 70
     1
102
RTVSPost2010Prop41ColorIndex
 90
       18
102
RTVSPost2010Prop41ColorRGB
 90
        0
102
RTVSPost2010PropOp41
 70
     1
102
RTVSPost2010Prop42
 90
       50
102
RTVSPost2010PropOp42
 70
     1
102
RTVSPost2010Prop43
 90
        3
102
RTVSPost2010PropOp43
 70
     1
102
RTVSPost2010Prop44ColorIndex
 90
        5
102
RTVSPost2010Prop44ColorRGB
 90
      255
102
RTVSPost2010PropOp44
 70
     1
102
RTVSPost2010Prop45
280
     0
102
RTVSPost2010PropOp45
 70
     1
102
RTVSPost2010Prop46
 90
       50
102
RTVSPost2010PropOp46
 70
     1
102
RTVSPost2010Prop47
 90
       50
102
RTVSPost2010PropOp47
 70
     1
102
RTVSPost2010Prop48
 90
       50
102
RTVSPost2010PropOp48
 70
     1
102
RTVSPost2010Prop49
280
     0
102
RTVSPost2010PropOp49
 70
     1
102
RTVSPost2010Prop50
 90
       50
102
RTVSPost2010PropOp50
 70
     1
102
RTVSPost2010Prop51ColorIndex
 90
      256
102
RTVSPost2010Prop51ColorRGB
 90
-16777216
102
RTVSPost2010PropOp51
 70
     0
102
RTVSPost2010Prop52
140
1.0
102
RTVSPost2010PropOp52
 70
     0
102
RTVSPost2010Prop53
 90
        2
102
RTVSPost2010PropOp53
 70
     1
102
RTVSPost2010Prop54
  1
strokes_ogs.tif
102
RTVSPost2010PropOp54
 70
     1
102
RTVSPost2010Prop55
280
     0
102
RTVSPost2010PropOp55
 70
     1
102
RTVSPost2010Prop56
140
1.0
102
RTVSPost2010PropOp56
 70
     1
102
RTVSPost2010Prop57
140
1.0
102
RTVSPost2010PropOp57
 70
     1
102
RTVSPropertyOp0
 70
     1
102
RTVSPropertyOp1
 70
     1
102
RTVSPropertyOp2
 70
     1
102
RTVSPropertyOp3
 70
     1
102
RTVSPropertyOp4
 70
     1
102
RTVSPropertyOp5
 70
     1
102
RTVSPropertyOp6
 70
     1
102
RTVSPropertyOp7
 70
     1
102
RTVSPropertyOp8
 70
     1
102
RTVSPropertyOp9
 70
     1
102
RTVSPropertyOp10
 70
     1
102
RTVSPropertyOp11
 70
     1
102
RTVSPropertyOp12
 70
     1
102
RTVSPropertyOp13
 70
     1
102
RTVSPropertyOp14
 70
     1
102
RTVSPropertyOp15
 70
     1
102
RTVSPropertyOp16
 70
     1
102
RTVSPropertyOp17
 70
     1
102
RTVSPropertyOp18
 70
     1
102
RTVSPropertyOp19
 70
     1
102
RTVSPropertyOp20
 70
     1
102
RTVSPropertyOp21
 70
     1
102
RTVSPropertyOp22
 70
     1
102
RTVSPropertyOp23
 70
     1
102
RTVSPropertyOp24
 70
     1
102
RTVSPropertyOp25
 70
     1
102
RTVSPropertyOp26
 70
     1
102
RTVSPropertyOp27
 70
     1
102
RTVSPropertyOp28
 70
     1
102
RTVSPropertyOp29
 70
     1
102
RTVSPropertyOp30
 70
     1
102
RTVSPropertyOp31
 70
     1
102
RTVSPropertyOp32
 70
     1
102
RTVSPropertyOp33
 70
     1
102
RTVSPropertyOp34
 70
     1
102
RTVSPropertyOp35
 70
     1
102
RTVSPropertyOp36
 70
     1
102
RTVSPropertyOp37
 70
     1
102
RTVSPropertyOp38
 70
     1
102
RTVSPropertyOp39
 70
     1
102
RTVSPropertyOp40
 70
     1
102
RTVSPropertyOp41
 70
     1
102
RTVSPropertyOp42
 70
     1
102
RTVSPropertyOp43
 70
     1
102
RTVSPropertyOp44
 70
     1
102
RTVSPropertyOp45
 70
     1
102
RTVSPropertyOp46
 70
     1
102
RTVSPropertyOp47
 70
     1
102
RTVSPropertyOp48
 70
     1
102
RTVSPropertyOp49
 70
     1
102
RTVSPropertyOp50
 70
     1
102
RTVSPropertyOp51
 70
     0
102
RTVSPropertyOp52
 70
     0
102
RTVSPropertyOp53
 70
     1
102
RTVSPropertyOp54
 70
     1
102
RTVSPropertyOp55
 70
     1
102
RTVSPropertyOp56
 70
     1
102
RTVSPropertyOp57
 70
     1
102
RTVSPropertyOp58
 70
     1
102
RTVSPropertyOp59
 70
     1
102
RTVSPropertyOp60
 70
     1
102
RTVSPropertyOp61
 70
     1
102
RTVSPropertyOp62
 70
     1
  0
XRECORD
  5
30E4
102
{ACAD_REACTORS
330
30E3
102
}
330
30E3
100
AcDbXrecord
280
     1
102
RTVSPost2010Prop28
280
     0
102
RTVSPost2010PropOp28
 70
     1
102
RTVSPost2010Prop29
280
     1
102
RTVSPost2010PropOp29
 70
     1
102
RTVSPost2010Prop30
280
     1
102
RTVSPost2010PropOp30
 70
     1
102
RTVSPost2010Prop31
280
     0
102
RTVSPost2010PropOp31
 70
     1
102
RTVSPost2010Prop32
280
     0
102
RTVSPost2010PropOp32
 70
     1
102
RTVSPost2010Prop33
280
     0
102
RTVSPost2010PropOp33
 70
     1
102
RTVSPost2010Prop34
280
     0
102
RTVSPost2010PropOp34
 70
     1
102
RTVSPost2010Prop35
280
     0
102
RTVSPost2010PropOp35
 70
     1
102
RTVSPost2010Prop36
280
     0
102
RTVSPost2010PropOp36
 70
     1
102
RTVSPost2010Prop37
 90
       50
102
RTVSPost2010PropOp37
 70
     1
102
RTVSPost2010Prop38
140
0.0
102
RTVSPost2010PropOp38
 70
     1
102
RTVSPost2010Prop39
140
1.0
102
RTVSPost2010PropOp39
 70
     1
102
RTVSPost2010Prop40
 90
        0
102
RTVSPost2010PropOp40
 70
     1
102
RTVSPost2010Prop41ColorIndex
 90
       18
102
RTVSPost2010Prop41ColorRGB
 90
        0
102
RTVSPost2010PropOp41
 70
     1
102
RTVSPost2010Prop42
 90
       50
102
RTVSPost2010PropOp42
 70
     1
102
RTVSPost2010Prop43
 90
        3
102
RTVSPost2010PropOp43
 70
     1
102
RTVSPost2010Prop44ColorIndex
 90
        5
102
RTVSPost2010Prop44ColorRGB
 90
      255
102
RTVSPost2010PropOp44
 70
     1
102
RTVSPost2010Prop45
280
     0
102
RTVSPost2010PropOp45
 70
     1
102
RTVSPost2010Prop46
 90
       50
102
RTVSPost2010PropOp46
 70
     1
102
RTVSPost2010Prop47
 90
       50
102
RTVSPost2010PropOp47
 70
     1
102
RTVSPost2010Prop48
 90
       50
102
RTVSPost2010PropOp48
 70
     1
102
RTVSPost2010Prop49
280
     0
102
RTVSPost2010PropOp49
 70
     1
102
RTVSPost2010Prop50
 90
       50
102
RTVSPost2010PropOp50
 70
     1
102
RTVSPost2010Prop51ColorIndex
 90
      256
102
RTVSPost2010Prop51ColorRGB
 90
-16777216
102
RTVSPost2010PropOp51
 70
     0
102
RTVSPost2010Prop52
140
1.0
102
RTVSPost2010PropOp52
 70
     0
102
RTVSPost2010Prop53
 90
        2
102
RTVSPost2010PropOp53
 70
     1
102
RTVSPost2010Prop54
  1
strokes_ogs.tif
102
RTVSPost2010PropOp54
 70
     1
102
RTVSPost2010Prop55
280
     0
102
RTVSPost2010PropOp55
 70
     1
102
RTVSPost2010Prop56
140
1.0
102
RTVSPost2010PropOp56
 70
     1
102
RTVSPost2010Prop57
140
1.0
102
RTVSPost2010PropOp57
 70
     1
102
RTVSPropertyOp0
 70
     1
102
RTVSPropertyOp1
 70
     1
102
RTVSPropertyOp2
 70
     1
102
RTVSPropertyOp3
 70
     1
102
RTVSPropertyOp4
 70
     1
102
RTVSPropertyOp5
 70
     1
102
RTVSPropertyOp6
 70
     1
102
RTVSPropertyOp7
 70
     1
102
RTVSPropertyOp8
 70
     1
102
RTVSPropertyOp9
 70
     1
102
RTVSPropertyOp10
 70
     1
102
RTVSPropertyOp11
 70
     1
102
RTVSPropertyOp12
 70
     1
102
RTVSPropertyOp13
 70
     1
102
RTVSPropertyOp14
 70
     1
102
RTVSPropertyOp15
 70
     1
102
RTVSPropertyOp16
 70
     1
102
RTVSPropertyOp17
 70
     1
102
RTVSPropertyOp18
 70
     1
102
RTVSPropertyOp19
 70
     1
102
RTVSPropertyOp20
 70
     1
102
RTVSPropertyOp21
 70
     1
102
RTVSPropertyOp22
 70
     1
102
RTVSPropertyOp23
 70
     1
102
RTVSPropertyOp24
 70
     1
102
RTVSPropertyOp25
 70
     1
102
RTVSPropertyOp26
 70
     1
102
RTVSPropertyOp27
 70
     1
102
RTVSPropertyOp28
 70
     1
102
RTVSPropertyOp29
 70
     1
102
RTVSPropertyOp30
 70
     1
102
RTVSPropertyOp31
 70
     1
102
RTVSPropertyOp32
 70
     1
102
RTVSPropertyOp33
 70
     1
102
RTVSPropertyOp34
 70
     1
102
RTVSPropertyOp35
 70
     1
102
RTVSPropertyOp36
 70
     1
102
RTVSPropertyOp37
 70
     1
102
RTVSPropertyOp38
 70
     1
102
RTVSPropertyOp39
 70
     1
102
RTVSPropertyOp40
 70
     1
102
RTVSPropertyOp41
 70
     1
102
RTVSPropertyOp42
 70
     1
102
RTVSPropertyOp43
 70
     1
102
RTVSPropertyOp44
 70
     1
102
RTVSPropertyOp45
 70
     1
102
RTVSPropertyOp46
 70
     1
102
RTVSPropertyOp47
 70
     1
102
RTVSPropertyOp48
 70
     1
102
RTVSPropertyOp49
 70
     1
102
RTVSPropertyOp50
 70
     1
102
RTVSPropertyOp51
 70
     0
102
RTVSPropertyOp52
 70
     0
102
RTVSPropertyOp53
 70
     1
102
RTVSPropertyOp54
 70
     1
102
RTVSPropertyOp55
 70
     1
102
RTVSPropertyOp56
 70
     1
102
RTVSPropertyOp57
 70
     1
102
RTVSPropertyOp58
 70
     1
102
RTVSPropertyOp59
 70
     1
102
RTVSPropertyOp60
 70
     1
102
RTVSPropertyOp61
 70
     1
102
RTVSPropertyOp62
 70
     1
  0
XRECORD
  5
30F2
102
{ACAD_REACTORS
330
30F1
102
}
330
30F1
100
AcDbXrecord
280
     1
102
RTVSPost2010Prop28
280
     0
102
RTVSPost2010PropOp28
 70
     1
102
RTVSPost2010Prop29
280
     1
102
RTVSPost2010PropOp29
 70
     1
102
RTVSPost2010Prop30
280
     1
102
RTVSPost2010PropOp30
 70
     1
102
RTVSPost2010Prop31
280
     0
102
RTVSPost2010PropOp31
 70
     1
102
RTVSPost2010Prop32
280
     0
102
RTVSPost2010PropOp32
 70
     1
102
RTVSPost2010Prop33
280
     0
102
RTVSPost2010PropOp33
 70
     1
102
RTVSPost2010Prop34
280
     0
102
RTVSPost2010PropOp34
 70
     1
102
RTVSPost2010Prop35
280
     0
102
RTVSPost2010PropOp35
 70
     1
102
RTVSPost2010Prop36
280
     0
102
RTVSPost2010PropOp36
 70
     1
102
RTVSPost2010Prop37
 90
       50
102
RTVSPost2010PropOp37
 70
     1
102
RTVSPost2010Prop38
140
0.0
102
RTVSPost2010PropOp38
 70
     1
102
RTVSPost2010Prop39
140
1.0
102
RTVSPost2010PropOp39
 70
     1
102
RTVSPost2010Prop40
 90
        0
102
RTVSPost2010PropOp40
 70
     1
102
RTVSPost2010Prop41ColorIndex
 90
       18
102
RTVSPost2010Prop41ColorRGB
 90
        0
102
RTVSPost2010PropOp41
 70
     1
102
RTVSPost2010Prop42
 90
       50
102
RTVSPost2010PropOp42
 70
     1
102
RTVSPost2010Prop43
 90
        3
102
RTVSPost2010PropOp43
 70
     1
102
RTVSPost2010Prop44ColorIndex
 90
        5
102
RTVSPost2010Prop44ColorRGB
 90
      255
102
RTVSPost2010PropOp44
 70
     1
102
RTVSPost2010Prop45
280
     0
102
RTVSPost2010PropOp45
 70
     1
102
RTVSPost2010Prop46
 90
       50
102
RTVSPost2010PropOp46
 70
     1
102
RTVSPost2010Prop47
 90
       50
102
RTVSPost2010PropOp47
 70
     1
102
RTVSPost2010Prop48
 90
       50
102
RTVSPost2010PropOp48
 70
     1
102
RTVSPost2010Prop49
280
     0
102
RTVSPost2010PropOp49
 70
     1
102
RTVSPost2010Prop50
 90
       50
102
RTVSPost2010PropOp50
 70
     1
102
RTVSPost2010Prop51ColorIndex
 90
      256
102
RTVSPost2010Prop51ColorRGB
 90
-16777216
102
RTVSPost2010PropOp51
 70
     0
102
RTVSPost2010Prop52
140
1.0
102
RTVSPost2010PropOp52
 70
     0
102
RTVSPost2010Prop53
 90
        2
102
RTVSPost2010PropOp53
 70
     1
102
RTVSPost2010Prop54
  1
strokes_ogs.tif
102
RTVSPost2010PropOp54
 70
     1
102
RTVSPost2010Prop55
280
     0
102
RTVSPost2010PropOp55
 70
     1
102
RTVSPost2010Prop56
140
1.0
102
RTVSPost2010PropOp56
 70
     1
102
RTVSPost2010Prop57
140
1.0
102
RTVSPost2010PropOp57
 70
     1
102
RTVSPropertyOp0
 70
     1
102
RTVSPropertyOp1
 70
     1
102
RTVSPropertyOp2
 70
     1
102
RTVSPropertyOp3
 70
     1
102
RTVSPropertyOp4
 70
     1
102
RTVSPropertyOp5
 70
     1
102
RTVSPropertyOp6
 70
     1
102
RTVSPropertyOp7
 70
     1
102
RTVSPropertyOp8
 70
     1
102
RTVSPropertyOp9
 70
     1
102
RTVSPropertyOp10
 70
     1
102
RTVSPropertyOp11
 70
     1
102
RTVSPropertyOp12
 70
     1
102
RTVSPropertyOp13
 70
     1
102
RTVSPropertyOp14
 70
     1
102
RTVSPropertyOp15
 70
     1
102
RTVSPropertyOp16
 70
     1
102
RTVSPropertyOp17
 70
     1
102
RTVSPropertyOp18
 70
     1
102
RTVSPropertyOp19
 70
     1
102
RTVSPropertyOp20
 70
     1
102
RTVSPropertyOp21
 70
     1
102
RTVSPropertyOp22
 70
     1
102
RTVSPropertyOp23
 70
     1
102
RTVSPropertyOp24
 70
     1
102
RTVSPropertyOp25
 70
     1
102
RTVSPropertyOp26
 70
     1
102
RTVSPropertyOp27
 70
     1
102
RTVSPropertyOp28
 70
     1
102
RTVSPropertyOp29
 70
     1
102
RTVSPropertyOp30
 70
     1
102
RTVSPropertyOp31
 70
     1
102
RTVSPropertyOp32
 70
     1
102
RTVSPropertyOp33
 70
     1
102
RTVSPropertyOp34
 70
     1
102
RTVSPropertyOp35
 70
     1
102
RTVSPropertyOp36
 70
     1
102
RTVSPropertyOp37
 70
     1
102
RTVSPropertyOp38
 70
     1
102
RTVSPropertyOp39
 70
     1
102
RTVSPropertyOp40
 70
     1
102
RTVSPropertyOp41
 70
     1
102
RTVSPropertyOp42
 70
     1
102
RTVSPropertyOp43
 70
     1
102
RTVSPropertyOp44
 70
     1
102
RTVSPropertyOp45
 70
     1
102
RTVSPropertyOp46
 70
     1
102
RTVSPropertyOp47
 70
     1
102
RTVSPropertyOp48
 70
     1
102
RTVSPropertyOp49
 70
     1
102
RTVSPropertyOp50
 70
     1
102
RTVSPropertyOp51
 70
     0
102
RTVSPropertyOp52
 70
     0
102
RTVSPropertyOp53
 70
     1
102
RTVSPropertyOp54
 70
     1
102
RTVSPropertyOp55
 70
     1
102
RTVSPropertyOp56
 70
     1
102
RTVSPropertyOp57
 70
     1
102
RTVSPropertyOp58
 70
     1
102
RTVSPropertyOp59
 70
     1
102
RTVSPropertyOp60
 70
     1
102
RTVSPropertyOp61
 70
     1
102
RTVSPropertyOp62
 70
     1
  0
XRECORD
  5
30FA
102
{ACAD_REACTORS
330
30F9
102
}
330
30F9
100
AcDbXrecord
280
     1
102
RTVSPost2010Prop28
280
     0
102
RTVSPost2010PropOp28
 70
     1
102
RTVSPost2010Prop29
280
     1
102
RTVSPost2010PropOp29
 70
     1
102
RTVSPost2010Prop30
280
     1
102
RTVSPost2010PropOp30
 70
     1
102
RTVSPost2010Prop31
280
     0
102
RTVSPost2010PropOp31
 70
     1
102
RTVSPost2010Prop32
280
     0
102
RTVSPost2010PropOp32
 70
     1
102
RTVSPost2010Prop33
280
     0
102
RTVSPost2010PropOp33
 70
     1
102
RTVSPost2010Prop34
280
     0
102
RTVSPost2010PropOp34
 70
     1
102
RTVSPost2010Prop35
280
     0
102
RTVSPost2010PropOp35
 70
     1
102
RTVSPost2010Prop36
280
     0
102
RTVSPost2010PropOp36
 70
     1
102
RTVSPost2010Prop37
 90
       50
102
RTVSPost2010PropOp37
 70
     1
102
RTVSPost2010Prop38
140
0.0
102
RTVSPost2010PropOp38
 70
     1
102
RTVSPost2010Prop39
140
1.0
102
RTVSPost2010PropOp39
 70
     1
102
RTVSPost2010Prop40
 90
        0
102
RTVSPost2010PropOp40
 70
     1
102
RTVSPost2010Prop41ColorIndex
 90
       18
102
RTVSPost2010Prop41ColorRGB
 90
        0
102
RTVSPost2010PropOp41
 70
     1
102
RTVSPost2010Prop42
 90
       50
102
RTVSPost2010PropOp42
 70
     1
102
RTVSPost2010Prop43
 90
        3
102
RTVSPost2010PropOp43
 70
     1
102
RTVSPost2010Prop44ColorIndex
 90
        5
102
RTVSPost2010Prop44ColorRGB
 90
      255
102
RTVSPost2010PropOp44
 70
     1
102
RTVSPost2010Prop45
280
     0
102
RTVSPost2010PropOp45
 70
     1
102
RTVSPost2010Prop46
 90
       50
102
RTVSPost2010PropOp46
 70
     1
102
RTVSPost2010Prop47
 90
       50
102
RTVSPost2010PropOp47
 70
     1
102
RTVSPost2010Prop48
 90
       50
102
RTVSPost2010PropOp48
 70
     1
102
RTVSPost2010Prop49
280
     0
102
RTVSPost2010PropOp49
 70
     1
102
RTVSPost2010Prop50
 90
       50
102
RTVSPost2010PropOp50
 70
     1
102
RTVSPost2010Prop51ColorIndex
 90
      256
102
RTVSPost2010Prop51ColorRGB
 90
-16777216
102
RTVSPost2010PropOp51
 70
     0
102
RTVSPost2010Prop52
140
1.0
102
RTVSPost2010PropOp52
 70
     0
102
RTVSPost2010Prop53
 90
        2
102
RTVSPost2010PropOp53
 70
     1
102
RTVSPost2010Prop54
  1
strokes_ogs.tif
102
RTVSPost2010PropOp54
 70
     1
102
RTVSPost2010Prop55
280
     0
102
RTVSPost2010PropOp55
 70
     1
102
RTVSPost2010Prop56
140
1.0
102
RTVSPost2010PropOp56
 70
     1
102
RTVSPost2010Prop57
140
1.0
102
RTVSPost2010PropOp57
 70
     1
102
RTVSPropertyOp0
 70
     1
102
RTVSPropertyOp1
 70
     1
102
RTVSPropertyOp2
 70
     1
102
RTVSPropertyOp3
 70
     1
102
RTVSPropertyOp4
 70
     1
102
RTVSPropertyOp5
 70
     1
102
RTVSPropertyOp6
 70
     1
102
RTVSPropertyOp7
 70
     1
102
RTVSPropertyOp8
 70
     1
102
RTVSPropertyOp9
 70
     1
102
RTVSPropertyOp10
 70
     1
102
RTVSPropertyOp11
 70
     1
102
RTVSPropertyOp12
 70
     1
102
RTVSPropertyOp13
 70
     1
102
RTVSPropertyOp14
 70
     1
102
RTVSPropertyOp15
 70
     1
102
RTVSPropertyOp16
 70
     1
102
RTVSPropertyOp17
 70
     1
102
RTVSPropertyOp18
 70
     1
102
RTVSPropertyOp19
 70
     1
102
RTVSPropertyOp20
 70
     1
102
RTVSPropertyOp21
 70
     1
102
RTVSPropertyOp22
 70
     1
102
RTVSPropertyOp23
 70
     1
102
RTVSPropertyOp24
 70
     1
102
RTVSPropertyOp25
 70
     1
102
RTVSPropertyOp26
 70
     1
102
RTVSPropertyOp27
 70
     1
102
RTVSPropertyOp28
 70
     1
102
RTVSPropertyOp29
 70
     1
102
RTVSPropertyOp30
 70
     1
102
RTVSPropertyOp31
 70
     1
102
RTVSPropertyOp32
 70
     1
102
RTVSPropertyOp33
 70
     1
102
RTVSPropertyOp34
 70
     1
102
RTVSPropertyOp35
 70
     1
102
RTVSPropertyOp36
 70
     1
102
RTVSPropertyOp37
 70
     1
102
RTVSPropertyOp38
 70
     1
102
RTVSPropertyOp39
 70
     1
102
RTVSPropertyOp40
 70
     1
102
RTVSPropertyOp41
 70
     1
102
RTVSPropertyOp42
 70
     1
102
RTVSPropertyOp43
 70
     1
102
RTVSPropertyOp44
 70
     1
102
RTVSPropertyOp45
 70
     1
102
RTVSPropertyOp46
 70
     1
102
RTVSPropertyOp47
 70
     1
102
RTVSPropertyOp48
 70
     1
102
RTVSPropertyOp49
 70
     1
102
RTVSPropertyOp50
 70
     1
102
RTVSPropertyOp51
 70
     0
102
RTVSPropertyOp52
 70
     0
102
RTVSPropertyOp53
 70
     1
102
RTVSPropertyOp54
 70
     1
102
RTVSPropertyOp55
 70
     1
102
RTVSPropertyOp56
 70
     1
102
RTVSPropertyOp57
 70
     1
102
RTVSPropertyOp58
 70
     1
102
RTVSPropertyOp59
 70
     1
102
RTVSPropertyOp60
 70
     1
102
RTVSPropertyOp61
 70
     1
102
RTVSPropertyOp62
 70
     1
  0
XRECORD
  5
30EC
102
{ACAD_REACTORS
330
30EB
102
}
330
30EB
100
AcDbXrecord
280
     1
102
RTVSPost2010Prop28
280
     0
102
RTVSPost2010PropOp28
 70
     1
102
RTVSPost2010Prop29
280
     1
102
RTVSPost2010PropOp29
 70
     1
102
RTVSPost2010Prop30
280
     1
102
RTVSPost2010PropOp30
 70
     1
102
RTVSPost2010Prop31
280
     0
102
RTVSPost2010PropOp31
 70
     1
102
RTVSPost2010Prop32
280
     0
102
RTVSPost2010PropOp32
 70
     1
102
RTVSPost2010Prop33
280
     0
102
RTVSPost2010PropOp33
 70
     1
102
RTVSPost2010Prop34
280
     0
102
RTVSPost2010PropOp34
 70
     1
102
RTVSPost2010Prop35
280
     0
102
RTVSPost2010PropOp35
 70
     1
102
RTVSPost2010Prop36
280
     0
102
RTVSPost2010PropOp36
 70
     1
102
RTVSPost2010Prop37
 90
       50
102
RTVSPost2010PropOp37
 70
     1
102
RTVSPost2010Prop38
140
0.0
102
RTVSPost2010PropOp38
 70
     1
102
RTVSPost2010Prop39
140
1.0
102
RTVSPost2010PropOp39
 70
     1
102
RTVSPost2010Prop40
 90
        0
102
RTVSPost2010PropOp40
 70
     1
102
RTVSPost2010Prop41ColorIndex
 90
       18
102
RTVSPost2010Prop41ColorRGB
 90
        0
102
RTVSPost2010PropOp41
 70
     1
102
RTVSPost2010Prop42
 90
       50
102
RTVSPost2010PropOp42
 70
     1
102
RTVSPost2010Prop43
 90
        3
102
RTVSPost2010PropOp43
 70
     1
102
RTVSPost2010Prop44ColorIndex
 90
        5
102
RTVSPost2010Prop44ColorRGB
 90
      255
102
RTVSPost2010PropOp44
 70
     1
102
RTVSPost2010Prop45
280
     0
102
RTVSPost2010PropOp45
 70
     1
102
RTVSPost2010Prop46
 90
       50
102
RTVSPost2010PropOp46
 70
     1
102
RTVSPost2010Prop47
 90
       50
102
RTVSPost2010PropOp47
 70
     1
102
RTVSPost2010Prop48
 90
       50
102
RTVSPost2010PropOp48
 70
     1
102
RTVSPost2010Prop49
280
     0
102
RTVSPost2010PropOp49
 70
     1
102
RTVSPost2010Prop50
 90
       50
102
RTVSPost2010PropOp50
 70
     1
102
RTVSPost2010Prop51ColorIndex
 90
      256
102
RTVSPost2010Prop51ColorRGB
 90
-16777216
102
RTVSPost2010PropOp51
 70
     0
102
RTVSPost2010Prop52
140
1.0
102
RTVSPost2010PropOp52
 70
     0
102
RTVSPost2010Prop53
 90
        2
102
RTVSPost2010PropOp53
 70
     1
102
RTVSPost2010Prop54
  1
strokes_ogs.tif
102
RTVSPost2010PropOp54
 70
     1
102
RTVSPost2010Prop55
280
     0
102
RTVSPost2010PropOp55
 70
     1
102
RTVSPost2010Prop56
140
1.0
102
RTVSPost2010PropOp56
 70
     1
102
RTVSPost2010Prop57
140
1.0
102
RTVSPost2010PropOp57
 70
     1
102
RTVSPropertyOp0
 70
     1
102
RTVSPropertyOp1
 70
     1
102
RTVSPropertyOp2
 70
     1
102
RTVSPropertyOp3
 70
     1
102
RTVSPropertyOp4
 70
     1
102
RTVSPropertyOp5
 70
     1
102
RTVSPropertyOp6
 70
     1
102
RTVSPropertyOp7
 70
     1
102
RTVSPropertyOp8
 70
     1
102
RTVSPropertyOp9
 70
     1
102
RTVSPropertyOp10
 70
     1
102
RTVSPropertyOp11
 70
     1
102
RTVSPropertyOp12
 70
     1
102
RTVSPropertyOp13
 70
     1
102
RTVSPropertyOp14
 70
     1
102
RTVSPropertyOp15
 70
     1
102
RTVSPropertyOp16
 70
     1
102
RTVSPropertyOp17
 70
     1
102
RTVSPropertyOp18
 70
     1
102
RTVSPropertyOp19
 70
     1
102
RTVSPropertyOp20
 70
     1
102
RTVSPropertyOp21
 70
     1
102
RTVSPropertyOp22
 70
     1
102
RTVSPropertyOp23
 70
     1
102
RTVSPropertyOp24
 70
     1
102
RTVSPropertyOp25
 70
     1
102
RTVSPropertyOp26
 70
     1
102
RTVSPropertyOp27
 70
     1
102
RTVSPropertyOp28
 70
     1
102
RTVSPropertyOp29
 70
     1
102
RTVSPropertyOp30
 70
     1
102
RTVSPropertyOp31
 70
     1
102
RTVSPropertyOp32
 70
     1
102
RTVSPropertyOp33
 70
     1
102
RTVSPropertyOp34
 70
     1
102
RTVSPropertyOp35
 70
     1
102
RTVSPropertyOp36
 70
     1
102
RTVSPropertyOp37
 70
     1
102
RTVSPropertyOp38
 70
     1
102
RTVSPropertyOp39
 70
     1
102
RTVSPropertyOp40
 70
     1
102
RTVSPropertyOp41
 70
     1
102
RTVSPropertyOp42
 70
     1
102
RTVSPropertyOp43
 70
     1
102
RTVSPropertyOp44
 70
     1
102
RTVSPropertyOp45
 70
     1
102
RTVSPropertyOp46
 70
     1
102
RTVSPropertyOp47
 70
     1
102
RTVSPropertyOp48
 70
     1
102
RTVSPropertyOp49
 70
     1
102
RTVSPropertyOp50
 70
     1
102
RTVSPropertyOp51
 70
     0
102
RTVSPropertyOp52
 70
     0
102
RTVSPropertyOp53
 70
     1
102
RTVSPropertyOp54
 70
     1
102
RTVSPropertyOp55
 70
     1
102
RTVSPropertyOp56
 70
     1
102
RTVSPropertyOp57
 70
     1
102
RTVSPropertyOp58
 70
     1
102
RTVSPropertyOp59
 70
     1
102
RTVSPropertyOp60
 70
     1
102
RTVSPropertyOp61
 70
     1
102
RTVSPropertyOp62
 70
     1
  0
XRECORD
  5
30F0
102
{ACAD_REACTORS
330
30EF
102
}
330
30EF
100
AcDbXrecord
280
     1
102
RTVSPost2010Prop28
280
     0
102
RTVSPost2010PropOp28
 70
     1
102
RTVSPost2010Prop29
280
     1
102
RTVSPost2010PropOp29
 70
     1
102
RTVSPost2010Prop30
280
     1
102
RTVSPost2010PropOp30
 70
     1
102
RTVSPost2010Prop31
280
     0
102
RTVSPost2010PropOp31
 70
     1
102
RTVSPost2010Prop32
280
     0
102
RTVSPost2010PropOp32
 70
     1
102
RTVSPost2010Prop33
280
     0
102
RTVSPost2010PropOp33
 70
     1
102
RTVSPost2010Prop34
280
     0
102
RTVSPost2010PropOp34
 70
     1
102
RTVSPost2010Prop35
280
     0
102
RTVSPost2010PropOp35
 70
     1
102
RTVSPost2010Prop36
280
     0
102
RTVSPost2010PropOp36
 70
     1
102
RTVSPost2010Prop37
 90
       50
102
RTVSPost2010PropOp37
 70
     1
102
RTVSPost2010Prop38
140
0.0
102
RTVSPost2010PropOp38
 70
     1
102
RTVSPost2010Prop39
140
1.0
102
RTVSPost2010PropOp39
 70
     1
102
RTVSPost2010Prop40
 90
        0
102
RTVSPost2010PropOp40
 70
     1
102
RTVSPost2010Prop41ColorIndex
 90
       18
102
RTVSPost2010Prop41ColorRGB
 90
        0
102
RTVSPost2010PropOp41
 70
     1
102
RTVSPost2010Prop42
 90
       50
102
RTVSPost2010PropOp42
 70
     1
102
RTVSPost2010Prop43
 90
        3
102
RTVSPost2010PropOp43
 70
     1
102
RTVSPost2010Prop44ColorIndex
 90
        5
102
RTVSPost2010Prop44ColorRGB
 90
      255
102
RTVSPost2010PropOp44
 70
     1
102
RTVSPost2010Prop45
280
     0
102
RTVSPost2010PropOp45
 70
     1
102
RTVSPost2010Prop46
 90
       50
102
RTVSPost2010PropOp46
 70
     1
102
RTVSPost2010Prop47
 90
       50
102
RTVSPost2010PropOp47
 70
     1
102
RTVSPost2010Prop48
 90
       50
102
RTVSPost2010PropOp48
 70
     1
102
RTVSPost2010Prop49
280
     0
102
RTVSPost2010PropOp49
 70
     1
102
RTVSPost2010Prop50
 90
       50
102
RTVSPost2010PropOp50
 70
     1
102
RTVSPost2010Prop51ColorIndex
 90
      256
102
RTVSPost2010Prop51ColorRGB
 90
-16777216
102
RTVSPost2010PropOp51
 70
     0
102
RTVSPost2010Prop52
140
1.0
102
RTVSPost2010PropOp52
 70
     0
102
RTVSPost2010Prop53
 90
        2
102
RTVSPost2010PropOp53
 70
     1
102
RTVSPost2010Prop54
  1
strokes_ogs.tif
102
RTVSPost2010PropOp54
 70
     1
102
RTVSPost2010Prop55
280
     0
102
RTVSPost2010PropOp55
 70
     1
102
RTVSPost2010Prop56
140
1.0
102
RTVSPost2010PropOp56
 70
     1
102
RTVSPost2010Prop57
140
1.0
102
RTVSPost2010PropOp57
 70
     1
102
RTVSPropertyOp0
 70
     1
102
RTVSPropertyOp1
 70
     1
102
RTVSPropertyOp2
 70
     1
102
RTVSPropertyOp3
 70
     1
102
RTVSPropertyOp4
 70
     1
102
RTVSPropertyOp5
 70
     1
102
RTVSPropertyOp6
 70
     1
102
RTVSPropertyOp7
 70
     1
102
RTVSPropertyOp8
 70
     1
102
RTVSPropertyOp9
 70
     1
102
RTVSPropertyOp10
 70
     1
102
RTVSPropertyOp11
 70
     1
102
RTVSPropertyOp12
 70
     1
102
RTVSPropertyOp13
 70
     1
102
RTVSPropertyOp14
 70
     1
102
RTVSPropertyOp15
 70
     1
102
RTVSPropertyOp16
 70
     1
102
RTVSPropertyOp17
 70
     1
102
RTVSPropertyOp18
 70
     1
102
RTVSPropertyOp19
 70
     1
102
RTVSPropertyOp20
 70
     1
102
RTVSPropertyOp21
 70
     1
102
RTVSPropertyOp22
 70
     1
102
RTVSPropertyOp23
 70
     1
102
RTVSPropertyOp24
 70
     1
102
RTVSPropertyOp25
 70
     1
102
RTVSPropertyOp26
 70
     1
102
RTVSPropertyOp27
 70
     1
102
RTVSPropertyOp28
 70
     1
102
RTVSPropertyOp29
 70
     1
102
RTVSPropertyOp30
 70
     1
102
RTVSPropertyOp31
 70
     1
102
RTVSPropertyOp32
 70
     1
102
RTVSPropertyOp33
 70
     1
102
RTVSPropertyOp34
 70
     1
102
RTVSPropertyOp35
 70
     1
102
RTVSPropertyOp36
 70
     1
102
RTVSPropertyOp37
 70
     1
102
RTVSPropertyOp38
 70
     1
102
RTVSPropertyOp39
 70
     1
102
RTVSPropertyOp40
 70
     1
102
RTVSPropertyOp41
 70
     1
102
RTVSPropertyOp42
 70
     1
102
RTVSPropertyOp43
 70
     1
102
RTVSPropertyOp44
 70
     1
102
RTVSPropertyOp45
 70
     1
102
RTVSPropertyOp46
 70
     1
102
RTVSPropertyOp47
 70
     1
102
RTVSPropertyOp48
 70
     1
102
RTVSPropertyOp49
 70
     1
102
RTVSPropertyOp50
 70
     1
102
RTVSPropertyOp51
 70
     0
102
RTVSPropertyOp52
 70
     0
102
RTVSPropertyOp53
 70
     1
102
RTVSPropertyOp54
 70
     1
102
RTVSPropertyOp55
 70
     1
102
RTVSPropertyOp56
 70
     1
102
RTVSPropertyOp57
 70
     1
102
RTVSPropertyOp58
 70
     1
102
RTVSPropertyOp59
 70
     1
102
RTVSPropertyOp60
 70
     1
102
RTVSPropertyOp61
 70
     1
102
RTVSPropertyOp62
 70
     1
  0
XRECORD
  5
310A
102
{ACAD_REACTORS
330
3109
102
}
330
3109
100
AcDbXrecord
280
     1
102
RTVSPost2010Prop28
280
     0
102
RTVSPost2010PropOp28
 70
     1
102
RTVSPost2010Prop29
280
     1
102
RTVSPost2010PropOp29
 70
     1
102
RTVSPost2010Prop30
280
     1
102
RTVSPost2010PropOp30
 70
     1
102
RTVSPost2010Prop31
280
     0
102
RTVSPost2010PropOp31
 70
     1
102
RTVSPost2010Prop32
280
     0
102
RTVSPost2010PropOp32
 70
     1
102
RTVSPost2010Prop33
280
     0
102
RTVSPost2010PropOp33
 70
     1
102
RTVSPost2010Prop34
280
     0
102
RTVSPost2010PropOp34
 70
     1
102
RTVSPost2010Prop35
280
     0
102
RTVSPost2010PropOp35
 70
     1
102
RTVSPost2010Prop36
280
     0
102
RTVSPost2010PropOp36
 70
     1
102
RTVSPost2010Prop37
 90
       50
102
RTVSPost2010PropOp37
 70
     0
102
RTVSPost2010Prop38
140
0.0
102
RTVSPost2010PropOp38
 70
     0
102
RTVSPost2010Prop39
140
1.0
102
RTVSPost2010PropOp39
 70
     0
102
RTVSPost2010Prop40
 90
        0
102
RTVSPost2010PropOp40
 70
     0
102
RTVSPost2010Prop41ColorIndex
 90
       18
102
RTVSPost2010Prop41ColorRGB
 90
        0
102
RTVSPost2010PropOp41
 70
     0
102
RTVSPost2010Prop42
 90
       50
102
RTVSPost2010PropOp42
 70
     0
102
RTVSPost2010Prop43
 90
        3
102
RTVSPost2010PropOp43
 70
     0
102
RTVSPost2010Prop44ColorIndex
 90
        5
102
RTVSPost2010Prop44ColorRGB
 90
      255
102
RTVSPost2010PropOp44
 70
     0
102
RTVSPost2010Prop45
280
     0
102
RTVSPost2010PropOp45
 70
     1
102
RTVSPost2010Prop46
 90
       50
102
RTVSPost2010PropOp46
 70
     0
102
RTVSPost2010Prop47
 90
       50
102
RTVSPost2010PropOp47
 70
     0
102
RTVSPost2010Prop48
 90
       50
102
RTVSPost2010PropOp48
 70
     0
102
RTVSPost2010Prop49
280
     0
102
RTVSPost2010PropOp49
 70
     1
102
RTVSPost2010Prop50
 90
       50
102
RTVSPost2010PropOp50
 70
     0
102
RTVSPost2010Prop51ColorIndex
 90
      256
102
RTVSPost2010Prop51ColorRGB
 90
-16777216
102
RTVSPost2010PropOp51
 70
     0
102
RTVSPost2010Prop52
140
1.0
102
RTVSPost2010PropOp52
 70
     0
102
RTVSPost2010Prop53
 90
        2
102
RTVSPost2010PropOp53
 70
     0
102
RTVSPost2010Prop54
  1
strokes_ogs.tif
102
RTVSPost2010PropOp54
 70
     0
102
RTVSPost2010Prop55
280
     0
102
RTVSPost2010PropOp55
 70
     1
102
RTVSPost2010Prop56
140
1.0
102
RTVSPost2010PropOp56
 70
     0
102
RTVSPost2010Prop57
140
1.0
102
RTVSPost2010PropOp57
 70
     0
102
RTVSPropertyOp0
 70
     0
102
RTVSPropertyOp1
 70
     0
102
RTVSPropertyOp2
 70
     0
102
RTVSPropertyOp3
 70
     0
102
RTVSPropertyOp4
 70
     0
102
RTVSPropertyOp5
 70
     0
102
RTVSPropertyOp6
 70
     0
102
RTVSPropertyOp7
 70
     0
102
RTVSPropertyOp8
 70
     0
102
RTVSPropertyOp9
 70
     0
102
RTVSPropertyOp10
 70
     0
102
RTVSPropertyOp11
 70
     0
102
RTVSPropertyOp12
 70
     0
102
RTVSPropertyOp13
 70
     0
102
RTVSPropertyOp14
 70
     2
102
RTVSPropertyOp15
 70
     0
102
RTVSPropertyOp16
 70
     0
102
RTVSPropertyOp17
 70
     0
102
RTVSPropertyOp18
 70
     0
102
RTVSPropertyOp19
 70
     0
102
RTVSPropertyOp20
 70
     0
102
RTVSPropertyOp21
 70
     0
102
RTVSPropertyOp22
 70
     0
102
RTVSPropertyOp23
 70
     0
102
RTVSPropertyOp24
 70
     0
102
RTVSPropertyOp25
 70
     0
102
RTVSPropertyOp26
 70
     0
102
RTVSPropertyOp27
 70
     0
102
RTVSPropertyOp28
 70
     1
102
RTVSPropertyOp29
 70
     1
102
RTVSPropertyOp30
 70
     1
102
RTVSPropertyOp31
 70
     1
102
RTVSPropertyOp32
 70
     1
102
RTVSPropertyOp33
 70
     1
102
RTVSPropertyOp34
 70
     1
102
RTVSPropertyOp35
 70
     1
102
RTVSPropertyOp36
 70
     1
102
RTVSPropertyOp37
 70
     0
102
RTVSPropertyOp38
 70
     0
102
RTVSPropertyOp39
 70
     0
102
RTVSPropertyOp40
 70
     0
102
RTVSPropertyOp41
 70
     0
102
RTVSPropertyOp42
 70
     0
102
RTVSPropertyOp43
 70
     0
102
RTVSPropertyOp44
 70
     0
102
RTVSPropertyOp45
 70
     1
102
RTVSPropertyOp46
 70
     0
102
RTVSPropertyOp47
 70
     0
102
RTVSPropertyOp48
 70
     0
102
RTVSPropertyOp49
 70
     1
102
RTVSPropertyOp50
 70
     0
102
RTVSPropertyOp51
 70
     0
102
RTVSPropertyOp52
 70
     0
102
RTVSPropertyOp53
 70
     0
102
RTVSPropertyOp54
 70
     0
102
RTVSPropertyOp55
 70
     1
102
RTVSPropertyOp56
 70
     0
102
RTVSPropertyOp57
 70
     0
102
RTVSPropertyOp58
 70
     0
102
RTVSPropertyOp59
 70
     0
102
RTVSPropertyOp60
 70
     0
102
RTVSPropertyOp61
 70
     0
102
RTVSPropertyOp62
 70
     0
  0
XRECORD
  5
30F8
102
{ACAD_REACTORS
330
30F7
102
}
330
30F7
100
AcDbXrecord
280
     1
102
RTVSPost2010Prop28
280
     0
102
RTVSPost2010PropOp28
 70
     1
102
RTVSPost2010Prop29
280
     1
102
RTVSPost2010PropOp29
 70
     1
102
RTVSPost2010Prop30
280
     1
102
RTVSPost2010PropOp30
 70
     1
102
RTVSPost2010Prop31
280
     0
102
RTVSPost2010PropOp31
 70
     1
102
RTVSPost2010Prop32
280
     0
102
RTVSPost2010PropOp32
 70
     1
102
RTVSPost2010Prop33
280
     0
102
RTVSPost2010PropOp33
 70
     1
102
RTVSPost2010Prop34
280
     0
102
RTVSPost2010PropOp34
 70
     1
102
RTVSPost2010Prop35
280
     0
102
RTVSPost2010PropOp35
 70
     1
102
RTVSPost2010Prop36
280
     0
102
RTVSPost2010PropOp36
 70
     1
102
RTVSPost2010Prop37
 90
       50
102
RTVSPost2010PropOp37
 70
     1
102
RTVSPost2010Prop38
140
0.0
102
RTVSPost2010PropOp38
 70
     1
102
RTVSPost2010Prop39
140
1.0
102
RTVSPost2010PropOp39
 70
     1
102
RTVSPost2010Prop40
 90
        0
102
RTVSPost2010PropOp40
 70
     1
102
RTVSPost2010Prop41ColorIndex
 90
       18
102
RTVSPost2010Prop41ColorRGB
 90
        0
102
RTVSPost2010PropOp41
 70
     1
102
RTVSPost2010Prop42
 90
       50
102
RTVSPost2010PropOp42
 70
     1
102
RTVSPost2010Prop43
 90
        3
102
RTVSPost2010PropOp43
 70
     1
102
RTVSPost2010Prop44ColorIndex
 90
        5
102
RTVSPost2010Prop44ColorRGB
 90
      255
102
RTVSPost2010PropOp44
 70
     1
102
RTVSPost2010Prop45
280
     0
102
RTVSPost2010PropOp45
 70
     1
102
RTVSPost2010Prop46
 90
       50
102
RTVSPost2010PropOp46
 70
     1
102
RTVSPost2010Prop47
 90
       50
102
RTVSPost2010PropOp47
 70
     1
102
RTVSPost2010Prop48
 90
       50
102
RTVSPost2010PropOp48
 70
     1
102
RTVSPost2010Prop49
280
     0
102
RTVSPost2010PropOp49
 70
     1
102
RTVSPost2010Prop50
 90
       50
102
RTVSPost2010PropOp50
 70
     1
102
RTVSPost2010Prop51ColorIndex
 90
      256
102
RTVSPost2010Prop51ColorRGB
 90
-16777216
102
RTVSPost2010PropOp51
 70
     0
102
RTVSPost2010Prop52
140
1.0
102
RTVSPost2010PropOp52
 70
     0
102
RTVSPost2010Prop53
 90
        2
102
RTVSPost2010PropOp53
 70
     1
102
RTVSPost2010Prop54
  1
strokes_ogs.tif
102
RTVSPost2010PropOp54
 70
     1
102
RTVSPost2010Prop55
280
     0
102
RTVSPost2010PropOp55
 70
     1
102
RTVSPost2010Prop56
140
1.0
102
RTVSPost2010PropOp56
 70
     1
102
RTVSPost2010Prop57
140
1.0
102
RTVSPost2010PropOp57
 70
     1
102
RTVSPropertyOp0
 70
     1
102
RTVSPropertyOp1
 70
     1
102
RTVSPropertyOp2
 70
     1
102
RTVSPropertyOp3
 70
     1
102
RTVSPropertyOp4
 70
     1
102
RTVSPropertyOp5
 70
     1
102
RTVSPropertyOp6
 70
     1
102
RTVSPropertyOp7
 70
     1
102
RTVSPropertyOp8
 70
     1
102
RTVSPropertyOp9
 70
     1
102
RTVSPropertyOp10
 70
     1
102
RTVSPropertyOp11
 70
     1
102
RTVSPropertyOp12
 70
     1
102
RTVSPropertyOp13
 70
     1
102
RTVSPropertyOp14
 70
     1
102
RTVSPropertyOp15
 70
     1
102
RTVSPropertyOp16
 70
     1
102
RTVSPropertyOp17
 70
     1
102
RTVSPropertyOp18
 70
     1
102
RTVSPropertyOp19
 70
     1
102
RTVSPropertyOp20
 70
     1
102
RTVSPropertyOp21
 70
     1
102
RTVSPropertyOp22
 70
     1
102
RTVSPropertyOp23
 70
     1
102
RTVSPropertyOp24
 70
     1
102
RTVSPropertyOp25
 70
     1
102
RTVSPropertyOp26
 70
     1
102
RTVSPropertyOp27
 70
     1
102
RTVSPropertyOp28
 70
     1
102
RTVSPropertyOp29
 70
     1
102
RTVSPropertyOp30
 70
     1
102
RTVSPropertyOp31
 70
     1
102
RTVSPropertyOp32
 70
     1
102
RTVSPropertyOp33
 70
     1
102
RTVSPropertyOp34
 70
     1
102
RTVSPropertyOp35
 70
     1
102
RTVSPropertyOp36
 70
     1
102
RTVSPropertyOp37
 70
     1
102
RTVSPropertyOp38
 70
     1
102
RTVSPropertyOp39
 70
     1
102
RTVSPropertyOp40
 70
     1
102
RTVSPropertyOp41
 70
     1
102
RTVSPropertyOp42
 70
     1
102
RTVSPropertyOp43
 70
     1
102
RTVSPropertyOp44
 70
     1
102
RTVSPropertyOp45
 70
     1
102
RTVSPropertyOp46
 70
     1
102
RTVSPropertyOp47
 70
     1
102
RTVSPropertyOp48
 70
     1
102
RTVSPropertyOp49
 70
     1
102
RTVSPropertyOp50
 70
     1
102
RTVSPropertyOp51
 70
     0
102
RTVSPropertyOp52
 70
     0
102
RTVSPropertyOp53
 70
     1
102
RTVSPropertyOp54
 70
     1
102
RTVSPropertyOp55
 70
     1
102
RTVSPropertyOp56
 70
     1
102
RTVSPropertyOp57
 70
     1
102
RTVSPropertyOp58
 70
     1
102
RTVSPropertyOp59
 70
     1
102
RTVSPropertyOp60
 70
     1
102
RTVSPropertyOp61
 70
     1
102
RTVSPropertyOp62
 70
     1
  0
XRECORD
  5
30DC
102
{ACAD_REACTORS
330
30DB
102
}
330
30DB
100
AcDbXrecord
280
     1
102
RTVSPost2010Prop28
280
     0
102
RTVSPost2010PropOp28
 70
     1
102
RTVSPost2010Prop29
280
     1
102
RTVSPost2010PropOp29
 70
     1
102
RTVSPost2010Prop30
280
     1
102
RTVSPost2010PropOp30
 70
     1
102
RTVSPost2010Prop31
280
     0
102
RTVSPost2010PropOp31
 70
     1
102
RTVSPost2010Prop32
280
     0
102
RTVSPost2010PropOp32
 70
     1
102
RTVSPost2010Prop33
280
     0
102
RTVSPost2010PropOp33
 70
     1
102
RTVSPost2010Prop34
280
     0
102
RTVSPost2010PropOp34
 70
     1
102
RTVSPost2010Prop35
280
     0
102
RTVSPost2010PropOp35
 70
     1
102
RTVSPost2010Prop36
280
     0
102
RTVSPost2010PropOp36
 70
     1
102
RTVSPost2010Prop37
 90
       50
102
RTVSPost2010PropOp37
 70
     1
102
RTVSPost2010Prop38
140
0.0
102
RTVSPost2010PropOp38
 70
     1
102
RTVSPost2010Prop39
140
1.0
102
RTVSPost2010PropOp39
 70
     1
102
RTVSPost2010Prop40
 90
        0
102
RTVSPost2010PropOp40
 70
     1
102
RTVSPost2010Prop41ColorIndex
 90
       18
102
RTVSPost2010Prop41ColorRGB
 90
        0
102
RTVSPost2010PropOp41
 70
     1
102
RTVSPost2010Prop42
 90
       50
102
RTVSPost2010PropOp42
 70
     1
102
RTVSPost2010Prop43
 90
        3
102
RTVSPost2010PropOp43
 70
     1
102
RTVSPost2010Prop44ColorIndex
 90
        5
102
RTVSPost2010Prop44ColorRGB
 90
      255
102
RTVSPost2010PropOp44
 70
     1
102
RTVSPost2010Prop45
280
     0
102
RTVSPost2010PropOp45
 70
     1
102
RTVSPost2010Prop46
 90
       50
102
RTVSPost2010PropOp46
 70
     1
102
RTVSPost2010Prop47
 90
       50
102
RTVSPost2010PropOp47
 70
     1
102
RTVSPost2010Prop48
 90
       50
102
RTVSPost2010PropOp48
 70
     1
102
RTVSPost2010Prop49
280
     0
102
RTVSPost2010PropOp49
 70
     1
102
RTVSPost2010Prop50
 90
       50
102
RTVSPost2010PropOp50
 70
     1
102
RTVSPost2010Prop51ColorIndex
 90
      256
102
RTVSPost2010Prop51ColorRGB
 90
-16777216
102
RTVSPost2010PropOp51
 70
     0
102
RTVSPost2010Prop52
140
1.0
102
RTVSPost2010PropOp52
 70
     0
102
RTVSPost2010Prop53
 90
        2
102
RTVSPost2010PropOp53
 70
     1
102
RTVSPost2010Prop54
  1
strokes_ogs.tif
102
RTVSPost2010PropOp54
 70
     1
102
RTVSPost2010Prop55
280
     0
102
RTVSPost2010PropOp55
 70
     1
102
RTVSPost2010Prop56
140
1.0
102
RTVSPost2010PropOp56
 70
     1
102
RTVSPost2010Prop57
140
1.0
102
RTVSPost2010PropOp57
 70
     1
102
RTVSPropertyOp0
 70
     1
102
RTVSPropertyOp1
 70
     1
102
RTVSPropertyOp2
 70
     1
102
RTVSPropertyOp3
 70
     1
102
RTVSPropertyOp4
 70
     1
102
RTVSPropertyOp5
 70
     1
102
RTVSPropertyOp6
 70
     1
102
RTVSPropertyOp7
 70
     1
102
RTVSPropertyOp8
 70
     1
102
RTVSPropertyOp9
 70
     1
102
RTVSPropertyOp10
 70
     1
102
RTVSPropertyOp11
 70
     1
102
RTVSPropertyOp12
 70
     1
102
RTVSPropertyOp13
 70
     1
102
RTVSPropertyOp14
 70
     1
102
RTVSPropertyOp15
 70
     1
102
RTVSPropertyOp16
 70
     1
102
RTVSPropertyOp17
 70
     1
102
RTVSPropertyOp18
 70
     1
102
RTVSPropertyOp19
 70
     1
102
RTVSPropertyOp20
 70
     1
102
RTVSPropertyOp21
 70
     1
102
RTVSPropertyOp22
 70
     1
102
RTVSPropertyOp23
 70
     1
102
RTVSPropertyOp24
 70
     1
102
RTVSPropertyOp25
 70
     1
102
RTVSPropertyOp26
 70
     1
102
RTVSPropertyOp27
 70
     1
102
RTVSPropertyOp28
 70
     1
102
RTVSPropertyOp29
 70
     1
102
RTVSPropertyOp30
 70
     1
102
RTVSPropertyOp31
 70
     1
102
RTVSPropertyOp32
 70
     1
102
RTVSPropertyOp33
 70
     1
102
RTVSPropertyOp34
 70
     1
102
RTVSPropertyOp35
 70
     1
102
RTVSPropertyOp36
 70
     1
102
RTVSPropertyOp37
 70
     1
102
RTVSPropertyOp38
 70
     1
102
RTVSPropertyOp39
 70
     1
102
RTVSPropertyOp40
 70
     1
102
RTVSPropertyOp41
 70
     1
102
RTVSPropertyOp42
 70
     1
102
RTVSPropertyOp43
 70
     1
102
RTVSPropertyOp44
 70
     1
102
RTVSPropertyOp45
 70
     1
102
RTVSPropertyOp46
 70
     1
102
RTVSPropertyOp47
 70
     1
102
RTVSPropertyOp48
 70
     1
102
RTVSPropertyOp49
 70
     1
102
RTVSPropertyOp50
 70
     1
102
RTVSPropertyOp51
 70
     0
102
RTVSPropertyOp52
 70
     0
102
RTVSPropertyOp53
 70
     1
102
RTVSPropertyOp54
 70
     1
102
RTVSPropertyOp55
 70
     1
102
RTVSPropertyOp56
 70
     1
102
RTVSPropertyOp57
 70
     1
102
RTVSPropertyOp58
 70
     1
102
RTVSPropertyOp59
 70
     1
102
RTVSPropertyOp60
 70
     1
102
RTVSPropertyOp61
 70
     1
102
RTVSPropertyOp62
 70
     1
  0
XRECORD
  5
30DE
102
{ACAD_REACTORS
330
30DD
102
}
330
30DD
100
AcDbXrecord
280
     1
102
RTVSPost2010Prop28
280
     0
102
RTVSPost2010PropOp28
 70
     1
102
RTVSPost2010Prop29
280
     1
102
RTVSPost2010PropOp29
 70
     1
102
RTVSPost2010Prop30
280
     1
102
RTVSPost2010PropOp30
 70
     1
102
RTVSPost2010Prop31
280
     0
102
RTVSPost2010PropOp31
 70
     1
102
RTVSPost2010Prop32
280
     0
102
RTVSPost2010PropOp32
 70
     1
102
RTVSPost2010Prop33
280
     0
102
RTVSPost2010PropOp33
 70
     1
102
RTVSPost2010Prop34
280
     0
102
RTVSPost2010PropOp34
 70
     1
102
RTVSPost2010Prop35
280
     0
102
RTVSPost2010PropOp35
 70
     1
102
RTVSPost2010Prop36
280
     0
102
RTVSPost2010PropOp36
 70
     1
102
RTVSPost2010Prop37
 90
       50
102
RTVSPost2010PropOp37
 70
     1
102
RTVSPost2010Prop38
140
0.0
102
RTVSPost2010PropOp38
 70
     1
102
RTVSPost2010Prop39
140
1.0
102
RTVSPost2010PropOp39
 70
     1
102
RTVSPost2010Prop40
 90
        0
102
RTVSPost2010PropOp40
 70
     1
102
RTVSPost2010Prop41ColorIndex
 90
       18
102
RTVSPost2010Prop41ColorRGB
 90
        0
102
RTVSPost2010PropOp41
 70
     1
102
RTVSPost2010Prop42
 90
       50
102
RTVSPost2010PropOp42
 70
     1
102
RTVSPost2010Prop43
 90
        3
102
RTVSPost2010PropOp43
 70
     1
102
RTVSPost2010Prop44ColorIndex
 90
        5
102
RTVSPost2010Prop44ColorRGB
 90
      255
102
RTVSPost2010PropOp44
 70
     1
102
RTVSPost2010Prop45
280
     0
102
RTVSPost2010PropOp45
 70
     1
102
RTVSPost2010Prop46
 90
       50
102
RTVSPost2010PropOp46
 70
     1
102
RTVSPost2010Prop47
 90
       50
102
RTVSPost2010PropOp47
 70
     1
102
RTVSPost2010Prop48
 90
       50
102
RTVSPost2010PropOp48
 70
     1
102
RTVSPost2010Prop49
280
     0
102
RTVSPost2010PropOp49
 70
     1
102
RTVSPost2010Prop50
 90
       50
102
RTVSPost2010PropOp50
 70
     1
102
RTVSPost2010Prop51ColorIndex
 90
      256
102
RTVSPost2010Prop51ColorRGB
 90
-16777216
102
RTVSPost2010PropOp51
 70
     0
102
RTVSPost2010Prop52
140
1.0
102
RTVSPost2010PropOp52
 70
     0
102
RTVSPost2010Prop53
 90
        2
102
RTVSPost2010PropOp53
 70
     1
102
RTVSPost2010Prop54
  1
strokes_ogs.tif
102
RTVSPost2010PropOp54
 70
     1
102
RTVSPost2010Prop55
280
     0
102
RTVSPost2010PropOp55
 70
     1
102
RTVSPost2010Prop56
140
1.0
102
RTVSPost2010PropOp56
 70
     1
102
RTVSPost2010Prop57
140
1.0
102
RTVSPost2010PropOp57
 70
     1
102
RTVSPropertyOp0
 70
     1
102
RTVSPropertyOp1
 70
     1
102
RTVSPropertyOp2
 70
     1
102
RTVSPropertyOp3
 70
     1
102
RTVSPropertyOp4
 70
     1
102
RTVSPropertyOp5
 70
     1
102
RTVSPropertyOp6
 70
     1
102
RTVSPropertyOp7
 70
     1
102
RTVSPropertyOp8
 70
     1
102
RTVSPropertyOp9
 70
     1
102
RTVSPropertyOp10
 70
     1
102
RTVSPropertyOp11
 70
     1
102
RTVSPropertyOp12
 70
     1
102
RTVSPropertyOp13
 70
     1
102
RTVSPropertyOp14
 70
     1
102
RTVSPropertyOp15
 70
     1
102
RTVSPropertyOp16
 70
     1
102
RTVSPropertyOp17
 70
     1
102
RTVSPropertyOp18
 70
     1
102
RTVSPropertyOp19
 70
     1
102
RTVSPropertyOp20
 70
     1
102
RTVSPropertyOp21
 70
     1
102
RTVSPropertyOp22
 70
     1
102
RTVSPropertyOp23
 70
     1
102
RTVSPropertyOp24
 70
     1
102
RTVSPropertyOp25
 70
     1
102
RTVSPropertyOp26
 70
     1
102
RTVSPropertyOp27
 70
     1
102
RTVSPropertyOp28
 70
     1
102
RTVSPropertyOp29
 70
     1
102
RTVSPropertyOp30
 70
     1
102
RTVSPropertyOp31
 70
     1
102
RTVSPropertyOp32
 70
     1
102
RTVSPropertyOp33
 70
     1
102
RTVSPropertyOp34
 70
     1
102
RTVSPropertyOp35
 70
     1
102
RTVSPropertyOp36
 70
     1
102
RTVSPropertyOp37
 70
     1
102
RTVSPropertyOp38
 70
     1
102
RTVSPropertyOp39
 70
     1
102
RTVSPropertyOp40
 70
     1
102
RTVSPropertyOp41
 70
     1
102
RTVSPropertyOp42
 70
     1
102
RTVSPropertyOp43
 70
     1
102
RTVSPropertyOp44
 70
     1
102
RTVSPropertyOp45
 70
     1
102
RTVSPropertyOp46
 70
     1
102
RTVSPropertyOp47
 70
     1
102
RTVSPropertyOp48
 70
     1
102
RTVSPropertyOp49
 70
     1
102
RTVSPropertyOp50
 70
     1
102
RTVSPropertyOp51
 70
     0
102
RTVSPropertyOp52
 70
     0
102
RTVSPropertyOp53
 70
     1
102
RTVSPropertyOp54
 70
     1
102
RTVSPropertyOp55
 70
     1
102
RTVSPropertyOp56
 70
     1
102
RTVSPropertyOp57
 70
     1
102
RTVSPropertyOp58
 70
     1
102
RTVSPropertyOp59
 70
     1
102
RTVSPropertyOp60
 70
     1
102
RTVSPropertyOp61
 70
     1
102
RTVSPropertyOp62
 70
     1
  0
XRECORD
  5
30E0
102
{ACAD_REACTORS
330
30DF
102
}
330
30DF
100
AcDbXrecord
280
     1
102
RTVSPost2010Prop28
280
     0
102
RTVSPost2010PropOp28
 70
     1
102
RTVSPost2010Prop29
280
     1
102
RTVSPost2010PropOp29
 70
     1
102
RTVSPost2010Prop30
280
     1
102
RTVSPost2010PropOp30
 70
     1
102
RTVSPost2010Prop31
280
     0
102
RTVSPost2010PropOp31
 70
     1
102
RTVSPost2010Prop32
280
     0
102
RTVSPost2010PropOp32
 70
     1
102
RTVSPost2010Prop33
280
     0
102
RTVSPost2010PropOp33
 70
     1
102
RTVSPost2010Prop34
280
     0
102
RTVSPost2010PropOp34
 70
     1
102
RTVSPost2010Prop35
280
     0
102
RTVSPost2010PropOp35
 70
     1
102
RTVSPost2010Prop36
280
     0
102
RTVSPost2010PropOp36
 70
     1
102
RTVSPost2010Prop37
 90
       50
102
RTVSPost2010PropOp37
 70
     1
102
RTVSPost2010Prop38
140
0.0
102
RTVSPost2010PropOp38
 70
     1
102
RTVSPost2010Prop39
140
1.0
102
RTVSPost2010PropOp39
 70
     1
102
RTVSPost2010Prop40
 90
        0
102
RTVSPost2010PropOp40
 70
     1
102
RTVSPost2010Prop41ColorIndex
 90
       18
102
RTVSPost2010Prop41ColorRGB
 90
        0
102
RTVSPost2010PropOp41
 70
     1
102
RTVSPost2010Prop42
 90
       50
102
RTVSPost2010PropOp42
 70
     1
102
RTVSPost2010Prop43
 90
        3
102
RTVSPost2010PropOp43
 70
     1
102
RTVSPost2010Prop44ColorIndex
 90
        5
102
RTVSPost2010Prop44ColorRGB
 90
      255
102
RTVSPost2010PropOp44
 70
     1
102
RTVSPost2010Prop45
280
     0
102
RTVSPost2010PropOp45
 70
     1
102
RTVSPost2010Prop46
 90
       50
102
RTVSPost2010PropOp46
 70
     1
102
RTVSPost2010Prop47
 90
       50
102
RTVSPost2010PropOp47
 70
     1
102
RTVSPost2010Prop48
 90
       50
102
RTVSPost2010PropOp48
 70
     1
102
RTVSPost2010Prop49
280
     0
102
RTVSPost2010PropOp49
 70
     1
102
RTVSPost2010Prop50
 90
       50
102
RTVSPost2010PropOp50
 70
     1
102
RTVSPost2010Prop51ColorIndex
 90
      256
102
RTVSPost2010Prop51ColorRGB
 90
-16777216
102
RTVSPost2010PropOp51
 70
     0
102
RTVSPost2010Prop52
140
1.0
102
RTVSPost2010PropOp52
 70
     0
102
RTVSPost2010Prop53
 90
        2
102
RTVSPost2010PropOp53
 70
     1
102
RTVSPost2010Prop54
  1
strokes_ogs.tif
102
RTVSPost2010PropOp54
 70
     1
102
RTVSPost2010Prop55
280
     0
102
RTVSPost2010PropOp55
 70
     1
102
RTVSPost2010Prop56
140
1.0
102
RTVSPost2010PropOp56
 70
     1
102
RTVSPost2010Prop57
140
1.0
102
RTVSPost2010PropOp57
 70
     1
102
RTVSPropertyOp0
 70
     1
102
RTVSPropertyOp1
 70
     1
102
RTVSPropertyOp2
 70
     1
102
RTVSPropertyOp3
 70
     1
102
RTVSPropertyOp4
 70
     1
102
RTVSPropertyOp5
 70
     1
102
RTVSPropertyOp6
 70
     1
102
RTVSPropertyOp7
 70
     1
102
RTVSPropertyOp8
 70
     1
102
RTVSPropertyOp9
 70
     1
102
RTVSPropertyOp10
 70
     1
102
RTVSPropertyOp11
 70
     1
102
RTVSPropertyOp12
 70
     1
102
RTVSPropertyOp13
 70
     1
102
RTVSPropertyOp14
 70
     1
102
RTVSPropertyOp15
 70
     1
102
RTVSPropertyOp16
 70
     1
102
RTVSPropertyOp17
 70
     1
102
RTVSPropertyOp18
 70
     1
102
RTVSPropertyOp19
 70
     1
102
RTVSPropertyOp20
 70
     1
102
RTVSPropertyOp21
 70
     1
102
RTVSPropertyOp22
 70
     1
102
RTVSPropertyOp23
 70
     1
102
RTVSPropertyOp24
 70
     1
102
RTVSPropertyOp25
 70
     1
102
RTVSPropertyOp26
 70
     1
102
RTVSPropertyOp27
 70
     1
102
RTVSPropertyOp28
 70
     1
102
RTVSPropertyOp29
 70
     1
102
RTVSPropertyOp30
 70
     1
102
RTVSPropertyOp31
 70
     1
102
RTVSPropertyOp32
 70
     1
102
RTVSPropertyOp33
 70
     1
102
RTVSPropertyOp34
 70
     1
102
RTVSPropertyOp35
 70
     1
102
RTVSPropertyOp36
 70
     1
102
RTVSPropertyOp37
 70
     1
102
RTVSPropertyOp38
 70
     1
102
RTVSPropertyOp39
 70
     1
102
RTVSPropertyOp40
 70
     1
102
RTVSPropertyOp41
 70
     1
102
RTVSPropertyOp42
 70
     1
102
RTVSPropertyOp43
 70
     1
102
RTVSPropertyOp44
 70
     1
102
RTVSPropertyOp45
 70
     1
102
RTVSPropertyOp46
 70
     1
102
RTVSPropertyOp47
 70
     1
102
RTVSPropertyOp48
 70
     1
102
RTVSPropertyOp49
 70
     1
102
RTVSPropertyOp50
 70
     1
102
RTVSPropertyOp51
 70
     0
102
RTVSPropertyOp52
 70
     0
102
RTVSPropertyOp53
 70
     1
102
RTVSPropertyOp54
 70
     1
102
RTVSPropertyOp55
 70
     1
102
RTVSPropertyOp56
 70
     1
102
RTVSPropertyOp57
 70
     1
102
RTVSPropertyOp58
 70
     1
102
RTVSPropertyOp59
 70
     1
102
RTVSPropertyOp60
 70
     1
102
RTVSPropertyOp61
 70
     1
102
RTVSPropertyOp62
 70
     1
  0
XRECORD
  5
30E2
102
{ACAD_REACTORS
330
30E1
102
}
330
30E1
100
AcDbXrecord
280
     1
102
RTVSPost2010Prop28
280
     0
102
RTVSPost2010PropOp28
 70
     1
102
RTVSPost2010Prop29
280
     1
102
RTVSPost2010PropOp29
 70
     1
102
RTVSPost2010Prop30
280
     1
102
RTVSPost2010PropOp30
 70
     1
102
RTVSPost2010Prop31
280
     0
102
RTVSPost2010PropOp31
 70
     1
102
RTVSPost2010Prop32
280
     0
102
RTVSPost2010PropOp32
 70
     1
102
RTVSPost2010Prop33
280
     0
102
RTVSPost2010PropOp33
 70
     1
102
RTVSPost2010Prop34
280
     0
102
RTVSPost2010PropOp34
 70
     1
102
RTVSPost2010Prop35
280
     0
102
RTVSPost2010PropOp35
 70
     1
102
RTVSPost2010Prop36
280
     0
102
RTVSPost2010PropOp36
 70
     1
102
RTVSPost2010Prop37
 90
       50
102
RTVSPost2010PropOp37
 70
     1
102
RTVSPost2010Prop38
140
0.0
102
RTVSPost2010PropOp38
 70
     1
102
RTVSPost2010Prop39
140
1.0
102
RTVSPost2010PropOp39
 70
     1
102
RTVSPost2010Prop40
 90
        0
102
RTVSPost2010PropOp40
 70
     1
102
RTVSPost2010Prop41ColorIndex
 90
       18
102
RTVSPost2010Prop41ColorRGB
 90
        0
102
RTVSPost2010PropOp41
 70
     1
102
RTVSPost2010Prop42
 90
       50
102
RTVSPost2010PropOp42
 70
     1
102
RTVSPost2010Prop43
 90
        3
102
RTVSPost2010PropOp43
 70
     1
102
RTVSPost2010Prop44ColorIndex
 90
        5
102
RTVSPost2010Prop44ColorRGB
 90
      255
102
RTVSPost2010PropOp44
 70
     1
102
RTVSPost2010Prop45
280
     0
102
RTVSPost2010PropOp45
 70
     1
102
RTVSPost2010Prop46
 90
       50
102
RTVSPost2010PropOp46
 70
     1
102
RTVSPost2010Prop47
 90
       50
102
RTVSPost2010PropOp47
 70
     1
102
RTVSPost2010Prop48
 90
       50
102
RTVSPost2010PropOp48
 70
     1
102
RTVSPost2010Prop49
280
     0
102
RTVSPost2010PropOp49
 70
     1
102
RTVSPost2010Prop50
 90
       50
102
RTVSPost2010PropOp50
 70
     1
102
RTVSPost2010Prop51ColorIndex
 90
      256
102
RTVSPost2010Prop51ColorRGB
 90
-16777216
102
RTVSPost2010PropOp51
 70
     0
102
RTVSPost2010Prop52
140
1.0
102
RTVSPost2010PropOp52
 70
     0
102
RTVSPost2010Prop53
 90
        2
102
RTVSPost2010PropOp53
 70
     1
102
RTVSPost2010Prop54
  1
strokes_ogs.tif
102
RTVSPost2010PropOp54
 70
     1
102
RTVSPost2010Prop55
280
     0
102
RTVSPost2010PropOp55
 70
     1
102
RTVSPost2010Prop56
140
1.0
102
RTVSPost2010PropOp56
 70
     1
102
RTVSPost2010Prop57
140
1.0
102
RTVSPost2010PropOp57
 70
     1
102
RTVSPropertyOp0
 70
     1
102
RTVSPropertyOp1
 70
     1
102
RTVSPropertyOp2
 70
     1
102
RTVSPropertyOp3
 70
     1
102
RTVSPropertyOp4
 70
     1
102
RTVSPropertyOp5
 70
     1
102
RTVSPropertyOp6
 70
     1
102
RTVSPropertyOp7
 70
     1
102
RTVSPropertyOp8
 70
     1
102
RTVSPropertyOp9
 70
     1
102
RTVSPropertyOp10
 70
     1
102
RTVSPropertyOp11
 70
     1
102
RTVSPropertyOp12
 70
     1
102
RTVSPropertyOp13
 70
     1
102
RTVSPropertyOp14
 70
     1
102
RTVSPropertyOp15
 70
     1
102
RTVSPropertyOp16
 70
     1
102
RTVSPropertyOp17
 70
     1
102
RTVSPropertyOp18
 70
     1
102
RTVSPropertyOp19
 70
     1
102
RTVSPropertyOp20
 70
     1
102
RTVSPropertyOp21
 70
     1
102
RTVSPropertyOp22
 70
     1
102
RTVSPropertyOp23
 70
     1
102
RTVSPropertyOp24
 70
     1
102
RTVSPropertyOp25
 70
     1
102
RTVSPropertyOp26
 70
     1
102
RTVSPropertyOp27
 70
     1
102
RTVSPropertyOp28
 70
     1
102
RTVSPropertyOp29
 70
     1
102
RTVSPropertyOp30
 70
     1
102
RTVSPropertyOp31
 70
     1
102
RTVSPropertyOp32
 70
     1
102
RTVSPropertyOp33
 70
     1
102
RTVSPropertyOp34
 70
     1
102
RTVSPropertyOp35
 70
     1
102
RTVSPropertyOp36
 70
     1
102
RTVSPropertyOp37
 70
     1
102
RTVSPropertyOp38
 70
     1
102
RTVSPropertyOp39
 70
     1
102
RTVSPropertyOp40
 70
     1
102
RTVSPropertyOp41
 70
     1
102
RTVSPropertyOp42
 70
     1
102
RTVSPropertyOp43
 70
     1
102
RTVSPropertyOp44
 70
     1
102
RTVSPropertyOp45
 70
     1
102
RTVSPropertyOp46
 70
     1
102
RTVSPropertyOp47
 70
     1
102
RTVSPropertyOp48
 70
     1
102
RTVSPropertyOp49
 70
     1
102
RTVSPropertyOp50
 70
     1
102
RTVSPropertyOp51
 70
     0
102
RTVSPropertyOp52
 70
     0
102
RTVSPropertyOp53
 70
     1
102
RTVSPropertyOp54
 70
     1
102
RTVSPropertyOp55
 70
     1
102
RTVSPropertyOp56
 70
     1
102
RTVSPropertyOp57
 70
     1
102
RTVSPropertyOp58
 70
     1
102
RTVSPropertyOp59
 70
     1
102
RTVSPropertyOp60
 70
     1
102
RTVSPropertyOp61
 70
     1
102
RTVSPropertyOp62
 70
     1
  0
XRECORD
  5
30EA
102
{ACAD_REACTORS
330
30E9
102
}
330
30E9
100
AcDbXrecord
280
     1
102
RTVSPost2010Prop28
280
     0
102
RTVSPost2010PropOp28
 70
     1
102
RTVSPost2010Prop29
280
     1
102
RTVSPost2010PropOp29
 70
     1
102
RTVSPost2010Prop30
280
     1
102
RTVSPost2010PropOp30
 70
     1
102
RTVSPost2010Prop31
280
     0
102
RTVSPost2010PropOp31
 70
     1
102
RTVSPost2010Prop32
280
     0
102
RTVSPost2010PropOp32
 70
     1
102
RTVSPost2010Prop33
280
     0
102
RTVSPost2010PropOp33
 70
     1
102
RTVSPost2010Prop34
280
     0
102
RTVSPost2010PropOp34
 70
     1
102
RTVSPost2010Prop35
280
     0
102
RTVSPost2010PropOp35
 70
     1
102
RTVSPost2010Prop36
280
     0
102
RTVSPost2010PropOp36
 70
     1
102
RTVSPost2010Prop37
 90
       50
102
RTVSPost2010PropOp37
 70
     1
102
RTVSPost2010Prop38
140
0.0
102
RTVSPost2010PropOp38
 70
     1
102
RTVSPost2010Prop39
140
1.0
102
RTVSPost2010PropOp39
 70
     1
102
RTVSPost2010Prop40
 90
        0
102
RTVSPost2010PropOp40
 70
     1
102
RTVSPost2010Prop41ColorIndex
 90
       18
102
RTVSPost2010Prop41ColorRGB
 90
        0
102
RTVSPost2010PropOp41
 70
     1
102
RTVSPost2010Prop42
 90
       50
102
RTVSPost2010PropOp42
 70
     1
102
RTVSPost2010Prop43
 90
        3
102
RTVSPost2010PropOp43
 70
     1
102
RTVSPost2010Prop44ColorIndex
 90
        5
102
RTVSPost2010Prop44ColorRGB
 90
      255
102
RTVSPost2010PropOp44
 70
     1
102
RTVSPost2010Prop45
280
     0
102
RTVSPost2010PropOp45
 70
     1
102
RTVSPost2010Prop46
 90
       50
102
RTVSPost2010PropOp46
 70
     1
102
RTVSPost2010Prop47
 90
       50
102
RTVSPost2010PropOp47
 70
     1
102
RTVSPost2010Prop48
 90
       50
102
RTVSPost2010PropOp48
 70
     1
102
RTVSPost2010Prop49
280
     0
102
RTVSPost2010PropOp49
 70
     1
102
RTVSPost2010Prop50
 90
       50
102
RTVSPost2010PropOp50
 70
     1
102
RTVSPost2010Prop51ColorIndex
 90
      256
102
RTVSPost2010Prop51ColorRGB
 90
-16777216
102
RTVSPost2010PropOp51
 70
     0
102
RTVSPost2010Prop52
140
1.0
102
RTVSPost2010PropOp52
 70
     0
102
RTVSPost2010Prop53
 90
        2
102
RTVSPost2010PropOp53
 70
     1
102
RTVSPost2010Prop54
  1
strokes_ogs.tif
102
RTVSPost2010PropOp54
 70
     1
102
RTVSPost2010Prop55
280
     0
102
RTVSPost2010PropOp55
 70
     1
102
RTVSPost2010Prop56
140
1.0
102
RTVSPost2010PropOp56
 70
     1
102
RTVSPost2010Prop57
140
1.0
102
RTVSPost2010PropOp57
 70
     1
102
RTVSPropertyOp0
 70
     1
102
RTVSPropertyOp1
 70
     1
102
RTVSPropertyOp2
 70
     1
102
RTVSPropertyOp3
 70
     1
102
RTVSPropertyOp4
 70
     1
102
RTVSPropertyOp5
 70
     1
102
RTVSPropertyOp6
 70
     1
102
RTVSPropertyOp7
 70
     1
102
RTVSPropertyOp8
 70
     1
102
RTVSPropertyOp9
 70
     1
102
RTVSPropertyOp10
 70
     1
102
RTVSPropertyOp11
 70
     1
102
RTVSPropertyOp12
 70
     1
102
RTVSPropertyOp13
 70
     1
102
RTVSPropertyOp14
 70
     1
102
RTVSPropertyOp15
 70
     1
102
RTVSPropertyOp16
 70
     1
102
RTVSPropertyOp17
 70
     1
102
RTVSPropertyOp18
 70
     1
102
RTVSPropertyOp19
 70
     1
102
RTVSPropertyOp20
 70
     1
102
RTVSPropertyOp21
 70
     1
102
RTVSPropertyOp22
 70
     1
102
RTVSPropertyOp23
 70
     1
102
RTVSPropertyOp24
 70
     1
102
RTVSPropertyOp25
 70
     1
102
RTVSPropertyOp26
 70
     1
102
RTVSPropertyOp27
 70
     1
102
RTVSPropertyOp28
 70
     1
102
RTVSPropertyOp29
 70
     1
102
RTVSPropertyOp30
 70
     1
102
RTVSPropertyOp31
 70
     1
102
RTVSPropertyOp32
 70
     1
102
RTVSPropertyOp33
 70
     1
102
RTVSPropertyOp34
 70
     1
102
RTVSPropertyOp35
 70
     1
102
RTVSPropertyOp36
 70
     1
102
RTVSPropertyOp37
 70
     1
102
RTVSPropertyOp38
 70
     1
102
RTVSPropertyOp39
 70
     1
102
RTVSPropertyOp40
 70
     1
102
RTVSPropertyOp41
 70
     1
102
RTVSPropertyOp42
 70
     1
102
RTVSPropertyOp43
 70
     1
102
RTVSPropertyOp44
 70
     1
102
RTVSPropertyOp45
 70
     1
102
RTVSPropertyOp46
 70
     1
102
RTVSPropertyOp47
 70
     1
102
RTVSPropertyOp48
 70
     1
102
RTVSPropertyOp49
 70
     1
102
RTVSPropertyOp50
 70
     1
102
RTVSPropertyOp51
 70
     0
102
RTVSPropertyOp52
 70
     0
102
RTVSPropertyOp53
 70
     1
102
RTVSPropertyOp54
 70
     1
102
RTVSPropertyOp55
 70
     1
102
RTVSPropertyOp56
 70
     1
102
RTVSPropertyOp57
 70
     1
102
RTVSPropertyOp58
 70
     1
102
RTVSPropertyOp59
 70
     1
102
RTVSPropertyOp60
 70
     1
102
RTVSPropertyOp61
 70
     1
102
RTVSPropertyOp62
 70
     1
  0
XRECORD
  5
3106
102
{ACAD_REACTORS
330
3105
102
}
330
3105
100
AcDbXrecord
280
     1
102
RTVSPost2010Prop28
280
     0
102
RTVSPost2010PropOp28
 70
     1
102
RTVSPost2010Prop29
280
     1
102
RTVSPost2010PropOp29
 70
     1
102
RTVSPost2010Prop30
280
     1
102
RTVSPost2010PropOp30
 70
     1
102
RTVSPost2010Prop31
280
     0
102
RTVSPost2010PropOp31
 70
     1
102
RTVSPost2010Prop32
280
     0
102
RTVSPost2010PropOp32
 70
     1
102
RTVSPost2010Prop33
280
     0
102
RTVSPost2010PropOp33
 70
     1
102
RTVSPost2010Prop34
280
     0
102
RTVSPost2010PropOp34
 70
     1
102
RTVSPost2010Prop35
280
     0
102
RTVSPost2010PropOp35
 70
     1
102
RTVSPost2010Prop36
280
     0
102
RTVSPost2010PropOp36
 70
     1
102
RTVSPost2010Prop37
 90
       50
102
RTVSPost2010PropOp37
 70
     0
102
RTVSPost2010Prop38
140
0.0
102
RTVSPost2010PropOp38
 70
     0
102
RTVSPost2010Prop39
140
1.0
102
RTVSPost2010PropOp39
 70
     0
102
RTVSPost2010Prop40
 90
        0
102
RTVSPost2010PropOp40
 70
     0
102
RTVSPost2010Prop41ColorIndex
 90
       18
102
RTVSPost2010Prop41ColorRGB
 90
        0
102
RTVSPost2010PropOp41
 70
     0
102
RTVSPost2010Prop42
 90
       50
102
RTVSPost2010PropOp42
 70
     0
102
RTVSPost2010Prop43
 90
        3
102
RTVSPost2010PropOp43
 70
     0
102
RTVSPost2010Prop44ColorIndex
 90
        5
102
RTVSPost2010Prop44ColorRGB
 90
      255
102
RTVSPost2010PropOp44
 70
     0
102
RTVSPost2010Prop45
280
     0
102
RTVSPost2010PropOp45
 70
     1
102
RTVSPost2010Prop46
 90
       50
102
RTVSPost2010PropOp46
 70
     0
102
RTVSPost2010Prop47
 90
       50
102
RTVSPost2010PropOp47
 70
     0
102
RTVSPost2010Prop48
 90
       50
102
RTVSPost2010PropOp48
 70
     0
102
RTVSPost2010Prop49
280
     0
102
RTVSPost2010PropOp49
 70
     1
102
RTVSPost2010Prop50
 90
       50
102
RTVSPost2010PropOp50
 70
     0
102
RTVSPost2010Prop51ColorIndex
 90
      256
102
RTVSPost2010Prop51ColorRGB
 90
-16777216
102
RTVSPost2010PropOp51
 70
     0
102
RTVSPost2010Prop52
140
1.0
102
RTVSPost2010PropOp52
 70
     0
102
RTVSPost2010Prop53
 90
        2
102
RTVSPost2010PropOp53
 70
     0
102
RTVSPost2010Prop54
  1
strokes_ogs.tif
102
RTVSPost2010PropOp54
 70
     0
102
RTVSPost2010Prop55
280
     0
102
RTVSPost2010PropOp55
 70
     1
102
RTVSPost2010Prop56
140
1.0
102
RTVSPost2010PropOp56
 70
     0
102
RTVSPost2010Prop57
140
1.0
102
RTVSPost2010PropOp57
 70
     0
102
RTVSPropertyOp0
 70
     0
102
RTVSPropertyOp1
 70
     0
102
RTVSPropertyOp2
 70
     0
102
RTVSPropertyOp3
 70
     0
102
RTVSPropertyOp4
 70
     0
102
RTVSPropertyOp5
 70
     0
102
RTVSPropertyOp6
 70
     0
102
RTVSPropertyOp7
 70
     0
102
RTVSPropertyOp8
 70
     0
102
RTVSPropertyOp9
 70
     0
102
RTVSPropertyOp10
 70
     0
102
RTVSPropertyOp11
 70
     0
102
RTVSPropertyOp12
 70
     0
102
RTVSPropertyOp13
 70
     0
102
RTVSPropertyOp14
 70
     2
102
RTVSPropertyOp15
 70
     0
102
RTVSPropertyOp16
 70
     0
102
RTVSPropertyOp17
 70
     0
102
RTVSPropertyOp18
 70
     0
102
RTVSPropertyOp19
 70
     0
102
RTVSPropertyOp20
 70
     0
102
RTVSPropertyOp21
 70
     0
102
RTVSPropertyOp22
 70
     0
102
RTVSPropertyOp23
 70
     0
102
RTVSPropertyOp24
 70
     0
102
RTVSPropertyOp25
 70
     0
102
RTVSPropertyOp26
 70
     0
102
RTVSPropertyOp27
 70
     0
102
RTVSPropertyOp28
 70
     1
102
RTVSPropertyOp29
 70
     1
102
RTVSPropertyOp30
 70
     1
102
RTVSPropertyOp31
 70
     1
102
RTVSPropertyOp32
 70
     1
102
RTVSPropertyOp33
 70
     1
102
RTVSPropertyOp34
 70
     1
102
RTVSPropertyOp35
 70
     1
102
RTVSPropertyOp36
 70
     1
102
RTVSPropertyOp37
 70
     0
102
RTVSPropertyOp38
 70
     0
102
RTVSPropertyOp39
 70
     0
102
RTVSPropertyOp40
 70
     0
102
RTVSPropertyOp41
 70
     0
102
RTVSPropertyOp42
 70
     0
102
RTVSPropertyOp43
 70
     0
102
RTVSPropertyOp44
 70
     0
102
RTVSPropertyOp45
 70
     1
102
RTVSPropertyOp46
 70
     0
102
RTVSPropertyOp47
 70
     0
102
RTVSPropertyOp48
 70
     0
102
RTVSPropertyOp49
 70
     1
102
RTVSPropertyOp50
 70
     0
102
RTVSPropertyOp51
 70
     0
102
RTVSPropertyOp52
 70
     0
102
RTVSPropertyOp53
 70
     0
102
RTVSPropertyOp54
 70
     0
102
RTVSPropertyOp55
 70
     1
102
RTVSPropertyOp56
 70
     0
102
RTVSPropertyOp57
 70
     0
102
RTVSPropertyOp58
 70
     0
102
RTVSPropertyOp59
 70
     0
102
RTVSPropertyOp60
 70
     0
102
RTVSPropertyOp61
 70
     0
102
RTVSPropertyOp62
 70
     0
  0
XRECORD
  5
30F6
102
{ACAD_REACTORS
330
30F5
102
}
330
30F5
100
AcDbXrecord
280
     1
102
RTVSPost2010Prop28
280
     0
102
RTVSPost2010PropOp28
 70
     1
102
RTVSPost2010Prop29
280
     1
102
RTVSPost2010PropOp29
 70
     1
102
RTVSPost2010Prop30
280
     1
102
RTVSPost2010PropOp30
 70
     1
102
RTVSPost2010Prop31
280
     0
102
RTVSPost2010PropOp31
 70
     1
102
RTVSPost2010Prop32
280
     0
102
RTVSPost2010PropOp32
 70
     1
102
RTVSPost2010Prop33
280
     0
102
RTVSPost2010PropOp33
 70
     1
102
RTVSPost2010Prop34
280
     0
102
RTVSPost2010PropOp34
 70
     1
102
RTVSPost2010Prop35
280
     0
102
RTVSPost2010PropOp35
 70
     1
102
RTVSPost2010Prop36
280
     0
102
RTVSPost2010PropOp36
 70
     1
102
RTVSPost2010Prop37
 90
       50
102
RTVSPost2010PropOp37
 70
     1
102
RTVSPost2010Prop38
140
0.0
102
RTVSPost2010PropOp38
 70
     1
102
RTVSPost2010Prop39
140
1.0
102
RTVSPost2010PropOp39
 70
     1
102
RTVSPost2010Prop40
 90
        0
102
RTVSPost2010PropOp40
 70
     1
102
RTVSPost2010Prop41ColorIndex
 90
       18
102
RTVSPost2010Prop41ColorRGB
 90
        0
102
RTVSPost2010PropOp41
 70
     1
102
RTVSPost2010Prop42
 90
       50
102
RTVSPost2010PropOp42
 70
     1
102
RTVSPost2010Prop43
 90
        3
102
RTVSPost2010PropOp43
 70
     1
102
RTVSPost2010Prop44ColorIndex
 90
        5
102
RTVSPost2010Prop44ColorRGB
 90
      255
102
RTVSPost2010PropOp44
 70
     1
102
RTVSPost2010Prop45
280
     0
102
RTVSPost2010PropOp45
 70
     1
102
RTVSPost2010Prop46
 90
       50
102
RTVSPost2010PropOp46
 70
     1
102
RTVSPost2010Prop47
 90
       50
102
RTVSPost2010PropOp47
 70
     1
102
RTVSPost2010Prop48
 90
       50
102
RTVSPost2010PropOp48
 70
     1
102
RTVSPost2010Prop49
280
     0
102
RTVSPost2010PropOp49
 70
     1
102
RTVSPost2010Prop50
 90
       50
102
RTVSPost2010PropOp50
 70
     1
102
RTVSPost2010Prop51ColorIndex
 90
      256
102
RTVSPost2010Prop51ColorRGB
 90
-16777216
102
RTVSPost2010PropOp51
 70
     0
102
RTVSPost2010Prop52
140
1.0
102
RTVSPost2010PropOp52
 70
     0
102
RTVSPost2010Prop53
 90
        2
102
RTVSPost2010PropOp53
 70
     1
102
RTVSPost2010Prop54
  1
strokes_ogs.tif
102
RTVSPost2010PropOp54
 70
     1
102
RTVSPost2010Prop55
280
     0
102
RTVSPost2010PropOp55
 70
     1
102
RTVSPost2010Prop56
140
1.0
102
RTVSPost2010PropOp56
 70
     1
102
RTVSPost2010Prop57
140
1.0
102
RTVSPost2010PropOp57
 70
     1
102
RTVSPropertyOp0
 70
     1
102
RTVSPropertyOp1
 70
     1
102
RTVSPropertyOp2
 70
     1
102
RTVSPropertyOp3
 70
     1
102
RTVSPropertyOp4
 70
     1
102
RTVSPropertyOp5
 70
     1
102
RTVSPropertyOp6
 70
     1
102
RTVSPropertyOp7
 70
     1
102
RTVSPropertyOp8
 70
     1
102
RTVSPropertyOp9
 70
     1
102
RTVSPropertyOp10
 70
     1
102
RTVSPropertyOp11
 70
     1
102
RTVSPropertyOp12
 70
     1
102
RTVSPropertyOp13
 70
     1
102
RTVSPropertyOp14
 70
     1
102
RTVSPropertyOp15
 70
     1
102
RTVSPropertyOp16
 70
     1
102
RTVSPropertyOp17
 70
     1
102
RTVSPropertyOp18
 70
     1
102
RTVSPropertyOp19
 70
     1
102
RTVSPropertyOp20
 70
     1
102
RTVSPropertyOp21
 70
     1
102
RTVSPropertyOp22
 70
     1
102
RTVSPropertyOp23
 70
     1
102
RTVSPropertyOp24
 70
     1
102
RTVSPropertyOp25
 70
     1
102
RTVSPropertyOp26
 70
     1
102
RTVSPropertyOp27
 70
     1
102
RTVSPropertyOp28
 70
     1
102
RTVSPropertyOp29
 70
     1
102
RTVSPropertyOp30
 70
     1
102
RTVSPropertyOp31
 70
     1
102
RTVSPropertyOp32
 70
     1
102
RTVSPropertyOp33
 70
     1
102
RTVSPropertyOp34
 70
     1
102
RTVSPropertyOp35
 70
     1
102
RTVSPropertyOp36
 70
     1
102
RTVSPropertyOp37
 70
     1
102
RTVSPropertyOp38
 70
     1
102
RTVSPropertyOp39
 70
     1
102
RTVSPropertyOp40
 70
     1
102
RTVSPropertyOp41
 70
     1
102
RTVSPropertyOp42
 70
     1
102
RTVSPropertyOp43
 70
     1
102
RTVSPropertyOp44
 70
     1
102
RTVSPropertyOp45
 70
     1
102
RTVSPropertyOp46
 70
     1
102
RTVSPropertyOp47
 70
     1
102
RTVSPropertyOp48
 70
     1
102
RTVSPropertyOp49
 70
     1
102
RTVSPropertyOp50
 70
     1
102
RTVSPropertyOp51
 70
     0
102
RTVSPropertyOp52
 70
     0
102
RTVSPropertyOp53
 70
     1
102
RTVSPropertyOp54
 70
     1
102
RTVSPropertyOp55
 70
     1
102
RTVSPropertyOp56
 70
     1
102
RTVSPropertyOp57
 70
     1
102
RTVSPropertyOp58
 70
     1
102
RTVSPropertyOp59
 70
     1
102
RTVSPropertyOp60
 70
     1
102
RTVSPropertyOp61
 70
     1
102
RTVSPropertyOp62
 70
     1
  0
XRECORD
  5
3108
102
{ACAD_REACTORS
330
3107
102
}
330
3107
100
AcDbXrecord
280
     1
102
RTVSPost2010Prop28
280
     0
102
RTVSPost2010PropOp28
 70
     1
102
RTVSPost2010Prop29
280
     1
102
RTVSPost2010PropOp29
 70
     1
102
RTVSPost2010Prop30
280
     1
102
RTVSPost2010PropOp30
 70
     1
102
RTVSPost2010Prop31
280
     0
102
RTVSPost2010PropOp31
 70
     1
102
RTVSPost2010Prop32
280
     0
102
RTVSPost2010PropOp32
 70
     1
102
RTVSPost2010Prop33
280
     0
102
RTVSPost2010PropOp33
 70
     1
102
RTVSPost2010Prop34
280
     0
102
RTVSPost2010PropOp34
 70
     1
102
RTVSPost2010Prop35
280
     0
102
RTVSPost2010PropOp35
 70
     1
102
RTVSPost2010Prop36
280
     0
102
RTVSPost2010PropOp36
 70
     1
102
RTVSPost2010Prop37
 90
       50
102
RTVSPost2010PropOp37
 70
     0
102
RTVSPost2010Prop38
140
0.0
102
RTVSPost2010PropOp38
 70
     0
102
RTVSPost2010Prop39
140
1.0
102
RTVSPost2010PropOp39
 70
     0
102
RTVSPost2010Prop40
 90
        0
102
RTVSPost2010PropOp40
 70
     0
102
RTVSPost2010Prop41ColorIndex
 90
       18
102
RTVSPost2010Prop41ColorRGB
 90
        0
102
RTVSPost2010PropOp41
 70
     0
102
RTVSPost2010Prop42
 90
       50
102
RTVSPost2010PropOp42
 70
     0
102
RTVSPost2010Prop43
 90
        3
102
RTVSPost2010PropOp43
 70
     0
102
RTVSPost2010Prop44ColorIndex
 90
        5
102
RTVSPost2010Prop44ColorRGB
 90
      255
102
RTVSPost2010PropOp44
 70
     0
102
RTVSPost2010Prop45
280
     0
102
RTVSPost2010PropOp45
 70
     1
102
RTVSPost2010Prop46
 90
       50
102
RTVSPost2010PropOp46
 70
     0
102
RTVSPost2010Prop47
 90
       50
102
RTVSPost2010PropOp47
 70
     0
102
RTVSPost2010Prop48
 90
       50
102
RTVSPost2010PropOp48
 70
     0
102
RTVSPost2010Prop49
280
     0
102
RTVSPost2010PropOp49
 70
     1
102
RTVSPost2010Prop50
 90
       50
102
RTVSPost2010PropOp50
 70
     0
102
RTVSPost2010Prop51ColorIndex
 90
      256
102
RTVSPost2010Prop51ColorRGB
 90
-16777216
102
RTVSPost2010PropOp51
 70
     0
102
RTVSPost2010Prop52
140
1.0
102
RTVSPost2010PropOp52
 70
     0
102
RTVSPost2010Prop53
 90
        2
102
RTVSPost2010PropOp53
 70
     0
102
RTVSPost2010Prop54
  1
strokes_ogs.tif
102
RTVSPost2010PropOp54
 70
     0
102
RTVSPost2010Prop55
280
     0
102
RTVSPost2010PropOp55
 70
     1
102
RTVSPost2010Prop56
140
1.0
102
RTVSPost2010PropOp56
 70
     0
102
RTVSPost2010Prop57
140
1.0
102
RTVSPost2010PropOp57
 70
     0
102
RTVSPropertyOp0
 70
     0
102
RTVSPropertyOp1
 70
     0
102
RTVSPropertyOp2
 70
     0
102
RTVSPropertyOp3
 70
     0
102
RTVSPropertyOp4
 70
     0
102
RTVSPropertyOp5
 70
     0
102
RTVSPropertyOp6
 70
     0
102
RTVSPropertyOp7
 70
     0
102
RTVSPropertyOp8
 70
     0
102
RTVSPropertyOp9
 70
     0
102
RTVSPropertyOp10
 70
     0
102
RTVSPropertyOp11
 70
     0
102
RTVSPropertyOp12
 70
     0
102
RTVSPropertyOp13
 70
     0
102
RTVSPropertyOp14
 70
     2
102
RTVSPropertyOp15
 70
     0
102
RTVSPropertyOp16
 70
     0
102
RTVSPropertyOp17
 70
     0
102
RTVSPropertyOp18
 70
     0
102
RTVSPropertyOp19
 70
     0
102
RTVSPropertyOp20
 70
     0
102
RTVSPropertyOp21
 70
     0
102
RTVSPropertyOp22
 70
     0
102
RTVSPropertyOp23
 70
     0
102
RTVSPropertyOp24
 70
     0
102
RTVSPropertyOp25
 70
     0
102
RTVSPropertyOp26
 70
     0
102
RTVSPropertyOp27
 70
     0
102
RTVSPropertyOp28
 70
     1
102
RTVSPropertyOp29
 70
     1
102
RTVSPropertyOp30
 70
     1
102
RTVSPropertyOp31
 70
     1
102
RTVSPropertyOp32
 70
     1
102
RTVSPropertyOp33
 70
     1
102
RTVSPropertyOp34
 70
     1
102
RTVSPropertyOp35
 70
     1
102
RTVSPropertyOp36
 70
     1
102
RTVSPropertyOp37
 70
     0
102
RTVSPropertyOp38
 70
     0
102
RTVSPropertyOp39
 70
     0
102
RTVSPropertyOp40
 70
     0
102
RTVSPropertyOp41
 70
     0
102
RTVSPropertyOp42
 70
     0
102
RTVSPropertyOp43
 70
     0
102
RTVSPropertyOp44
 70
     0
102
RTVSPropertyOp45
 70
     1
102
RTVSPropertyOp46
 70
     0
102
RTVSPropertyOp47
 70
     0
102
RTVSPropertyOp48
 70
     0
102
RTVSPropertyOp49
 70
     1
102
RTVSPropertyOp50
 70
     0
102
RTVSPropertyOp51
 70
     0
102
RTVSPropertyOp52
 70
     0
102
RTVSPropertyOp53
 70
     0
102
RTVSPropertyOp54
 70
     0
102
RTVSPropertyOp55
 70
     1
102
RTVSPropertyOp56
 70
     0
102
RTVSPropertyOp57
 70
     0
102
RTVSPropertyOp58
 70
     0
102
RTVSPropertyOp59
 70
     0
102
RTVSPropertyOp60
 70
     0
102
RTVSPropertyOp61
 70
     0
102
RTVSPropertyOp62
 70
     0
  0
XRECORD
  5
30EE
102
{ACAD_REACTORS
330
30ED
102
}
330
30ED
100
AcDbXrecord
280
     1
102
RTVSPost2010Prop28
280
     0
102
RTVSPost2010PropOp28
 70
     1
102
RTVSPost2010Prop29
280
     1
102
RTVSPost2010PropOp29
 70
     1
102
RTVSPost2010Prop30
280
     1
102
RTVSPost2010PropOp30
 70
     1
102
RTVSPost2010Prop31
280
     0
102
RTVSPost2010PropOp31
 70
     1
102
RTVSPost2010Prop32
280
     0
102
RTVSPost2010PropOp32
 70
     1
102
RTVSPost2010Prop33
280
     0
102
RTVSPost2010PropOp33
 70
     1
102
RTVSPost2010Prop34
280
     0
102
RTVSPost2010PropOp34
 70
     1
102
RTVSPost2010Prop35
280
     0
102
RTVSPost2010PropOp35
 70
     1
102
RTVSPost2010Prop36
280
     0
102
RTVSPost2010PropOp36
 70
     1
102
RTVSPost2010Prop37
 90
       50
102
RTVSPost2010PropOp37
 70
     1
102
RTVSPost2010Prop38
140
0.0
102
RTVSPost2010PropOp38
 70
     1
102
RTVSPost2010Prop39
140
1.0
102
RTVSPost2010PropOp39
 70
     1
102
RTVSPost2010Prop40
 90
        0
102
RTVSPost2010PropOp40
 70
     1
102
RTVSPost2010Prop41ColorIndex
 90
       18
102
RTVSPost2010Prop41ColorRGB
 90
        0
102
RTVSPost2010PropOp41
 70
     1
102
RTVSPost2010Prop42
 90
       50
102
RTVSPost2010PropOp42
 70
     1
102
RTVSPost2010Prop43
 90
        3
102
RTVSPost2010PropOp43
 70
     1
102
RTVSPost2010Prop44ColorIndex
 90
        5
102
RTVSPost2010Prop44ColorRGB
 90
      255
102
RTVSPost2010PropOp44
 70
     1
102
RTVSPost2010Prop45
280
     0
102
RTVSPost2010PropOp45
 70
     1
102
RTVSPost2010Prop46
 90
       50
102
RTVSPost2010PropOp46
 70
     1
102
RTVSPost2010Prop47
 90
       50
102
RTVSPost2010PropOp47
 70
     1
102
RTVSPost2010Prop48
 90
       50
102
RTVSPost2010PropOp48
 70
     1
102
RTVSPost2010Prop49
280
     0
102
RTVSPost2010PropOp49
 70
     1
102
RTVSPost2010Prop50
 90
       50
102
RTVSPost2010PropOp50
 70
     1
102
RTVSPost2010Prop51ColorIndex
 90
      256
102
RTVSPost2010Prop51ColorRGB
 90
-16777216
102
RTVSPost2010PropOp51
 70
     0
102
RTVSPost2010Prop52
140
1.0
102
RTVSPost2010PropOp52
 70
     0
102
RTVSPost2010Prop53
 90
        2
102
RTVSPost2010PropOp53
 70
     1
102
RTVSPost2010Prop54
  1
strokes_ogs.tif
102
RTVSPost2010PropOp54
 70
     1
102
RTVSPost2010Prop55
280
     0
102
RTVSPost2010PropOp55
 70
     1
102
RTVSPost2010Prop56
140
1.0
102
RTVSPost2010PropOp56
 70
     1
102
RTVSPost2010Prop57
140
1.0
102
RTVSPost2010PropOp57
 70
     1
102
RTVSPropertyOp0
 70
     1
102
RTVSPropertyOp1
 70
     1
102
RTVSPropertyOp2
 70
     1
102
RTVSPropertyOp3
 70
     1
102
RTVSPropertyOp4
 70
     1
102
RTVSPropertyOp5
 70
     1
102
RTVSPropertyOp6
 70
     1
102
RTVSPropertyOp7
 70
     1
102
RTVSPropertyOp8
 70
     1
102
RTVSPropertyOp9
 70
     1
102
RTVSPropertyOp10
 70
     1
102
RTVSPropertyOp11
 70
     1
102
RTVSPropertyOp12
 70
     1
102
RTVSPropertyOp13
 70
     1
102
RTVSPropertyOp14
 70
     1
102
RTVSPropertyOp15
 70
     1
102
RTVSPropertyOp16
 70
     1
102
RTVSPropertyOp17
 70
     1
102
RTVSPropertyOp18
 70
     1
102
RTVSPropertyOp19
 70
     1
102
RTVSPropertyOp20
 70
     1
102
RTVSPropertyOp21
 70
     1
102
RTVSPropertyOp22
 70
     1
102
RTVSPropertyOp23
 70
     1
102
RTVSPropertyOp24
 70
     1
102
RTVSPropertyOp25
 70
     1
102
RTVSPropertyOp26
 70
     1
102
RTVSPropertyOp27
 70
     1
102
RTVSPropertyOp28
 70
     1
102
RTVSPropertyOp29
 70
     1
102
RTVSPropertyOp30
 70
     1
102
RTVSPropertyOp31
 70
     1
102
RTVSPropertyOp32
 70
     1
102
RTVSPropertyOp33
 70
     1
102
RTVSPropertyOp34
 70
     1
102
RTVSPropertyOp35
 70
     1
102
RTVSPropertyOp36
 70
     1
102
RTVSPropertyOp37
 70
     1
102
RTVSPropertyOp38
 70
     1
102
RTVSPropertyOp39
 70
     1
102
RTVSPropertyOp40
 70
     1
102
RTVSPropertyOp41
 70
     1
102
RTVSPropertyOp42
 70
     1
102
RTVSPropertyOp43
 70
     1
102
RTVSPropertyOp44
 70
     1
102
RTVSPropertyOp45
 70
     1
102
RTVSPropertyOp46
 70
     1
102
RTVSPropertyOp47
 70
     1
102
RTVSPropertyOp48
 70
     1
102
RTVSPropertyOp49
 70
     1
102
RTVSPropertyOp50
 70
     1
102
RTVSPropertyOp51
 70
     0
102
RTVSPropertyOp52
 70
     0
102
RTVSPropertyOp53
 70
     1
102
RTVSPropertyOp54
 70
     1
102
RTVSPropertyOp55
 70
     1
102
RTVSPropertyOp56
 70
     1
102
RTVSPropertyOp57
 70
     1
102
RTVSPropertyOp58
 70
     1
102
RTVSPropertyOp59
 70
     1
102
RTVSPropertyOp60
 70
     1
102
RTVSPropertyOp61
 70
     1
102
RTVSPropertyOp62
 70
     1
  0
XRECORD
  5
3104
102
{ACAD_REACTORS
330
3103
102
}
330
3103
100
AcDbXrecord
280
     1
102
RTVSPost2010Prop28
280
     0
102
RTVSPost2010PropOp28
 70
     1
102
RTVSPost2010Prop29
280
     1
102
RTVSPost2010PropOp29
 70
     1
102
RTVSPost2010Prop30
280
     1
102
RTVSPost2010PropOp30
 70
     1
102
RTVSPost2010Prop31
280
     0
102
RTVSPost2010PropOp31
 70
     1
102
RTVSPost2010Prop32
280
     0
102
RTVSPost2010PropOp32
 70
     1
102
RTVSPost2010Prop33
280
     0
102
RTVSPost2010PropOp33
 70
     1
102
RTVSPost2010Prop34
280
     0
102
RTVSPost2010PropOp34
 70
     1
102
RTVSPost2010Prop35
280
     0
102
RTVSPost2010PropOp35
 70
     1
102
RTVSPost2010Prop36
280
     0
102
RTVSPost2010PropOp36
 70
     1
102
RTVSPost2010Prop37
 90
       50
102
RTVSPost2010PropOp37
 70
     1
102
RTVSPost2010Prop38
140
0.0
102
RTVSPost2010PropOp38
 70
     1
102
RTVSPost2010Prop39
140
1.0
102
RTVSPost2010PropOp39
 70
     1
102
RTVSPost2010Prop40
 90
        0
102
RTVSPost2010PropOp40
 70
     1
102
RTVSPost2010Prop41ColorIndex
 90
       18
102
RTVSPost2010Prop41ColorRGB
 90
        0
102
RTVSPost2010PropOp41
 70
     1
102
RTVSPost2010Prop42
 90
       50
102
RTVSPost2010PropOp42
 70
     1
102
RTVSPost2010Prop43
 90
        3
102
RTVSPost2010PropOp43
 70
     1
102
RTVSPost2010Prop44ColorIndex
 90
        5
102
RTVSPost2010Prop44ColorRGB
 90
      255
102
RTVSPost2010PropOp44
 70
     1
102
RTVSPost2010Prop45
280
     0
102
RTVSPost2010PropOp45
 70
     1
102
RTVSPost2010Prop46
 90
       50
102
RTVSPost2010PropOp46
 70
     1
102
RTVSPost2010Prop47
 90
       50
102
RTVSPost2010PropOp47
 70
     1
102
RTVSPost2010Prop48
 90
       50
102
RTVSPost2010PropOp48
 70
     1
102
RTVSPost2010Prop49
280
     0
102
RTVSPost2010PropOp49
 70
     1
102
RTVSPost2010Prop50
 90
       50
102
RTVSPost2010PropOp50
 70
     1
102
RTVSPost2010Prop51ColorIndex
 90
      256
102
RTVSPost2010Prop51ColorRGB
 90
-16777216
102
RTVSPost2010PropOp51
 70
     0
102
RTVSPost2010Prop52
140
1.0
102
RTVSPost2010PropOp52
 70
     0
102
RTVSPost2010Prop53
 90
        2
102
RTVSPost2010PropOp53
 70
     1
102
RTVSPost2010Prop54
  1
strokes_ogs.tif
102
RTVSPost2010PropOp54
 70
     1
102
RTVSPost2010Prop55
280
     0
102
RTVSPost2010PropOp55
 70
     1
102
RTVSPost2010Prop56
140
1.0
102
RTVSPost2010PropOp56
 70
     1
102
RTVSPost2010Prop57
140
1.0
102
RTVSPost2010PropOp57
 70
     1
102
RTVSPropertyOp0
 70
     1
102
RTVSPropertyOp1
 70
     1
102
RTVSPropertyOp2
 70
     1
102
RTVSPropertyOp3
 70
     1
102
RTVSPropertyOp4
 70
     1
102
RTVSPropertyOp5
 70
     1
102
RTVSPropertyOp6
 70
     1
102
RTVSPropertyOp7
 70
     1
102
RTVSPropertyOp8
 70
     1
102
RTVSPropertyOp9
 70
     1
102
RTVSPropertyOp10
 70
     1
102
RTVSPropertyOp11
 70
     1
102
RTVSPropertyOp12
 70
     1
102
RTVSPropertyOp13
 70
     1
102
RTVSPropertyOp14
 70
     1
102
RTVSPropertyOp15
 70
     1
102
RTVSPropertyOp16
 70
     1
102
RTVSPropertyOp17
 70
     1
102
RTVSPropertyOp18
 70
     1
102
RTVSPropertyOp19
 70
     1
102
RTVSPropertyOp20
 70
     1
102
RTVSPropertyOp21
 70
     1
102
RTVSPropertyOp22
 70
     1
102
RTVSPropertyOp23
 70
     1
102
RTVSPropertyOp24
 70
     1
102
RTVSPropertyOp25
 70
     1
102
RTVSPropertyOp26
 70
     1
102
RTVSPropertyOp27
 70
     1
102
RTVSPropertyOp28
 70
     1
102
RTVSPropertyOp29
 70
     1
102
RTVSPropertyOp30
 70
     1
102
RTVSPropertyOp31
 70
     1
102
RTVSPropertyOp32
 70
     1
102
RTVSPropertyOp33
 70
     1
102
RTVSPropertyOp34
 70
     1
102
RTVSPropertyOp35
 70
     1
102
RTVSPropertyOp36
 70
     1
102
RTVSPropertyOp37
 70
     1
102
RTVSPropertyOp38
 70
     1
102
RTVSPropertyOp39
 70
     1
102
RTVSPropertyOp40
 70
     1
102
RTVSPropertyOp41
 70
     1
102
RTVSPropertyOp42
 70
     1
102
RTVSPropertyOp43
 70
     1
102
RTVSPropertyOp44
 70
     1
102
RTVSPropertyOp45
 70
     1
102
RTVSPropertyOp46
 70
     1
102
RTVSPropertyOp47
 70
     1
102
RTVSPropertyOp48
 70
     1
102
RTVSPropertyOp49
 70
     1
102
RTVSPropertyOp50
 70
     1
102
RTVSPropertyOp51
 70
     0
102
RTVSPropertyOp52
 70
     0
102
RTVSPropertyOp53
 70
     1
102
RTVSPropertyOp54
 70
     1
102
RTVSPropertyOp55
 70
     1
102
RTVSPropertyOp56
 70
     1
102
RTVSPropertyOp57
 70
     1
102
RTVSPropertyOp58
 70
     1
102
RTVSPropertyOp59
 70
     1
102
RTVSPropertyOp60
 70
     1
102
RTVSPropertyOp61
 70
     1
102
RTVSPropertyOp62
 70
     1
  0
XRECORD
  5
3102
102
{ACAD_REACTORS
330
3101
102
}
330
3101
100
AcDbXrecord
280
     1
102
RTVSPost2010Prop28
280
     0
102
RTVSPost2010PropOp28
 70
     1
102
RTVSPost2010Prop29
280
     1
102
RTVSPost2010PropOp29
 70
     1
102
RTVSPost2010Prop30
280
     1
102
RTVSPost2010PropOp30
 70
     1
102
RTVSPost2010Prop31
280
     0
102
RTVSPost2010PropOp31
 70
     1
102
RTVSPost2010Prop32
280
     0
102
RTVSPost2010PropOp32
 70
     1
102
RTVSPost2010Prop33
280
     0
102
RTVSPost2010PropOp33
 70
     1
102
RTVSPost2010Prop34
280
     0
102
RTVSPost2010PropOp34
 70
     1
102
RTVSPost2010Prop35
280
     0
102
RTVSPost2010PropOp35
 70
     1
102
RTVSPost2010Prop36
280
     0
102
RTVSPost2010PropOp36
 70
     1
102
RTVSPost2010Prop37
 90
       50
102
RTVSPost2010PropOp37
 70
     1
102
RTVSPost2010Prop38
140
0.0
102
RTVSPost2010PropOp38
 70
     1
102
RTVSPost2010Prop39
140
1.0
102
RTVSPost2010PropOp39
 70
     1
102
RTVSPost2010Prop40
 90
        0
102
RTVSPost2010PropOp40
 70
     1
102
RTVSPost2010Prop41ColorIndex
 90
       18
102
RTVSPost2010Prop41ColorRGB
 90
        0
102
RTVSPost2010PropOp41
 70
     1
102
RTVSPost2010Prop42
 90
       50
102
RTVSPost2010PropOp42
 70
     1
102
RTVSPost2010Prop43
 90
        3
102
RTVSPost2010PropOp43
 70
     1
102
RTVSPost2010Prop44ColorIndex
 90
        5
102
RTVSPost2010Prop44ColorRGB
 90
      255
102
RTVSPost2010PropOp44
 70
     1
102
RTVSPost2010Prop45
280
     0
102
RTVSPost2010PropOp45
 70
     1
102
RTVSPost2010Prop46
 90
       50
102
RTVSPost2010PropOp46
 70
     1
102
RTVSPost2010Prop47
 90
       50
102
RTVSPost2010PropOp47
 70
     1
102
RTVSPost2010Prop48
 90
       50
102
RTVSPost2010PropOp48
 70
     1
102
RTVSPost2010Prop49
280
     0
102
RTVSPost2010PropOp49
 70
     1
102
RTVSPost2010Prop50
 90
       50
102
RTVSPost2010PropOp50
 70
     1
102
RTVSPost2010Prop51ColorIndex
 90
      256
102
RTVSPost2010Prop51ColorRGB
 90
-16777216
102
RTVSPost2010PropOp51
 70
     0
102
RTVSPost2010Prop52
140
1.0
102
RTVSPost2010PropOp52
 70
     0
102
RTVSPost2010Prop53
 90
        2
102
RTVSPost2010PropOp53
 70
     1
102
RTVSPost2010Prop54
  1
strokes_ogs.tif
102
RTVSPost2010PropOp54
 70
     1
102
RTVSPost2010Prop55
280
     0
102
RTVSPost2010PropOp55
 70
     1
102
RTVSPost2010Prop56
140
1.0
102
RTVSPost2010PropOp56
 70
     1
102
RTVSPost2010Prop57
140
1.0
102
RTVSPost2010PropOp57
 70
     1
102
RTVSPropertyOp0
 70
     1
102
RTVSPropertyOp1
 70
     1
102
RTVSPropertyOp2
 70
     1
102
RTVSPropertyOp3
 70
     1
102
RTVSPropertyOp4
 70
     1
102
RTVSPropertyOp5
 70
     1
102
RTVSPropertyOp6
 70
     1
102
RTVSPropertyOp7
 70
     1
102
RTVSPropertyOp8
 70
     1
102
RTVSPropertyOp9
 70
     1
102
RTVSPropertyOp10
 70
     1
102
RTVSPropertyOp11
 70
     1
102
RTVSPropertyOp12
 70
     1
102
RTVSPropertyOp13
 70
     1
102
RTVSPropertyOp14
 70
     1
102
RTVSPropertyOp15
 70
     1
102
RTVSPropertyOp16
 70
     1
102
RTVSPropertyOp17
 70
     1
102
RTVSPropertyOp18
 70
     1
102
RTVSPropertyOp19
 70
     1
102
RTVSPropertyOp20
 70
     1
102
RTVSPropertyOp21
 70
     1
102
RTVSPropertyOp22
 70
     1
102
RTVSPropertyOp23
 70
     1
102
RTVSPropertyOp24
 70
     1
102
RTVSPropertyOp25
 70
     1
102
RTVSPropertyOp26
 70
     1
102
RTVSPropertyOp27
 70
     1
102
RTVSPropertyOp28
 70
     1
102
RTVSPropertyOp29
 70
     1
102
RTVSPropertyOp30
 70
     1
102
RTVSPropertyOp31
 70
     1
102
RTVSPropertyOp32
 70
     1
102
RTVSPropertyOp33
 70
     1
102
RTVSPropertyOp34
 70
     1
102
RTVSPropertyOp35
 70
     1
102
RTVSPropertyOp36
 70
     1
102
RTVSPropertyOp37
 70
     1
102
RTVSPropertyOp38
 70
     1
102
RTVSPropertyOp39
 70
     1
102
RTVSPropertyOp40
 70
     1
102
RTVSPropertyOp41
 70
     1
102
RTVSPropertyOp42
 70
     1
102
RTVSPropertyOp43
 70
     1
102
RTVSPropertyOp44
 70
     1
102
RTVSPropertyOp45
 70
     1
102
RTVSPropertyOp46
 70
     1
102
RTVSPropertyOp47
 70
     1
102
RTVSPropertyOp48
 70
     1
102
RTVSPropertyOp49
 70
     1
102
RTVSPropertyOp50
 70
     1
102
RTVSPropertyOp51
 70
     0
102
RTVSPropertyOp52
 70
     0
102
RTVSPropertyOp53
 70
     1
102
RTVSPropertyOp54
 70
     1
102
RTVSPropertyOp55
 70
     1
102
RTVSPropertyOp56
 70
     1
102
RTVSPropertyOp57
 70
     1
102
RTVSPropertyOp58
 70
     1
102
RTVSPropertyOp59
 70
     1
102
RTVSPropertyOp60
 70
     1
102
RTVSPropertyOp61
 70
     1
102
RTVSPropertyOp62
 70
     1
  0
XRECORD
  5
30FC
102
{ACAD_REACTORS
330
30FB
102
}
330
30FB
100
AcDbXrecord
280
     1
102
RTVSPost2010Prop28
280
     0
102
RTVSPost2010PropOp28
 70
     1
102
RTVSPost2010Prop29
280
     1
102
RTVSPost2010PropOp29
 70
     1
102
RTVSPost2010Prop30
280
     1
102
RTVSPost2010PropOp30
 70
     1
102
RTVSPost2010Prop31
280
     0
102
RTVSPost2010PropOp31
 70
     1
102
RTVSPost2010Prop32
280
     0
102
RTVSPost2010PropOp32
 70
     1
102
RTVSPost2010Prop33
280
     0
102
RTVSPost2010PropOp33
 70
     1
102
RTVSPost2010Prop34
280
     0
102
RTVSPost2010PropOp34
 70
     1
102
RTVSPost2010Prop35
280
     0
102
RTVSPost2010PropOp35
 70
     1
102
RTVSPost2010Prop36
280
     0
102
RTVSPost2010PropOp36
 70
     1
102
RTVSPost2010Prop37
 90
       50
102
RTVSPost2010PropOp37
 70
     1
102
RTVSPost2010Prop38
140
0.0
102
RTVSPost2010PropOp38
 70
     1
102
RTVSPost2010Prop39
140
1.0
102
RTVSPost2010PropOp39
 70
     1
102
RTVSPost2010Prop40
 90
        0
102
RTVSPost2010PropOp40
 70
     1
102
RTVSPost2010Prop41ColorIndex
 90
       18
102
RTVSPost2010Prop41ColorRGB
 90
        0
102
RTVSPost2010PropOp41
 70
     1
102
RTVSPost2010Prop42
 90
       50
102
RTVSPost2010PropOp42
 70
     1
102
RTVSPost2010Prop43
 90
        3
102
RTVSPost2010PropOp43
 70
     1
102
RTVSPost2010Prop44ColorIndex
 90
        5
102
RTVSPost2010Prop44ColorRGB
 90
      255
102
RTVSPost2010PropOp44
 70
     1
102
RTVSPost2010Prop45
280
     0
102
RTVSPost2010PropOp45
 70
     1
102
RTVSPost2010Prop46
 90
       50
102
RTVSPost2010PropOp46
 70
     1
102
RTVSPost2010Prop47
 90
       50
102
RTVSPost2010PropOp47
 70
     1
102
RTVSPost2010Prop48
 90
       50
102
RTVSPost2010PropOp48
 70
     1
102
RTVSPost2010Prop49
280
     0
102
RTVSPost2010PropOp49
 70
     1
102
RTVSPost2010Prop50
 90
       50
102
RTVSPost2010PropOp50
 70
     1
102
RTVSPost2010Prop51ColorIndex
 90
      256
102
RTVSPost2010Prop51ColorRGB
 90
-16777216
102
RTVSPost2010PropOp51
 70
     0
102
RTVSPost2010Prop52
140
1.0
102
RTVSPost2010PropOp52
 70
     0
102
RTVSPost2010Prop53
 90
        2
102
RTVSPost2010PropOp53
 70
     1
102
RTVSPost2010Prop54
  1
strokes_ogs.tif
102
RTVSPost2010PropOp54
 70
     1
102
RTVSPost2010Prop55
280
     0
102
RTVSPost2010PropOp55
 70
     1
102
RTVSPost2010Prop56
140
1.0
102
RTVSPost2010PropOp56
 70
     1
102
RTVSPost2010Prop57
140
1.0
102
RTVSPost2010PropOp57
 70
     1
102
RTVSPropertyOp0
 70
     1
102
RTVSPropertyOp1
 70
     1
102
RTVSPropertyOp2
 70
     1
102
RTVSPropertyOp3
 70
     1
102
RTVSPropertyOp4
 70
     1
102
RTVSPropertyOp5
 70
     1
102
RTVSPropertyOp6
 70
     1
102
RTVSPropertyOp7
 70
     1
102
RTVSPropertyOp8
 70
     1
102
RTVSPropertyOp9
 70
     1
102
RTVSPropertyOp10
 70
     1
102
RTVSPropertyOp11
 70
     1
102
RTVSPropertyOp12
 70
     1
102
RTVSPropertyOp13
 70
     1
102
RTVSPropertyOp14
 70
     1
102
RTVSPropertyOp15
 70
     1
102
RTVSPropertyOp16
 70
     1
102
RTVSPropertyOp17
 70
     1
102
RTVSPropertyOp18
 70
     1
102
RTVSPropertyOp19
 70
     1
102
RTVSPropertyOp20
 70
     1
102
RTVSPropertyOp21
 70
     1
102
RTVSPropertyOp22
 70
     1
102
RTVSPropertyOp23
 70
     1
102
RTVSPropertyOp24
 70
     1
102
RTVSPropertyOp25
 70
     1
102
RTVSPropertyOp26
 70
     1
102
RTVSPropertyOp27
 70
     1
102
RTVSPropertyOp28
 70
     1
102
RTVSPropertyOp29
 70
     1
102
RTVSPropertyOp30
 70
     1
102
RTVSPropertyOp31
 70
     1
102
RTVSPropertyOp32
 70
     1
102
RTVSPropertyOp33
 70
     1
102
RTVSPropertyOp34
 70
     1
102
RTVSPropertyOp35
 70
     1
102
RTVSPropertyOp36
 70
     1
102
RTVSPropertyOp37
 70
     1
102
RTVSPropertyOp38
 70
     1
102
RTVSPropertyOp39
 70
     1
102
RTVSPropertyOp40
 70
     1
102
RTVSPropertyOp41
 70
     1
102
RTVSPropertyOp42
 70
     1
102
RTVSPropertyOp43
 70
     1
102
RTVSPropertyOp44
 70
     1
102
RTVSPropertyOp45
 70
     1
102
RTVSPropertyOp46
 70
     1
102
RTVSPropertyOp47
 70
     1
102
RTVSPropertyOp48
 70
     1
102
RTVSPropertyOp49
 70
     1
102
RTVSPropertyOp50
 70
     1
102
RTVSPropertyOp51
 70
     0
102
RTVSPropertyOp52
 70
     0
102
RTVSPropertyOp53
 70
     1
102
RTVSPropertyOp54
 70
     1
102
RTVSPropertyOp55
 70
     1
102
RTVSPropertyOp56
 70
     1
102
RTVSPropertyOp57
 70
     1
102
RTVSPropertyOp58
 70
     1
102
RTVSPropertyOp59
 70
     1
102
RTVSPropertyOp60
 70
     1
102
RTVSPropertyOp61
 70
     1
102
RTVSPropertyOp62
 70
     1
  0
XRECORD
  5
30FE
102
{ACAD_REACTORS
330
30FD
102
}
330
30FD
100
AcDbXrecord
280
     1
102
RTVSPost2010Prop28
280
     0
102
RTVSPost2010PropOp28
 70
     1
102
RTVSPost2010Prop29
280
     1
102
RTVSPost2010PropOp29
 70
     1
102
RTVSPost2010Prop30
280
     1
102
RTVSPost2010PropOp30
 70
     1
102
RTVSPost2010Prop31
280
     0
102
RTVSPost2010PropOp31
 70
     1
102
RTVSPost2010Prop32
280
     0
102
RTVSPost2010PropOp32
 70
     1
102
RTVSPost2010Prop33
280
     0
102
RTVSPost2010PropOp33
 70
     1
102
RTVSPost2010Prop34
280
     0
102
RTVSPost2010PropOp34
 70
     1
102
RTVSPost2010Prop35
280
     0
102
RTVSPost2010PropOp35
 70
     1
102
RTVSPost2010Prop36
280
     0
102
RTVSPost2010PropOp36
 70
     1
102
RTVSPost2010Prop37
 90
       50
102
RTVSPost2010PropOp37
 70
     1
102
RTVSPost2010Prop38
140
0.0
102
RTVSPost2010PropOp38
 70
     1
102
RTVSPost2010Prop39
140
1.0
102
RTVSPost2010PropOp39
 70
     1
102
RTVSPost2010Prop40
 90
        0
102
RTVSPost2010PropOp40
 70
     1
102
RTVSPost2010Prop41ColorIndex
 90
       18
102
RTVSPost2010Prop41ColorRGB
 90
        0
102
RTVSPost2010PropOp41
 70
     1
102
RTVSPost2010Prop42
 90
       50
102
RTVSPost2010PropOp42
 70
     1
102
RTVSPost2010Prop43
 90
        3
102
RTVSPost2010PropOp43
 70
     1
102
RTVSPost2010Prop44ColorIndex
 90
        5
102
RTVSPost2010Prop44ColorRGB
 90
      255
102
RTVSPost2010PropOp44
 70
     1
102
RTVSPost2010Prop45
280
     0
102
RTVSPost2010PropOp45
 70
     1
102
RTVSPost2010Prop46
 90
       50
102
RTVSPost2010PropOp46
 70
     1
102
RTVSPost2010Prop47
 90
       50
102
RTVSPost2010PropOp47
 70
     1
102
RTVSPost2010Prop48
 90
       50
102
RTVSPost2010PropOp48
 70
     1
102
RTVSPost2010Prop49
280
     0
102
RTVSPost2010PropOp49
 70
     1
102
RTVSPost2010Prop50
 90
       50
102
RTVSPost2010PropOp50
 70
     1
102
RTVSPost2010Prop51ColorIndex
 90
      256
102
RTVSPost2010Prop51ColorRGB
 90
-16777216
102
RTVSPost2010PropOp51
 70
     0
102
RTVSPost2010Prop52
140
1.0
102
RTVSPost2010PropOp52
 70
     0
102
RTVSPost2010Prop53
 90
        2
102
RTVSPost2010PropOp53
 70
     1
102
RTVSPost2010Prop54
  1
strokes_ogs.tif
102
RTVSPost2010PropOp54
 70
     1
102
RTVSPost2010Prop55
280
     0
102
RTVSPost2010PropOp55
 70
     1
102
RTVSPost2010Prop56
140
1.0
102
RTVSPost2010PropOp56
 70
     1
102
RTVSPost2010Prop57
140
1.0
102
RTVSPost2010PropOp57
 70
     1
102
RTVSPropertyOp0
 70
     1
102
RTVSPropertyOp1
 70
     1
102
RTVSPropertyOp2
 70
     1
102
RTVSPropertyOp3
 70
     1
102
RTVSPropertyOp4
 70
     1
102
RTVSPropertyOp5
 70
     1
102
RTVSPropertyOp6
 70
     1
102
RTVSPropertyOp7
 70
     1
102
RTVSPropertyOp8
 70
     1
102
RTVSPropertyOp9
 70
     1
102
RTVSPropertyOp10
 70
     1
102
RTVSPropertyOp11
 70
     1
102
RTVSPropertyOp12
 70
     1
102
RTVSPropertyOp13
 70
     1
102
RTVSPropertyOp14
 70
     1
102
RTVSPropertyOp15
 70
     1
102
RTVSPropertyOp16
 70
     1
102
RTVSPropertyOp17
 70
     1
102
RTVSPropertyOp18
 70
     1
102
RTVSPropertyOp19
 70
     1
102
RTVSPropertyOp20
 70
     1
102
RTVSPropertyOp21
 70
     1
102
RTVSPropertyOp22
 70
     1
102
RTVSPropertyOp23
 70
     1
102
RTVSPropertyOp24
 70
     1
102
RTVSPropertyOp25
 70
     1
102
RTVSPropertyOp26
 70
     1
102
RTVSPropertyOp27
 70
     1
102
RTVSPropertyOp28
 70
     1
102
RTVSPropertyOp29
 70
     1
102
RTVSPropertyOp30
 70
     1
102
RTVSPropertyOp31
 70
     1
102
RTVSPropertyOp32
 70
     1
102
RTVSPropertyOp33
 70
     1
102
RTVSPropertyOp34
 70
     1
102
RTVSPropertyOp35
 70
     1
102
RTVSPropertyOp36
 70
     1
102
RTVSPropertyOp37
 70
     1
102
RTVSPropertyOp38
 70
     1
102
RTVSPropertyOp39
 70
     1
102
RTVSPropertyOp40
 70
     1
102
RTVSPropertyOp41
 70
     1
102
RTVSPropertyOp42
 70
     1
102
RTVSPropertyOp43
 70
     1
102
RTVSPropertyOp44
 70
     1
102
RTVSPropertyOp45
 70
     1
102
RTVSPropertyOp46
 70
     1
102
RTVSPropertyOp47
 70
     1
102
RTVSPropertyOp48
 70
     1
102
RTVSPropertyOp49
 70
     1
102
RTVSPropertyOp50
 70
     1
102
RTVSPropertyOp51
 70
     0
102
RTVSPropertyOp52
 70
     0
102
RTVSPropertyOp53
 70
     1
102
RTVSPropertyOp54
 70
     1
102
RTVSPropertyOp55
 70
     1
102
RTVSPropertyOp56
 70
     1
102
RTVSPropertyOp57
 70
     1
102
RTVSPropertyOp58
 70
     1
102
RTVSPropertyOp59
 70
     1
102
RTVSPropertyOp60
 70
     1
102
RTVSPropertyOp61
 70
     1
102
RTVSPropertyOp62
 70
     1
  0
XRECORD
  5
30F4
102
{ACAD_REACTORS
330
30F3
102
}
330
30F3
100
AcDbXrecord
280
     1
102
RTVSPost2010Prop28
280
     0
102
RTVSPost2010PropOp28
 70
     1
102
RTVSPost2010Prop29
280
     1
102
RTVSPost2010PropOp29
 70
     1
102
RTVSPost2010Prop30
280
     1
102
RTVSPost2010PropOp30
 70
     1
102
RTVSPost2010Prop31
280
     0
102
RTVSPost2010PropOp31
 70
     1
102
RTVSPost2010Prop32
280
     0
102
RTVSPost2010PropOp32
 70
     1
102
RTVSPost2010Prop33
280
     0
102
RTVSPost2010PropOp33
 70
     1
102
RTVSPost2010Prop34
280
     0
102
RTVSPost2010PropOp34
 70
     1
102
RTVSPost2010Prop35
280
     0
102
RTVSPost2010PropOp35
 70
     1
102
RTVSPost2010Prop36
280
     0
102
RTVSPost2010PropOp36
 70
     1
102
RTVSPost2010Prop37
 90
       50
102
RTVSPost2010PropOp37
 70
     1
102
RTVSPost2010Prop38
140
0.0
102
RTVSPost2010PropOp38
 70
     1
102
RTVSPost2010Prop39
140
1.0
102
RTVSPost2010PropOp39
 70
     1
102
RTVSPost2010Prop40
 90
        0
102
RTVSPost2010PropOp40
 70
     1
102
RTVSPost2010Prop41ColorIndex
 90
       18
102
RTVSPost2010Prop41ColorRGB
 90
        0
102
RTVSPost2010PropOp41
 70
     1
102
RTVSPost2010Prop42
 90
       50
102
RTVSPost2010PropOp42
 70
     1
102
RTVSPost2010Prop43
 90
        3
102
RTVSPost2010PropOp43
 70
     1
102
RTVSPost2010Prop44ColorIndex
 90
        5
102
RTVSPost2010Prop44ColorRGB
 90
      255
102
RTVSPost2010PropOp44
 70
     1
102
RTVSPost2010Prop45
280
     0
102
RTVSPost2010PropOp45
 70
     1
102
RTVSPost2010Prop46
 90
       50
102
RTVSPost2010PropOp46
 70
     1
102
RTVSPost2010Prop47
 90
       50
102
RTVSPost2010PropOp47
 70
     1
102
RTVSPost2010Prop48
 90
       50
102
RTVSPost2010PropOp48
 70
     1
102
RTVSPost2010Prop49
280
     0
102
RTVSPost2010PropOp49
 70
     1
102
RTVSPost2010Prop50
 90
       50
102
RTVSPost2010PropOp50
 70
     1
102
RTVSPost2010Prop51ColorIndex
 90
      256
102
RTVSPost2010Prop51ColorRGB
 90
-16777216
102
RTVSPost2010PropOp51
 70
     0
102
RTVSPost2010Prop52
140
1.0
102
RTVSPost2010PropOp52
 70
     0
102
RTVSPost2010Prop53
 90
        2
102
RTVSPost2010PropOp53
 70
     1
102
RTVSPost2010Prop54
  1
strokes_ogs.tif
102
RTVSPost2010PropOp54
 70
     1
102
RTVSPost2010Prop55
280
     0
102
RTVSPost2010PropOp55
 70
     1
102
RTVSPost2010Prop56
140
1.0
102
RTVSPost2010PropOp56
 70
     1
102
RTVSPost2010Prop57
140
1.0
102
RTVSPost2010PropOp57
 70
     1
102
RTVSPropertyOp0
 70
     1
102
RTVSPropertyOp1
 70
     1
102
RTVSPropertyOp2
 70
     1
102
RTVSPropertyOp3
 70
     1
102
RTVSPropertyOp4
 70
     1
102
RTVSPropertyOp5
 70
     1
102
RTVSPropertyOp6
 70
     1
102
RTVSPropertyOp7
 70
     1
102
RTVSPropertyOp8
 70
     1
102
RTVSPropertyOp9
 70
     1
102
RTVSPropertyOp10
 70
     1
102
RTVSPropertyOp11
 70
     1
102
RTVSPropertyOp12
 70
     1
102
RTVSPropertyOp13
 70
     1
102
RTVSPropertyOp14
 70
     1
102
RTVSPropertyOp15
 70
     1
102
RTVSPropertyOp16
 70
     1
102
RTVSPropertyOp17
 70
     1
102
RTVSPropertyOp18
 70
     1
102
RTVSPropertyOp19
 70
     1
102
RTVSPropertyOp20
 70
     1
102
RTVSPropertyOp21
 70
     1
102
RTVSPropertyOp22
 70
     1
102
RTVSPropertyOp23
 70
     1
102
RTVSPropertyOp24
 70
     1
102
RTVSPropertyOp25
 70
     1
102
RTVSPropertyOp26
 70
     1
102
RTVSPropertyOp27
 70
     1
102
RTVSPropertyOp28
 70
     1
102
RTVSPropertyOp29
 70
     1
102
RTVSPropertyOp30
 70
     1
102
RTVSPropertyOp31
 70
     1
102
RTVSPropertyOp32
 70
     1
102
RTVSPropertyOp33
 70
     1
102
RTVSPropertyOp34
 70
     1
102
RTVSPropertyOp35
 70
     1
102
RTVSPropertyOp36
 70
     1
102
RTVSPropertyOp37
 70
     1
102
RTVSPropertyOp38
 70
     1
102
RTVSPropertyOp39
 70
     1
102
RTVSPropertyOp40
 70
     1
102
RTVSPropertyOp41
 70
     1
102
RTVSPropertyOp42
 70
     1
102
RTVSPropertyOp43
 70
     1
102
RTVSPropertyOp44
 70
     1
102
RTVSPropertyOp45
 70
     1
102
RTVSPropertyOp46
 70
     1
102
RTVSPropertyOp47
 70
     1
102
RTVSPropertyOp48
 70
     1
102
RTVSPropertyOp49
 70
     1
102
RTVSPropertyOp50
 70
     1
102
RTVSPropertyOp51
 70
     0
102
RTVSPropertyOp52
 70
     0
102
RTVSPropertyOp53
 70
     1
102
RTVSPropertyOp54
 70
     1
102
RTVSPropertyOp55
 70
     1
102
RTVSPropertyOp56
 70
     1
102
RTVSPropertyOp57
 70
     1
102
RTVSPropertyOp58
 70
     1
102
RTVSPropertyOp59
 70
     1
102
RTVSPropertyOp60
 70
     1
102
RTVSPropertyOp61
 70
     1
102
RTVSPropertyOp62
 70
     1
  0
XRECORD
  5
30E8
102
{ACAD_REACTORS
330
30E7
102
}
330
30E7
100
AcDbXrecord
280
     1
102
RTVSPost2010Prop28
280
     0
102
RTVSPost2010PropOp28
 70
     1
102
RTVSPost2010Prop29
280
     1
102
RTVSPost2010PropOp29
 70
     1
102
RTVSPost2010Prop30
280
     1
102
RTVSPost2010PropOp30
 70
     1
102
RTVSPost2010Prop31
280
     0
102
RTVSPost2010PropOp31
 70
     1
102
RTVSPost2010Prop32
280
     0
102
RTVSPost2010PropOp32
 70
     1
102
RTVSPost2010Prop33
280
     0
102
RTVSPost2010PropOp33
 70
     1
102
RTVSPost2010Prop34
280
     0
102
RTVSPost2010PropOp34
 70
     1
102
RTVSPost2010Prop35
280
     0
102
RTVSPost2010PropOp35
 70
     1
102
RTVSPost2010Prop36
280
     0
102
RTVSPost2010PropOp36
 70
     1
102
RTVSPost2010Prop37
 90
       50
102
RTVSPost2010PropOp37
 70
     1
102
RTVSPost2010Prop38
140
0.0
102
RTVSPost2010PropOp38
 70
     1
102
RTVSPost2010Prop39
140
1.0
102
RTVSPost2010PropOp39
 70
     1
102
RTVSPost2010Prop40
 90
        0
102
RTVSPost2010PropOp40
 70
     1
102
RTVSPost2010Prop41ColorIndex
 90
       18
102
RTVSPost2010Prop41ColorRGB
 90
        0
102
RTVSPost2010PropOp41
 70
     1
102
RTVSPost2010Prop42
 90
       50
102
RTVSPost2010PropOp42
 70
     1
102
RTVSPost2010Prop43
 90
        3
102
RTVSPost2010PropOp43
 70
     1
102
RTVSPost2010Prop44ColorIndex
 90
        5
102
RTVSPost2010Prop44ColorRGB
 90
      255
102
RTVSPost2010PropOp44
 70
     1
102
RTVSPost2010Prop45
280
     0
102
RTVSPost2010PropOp45
 70
     1
102
RTVSPost2010Prop46
 90
       50
102
RTVSPost2010PropOp46
 70
     1
102
RTVSPost2010Prop47
 90
       50
102
RTVSPost2010PropOp47
 70
     1
102
RTVSPost2010Prop48
 90
       50
102
RTVSPost2010PropOp48
 70
     1
102
RTVSPost2010Prop49
280
     0
102
RTVSPost2010PropOp49
 70
     1
102
RTVSPost2010Prop50
 90
       50
102
RTVSPost2010PropOp50
 70
     1
102
RTVSPost2010Prop51ColorIndex
 90
      256
102
RTVSPost2010Prop51ColorRGB
 90
-16777216
102
RTVSPost2010PropOp51
 70
     0
102
RTVSPost2010Prop52
140
1.0
102
RTVSPost2010PropOp52
 70
     0
102
RTVSPost2010Prop53
 90
        2
102
RTVSPost2010PropOp53
 70
     1
102
RTVSPost2010Prop54
  1
strokes_ogs.tif
102
RTVSPost2010PropOp54
 70
     1
102
RTVSPost2010Prop55
280
     0
102
RTVSPost2010PropOp55
 70
     1
102
RTVSPost2010Prop56
140
1.0
102
RTVSPost2010PropOp56
 70
     1
102
RTVSPost2010Prop57
140
1.0
102
RTVSPost2010PropOp57
 70
     1
102
RTVSPropertyOp0
 70
     1
102
RTVSPropertyOp1
 70
     1
102
RTVSPropertyOp2
 70
     1
102
RTVSPropertyOp3
 70
     1
102
RTVSPropertyOp4
 70
     1
102
RTVSPropertyOp5
 70
     1
102
RTVSPropertyOp6
 70
     1
102
RTVSPropertyOp7
 70
     1
102
RTVSPropertyOp8
 70
     1
102
RTVSPropertyOp9
 70
     1
102
RTVSPropertyOp10
 70
     1
102
RTVSPropertyOp11
 70
     1
102
RTVSPropertyOp12
 70
     1
102
RTVSPropertyOp13
 70
     1
102
RTVSPropertyOp14
 70
     1
102
RTVSPropertyOp15
 70
     1
102
RTVSPropertyOp16
 70
     1
102
RTVSPropertyOp17
 70
     1
102
RTVSPropertyOp18
 70
     1
102
RTVSPropertyOp19
 70
     1
102
RTVSPropertyOp20
 70
     1
102
RTVSPropertyOp21
 70
     1
102
RTVSPropertyOp22
 70
     1
102
RTVSPropertyOp23
 70
     1
102
RTVSPropertyOp24
 70
     1
102
RTVSPropertyOp25
 70
     1
102
RTVSPropertyOp26
 70
     1
102
RTVSPropertyOp27
 70
     1
102
RTVSPropertyOp28
 70
     1
102
RTVSPropertyOp29
 70
     1
102
RTVSPropertyOp30
 70
     1
102
RTVSPropertyOp31
 70
     1
102
RTVSPropertyOp32
 70
     1
102
RTVSPropertyOp33
 70
     1
102
RTVSPropertyOp34
 70
     1
102
RTVSPropertyOp35
 70
     1
102
RTVSPropertyOp36
 70
     1
102
RTVSPropertyOp37
 70
     1
102
RTVSPropertyOp38
 70
     1
102
RTVSPropertyOp39
 70
     1
102
RTVSPropertyOp40
 70
     1
102
RTVSPropertyOp41
 70
     1
102
RTVSPropertyOp42
 70
     1
102
RTVSPropertyOp43
 70
     1
102
RTVSPropertyOp44
 70
     1
102
RTVSPropertyOp45
 70
     1
102
RTVSPropertyOp46
 70
     1
102
RTVSPropertyOp47
 70
     1
102
RTVSPropertyOp48
 70
     1
102
RTVSPropertyOp49
 70
     1
102
RTVSPropertyOp50
 70
     1
102
RTVSPropertyOp51
 70
     0
102
RTVSPropertyOp52
 70
     0
102
RTVSPropertyOp53
 70
     1
102
RTVSPropertyOp54
 70
     1
102
RTVSPropertyOp55
 70
     1
102
RTVSPropertyOp56
 70
     1
102
RTVSPropertyOp57
 70
     1
102
RTVSPropertyOp58
 70
     1
102
RTVSPropertyOp59
 70
     1
102
RTVSPropertyOp60
 70
     1
102
RTVSPropertyOp61
 70
     1
102
RTVSPropertyOp62
 70
     1
  0
XRECORD
  5
3100
102
{ACAD_REACTORS
330
30FF
102
}
330
30FF
100
AcDbXrecord
280
     1
102
RTVSPost2010Prop28
280
     0
102
RTVSPost2010PropOp28
 70
     1
102
RTVSPost2010Prop29
280
     1
102
RTVSPost2010PropOp29
 70
     1
102
RTVSPost2010Prop30
280
     1
102
RTVSPost2010PropOp30
 70
     1
102
RTVSPost2010Prop31
280
     0
102
RTVSPost2010PropOp31
 70
     1
102
RTVSPost2010Prop32
280
     0
102
RTVSPost2010PropOp32
 70
     1
102
RTVSPost2010Prop33
280
     0
102
RTVSPost2010PropOp33
 70
     1
102
RTVSPost2010Prop34
280
     0
102
RTVSPost2010PropOp34
 70
     1
102
RTVSPost2010Prop35
280
     0
102
RTVSPost2010PropOp35
 70
     1
102
RTVSPost2010Prop36
280
     0
102
RTVSPost2010PropOp36
 70
     1
102
RTVSPost2010Prop37
 90
       50
102
RTVSPost2010PropOp37
 70
     1
102
RTVSPost2010Prop38
140
0.0
102
RTVSPost2010PropOp38
 70
     1
102
RTVSPost2010Prop39
140
1.0
102
RTVSPost2010PropOp39
 70
     1
102
RTVSPost2010Prop40
 90
        0
102
RTVSPost2010PropOp40
 70
     1
102
RTVSPost2010Prop41ColorIndex
 90
       18
102
RTVSPost2010Prop41ColorRGB
 90
        0
102
RTVSPost2010PropOp41
 70
     1
102
RTVSPost2010Prop42
 90
       50
102
RTVSPost2010PropOp42
 70
     1
102
RTVSPost2010Prop43
 90
        3
102
RTVSPost2010PropOp43
 70
     1
102
RTVSPost2010Prop44ColorIndex
 90
        5
102
RTVSPost2010Prop44ColorRGB
 90
      255
102
RTVSPost2010PropOp44
 70
     1
102
RTVSPost2010Prop45
280
     0
102
RTVSPost2010PropOp45
 70
     1
102
RTVSPost2010Prop46
 90
       50
102
RTVSPost2010PropOp46
 70
     1
102
RTVSPost2010Prop47
 90
       50
102
RTVSPost2010PropOp47
 70
     1
102
RTVSPost2010Prop48
 90
       50
102
RTVSPost2010PropOp48
 70
     1
102
RTVSPost2010Prop49
280
     0
102
RTVSPost2010PropOp49
 70
     1
102
RTVSPost2010Prop50
 90
       50
102
RTVSPost2010PropOp50
 70
     1
102
RTVSPost2010Prop51ColorIndex
 90
      256
102
RTVSPost2010Prop51ColorRGB
 90
-16777216
102
RTVSPost2010PropOp51
 70
     0
102
RTVSPost2010Prop52
140
1.0
102
RTVSPost2010PropOp52
 70
     0
102
RTVSPost2010Prop53
 90
        2
102
RTVSPost2010PropOp53
 70
     1
102
RTVSPost2010Prop54
  1
strokes_ogs.tif
102
RTVSPost2010PropOp54
 70
     1
102
RTVSPost2010Prop55
280
     0
102
RTVSPost2010PropOp55
 70
     1
102
RTVSPost2010Prop56
140
1.0
102
RTVSPost2010PropOp56
 70
     1
102
RTVSPost2010Prop57
140
1.0
102
RTVSPost2010PropOp57
 70
     1
102
RTVSPropertyOp0
 70
     1
102
RTVSPropertyOp1
 70
     1
102
RTVSPropertyOp2
 70
     1
102
RTVSPropertyOp3
 70
     1
102
RTVSPropertyOp4
 70
     1
102
RTVSPropertyOp5
 70
     1
102
RTVSPropertyOp6
 70
     1
102
RTVSPropertyOp7
 70
     1
102
RTVSPropertyOp8
 70
     1
102
RTVSPropertyOp9
 70
     1
102
RTVSPropertyOp10
 70
     1
102
RTVSPropertyOp11
 70
     1
102
RTVSPropertyOp12
 70
     1
102
RTVSPropertyOp13
 70
     1
102
RTVSPropertyOp14
 70
     1
102
RTVSPropertyOp15
 70
     1
102
RTVSPropertyOp16
 70
     1
102
RTVSPropertyOp17
 70
     1
102
RTVSPropertyOp18
 70
     1
102
RTVSPropertyOp19
 70
     1
102
RTVSPropertyOp20
 70
     1
102
RTVSPropertyOp21
 70
     1
102
RTVSPropertyOp22
 70
     1
102
RTVSPropertyOp23
 70
     1
102
RTVSPropertyOp24
 70
     1
102
RTVSPropertyOp25
 70
     1
102
RTVSPropertyOp26
 70
     1
102
RTVSPropertyOp27
 70
     1
102
RTVSPropertyOp28
 70
     1
102
RTVSPropertyOp29
 70
     1
102
RTVSPropertyOp30
 70
     1
102
RTVSPropertyOp31
 70
     1
102
RTVSPropertyOp32
 70
     1
102
RTVSPropertyOp33
 70
     1
102
RTVSPropertyOp34
 70
     1
102
RTVSPropertyOp35
 70
     1
102
RTVSPropertyOp36
 70
     1
102
RTVSPropertyOp37
 70
     1
102
RTVSPropertyOp38
 70
     1
102
RTVSPropertyOp39
 70
     1
102
RTVSPropertyOp40
 70
     1
102
RTVSPropertyOp41
 70
     1
102
RTVSPropertyOp42
 70
     1
102
RTVSPropertyOp43
 70
     1
102
RTVSPropertyOp44
 70
     1
102
RTVSPropertyOp45
 70
     1
102
RTVSPropertyOp46
 70
     1
102
RTVSPropertyOp47
 70
     1
102
RTVSPropertyOp48
 70
     1
102
RTVSPropertyOp49
 70
     1
102
RTVSPropertyOp50
 70
     1
102
RTVSPropertyOp51
 70
     0
102
RTVSPropertyOp52
 70
     0
102
RTVSPropertyOp53
 70
     1
102
RTVSPropertyOp54
 70
     1
102
RTVSPropertyOp55
 70
     1
102
RTVSPropertyOp56
 70
     1
102
RTVSPropertyOp57
 70
     1
102
RTVSPropertyOp58
 70
     1
102
RTVSPropertyOp59
 70
     1
102
RTVSPropertyOp60
 70
     1
102
RTVSPropertyOp61
 70
     1
102
RTVSPropertyOp62
 70
     1
  0
ENDSEC
  0
EOF
