  0
SECTION
  2
HEADER
  9
$ACADVER
  1
AC1015
  9
$ACADMAINTVER
 70
    20
  9
$DWGCODEPAGE
  3
ANSI_1252
  9
$INSBASE
 10
0.0
 20
0.0
 30
0.0
  9
$EXTMIN
 10
-46.35485628183014
 20
-29.12329973359195
 30
-0.0000000349181948
  9
$EXTMAX
 10
65.77920258728676
 20
28.00348668913762
 30
0.0000000814935747
  9
$LIMMIN
 10
0.0
 20
0.0
  9
$LIMMAX
 10
12.0
 20
9.0
  9
$ORTHOMODE
 70
     0
  9
$REGENMODE
 70
     1
  9
$FILLMODE
 70
     1
  9
$QTEXTMODE
 70
     0
  9
$MIRRTEXT
 70
     1
  9
$LTSCALE
 40
1.0
  9
$ATTMODE
 70
     1
  9
$TEXTSIZE
 40
3.0
  9
$TRACEWID
 40
10.0
  9
$TEXTSTYLE
  7
SANDVIK_STYLE
  9
$CLAYER
  8
SK2
  9
$CELTYPE
  6
ByLayer
  9
$CECOLOR
 62
   256
  9
$CELTSCALE
 40
1.0
  9
$DISPSILH
 70
     0
  9
$DIMSCALE
 40
0.0
  9
$DIMASZ
 40
4.57
  9
$DIMEXO
 40
0.0
  9
$DIMDLI
 40
0.38
  9
$DIMRND
 40
0.0
  9
$DIMDLE
 40
0.0
  9
$DIMEXE
 40
5.0
  9
$DIMTP
 40
0.0
  9
$DIMTM
 40
0.0
  9
$DIMTXT
 40
4.5
  9
$DIMCEN
 40
0.09
  9
$DIMTSZ
 40
0.0
  9
$DIMTOL
 70
     0
  9
$DIMLIM
 70
     0
  9
$DIMTIH
 70
     0
  9
$DIMTOH
 70
     0
  9
$DIMSE1
 70
     0
  9
$DIMSE2
 70
     0
  9
$DIMTAD
 70
     1
  9
$DIMZIN
 70
     8
  9
$DIMBLK
  1

  9
$DIMASO
 70
     1
  9
$DIMSHO
 70
     1
  9
$DIMPOST
  1
 
  9
$DIMAPOST
  1
 
  9
$DIMALT
 70
     0
  9
$DIMALTD
 70
     2
  9
$DIMALTF
 40
25.4
  9
$DIMLFAC
 40
1.0
  9
$DIMTOFL
 70
     0
  9
$DIMTVP
 40
0.0
  9
$DIMTIX
 70
     0
  9
$DIMSOXD
 70
     0
  9
$DIMSAH
 70
     0
  9
$DIMBLK1
  1

  9
$DIMBLK2
  1

  9
$DIMSTYLE
  2
SANDVIK_DIM
  9
$DIMCLRD
 70
   256
  9
$DIMCLRE
 70
   256
  9
$DIMCLRT
 70
   256
  9
$DIMTFAC
 40
1.0
  9
$DIMGAP
 40
2.299999999999998
  9
$DIMJUST
 70
     0
  9
$DIMSD1
 70
     0
  9
$DIMSD2
 70
     0
  9
$DIMTOLJ
 70
     1
  9
$DIMTZIN
 70
     0
  9
$DIMALTZ
 70
     0
  9
$DIMALTTZ
 70
     0
  9
$DIMUPT
 70
     0
  9
$DIMDEC
 70
     2
  9
$DIMTDEC
 70
     2
  9
$DIMALTU
 70
     2
  9
$DIMALTTD
 70
     2
  9
$DIMTXSTY
  7
SANDVIK_STYLE
  9
$DIMAUNIT
 70
     0
  9
$DIMADEC
 70
     0
  9
$DIMALTRND
 40
0.0
  9
$DIMAZIN
 70
     0
  9
$DIMDSEP
 70
    46
  9
$DIMATFIT
 70
     3
  9
$DIMFRAC
 70
     0
  9
$DIMLDRBLK
  1

  9
$DIMLUNIT
 70
     2
  9
$DIMLWD
 70
    -2
  9
$DIMLWE
 70
    -2
  9
$DIMTMOVE
 70
     2
  9
$LUNITS
 70
     2
  9
$LUPREC
 70
     2
  9
$SKETCHINC
 40
0.0
  9
$FILLETRAD
 40
0.0
  9
$AUNITS
 70
     0
  9
$AUPREC
 70
     2
  9
$MENU
  1
acad
  9
$ELEVATION
 40
0.0
  9
$PELEVATION
 40
0.0
  9
$THICKNESS
 40
0.0
  9
$LIMCHECK
 70
     0
  9
$CHAMFERA
 40
0.0
  9
$CHAMFERB
 40
0.0
  9
$CHAMFERC
 40
0.0
  9
$CHAMFERD
 40
0.0
  9
$SKPOLY
 70
     0
  9
$TDCREATE
 40
2455817.646292060
  9
$TDUCREATE
 40
2455817.562958727
  9
$TDUPDATE
 40
2456818.533166632
  9
$TDUUPDATE
 40
2456818.449833299
  9
$TDINDWG
 40
0.0919852662
  9
$TDUSRTIMER
 40
0.0919850810
  9
$USRTIMER
 70
     1
  9
$ANGBASE
 50
0.0
  9
$ANGDIR
 70
     0
  9
$PDMODE
 70
     0
  9
$PDSIZE
 40
0.0
  9
$PLINEWID
 40
0.0
  9
$SPLFRAME
 70
     0
  9
$SPLINETYPE
 70
     6
  9
$SPLINESEGS
 70
     8
  9
$HANDSEED
  5
2E92
  9
$SURFTAB1
 70
     6
  9
$SURFTAB2
 70
     6
  9
$SURFTYPE
 70
     6
  9
$SURFU
 70
     6
  9
$SURFV
 70
     6
  9
$UCSBASE
  2

  9
$UCSNAME
  2

  9
$UCSORG
 10
0.0
 20
0.0
 30
0.0
  9
$UCSXDIR
 10
1.0
 20
0.0
 30
0.0
  9
$UCSYDIR
 10
0.0
 20
1.0
 30
0.0
  9
$UCSORTHOREF
  2

  9
$UCSORTHOVIEW
 70
     0
  9
$UCSORGTOP
 10
0.0
 20
0.0
 30
0.0
  9
$UCSORGBOTTOM
 10
0.0
 20
0.0
 30
0.0
  9
$UCSORGLEFT
 10
0.0
 20
0.0
 30
0.0
  9
$UCSORGRIGHT
 10
0.0
 20
0.0
 30
0.0
  9
$UCSORGFRONT
 10
0.0
 20
0.0
 30
0.0
  9
$UCSORGBACK
 10
0.0
 20
0.0
 30
0.0
  9
$PUCSBASE
  2

  9
$PUCSNAME
  2

  9
$PUCSORG
 10
0.0
 20
0.0
 30
0.0
  9
$PUCSXDIR
 10
1.0
 20
0.0
 30
0.0
  9
$PUCSYDIR
 10
0.0
 20
1.0
 30
0.0
  9
$PUCSORTHOREF
  2

  9
$PUCSORTHOVIEW
 70
     0
  9
$PUCSORGTOP
 10
0.0
 20
0.0
 30
0.0
  9
$PUCSORGBOTTOM
 10
0.0
 20
0.0
 30
0.0
  9
$PUCSORGLEFT
 10
0.0
 20
0.0
 30
0.0
  9
$PUCSORGRIGHT
 10
0.0
 20
0.0
 30
0.0
  9
$PUCSORGFRONT
 10
0.0
 20
0.0
 30
0.0
  9
$PUCSORGBACK
 10
0.0
 20
0.0
 30
0.0
  9
$USERI1
 70
     0
  9
$USERI2
 70
     0
  9
$USERI3
 70
     0
  9
$USERI4
 70
     0
  9
$USERI5
 70
     0
  9
$USERR1
 40
0.0
  9
$USERR2
 40
0.0
  9
$USERR3
 40
0.0
  9
$USERR4
 40
0.0
  9
$USERR5
 40
0.0
  9
$WORLDVIEW
 70
     1
  9
$SHADEDGE
 70
     3
  9
$SHADEDIF
 70
    70
  9
$TILEMODE
 70
     1
  9
$MAXACTVP
 70
    16
  9
$PINSBASE
 10
0.0
 20
0.0
 30
0.0
  9
$PLIMCHECK
 70
     0
  9
$PEXTMIN
 10
1.000000000000000E+20
 20
1.000000000000000E+20
 30
1.000000000000000E+20
  9
$PEXTMAX
 10
-1.000000000000000E+20
 20
-1.000000000000000E+20
 30
-1.000000000000000E+20
  9
$PLIMMIN
 10
0.0
 20
0.0
  9
$PLIMMAX
 10
12.0
 20
9.0
  9
$UNITMODE
 70
     0
  9
$VISRETAIN
 70
     0
  9
$PLINEGEN
 70
     0
  9
$PSLTSCALE
 70
     1
  9
$TREEDEPTH
 70
  3020
  9
$CMLSTYLE
  2
Standard
  9
$CMLJUST
 70
     0
  9
$CMLSCALE
 40
1.0
  9
$PROXYGRAPHICS
 70
     1
  9
$MEASUREMENT
 70
     0
  9
$CELWEIGHT
370
    -1
  9
$ENDCAPS
280
     0
  9
$JOINSTYLE
280
     0
  9
$LWDISPLAY
290
     0
  9
$INSUNITS
 70
     0
  9
$HYPERLINKBASE
  1

  9
$STYLESHEET
  1

  9
$XEDIT
290
     1
  9
$CEPSNTYPE
380
     0
  9
$PSTYLEMODE
290
     1
  9
$FINGERPRINTGUID
  2
{BC6BEBD7-5C89-4B2E-99DC-E3119A1637E9}
  9
$VERSIONGUID
  2
{B9B483D3-0B26-4C54-BFAB-AF5A5E9C9694}
  9
$EXTNAMES
290
     1
  9
$PSVPSCALE
 40
0.0
  9
$OLESTARTUP
290
     0
  0
ENDSEC
  0
SECTION
  2
CLASSES
  0
CLASS
  1
ACDBDICTIONARYWDFLT
  2
AcDbDictionaryWithDefault
  3
ObjectDBX Classes
 90
        0
280
     0
281
     0
  0
CLASS
  1
MATERIAL
  2
AcDbMaterial
  3
ObjectDBX Classes
 90
     1153
280
     0
281
     0
  0
CLASS
  1
VISUALSTYLE
  2
AcDbVisualStyle
  3
ObjectDBX Classes
 90
     4095
280
     0
281
     0
  0
CLASS
  1
TABLESTYLE
  2
AcDbTableStyle
  3
ObjectDBX Classes
 90
     4095
280
     0
281
     0
  0
CLASS
  1
SCALE
  2
AcDbScale
  3
ObjectDBX Classes
 90
     1153
280
     0
281
     0
  0
CLASS
  1
MLEADERSTYLE
  2
AcDbMLeaderStyle
  3
ACDB_MLEADERSTYLE_CLASS
 90
     4095
280
     0
281
     0
  0
CLASS
  1
ACDBSECTIONVIEWSTYLE
  2
AcDbSectionViewStyle
  3
ObjectDBX Classes
 90
     1025
280
     0
281
     0
  0
CLASS
  1
ACDBDETAILVIEWSTYLE
  2
AcDbDetailViewStyle
  3
ObjectDBX Classes
 90
     1025
280
     0
281
     0
  0
CLASS
  1
EXACXREFPANELOBJECT
  2
ExAcXREFPanelObject
  3
EXAC_ESW
 90
     1025
280
     0
281
     0
  0
CLASS
  1
NPOCOLLECTION
  2
AcDbImpNonPersistentObjectsCollection
  3
ObjectDBX Classes
 90
     1153
280
     0
281
     0
  0
CLASS
  1
DICTIONARYVAR
  2
AcDbDictionaryVar
  3
ObjectDBX Classes
 90
        0
280
     0
281
     0
  0
CLASS
  1
CELLSTYLEMAP
  2
AcDbCellStyleMap
  3
ObjectDBX Classes
 90
     1152
280
     0
281
     0
  0
CLASS
  1
ACDBPLACEHOLDER
  2
AcDbPlaceHolder
  3
ObjectDBX Classes
 90
        0
280
     0
281
     0
  0
CLASS
  1
LAYOUT
  2
AcDbLayout
  3
ObjectDBX Classes
 90
        0
280
     0
281
     0
  0
ENDSEC
  0
SECTION
  2
TABLES
  0
TABLE
  2
VPORT
  5
BDF
330
0
100
AcDbSymbolTable
 70
     1
  0
VPORT
  5
2DA4
330
BDF
100
AcDbSymbolTableRecord
100
AcDbViewportTableRecord
  2
*Active
 70
     0
 10
0.0
 20
0.0
 11
1.0
 21
1.0
 12
9.712173152728304
 22
-0.5599065222271662
 13
0.0
 23
0.0
 14
1.0
 24
1.0
 15
0.0
 25
0.0
 16
0.0
 26
0.0
 36
1.0
 17
0.0
 27
0.0
 37
0.0
 40
63.92976364691427
 41
2.2
 42
50.0
 43
0.0
 44
0.0
 50
0.0
 51
0.0
 71
     0
 72
   100
 73
     1
 74
     1
 75
     0
 76
     0
 77
     0
 78
     0
281
     0
 65
     1
110
0.0
120
0.0
130
0.0
111
1.0
121
0.0
131
0.0
112
0.0
122
1.0
132
0.0
 79
     0
146
0.0
1001
ACAD_NAV_VCDISPLAY
1070
     3
  0
ENDTAB
  0
TABLE
  2
LTYPE
  5
BDC
330
0
100
AcDbSymbolTable
 70
     4
  0
LTYPE
  5
BEA
330
BDC
100
AcDbSymbolTableRecord
100
AcDbLinetypeTableRecord
  2
ByBlock
 70
     0
  3

 72
    65
 73
     0
 40
0.0
  0
LTYPE
  5
BEB
330
BDC
100
AcDbSymbolTableRecord
100
AcDbLinetypeTableRecord
  2
ByLayer
 70
     0
  3

 72
    65
 73
     0
 40
0.0
  0
LTYPE
  5
BEC
330
BDC
100
AcDbSymbolTableRecord
100
AcDbLinetypeTableRecord
  2
CONTINUOUS
 70
     0
  3
Solid line
 72
    65
 73
     0
 40
0.0
  0
LTYPE
  5
BFE
330
BDC
100
AcDbSymbolTableRecord
100
AcDbLinetypeTableRecord
  2
CENTER
 70
     0
  3
____ _ ____ _ ____ _ ____ _ ____ _ ____ _ ____
 72
    65
 73
     4
 40
5.059897
 49
3.162434999999998
 74
     0
 49
-0.6324870000000004
 74
     0
 49
0.6324870000000004
 74
     0
 49
-0.6324870000000004
 74
     0
  0
LTYPE
  5
BFF
330
BDC
100
AcDbSymbolTableRecord
100
AcDbLinetypeTableRecord
  2
DASHED
 70
     0
  3
__ __ __ __ __ __ __ __ __ __ __ __ __ __ __ __
 72
    65
 73
     2
 40
7.589844999999997
 49
5.059897
 74
     0
 49
-2.529948
 74
     0
  0
LTYPE
  5
2DF0
330
BDC
100
AcDbSymbolTableRecord
100
AcDbLinetypeTableRecord
  2
PHANTOM2
 70
     0
  3
Phantom (.5x) ___ _ _ ___ _ _ ___ _ _ ___ _ _
 72
    65
 73
     6
 40
1.25
 49
0.625
 74
     0
 49
-0.125
 74
     0
 49
0.125
 74
     0
 49
-0.125
 74
     0
 49
0.125
 74
     0
 49
-0.125
 74
     0
  0
ENDTAB
  0
TABLE
  2
LAYER
  5
BD9
330
0
100
AcDbSymbolTable
 70
    40
  0
LAYER
  5
BE7
102
{ACAD_XDICTIONARY
360
2DF8
102
}
330
BD9
100
AcDbSymbolTableRecord
100
AcDbLayerTableRecord
  2
0
 70
     0
 62
     7
  6
CONTINUOUS
370
    -3
390
BE6
  0
LAYER
  5
BFB
102
{ACAD_XDICTIONARY
360
2DFA
102
}
330
BD9
100
AcDbSymbolTableRecord
100
AcDbLayerTableRecord
  2
3
 70
     0
 62
     1
  6
DASHED
370
    -3
390
BE6
  0
LAYER
  5
C00
102
{ACAD_XDICTIONARY
360
2DFC
102
}
330
BD9
100
AcDbSymbolTableRecord
100
AcDbLayerTableRecord
  2
1
 70
     0
 62
     4
  6
CONTINUOUS
370
    -3
390
BE6
  0
LAYER
  5
C01
102
{ACAD_XDICTIONARY
360
2DFE
102
}
330
BD9
100
AcDbSymbolTableRecord
100
AcDbLayerTableRecord
  2
61
 70
     0
 62
     5
  6
CONTINUOUS
370
    -3
390
BE6
  0
LAYER
  5
C02
102
{ACAD_XDICTIONARY
360
2E00
102
}
330
BD9
100
AcDbSymbolTableRecord
100
AcDbLayerTableRecord
  2
62
 70
     0
 62
    -5
  6
CONTINUOUS
370
    -3
390
BE6
  0
LAYER
  5
C03
102
{ACAD_XDICTIONARY
360
2E02
102
}
330
BD9
100
AcDbSymbolTableRecord
100
AcDbLayerTableRecord
  2
63
 70
     0
 62
    -5
  6
CONTINUOUS
370
    -3
390
BE6
  0
LAYER
  5
C04
102
{ACAD_XDICTIONARY
360
2E04
102
}
330
BD9
100
AcDbSymbolTableRecord
100
AcDbLayerTableRecord
  2
64
 70
     0
 62
    -5
  6
CONTINUOUS
370
    -3
390
BE6
  0
LAYER
  5
C05
102
{ACAD_XDICTIONARY
360
2E06
102
}
330
BD9
100
AcDbSymbolTableRecord
100
AcDbLayerTableRecord
  2
65
 70
     0
 62
    -5
  6
CONTINUOUS
370
    -3
390
BE6
  0
LAYER
  5
C06
102
{ACAD_XDICTIONARY
360
2E08
102
}
330
BD9
100
AcDbSymbolTableRecord
100
AcDbLayerTableRecord
  2
66
 70
     0
 62
    -5
  6
CONTINUOUS
370
    -3
390
BE6
  0
LAYER
  5
C07
102
{ACAD_XDICTIONARY
360
2E0A
102
}
330
BD9
100
AcDbSymbolTableRecord
100
AcDbLayerTableRecord
  2
67
 70
     0
 62
    -5
  6
CONTINUOUS
370
    -3
390
BE6
  0
LAYER
  5
C08
102
{ACAD_XDICTIONARY
360
2E0C
102
}
330
BD9
100
AcDbSymbolTableRecord
100
AcDbLayerTableRecord
  2
68
 70
     0
 62
    -5
  6
CONTINUOUS
370
    -3
390
BE6
  0
LAYER
  5
C09
102
{ACAD_XDICTIONARY
360
2E0E
102
}
330
BD9
100
AcDbSymbolTableRecord
100
AcDbLayerTableRecord
  2
69
 70
     0
 62
    -5
  6
CONTINUOUS
370
    -3
390
BE6
  0
LAYER
  5
C0A
102
{ACAD_XDICTIONARY
360
2E10
102
}
330
BD9
100
AcDbSymbolTableRecord
100
AcDbLayerTableRecord
  2
70
 70
     0
 62
     5
  6
CONTINUOUS
370
    -3
390
BE6
  0
LAYER
  5
C0B
102
{ACAD_XDICTIONARY
360
2E12
102
}
330
BD9
100
AcDbSymbolTableRecord
100
AcDbLayerTableRecord
  2
2
 70
     0
 62
     7
  6
CONTINUOUS
370
    -3
390
BE6
  0
LAYER
  5
C0C
102
{ACAD_XDICTIONARY
360
2E14
102
}
330
BD9
100
AcDbSymbolTableRecord
100
AcDbLayerTableRecord
  2
4
 70
     0
 62
    -2
  6
CENTER
370
    -3
390
BE6
  0
LAYER
  5
C0D
102
{ACAD_XDICTIONARY
360
2E16
102
}
330
BD9
100
AcDbSymbolTableRecord
100
AcDbLayerTableRecord
  2
5
 70
     0
 62
    -7
  6
CONTINUOUS
370
    -3
390
BE6
  0
LAYER
  5
C0E
102
{ACAD_XDICTIONARY
360
2E18
102
}
330
BD9
100
AcDbSymbolTableRecord
100
AcDbLayerTableRecord
  2
SK1
 70
     0
 62
     4
  6
CONTINUOUS
370
    -3
390
BE6
  0
LAYER
  5
C0F
102
{ACAD_XDICTIONARY
360
2E1A
102
}
330
BD9
100
AcDbSymbolTableRecord
100
AcDbLayerTableRecord
  2
6
 70
     0
 62
     5
  6
CONTINUOUS
370
    -3
390
BE6
  0
LAYER
  5
C10
102
{ACAD_XDICTIONARY
360
2E1C
102
}
330
BD9
100
AcDbSymbolTableRecord
100
AcDbLayerTableRecord
  2
SK2
 70
     0
 62
     7
  6
CONTINUOUS
370
    -3
390
BE6
  0
LAYER
  5
C11
102
{ACAD_XDICTIONARY
360
2E1E
102
}
330
BD9
100
AcDbSymbolTableRecord
100
AcDbLayerTableRecord
  2
SK3
 70
     0
 62
     1
  6
DASHED
370
    -3
390
BE6
  0
LAYER
  5
C12
102
{ACAD_XDICTIONARY
360
2E20
102
}
330
BD9
100
AcDbSymbolTableRecord
100
AcDbLayerTableRecord
  2
SK4
 70
     0
 62
     2
  6
CENTER
370
    -3
390
BE6
  0
LAYER
  5
C13
102
{ACAD_XDICTIONARY
360
2E22
102
}
330
BD9
100
AcDbSymbolTableRecord
100
AcDbLayerTableRecord
  2
CUT
 70
     0
 62
     1
  6
CONTINUOUS
370
    -3
390
BE6
  0
LAYER
  5
C14
102
{ACAD_XDICTIONARY
360
2E24
102
}
330
BD9
100
AcDbSymbolTableRecord
100
AcDbLayerTableRecord
  2
SK6
 70
     0
 62
     5
  6
CONTINUOUS
370
    -3
390
BE6
  0
LAYER
  5
C15
102
{ACAD_XDICTIONARY
360
2E26
102
}
330
BD9
100
AcDbSymbolTableRecord
100
AcDbLayerTableRecord
  2
80
 70
     0
 62
    -2
  6
CENTER
370
    -3
390
BE6
  0
LAYER
  5
C16
102
{ACAD_XDICTIONARY
360
2E28
102
}
330
BD9
100
AcDbSymbolTableRecord
100
AcDbLayerTableRecord
  2
81
 70
     0
 62
    -2
  6
CENTER
370
    -3
390
BE6
  0
LAYER
  5
C17
102
{ACAD_XDICTIONARY
360
2E2A
102
}
330
BD9
100
AcDbSymbolTableRecord
100
AcDbLayerTableRecord
  2
82
 70
     0
 62
    -2
  6
CENTER
370
    -3
390
BE6
  0
LAYER
  5
C18
102
{ACAD_XDICTIONARY
360
2E2C
102
}
330
BD9
100
AcDbSymbolTableRecord
100
AcDbLayerTableRecord
  2
NOCUT
 70
     0
 62
     7
  6
CONTINUOUS
370
    -3
390
BE6
  0
LAYER
  5
C19
102
{ACAD_XDICTIONARY
360
2E2E
102
}
330
BD9
100
AcDbSymbolTableRecord
100
AcDbLayerTableRecord
  2
50
 70
     0
 62
    -7
  6
CONTINUOUS
370
    -3
390
BE6
  0
LAYER
  5
C1A
102
{ACAD_XDICTIONARY
360
2E30
102
}
330
BD9
100
AcDbSymbolTableRecord
100
AcDbLayerTableRecord
  2
51
 70
     0
 62
     7
  6
CONTINUOUS
370
    -3
390
BE6
  0
LAYER
  5
C1B
102
{ACAD_XDICTIONARY
360
2E32
102
}
330
BD9
100
AcDbSymbolTableRecord
100
AcDbLayerTableRecord
  2
52
 70
     0
 62
    -7
  6
CONTINUOUS
370
    -3
390
BE6
  0
LAYER
  5
C1C
102
{ACAD_XDICTIONARY
360
2E34
102
}
330
BD9
100
AcDbSymbolTableRecord
100
AcDbLayerTableRecord
  2
53
 70
     0
 62
    -7
  6
CONTINUOUS
370
    -3
390
BE6
  0
LAYER
  5
C1D
102
{ACAD_XDICTIONARY
360
2E36
102
}
330
BD9
100
AcDbSymbolTableRecord
100
AcDbLayerTableRecord
  2
54
 70
     0
 62
    -7
  6
CONTINUOUS
370
    -3
390
BE6
  0
LAYER
  5
C1E
102
{ACAD_XDICTIONARY
360
2E38
102
}
330
BD9
100
AcDbSymbolTableRecord
100
AcDbLayerTableRecord
  2
55
 70
     0
 62
    -7
  6
CONTINUOUS
370
    -3
390
BE6
  0
LAYER
  5
C1F
102
{ACAD_XDICTIONARY
360
2E3A
102
}
330
BD9
100
AcDbSymbolTableRecord
100
AcDbLayerTableRecord
  2
56
 70
     0
 62
    -7
  6
CONTINUOUS
370
    -3
390
BE6
  0
LAYER
  5
C20
102
{ACAD_XDICTIONARY
360
2E3C
102
}
330
BD9
100
AcDbSymbolTableRecord
100
AcDbLayerTableRecord
  2
57
 70
     0
 62
    -7
  6
CONTINUOUS
370
    -3
390
BE6
  0
LAYER
  5
C21
102
{ACAD_XDICTIONARY
360
2E3E
102
}
330
BD9
100
AcDbSymbolTableRecord
100
AcDbLayerTableRecord
  2
58
 70
     0
 62
    -7
  6
CONTINUOUS
370
    -3
390
BE6
  0
LAYER
  5
C22
102
{ACAD_XDICTIONARY
360
2E40
102
}
330
BD9
100
AcDbSymbolTableRecord
100
AcDbLayerTableRecord
  2
2L
 70
     0
 62
     7
  6
CONTINUOUS
370
    -3
390
BE6
  0
LAYER
  5
C23
102
{ACAD_XDICTIONARY
360
2E42
102
}
330
BD9
100
AcDbSymbolTableRecord
100
AcDbLayerTableRecord
  2
59
 70
     0
 62
    -7
  6
CONTINUOUS
370
    -3
390
BE6
  0
LAYER
  5
C24
330
BD9
100
AcDbSymbolTableRecord
100
AcDbLayerTableRecord
  2
DEFPOINTS
 70
     0
 62
     7
  6
CONTINUOUS
290
     0
370
    -3
390
BE6
  0
LAYER
  5
C42
102
{ACAD_XDICTIONARY
360
2E44
102
}
330
BD9
100
AcDbSymbolTableRecord
100
AcDbLayerTableRecord
  2
TFR-TRI
 70
     0
 62
     7
  6
CONTINUOUS
370
    -3
390
BE6
  0
ENDTAB
  0
TABLE
  2
STYLE
  5
BDA
330
0
100
AcDbSymbolTable
 70
     2
  0
STYLE
  5
BE8
330
BDA
100
AcDbSymbolTableRecord
100
AcDbTextStyleTableRecord
  2
STANDARD
 70
     0
 40
0.0
 41
1.0
 50
0.0
 71
     0
 42
4.5
  3
simplex.shx
  4

  0
STYLE
  5
BFC
330
BDA
100
AcDbSymbolTableRecord
100
AcDbTextStyleTableRecord
  2
SANDVIK_STYLE
 70
     0
 40
3.0
 41
1.0
 50
0.0
 71
     0
 42
3.0
  3
simplex.shx
  4

  0
ENDTAB
  0
TABLE
  2
VIEW
  5
BDD
330
0
100
AcDbSymbolTable
 70
     0
  0
ENDTAB
  0
TABLE
  2
UCS
  5
BDE
330
0
100
AcDbSymbolTable
 70
     0
  0
ENDTAB
  0
TABLE
  2
APPID
  5
BE0
330
0
100
AcDbSymbolTable
 70
     4
  0
APPID
  5
BE9
330
BE0
100
AcDbSymbolTableRecord
100
AcDbRegAppTableRecord
  2
ACAD
 70
     0
  0
APPID
  5
2E48
330
BE0
100
AcDbSymbolTableRecord
100
AcDbRegAppTableRecord
  2
DCO15
 70
     0
  0
APPID
  5
2E54
330
BE0
100
AcDbSymbolTableRecord
100
AcDbRegAppTableRecord
  2
ACAD_NAV_VCDISPLAY
 70
     0
  0
APPID
  5
2E91
330
BE0
100
AcDbSymbolTableRecord
100
AcDbRegAppTableRecord
  2
ACAD_MLEADERVER
 70
     0
  0
ENDTAB
  0
TABLE
  2
DIMSTYLE
  5
BE1
330
0
100
AcDbSymbolTable
 70
     2
100
AcDbDimStyleTable
 71
     1
340
C26
  0
DIMSTYLE
105
C25
330
BE1
100
AcDbSymbolTableRecord
100
AcDbDimStyleTableRecord
  2
STANDARD
 70
     0
  3
 
  4
 
 41
3.0
 42
2.5
 43
10.0
 44
2.5
 46
1.25
 73
     0
 74
     0
140
3.0
141
-3.0
143
0.039
145
1.5
146
0.75
147
1.5
271
     2
272
     2
279
     2
340
BFC
  0
DIMSTYLE
105
C26
102
{ACAD_REACTORS
330
2CF6
330
2D04
330
2D12
330
2D1F
330
2D35
330
2D42
330
2D4F
102
}
330
BE1
100
AcDbSymbolTableRecord
100
AcDbDimStyleTableRecord
  2
SANDVIK_DIM
 70
     0
  3
 
  4
 
 40
0.0
 41
4.57
 42
0.0
 44
5.0
 73
     0
 74
     0
 77
     1
 78
     8
140
4.5
147
2.299999999999998
176
   256
177
   256
178
   256
271
     2
272
     2
279
     2
340
BFC
  0
ENDTAB
  0
TABLE
  2
BLOCK_RECORD
  5
BD8
330
0
100
AcDbSymbolTable
 70
     9
  0
BLOCK_RECORD
  5
BF7
330
BD8
100
AcDbSymbolTableRecord
100
AcDbBlockTableRecord
  2
*Model_Space
340
BFA
  0
BLOCK_RECORD
  5
BF3
330
BD8
100
AcDbSymbolTableRecord
100
AcDbBlockTableRecord
  2
*Paper_Space
340
BF6
  0
BLOCK_RECORD
  5
C28
330
BD8
100
AcDbSymbolTableRecord
100
AcDbBlockTableRecord
  2
$MODEL_SPACE
340
0
  0
BLOCK_RECORD
  5
C2A
330
BD8
100
AcDbSymbolTableRecord
100
AcDbBlockTableRecord
  2
$PAPER_SPACE
340
0
  0
BLOCK_RECORD
  5
2CF7
330
BD8
100
AcDbSymbolTableRecord
100
AcDbBlockTableRecord
  2
*D2
340
0
  0
BLOCK_RECORD
  5
2D05
330
BD8
100
AcDbSymbolTableRecord
100
AcDbBlockTableRecord
  2
*D3
340
0
  0
BLOCK_RECORD
  5
2D13
330
BD8
100
AcDbSymbolTableRecord
100
AcDbBlockTableRecord
  2
*D4
340
0
  0
BLOCK_RECORD
  5
2D20
330
BD8
100
AcDbSymbolTableRecord
100
AcDbBlockTableRecord
  2
*D5
340
0
  0
BLOCK_RECORD
  5
2D36
330
BD8
100
AcDbSymbolTableRecord
100
AcDbBlockTableRecord
  2
*D6
340
0
  0
BLOCK_RECORD
  5
2D43
330
BD8
100
AcDbSymbolTableRecord
100
AcDbBlockTableRecord
  2
*D7
340
0
  0
BLOCK_RECORD
  5
2D50
330
BD8
100
AcDbSymbolTableRecord
100
AcDbBlockTableRecord
  2
*D8
340
0
  0
ENDTAB
  0
ENDSEC
  0
SECTION
  2
BLOCKS
  0
BLOCK
  5
BF8
330
BF7
100
AcDbEntity
  8
0
100
AcDbBlockBegin
  2
*Model_Space
 70
     0
 10
0.0
 20
0.0
 30
0.0
  3
*Model_Space
  1

  0
ENDBLK
  5
BF9
330
BF7
100
AcDbEntity
  8
0
100
AcDbBlockEnd
  0
BLOCK
  5
BF4
330
BF3
100
AcDbEntity
 67
     1
  8
0
100
AcDbBlockBegin
  2
*Paper_Space
 70
     0
 10
0.0
 20
0.0
 30
0.0
  3
*Paper_Space
  1

  0
ENDBLK
  5
BF5
330
BF3
100
AcDbEntity
 67
     1
  8
0
100
AcDbBlockEnd
  0
BLOCK
  5
C29
330
C28
100
AcDbEntity
  8
0
100
AcDbBlockBegin
  2
$MODEL_SPACE
 70
     0
 10
0.0
 20
0.0
 30
0.0
  3
$MODEL_SPACE
  1

  0
ENDBLK
  5
AEF
330
C28
100
AcDbEntity
  8
0
100
AcDbBlockEnd
  0
BLOCK
  5
C2B
330
C2A
100
AcDbEntity
  8
0
100
AcDbBlockBegin
  2
$PAPER_SPACE
 70
     0
 10
0.0
 20
0.0
 30
0.0
  3
$PAPER_SPACE
  1

  0
ENDBLK
  5
AEB
330
C2A
100
AcDbEntity
  8
0
100
AcDbBlockEnd
  0
BLOCK
  5
2D02
330
2CF7
100
AcDbEntity
  8
0
100
AcDbBlockBegin
  2
*D2
 70
     1
 10
0.0
 20
0.0
 30
0.0
  3
*D2
  1

  0
LINE
  5
2D7A
330
2CF7
100
AcDbEntity
  8
SK2
370
    -2
100
AcDbLine
 10
-35.35048300000001
 20
3.0
 30
0.0
 11
-46.35426788028746
 21
3.000000000000003
 31
0.0
  0
LINE
  5
2D7B
330
2CF7
100
AcDbEntity
  8
SK2
370
    -2
100
AcDbLine
 10
-35.35048300000001
 20
-2.999999999999996
 30
0.0
 11
-46.35426788028746
 21
-2.999999999999993
 31
0.0
  0
LINE
  5
2D7C
330
2CF7
100
AcDbEntity
  8
SK2
370
    -2
100
AcDbLine
 10
-41.35426788028746
 20
7.570000000000002
 30
0.0
 11
-41.35426788028746
 21
12.14
 31
0.0
  0
LINE
  5
2D7D
330
2CF7
100
AcDbEntity
  8
SK2
370
    -2
100
AcDbLine
 10
-41.35426788028746
 20
-7.569999999999994
 30
0.0
 11
-41.35426788028746
 21
-12.13999999999999
 31
0.0
  0
MTEXT
  5
2D7E
330
2CF7
100
AcDbEntity
  8
SK2
100
AcDbMText
 10
-41.1547984363707
 20
-18.29310627932051
 30
0.0
 40
3.0
 41
0.0
 71
     5
 72
     1
  1
\A1;%%C 6 
  7
SANDVIK_STYLE
 11
0.0000000000000001
 21
1.0
 31
0.0
 73
     1
 44
1.0
1001
ACAD
1000
MTEXTBEGIN
1070
    73
1070
     1
1070
    44
1040
1.0
1070
    74
1070
     0
1000
MTEXTEND
  0
SOLID
  5
2D7F
330
2CF7
100
AcDbEntity
  8
SK2
100
AcDbTrace
 10
-42.11593454695413
 20
7.570000000000002
 30
0.0
 11
-40.59260121362078
 21
7.570000000000002
 31
0.0
 12
-41.35426788028746
 22
3.000000000000001
 32
0.0
 13
-41.35426788028746
 23
3.000000000000001
 33
0.0
  0
SOLID
  5
2D80
330
2CF7
100
AcDbEntity
  8
SK2
100
AcDbTrace
 10
-42.11593454695413
 20
-7.569999999999994
 30
0.0
 11
-40.59260121362078
 21
-7.569999999999994
 31
0.0
 12
-41.35426788028746
 22
-2.999999999999993
 32
0.0
 13
-41.35426788028746
 23
-2.999999999999993
 33
0.0
  0
POINT
  5
2D81
330
2CF7
100
AcDbEntity
  8
DEFPOINTS
 62
     0
100
AcDbPoint
 10
-35.35048300000001
 20
3.0
 30
0.0
  0
POINT
  5
2D82
330
2CF7
100
AcDbEntity
  8
DEFPOINTS
 62
     0
100
AcDbPoint
 10
-35.35048300000001
 20
-2.999999999999996
 30
0.0
  0
POINT
  5
2D83
330
2CF7
100
AcDbEntity
  8
DEFPOINTS
 62
     0
100
AcDbPoint
 10
-41.35426788028746
 20
-2.999999999999993
 30
0.0
  0
ENDBLK
  5
2D03
330
2CF7
100
AcDbEntity
  8
0
100
AcDbBlockEnd
  0
BLOCK
  5
2D10
330
2D05
100
AcDbEntity
  8
0
100
AcDbBlockBegin
  2
*D3
 70
     1
 10
0.0
 20
0.0
 30
0.0
  3
*D3
  1

  0
LINE
  5
2D84
330
2D05
100
AcDbEntity
  8
2
370
    -2
100
AcDbLine
 10
57.34580799999998
 20
1.749997
 30
0.0
 11
65.77704980578767
 21
1.749996999999995
 31
0.0
  0
LINE
  5
2D85
330
2D05
100
AcDbEntity
  8
2
370
    -2
100
AcDbLine
 10
57.34580799999998
 20
-1.749999999999995
 30
0.0
 11
65.77704980578767
 21
-1.749999999999998
 31
0.0
  0
LINE
  5
2D86
330
2D05
100
AcDbEntity
  8
2
370
    -2
100
AcDbLine
 10
60.77704980578767
 20
6.319996999999997
 30
0.0
 11
60.77704980578767
 21
10.889997
 31
0.0
  0
LINE
  5
2D87
330
2D05
100
AcDbEntity
  8
2
370
    -2
100
AcDbLine
 10
60.77704980578767
 20
-6.319999999999997
 30
0.0
 11
60.77704980578767
 21
-10.89
 31
0.0
  0
MTEXT
  5
2D88
330
2D05
100
AcDbEntity
  8
2
100
AcDbMText
 10
61.02855033322885
 20
-17.97652859515688
 30
0.0
 40
3.0
 41
0.0
 71
     5
 72
     1
  1
\A1;%%C 3.5 
  7
SANDVIK_STYLE
 11
0.0000000000000001
 21
1.0
 31
0.0
 73
     1
 44
1.0
1001
ACAD
1000
MTEXTBEGIN
1070
    73
1070
     1
1070
    44
1040
1.0
1070
    74
1070
     0
1000
MTEXTEND
  0
SOLID
  5
2D89
330
2D05
100
AcDbEntity
  8
2
100
AcDbTrace
 10
60.01538313912099
 20
6.319996999999997
 30
0.0
 11
61.53871647245434
 21
6.319996999999997
 31
0.0
 12
60.77704980578767
 22
1.749996999999999
 32
0.0
 13
60.77704980578767
 23
1.749996999999999
 33
0.0
  0
SOLID
  5
2D8A
330
2D05
100
AcDbEntity
  8
2
100
AcDbTrace
 10
60.01538313912099
 20
-6.319999999999997
 30
0.0
 11
61.53871647245434
 21
-6.319999999999997
 31
0.0
 12
60.77704980578767
 22
-1.749999999999995
 32
0.0
 13
60.77704980578767
 23
-1.749999999999995
 33
0.0
  0
POINT
  5
2D8B
330
2D05
100
AcDbEntity
  8
DEFPOINTS
 62
     0
100
AcDbPoint
 10
57.34580799999998
 20
1.749997
 30
0.0
  0
POINT
  5
2D8C
330
2D05
100
AcDbEntity
  8
DEFPOINTS
 62
     0
100
AcDbPoint
 10
57.34580799999998
 20
-1.749999999999995
 30
0.0
  0
POINT
  5
2D8D
330
2D05
100
AcDbEntity
  8
DEFPOINTS
 62
     0
100
AcDbPoint
 10
60.77704980578767
 20
-1.749999999999995
 30
0.0
  0
ENDBLK
  5
2D11
330
2D05
100
AcDbEntity
  8
0
100
AcDbBlockEnd
  0
BLOCK
  5
2D1D
330
2D13
100
AcDbEntity
  8
0
100
AcDbBlockBegin
  2
*D4
 70
     1
 10
0.0
 20
0.0
 30
0.0
  3
*D4
  1

  0
LINE
  5
2D14
330
2D13
100
AcDbEntity
  8
SK2
370
    -2
100
AcDbLine
 10
57.34580799999998
 20
1.749997
 30
0.0
 11
57.34580799999998
 21
8.394961872689121
 31
0.0
  0
LINE
  5
2D15
330
2D13
100
AcDbEntity
  8
SK2
370
    -2
100
AcDbLine
 10
15.34580799999998
 20
1.749997000000004
 30
0.0
 11
15.34580799999998
 21
8.394961872689121
 31
0.0
  0
LINE
  5
2D16
330
2D13
100
AcDbEntity
  8
SK2
370
    -2
100
AcDbLine
 10
52.77580799999999
 20
3.394961872689123
 30
0.0
 11
19.91580799999997
 21
3.394961872689123
 31
0.0
  0
SOLID
  5
2D17
330
2D13
100
AcDbEntity
  8
SK2
100
AcDbTrace
 10
52.77580799999999
 20
4.156628539355788
 30
0.0
 11
52.77580799999999
 21
2.633295206022455
 31
0.0
 12
57.34580799999998
 22
3.394961872689123
 32
0.0
 13
57.34580799999998
 23
3.394961872689123
 33
0.0
  0
SOLID
  5
2D18
330
2D13
100
AcDbEntity
  8
SK2
100
AcDbTrace
 10
19.91580799999997
 20
4.156628539355788
 30
0.0
 11
19.91580799999997
 21
2.633295206022455
 31
0.0
 12
15.34580799999998
 22
3.394961872689123
 32
0.0
 13
15.34580799999998
 23
3.394961872689123
 33
0.0
  0
MTEXT
  5
2D19
330
2D13
100
AcDbEntity
  8
SK2
100
AcDbMText
 10
36.34580799999998
 20
7.194961872689122
 30
0.0
 40
3.0
 41
0.0
 71
     5
 72
     1
  1
\A1;42 
  7
SANDVIK_STYLE
 73
     1
 44
1.0
1001
ACAD
1000
MTEXTBEGIN
1070
    73
1070
     1
1070
    44
1040
1.0
1070
    74
1070
     0
1000
MTEXTEND
  0
POINT
  5
2D1A
330
2D13
100
AcDbEntity
  8
DEFPOINTS
 62
     0
100
AcDbPoint
 10
57.34580799999998
 20
1.749997
 30
0.0
  0
POINT
  5
2D1B
330
2D13
100
AcDbEntity
  8
DEFPOINTS
 62
     0
100
AcDbPoint
 10
15.34580799999998
 20
1.749997000000004
 30
0.0
  0
POINT
  5
2D1C
330
2D13
100
AcDbEntity
  8
DEFPOINTS
 62
     0
100
AcDbPoint
 10
15.34580799999998
 20
3.394961872689123
 30
0.0
  0
ENDBLK
  5
2D1E
330
2D13
100
AcDbEntity
  8
0
100
AcDbBlockEnd
  0
BLOCK
  5
2D2A
330
2D20
100
AcDbEntity
  8
0
100
AcDbBlockBegin
  2
*D5
 70
     1
 10
0.0
 20
0.0
 30
0.0
  3
*D5
  1

  0
LINE
  5
2D97
330
2D20
100
AcDbEntity
  8
2
370
    -2
100
AcDbLine
 10
57.99995899999998
 20
-0.0000009999999975
 30
0.0
 11
57.99995899999998
 21
-13.2510761863399
 31
0.0
  0
LINE
  5
2D98
330
2D20
100
AcDbEntity
  8
2
370
    -2
100
AcDbLine
 10
6.002204999999992
 20
-1.640664999999996
 30
0.0
 11
6.002204999999992
 21
-13.2510761863399
 31
0.0
  0
LINE
  5
2D99
330
2D20
100
AcDbEntity
  8
2
370
    -2
100
AcDbLine
 10
53.42995899999999
 20
-8.251076186339901
 30
0.0
 11
10.57220499999999
 21
-8.251076186339901
 31
0.0
  0
SOLID
  5
2D9A
330
2D20
100
AcDbEntity
  8
2
100
AcDbTrace
 10
53.42995899999999
 20
-7.489409519673231
 30
0.0
 11
53.42995899999999
 21
-9.012742853006567
 31
0.0
 12
57.99995899999998
 22
-8.251076186339901
 32
0.0
 13
57.99995899999998
 23
-8.251076186339901
 33
0.0
  0
SOLID
  5
2D9B
330
2D20
100
AcDbEntity
  8
2
100
AcDbTrace
 10
10.57220499999999
 20
-7.489409519673231
 30
0.0
 11
10.57220499999999
 21
-9.012742853006567
 31
0.0
 12
6.002204999999992
 22
-8.251076186339901
 32
0.0
 13
6.002204999999992
 23
-8.251076186339901
 33
0.0
  0
MTEXT
  5
2D9C
330
2D20
100
AcDbEntity
  8
2
100
AcDbMText
 10
32.00108199999999
 20
-4.451076186339902
 30
0.0
 40
3.0
 41
0.0
 71
     5
 72
     1
  1
\A1;52 
  7
SANDVIK_STYLE
 73
     1
 44
1.0
1001
ACAD
1000
MTEXTBEGIN
1070
    73
1070
     1
1070
    44
1040
1.0
1070
    74
1070
     0
1000
MTEXTEND
  0
POINT
  5
2D9D
330
2D20
100
AcDbEntity
  8
DEFPOINTS
 62
     0
100
AcDbPoint
 10
57.99995899999998
 20
-0.0000009999999975
 30
0.0
  0
POINT
  5
2D9E
330
2D20
100
AcDbEntity
  8
DEFPOINTS
 62
     0
100
AcDbPoint
 10
6.002204999999992
 20
-1.640664999999996
 30
0.0
  0
POINT
  5
2D9F
330
2D20
100
AcDbEntity
  8
DEFPOINTS
 62
     0
100
AcDbPoint
 10
6.002204999999992
 20
-8.251076186339901
 30
0.0
  0
ENDBLK
  5
2D2B
330
2D20
100
AcDbEntity
  8
0
100
AcDbBlockEnd
  0
BLOCK
  5
2D40
330
2D36
100
AcDbEntity
  8
0
100
AcDbBlockBegin
  2
*D6
 70
     1
 10
0.0
 20
0.0
 30
0.0
  3
*D6
  1

  0
LINE
  5
2D8E
330
2D36
100
AcDbEntity
  8
2
370
    -2
100
AcDbLine
 10
0.0
 20
-2.999999999999996
 30
0.0
 11
-0.000000000000001
 21
-19.45194824008348
 31
0.0
  0
LINE
  5
2D8F
330
2D36
100
AcDbEntity
  8
2
370
    -2
100
AcDbLine
 10
57.99995899999998
 20
0.0000000000000018
 30
0.0
 11
57.99995899999998
 21
-19.45194824008348
 31
0.0
  0
LINE
  5
2D90
330
2D36
100
AcDbEntity
  8
2
370
    -2
100
AcDbLine
 10
4.569999999999998
 20
-14.45194824008348
 30
0.0
 11
53.42995899999999
 21
-14.45194824008348
 31
0.0
  0
SOLID
  5
2D91
330
2D36
100
AcDbEntity
  8
2
100
AcDbTrace
 10
4.569999999999998
 20
-13.69028157341681
 30
0.0
 11
4.569999999999998
 21
-15.21361490675015
 31
0.0
 12
-0.0000000000000007
 22
-14.45194824008348
 32
0.0
 13
-0.0000000000000007
 23
-14.45194824008348
 33
0.0
  0
SOLID
  5
2D92
330
2D36
100
AcDbEntity
  8
2
100
AcDbTrace
 10
53.42995899999999
 20
-13.69028157341681
 30
0.0
 11
53.42995899999999
 21
-15.21361490675015
 31
0.0
 12
57.99995899999998
 22
-14.45194824008348
 32
0.0
 13
57.99995899999998
 23
-14.45194824008348
 33
0.0
  0
MTEXT
  5
2D93
330
2D36
100
AcDbEntity
  8
2
100
AcDbMText
 10
28.99997949999999
 20
-10.65194824008348
 30
0.0
 40
3.0
 41
0.0
 71
     5
 72
     1
  1
\A1;58 
  7
SANDVIK_STYLE
 73
     1
 44
1.0
1001
ACAD
1000
MTEXTBEGIN
1070
    73
1070
     1
1070
    44
1040
1.0
1070
    74
1070
     0
1000
MTEXTEND
  0
POINT
  5
2D94
330
2D36
100
AcDbEntity
  8
DEFPOINTS
 62
     0
100
AcDbPoint
 10
0.0
 20
-2.999999999999996
 30
0.0
  0
POINT
  5
2D95
330
2D36
100
AcDbEntity
  8
DEFPOINTS
 62
     0
100
AcDbPoint
 10
57.99995899999998
 20
0.0000000000000018
 30
0.0
  0
POINT
  5
2D96
330
2D36
100
AcDbEntity
  8
DEFPOINTS
 62
     0
100
AcDbPoint
 10
57.99995899999998
 20
-14.45194824008348
 30
0.0
  0
ENDBLK
  5
2D41
330
2D36
100
AcDbEntity
  8
0
100
AcDbBlockEnd
  0
BLOCK
  5
2D4D
330
2D43
100
AcDbEntity
  8
0
100
AcDbBlockBegin
  2
*D7
 70
     1
 10
0.0
 20
0.0
 30
0.0
  3
*D7
  1

  0
LINE
  5
2D44
330
2D43
100
AcDbEntity
  8
SK2
370
    -2
100
AcDbLine
 10
57.99995899999998
 20
-0.0000009999999975
 30
0.0
 11
57.99995899999998
 21
-29.11981357644032
 31
0.0
  0
LINE
  5
2D45
330
2D43
100
AcDbEntity
  8
SK2
370
    -2
100
AcDbLine
 10
-36.00000100000001
 20
-2.625000999999997
 30
0.0
 11
-36.00000100000001
 21
-29.11981357644032
 31
0.0
  0
LINE
  5
2D46
330
2D43
100
AcDbEntity
  8
SK2
370
    -2
100
AcDbLine
 10
53.42995899999999
 20
-24.11981357644032
 30
0.0
 11
-31.43000100000001
 21
-24.11981357644032
 31
0.0
  0
SOLID
  5
2D47
330
2D43
100
AcDbEntity
  8
SK2
100
AcDbTrace
 10
53.42995899999999
 20
-23.35814690977366
 30
0.0
 11
53.42995899999999
 21
-24.88148024310699
 31
0.0
 12
57.99995899999998
 22
-24.11981357644032
 32
0.0
 13
57.99995899999998
 23
-24.11981357644032
 33
0.0
  0
SOLID
  5
2D48
330
2D43
100
AcDbEntity
  8
SK2
100
AcDbTrace
 10
-31.43000100000001
 20
-23.35814690977366
 30
0.0
 11
-31.43000100000001
 21
-24.88148024310699
 31
0.0
 12
-36.00000100000001
 22
-24.11981357644032
 32
0.0
 13
-36.00000100000001
 23
-24.11981357644032
 33
0.0
  0
MTEXT
  5
2D49
330
2D43
100
AcDbEntity
  8
SK2
100
AcDbMText
 10
10.99997899999999
 20
-20.31981357644032
 30
0.0
 40
3.0
 41
0.0
 71
     5
 72
     1
  1
\A1;94 
  7
SANDVIK_STYLE
 73
     1
 44
1.0
1001
ACAD
1000
MTEXTBEGIN
1070
    73
1070
     1
1070
    44
1040
1.0
1070
    74
1070
     0
1000
MTEXTEND
  0
POINT
  5
2D4A
330
2D43
100
AcDbEntity
  8
DEFPOINTS
 62
     0
100
AcDbPoint
 10
57.99995899999998
 20
-0.0000009999999975
 30
0.0
  0
POINT
  5
2D4B
330
2D43
100
AcDbEntity
  8
DEFPOINTS
 62
     0
100
AcDbPoint
 10
-36.00000100000001
 20
-2.625000999999997
 30
0.0
  0
POINT
  5
2D4C
330
2D43
100
AcDbEntity
  8
DEFPOINTS
 62
     0
100
AcDbPoint
 10
-36.00000100000001
 20
-24.11981357644032
 30
0.0
  0
ENDBLK
  5
2D4E
330
2D43
100
AcDbEntity
  8
0
100
AcDbBlockEnd
  0
BLOCK
  5
2D5A
330
2D50
100
AcDbEntity
  8
0
100
AcDbBlockBegin
  2
*D8
 70
     1
 10
0.0
 20
0.0
 30
0.0
  3
*D8
  1

  0
LINE
  5
2D51
330
2D50
100
AcDbEntity
  8
SK2
370
    -2
100
AcDbLine
 10
-36.00000100000001
 20
-2.625000999999997
 30
0.0
 11
-36.00000100000001
 21
-19.45194824008348
 31
0.0
  0
LINE
  5
2D52
330
2D50
100
AcDbEntity
  8
SK2
370
    -2
100
AcDbLine
 10
0.0
 20
-2.999999999999996
 30
0.0
 11
-0.000000000000001
 21
-19.45194824008348
 31
0.0
  0
LINE
  5
2D53
330
2D50
100
AcDbEntity
  8
SK2
370
    -2
100
AcDbLine
 10
-31.43000100000001
 20
-14.45194824008348
 30
0.0
 11
-4.570000000000001
 21
-14.45194824008348
 31
0.0
  0
SOLID
  5
2D54
330
2D50
100
AcDbEntity
  8
SK2
100
AcDbTrace
 10
-31.43000100000001
 20
-13.69028157341681
 30
0.0
 11
-31.43000100000001
 21
-15.21361490675015
 31
0.0
 12
-36.00000100000001
 22
-14.45194824008348
 32
0.0
 13
-36.00000100000001
 23
-14.45194824008348
 33
0.0
  0
SOLID
  5
2D55
330
2D50
100
AcDbEntity
  8
SK2
100
AcDbTrace
 10
-4.570000000000001
 20
-13.69028157341681
 30
0.0
 11
-4.570000000000001
 21
-15.21361490675015
 31
0.0
 12
-0.0000000000000007
 22
-14.45194824008348
 32
0.0
 13
-0.0000000000000007
 23
-14.45194824008348
 33
0.0
  0
MTEXT
  5
2D56
330
2D50
100
AcDbEntity
  8
SK2
100
AcDbMText
 10
-18.0000005
 20
-10.65194824008348
 30
0.0
 40
3.0
 41
0.0
 71
     5
 72
     1
  1
\A1;36 
  7
SANDVIK_STYLE
 73
     1
 44
1.0
1001
ACAD
1000
MTEXTBEGIN
1070
    73
1070
     1
1070
    44
1040
1.0
1070
    74
1070
     0
1000
MTEXTEND
  0
POINT
  5
2D57
330
2D50
100
AcDbEntity
  8
DEFPOINTS
 62
     0
100
AcDbPoint
 10
-36.00000100000001
 20
-2.625000999999997
 30
0.0
  0
POINT
  5
2D58
330
2D50
100
AcDbEntity
  8
DEFPOINTS
 62
     0
100
AcDbPoint
 10
0.0
 20
-2.999999999999996
 30
0.0
  0
POINT
  5
2D59
330
2D50
100
AcDbEntity
  8
DEFPOINTS
 62
     0
100
AcDbPoint
 10
-0.0000000000000007
 20
-14.45194824008348
 30
0.0
  0
ENDBLK
  5
2D5B
330
2D50
100
AcDbEntity
  8
0
100
AcDbBlockEnd
  0
ENDSEC
  0
SECTION
  2
ENTITIES
  0
TEXT
  5
62
330
BF7
100
AcDbEntity
  8
SK6
100
AcDbText
 10
-18.5
 20
25.0
 30
0.0
 40
3.0
  1
861.1-0350-042A1-GM
 41
0.7540842026666672
  7
SANDVIK_STYLE
 72
     5
 11
21.897368
 21
25.0
 31
0.0
100
AcDbText
  0
LINE
  5
2B5E
330
BF7
100
AcDbEntity
  8
SK1
100
AcDbLine
 10
0.0
 20
3.0
 30
0.0
 11
0.0
 21
-2.999999999999996
 31
0.0
  0
ARC
  5
2B5F
330
BF7
100
AcDbEntity
  8
1
100
AcDbCircle
 10
0.4999929999999895
 20
2.25
 30
0.0
 40
0.4999999906281083
100
AcDbArc
 50
180.0
 51
270.0
  0
ARC
  5
2B60
330
BF7
100
AcDbEntity
  8
1
100
AcDbCircle
 10
0.4999929999999895
 20
-2.250000999999997
 30
0.0
 40
0.4999999906281083
100
AcDbArc
 50
90.0
 51
180.0
  0
LINE
  5
2B61
330
BF7
100
AcDbEntity
  8
1
100
AcDbLine
 10
10.50611699999999
 20
0.4823480000000018
 30
0.0
 11
6.386697999999995
 21
0.4823480000000018
 31
0.0
  0
LINE
  5
2B62
330
BF7
100
AcDbEntity
  8
1
100
AcDbLine
 10
7.972127
 20
-0.2457549999999955
 30
0.0
 11
6.386697999999995
 21
0.4823480000000018
 31
0.0
  0
LINE
  5
2B63
330
BF7
100
AcDbEntity
  8
1
100
AcDbLine
 10
9.557542999999981
 20
-0.9264669999999988
 30
0.0
 11
7.972127
 21
-0.2457549999999955
 31
0.0
  0
LINE
  5
2B64
330
BF7
100
AcDbEntity
  8
1
100
AcDbLine
 10
11.14297199999998
 20
-1.428523999999995
 30
0.0
 11
9.557542999999981
 21
-0.9264669999999988
 31
0.0
  0
LINE
  5
2B65
330
BF7
100
AcDbEntity
  8
1
100
AcDbLine
 10
12.72840099999999
 20
-1.655122999999997
 30
0.0
 11
11.14297199999998
 21
-1.428523999999995
 31
0.0
  0
LINE
  5
2B66
330
BF7
100
AcDbEntity
  8
1
100
AcDbLine
 10
13.12493699999999
 20
-1.631970999999995
 30
0.0
 11
12.72840099999999
 21
-1.655122999999997
 31
0.0
  0
LINE
  5
2B67
330
BF7
100
AcDbEntity
  8
1
100
AcDbLine
 10
28.58264199999999
 20
0.6155310000000008
 30
0.0
 11
26.55919399999999
 21
1.319313000000001
 31
0.0
  0
LINE
  5
2B68
330
BF7
100
AcDbEntity
  8
1
100
AcDbLine
 10
30.16807
 20
-0.1054309999999994
 30
0.0
 11
28.58264199999999
 21
0.6155310000000008
 31
0.0
  0
LINE
  5
2B69
330
BF7
100
AcDbEntity
  8
1
100
AcDbLine
 10
31.753499
 20
-0.8060629999999978
 30
0.0
 11
30.16807
 21
-0.1054309999999994
 31
0.0
  0
LINE
  5
2B6A
330
BF7
100
AcDbEntity
  8
1
100
AcDbLine
 10
33.33891599999998
 20
-1.351257999999995
 30
0.0
 11
31.753499
 21
-0.8060629999999978
 31
0.0
  0
LINE
  5
2B6B
330
BF7
100
AcDbEntity
  8
1
100
AcDbLine
 10
34.92434499999999
 20
-1.635892999999995
 30
0.0
 11
33.33891599999998
 21
-1.351257999999995
 31
0.0
  0
LINE
  5
2B6C
330
BF7
100
AcDbEntity
  8
1
100
AcDbLine
 10
35.61783499999999
 20
-1.622411999999995
 30
0.0
 11
34.92434499999999
 21
-1.635892999999995
 31
0.0
  0
LINE
  5
2B6D
330
BF7
100
AcDbEntity
  8
1
100
AcDbLine
 10
35.99448299999997
 20
-1.615090999999999
 30
0.0
 11
35.61783499999999
 21
-1.622411999999995
 31
0.0
  0
LINE
  5
2B6E
330
BF7
100
AcDbEntity
  8
1
100
AcDbLine
 10
50.77859799999998
 20
0.744287
 30
0.0
 11
48.78294699999997
 21
1.390287000000004
 31
0.0
  0
LINE
  5
2B6F
330
BF7
100
AcDbEntity
  8
1
100
AcDbLine
 10
52.36402599999999
 20
0.0356530000000035
 30
0.0
 11
50.77859799999998
 21
0.744287
 31
0.0
  0
LINE
  5
2B70
330
BF7
100
AcDbEntity
  8
1
100
AcDbLine
 10
53.94944299999997
 20
-0.6798519999999968
 30
0.0
 11
52.36402599999999
 21
0.0356530000000035
 31
0.0
  0
LINE
  5
2B71
330
BF7
100
AcDbEntity
  8
1
100
AcDbLine
 10
55.64982399999998
 20
-1.298258999999998
 30
0.0
 11
53.94944299999997
 21
-0.6798519999999968
 31
0.0
  0
LINE
  5
2B72
330
BF7
100
AcDbEntity
  8
1
100
AcDbLine
 10
57.35020499999999
 20
-1.629407999999995
 30
0.0
 11
55.64982399999998
 21
-1.298258999999998
 31
0.0
  0
LINE
  5
2B73
330
BF7
100
AcDbEntity
  8
1
100
AcDbLine
 10
6.238789999999981
 20
0.4888399999999998
 30
0.0
 11
6.104132999999976
 21
0.5077370000000025
 31
0.0
  0
LINE
  5
2B74
330
BF7
100
AcDbEntity
  8
1
100
AcDbLine
 10
6.386697999999995
 20
0.4823480000000018
 30
0.0
 11
6.238789999999981
 21
0.4888399999999998
 31
0.0
  0
LINE
  5
2B75
330
BF7
100
AcDbEntity
  8
1
100
AcDbLine
 10
6.386697999999995
 20
1.005287000000002
 30
0.0
 11
6.386697999999995
 21
0.4823480000000018
 31
0.0
  0
LINE
  5
2B76
330
BF7
100
AcDbEntity
  8
1
100
AcDbLine
 10
17.48467600000001
 20
0.5494380000000021
 30
0.0
 11
14.91818999999998
 21
1.412409
 31
0.0
  0
LINE
  5
2B77
330
BF7
100
AcDbEntity
  8
1
100
AcDbLine
 10
19.07009299999998
 20
-0.1757499999999972
 30
0.0
 11
17.48467600000001
 21
0.5494380000000021
 31
0.0
  0
LINE
  5
2B78
330
BF7
100
AcDbEntity
  8
1
100
AcDbLine
 10
20.65552099999999
 20
-0.8670439999999999
 30
0.0
 11
19.07009299999998
 21
-0.1757499999999972
 31
0.0
  0
LINE
  5
2B79
330
BF7
100
AcDbEntity
  8
1
100
AcDbLine
 10
22.24095
 20
-1.391147999999995
 30
0.0
 11
20.65552099999999
 21
-0.8670439999999999
 31
0.0
  0
LINE
  5
2B7A
330
BF7
100
AcDbEntity
  8
1
100
AcDbLine
 10
23.82636699999998
 20
-1.647012999999995
 30
0.0
 11
22.24095
 21
-1.391147999999995
 31
0.0
  0
LINE
  5
2B7B
330
BF7
100
AcDbEntity
  8
1
100
AcDbLine
 10
24.370181
 20
-1.625823
 30
0.0
 11
23.82636699999998
 21
-1.647012999999995
 31
0.0
  0
LINE
  5
2B7C
330
BF7
100
AcDbEntity
  8
1
100
AcDbLine
 10
24.78186799999998
 20
-1.609780999999996
 30
0.0
 11
24.370181
 21
-1.625823
 31
0.0
  0
LINE
  5
2B7D
330
BF7
100
AcDbEntity
  8
1
100
AcDbLine
 10
39.68061999999998
 20
0.680525000000003
 30
0.0
 11
37.64837900000003
 21
1.360656000000004
 31
0.0
  0
LINE
  5
2B7E
330
BF7
100
AcDbEntity
  8
1
100
AcDbLine
 10
41.26604799999998
 20
-0.0349199999999996
 30
0.0
 11
39.68061999999998
 21
0.680525000000003
 31
0.0
  0
LINE
  5
2B7F
330
BF7
100
AcDbEntity
  8
1
100
AcDbLine
 10
42.85146499999997
 20
-0.7436319999999981
 30
0.0
 11
41.26604799999998
 21
-0.0349199999999996
 31
0.0
  0
LINE
  5
2B80
330
BF7
100
AcDbEntity
  8
1
100
AcDbLine
 10
44.43689399999999
 20
-1.308943999999995
 30
0.0
 11
42.85146499999997
 21
-0.7436319999999981
 31
0.0
  0
LINE
  5
2B81
330
BF7
100
AcDbEntity
  8
1
100
AcDbLine
 10
46.02232299999999
 20
-1.621848999999995
 30
0.0
 11
44.43689399999999
 21
-1.308943999999995
 31
0.0
  0
LINE
  5
2B82
330
BF7
100
AcDbEntity
  8
1
100
AcDbLine
 10
46.81769599999998
 20
-1.621928999999995
 30
0.0
 11
46.02232299999999
 21
-1.621848999999995
 31
0.0
  0
LINE
  5
2B83
330
BF7
100
AcDbEntity
  8
1
100
AcDbLine
 10
47.180004
 20
-1.621965999999995
 30
0.0
 11
46.81769599999998
 21
-1.621928999999995
 31
0.0
  0
LINE
  5
2B84
330
BF7
100
AcDbEntity
  8
SK1
100
AcDbLine
 10
-35.35048300000001
 20
0.3270340000000012
 30
0.0
 11
-36.00000100000001
 21
0.3492090000000019
 31
0.0
  0
LINE
  5
2B85
330
BF7
100
AcDbEntity
  8
1
100
AcDbLine
 10
57.95389799999998
 20
0.1507970000000007
 30
0.0
 11
57.52728900000001
 21
0.5129180000000027
 31
0.0
  0
LINE
  5
2B86
330
BF7
100
AcDbEntity
  8
1
100
AcDbLine
 10
57.44268899999998
 20
0.4467000000000036
 30
0.0
 11
57.44506299999997
 21
0.4247540000000038
 31
0.0
  0
LINE
  5
2B87
330
BF7
100
AcDbEntity
  8
1
100
AcDbLine
 10
57.44603199999997
 20
0.4659790000000045
 30
0.0
 11
57.44268899999998
 21
0.4467000000000036
 31
0.0
  0
LINE
  5
2B88
330
BF7
100
AcDbEntity
  8
1
100
AcDbLine
 10
57.45567299999999
 20
0.4839079999999998
 30
0.0
 11
57.44603199999997
 21
0.4659790000000045
 31
0.0
  0
LINE
  5
2B89
330
BF7
100
AcDbEntity
  8
1
100
AcDbLine
 10
57.47095799999996
 20
0.4979270000000007
 30
0.0
 11
57.45567299999999
 21
0.4839079999999998
 31
0.0
  0
LINE
  5
2B8A
330
BF7
100
AcDbEntity
  8
1
100
AcDbLine
 10
57.49365499999999
 20
0.5083090000000006
 30
0.0
 11
57.47095799999996
 21
0.4979270000000007
 31
0.0
  0
LINE
  5
2B8B
330
BF7
100
AcDbEntity
  8
1
100
AcDbLine
 10
57.52728900000001
 20
0.5129180000000027
 30
0.0
 11
57.49365499999999
 21
0.5083090000000006
 31
0.0
  0
LINE
  5
2B8C
330
BF7
100
AcDbEntity
  8
1
100
AcDbLine
 10
55.689381
 20
0.4289920000000045
 30
0.0
 11
57.46870499999999
 21
0.3222890000000014
 31
0.0
  0
LINE
  5
2B8D
330
BF7
100
AcDbEntity
  8
1
100
AcDbLine
 10
36.18957799999999
 20
0.1900980000000025
 30
0.0
 11
41.21622099999997
 21
-0.3641499999999986
 31
0.0
  0
LINE
  5
2B8E
330
BF7
100
AcDbEntity
  8
1
100
AcDbLine
 10
33.21049599999998
 20
0.4445730000000019
 30
0.0
 11
36.18957799999999
 21
0.1900980000000025
 31
0.0
  0
LINE
  5
2B8F
330
BF7
100
AcDbEntity
  8
1
100
AcDbLine
 10
33.108419
 20
0.4433460000000018
 30
0.0
 11
33.21049599999998
 21
0.4445730000000019
 31
0.0
  0
LINE
  5
2B90
330
BF7
100
AcDbEntity
  8
1
100
AcDbLine
 10
14.162713
 20
0.1320709999999998
 30
0.0
 11
18.74268999999998
 21
-0.3793379999999971
 31
0.0
  0
LINE
  5
2B91
330
BF7
100
AcDbEntity
  8
1
100
AcDbLine
 10
11.63506899999998
 20
0.3920360000000009
 30
0.0
 11
14.162713
 21
0.1320709999999998
 31
0.0
  0
LINE
  5
2B92
330
BF7
100
AcDbEntity
  8
1
100
AcDbLine
 10
10.69636699999998
 20
0.418960000000002
 30
0.0
 11
11.63506899999998
 21
0.3920360000000009
 31
0.0
  0
LINE
  5
2B93
330
BF7
100
AcDbEntity
  8
1
100
AcDbLine
 10
9.911288999999982
 20
1.054657999999997
 30
0.0
 11
9.650101000000006
 21
0.803816000000001
 31
0.0
  0
LINE
  5
2B94
330
BF7
100
AcDbEntity
  8
1
100
AcDbLine
 10
10.01653899999999
 20
1.178651000000001
 30
0.0
 11
9.911288999999982
 21
1.054657999999997
 31
0.0
  0
LINE
  5
2B95
330
BF7
100
AcDbEntity
  8
1
100
AcDbLine
 10
10.11125200000001
 20
1.298593
 30
0.0
 11
10.01653899999999
 21
1.178651000000001
 31
0.0
  0
LINE
  5
2B96
330
BF7
100
AcDbEntity
  8
1
100
AcDbLine
 10
10.17068399999996
 20
1.377306000000004
 30
0.0
 11
10.11125200000001
 21
1.298593
 31
0.0
  0
LINE
  5
2B97
330
BF7
100
AcDbEntity
  8
1
100
AcDbLine
 10
10.22713699999997
 20
1.454061000000002
 30
0.0
 11
10.17068399999996
 21
1.377306000000004
 31
0.0
  0
LINE
  5
2B98
330
BF7
100
AcDbEntity
  8
1
100
AcDbLine
 10
57.74309499999998
 20
0.5143350000000027
 30
0.0
 11
57.52728900000001
 21
0.5129180000000027
 31
0.0
  0
LINE
  5
2B99
330
BF7
100
AcDbEntity
  8
1
100
AcDbLine
 10
57.846104
 20
0.5154130000000025
 30
0.0
 11
57.74309499999998
 21
0.5143350000000027
 31
0.0
  0
LINE
  5
2B9A
330
BF7
100
AcDbEntity
  8
1
100
AcDbLine
 10
48.10596499999999
 20
0.1075040000000023
 30
0.0
 11
52.45408899999998
 21
-0.380867999999996
 31
0.0
  0
LINE
  5
2B9B
330
BF7
100
AcDbEntity
  8
1
100
AcDbLine
 10
45.126653
 20
0.4095750000000038
 30
0.0
 11
48.10596499999999
 21
0.1075040000000023
 31
0.0
  0
LINE
  5
2B9C
330
BF7
100
AcDbEntity
  8
1
100
AcDbLine
 10
44.43018399999997
 20
0.4176250000000012
 30
0.0
 11
45.126653
 21
0.4095750000000038
 31
0.0
  0
LINE
  5
2B9D
330
BF7
100
AcDbEntity
  8
1
100
AcDbLine
 10
24.27339599999999
 20
0.2660630000000026
 30
0.0
 11
30.029731
 21
-0.3882019999999961
 31
0.0
  0
LINE
  5
2B9E
330
BF7
100
AcDbEntity
  8
1
100
AcDbLine
 10
21.90862999999999
 20
0.4405770000000011
 30
0.0
 11
24.27339599999999
 21
0.2660630000000026
 31
0.0
  0
LINE
  5
2B9F
330
BF7
100
AcDbEntity
  8
SK1
100
AcDbLine
 10
-36.00000100000001
 20
2.517256000000001
 30
0.0
 11
-36.00000100000001
 21
2.624998000000001
 31
0.0
  0
LINE
  5
2BA0
330
BF7
100
AcDbEntity
  8
SK1
100
AcDbLine
 10
-36.00000100000001
 20
2.202922
 30
0.0
 11
-36.00000100000001
 21
2.517256000000001
 31
0.0
  0
LINE
  5
2BA1
330
BF7
100
AcDbEntity
  8
SK1
100
AcDbLine
 10
-36.00000100000001
 20
1.707797000000002
 30
0.0
 11
-36.00000100000001
 21
2.202922
 31
0.0
  0
LINE
  5
2BA2
330
BF7
100
AcDbEntity
  8
SK1
100
AcDbLine
 10
-36.00000100000001
 20
1.072513000000004
 30
0.0
 11
-36.00000100000001
 21
1.707797000000002
 31
0.0
  0
LINE
  5
2BA3
330
BF7
100
AcDbEntity
  8
SK1
100
AcDbLine
 10
-36.00000100000001
 20
0.3492090000000019
 30
0.0
 11
-36.00000100000001
 21
1.072513000000004
 31
0.0
  0
LINE
  5
2BA4
330
BF7
100
AcDbEntity
  8
SK1
100
AcDbLine
 10
-35.35048300000001
 20
1.172501000000004
 30
0.0
 11
-35.35048300000001
 21
0.3270340000000012
 31
0.0
  0
LINE
  5
2BA5
330
BF7
100
AcDbEntity
  8
SK1
100
AcDbLine
 10
-35.35048300000001
 20
1.918495
 30
0.0
 11
-35.35048300000001
 21
1.172501000000004
 31
0.0
  0
LINE
  5
2BA6
330
BF7
100
AcDbEntity
  8
SK1
100
AcDbLine
 10
-35.35048300000001
 20
2.501729000000004
 30
0.0
 11
-35.35048300000001
 21
1.918495
 31
0.0
  0
LINE
  5
2BA7
330
BF7
100
AcDbEntity
  8
SK1
100
AcDbLine
 10
-35.35048300000001
 20
2.872721000000001
 30
0.0
 11
-35.35048300000001
 21
2.501729000000004
 31
0.0
  0
LINE
  5
2BA8
330
BF7
100
AcDbEntity
  8
SK1
100
AcDbLine
 10
-35.35048300000001
 20
3.0
 30
0.0
 11
-35.35048300000001
 21
2.872721000000001
 31
0.0
  0
LINE
  5
2BA9
330
BF7
100
AcDbEntity
  8
SK1
100
AcDbLine
 10
-36.00000100000001
 20
-0.6490959999999966
 30
0.0
 11
-35.35048300000001
 21
-0.6712709999999973
 31
0.0
  0
LINE
  5
2BAA
330
BF7
100
AcDbEntity
  8
SK1
100
AcDbLine
 10
-35.35048300000001
 20
-2.892106999999998
 30
0.0
 11
-35.35048300000001
 21
-2.999999999999996
 31
0.0
  0
LINE
  5
2BAB
330
BF7
100
AcDbEntity
  8
SK1
100
AcDbLine
 10
-35.35048300000001
 20
-2.576149999999997
 30
0.0
 11
-35.35048300000001
 21
-2.892106999999998
 31
0.0
  0
LINE
  5
2BAC
330
BF7
100
AcDbEntity
  8
SK1
100
AcDbLine
 10
-35.35048300000001
 20
-2.074858999999996
 30
0.0
 11
-35.35048300000001
 21
-2.576149999999997
 31
0.0
  0
LINE
  5
2BAD
330
BF7
100
AcDbEntity
  8
SK1
100
AcDbLine
 10
-35.35048300000001
 20
-1.424298999999995
 30
0.0
 11
-35.35048300000001
 21
-2.074858999999996
 31
0.0
  0
LINE
  5
2BAE
330
BF7
100
AcDbEntity
  8
SK1
100
AcDbLine
 10
-35.35048300000001
 20
-0.6712709999999973
 30
0.0
 11
-35.35048300000001
 21
-1.424298999999995
 31
0.0
  0
LINE
  5
2BAF
330
BF7
100
AcDbEntity
  8
SK1
100
AcDbLine
 10
-35.35048300000001
 20
-0.3270359999999997
 30
0.0
 11
-36.00000100000001
 21
-0.3492110000000004
 31
0.0
  0
LINE
  5
2BB0
330
BF7
100
AcDbEntity
  8
SK1
100
AcDbLine
 10
-36.00000100000001
 20
-1.438800999999995
 30
0.0
 11
-36.00000100000001
 21
-0.6490959999999966
 31
0.0
  0
LINE
  5
2BB1
330
BF7
100
AcDbEntity
  8
SK1
100
AcDbLine
 10
-36.00000100000001
 20
-2.073011999999998
 30
0.0
 11
-36.00000100000001
 21
-1.438800999999995
 31
0.0
  0
LINE
  5
2BB2
330
BF7
100
AcDbEntity
  8
SK1
100
AcDbLine
 10
-36.00000100000001
 20
-2.483186999999996
 30
0.0
 11
-36.00000100000001
 21
-2.073011999999998
 31
0.0
  0
LINE
  5
2BB3
330
BF7
100
AcDbEntity
  8
SK1
100
AcDbLine
 10
-36.00000100000001
 20
-2.625000999999997
 30
0.0
 11
-36.00000100000001
 21
-2.483186999999996
 31
0.0
  0
LINE
  5
2BB4
330
BF7
100
AcDbEntity
  8
SK1
100
AcDbLine
 10
-36.00000100000001
 20
-0.3492110000000004
 30
0.0
 11
-36.00000100000001
 21
-0.6490959999999966
 31
0.0
  0
LINE
  5
2BB5
330
BF7
100
AcDbEntity
  8
1
100
AcDbLine
 10
8.939085999999974
 20
-1.101405999999995
 30
0.0
 11
8.364095999999987
 21
-1.342146999999997
 31
0.0
  0
LINE
  5
2BB6
330
BF7
100
AcDbEntity
  8
1
100
AcDbLine
 10
52.09158699999997
 20
-1.287730999999997
 30
0.0
 11
53.74702099999999
 21
-0.9674939999999983
 31
0.0
  0
LINE
  5
2BB7
330
BF7
100
AcDbEntity
  8
1
100
AcDbLine
 10
50.57713199999998
 20
-1.338562999999997
 30
0.0
 11
52.09158699999997
 21
-1.287730999999997
 31
0.0
  0
LINE
  5
2BB8
330
BF7
100
AcDbEntity
  8
1
100
AcDbLine
 10
49.06247199999999
 20
-1.153461999999997
 30
0.0
 11
50.57713199999998
 21
-1.338562999999997
 31
0.0
  0
LINE
  5
2BB9
330
BF7
100
AcDbEntity
  8
1
100
AcDbLine
 10
47.53939399999999
 20
-0.7624889999999988
 30
0.0
 11
49.06247199999999
 21
-1.153461999999997
 31
0.0
  0
LINE
  5
2BBA
330
BF7
100
AcDbEntity
  8
1
100
AcDbLine
 10
46.01652099999998
 20
-0.2357779999999963
 30
0.0
 11
47.53939399999999
 21
-0.7624889999999988
 31
0.0
  0
LINE
  5
2BBB
330
BF7
100
AcDbEntity
  8
1
100
AcDbLine
 10
44.99525399999998
 20
0.145621000000002
 30
0.0
 11
46.01652099999998
 21
-0.2357779999999963
 31
0.0
  0
LINE
  5
2BBC
330
BF7
100
AcDbEntity
  8
1
100
AcDbLine
 10
29.26451599999999
 20
-1.318805999999998
 30
0.0
 11
31.27453199999997
 21
-0.9488329999999967
 31
0.0
  0
LINE
  5
2BBD
330
BF7
100
AcDbEntity
  8
1
100
AcDbLine
 10
27.741692
 20
-1.317287999999997
 30
0.0
 11
29.26451599999999
 21
-1.318805999999998
 31
0.0
  0
LINE
  5
2BBE
330
BF7
100
AcDbEntity
  8
1
100
AcDbLine
 10
26.21866299999999
 20
-1.081141999999997
 30
0.0
 11
27.741692
 21
-1.317287999999997
 31
0.0
  0
LINE
  5
2BBF
330
BF7
100
AcDbEntity
  8
1
100
AcDbLine
 10
24.695742
 20
-0.6524279999999969
 30
0.0
 11
26.21866299999999
 21
-1.081141999999997
 31
0.0
  0
LINE
  5
2BC0
330
BF7
100
AcDbEntity
  8
1
100
AcDbLine
 10
23.40351299999998
 20
-0.1900099999999973
 30
0.0
 11
24.695742
 21
-0.6524279999999969
 31
0.0
  0
LINE
  5
2BC1
330
BF7
100
AcDbEntity
  8
1
100
AcDbLine
 10
19.18558899999999
 20
1.409747000000002
 30
0.0
 11
17.18879999999998
 21
1.629311000000004
 31
0.0
  0
LINE
  5
2BC2
330
BF7
100
AcDbEntity
  8
1
100
AcDbLine
 10
20.66300599999999
 20
0.9381130000000011
 30
0.0
 11
19.18558899999999
 21
1.409747000000002
 31
0.0
  0
LINE
  5
2BC3
330
BF7
100
AcDbEntity
  8
1
100
AcDbLine
 10
22.09883199999999
 20
0.3280200000000022
 30
0.0
 11
20.66300599999999
 21
0.9381130000000011
 31
0.0
  0
LINE
  5
2BC4
330
BF7
100
AcDbEntity
  8
1
100
AcDbLine
 10
23.576031
 20
-0.3529089999999968
 30
0.0
 11
22.09883199999999
 21
0.3280200000000022
 31
0.0
  0
LINE
  5
2BC5
330
BF7
100
AcDbEntity
  8
1
100
AcDbLine
 10
25.011651
 20
-0.9589279999999964
 30
0.0
 11
23.576031
 21
-0.3529089999999968
 31
0.0
  0
LINE
  5
2BC6
330
BF7
100
AcDbEntity
  8
1
100
AcDbLine
 10
26.48874099999998
 20
-1.422935999999999
 30
0.0
 11
25.011651
 21
-0.9589279999999964
 31
0.0
  0
LINE
  5
2BC7
330
BF7
100
AcDbEntity
  8
1
100
AcDbLine
 10
27.92428799999999
 20
-1.645632999999995
 30
0.0
 11
26.48874099999998
 21
-1.422935999999999
 31
0.0
  0
LINE
  5
2BC8
330
BF7
100
AcDbEntity
  8
1
100
AcDbLine
 10
29.40171699999999
 20
-1.602285999999999
 30
0.0
 11
27.92428799999999
 21
-1.645632999999995
 31
0.0
  0
LINE
  5
2BC9
330
BF7
100
AcDbEntity
  8
1
100
AcDbLine
 10
30.83756699999999
 20
-1.302153999999998
 30
0.0
 11
29.40171699999999
 21
-1.602285999999999
 31
0.0
  0
LINE
  5
2BCA
330
BF7
100
AcDbEntity
  8
1
100
AcDbLine
 10
31.55528000000001
 20
-1.047767999999996
 30
0.0
 11
30.83756699999999
 21
-1.302153999999998
 31
0.0
  0
LINE
  5
2BCB
330
BF7
100
AcDbEntity
  8
1
100
AcDbLine
 10
42.48990799999996
 20
1.178057000000001
 30
0.0
 11
39.68536699999999
 21
1.652945999999999
 31
0.0
  0
LINE
  5
2BCC
330
BF7
100
AcDbEntity
  8
1
100
AcDbLine
 10
43.966925
 20
0.6090330000000002
 30
0.0
 11
42.48990799999996
 21
1.178057000000001
 31
0.0
  0
LINE
  5
2BCD
330
BF7
100
AcDbEntity
  8
1
100
AcDbLine
 10
45.40238699999997
 20
-0.0428769999999972
 30
0.0
 11
43.966925
 21
0.6090330000000002
 31
0.0
  0
LINE
  5
2BCE
330
BF7
100
AcDbEntity
  8
1
100
AcDbLine
 10
46.87981699999997
 20
-0.7056459999999979
 30
0.0
 11
45.40238699999997
 21
-0.0428769999999972
 31
0.0
  0
LINE
  5
2BCF
330
BF7
100
AcDbEntity
  8
1
100
AcDbLine
 10
48.31563
 20
-1.237221999999998
 30
0.0
 11
46.87981699999997
 21
-0.7056459999999979
 31
0.0
  0
LINE
  5
2BD0
330
BF7
100
AcDbEntity
  8
1
100
AcDbLine
 10
49.792405
 20
-1.578594999999999
 30
0.0
 11
48.31563
 21
-1.237221999999998
 31
0.0
  0
LINE
  5
2BD1
330
BF7
100
AcDbEntity
  8
1
100
AcDbLine
 10
51.22763699999999
 20
-1.656949999999996
 30
0.0
 11
49.792405
 21
-1.578594999999999
 31
0.0
  0
LINE
  5
2BD2
330
BF7
100
AcDbEntity
  8
1
100
AcDbLine
 10
52.69357299999999
 20
-1.466031999999998
 30
0.0
 11
51.22763699999999
 21
-1.656949999999996
 31
0.0
  0
LINE
  5
2BD3
330
BF7
100
AcDbEntity
  8
1
100
AcDbLine
 10
54.08036999999999
 20
-1.058863999999997
 30
0.0
 11
52.69357299999999
 21
-1.466031999999998
 31
0.0
  0
LINE
  5
2BD4
330
BF7
100
AcDbEntity
  8
1
100
AcDbLine
 10
56.97904299999999
 20
-0.1307559999999981
 30
0.0
 11
56.63550699999999
 21
0.0006010000000032
 31
0.0
  0
LINE
  5
2BD5
330
BF7
100
AcDbEntity
  8
1
100
AcDbLine
 10
57.23246699999998
 20
-0.1463559999999973
 30
0.0
 11
56.97904299999999
 21
-0.1307559999999981
 31
0.0
  0
LINE
  5
2BD6
330
BF7
100
AcDbEntity
  8
1
100
AcDbLine
 10
57.37311999999999
 20
-0.0898420000000009
 30
0.0
 11
57.23246699999998
 21
-0.1463559999999973
 31
0.0
  0
LINE
  5
2BD7
330
BF7
100
AcDbEntity
  8
1
100
AcDbLine
 10
57.44925399999999
 20
0.0025200000000041
 30
0.0
 11
57.37311999999999
 21
-0.0898420000000009
 31
0.0
  0
LINE
  5
2BD8
330
BF7
100
AcDbEntity
  8
1
100
AcDbLine
 10
57.484196
 20
0.1502550000000014
 30
0.0
 11
57.44925399999999
 21
0.0025200000000041
 31
0.0
  0
LINE
  5
2BD9
330
BF7
100
AcDbEntity
  8
1
100
AcDbLine
 10
57.46870499999999
 20
0.3222890000000014
 30
0.0
 11
57.484196
 21
0.1502550000000014
 31
0.0
  0
LINE
  5
2BDA
330
BF7
100
AcDbEntity
  8
1
100
AcDbLine
 10
57.44506299999997
 20
0.4247540000000038
 30
0.0
 11
57.46870499999999
 21
0.3222890000000014
 31
0.0
  0
LINE
  5
2BDB
330
BF7
100
AcDbEntity
  8
1
100
AcDbLine
 10
57.97474199999999
 20
-0.0248499999999972
 30
0.0
 11
57.44506299999997
 21
0.4247540000000038
 31
0.0
  0
LINE
  5
2BDC
330
BF7
100
AcDbEntity
  8
1
100
AcDbLine
 10
56.96813
 20
-0.7519519999999959
 30
0.0
 11
57.13273999999998
 21
-0.8882589999999979
 31
0.0
  0
LINE
  5
2BDD
330
BF7
100
AcDbEntity
  8
1
100
AcDbLine
 10
56.73818999999998
 20
-0.534354999999998
 30
0.0
 11
56.96813
 21
-0.7519519999999959
 31
0.0
  0
LINE
  5
2BDE
330
BF7
100
AcDbEntity
  8
1
100
AcDbLine
 10
56.50886799999998
 20
-0.2747809999999973
 30
0.0
 11
56.73818999999998
 21
-0.534354999999998
 31
0.0
  0
LINE
  5
2BDF
330
BF7
100
AcDbEntity
  8
1
100
AcDbLine
 10
56.31097499999999
 20
0.0042510000000036
 30
0.0
 11
56.50886799999998
 21
-0.2747809999999973
 31
0.0
  0
LINE
  5
2BE0
330
BF7
100
AcDbEntity
  8
1
100
AcDbLine
 10
56.22366199999999
 20
0.1559430000000006
 30
0.0
 11
56.31097499999999
 21
0.0042510000000036
 31
0.0
  0
LINE
  5
2BE1
330
BF7
100
AcDbEntity
  8
1
100
AcDbLine
 10
9.624314999999995
 20
0.8659060000000025
 30
0.0
 11
9.302774999999996
 21
1.005287000000002
 31
0.0
  0
LINE
  5
2BE2
330
BF7
100
AcDbEntity
  8
1
100
AcDbLine
 10
9.977878999999999
 20
0.7131930000000004
 30
0.0
 11
9.624314999999995
 21
0.8659060000000025
 31
0.0
  0
LINE
  5
2BE3
330
BF7
100
AcDbEntity
  8
1
100
AcDbLine
 10
10.50611699999999
 20
0.4823480000000018
 30
0.0
 11
9.977878999999999
 21
0.7131930000000004
 31
0.0
  0
LINE
  5
2BE4
330
BF7
100
AcDbEntity
  8
1
100
AcDbLine
 10
39.92500899999999
 20
-1.347087999999999
 30
0.0
 11
42.51329499999999
 21
-0.9504099999999979
 31
0.0
  0
LINE
  5
2BE5
330
BF7
100
AcDbEntity
  8
1
100
AcDbLine
 10
38.40196699999999
 20
-1.252297999999999
 30
0.0
 11
39.92500899999999
 21
-1.347087999999999
 31
0.0
  0
LINE
  5
2BE6
330
BF7
100
AcDbEntity
  8
1
100
AcDbLine
 10
36.87904599999999
 20
-0.9344559999999971
 30
0.0
 11
38.40196699999999
 21
-1.252297999999999
 31
0.0
  0
LINE
  5
2BE7
330
BF7
100
AcDbEntity
  8
1
100
AcDbLine
 10
35.356077
 20
-0.45017
 30
0.0
 11
36.87904599999999
 21
-0.9344559999999971
 31
0.0
  0
LINE
  5
2BE8
330
BF7
100
AcDbEntity
  8
1
100
AcDbLine
 10
33.83331399999998
 20
0.1142730000000043
 30
0.0
 11
35.356077
 21
-0.45017
 31
0.0
  0
LINE
  5
2BE9
330
BF7
100
AcDbEntity
  8
1
100
AcDbLine
 10
33.75363199999998
 20
0.1427460000000025
 30
0.0
 11
33.83331399999998
 21
0.1142730000000043
 31
0.0
  0
LINE
  5
2BEA
330
BF7
100
AcDbEntity
  8
1
100
AcDbLine
 10
17.08139399999999
 20
-1.346638999999999
 30
0.0
 11
20.02363199999996
 21
-0.9609079999999964
 31
0.0
  0
LINE
  5
2BEB
330
BF7
100
AcDbEntity
  8
1
100
AcDbLine
 10
15.55831599999999
 20
-1.198598999999997
 30
0.0
 11
17.08139399999999
 21
-1.346638999999999
 31
0.0
  0
LINE
  5
2BEC
330
BF7
100
AcDbEntity
  8
1
100
AcDbLine
 10
14.03556499999999
 20
-0.8370809999999977
 30
0.0
 11
15.55831599999999
 21
-1.198598999999997
 31
0.0
  0
LINE
  5
2BED
330
BF7
100
AcDbEntity
  8
1
100
AcDbLine
 10
12.51245
 20
-0.3263509999999989
 30
0.0
 11
14.03556499999999
 21
-0.8370809999999977
 31
0.0
  0
LINE
  5
2BEE
330
BF7
100
AcDbEntity
  8
1
100
AcDbLine
 10
11.187749
 20
0.1687970000000014
 30
0.0
 11
12.51245
 21
-0.3263509999999989
 31
0.0
  0
LINE
  5
2BEF
330
BF7
100
AcDbEntity
  8
1
100
AcDbLine
 10
56.28946499999997
 20
0.1367660000000015
 30
0.0
 11
56.22366199999999
 21
0.1559430000000006
 31
0.0
  0
LINE
  5
2BF0
330
BF7
100
AcDbEntity
  8
1
100
AcDbLine
 10
56.46004599999997
 20
0.078279000000002
 30
0.0
 11
56.28946499999997
 21
0.1367660000000015
 31
0.0
  0
LINE
  5
2BF1
330
BF7
100
AcDbEntity
  8
1
100
AcDbLine
 10
56.54797600000001
 20
0.0422130000000038
 30
0.0
 11
56.46004599999997
 21
0.078279000000002
 31
0.0
  0
LINE
  5
2BF2
330
BF7
100
AcDbEntity
  8
1
100
AcDbLine
 10
56.63550699999999
 20
0.0006010000000032
 30
0.0
 11
56.54797600000001
 21
0.0422130000000038
 31
0.0
  0
LINE
  5
2BF3
330
BF7
100
AcDbEntity
  8
1
100
AcDbLine
 10
11.95215300000001
 20
-0.1817149999999969
 30
0.0
 11
10.50611699999999
 21
0.4823480000000018
 31
0.0
  0
LINE
  5
2BF4
330
BF7
100
AcDbEntity
  8
1
100
AcDbLine
 10
13.35911599999997
 20
-0.8005299999999984
 30
0.0
 11
11.95215300000001
 21
-0.1817149999999969
 31
0.0
  0
LINE
  5
2BF5
330
BF7
100
AcDbEntity
  8
1
100
AcDbLine
 10
14.83671499999999
 20
-1.317653999999995
 30
0.0
 11
13.35911599999997
 21
-0.8005299999999984
 31
0.0
  0
LINE
  5
2BF6
330
BF7
100
AcDbEntity
  8
1
100
AcDbLine
 10
16.27270999999999
 20
-1.608843999999995
 30
0.0
 11
14.83671499999999
 21
-1.317653999999995
 31
0.0
  0
LINE
  5
2BF7
330
BF7
100
AcDbEntity
  8
1
100
AcDbLine
 10
17.74993299999997
 20
-1.641849999999996
 30
0.0
 11
16.27270999999999
 21
-1.608843999999995
 31
0.0
  0
LINE
  5
2BF8
330
BF7
100
AcDbEntity
  8
1
100
AcDbLine
 10
19.18558899999999
 20
-1.409748
 30
0.0
 11
17.74993299999997
 21
-1.641849999999996
 31
0.0
  0
LINE
  5
2BF9
330
BF7
100
AcDbEntity
  8
1
100
AcDbLine
 10
20.31627399999999
 20
-1.048800999999995
 30
0.0
 11
19.18558899999999
 21
-1.409748
 31
0.0
  0
LINE
  5
2BFA
330
BF7
100
AcDbEntity
  8
1
100
AcDbLine
 10
30.83756699999999
 20
1.302153
 30
0.0
 11
28.435667
 21
1.630627999999999
 31
0.0
  0
LINE
  5
2BFB
330
BF7
100
AcDbEntity
  8
1
100
AcDbLine
 10
32.314705
 20
0.7785930000000008
 30
0.0
 11
30.83756699999999
 21
1.302153
 31
0.0
  0
LINE
  5
2BFC
330
BF7
100
AcDbEntity
  8
1
100
AcDbLine
 10
33.75027699999999
 20
0.1436240000000026
 30
0.0
 11
32.314705
 21
0.7785930000000008
 31
0.0
  0
LINE
  5
2BFD
330
BF7
100
AcDbEntity
  8
1
100
AcDbLine
 10
35.22758499999998
 20
-0.5324909999999968
 30
0.0
 11
33.75027699999999
 21
0.1436240000000026
 31
0.0
  0
LINE
  5
2BFE
330
BF7
100
AcDbEntity
  8
1
100
AcDbLine
 10
36.66331299999999
 20
-1.104910999999997
 30
0.0
 11
35.22758499999998
 21
-0.5324909999999968
 31
0.0
  0
LINE
  5
2BFF
330
BF7
100
AcDbEntity
  8
1
100
AcDbLine
 10
38.14071799999999
 20
-1.510272999999995
 30
0.0
 11
36.66331299999999
 21
-1.104910999999997
 31
0.0
  0
LINE
  5
2C00
330
BF7
100
AcDbEntity
  8
1
100
AcDbLine
 10
39.57650799999999
 20
-1.661732999999996
 30
0.0
 11
38.14071799999999
 21
-1.510272999999995
 31
0.0
  0
LINE
  5
2C01
330
BF7
100
AcDbEntity
  8
1
100
AcDbLine
 10
41.05402199999999
 20
-1.542489999999995
 30
0.0
 11
39.57650799999999
 21
-1.661732999999996
 31
0.0
  0
LINE
  5
2C02
330
BF7
100
AcDbEntity
  8
1
100
AcDbLine
 10
42.48990799999996
 20
-1.178057999999995
 30
0.0
 11
41.05402199999999
 21
-1.542489999999995
 31
0.0
  0
LINE
  5
2C03
330
BF7
100
AcDbEntity
  8
1
100
AcDbLine
 10
42.79927599999999
 20
-1.058872999999997
 30
0.0
 11
42.48990799999996
 21
-1.178057999999995
 31
0.0
  0
LINE
  5
2C04
330
BF7
100
AcDbEntity
  8
1
100
AcDbLine
 10
52.69357299999999
 20
1.466030000000003
 30
0.0
 11
50.939392
 21
1.641213
 31
0.0
  0
LINE
  5
2C05
330
BF7
100
AcDbEntity
  8
1
100
AcDbLine
 10
54.11883699999997
 20
1.047569000000002
 30
0.0
 11
52.69357299999999
 21
1.466030000000003
 31
0.0
  0
LINE
  5
2C06
330
BF7
100
AcDbEntity
  8
1
100
AcDbLine
 10
55.17920100000001
 20
0.6253080000000005
 30
0.0
 11
54.11883699999997
 21
1.047569000000002
 31
0.0
  0
LINE
  5
2C07
330
BF7
100
AcDbEntity
  8
1
100
AcDbLine
 10
56.22366199999999
 20
0.1559430000000006
 30
0.0
 11
55.17920100000001
 21
0.6253080000000005
 31
0.0
  0
LINE
  5
2C08
330
BF7
100
AcDbEntity
  8
1
100
AcDbLine
 10
56.55988199999999
 20
-1.708616999999999
 30
0.0
 11
57.34580799999998
 21
-1.749999999999995
 31
0.0
  0
LINE
  5
2C09
330
BF7
100
AcDbEntity
  8
1
100
AcDbLine
 10
55.11264699999998
 20
-1.422152999999998
 30
0.0
 11
56.55988199999999
 21
-1.708616999999999
 31
0.0
  0
LINE
  5
2C0A
330
BF7
100
AcDbEntity
  8
1
100
AcDbLine
 10
53.75253199999997
 20
-0.9429249999999987
 30
0.0
 11
55.11264699999998
 21
-1.422152999999998
 31
0.0
  0
LINE
  5
2C0B
330
BF7
100
AcDbEntity
  8
1
100
AcDbLine
 10
52.39260999999999
 20
-0.3289799999999978
 30
0.0
 11
53.75253199999997
 21
-0.9429249999999987
 31
0.0
  0
LINE
  5
2C0C
330
BF7
100
AcDbEntity
  8
1
100
AcDbLine
 10
51.03249399999999
 20
0.3315380000000019
 30
0.0
 11
52.39260999999999
 21
-0.3289799999999978
 31
0.0
  0
LINE
  5
2C0D
330
BF7
100
AcDbEntity
  8
1
100
AcDbLine
 10
49.67245099999999
 20
0.9449649999999998
 30
0.0
 11
51.03249399999999
 21
0.3315380000000019
 31
0.0
  0
LINE
  5
2C0E
330
BF7
100
AcDbEntity
  8
1
100
AcDbLine
 10
48.31243299999997
 20
1.423730000000002
 30
0.0
 11
49.67245099999999
 21
0.9449649999999998
 31
0.0
  0
LINE
  5
2C0F
330
BF7
100
AcDbEntity
  8
1
100
AcDbLine
 10
46.95234099999999
 20
1.699510000000003
 30
0.0
 11
48.31243299999997
 21
1.423730000000002
 31
0.0
  0
LINE
  5
2C10
330
BF7
100
AcDbEntity
  8
1
100
AcDbLine
 10
45.59230999999996
 20
1.733114
 30
0.0
 11
46.95234099999999
 21
1.699510000000003
 31
0.0
  0
LINE
  5
2C11
330
BF7
100
AcDbEntity
  8
1
100
AcDbLine
 10
44.23226799999997
 20
1.519690999999999
 30
0.0
 11
45.59230999999996
 21
1.733114
 31
0.0
  0
LINE
  5
2C12
330
BF7
100
AcDbEntity
  8
1
100
AcDbLine
 10
42.87217599999999
 20
1.089763000000001
 30
0.0
 11
44.23226799999997
 21
1.519690999999999
 31
0.0
  0
LINE
  5
2C13
330
BF7
100
AcDbEntity
  8
1
100
AcDbLine
 10
42.79955499999998
 20
1.058500000000001
 30
0.0
 11
42.87217599999999
 21
1.089763000000001
 31
0.0
  0
LINE
  5
2C14
330
BF7
100
AcDbEntity
  8
1
100
AcDbLine
 10
33.35185099999999
 20
-1.601021999999995
 30
0.0
 11
34.83867899999999
 21
-1.739427999999995
 31
0.0
  0
LINE
  5
2C15
330
BF7
100
AcDbEntity
  8
1
100
AcDbLine
 10
31.99178399999997
 20
-1.225011999999995
 30
0.0
 11
33.35185099999999
 21
-1.601021999999995
 31
0.0
  0
LINE
  5
2C16
330
BF7
100
AcDbEntity
  8
1
100
AcDbLine
 10
30.631778
 20
-0.6743229999999976
 30
0.0
 11
31.99178399999997
 21
-1.225011999999995
 31
0.0
  0
LINE
  5
2C17
330
BF7
100
AcDbEntity
  8
1
100
AcDbLine
 10
29.27168599999999
 20
-0.0276759999999996
 30
0.0
 11
30.631778
 21
-0.6743229999999976
 31
0.0
  0
LINE
  5
2C18
330
BF7
100
AcDbEntity
  8
1
100
AcDbLine
 10
27.91166799999999
 20
0.6230639999999994
 30
0.0
 11
29.27168599999999
 21
-0.0276759999999996
 31
0.0
  0
LINE
  5
2C19
330
BF7
100
AcDbEntity
  8
1
100
AcDbLine
 10
26.55158799999998
 20
1.184887999999999
 30
0.0
 11
27.91166799999999
 21
0.6230639999999994
 31
0.0
  0
LINE
  5
2C1A
330
BF7
100
AcDbEntity
  8
1
100
AcDbLine
 10
25.19155699999999
 20
1.577918000000003
 30
0.0
 11
26.55158799999998
 21
1.184887999999999
 31
0.0
  0
LINE
  5
2C1B
330
BF7
100
AcDbEntity
  8
1
100
AcDbLine
 10
23.83148999999997
 20
1.746024999999999
 30
0.0
 11
25.19155699999999
 21
1.577918000000003
 31
0.0
  0
LINE
  5
2C1C
330
BF7
100
AcDbEntity
  8
1
100
AcDbLine
 10
22.47144699999998
 20
1.665293999999999
 30
0.0
 11
23.83148999999997
 21
1.746024999999999
 31
0.0
  0
LINE
  5
2C1D
330
BF7
100
AcDbEntity
  8
1
100
AcDbLine
 10
21.111392
 20
1.347221
 30
0.0
 11
22.47144699999998
 21
1.665293999999999
 31
0.0
  0
LINE
  5
2C1E
330
BF7
100
AcDbEntity
  8
1
100
AcDbLine
 10
20.31644299999999
 20
1.049104000000002
 30
0.0
 11
21.111392
 21
1.347221
 31
0.0
  0
LINE
  5
2C1F
330
BF7
100
AcDbEntity
  8
1
100
AcDbLine
 10
11.59029199999997
 20
-1.711786999999995
 30
0.0
 11
12.34082799999999
 21
-1.718862999999996
 31
0.0
  0
LINE
  5
2C20
330
BF7
100
AcDbEntity
  8
1
100
AcDbLine
 10
10.22708799999998
 20
-1.454062999999995
 30
0.0
 11
11.59029199999997
 21
-1.711786999999995
 31
0.0
  0
LINE
  5
2C21
330
BF7
100
AcDbEntity
  8
1
100
AcDbLine
 10
9.617871999999975
 20
-1.280236999999995
 30
0.0
 11
10.22716099999996
 21
-1.454080999999996
 31
0.0
  0
LINE
  5
2C22
330
BF7
100
AcDbEntity
  8
1
100
AcDbLine
 10
8.561746999999996
 20
-1.002011999999997
 30
0.0
 11
9.617871999999975
 21
-1.280236999999995
 31
0.0
  0
LINE
  5
2C23
330
BF7
100
AcDbEntity
  8
1
100
AcDbLine
 10
7.452996999999982
 20
-0.8205849999999974
 30
0.0
 11
8.561746999999996
 21
-1.002011999999997
 31
0.0
  0
LINE
  5
2C24
330
BF7
100
AcDbEntity
  8
1
100
AcDbLine
 10
6.831437999999991
 20
-0.7863029999999968
 30
0.0
 11
7.452996999999982
 21
-0.8205849999999974
 31
0.0
  0
LINE
  5
2C25
330
BF7
100
AcDbEntity
  8
1
100
AcDbLine
 10
6.607614999999981
 20
-0.9202069999999975
 30
0.0
 11
6.831437999999991
 21
-0.7863029999999968
 31
0.0
  0
LINE
  5
2C26
330
BF7
100
AcDbEntity
  8
1
100
AcDbLine
 10
6.20641599999999
 20
-1.215060999999998
 30
0.0
 11
6.607614999999981
 21
-0.9202069999999975
 31
0.0
  0
LINE
  5
2C27
330
BF7
100
AcDbEntity
  8
1
100
AcDbLine
 10
6.040545999999991
 20
-1.397620999999997
 30
0.0
 11
6.20641599999999
 21
-1.215060999999998
 31
0.0
  0
LINE
  5
2C28
330
BF7
100
AcDbEntity
  8
1
100
AcDbLine
 10
5.984032999999982
 20
-1.525046999999995
 30
0.0
 11
6.040545999999991
 21
-1.397620999999997
 31
0.0
  0
LINE
  5
2C29
330
BF7
100
AcDbEntity
  8
1
100
AcDbLine
 10
6.012204999999994
 20
-1.640664999999996
 30
0.0
 11
5.984032999999982
 21
-1.525046999999995
 31
0.0
  0
LINE
  5
2C2A
330
BF7
100
AcDbEntity
  8
1
100
AcDbLine
 10
6.123038999999977
 20
-1.710801999999995
 30
0.0
 11
6.012204999999994
 21
-1.640664999999996
 31
0.0
  0
LINE
  5
2C2B
330
BF7
100
AcDbEntity
  8
1
100
AcDbLine
 10
6.399002999999991
 20
-1.749808999999999
 30
0.0
 11
6.123038999999977
 21
-1.710801999999995
 31
0.0
  0
LINE
  5
2C2C
330
BF7
100
AcDbEntity
  8
1
100
AcDbLine
 10
6.730147999999985
 20
-1.730328999999995
 30
0.0
 11
6.399002999999991
 21
-1.749808999999999
 31
0.0
  0
LINE
  5
2C2D
330
BF7
100
AcDbEntity
  8
1
100
AcDbLine
 10
7.272424
 20
-1.637507999999995
 30
0.0
 11
6.730147999999985
 21
-1.730328999999995
 31
0.0
  0
LINE
  5
2C2E
330
BF7
100
AcDbEntity
  8
1
100
AcDbLine
 10
7.844930000000005
 20
-1.494872999999996
 30
0.0
 11
7.272424
 21
-1.637507999999995
 31
0.0
  0
LINE
  5
2C2F
330
BF7
100
AcDbEntity
  8
1
100
AcDbLine
 10
8.363236999999969
 20
-1.342483999999998
 30
0.0
 11
7.844930000000005
 21
-1.494872999999996
 31
0.0
  0
LINE
  5
2C30
330
BF7
100
AcDbEntity
  8
1
100
AcDbLine
 10
8.834113999999969
 20
-1.183477999999995
 30
0.0
 11
8.364108999999981
 21
-1.342212999999995
 31
0.0
  0
LINE
  5
2C31
330
BF7
100
AcDbEntity
  8
1
100
AcDbLine
 10
9.004560999999966
 20
-1.118670999999995
 30
0.0
 11
8.834113999999969
 21
-1.183477999999995
 31
0.0
  0
LINE
  5
2C32
330
BF7
100
AcDbEntity
  8
1
100
AcDbLine
 10
45.360094
 20
-1.656922999999999
 30
0.0
 11
47.72162599999997
 21
-1.630956999999996
 31
0.0
  0
LINE
  5
2C33
330
BF7
100
AcDbEntity
  8
1
100
AcDbLine
 10
43.99968699999997
 20
-1.329977999999994
 30
0.0
 11
45.360094
 21
-1.656922999999999
 31
0.0
  0
LINE
  5
2C34
330
BF7
100
AcDbEntity
  8
1
100
AcDbLine
 10
42.63929299999996
 20
-0.8133789999999976
 30
0.0
 11
43.99968699999997
 21
-1.329977999999994
 31
0.0
  0
LINE
  5
2C35
330
BF7
100
AcDbEntity
  8
1
100
AcDbLine
 10
41.27888699999997
 20
-0.1807879999999997
 30
0.0
 11
42.63929299999996
 21
-0.8133789999999976
 31
0.0
  0
LINE
  5
2C36
330
BF7
100
AcDbEntity
  8
1
100
AcDbLine
 10
39.91848099999998
 20
0.4775550000000024
 30
0.0
 11
41.27888699999997
 21
-0.1807879999999997
 31
0.0
  0
LINE
  5
2C37
330
BF7
100
AcDbEntity
  8
1
100
AcDbLine
 10
38.55807400000001
 20
1.067820000000002
 30
0.0
 11
39.91848099999998
 21
0.4775550000000024
 31
0.0
  0
LINE
  5
2C38
330
BF7
100
AcDbEntity
  8
1
100
AcDbLine
 10
37.19767999999999
 20
1.505825999999996
 30
0.0
 11
38.55807400000001
 21
1.067820000000002
 31
0.0
  0
LINE
  5
2C39
330
BF7
100
AcDbEntity
  8
1
100
AcDbLine
 10
35.83727399999998
 20
1.729099000000004
 30
0.0
 11
37.19767999999999
 21
1.505825999999996
 31
0.0
  0
LINE
  5
2C3A
330
BF7
100
AcDbEntity
  8
1
100
AcDbLine
 10
35.28383099999999
 20
1.719627
 30
0.0
 11
35.83727399999998
 21
1.729099000000004
 31
0.0
  0
LINE
  5
2C3B
330
BF7
100
AcDbEntity
  8
1
100
AcDbLine
 10
23.59362899999999
 20
-1.736827999999999
 30
0.0
 11
25.09734099999997
 21
-1.662371999999995
 31
0.0
  0
LINE
  5
2C3C
330
BF7
100
AcDbEntity
  8
1
100
AcDbLine
 10
22.23319899999999
 20
-1.533525999999996
 30
0.0
 11
23.59362899999999
 21
-1.736827999999999
 31
0.0
  0
LINE
  5
2C3D
330
BF7
100
AcDbEntity
  8
1
100
AcDbLine
 10
20.872793
 20
-1.111544999999998
 30
0.0
 11
22.23319899999999
 21
-1.533525999999996
 31
0.0
  0
LINE
  5
2C3E
330
BF7
100
AcDbEntity
  8
1
100
AcDbLine
 10
19.51237399999999
 20
-0.5310529999999965
 30
0.0
 11
20.872793
 21
-1.111544999999998
 31
0.0
  0
LINE
  5
2C3F
330
BF7
100
AcDbEntity
  8
1
100
AcDbLine
 10
18.15191899999999
 20
0.1251549999999995
 30
0.0
 11
19.51237399999999
 21
-0.5310529999999965
 31
0.0
  0
LINE
  5
2C40
330
BF7
100
AcDbEntity
  8
1
100
AcDbLine
 10
16.79147699999998
 20
0.7635330000000025
 30
0.0
 11
18.15191899999999
 21
0.1251549999999995
 31
0.0
  0
LINE
  5
2C41
330
BF7
100
AcDbEntity
  8
1
100
AcDbLine
 10
15.43103399999998
 20
1.293027000000001
 30
0.0
 11
16.79147699999998
 21
0.7635330000000025
 31
0.0
  0
LINE
  5
2C42
330
BF7
100
AcDbEntity
  8
1
100
AcDbLine
 10
14.07059199999998
 20
1.638133999999999
 30
0.0
 11
15.43103399999998
 21
1.293027000000001
 31
0.0
  0
LINE
  5
2C43
330
BF7
100
AcDbEntity
  8
1
100
AcDbLine
 10
12.78279499999999
 20
1.743681000000004
 30
0.0
 11
14.07059199999998
 21
1.638133999999999
 31
0.0
  0
LINE
  5
2C44
330
BF7
100
AcDbEntity
  8
1
100
AcDbLine
 10
56.55988199999999
 20
1.708615
 30
0.0
 11
57.34580799999998
 21
1.749997
 31
0.0
  0
LINE
  5
2C45
330
BF7
100
AcDbEntity
  8
1
100
AcDbLine
 10
55.11264699999998
 20
1.422149999999996
 30
0.0
 11
56.55988199999999
 21
1.708615
 31
0.0
  0
LINE
  5
2C46
330
BF7
100
AcDbEntity
  8
1
100
AcDbLine
 10
54.08087900000001
 20
1.058615000000002
 30
0.0
 11
55.11264699999998
 21
1.422149999999996
 31
0.0
  0
LINE
  5
2C47
330
BF7
100
AcDbEntity
  8
1
100
AcDbLine
 10
44.23226799999997
 20
-1.519692999999995
 30
0.0
 11
46.08908199999999
 21
-1.720841999999995
 31
0.0
  0
LINE
  5
2C48
330
BF7
100
AcDbEntity
  8
1
100
AcDbLine
 10
42.87217599999999
 20
-1.089763999999997
 30
0.0
 11
44.23226799999997
 21
-1.519692999999995
 31
0.0
  0
LINE
  5
2C49
330
BF7
100
AcDbEntity
  8
1
100
AcDbLine
 10
41.51220599999999
 20
-0.5043029999999967
 30
0.0
 11
42.87217599999999
 21
-1.089763999999997
 31
0.0
  0
LINE
  5
2C4A
330
BF7
100
AcDbEntity
  8
1
100
AcDbLine
 10
40.15206599999999
 20
0.1526870000000002
 30
0.0
 11
41.51220599999999
 21
-0.5043029999999967
 31
0.0
  0
LINE
  5
2C4B
330
BF7
100
AcDbEntity
  8
1
100
AcDbLine
 10
38.79208399999999
 20
0.7882460000000009
 30
0.0
 11
40.15206599999999
 21
0.1526870000000002
 31
0.0
  0
LINE
  5
2C4C
330
BF7
100
AcDbEntity
  8
1
100
AcDbLine
 10
37.43200400000001
 20
1.311279
 30
0.0
 11
38.79208399999999
 21
0.7882460000000009
 31
0.0
  0
LINE
  5
2C4D
330
BF7
100
AcDbEntity
  8
1
100
AcDbLine
 10
36.07194899999999
 20
1.647481000000006
 30
0.0
 11
37.43200400000001
 21
1.311279
 31
0.0
  0
LINE
  5
2C4E
330
BF7
100
AcDbEntity
  8
1
100
AcDbLine
 10
34.711906
 20
1.748877
 30
0.0
 11
36.07194899999999
 21
1.647481000000006
 31
0.0
  0
LINE
  5
2C4F
330
BF7
100
AcDbEntity
  8
1
100
AcDbLine
 10
33.35185099999999
 20
1.601021000000002
 30
0.0
 11
34.711906
 21
1.748877
 31
0.0
  0
LINE
  5
2C50
330
BF7
100
AcDbEntity
  8
1
100
AcDbLine
 10
31.99178399999997
 20
1.225011
 30
0.0
 11
33.35185099999999
 21
1.601021000000002
 31
0.0
  0
LINE
  5
2C51
330
BF7
100
AcDbEntity
  8
1
100
AcDbLine
 10
31.55507399999999
 20
1.048178000000002
 30
0.0
 11
31.99178399999997
 21
1.225011
 31
0.0
  0
LINE
  5
2C52
330
BF7
100
AcDbEntity
  8
1
100
AcDbLine
 10
21.111392
 20
-1.347222999999999
 30
0.0
 11
23.59195799999998
 21
-1.731808999999996
 31
0.0
  0
LINE
  5
2C53
330
BF7
100
AcDbEntity
  8
1
100
AcDbLine
 10
19.75132499999998
 20
-0.837183999999997
 30
0.0
 11
21.111392
 21
-1.347222999999999
 31
0.0
  0
LINE
  5
2C54
330
BF7
100
AcDbEntity
  8
1
100
AcDbLine
 10
18.39131899999998
 20
-0.2077029999999986
 30
0.0
 11
19.75132499999998
 21
-0.837183999999997
 31
0.0
  0
LINE
  5
2C55
330
BF7
100
AcDbEntity
  8
1
100
AcDbLine
 10
17.031203
 20
0.4511560000000011
 30
0.0
 11
18.39131899999998
 21
-0.2077029999999986
 31
0.0
  0
LINE
  5
2C56
330
BF7
100
AcDbEntity
  8
1
100
AcDbLine
 10
15.67123299999997
 20
1.046004000000003
 30
0.0
 11
17.031203
 21
0.4511560000000011
 31
0.0
  0
LINE
  5
2C57
330
BF7
100
AcDbEntity
  8
1
100
AcDbLine
 10
14.31103199999998
 20
1.491524999999999
 30
0.0
 11
15.67123299999997
 21
1.046004000000003
 31
0.0
  0
LINE
  5
2C58
330
BF7
100
AcDbEntity
  8
1
100
AcDbLine
 10
12.95096499999999
 20
1.724613999999996
 30
0.0
 11
14.31103199999998
 21
1.491524999999999
 31
0.0
  0
LINE
  5
2C59
330
BF7
100
AcDbEntity
  8
1
100
AcDbLine
 10
11.59029199999997
 20
1.711785000000002
 30
0.0
 11
12.95096499999999
 21
1.724613999999996
 31
0.0
  0
LINE
  5
2C5A
330
BF7
100
AcDbEntity
  8
1
100
AcDbLine
 10
10.22708799999998
 20
1.454061000000002
 30
0.0
 11
11.59029199999997
 21
1.711785000000002
 31
0.0
  0
LINE
  5
2C5B
330
BF7
100
AcDbEntity
  8
1
100
AcDbLine
 10
9.617871999999975
 20
1.280234
 30
0.0
 11
10.22716099999996
 21
1.454079000000003
 31
0.0
  0
LINE
  5
2C5C
330
BF7
100
AcDbEntity
  8
1
100
AcDbLine
 10
8.994350999999994
 20
1.115973000000001
 30
0.0
 11
9.617871999999975
 21
1.280234
 31
0.0
  0
LINE
  5
2C5D
330
BF7
100
AcDbEntity
  8
1
100
AcDbLine
 10
7.272424
 20
1.637506999999999
 30
0.0
 11
6.429900000000002
 21
1.74799
 31
0.0
  0
LINE
  5
2C5E
330
BF7
100
AcDbEntity
  8
1
100
AcDbLine
 10
7.844930000000005
 20
1.494870999999999
 30
0.0
 11
7.272424
 21
1.637506999999999
 31
0.0
  0
LINE
  5
2C5F
330
BF7
100
AcDbEntity
  8
1
100
AcDbLine
 10
8.363236999999969
 20
1.342481999999999
 30
0.0
 11
7.844930000000005
 21
1.494870999999999
 31
0.0
  0
LINE
  5
2C60
330
BF7
100
AcDbEntity
  8
1
100
AcDbLine
 10
9.302774999999996
 20
1.005287000000002
 30
0.0
 11
8.364108999999981
 21
1.342212999999999
 31
0.0
  0
LINE
  5
2C61
330
BF7
100
AcDbEntity
  8
1
100
AcDbLine
 10
9.302774999999996
 20
1.005287000000002
 30
0.0
 11
6.386697999999995
 21
1.005287000000002
 31
0.0
  0
LINE
  5
2C62
330
BF7
100
AcDbEntity
  8
1
100
AcDbLine
 10
6.105040999999985
 20
0.5523380000000026
 30
0.0
 11
6.104132999999976
 21
0.5077370000000025
 31
0.0
  0
LINE
  5
2C63
330
BF7
100
AcDbEntity
  8
1
100
AcDbLine
 10
6.149611999999976
 20
0.7965730000000022
 30
0.0
 11
6.105040999999985
 21
0.5523380000000026
 31
0.0
  0
LINE
  5
2C64
330
BF7
100
AcDbEntity
  8
1
100
AcDbLine
 10
6.21686799999999
 20
0.917747000000002
 30
0.0
 11
6.149611999999976
 21
0.7965730000000022
 31
0.0
  0
LINE
  5
2C65
330
BF7
100
AcDbEntity
  8
1
100
AcDbLine
 10
6.280381999999972
 20
0.9740570000000019
 30
0.0
 11
6.21686799999999
 21
0.917747000000002
 31
0.0
  0
LINE
  5
2C66
330
BF7
100
AcDbEntity
  8
1
100
AcDbLine
 10
6.330305999999991
 20
0.9968330000000024
 30
0.0
 11
6.280381999999972
 21
0.9740570000000019
 31
0.0
  0
LINE
  5
2C67
330
BF7
100
AcDbEntity
  8
1
100
AcDbLine
 10
6.386697999999995
 20
1.005287000000002
 30
0.0
 11
6.330305999999991
 21
0.9968330000000024
 31
0.0
  0
LINE
  5
2C68
330
BF7
100
AcDbEntity
  8
1
100
AcDbLine
 10
56.26467199999999
 20
-1.594989999999995
 30
0.0
 11
57.32345000000001
 21
-1.735593999999996
 31
0.0
  0
LINE
  5
2C69
330
BF7
100
AcDbEntity
  8
1
100
AcDbLine
 10
54.88291299999997
 20
-1.206716999999995
 30
0.0
 11
56.26467199999999
 21
-1.594989999999995
 31
0.0
  0
LINE
  5
2C6A
330
BF7
100
AcDbEntity
  8
1
100
AcDbLine
 10
53.52250699999999
 20
-0.650694999999999
 30
0.0
 11
54.88291299999997
 21
-1.206716999999995
 31
0.0
  0
LINE
  5
2C6B
330
BF7
100
AcDbEntity
  8
1
100
AcDbLine
 10
52.16210100000001
 20
-0.0018839999999969
 30
0.0
 11
53.52250699999999
 21
-0.650694999999999
 31
0.0
  0
LINE
  5
2C6C
330
BF7
100
AcDbEntity
  8
1
100
AcDbLine
 10
50.80170699999996
 20
0.647191000000003
 30
0.0
 11
52.16210100000001
 21
-0.0018839999999969
 31
0.0
  0
LINE
  5
2C6D
330
BF7
100
AcDbEntity
  8
1
100
AcDbLine
 10
49.44129999999998
 20
1.203982000000001
 30
0.0
 11
50.80170699999996
 21
0.647191000000003
 31
0.0
  0
LINE
  5
2C6E
330
BF7
100
AcDbEntity
  8
1
100
AcDbLine
 10
48.080894
 20
1.589091000000003
 30
0.0
 11
49.44129999999998
 21
1.203982000000001
 31
0.0
  0
LINE
  5
2C6F
330
BF7
100
AcDbEntity
  8
1
100
AcDbLine
 10
46.72049999999997
 20
1.747607999999999
 30
0.0
 11
48.080894
 21
1.589091000000003
 31
0.0
  0
LINE
  5
2C70
330
BF7
100
AcDbEntity
  8
1
100
AcDbLine
 10
46.53394399999998
 20
1.735173000000003
 30
0.0
 11
46.72049999999997
 21
1.747607999999999
 31
0.0
  0
LINE
  5
2C71
330
BF7
100
AcDbEntity
  8
1
100
AcDbLine
 10
34.47687999999999
 20
-1.705818999999998
 30
0.0
 11
36.24261499999998
 21
-1.662574999999995
 31
0.0
  0
LINE
  5
2C72
330
BF7
100
AcDbEntity
  8
1
100
AcDbLine
 10
33.11647299999999
 20
-1.439301999999995
 30
0.0
 11
34.47687999999999
 21
-1.705818999999998
 31
0.0
  0
LINE
  5
2C73
330
BF7
100
AcDbEntity
  8
1
100
AcDbLine
 10
31.75606699999998
 20
-0.9675499999999992
 30
0.0
 11
33.11647299999999
 21
-1.439301999999995
 31
0.0
  0
LINE
  5
2C74
330
BF7
100
AcDbEntity
  8
1
100
AcDbLine
 10
30.39566099999999
 20
-0.3578269999999968
 30
0.0
 11
31.75606699999998
 21
-0.9675499999999992
 31
0.0
  0
LINE
  5
2C75
330
BF7
100
AcDbEntity
  8
1
100
AcDbLine
 10
29.03526699999998
 20
0.3029170000000043
 30
0.0
 11
30.39566099999999
 21
-0.3578269999999968
 31
0.0
  0
LINE
  5
2C76
330
BF7
100
AcDbEntity
  8
1
100
AcDbLine
 10
27.67485999999997
 20
0.9204750000000029
 30
0.0
 11
29.03526699999998
 21
0.3029170000000043
 31
0.0
  0
LINE
  5
2C77
330
BF7
100
AcDbEntity
  8
1
100
AcDbLine
 10
26.31444199999999
 20
1.406765
 30
0.0
 11
27.67485999999997
 21
0.9204750000000029
 31
0.0
  0
LINE
  5
2C78
330
BF7
100
AcDbEntity
  8
1
100
AcDbLine
 10
24.95403599999998
 20
1.692467000000004
 30
0.0
 11
26.31444199999999
 21
1.406765
 31
0.0
  0
LINE
  5
2C79
330
BF7
100
AcDbEntity
  8
1
100
AcDbLine
 10
24.03210799999996
 20
1.722528000000004
 30
0.0
 11
24.95403599999998
 21
1.692467000000004
 31
0.0
  0
LINE
  5
2C7A
330
BF7
100
AcDbEntity
  8
1
100
AcDbLine
 10
11.349694
 20
-1.611630999999999
 30
0.0
 11
13.77358899999999
 21
-1.662475999999996
 31
0.0
  0
LINE
  5
2C7B
330
BF7
100
AcDbEntity
  8
1
100
AcDbLine
 10
9.989239999999997
 20
-1.243808999999998
 30
0.0
 11
11.349694
 21
-1.611630999999999
 31
0.0
  0
LINE
  5
2C7C
330
BF7
100
AcDbEntity
  8
1
100
AcDbLine
 10
8.628784999999991
 20
-0.6985969999999995
 30
0.0
 11
9.989239999999997
 21
-1.243808999999998
 31
0.0
  0
LINE
  5
2C7D
330
BF7
100
AcDbEntity
  8
1
100
AcDbLine
 10
7.26439399999998
 20
-0.0518589999999968
 30
0.0
 11
8.628784999999991
 21
-0.6985969999999995
 31
0.0
  0
LINE
  5
2C7E
330
BF7
100
AcDbEntity
  8
1
100
AcDbLine
 10
6.335804999999991
 20
0.3984070000000024
 30
0.0
 11
7.26439399999998
 21
-0.0518589999999968
 31
0.0
  0
LINE
  5
2C7F
330
BF7
100
AcDbEntity
  8
1
100
AcDbLine
 10
6.104132999999976
 20
0.5077370000000025
 30
0.0
 11
6.335804999999991
 21
0.3984070000000024
 31
0.0
  0
LINE
  5
2C80
330
BF7
100
AcDbEntity
  8
1
100
AcDbLine
 10
0.4999929999999895
 20
0.7158490000000022
 30
0.0
 11
0.4999929999999895
 21
0.0669970000000007
 31
0.0
  0
LINE
  5
2C81
330
BF7
100
AcDbEntity
  8
1
100
AcDbLine
 10
0.4999929999999895
 20
1.260904000000002
 30
0.0
 11
0.4999929999999895
 21
0.7158490000000022
 31
0.0
  0
LINE
  5
2C82
330
BF7
100
AcDbEntity
  8
1
100
AcDbLine
 10
0.4999929999999895
 20
1.623128
 30
0.0
 11
0.4999929999999895
 21
1.260904000000002
 31
0.0
  0
LINE
  5
2C83
330
BF7
100
AcDbEntity
  8
1
100
AcDbLine
 10
0.4999929999999895
 20
1.75
 30
0.0
 11
0.4999929999999895
 21
1.623128
 31
0.0
  0
LINE
  5
2C84
330
BF7
100
AcDbEntity
  8
1
100
AcDbLine
 10
0.4999929999999895
 20
-1.610351999999995
 30
0.0
 11
0.4999929999999895
 21
-1.750000999999995
 31
0.0
  0
LINE
  5
2C85
330
BF7
100
AcDbEntity
  8
1
100
AcDbLine
 10
0.4999929999999895
 20
-1.213577999999998
 30
0.0
 11
0.4999929999999895
 21
-1.610351999999995
 31
0.0
  0
LINE
  5
2C86
330
BF7
100
AcDbEntity
  8
1
100
AcDbLine
 10
0.4999929999999895
 20
-0.6230299999999965
 30
0.0
 11
0.4999929999999895
 21
-1.213577999999998
 31
0.0
  0
LINE
  5
2C87
330
BF7
100
AcDbEntity
  8
1
100
AcDbLine
 10
0.4999929999999895
 20
0.0669970000000007
 30
0.0
 11
0.4999929999999895
 21
-0.6230299999999965
 31
0.0
  0
LINE
  5
2C88
330
BF7
100
AcDbEntity
  8
1
100
AcDbLine
 10
57.99668899999996
 20
0.0196240000000003
 30
0.0
 11
57.95389799999998
 21
0.1507970000000007
 31
0.0
  0
LINE
  5
2C89
330
BF7
100
AcDbEntity
  8
1
100
AcDbLine
 10
57.95389799999998
 20
0.1507970000000007
 30
0.0
 11
57.846104
 21
0.5154130000000025
 31
0.0
  0
LINE
  5
2C8A
330
BF7
100
AcDbEntity
  8
1
100
AcDbLine
 10
57.52813699999999
 20
1.298123000000003
 30
0.0
 11
57.34580799999998
 21
1.749997
 31
0.0
  0
LINE
  5
2C8B
330
BF7
100
AcDbEntity
  8
1
100
AcDbLine
 10
57.73133399999998
 20
0.7979270000000014
 30
0.0
 11
57.52813699999999
 21
1.298123000000003
 31
0.0
  0
LINE
  5
2C8C
330
BF7
100
AcDbEntity
  8
1
100
AcDbLine
 10
57.846104
 20
0.5154130000000025
 30
0.0
 11
57.73133399999998
 21
0.7979270000000014
 31
0.0
  0
LINE
  5
2C8D
330
BF7
100
AcDbEntity
  8
1
100
AcDbLine
 10
57.13343
 20
-0.8962789999999998
 30
0.0
 11
57.13273999999998
 21
-0.8882589999999979
 31
0.0
  0
LINE
  5
2C8E
330
BF7
100
AcDbEntity
  8
1
100
AcDbLine
 10
57.15465
 20
-1.058114999999997
 30
0.0
 11
57.13343
 21
-0.8962789999999998
 31
0.0
  0
LINE
  5
2C8F
330
BF7
100
AcDbEntity
  8
1
100
AcDbLine
 10
57.20783199999996
 20
-1.266595999999995
 30
0.0
 11
57.15465
 21
-1.058114999999997
 31
0.0
  0
LINE
  5
2C90
330
BF7
100
AcDbEntity
  8
1
100
AcDbLine
 10
57.28136199999998
 20
-1.428342999999996
 30
0.0
 11
57.20783199999996
 21
-1.266595999999995
 31
0.0
  0
LINE
  5
2C91
330
BF7
100
AcDbEntity
  8
1
100
AcDbLine
 10
57.34885999999997
 20
-1.522376999999995
 30
0.0
 11
57.28136199999998
 21
-1.428342999999996
 31
0.0
  0
LINE
  5
2C92
330
BF7
100
AcDbEntity
  8
1
100
AcDbLine
 10
57.13273999999998
 20
-0.8882589999999979
 30
0.0
 11
57.97474199999999
 21
-0.0248499999999972
 31
0.0
  0
LINE
  5
2C93
330
BF7
100
AcDbEntity
  8
1
100
AcDbLine
 10
57.97474199999999
 20
-0.0248499999999972
 30
0.0
 11
57.99668899999996
 21
0.0196240000000003
 31
0.0
  0
LINE
  5
2C94
330
BF7
100
AcDbEntity
  8
1
100
AcDbLine
 10
57.99668899999996
 20
0.0196240000000003
 30
0.0
 11
57.99995899999998
 21
0.0067140000000023
 31
0.0
  0
LINE
  5
2C95
330
BF7
100
AcDbEntity
  8
1
100
AcDbLine
 10
57.56266699999997
 20
-0.9171949999999997
 30
0.0
 11
57.62062199999999
 21
-0.8841679999999989
 31
0.0
  0
LINE
  5
2C96
330
BF7
100
AcDbEntity
  8
1
100
AcDbLine
 10
57.51356699999998
 20
-0.9117469999999984
 30
0.0
 11
57.56266699999997
 21
-0.9171949999999997
 31
0.0
  0
LINE
  5
2C97
330
BF7
100
AcDbEntity
  8
1
100
AcDbLine
 10
57.47908499999997
 20
-0.8792860000000002
 30
0.0
 11
57.51356699999998
 21
-0.9117469999999984
 31
0.0
  0
LINE
  5
2C98
330
BF7
100
AcDbEntity
  8
1
100
AcDbLine
 10
57.45839799999998
 20
-0.8314889999999977
 30
0.0
 11
57.47908499999997
 21
-0.8792860000000002
 31
0.0
  0
LINE
  5
2C99
330
BF7
100
AcDbEntity
  8
1
100
AcDbLine
 10
57.44927799999999
 20
-0.7750670000000001
 30
0.0
 11
57.45839799999998
 21
-0.8314889999999977
 31
0.0
  0
LINE
  5
2C9A
330
BF7
100
AcDbEntity
  8
1
100
AcDbLine
 10
57.45042899999997
 20
-0.711784999999999
 30
0.0
 11
57.44927799999999
 21
-0.7750670000000001
 31
0.0
  0
LINE
  5
2C9B
330
BF7
100
AcDbEntity
  8
1
100
AcDbLine
 10
57.46324299999997
 20
-0.6393799999999957
 30
0.0
 11
57.45042899999997
 21
-0.711784999999999
 31
0.0
  0
LINE
  5
2C9C
330
BF7
100
AcDbEntity
  8
1
100
AcDbLine
 10
57.49096599999997
 20
-0.5613079999999968
 30
0.0
 11
57.46324299999997
 21
-0.6393799999999957
 31
0.0
  0
LINE
  5
2C9D
330
BF7
100
AcDbEntity
  8
1
100
AcDbLine
 10
57.52696199999997
 20
-0.4995719999999971
 30
0.0
 11
57.49096599999997
 21
-0.5613079999999968
 31
0.0
  0
LINE
  5
2C9E
330
BF7
100
AcDbEntity
  8
1
100
AcDbLine
 10
57.58639399999998
 20
-0.4431249999999987
 30
0.0
 11
57.52696199999997
 21
-0.4995719999999971
 31
0.0
  0
LINE
  5
2C9F
330
BF7
100
AcDbEntity
  8
1
100
AcDbLine
 10
57.64207099999999
 20
-0.4292569999999998
 30
0.0
 11
57.58639399999998
 21
-0.4431249999999987
 31
0.0
  0
LINE
  5
2CA0
330
BF7
100
AcDbEntity
  8
1
100
AcDbLine
 10
57.69122099999997
 20
-0.4561299999999984
 30
0.0
 11
57.64207099999999
 21
-0.4292569999999998
 31
0.0
  0
LINE
  5
2CA1
330
BF7
100
AcDbEntity
  8
1
100
AcDbLine
 10
57.717152
 20
-0.5019119999999973
 30
0.0
 11
57.69122099999997
 21
-0.4561299999999984
 31
0.0
  0
LINE
  5
2CA2
330
BF7
100
AcDbEntity
  8
1
100
AcDbLine
 10
57.72937199999998
 20
-0.5552729999999997
 30
0.0
 11
57.717152
 21
-0.5019119999999973
 31
0.0
  0
LINE
  5
2CA3
330
BF7
100
AcDbEntity
  8
1
100
AcDbLine
 10
57.73133399999998
 20
-0.6154799999999982
 30
0.0
 11
57.72937199999998
 21
-0.5552729999999997
 31
0.0
  0
LINE
  5
2CA4
330
BF7
100
AcDbEntity
  8
1
100
AcDbLine
 10
57.730717
 20
-0.6255969999999991
 30
0.0
 11
57.73133399999998
 21
-0.6154799999999982
 31
0.0
  0
LINE
  5
2CA5
330
BF7
100
AcDbEntity
  8
1
100
AcDbLine
 10
57.99995899999998
 20
0.0067140000000023
 30
0.0
 11
57.730717
 21
-0.6255969999999991
 31
0.0
  0
LINE
  5
2CA6
330
BF7
100
AcDbEntity
  8
1
100
AcDbLine
 10
57.99995899999998
 20
0.0067140000000023
 30
0.0
 11
57.99995899999998
 21
-0.0067159999999973
 31
0.0
  0
LINE
  5
2CA7
330
BF7
100
AcDbEntity
  8
1
100
AcDbLine
 10
57.99668899999996
 20
-0.0196259999999988
 30
0.0
 11
57.99995899999998
 21
-0.0067159999999973
 31
0.0
  0
LINE
  5
2CA8
330
BF7
100
AcDbEntity
  8
1
100
AcDbLine
 10
57.99668899999996
 20
-0.0196259999999988
 30
0.0
 11
57.95389799999998
 21
-0.1507999999999967
 31
0.0
  0
LINE
  5
2CA9
330
BF7
100
AcDbEntity
  8
1
100
AcDbLine
 10
57.95389799999998
 20
-0.1507999999999967
 30
0.0
 11
57.846104
 21
-0.5154149999999973
 31
0.0
  0
LINE
  5
2CAA
330
BF7
100
AcDbEntity
  8
1
100
AcDbLine
 10
57.52813699999999
 20
-1.298123999999995
 30
0.0
 11
57.34580799999998
 21
-1.749999999999995
 31
0.0
  0
LINE
  5
2CAB
330
BF7
100
AcDbEntity
  8
1
100
AcDbLine
 10
57.73133399999998
 20
-0.797926999999998
 30
0.0
 11
57.52813699999999
 21
-1.298123999999995
 31
0.0
  0
LINE
  5
2CAC
330
BF7
100
AcDbEntity
  8
1
100
AcDbLine
 10
57.846104
 20
-0.5154149999999973
 30
0.0
 11
57.73133399999998
 21
-0.797926999999998
 31
0.0
  0
LINE
  5
2CAD
330
BF7
100
AcDbEntity
  8
1
100
AcDbLine
 10
57.34580799999998
 20
-1.749999999999995
 30
0.0
 11
57.32345000000001
 21
-1.735593999999996
 31
0.0
  0
LINE
  5
2CAE
330
BF7
100
AcDbEntity
  8
1
100
AcDbLine
 10
57.35040999999998
 20
-1.635592999999995
 30
0.0
 11
57.35020499999999
 21
-1.629407999999995
 31
0.0
  0
LINE
  5
2CAF
330
BF7
100
AcDbEntity
  8
1
100
AcDbLine
 10
57.34912700000001
 20
-1.645040999999999
 30
0.0
 11
57.35040999999998
 21
-1.635592999999995
 31
0.0
  0
LINE
  5
2CB0
330
BF7
100
AcDbEntity
  8
1
100
AcDbLine
 10
57.34659499999998
 20
-1.657032999999996
 30
0.0
 11
57.34912700000001
 21
-1.645040999999999
 31
0.0
  0
LINE
  5
2CB1
330
BF7
100
AcDbEntity
  8
1
100
AcDbLine
 10
57.34310699999998
 20
-1.670796999999995
 30
0.0
 11
57.34659499999998
 21
-1.657032999999996
 31
0.0
  0
LINE
  5
2CB2
330
BF7
100
AcDbEntity
  8
1
100
AcDbLine
 10
57.33198899999999
 20
-1.708836999999999
 30
0.0
 11
57.34310699999998
 21
-1.670796999999995
 31
0.0
  0
LINE
  5
2CB3
330
BF7
100
AcDbEntity
  8
1
100
AcDbLine
 10
57.32345000000001
 20
-1.735593999999996
 30
0.0
 11
57.33198899999999
 21
-1.708836999999999
 31
0.0
  0
LINE
  5
2CB4
330
BF7
100
AcDbEntity
  8
1
100
AcDbLine
 10
57.34577199999998
 20
-1.579307
 30
0.0
 11
57.34885999999997
 21
-1.522376999999995
 31
0.0
  0
LINE
  5
2CB5
330
BF7
100
AcDbEntity
  8
1
100
AcDbLine
 10
57.35020499999999
 20
-1.629407999999995
 30
0.0
 11
57.34577199999998
 21
-1.579307
 31
0.0
  0
LINE
  5
2CB6
330
BF7
100
AcDbEntity
  8
1
100
AcDbLine
 10
57.62062199999999
 20
-0.8841679999999989
 30
0.0
 11
57.34885999999997
 21
-1.522376999999995
 31
0.0
  0
LINE
  5
2CB7
330
BF7
100
AcDbEntity
  8
1
100
AcDbLine
 10
57.71912599999999
 20
-0.6586239999999961
 30
0.0
 11
57.730717
 21
-0.6255969999999991
 31
0.0
  0
LINE
  5
2CB8
330
BF7
100
AcDbEntity
  8
1
100
AcDbLine
 10
57.68641199999999
 20
-0.7436719999999966
 30
0.0
 11
57.71912599999999
 21
-0.6586239999999961
 31
0.0
  0
LINE
  5
2CB9
330
BF7
100
AcDbEntity
  8
1
100
AcDbLine
 10
57.65178499999999
 20
-0.8230299999999957
 30
0.0
 11
57.68641199999999
 21
-0.7436719999999966
 31
0.0
  0
LINE
  5
2CBA
330
BF7
100
AcDbEntity
  8
1
100
AcDbLine
 10
57.62091199999996
 20
-0.8836549999999974
 30
0.0
 11
57.65178499999999
 21
-0.8230299999999957
 31
0.0
  0
LINE
  5
2CBB
330
BF7
100
AcDbEntity
  8
1
100
AcDbLine
 10
57.62062199999999
 20
-0.8841679999999989
 30
0.0
 11
57.62091199999996
 21
-0.8836549999999974
 31
0.0
  0
LINE
  5
2CBC
330
BF7
100
AcDbEntity
  8
SK1
100
AcDbLine
 10
-35.35048300000001
 20
-0.1745599999999996
 30
0.0
 11
-35.35048300000001
 21
-0.6712709999999973
 31
0.0
  0
LINE
  5
2CBD
330
BF7
100
AcDbEntity
  8
SK1
100
AcDbLine
 10
-35.35048300000001
 20
0.3270340000000012
 30
0.0
 11
-35.35048300000001
 21
-0.1745599999999996
 31
0.0
  0
LINE
  5
2CBE
330
BF7
100
AcDbEntity
  8
1
100
AcDbLine
 10
17.21212700000001
 20
1.662497000000001
 30
0.0
 11
13.77333499999997
 21
1.662497000000001
 31
0.0
  0
LINE
  5
2CBF
330
BF7
100
AcDbEntity
  8
1
100
AcDbLine
 10
39.71229199999999
 20
1.662493000000004
 30
0.0
 11
36.24312399999999
 21
1.662493000000004
 31
0.0
  0
LINE
  5
2CC0
330
BF7
100
AcDbEntity
  8
1
100
AcDbLine
 10
48.89049799999998
 20
-1.662492999999995
 30
0.0
 11
50.96256199999999
 21
-1.662492999999995
 31
0.0
  0
LINE
  5
2CC1
330
BF7
100
AcDbEntity
  8
1
100
AcDbLine
 10
46.81842299999998
 20
-1.662492999999995
 30
0.0
 11
48.89049799999998
 21
-1.662492999999995
 31
0.0
  0
LINE
  5
2CC2
330
BF7
100
AcDbEntity
  8
1
100
AcDbLine
 10
26.38968
 20
-1.662493999999996
 30
0.0
 11
28.46175500000001
 21
-1.662493999999996
 31
0.0
  0
LINE
  5
2CC3
330
BF7
100
AcDbEntity
  8
1
100
AcDbLine
 10
24.31761599999999
 20
-1.662493999999996
 30
0.0
 11
26.38968
 21
-1.662493999999996
 31
0.0
  0
LINE
  5
2CC4
330
BF7
100
AcDbEntity
  8
1
100
AcDbLine
 10
28.46175500000001
 20
1.662493000000004
 30
0.0
 11
25.09677199999999
 21
1.662493000000004
 31
0.0
  0
LINE
  5
2CC5
330
BF7
100
AcDbEntity
  8
1
100
AcDbLine
 10
50.96256199999999
 20
1.66249
 30
0.0
 11
47.45099099999999
 21
1.66249
 31
0.0
  0
LINE
  5
2CC6
330
BF7
100
AcDbEntity
  8
1
100
AcDbLine
 10
37.64021599999998
 20
-1.662493999999996
 30
0.0
 11
39.71229199999999
 21
-1.662493999999996
 31
0.0
  0
LINE
  5
2CC7
330
BF7
100
AcDbEntity
  8
1
100
AcDbLine
 10
35.568153
 20
-1.662493999999996
 30
0.0
 11
37.64021599999998
 21
-1.662493999999996
 31
0.0
  0
LINE
  5
2CC8
330
BF7
100
AcDbEntity
  8
1
100
AcDbLine
 10
15.14006399999999
 20
-1.662498999999995
 30
0.0
 11
17.21212700000001
 21
-1.662498999999995
 31
0.0
  0
LINE
  5
2CC9
330
BF7
100
AcDbEntity
  8
1
100
AcDbLine
 10
13.06799999999998
 20
-1.662498999999995
 30
0.0
 11
15.14006399999999
 21
-1.662498999999995
 31
0.0
  0
LINE
  5
2CCA
330
BF7
100
AcDbEntity
  8
1
100
AcDbLine
 10
15.96202199999999
 20
1.086360000000001
 30
0.0
 11
16.20007599999999
 21
1.012014999999999
 31
0.0
  0
LINE
  5
2CCB
330
BF7
100
AcDbEntity
  8
1
100
AcDbLine
 10
38.182806
 20
1.204673000000001
 30
0.0
 11
38.70036199999999
 21
1.011902999999998
 31
0.0
  0
LINE
  5
2CCC
330
BF7
100
AcDbEntity
  8
1
100
AcDbLine
 10
37.664524
 20
1.365291000000002
 30
0.0
 11
38.182806
 21
1.204673000000001
 31
0.0
  0
LINE
  5
2CCD
330
BF7
100
AcDbEntity
  8
1
100
AcDbLine
 10
37.56467599999999
 20
1.392693999999996
 30
0.0
 11
37.664524
 21
1.365291000000002
 31
0.0
  0
LINE
  5
2CCE
330
BF7
100
AcDbEntity
  8
1
100
AcDbLine
 10
47.10726199999998
 20
-1.630069999999999
 30
0.0
 11
46.81612099999997
 21
-1.662493999999996
 31
0.0
  0
LINE
  5
2CCF
330
BF7
100
AcDbEntity
  8
1
100
AcDbLine
 10
24.60198599999998
 20
-1.630101999999995
 30
0.0
 11
24.31589599999998
 21
-1.662493999999996
 31
0.0
  0
LINE
  5
2CD0
330
BF7
100
AcDbEntity
  8
1
100
AcDbLine
 10
27.195674
 20
1.102341000000002
 30
0.0
 11
27.26943399999999
 21
1.068659
 31
0.0
  0
LINE
  5
2CD1
330
BF7
100
AcDbEntity
  8
1
100
AcDbLine
 10
27.35981199999998
 20
1.040320000000004
 30
0.0
 11
27.450201
 21
1.011982000000003
 31
0.0
  0
LINE
  5
2CD2
330
BF7
100
AcDbEntity
  8
1
100
AcDbLine
 10
27.26943399999999
 20
1.068659
 30
0.0
 11
27.35981199999998
 21
1.040320000000004
 31
0.0
  0
LINE
  5
2CD3
330
BF7
100
AcDbEntity
  8
1
100
AcDbLine
 10
48.97930099999999
 20
1.344019999999999
 30
0.0
 11
49.036226
 21
1.324156999999998
 31
0.0
  0
LINE
  5
2CD4
330
BF7
100
AcDbEntity
  8
1
100
AcDbLine
 10
48.92235199999999
 20
1.363060000000004
 30
0.0
 11
48.97930099999999
 21
1.344019999999999
 31
0.0
  0
LINE
  5
2CD5
330
BF7
100
AcDbEntity
  8
1
100
AcDbLine
 10
48.71195999999997
 20
1.425259
 30
0.0
 11
48.92235199999999
 21
1.363060000000004
 31
0.0
  0
LINE
  5
2CD6
330
BF7
100
AcDbEntity
  8
1
100
AcDbLine
 10
49.49335600000001
 20
1.168004999999998
 30
0.0
 11
49.95048699999998
 21
1.011849000000001
 31
0.0
  0
LINE
  5
2CD7
330
BF7
100
AcDbEntity
  8
1
100
AcDbLine
 10
49.036226
 20
1.324156999999998
 30
0.0
 11
49.49335600000001
 21
1.168004999999998
 31
0.0
  0
LINE
  5
2CD8
330
BF7
100
AcDbEntity
  8
1
100
AcDbLine
 10
45.22370399999998
 20
0.0724170000000051
 30
0.0
 11
44.28858699999998
 21
0.4735370000000004
 31
0.0
  0
LINE
  5
2CD9
330
BF7
100
AcDbEntity
  8
1
100
AcDbLine
 10
46.172326
 20
-0.293298
 30
0.0
 11
45.22370399999998
 21
0.0724170000000051
 31
0.0
  0
LINE
  5
2CDA
330
BF7
100
AcDbEntity
  8
1
100
AcDbLine
 10
22.72369699999999
 20
0.0724350000000023
 30
0.0
 11
21.7895
 21
0.4731450000000025
 31
0.0
  0
LINE
  5
2CDB
330
BF7
100
AcDbEntity
  8
1
100
AcDbLine
 10
23.67137399999998
 20
-0.2929509999999986
 30
0.0
 11
22.72369699999999
 21
0.0724350000000023
 31
0.0
  0
LINE
  5
2CDC
330
BF7
100
AcDbEntity
  8
1
100
AcDbLine
 10
56.02033199999997
 20
0.2589410000000036
 30
0.0
 11
55.55394799999999
 21
0.4664210000000005
 31
0.0
  0
LINE
  5
2CDD
330
BF7
100
AcDbEntity
  8
1
100
AcDbLine
 10
56.49359499999999
 20
0.0687710000000017
 30
0.0
 11
56.02033199999997
 21
0.2589410000000036
 31
0.0
  0
LINE
  5
2CDE
330
BF7
100
AcDbEntity
  8
1
100
AcDbLine
 10
33.994181
 20
0.0639959999999995
 30
0.0
 11
33.07753399999999
 21
0.4566470000000038
 31
0.0
  0
LINE
  5
2CDF
330
BF7
100
AcDbEntity
  8
1
100
AcDbLine
 10
34.92405399999999
 20
-0.2939349999999976
 30
0.0
 11
33.994181
 21
0.0639959999999995
 31
0.0
  0
LINE
  5
2CE0
330
BF7
100
AcDbEntity
  8
1
100
AcDbLine
 10
11.55561699999998
 20
0.038763000000003
 30
0.0
 11
10.678829
 21
0.4129950000000023
 31
0.0
  0
LINE
  5
2CE1
330
BF7
100
AcDbEntity
  8
1
100
AcDbLine
 10
12.44480699999997
 20
-0.3015779999999992
 30
0.0
 11
11.55561699999998
 21
0.038763000000003
 31
0.0
  0
LINE
  5
2CE2
330
BF7
100
AcDbEntity
  8
1
100
AcDbLine
 10
10.55813599999999
 20
0.4654010000000035
 30
0.0
 11
10.43743199999997
 21
0.5178080000000023
 31
0.0
  0
LINE
  5
2CE3
330
BF7
100
AcDbEntity
  8
1
100
AcDbLine
 10
10.678829
 20
0.4129950000000023
 30
0.0
 11
10.55813599999999
 21
0.4654010000000035
 31
0.0
  0
LINE
  5
2CE4
330
BF7
100
AcDbEntity
  8
1
100
AcDbLine
 10
0.4999929999999895
 20
-1.750000999999995
 30
0.0
 11
6.428750000000007
 21
-1.750000999999995
 31
0.0
  0
LINE
  5
2CE5
330
BF7
100
AcDbEntity
  8
1
100
AcDbLine
 10
12.34058599999997
 20
-1.750000999999995
 30
0.0
 11
12.78251599999999
 21
-1.750000999999995
 31
0.0
  0
LINE
  5
2CE6
330
BF7
100
AcDbEntity
  8
1
100
AcDbLine
 10
23.591691
 20
-1.750000999999995
 30
0.0
 11
24.03199899999999
 21
-1.750000999999995
 31
0.0
  0
LINE
  5
2CE7
330
BF7
100
AcDbEntity
  8
1
100
AcDbLine
 10
34.83903000000001
 20
-1.750000999999995
 30
0.0
 11
35.28398899999999
 21
-1.750000999999995
 31
0.0
  0
LINE
  5
2CE8
330
BF7
100
AcDbEntity
  8
1
100
AcDbLine
 10
46.08911899999998
 20
-1.750000999999995
 30
0.0
 11
46.534671
 21
-1.750000999999995
 31
0.0
  0
LINE
  5
2CE9
330
BF7
100
AcDbEntity
  8
1
100
AcDbLine
 10
46.534671
 20
1.75
 30
0.0
 11
46.08911899999998
 21
1.75
 31
0.0
  0
LINE
  5
2CEA
330
BF7
100
AcDbEntity
  8
1
100
AcDbLine
 10
35.28398899999999
 20
1.75
 30
0.0
 11
34.83903000000001
 21
1.75
 31
0.0
  0
LINE
  5
2CEB
330
BF7
100
AcDbEntity
  8
1
100
AcDbLine
 10
24.03199899999999
 20
1.75
 30
0.0
 11
23.591691
 21
1.75
 31
0.0
  0
LINE
  5
2CEC
330
BF7
100
AcDbEntity
  8
1
100
AcDbLine
 10
12.78251599999999
 20
1.75
 30
0.0
 11
12.34058599999997
 21
1.75
 31
0.0
  0
LINE
  5
2CED
330
BF7
100
AcDbEntity
  8
1
100
AcDbLine
 10
6.428750000000007
 20
1.75
 30
0.0
 11
0.4999929999999895
 21
1.75
 31
0.0
  0
LINE
  5
2CEE
330
BF7
100
AcDbEntity
  8
SK1
100
AcDbLine
 10
-35.35048300000001
 20
3.0
 30
0.0
 11
-36.00000100000001
 21
2.624998000000001
 31
0.0
  0
LINE
  5
2CEF
330
BF7
100
AcDbEntity
  8
SK1
100
AcDbLine
 10
-36.00000100000001
 20
-2.625000999999997
 30
0.0
 11
-35.35048300000001
 21
-2.999999999999996
 31
0.0
  0
LINE
  5
2CF0
330
BF7
100
AcDbEntity
  8
SK1
100
AcDbLine
 10
0.0
 20
3.0
 30
0.0
 11
-35.35048300000001
 21
3.0
 31
0.0
  0
LINE
  5
2CF1
330
BF7
100
AcDbEntity
  8
SK1
100
AcDbLine
 10
-35.35048300000001
 20
-2.999999999999996
 30
0.0
 11
0.0
 21
-2.999999999999996
 31
0.0
  0
LINE
  5
2CF3
330
BF7
100
AcDbEntity
  8
SK4
100
AcDbLine
 10
0.0
 20
0.0000000000000018
 30
0.0
 11
-38.29113369198456
 21
0.0000000000000065
 31
0.0
  0
LINE
  5
2CF4
330
BF7
100
AcDbEntity
  8
SK4
100
AcDbLine
 10
0.0
 20
0.0000000000000018
 30
0.0
 11
59.86021222637839
 21
0.0000000000000018
 31
0.0
  0
LINE
  5
2CF5
330
BF7
100
AcDbEntity
  8
1
100
AcDbLine
 10
-0.000006990628119
 20
2.25
 30
0.0
 11
-0.000006990628119
 21
-2.250000999999997
 31
0.0
  0
DIMENSION
  5
2CF6
330
BF7
100
AcDbEntity
  8
SK2
100
AcDbDimension
  2
*D2
 10
-41.35426788028746
 20
-2.999999999999993
 30
0.0
 11
-41.1547984363707
 21
-18.29310627932051
 31
0.0
 70
   160
  1
%%C <>
 71
     5
 42
5.999999999999996
  3
SANDVIK_DIM
100
AcDbAlignedDimension
 13
-35.35048300000001
 23
3.0
 33
0.0
 14
-35.35048300000001
 24
-2.999999999999996
 34
0.0
 50
90.0
100
AcDbRotatedDimension
1001
ACAD
1000
DSTYLE
1002
{
1070
    40
1040
1.0
1002
}
  0
DIMENSION
  5
2D04
330
BF7
100
AcDbEntity
  8
2
100
AcDbDimension
  2
*D3
 10
60.77704980578767
 20
-1.749999999999995
 30
0.0
 11
61.02855033322885
 21
-17.97652859515688
 31
0.0
 70
   160
  1
%%C <>
 71
     5
 42
3.499996999999996
  3
SANDVIK_DIM
100
AcDbAlignedDimension
 13
57.34580799999998
 23
1.749997
 33
0.0
 14
57.34580799999998
 24
-1.749999999999995
 34
0.0
 50
90.0
100
AcDbRotatedDimension
1001
ACAD
1000
DSTYLE
1002
{
1070
    40
1040
1.0
1002
}
  0
DIMENSION
  5
2D12
330
BF7
100
AcDbEntity
  8
SK2
100
AcDbDimension
  2
*D4
 10
15.34580799999998
 20
3.394961872689123
 30
0.0
 11
36.34580799999998
 21
7.194961872689122
 31
0.0
 70
    32
 71
     5
 42
42.0
  3
SANDVIK_DIM
100
AcDbAlignedDimension
 13
57.34580799999998
 23
1.749997
 33
0.0
 14
15.34580799999998
 24
1.749997000000004
 34
0.0
100
AcDbRotatedDimension
1001
ACAD
1000
DSTYLE
1002
{
1070
    40
1040
1.0
1002
}
  0
DIMENSION
  5
2D1F
330
BF7
100
AcDbEntity
  8
2
100
AcDbDimension
  2
*D5
 10
6.002204999999992
 20
-8.251076186339901
 30
0.0
 11
32.00108199999999
 21
-4.451076186339902
 31
0.0
 70
    32
 71
     5
 42
51.997754
  3
SANDVIK_DIM
100
AcDbAlignedDimension
 13
57.99995899999998
 23
-0.0000009999999975
 33
0.0
 14
6.002204999999992
 24
-1.640664999999996
 34
0.0
100
AcDbRotatedDimension
1001
ACAD
1000
DSTYLE
1002
{
1070
    40
1040
1.0
1002
}
  0
DIMENSION
  5
2D35
330
BF7
100
AcDbEntity
  8
2
100
AcDbDimension
  2
*D6
 10
57.99995899999998
 20
-14.45194824008348
 30
0.0
 11
28.99997949999999
 21
-10.65194824008348
 31
0.0
 70
    32
 71
     5
 42
57.99995899999998
  3
SANDVIK_DIM
100
AcDbAlignedDimension
 13
0.0
 23
-2.999999999999996
 33
0.0
 14
57.99995899999998
 24
0.0000000000000018
 34
0.0
100
AcDbRotatedDimension
1001
ACAD
1000
DSTYLE
1002
{
1070
    40
1040
1.0
1002
}
  0
DIMENSION
  5
2D42
330
BF7
100
AcDbEntity
  8
SK2
100
AcDbDimension
  2
*D7
 10
-36.00000100000001
 20
-24.11981357644032
 30
0.0
 11
10.99997899999999
 21
-20.31981357644032
 31
0.0
 70
    32
 71
     5
 42
93.99995999999999
  3
SANDVIK_DIM
100
AcDbAlignedDimension
 13
57.99995899999998
 23
-0.0000009999999975
 33
0.0
 14
-36.00000100000001
 24
-2.625000999999997
 34
0.0
100
AcDbRotatedDimension
1001
ACAD
1000
DSTYLE
1002
{
1070
    40
1040
1.0
1002
}
  0
DIMENSION
  5
2D4F
330
BF7
100
AcDbEntity
  8
SK2
100
AcDbDimension
  2
*D8
 10
-0.0000000000000007
 20
-14.45194824008348
 30
0.0
 11
-18.0000005
 21
-10.65194824008348
 31
0.0
 70
    32
 71
     5
 42
36.00000100000001
  3
SANDVIK_DIM
100
AcDbAlignedDimension
 13
-36.00000100000001
 23
-2.625000999999997
 33
0.0
 14
0.0
 24
-2.999999999999996
 34
0.0
100
AcDbRotatedDimension
1001
ACAD
1000
DSTYLE
1002
{
1070
    40
1040
1.0
1002
}
  0
ENDSEC
  0
SECTION
  2
OBJECTS
  0
DICTIONARY
  5
BE3
330
0
100
AcDbDictionary
281
     1
  3
ACAD_CIP_PREVIOUS_PRODUCT_INFO
350
2DF5
  3
ACAD_COLOR
350
BF2
  3
ACAD_DETAILVIEWSTYLE
350
2DF2
  3
ACAD_GROUP
350
BE4
  3
ACAD_LAYOUT
350
BF0
  3
ACAD_MATERIAL
350
BF1
  3
ACAD_MLEADERSTYLE
350
2DED
  3
ACAD_MLINESTYLE
350
BED
  3
ACAD_PLOTSETTINGS
350
BEF
  3
ACAD_PLOTSTYLENAME
350
BE5
  3
ACAD_SCALELIST
350
2DDB
  3
ACAD_SECTIONVIEWSTYLE
350
2DEF
  3
ACAD_TABLESTYLE
350
2DD9
  3
ACAD_VISUALSTYLE
350
2DC0
  3
ACDB_RECOMPOSE_DATA
350
2E57
  3
AcDbVariableDictionary
350
2E4A
  3
ASE_INDEX_DICTIONARY
350
2E47
  3
DWGPROPS
350
2E58
  0
DICTIONARY
  5
2DF8
330
BE7
100
AcDbDictionary
280
     1
281
     1
  3
ADSK_XREC_LAYER_RECONCILED
360
2DF9
  0
DICTIONARY
  5
2DFA
330
BFB
100
AcDbDictionary
280
     1
281
     1
  3
ADSK_XREC_LAYER_RECONCILED
360
2DFB
  0
DICTIONARY
  5
2DFC
330
C00
100
AcDbDictionary
280
     1
281
     1
  3
ADSK_XREC_LAYER_RECONCILED
360
2DFD
  0
DICTIONARY
  5
2DFE
330
C01
100
AcDbDictionary
280
     1
281
     1
  3
ADSK_XREC_LAYER_RECONCILED
360
2DFF
  0
DICTIONARY
  5
2E00
330
C02
100
AcDbDictionary
280
     1
281
     1
  3
ADSK_XREC_LAYER_RECONCILED
360
2E01
  0
DICTIONARY
  5
2E02
330
C03
100
AcDbDictionary
280
     1
281
     1
  3
ADSK_XREC_LAYER_RECONCILED
360
2E03
  0
DICTIONARY
  5
2E04
330
C04
100
AcDbDictionary
280
     1
281
     1
  3
ADSK_XREC_LAYER_RECONCILED
360
2E05
  0
DICTIONARY
  5
2E06
330
C05
100
AcDbDictionary
280
     1
281
     1
  3
ADSK_XREC_LAYER_RECONCILED
360
2E07
  0
DICTIONARY
  5
2E08
330
C06
100
AcDbDictionary
280
     1
281
     1
  3
ADSK_XREC_LAYER_RECONCILED
360
2E09
  0
DICTIONARY
  5
2E0A
330
C07
100
AcDbDictionary
280
     1
281
     1
  3
ADSK_XREC_LAYER_RECONCILED
360
2E0B
  0
DICTIONARY
  5
2E0C
330
C08
100
AcDbDictionary
280
     1
281
     1
  3
ADSK_XREC_LAYER_RECONCILED
360
2E0D
  0
DICTIONARY
  5
2E0E
330
C09
100
AcDbDictionary
280
     1
281
     1
  3
ADSK_XREC_LAYER_RECONCILED
360
2E0F
  0
DICTIONARY
  5
2E10
330
C0A
100
AcDbDictionary
280
     1
281
     1
  3
ADSK_XREC_LAYER_RECONCILED
360
2E11
  0
DICTIONARY
  5
2E12
330
C0B
100
AcDbDictionary
280
     1
281
     1
  3
ADSK_XREC_LAYER_RECONCILED
360
2E13
  0
DICTIONARY
  5
2E14
330
C0C
100
AcDbDictionary
280
     1
281
     1
  3
ADSK_XREC_LAYER_RECONCILED
360
2E15
  0
DICTIONARY
  5
2E16
330
C0D
100
AcDbDictionary
280
     1
281
     1
  3
ADSK_XREC_LAYER_RECONCILED
360
2E17
  0
DICTIONARY
  5
2E18
330
C0E
100
AcDbDictionary
280
     1
281
     1
  3
ADSK_XREC_LAYER_RECONCILED
360
2E19
  0
DICTIONARY
  5
2E1A
330
C0F
100
AcDbDictionary
280
     1
281
     1
  3
ADSK_XREC_LAYER_RECONCILED
360
2E1B
  0
DICTIONARY
  5
2E1C
330
C10
100
AcDbDictionary
280
     1
281
     1
  3
ADSK_XREC_LAYER_RECONCILED
360
2E1D
  0
DICTIONARY
  5
2E1E
330
C11
100
AcDbDictionary
280
     1
281
     1
  3
ADSK_XREC_LAYER_RECONCILED
360
2E1F
  0
DICTIONARY
  5
2E20
330
C12
100
AcDbDictionary
280
     1
281
     1
  3
ADSK_XREC_LAYER_RECONCILED
360
2E21
  0
DICTIONARY
  5
2E22
330
C13
100
AcDbDictionary
280
     1
281
     1
  3
ADSK_XREC_LAYER_RECONCILED
360
2E23
  0
DICTIONARY
  5
2E24
330
C14
100
AcDbDictionary
280
     1
281
     1
  3
ADSK_XREC_LAYER_RECONCILED
360
2E25
  0
DICTIONARY
  5
2E26
330
C15
100
AcDbDictionary
280
     1
281
     1
  3
ADSK_XREC_LAYER_RECONCILED
360
2E27
  0
DICTIONARY
  5
2E28
330
C16
100
AcDbDictionary
280
     1
281
     1
  3
ADSK_XREC_LAYER_RECONCILED
360
2E29
  0
DICTIONARY
  5
2E2A
330
C17
100
AcDbDictionary
280
     1
281
     1
  3
ADSK_XREC_LAYER_RECONCILED
360
2E2B
  0
DICTIONARY
  5
2E2C
330
C18
100
AcDbDictionary
280
     1
281
     1
  3
ADSK_XREC_LAYER_RECONCILED
360
2E2D
  0
DICTIONARY
  5
2E2E
330
C19
100
AcDbDictionary
280
     1
281
     1
  3
ADSK_XREC_LAYER_RECONCILED
360
2E2F
  0
DICTIONARY
  5
2E30
330
C1A
100
AcDbDictionary
280
     1
281
     1
  3
ADSK_XREC_LAYER_RECONCILED
360
2E31
  0
DICTIONARY
  5
2E32
330
C1B
100
AcDbDictionary
280
     1
281
     1
  3
ADSK_XREC_LAYER_RECONCILED
360
2E33
  0
DICTIONARY
  5
2E34
330
C1C
100
AcDbDictionary
280
     1
281
     1
  3
ADSK_XREC_LAYER_RECONCILED
360
2E35
  0
DICTIONARY
  5
2E36
330
C1D
100
AcDbDictionary
280
     1
281
     1
  3
ADSK_XREC_LAYER_RECONCILED
360
2E37
  0
DICTIONARY
  5
2E38
330
C1E
100
AcDbDictionary
280
     1
281
     1
  3
ADSK_XREC_LAYER_RECONCILED
360
2E39
  0
DICTIONARY
  5
2E3A
330
C1F
100
AcDbDictionary
280
     1
281
     1
  3
ADSK_XREC_LAYER_RECONCILED
360
2E3B
  0
DICTIONARY
  5
2E3C
330
C20
100
AcDbDictionary
280
     1
281
     1
  3
ADSK_XREC_LAYER_RECONCILED
360
2E3D
  0
DICTIONARY
  5
2E3E
330
C21
100
AcDbDictionary
280
     1
281
     1
  3
ADSK_XREC_LAYER_RECONCILED
360
2E3F
  0
DICTIONARY
  5
2E40
330
C22
100
AcDbDictionary
280
     1
281
     1
  3
ADSK_XREC_LAYER_RECONCILED
360
2E41
  0
DICTIONARY
  5
2E42
330
C23
100
AcDbDictionary
280
     1
281
     1
  3
ADSK_XREC_LAYER_RECONCILED
360
2E43
  0
DICTIONARY
  5
2E44
330
C42
100
AcDbDictionary
280
     1
281
     1
  3
ADSK_XREC_LAYER_RECONCILED
360
2E45
  0
XRECORD
  5
2DF5
102
{ACAD_REACTORS
330
BE3
102
}
330
BE3
100
AcDbXrecord
280
     1
300
AMECH_PP
300
2013
300
PDSU_F_S
  0
DICTIONARY
  5
BF2
102
{ACAD_REACTORS
330
BE3
102
}
330
BE3
100
AcDbDictionary
281
     1
  0
DICTIONARY
  5
2DF2
102
{ACAD_REACTORS
330
BE3
102
}
330
BE3
100
AcDbDictionary
281
     1
  3
Imperial24
350
2DF3
  0
DICTIONARY
  5
BE4
102
{ACAD_REACTORS
330
BE3
102
}
330
BE3
100
AcDbDictionary
281
     1
  0
DICTIONARY
  5
BF0
102
{ACAD_REACTORS
330
BE3
102
}
330
BE3
100
AcDbDictionary
281
     1
  3
Layout1
350
BF6
  3
Model
350
BFA
  0
DICTIONARY
  5
BF1
102
{ACAD_REACTORS
330
BE3
102
}
330
BE3
100
AcDbDictionary
281
     1
  3
ByBlock
350
2DB0
  3
ByLayer
350
2DA8
  3
Global
350
2DB8
  0
DICTIONARY
  5
2DED
102
{ACAD_REACTORS
330
BE3
102
}
330
BE3
100
AcDbDictionary
281
     1
  3
Standard
350
2DEE
  0
DICTIONARY
  5
BED
102
{ACAD_REACTORS
330
BE3
102
}
330
BE3
100
AcDbDictionary
281
     1
  3
Standard
350
BEE
  0
DICTIONARY
  5
BEF
102
{ACAD_REACTORS
330
BE3
102
}
330
BE3
100
AcDbDictionary
281
     1
  0
ACDBDICTIONARYWDFLT
  5
BE5
102
{ACAD_REACTORS
330
BE3
102
}
330
BE3
100
AcDbDictionary
281
     1
  3
Normal
350
BE6
100
AcDbDictionaryWithDefault
340
BE6
  0
DICTIONARY
  5
2DDB
102
{ACAD_REACTORS
330
BE3
102
}
330
BE3
100
AcDbDictionary
281
     1
  3
A0
350
2DDC
  3
A1
350
2DDD
  3
A2
350
2DDE
  3
A3
350
2DDF
  3
A4
350
2DE0
  3
A5
350
2DE1
  3
A6
350
2DE2
  3
A7
350
2DE3
  3
A8
350
2DE4
  3
A9
350
2DE5
  3
B0
350
2DE6
  3
B1
350
2DE7
  3
B2
350
2DE8
  3
B3
350
2DE9
  3
B4
350
2DEA
  3
B5
350
2DEB
  3
B6
350
2DEC
  0
DICTIONARY
  5
2DEF
102
{ACAD_REACTORS
330
BE3
102
}
330
BE3
100
AcDbDictionary
281
     1
  3
Imperial24
350
2DF1
  0
DICTIONARY
  5
2DD9
102
{ACAD_REACTORS
330
BE3
102
}
330
BE3
100
AcDbDictionary
281
     1
  3
Standard
350
2DDA
  0
DICTIONARY
  5
2DC0
102
{ACAD_REACTORS
330
BE3
102
}
330
BE3
100
AcDbDictionary
281
     1
  3
2dWireframe
350
2DC6
  3
Basic
350
2DC5
  3
Brighten
350
2DCC
  3
ColorChange
350
2DD0
  3
Conceptual
350
2DC9
  3
Dim
350
2DCB
  3
EdgeColorOff
350
2DD8
  3
Facepattern
350
2DCF
  3
Flat
350
2DC1
  3
FlatWithEdges
350
2DC2
  3
Gouraud
350
2DC3
  3
GouraudWithEdges
350
2DC4
  3
Hidden
350
2DC8
  3
JitterOff
350
2DD6
  3
Linepattern
350
2DCE
  3
OverhangOff
350
2DD7
  3
Realistic
350
2DCA
  3
Shaded
350
2DD5
  3
Shaded with edges
350
2DD4
  3
Shades of Gray
350
2DD1
  3
Sketchy
350
2DD2
  3
Thicken
350
2DCD
  3
Wireframe
350
2DC7
  3
X-Ray
350
2DD3
  0
XRECORD
  5
2E57
102
{ACAD_REACTORS
330
BE3
102
}
330
BE3
100
AcDbXrecord
280
     1
 90
        1
330
2DDA
  0
DICTIONARY
  5
2E4A
102
{ACAD_REACTORS
330
BE3
102
}
330
BE3
100
AcDbDictionary
281
     1
  3
CANNOSCALE
350
2E4F
  3
CMLEADERSTYLE
350
2E4C
  3
CTABLESTYLE
350
2E4B
  3
CVIEWDETAILSTYLE
350
2E4D
  3
CVIEWSECTIONSTYLE
350
2E4E
  3
DIMASSOC
350
2E53
  3
INDEXCTL
350
2E51
  3
SORTENTS
350
2E50
  3
XCLIPFRAME
350
2E52
  0
DICTIONARY
  5
2E47
102
{ACAD_REACTORS
330
BE3
102
}
330
BE3
100
AcDbDictionary
281
     1
  3
ASEBlockHierarchyIndexRecord
350
2E49
1001
DCO15
1040
1815723761.597
  0
XRECORD
  5
2E58
102
{ACAD_REACTORS
330
BE3
102
}
330
BE3
100
AcDbXrecord
280
     1
  1
DWGPROPS COOKIE
  2

  3

  4

  6

  7

  8
Micke
  9

300
=
301
=
302
=
303
=
304
=
305
=
306
=
307
=
308
=
309
=
 40
0.0919845486111111
 41
2455817.64629206
 42
2456818.533166632
  1

 90
        0
  0
XRECORD
  5
2DF9
102
{ACAD_REACTORS
330
2DF8
102
}
330
2DF8
100
AcDbXrecord
280
     1
290
     1
  0
XRECORD
  5
2DFB
102
{ACAD_REACTORS
330
2DFA
102
}
330
2DFA
100
AcDbXrecord
280
     1
290
     1
  0
XRECORD
  5
2DFD
102
{ACAD_REACTORS
330
2DFC
102
}
330
2DFC
100
AcDbXrecord
280
     1
290
     1
  0
XRECORD
  5
2DFF
102
{ACAD_REACTORS
330
2DFE
102
}
330
2DFE
100
AcDbXrecord
280
     1
290
     1
  0
XRECORD
  5
2E01
102
{ACAD_REACTORS
330
2E00
102
}
330
2E00
100
AcDbXrecord
280
     1
290
     1
  0
XRECORD
  5
2E03
102
{ACAD_REACTORS
330
2E02
102
}
330
2E02
100
AcDbXrecord
280
     1
290
     1
  0
XRECORD
  5
2E05
102
{ACAD_REACTORS
330
2E04
102
}
330
2E04
100
AcDbXrecord
280
     1
290
     1
  0
XRECORD
  5
2E07
102
{ACAD_REACTORS
330
2E06
102
}
330
2E06
100
AcDbXrecord
280
     1
290
     1
  0
XRECORD
  5
2E09
102
{ACAD_REACTORS
330
2E08
102
}
330
2E08
100
AcDbXrecord
280
     1
290
     1
  0
XRECORD
  5
2E0B
102
{ACAD_REACTORS
330
2E0A
102
}
330
2E0A
100
AcDbXrecord
280
     1
290
     1
  0
XRECORD
  5
2E0D
102
{ACAD_REACTORS
330
2E0C
102
}
330
2E0C
100
AcDbXrecord
280
     1
290
     1
  0
XRECORD
  5
2E0F
102
{ACAD_REACTORS
330
2E0E
102
}
330
2E0E
100
AcDbXrecord
280
     1
290
     1
  0
XRECORD
  5
2E11
102
{ACAD_REACTORS
330
2E10
102
}
330
2E10
100
AcDbXrecord
280
     1
290
     1
  0
XRECORD
  5
2E13
102
{ACAD_REACTORS
330
2E12
102
}
330
2E12
100
AcDbXrecord
280
     1
290
     1
  0
XRECORD
  5
2E15
102
{ACAD_REACTORS
330
2E14
102
}
330
2E14
100
AcDbXrecord
280
     1
290
     1
  0
XRECORD
  5
2E17
102
{ACAD_REACTORS
330
2E16
102
}
330
2E16
100
AcDbXrecord
280
     1
290
     1
  0
XRECORD
  5
2E19
102
{ACAD_REACTORS
330
2E18
102
}
330
2E18
100
AcDbXrecord
280
     1
290
     1
  0
XRECORD
  5
2E1B
102
{ACAD_REACTORS
330
2E1A
102
}
330
2E1A
100
AcDbXrecord
280
     1
290
     1
  0
XRECORD
  5
2E1D
102
{ACAD_REACTORS
330
2E1C
102
}
330
2E1C
100
AcDbXrecord
280
     1
290
     1
  0
XRECORD
  5
2E1F
102
{ACAD_REACTORS
330
2E1E
102
}
330
2E1E
100
AcDbXrecord
280
     1
290
     1
  0
XRECORD
  5
2E21
102
{ACAD_REACTORS
330
2E20
102
}
330
2E20
100
AcDbXrecord
280
     1
290
     1
  0
XRECORD
  5
2E23
102
{ACAD_REACTORS
330
2E22
102
}
330
2E22
100
AcDbXrecord
280
     1
290
     1
  0
XRECORD
  5
2E25
102
{ACAD_REACTORS
330
2E24
102
}
330
2E24
100
AcDbXrecord
280
     1
290
     1
  0
XRECORD
  5
2E27
102
{ACAD_REACTORS
330
2E26
102
}
330
2E26
100
AcDbXrecord
280
     1
290
     1
  0
XRECORD
  5
2E29
102
{ACAD_REACTORS
330
2E28
102
}
330
2E28
100
AcDbXrecord
280
     1
290
     1
  0
XRECORD
  5
2E2B
102
{ACAD_REACTORS
330
2E2A
102
}
330
2E2A
100
AcDbXrecord
280
     1
290
     1
  0
XRECORD
  5
2E2D
102
{ACAD_REACTORS
330
2E2C
102
}
330
2E2C
100
AcDbXrecord
280
     1
290
     1
  0
XRECORD
  5
2E2F
102
{ACAD_REACTORS
330
2E2E
102
}
330
2E2E
100
AcDbXrecord
280
     1
290
     1
  0
XRECORD
  5
2E31
102
{ACAD_REACTORS
330
2E30
102
}
330
2E30
100
AcDbXrecord
280
     1
290
     1
  0
XRECORD
  5
2E33
102
{ACAD_REACTORS
330
2E32
102
}
330
2E32
100
AcDbXrecord
280
     1
290
     1
  0
XRECORD
  5
2E35
102
{ACAD_REACTORS
330
2E34
102
}
330
2E34
100
AcDbXrecord
280
     1
290
     1
  0
XRECORD
  5
2E37
102
{ACAD_REACTORS
330
2E36
102
}
330
2E36
100
AcDbXrecord
280
     1
290
     1
  0
XRECORD
  5
2E39
102
{ACAD_REACTORS
330
2E38
102
}
330
2E38
100
AcDbXrecord
280
     1
290
     1
  0
XRECORD
  5
2E3B
102
{ACAD_REACTORS
330
2E3A
102
}
330
2E3A
100
AcDbXrecord
280
     1
290
     1
  0
XRECORD
  5
2E3D
102
{ACAD_REACTORS
330
2E3C
102
}
330
2E3C
100
AcDbXrecord
280
     1
290
     1
  0
XRECORD
  5
2E3F
102
{ACAD_REACTORS
330
2E3E
102
}
330
2E3E
100
AcDbXrecord
280
     1
290
     1
  0
XRECORD
  5
2E41
102
{ACAD_REACTORS
330
2E40
102
}
330
2E40
100
AcDbXrecord
280
     1
290
     1
  0
XRECORD
  5
2E43
102
{ACAD_REACTORS
330
2E42
102
}
330
2E42
100
AcDbXrecord
280
     1
290
     1
  0
XRECORD
  5
2E45
102
{ACAD_REACTORS
330
2E44
102
}
330
2E44
100
AcDbXrecord
280
     1
290
     1
  0
ACDBDETAILVIEWSTYLE
  5
2DF3
102
{ACAD_REACTORS
330
2DF2
102
}
330
2DF2
100
AcDbModelDocViewStyle
 70
     0
  3
Imperial24
290
     0
100
AcDbDetailViewStyle
 70
     0
 71
     0
 90
        3
 71
     1
340
BE8
 40
0.24
340
0
 40
0.24
300

 40
0.36
280
     3
 71
     2
340
BEC
 90
       25
 71
     3
340
BE8
 40
0.24
 90
        1
 40
0.75
 90
        1
300
%<\AcVar ViewType \f "%tc1">% %<\AcVar ViewDetailId>%\PSCALE %<\AcVar ViewScale \f "%sn">%
 71
     4
340
BEC
 90
       25
340
BEC
 90
       25
280
     0
  0
LAYOUT
  5
BF6
102
{ACAD_XDICTIONARY
360
2E59
102
}
102
{ACAD_REACTORS
330
BF0
102
}
330
BF0
100
AcDbPlotSettings
  1

  2
\\GBCFS501\GBCPR502
  4

  6

 40
0.0
 41
0.0
 42
0.0
 43
0.0
 44
0.0
 45
0.0
 46
0.0
 47
0.0
 48
0.0
 49
0.0
140
0.0
141
0.0
142
1.0
143
1.0
 70
   688
 72
     0
 73
     0
 74
     5
  7

 75
    16
147
1.0
148
0.0
149
0.0
100
AcDbLayout
  1
Layout1
 70
     1
 71
     1
 10
0.0
 20
0.0
 11
12.0
 21
9.0
 12
0.0
 22
0.0
 32
0.0
 14
1.000000000000000E+20
 24
1.000000000000000E+20
 34
1.000000000000000E+20
 15
-1.000000000000000E+20
 25
-1.000000000000000E+20
 35
-1.000000000000000E+20
146
0.0
 13
0.0
 23
0.0
 33
0.0
 16
1.0
 26
0.0
 36
0.0
 17
0.0
 27
1.0
 37
0.0
 76
     0
330
BF3
  0
LAYOUT
  5
BFA
102
{ACAD_XDICTIONARY
360
2E5B
102
}
102
{ACAD_REACTORS
330
BF0
102
}
330
BF0
100
AcDbPlotSettings
  1

  2
\\GBCFS501\GBCPR502
  4

  6

 40
0.0
 41
0.0
 42
0.0
 43
0.0
 44
0.0
 45
0.0
 46
0.0
 47
0.0
 48
0.0
 49
0.0
140
0.0
141
0.0
142
1.0
143
1.0
 70
  1712
 72
     0
 73
     0
 74
     0
  7

 75
     0
147
1.0
148
0.0
149
0.0
100
AcDbLayout
  1
Model
 70
     1
 71
     0
 10
0.0
 20
0.0
 11
12.0
 21
9.0
 12
0.0
 22
0.0
 32
0.0
 14
0.0
 24
0.0
 34
0.0
 15
0.0
 25
0.0
 35
0.0
146
0.0
 13
0.0
 23
0.0
 33
0.0
 16
1.0
 26
0.0
 36
0.0
 17
0.0
 27
1.0
 37
0.0
 76
     0
330
BF7
331
2DA4
  0
MATERIAL
  5
2DB0
102
{ACAD_XDICTIONARY
360
2DB1
102
}
102
{ACAD_REACTORS
330
BF1
102
}
330
BF1
100
AcDbMaterial
  1
ByBlock
 72
     0
 43
0.0208333333333333
 43
0.0
 43
0.0
 43
0.0
 43
0.0
 43
0.0208333333333333
 43
0.0
 43
0.0
 43
0.0
 43
0.0
 43
1.0
 43
0.0
 43
0.0
 43
0.0
 43
0.0
 43
1.0
 77
     0
 47
0.0208333333333333
 47
0.0
 47
0.0
 47
0.0
 47
0.0
 47
0.0208333333333333
 47
0.0
 47
0.0
 47
0.0
 47
0.0
 47
1.0
 47
0.0
 47
0.0
 47
0.0
 47
0.0
 47
1.0
171
     0
 49
0.0208333333333333
 49
0.0
 49
0.0
 49
0.0
 49
0.0
 49
0.0208333333333333
 49
0.0
 49
0.0
 49
0.0
 49
0.0
 49
1.0
 49
0.0
 49
0.0
 49
0.0
 49
0.0
 49
1.0
175
     0
142
0.0208333333333333
142
0.0
142
0.0
142
0.0
142
0.0
142
0.0208333333333333
142
0.0
142
0.0
142
0.0
142
0.0
142
1.0
142
0.0
142
0.0
142
0.0
142
0.0
142
1.0
179
     0
144
0.0208333333333333
144
0.0
144
0.0
144
0.0
144
0.0
144
0.0208333333333333
144
0.0
144
0.0
144
0.0
144
0.0
144
1.0
144
0.0
144
0.0
144
0.0
144
0.0
144
1.0
147
0.0208333333333333
147
0.0
147
0.0
147
0.0
147
0.0
147
0.0208333333333333
147
0.0
147
0.0
147
0.0
147
0.0
147
1.0
147
0.0
147
0.0
147
0.0
147
0.0
147
1.0
  0
MATERIAL
  5
2DA8
102
{ACAD_XDICTIONARY
360
2DA9
102
}
102
{ACAD_REACTORS
330
BF1
102
}
330
BF1
100
AcDbMaterial
  1
ByLayer
 72
     0
 43
0.0208333333333333
 43
0.0
 43
0.0
 43
0.0
 43
0.0
 43
0.0208333333333333
 43
0.0
 43
0.0
 43
0.0
 43
0.0
 43
1.0
 43
0.0
 43
0.0
 43
0.0
 43
0.0
 43
1.0
 77
     0
 47
0.0208333333333333
 47
0.0
 47
0.0
 47
0.0
 47
0.0
 47
0.0208333333333333
 47
0.0
 47
0.0
 47
0.0
 47
0.0
 47
1.0
 47
0.0
 47
0.0
 47
0.0
 47
0.0
 47
1.0
171
     0
 49
0.0208333333333333
 49
0.0
 49
0.0
 49
0.0
 49
0.0
 49
0.0208333333333333
 49
0.0
 49
0.0
 49
0.0
 49
0.0
 49
1.0
 49
0.0
 49
0.0
 49
0.0
 49
0.0
 49
1.0
175
     0
142
0.0208333333333333
142
0.0
142
0.0
142
0.0
142
0.0
142
0.0208333333333333
142
0.0
142
0.0
142
0.0
142
0.0
142
1.0
142
0.0
142
0.0
142
0.0
142
0.0
142
1.0
179
     0
144
0.0208333333333333
144
0.0
144
0.0
144
0.0
144
0.0
144
0.0208333333333333
144
0.0
144
0.0
144
0.0
144
0.0
144
1.0
144
0.0
144
0.0
144
0.0
144
0.0
144
1.0
147
0.0208333333333333
147
0.0
147
0.0
147
0.0
147
0.0
147
0.0208333333333333
147
0.0
147
0.0
147
0.0
147
0.0
147
1.0
147
0.0
147
0.0
147
0.0
147
0.0
147
1.0
  0
MATERIAL
  5
2DB8
102
{ACAD_XDICTIONARY
360
2DB9
102
}
102
{ACAD_REACTORS
330
BF1
102
}
330
BF1
100
AcDbMaterial
  1
Global
 72
     0
 43
0.0208333333333333
 43
0.0
 43
0.0
 43
0.0
 43
0.0
 43
0.0208333333333333
 43
0.0
 43
0.0
 43
0.0
 43
0.0
 43
1.0
 43
0.0
 43
0.0
 43
0.0
 43
0.0
 43
1.0
 77
     0
 47
0.0208333333333333
 47
0.0
 47
0.0
 47
0.0
 47
0.0
 47
0.0208333333333333
 47
0.0
 47
0.0
 47
0.0
 47
0.0
 47
1.0
 47
0.0
 47
0.0
 47
0.0
 47
0.0
 47
1.0
171
     0
 49
0.0208333333333333
 49
0.0
 49
0.0
 49
0.0
 49
0.0
 49
0.0208333333333333
 49
0.0
 49
0.0
 49
0.0
 49
0.0
 49
1.0
 49
0.0
 49
0.0
 49
0.0
 49
0.0
 49
1.0
175
     0
142
0.0208333333333333
142
0.0
142
0.0
142
0.0
142
0.0
142
0.0208333333333333
142
0.0
142
0.0
142
0.0
142
0.0
142
1.0
142
0.0
142
0.0
142
0.0
142
0.0
142
1.0
179
     0
144
0.0208333333333333
144
0.0
144
0.0
144
0.0
144
0.0
144
0.0208333333333333
144
0.0
144
0.0
144
0.0
144
0.0
144
1.0
144
0.0
144
0.0
144
0.0
144
0.0
144
1.0
147
0.0208333333333333
147
0.0
147
0.0
147
0.0
147
0.0
147
0.0208333333333333
147
0.0
147
0.0
147
0.0
147
0.0
147
1.0
147
0.0
147
0.0
147
0.0
147
0.0
147
1.0
  0
MLEADERSTYLE
  5
2DEE
102
{ACAD_REACTORS
330
2DED
102
}
330
2DED
100
AcDbMLeaderStyle
170
     2
171
     1
172
     0
 90
        2
 40
0.0
 41
0.0
173
     1
 91
-1056964608
340
BEA
 92
       -2
290
     1
 42
0.09
291
     1
 43
0.36
  3
Standard
 44
0.18
300

342
BE8
174
     1
178
     6
175
     1
176
     0
 93
-1056964608
 45
0.18
292
     0
297
     0
 46
0.18
 94
-1056964608
 47
1.0
 49
1.0
140
1.0
293
     1
141
0.0
294
     1
177
     0
142
1.0
295
     0
296
     0
143
0.125
1001
ACAD_MLEADERVER
1070
     2
  0
MLINESTYLE
  5
BEE
102
{ACAD_REACTORS
330
BED
102
}
330
BED
100
AcDbMlineStyle
  2
STANDARD
 70
     0
  3

 62
   256
 51
90.0
 52
90.0
 71
     2
 49
0.5
 62
   256
  6
BYLAYER
 49
-0.5
 62
   256
  6
BYLAYER
  0
ACDBPLACEHOLDER
  5
BE6
102
{ACAD_REACTORS
330
BE5
102
}
330
BE5
  0
SCALE
  5
2DDC
102
{ACAD_REACTORS
330
2DDB
102
}
330
2DDB
100
AcDbScale
 70
     0
300
1:1
140
1.0
141
1.0
290
     1
  0
SCALE
  5
2DDD
102
{ACAD_REACTORS
330
2DDB
102
}
330
2DDB
100
AcDbScale
 70
     0
300
1/128" = 1'-0"
140
0.0078125
141
12.0
290
     0
  0
SCALE
  5
2DDE
102
{ACAD_REACTORS
330
2DDB
102
}
330
2DDB
100
AcDbScale
 70
     0
300
1/64" = 1'-0"
140
0.015625
141
12.0
290
     0
  0
SCALE
  5
2DDF
102
{ACAD_REACTORS
330
2DDB
102
}
330
2DDB
100
AcDbScale
 70
     0
300
1/32" = 1'-0"
140
0.03125
141
12.0
290
     0
  0
SCALE
  5
2DE0
102
{ACAD_REACTORS
330
2DDB
102
}
330
2DDB
100
AcDbScale
 70
     0
300
1/16" = 1'-0"
140
0.0625
141
12.0
290
     0
  0
SCALE
  5
2DE1
102
{ACAD_REACTORS
330
2DDB
102
}
330
2DDB
100
AcDbScale
 70
     0
300
3/32" = 1'-0"
140
0.09375
141
12.0
290
     0
  0
SCALE
  5
2DE2
102
{ACAD_REACTORS
330
2DDB
102
}
330
2DDB
100
AcDbScale
 70
     0
300
1/8" = 1'-0"
140
0.125
141
12.0
290
     0
  0
SCALE
  5
2DE3
102
{ACAD_REACTORS
330
2DDB
102
}
330
2DDB
100
AcDbScale
 70
     0
300
3/16" = 1'-0"
140
0.1875
141
12.0
290
     0
  0
SCALE
  5
2DE4
102
{ACAD_REACTORS
330
2DDB
102
}
330
2DDB
100
AcDbScale
 70
     0
300
1/4" = 1'-0"
140
0.25
141
12.0
290
     0
  0
SCALE
  5
2DE5
102
{ACAD_REACTORS
330
2DDB
102
}
330
2DDB
100
AcDbScale
 70
     0
300
3/8" = 1'-0"
140
0.375
141
12.0
290
     0
  0
SCALE
  5
2DE6
102
{ACAD_REACTORS
330
2DDB
102
}
330
2DDB
100
AcDbScale
 70
     0
300
1/2" = 1'-0"
140
0.5
141
12.0
290
     0
  0
SCALE
  5
2DE7
102
{ACAD_REACTORS
330
2DDB
102
}
330
2DDB
100
AcDbScale
 70
     0
300
3/4" = 1'-0"
140
0.75
141
12.0
290
     0
  0
SCALE
  5
2DE8
102
{ACAD_REACTORS
330
2DDB
102
}
330
2DDB
100
AcDbScale
 70
     0
300
1" = 1'-0"
140
1.0
141
12.0
290
     0
  0
SCALE
  5
2DE9
102
{ACAD_REACTORS
330
2DDB
102
}
330
2DDB
100
AcDbScale
 70
     0
300
1-1/2" = 1'-0"
140
1.5
141
12.0
290
     0
  0
SCALE
  5
2DEA
102
{ACAD_REACTORS
330
2DDB
102
}
330
2DDB
100
AcDbScale
 70
     0
300
3" = 1'-0"
140
3.0
141
12.0
290
     0
  0
SCALE
  5
2DEB
102
{ACAD_REACTORS
330
2DDB
102
}
330
2DDB
100
AcDbScale
 70
     0
300
6" = 1'-0"
140
6.0
141
12.0
290
     0
  0
SCALE
  5
2DEC
102
{ACAD_REACTORS
330
2DDB
102
}
330
2DDB
100
AcDbScale
 70
     0
300
1'-0" = 1'-0"
140
12.0
141
12.0
290
     0
  0
ACDBSECTIONVIEWSTYLE
  5
2DF1
102
{ACAD_REACTORS
330
2DEF
102
}
330
2DEF
100
AcDbModelDocViewStyle
 70
     0
  3
Imperial24
290
     0
100
AcDbSectionViewStyle
 70
     0
 71
     0
 90
       78
 71
     1
340
BE8
 40
0.24
340
0
340
0
 40
0.24
300
I, O, Q, S, X, Z
 40
0.48
 90
        3
 40
0.18
 90
        1
 71
     2
340
2DF0
 90
       25
340
BEC
 90
       50
 40
0.24
 40
0.0
 40
0.24
 71
     3
340
BE8
 40
0.24
 90
        1
 40
0.75
 90
        1
300
%<\AcVar ViewType \f "%tc1">% %<\AcVar ViewSectionStartId>%-%<\AcVar ViewSectionEndId>%\PSCALE %<\AcVar ViewScale \f "%sn">%
 71
     4
300
ANSI31
 40
1.0
 90
        0
290
     0
290
     0
 90
        6
 40
0.0
 40
1.570796326794896
 40
0.2617993877991494
 40
1.308996938995747
 40
-0.2617993877991494
 40
1.832595714594046
  0
TABLESTYLE
  5
2DDA
102
{ACAD_XDICTIONARY
360
2E55
102
}
102
{ACAD_REACTORS
330
2DD9
102
}
330
2DD9
100
AcDbTableStyle
  3
Standard
 70
     0
 71
     0
 40
0.06
 41
0.06
280
     0
281
     0
  7
STANDARD
140
0.18
170
     2
 62
     0
 63
     7
283
     0
274
    -2
284
     1
 64
     0
275
    -2
285
     1
 65
     0
276
    -2
286
     1
 66
     0
277
    -2
287
     1
 67
     0
278
    -2
288
     1
 68
     0
279
    -2
289
     1
 69
     0
  7
STANDARD
140
0.25
170
     5
 62
     0
 63
     7
283
     0
274
    -2
284
     1
 64
     0
275
    -2
285
     1
 65
     0
276
    -2
286
     1
 66
     0
277
    -2
287
     1
 67
     0
278
    -2
288
     1
 68
     0
279
    -2
289
     1
 69
     0
  7
STANDARD
140
0.18
170
     5
 62
     0
 63
     7
283
     0
274
    -2
284
     1
 64
     0
275
    -2
285
     1
 65
     0
276
    -2
286
     1
 66
     0
277
    -2
287
     1
 67
     0
278
    -2
288
     1
 68
     0
279
    -2
289
     1
 69
     0
  0
VISUALSTYLE
  5
2DC6
102
{ACAD_XDICTIONARY
360
2E6A
102
}
102
{ACAD_REACTORS
330
2DC0
102
}
330
2DC0
100
AcDbVisualStyle
  2
2dWireframe
 70
     4
 71
     0
 72
     2
 73
     0
 90
        0
 40
-0.6
 41
-30.0
 62
     5
 63
     7
 74
     1
 91
        4
 64
     7
 65
   257
 75
     1
175
     1
 42
1.0
 92
        0
 66
   257
 43
1.0
 76
     1
 77
     6
 78
     2
 67
     7
 79
     5
170
     0
171
     0
290
     0
174
     0
 93
        1
 44
0.0
173
     0
291
     0
 45
0.0
1001
ACAD
1000
AcDbSavedByObjectVersion
1070
     0
  0
VISUALSTYLE
  5
2DC5
102
{ACAD_XDICTIONARY
360
2E68
102
}
102
{ACAD_REACTORS
330
2DC0
102
}
330
2DC0
100
AcDbVisualStyle
  2
Basic
 70
     7
 71
     1
 72
     0
 73
     1
 90
        0
 40
-0.6
 41
-30.0
 62
     5
 63
     7
 74
     0
 91
        4
 64
     7
 65
   257
 75
     1
175
     1
 42
1.0
 92
        8
 66
     7
 43
1.0
 76
     1
 77
     6
 78
     2
 67
     7
 79
     5
170
     0
171
     0
290
     0
174
     0
 93
        1
 44
0.0
173
     0
291
     1
 45
0.0
1001
ACAD
1000
AcDbSavedByObjectVersion
1070
     0
  0
VISUALSTYLE
  5
2DCC
102
{ACAD_XDICTIONARY
360
2E76
102
}
102
{ACAD_REACTORS
330
2DC0
102
}
330
2DC0
100
AcDbVisualStyle
  2
Brighten
 70
    12
 71
     2
 72
     2
 73
     0
 90
        0
 40
-0.6
 41
-30.0
 62
     5
 63
     7
 74
     1
 91
        4
 64
     7
 65
   257
 75
     1
175
     1
 42
1.0
 92
        8
 66
     7
 43
1.0
 76
     1
 77
     6
 78
     2
 67
     7
 79
     5
170
     0
171
     0
290
     0
174
     0
 93
        1
 44
50.0
173
     0
291
     1
 45
0.0
1001
ACAD
1000
AcDbSavedByObjectVersion
1070
     0
  0
VISUALSTYLE
  5
2DD0
102
{ACAD_XDICTIONARY
360
2E7E
102
}
102
{ACAD_REACTORS
330
2DC0
102
}
330
2DC0
100
AcDbVisualStyle
  2
ColorChange
 70
    16
 71
     2
 72
     2
 73
     3
 90
        0
 40
-0.6
 41
-30.0
 62
     5
 63
     8
 74
     1
 91
        4
 64
     7
 65
   257
 75
     1
175
     1
 42
1.0
 92
        8
 66
     8
 43
1.0
 76
     1
 77
     6
 78
     2
 67
     7
 79
     5
170
     0
171
     0
290
     0
174
     0
 93
        1
 44
0.0
173
     0
291
     1
 45
0.0
1001
ACAD
1000
AcDbSavedByObjectVersion
1070
     0
  0
VISUALSTYLE
  5
2DC9
102
{ACAD_XDICTIONARY
360
2E70
102
}
102
{ACAD_REACTORS
330
2DC0
102
}
330
2DC0
100
AcDbVisualStyle
  2
Conceptual
 70
     9
 71
     3
 72
     2
 73
     0
 90
        0
 40
-0.6
 41
-30.0
 62
     5
 63
     7
 74
     2
 91
        2
 64
     7
 65
   257
 75
     1
175
     1
 42
179.0
 92
        8
 66
     7
 43
1.0
 76
     1
 77
     6
 78
     2
 67
     7
 79
     3
170
     0
171
     0
290
     0
174
     0
 93
        1
 44
0.0
173
     0
291
     0
 45
0.0
1001
ACAD
1000
AcDbSavedByObjectVersion
1070
     0
  0
VISUALSTYLE
  5
2DCB
102
{ACAD_XDICTIONARY
360
2E74
102
}
102
{ACAD_REACTORS
330
2DC0
102
}
330
2DC0
100
AcDbVisualStyle
  2
Dim
 70
    11
 71
     2
 72
     2
 73
     0
 90
        0
 40
-0.6
 41
-30.0
 62
     5
 63
     7
 74
     1
 91
        4
 64
     7
 65
   257
 75
     1
175
     1
 42
1.0
 92
        8
 66
     7
 43
1.0
 76
     1
 77
     6
 78
     2
 67
     7
 79
     5
170
     0
171
     0
290
     0
174
     0
 93
        1
 44
-50.0
173
     0
291
     1
 45
0.0
1001
ACAD
1000
AcDbSavedByObjectVersion
1070
     0
  0
VISUALSTYLE
  5
2DD8
102
{ACAD_XDICTIONARY
360
2E8E
102
}
102
{ACAD_REACTORS
330
2DC0
102
}
330
2DC0
100
AcDbVisualStyle
  2
EdgeColorOff
 70
    22
 71
     2
 72
     2
 73
     0
 90
        0
 40
-0.6
 41
-30.0
 62
     5
 63
     7
 74
     1
 91
        4
 64
     7
 65
   257
 75
     1
175
     1
 42
1.0
 92
        8
 66
     7
 43
1.0
 76
     1
 77
     6
 78
     2
 67
     7
 79
     5
170
     0
171
     0
290
     0
174
     0
 93
        1
 44
0.0
173
     0
291
     1
 45
0.0
1001
ACAD
1000
AcDbSavedByObjectVersion
1070
     0
  0
VISUALSTYLE
  5
2DCF
102
{ACAD_XDICTIONARY
360
2E7C
102
}
102
{ACAD_REACTORS
330
2DC0
102
}
330
2DC0
100
AcDbVisualStyle
  2
Facepattern
 70
    15
 71
     2
 72
     2
 73
     0
 90
        0
 40
-0.6
 41
-30.0
 62
     5
 63
     7
 74
     1
 91
        4
 64
     7
 65
   257
 75
     1
175
     1
 42
1.0
 92
        8
 66
     7
 43
1.0
 76
     1
 77
     6
 78
     2
 67
     7
 79
     5
170
     0
171
     0
290
     0
174
     0
 93
        1
 44
0.0
173
     0
291
     1
 45
0.0
1001
ACAD
1000
AcDbSavedByObjectVersion
1070
     0
  0
VISUALSTYLE
  5
2DC1
102
{ACAD_XDICTIONARY
360
2E60
102
}
102
{ACAD_REACTORS
330
2DC0
102
}
330
2DC0
100
AcDbVisualStyle
  2
Flat
 70
     0
 71
     2
 72
     1
 73
     1
 90
        2
 40
-0.6
 41
30.0
 62
     5
 63
     7
 74
     0
 91
        0
 64
     7
 65
   257
 75
     1
175
     1
 42
1.0
 92
        8
 66
     7
 43
1.0
 76
     1
 77
     6
 78
     2
 67
     7
 79
     5
170
     0
171
     0
290
     0
174
     0
 93
       13
 44
0.0
173
     0
291
     1
 45
0.0
1001
ACAD
1000
AcDbSavedByObjectVersion
1070
     0
  0
VISUALSTYLE
  5
2DC2
102
{ACAD_XDICTIONARY
360
2E62
102
}
102
{ACAD_REACTORS
330
2DC0
102
}
330
2DC0
100
AcDbVisualStyle
  2
FlatWithEdges
 70
     1
 71
     2
 72
     1
 73
     1
 90
        2
 40
-0.6
 41
30.0
 62
     5
 63
     7
 74
     1
 91
        0
 64
     7
 65
   257
 75
     1
175
     1
 42
1.0
 92
        0
 66
   257
 43
1.0
 76
     1
 77
     6
 78
     2
 67
     7
 79
     5
170
     0
171
     0
290
     0
174
     0
 93
       13
 44
0.0
173
     0
291
     1
 45
0.0
1001
ACAD
1000
AcDbSavedByObjectVersion
1070
     0
  0
VISUALSTYLE
  5
2DC3
102
{ACAD_XDICTIONARY
360
2E64
102
}
102
{ACAD_REACTORS
330
2DC0
102
}
330
2DC0
100
AcDbVisualStyle
  2
Gouraud
 70
     2
 71
     2
 72
     2
 73
     1
 90
        2
 40
-0.6
 41
30.0
 62
     5
 63
     7
 74
     0
 91
        0
 64
     7
 65
   257
 75
     1
175
     1
 42
1.0
 92
        0
 66
     7
 43
1.0
 76
     1
 77
     6
 78
     2
 67
     7
 79
     5
170
     0
171
     0
290
     0
174
     0
 93
       13
 44
0.0
173
     0
291
     1
 45
0.0
1001
ACAD
1000
AcDbSavedByObjectVersion
1070
     0
  0
VISUALSTYLE
  5
2DC4
102
{ACAD_XDICTIONARY
360
2E66
102
}
102
{ACAD_REACTORS
330
2DC0
102
}
330
2DC0
100
AcDbVisualStyle
  2
GouraudWithEdges
 70
     3
 71
     2
 72
     2
 73
     1
 90
        2
 40
-0.6
 41
30.0
 62
     5
 63
     7
 74
     1
 91
        0
 64
     7
 65
   257
 75
     1
175
     1
 42
1.0
 92
        0
 66
   257
 43
1.0
 76
     1
 77
     6
 78
     2
 67
     7
 79
     5
170
     0
171
     0
290
     0
174
     0
 93
       13
 44
0.0
173
     0
291
     1
 45
0.0
1001
ACAD
1000
AcDbSavedByObjectVersion
1070
     0
  0
VISUALSTYLE
  5
2DC8
102
{ACAD_XDICTIONARY
360
2E6E
102
}
102
{ACAD_REACTORS
330
2DC0
102
}
330
2DC0
100
AcDbVisualStyle
  2
Hidden
 70
     6
 71
     1
 72
     2
 73
     2
 90
        0
 40
-0.6
 41
-30.0
 62
     5
 63
     7
 74
     2
 91
        2
 64
     7
 65
   257
 75
     2
175
     1
 42
40.0
 92
        0
 66
   257
 43
1.0
 76
     1
 77
     6
 78
     2
 67
     7
 79
     3
170
     0
171
     0
290
     0
174
     0
 93
        1
 44
0.0
173
     0
291
     0
 45
0.0
1001
ACAD
1000
AcDbSavedByObjectVersion
1070
     0
  0
VISUALSTYLE
  5
2DD6
102
{ACAD_XDICTIONARY
360
2E8A
102
}
102
{ACAD_REACTORS
330
2DC0
102
}
330
2DC0
100
AcDbVisualStyle
  2
JitterOff
 70
    20
 71
     2
 72
     2
 73
     0
 90
        0
 40
-0.6
 41
-30.0
 62
     5
 63
     7
 74
     1
 91
        4
 64
     7
 65
   257
 75
     1
175
     1
 42
1.0
 92
       10
 66
     7
 43
1.0
 76
     1
 77
     6
 78
     2
 67
     7
 79
     5
170
     0
171
     0
290
     0
174
     0
 93
        1
 44
0.0
173
     0
291
     1
 45
0.0
1001
ACAD
1000
AcDbSavedByObjectVersion
1070
     0
  0
VISUALSTYLE
  5
2DCE
102
{ACAD_XDICTIONARY
360
2E7A
102
}
102
{ACAD_REACTORS
330
2DC0
102
}
330
2DC0
100
AcDbVisualStyle
  2
Linepattern
 70
    14
 71
     2
 72
     2
 73
     0
 90
        0
 40
-0.6
 41
-30.0
 62
     5
 63
     7
 74
     1
 91
        4
 64
     7
 65
   257
 75
     7
175
     7
 42
1.0
 92
        8
 66
     7
 43
1.0
 76
     1
 77
     6
 78
     2
 67
     7
 79
     5
170
     0
171
     0
290
     0
174
     0
 93
        1
 44
0.0
173
     0
291
     1
 45
0.0
1001
ACAD
1000
AcDbSavedByObjectVersion
1070
     0
  0
VISUALSTYLE
  5
2DD7
102
{ACAD_XDICTIONARY
360
2E8C
102
}
102
{ACAD_REACTORS
330
2DC0
102
}
330
2DC0
100
AcDbVisualStyle
  2
OverhangOff
 70
    21
 71
     2
 72
     2
 73
     0
 90
        0
 40
-0.6
 41
-30.0
 62
     5
 63
     7
 74
     1
 91
        4
 64
     7
 65
   257
 75
     1
175
     1
 42
1.0
 92
        9
 66
     7
 43
1.0
 76
     1
 77
     6
 78
     2
 67
     7
 79
     5
170
     0
171
     0
290
     0
174
     0
 93
        1
 44
0.0
173
     0
291
     1
 45
0.0
1001
ACAD
1000
AcDbSavedByObjectVersion
1070
     0
  0
VISUALSTYLE
  5
2DCA
102
{ACAD_XDICTIONARY
360
2E72
102
}
102
{ACAD_REACTORS
330
2DC0
102
}
330
2DC0
100
AcDbVisualStyle
  2
Realistic
 70
     8
 71
     2
 72
     3
 73
     0
 90
        2
 40
-0.6
 41
30.0
 62
     5
 63
     7
 74
     0
 91
        0
 64
     7
 65
   257
 75
     1
175
     1
 42
1.0
 92
        8
 66
   257
 43
1.0
 76
     1
 77
     6
 78
     2
 67
     7
 79
     3
170
     0
171
     0
290
     0
174
     0
 93
       13
 44
0.0
173
     0
291
     0
 45
0.0
1001
ACAD
1000
AcDbSavedByObjectVersion
1070
     0
  0
VISUALSTYLE
  5
2DD5
102
{ACAD_XDICTIONARY
360
2E88
102
}
102
{ACAD_REACTORS
330
2DC0
102
}
330
2DC0
100
AcDbVisualStyle
  2
Shaded
 70
    27
 71
     2
 72
     2
 73
     1
 90
        2
 40
-0.6
 41
30.0
 62
     5
 63
     7
 74
     0
 91
        4
 64
     7
 65
   257
 75
     1
175
     1
 42
1.0
 92
        8
 66
   257
 43
1.0
 76
     1
 77
     6
 78
     2
 67
     8
 79
     3
170
     0
171
     0
290
     0
174
     0
 93
        5
 44
0.0
173
     0
291
     0
 45
0.0
1001
ACAD
1000
AcDbSavedByObjectVersion
1070
     0
  0
VISUALSTYLE
  5
2DD4
102
{ACAD_XDICTIONARY
360
2E86
102
}
102
{ACAD_REACTORS
330
2DC0
102
}
330
2DC0
100
AcDbVisualStyle
  2
Shaded with edges
 70
    26
 71
     2
 72
     2
 73
     1
 90
        2
 40
-0.6
 41
30.0
 62
     5
 63
     7
 74
     1
 91
       10
 64
     7
 65
   257
 75
     2
175
     1
 42
1.0
 92
        8
 66
   257
 43
1.0
 76
     1
 77
     6
 78
     2
 67
     7
 79
     3
170
     0
171
     0
290
     0
174
     0
 93
        5
 44
0.0
173
     0
291
     0
 45
0.0
1001
ACAD
1000
AcDbSavedByObjectVersion
1070
     0
  0
VISUALSTYLE
  5
2DD1
102
{ACAD_XDICTIONARY
360
2E80
102
}
102
{ACAD_REACTORS
330
2DC0
102
}
330
2DC0
100
AcDbVisualStyle
  2
Shades of Gray
 70
    23
 71
     2
 72
     2
 73
     3
 90
        0
 40
-0.6
 41
-30.0
 62
     5
 63
     7
 74
     2
 91
        2
 64
     7
 65
     7
 75
     1
175
     1
 42
40.0
 92
        8
 66
     7
 43
1.0
 76
     1
 77
     6
 78
     2
 67
     7
 79
     3
170
     0
171
     0
290
     0
174
     0
 93
        1
 44
0.0
173
     0
291
     0
 45
0.0
1001
ACAD
1000
AcDbSavedByObjectVersion
1070
     0
  0
VISUALSTYLE
  5
2DD2
102
{ACAD_XDICTIONARY
360
2E82
102
}
102
{ACAD_REACTORS
330
2DC0
102
}
330
2DC0
100
AcDbVisualStyle
  2
Sketchy
 70
    24
 71
     1
 72
     2
 73
     2
 90
        0
 40
-0.6
 41
-30.0
 62
     5
 63
     7
 74
     2
 91
        2
 64
     7
 65
     7
 75
     1
175
     1
 42
40.0
 92
       11
 66
     7
 43
1.0
 76
     1
 77
     6
 78
     2
 67
     7
 79
     6
170
     0
171
     0
290
     0
174
     0
 93
        1
 44
0.0
173
     0
291
     0
 45
0.0
1001
ACAD
1000
AcDbSavedByObjectVersion
1070
     0
  0
VISUALSTYLE
  5
2DCD
102
{ACAD_XDICTIONARY
360
2E78
102
}
102
{ACAD_REACTORS
330
2DC0
102
}
330
2DC0
100
AcDbVisualStyle
  2
Thicken
 70
    13
 71
     2
 72
     2
 73
     0
 90
        0
 40
-0.6
 41
-30.0
 62
     5
 63
     7
 74
     1
 91
        4
 64
     7
 65
   257
 75
     1
175
     1
 42
1.0
 92
       12
 66
     7
 43
1.0
 76
     1
 77
     6
 78
     2
 67
     7
 79
     5
170
     0
171
     0
290
     0
174
     0
 93
        1
 44
0.0
173
     0
291
     1
 45
0.0
1001
ACAD
1000
AcDbSavedByObjectVersion
1070
     0
  0
VISUALSTYLE
  5
2DC7
102
{ACAD_XDICTIONARY
360
2E6C
102
}
102
{ACAD_REACTORS
330
2DC0
102
}
330
2DC0
100
AcDbVisualStyle
  2
Wireframe
 70
     5
 71
     0
 72
     2
 73
     0
 90
        0
 40
-0.6
 41
-30.0
 62
     5
 63
     7
 74
     1
 91
        4
 64
     7
 65
   257
 75
     1
175
     1
 42
1.0
 92
        0
 66
   257
 43
1.0
 76
     1
 77
     6
 78
     2
 67
     7
 79
     3
170
     0
171
     0
290
     0
174
     0
 93
        1
 44
0.0
173
     0
291
     0
 45
0.0
1001
ACAD
1000
AcDbSavedByObjectVersion
1070
     0
  0
VISUALSTYLE
  5
2DD3
102
{ACAD_XDICTIONARY
360
2E84
102
}
102
{ACAD_REACTORS
330
2DC0
102
}
330
2DC0
100
AcDbVisualStyle
  2
X-Ray
 70
    25
 71
     2
 72
     2
 73
     1
 90
        1
 40
0.5
 41
-30.0
 62
     5
 63
     7
 74
     1
 91
        0
 64
     7
 65
   257
 75
     1
175
     1
 42
1.0
 92
        8
 66
     7
 43
1.0
 76
     1
 77
     6
 78
     2
 67
     7
 79
     3
170
     0
171
     0
290
     0
174
     0
 93
       13
 44
0.0
173
     0
291
     0
 45
0.0
1001
ACAD
1000
AcDbSavedByObjectVersion
1070
     0
  0
DICTIONARYVAR
  5
2E4F
102
{ACAD_REACTORS
330
2E4A
102
}
330
2E4A
100
DictionaryVariables
280
     0
  1
1:1
  0
DICTIONARYVAR
  5
2E4C
102
{ACAD_REACTORS
330
2E4A
102
}
330
2E4A
100
DictionaryVariables
280
     0
  1
STANDARD
  0
DICTIONARYVAR
  5
2E4B
102
{ACAD_REACTORS
330
2E4A
102
}
330
2E4A
100
DictionaryVariables
280
     0
  1
STANDARD
  0
DICTIONARYVAR
  5
2E4D
102
{ACAD_REACTORS
330
2E4A
102
}
330
2E4A
100
DictionaryVariables
280
     0
  1
Imperial24
  0
DICTIONARYVAR
  5
2E4E
102
{ACAD_REACTORS
330
2E4A
102
}
330
2E4A
100
DictionaryVariables
280
     0
  1
Imperial24
  0
DICTIONARYVAR
  5
2E53
102
{ACAD_REACTORS
330
2E4A
102
}
330
2E4A
100
DictionaryVariables
280
     0
  1
1
  0
DICTIONARYVAR
  5
2E51
102
{ACAD_REACTORS
330
2E4A
102
}
330
2E4A
100
DictionaryVariables
280
     0
  1
0
  0
DICTIONARYVAR
  5
2E50
102
{ACAD_REACTORS
330
2E4A
102
}
330
2E4A
100
DictionaryVariables
280
     0
  1
127
  0
DICTIONARYVAR
  5
2E52
102
{ACAD_REACTORS
330
2E4A
102
}
330
2E4A
100
DictionaryVariables
280
     0
  1
0
  0
XRECORD
  5
2E49
102
{ACAD_REACTORS
330
2E47
102
}
330
2E47
100
AcDbXrecord
280
     1
  0
DICTIONARY
  5
2E59
330
BF6
100
AcDbDictionary
280
     1
281
     1
  3
ACAD_XREC_ROUNDTRIP
360
2E5A
  0
DICTIONARY
  5
2E5B
330
BFA
100
AcDbDictionary
280
     1
281
     1
  3
ACAD_XREC_ROUNDTRIP
360
2E5C
  0
DICTIONARY
  5
2DB1
330
2DB0
100
AcDbDictionary
280
     1
281
     1
  3
ACAD_XREC_ROUNDTRIP
360
2E5E
  3
BUMPTILE
360
2DB3
  3
DIFFUSETILE
360
2DB2
  3
OPACITYTILE
360
2DB6
  3
REFLECTIONTILE
360
2DB5
  3
REFRACTIONTILE
360
2DB7
  3
SPECULARTILE
360
2DB4
  0
DICTIONARY
  5
2DA9
330
2DA8
100
AcDbDictionary
280
     1
281
     1
  3
ACAD_XREC_ROUNDTRIP
360
2E5D
  3
BUMPTILE
360
2DAB
  3
DIFFUSETILE
360
2DAA
  3
OPACITYTILE
360
2DAE
  3
REFLECTIONTILE
360
2DAD
  3
REFRACTIONTILE
360
2DAF
  3
SPECULARTILE
360
2DAC
  0
DICTIONARY
  5
2DB9
330
2DB8
100
AcDbDictionary
280
     1
281
     1
  3
ACAD_XREC_ROUNDTRIP
360
2E5F
  3
BUMPTILE
360
2DBB
  3
DIFFUSETILE
360
2DBA
  3
OPACITYTILE
360
2DBE
  3
REFLECTIONTILE
360
2DBD
  3
REFRACTIONTILE
360
2DBF
  3
SPECULARTILE
360
2DBC
  0
DICTIONARY
  5
2E55
330
2DDA
100
AcDbDictionary
280
     1
281
     1
  3
ACAD_ROUNDTRIP_2008_TABLESTYLE_CELLSTYLEMAP
360
2E56
  3
ACAD_XREC_ROUNDTRIP
360
2E90
  0
DICTIONARY
  5
2E6A
330
2DC6
100
AcDbDictionary
280
     1
281
     1
  3
ACAD_XREC_ROUNDTRIP
360
2E6B
  0
DICTIONARY
  5
2E68
330
2DC5
100
AcDbDictionary
280
     1
281
     1
  3
ACAD_XREC_ROUNDTRIP
360
2E69
  0
DICTIONARY
  5
2E76
330
2DCC
100
AcDbDictionary
280
     1
281
     1
  3
ACAD_XREC_ROUNDTRIP
360
2E77
  0
DICTIONARY
  5
2E7E
330
2DD0
100
AcDbDictionary
280
     1
281
     1
  3
ACAD_XREC_ROUNDTRIP
360
2E7F
  0
DICTIONARY
  5
2E70
330
2DC9
100
AcDbDictionary
280
     1
281
     1
  3
ACAD_XREC_ROUNDTRIP
360
2E71
  0
DICTIONARY
  5
2E74
330
2DCB
100
AcDbDictionary
280
     1
281
     1
  3
ACAD_XREC_ROUNDTRIP
360
2E75
  0
DICTIONARY
  5
2E8E
330
2DD8
100
AcDbDictionary
280
     1
281
     1
  3
ACAD_XREC_ROUNDTRIP
360
2E8F
  0
DICTIONARY
  5
2E7C
330
2DCF
100
AcDbDictionary
280
     1
281
     1
  3
ACAD_XREC_ROUNDTRIP
360
2E7D
  0
DICTIONARY
  5
2E60
330
2DC1
100
AcDbDictionary
280
     1
281
     1
  3
ACAD_XREC_ROUNDTRIP
360
2E61
  0
DICTIONARY
  5
2E62
330
2DC2
100
AcDbDictionary
280
     1
281
     1
  3
ACAD_XREC_ROUNDTRIP
360
2E63
  0
DICTIONARY
  5
2E64
330
2DC3
100
AcDbDictionary
280
     1
281
     1
  3
ACAD_XREC_ROUNDTRIP
360
2E65
  0
DICTIONARY
  5
2E66
330
2DC4
100
AcDbDictionary
280
     1
281
     1
  3
ACAD_XREC_ROUNDTRIP
360
2E67
  0
DICTIONARY
  5
2E6E
330
2DC8
100
AcDbDictionary
280
     1
281
     1
  3
ACAD_XREC_ROUNDTRIP
360
2E6F
  0
DICTIONARY
  5
2E8A
330
2DD6
100
AcDbDictionary
280
     1
281
     1
  3
ACAD_XREC_ROUNDTRIP
360
2E8B
  0
DICTIONARY
  5
2E7A
330
2DCE
100
AcDbDictionary
280
     1
281
     1
  3
ACAD_XREC_ROUNDTRIP
360
2E7B
  0
DICTIONARY
  5
2E8C
330
2DD7
100
AcDbDictionary
280
     1
281
     1
  3
ACAD_XREC_ROUNDTRIP
360
2E8D
  0
DICTIONARY
  5
2E72
330
2DCA
100
AcDbDictionary
280
     1
281
     1
  3
ACAD_XREC_ROUNDTRIP
360
2E73
  0
DICTIONARY
  5
2E88
330
2DD5
100
AcDbDictionary
280
     1
281
     1
  3
ACAD_XREC_ROUNDTRIP
360
2E89
  0
DICTIONARY
  5
2E86
330
2DD4
100
AcDbDictionary
280
     1
281
     1
  3
ACAD_XREC_ROUNDTRIP
360
2E87
  0
DICTIONARY
  5
2E80
330
2DD1
100
AcDbDictionary
280
     1
281
     1
  3
ACAD_XREC_ROUNDTRIP
360
2E81
  0
DICTIONARY
  5
2E82
330
2DD2
100
AcDbDictionary
280
     1
281
     1
  3
ACAD_XREC_ROUNDTRIP
360
2E83
  0
DICTIONARY
  5
2E78
330
2DCD
100
AcDbDictionary
280
     1
281
     1
  3
ACAD_XREC_ROUNDTRIP
360
2E79
  0
DICTIONARY
  5
2E6C
330
2DC7
100
AcDbDictionary
280
     1
281
     1
  3
ACAD_XREC_ROUNDTRIP
360
2E6D
  0
DICTIONARY
  5
2E84
330
2DD3
100
AcDbDictionary
280
     1
281
     1
  3
ACAD_XREC_ROUNDTRIP
360
2E85
  0
XRECORD
  5
2E5A
102
{ACAD_REACTORS
330
2E59
102
}
330
2E59
100
AcDbXrecord
280
     1
102
SHADEPLOT
 70
     0
102
SHADEPLOTRESLEVEL
 70
     2
102
SHADEPLOTCUSTOMDPI
 70
   300
  0
XRECORD
  5
2E5C
102
{ACAD_REACTORS
330
2E5B
102
}
330
2E5B
100
AcDbXrecord
280
     1
102
SHADEPLOT
 70
     0
102
SHADEPLOTRESLEVEL
 70
     2
102
SHADEPLOTCUSTOMDPI
 70
   300
  0
XRECORD
  5
2E5E
102
{ACAD_REACTORS
330
2DB1
102
}
330
2DB1
100
AcDbXrecord
280
     1
102
MATERIAL
148
0.0
149
0.0
149
0.0
 93
        0
 94
      127
282
     0
 72
     0
 77
     0
171
     0
175
     0
179
     0
273
     0
  0
XRECORD
  5
2DB3
102
{ACAD_REACTORS
330
2DB1
102
}
330
2DB1
100
AcDbXrecord
280
     1
270
     1
271
     1
  0
XRECORD
  5
2DB2
102
{ACAD_REACTORS
330
2DB1
102
}
330
2DB1
100
AcDbXrecord
280
     1
270
     1
271
     1
  0
XRECORD
  5
2DB6
102
{ACAD_REACTORS
330
2DB1
102
}
330
2DB1
100
AcDbXrecord
280
     1
270
     1
271
     1
  0
XRECORD
  5
2DB5
102
{ACAD_REACTORS
330
2DB1
102
}
330
2DB1
100
AcDbXrecord
280
     1
270
     1
271
     1
  0
XRECORD
  5
2DB7
102
{ACAD_REACTORS
330
2DB1
102
}
330
2DB1
100
AcDbXrecord
280
     1
270
     1
271
     1
  0
XRECORD
  5
2DB4
102
{ACAD_REACTORS
330
2DB1
102
}
330
2DB1
100
AcDbXrecord
280
     1
270
     1
271
     1
  0
XRECORD
  5
2E5D
102
{ACAD_REACTORS
330
2DA9
102
}
330
2DA9
100
AcDbXrecord
280
     1
102
MATERIAL
148
0.0
149
0.0
149
0.0
 93
        0
 94
      127
282
     0
 72
     0
 77
     0
171
     0
175
     0
179
     0
273
     0
  0
XRECORD
  5
2DAB
102
{ACAD_REACTORS
330
2DA9
102
}
330
2DA9
100
AcDbXrecord
280
     1
270
     1
271
     1
  0
XRECORD
  5
2DAA
102
{ACAD_REACTORS
330
2DA9
102
}
330
2DA9
100
AcDbXrecord
280
     1
270
     1
271
     1
  0
XRECORD
  5
2DAE
102
{ACAD_REACTORS
330
2DA9
102
}
330
2DA9
100
AcDbXrecord
280
     1
270
     1
271
     1
  0
XRECORD
  5
2DAD
102
{ACAD_REACTORS
330
2DA9
102
}
330
2DA9
100
AcDbXrecord
280
     1
270
     1
271
     1
  0
XRECORD
  5
2DAF
102
{ACAD_REACTORS
330
2DA9
102
}
330
2DA9
100
AcDbXrecord
280
     1
270
     1
271
     1
  0
XRECORD
  5
2DAC
102
{ACAD_REACTORS
330
2DA9
102
}
330
2DA9
100
AcDbXrecord
280
     1
270
     1
271
     1
  0
XRECORD
  5
2E5F
102
{ACAD_REACTORS
330
2DB9
102
}
330
2DB9
100
AcDbXrecord
280
     1
102
MATERIAL
148
0.0
149
0.0
149
0.0
 93
        0
 94
      127
282
     0
 72
     0
 77
     0
171
     0
175
     0
179
     0
273
     0
  0
XRECORD
  5
2DBB
102
{ACAD_REACTORS
330
2DB9
102
}
330
2DB9
100
AcDbXrecord
280
     1
270
     1
271
     1
  0
XRECORD
  5
2DBA
102
{ACAD_REACTORS
330
2DB9
102
}
330
2DB9
100
AcDbXrecord
280
     1
270
     1
271
     1
  0
XRECORD
  5
2DBE
102
{ACAD_REACTORS
330
2DB9
102
}
330
2DB9
100
AcDbXrecord
280
     1
270
     1
271
     1
  0
XRECORD
  5
2DBD
102
{ACAD_REACTORS
330
2DB9
102
}
330
2DB9
100
AcDbXrecord
280
     1
270
     1
271
     1
  0
XRECORD
  5
2DBF
102
{ACAD_REACTORS
330
2DB9
102
}
330
2DB9
100
AcDbXrecord
280
     1
270
     1
271
     1
  0
XRECORD
  5
2DBC
102
{ACAD_REACTORS
330
2DB9
102
}
330
2DB9
100
AcDbXrecord
280
     1
270
     1
271
     1
  0
CELLSTYLEMAP
  5
2E56
102
{ACAD_REACTORS
330
2E55
102
}
330
2E55
100
AcDbCellStyleMap
 90
        3
300
CELLSTYLE
  1
TABLEFORMAT_BEGIN
 90
        5
170
     1
 91
        0
 92
    32768
 62
   257
 93
        1
300
CONTENTFORMAT
  1
CONTENTFORMAT_BEGIN
 90
        0
 91
        0
 92
      512
 93
        0
300

 40
0.0
140
1.0
 94
        5
 62
     0
340
BE8
144
0.25
309
CONTENTFORMAT_END
171
     0
 94
        0
309
TABLEFORMAT_END
  1
CELLSTYLE_BEGIN
 90
        1
 91
        1
300
_TITLE
309
CELLSTYLE_END
300
CELLSTYLE
  1
TABLEFORMAT_BEGIN
 90
        5
170
     1
 91
        0
 92
        0
 62
   257
 93
        1
300
CONTENTFORMAT
  1
CONTENTFORMAT_BEGIN
 90
        0
 91
        0
 92
      512
 93
        0
300

 40
0.0
140
1.0
 94
        5
 62
     0
340
BE8
144
0.18
309
CONTENTFORMAT_END
171
     0
 94
        0
309
TABLEFORMAT_END
  1
CELLSTYLE_BEGIN
 90
        2
 91
        1
300
_HEADER
309
CELLSTYLE_END
300
CELLSTYLE
  1
TABLEFORMAT_BEGIN
 90
        5
170
     1
 91
        0
 92
        0
 62
   257
 93
        1
300
CONTENTFORMAT
  1
CONTENTFORMAT_BEGIN
 90
        0
 91
        0
 92
      512
 93
        0
300

 40
0.0
140
1.0
 94
        2
 62
     0
340
BE8
144
0.18
309
CONTENTFORMAT_END
171
     0
 94
        0
309
TABLEFORMAT_END
  1
CELLSTYLE_BEGIN
 90
        3
 91
        2
300
_DATA
309
CELLSTYLE_END
  0
XRECORD
  5
2E90
102
{ACAD_REACTORS
330
2E55
102
}
330
2E55
100
AcDbXrecord
280
     1
102
ACAD_ROUNDTRIP_PRE2007_TABLESTYLE
 90
      512
 91
        0
  1

 92
      512
 93
        0
  2

 94
      512
 95
        0
  3

  0
XRECORD
  5
2E6B
102
{ACAD_REACTORS
330
2E6A
102
}
330
2E6A
100
AcDbXrecord
280
     1
102
RTVSPost2010Prop28
280
     1
102
RTVSPost2010PropOp28
 70
     1
102
RTVSPost2010Prop29
280
     1
102
RTVSPost2010PropOp29
 70
     1
102
RTVSPost2010Prop30
280
     0
102
RTVSPost2010PropOp30
 70
     1
102
RTVSPost2010Prop31
280
     0
102
RTVSPost2010PropOp31
 70
     1
102
RTVSPost2010Prop32
280
     0
102
RTVSPost2010PropOp32
 70
     1
102
RTVSPost2010Prop33
280
     0
102
RTVSPost2010PropOp33
 70
     1
102
RTVSPost2010Prop34
280
     0
102
RTVSPost2010PropOp34
 70
     1
102
RTVSPost2010Prop35
280
     0
102
RTVSPost2010PropOp35
 70
     1
102
RTVSPost2010Prop36
280
     0
102
RTVSPost2010PropOp36
 70
     1
102
RTVSPost2010Prop37
 90
       50
102
RTVSPost2010PropOp37
 70
     1
102
RTVSPost2010Prop38
140
0.0
102
RTVSPost2010PropOp38
 70
     1
102
RTVSPost2010Prop39
140
1.0
102
RTVSPost2010PropOp39
 70
     1
102
RTVSPost2010Prop40
 90
        0
102
RTVSPost2010PropOp40
 70
     1
102
RTVSPost2010Prop41ColorIndex
 90
       18
102
RTVSPost2010Prop41ColorRGB
 90
        0
102
RTVSPost2010PropOp41
 70
     1
102
RTVSPost2010Prop42
 90
       50
102
RTVSPost2010PropOp42
 70
     1
102
RTVSPost2010Prop43
 90
        3
102
RTVSPost2010PropOp43
 70
     1
102
RTVSPost2010Prop44ColorIndex
 90
        5
102
RTVSPost2010Prop44ColorRGB
 90
      255
102
RTVSPost2010PropOp44
 70
     1
102
RTVSPost2010Prop45
280
     0
102
RTVSPost2010PropOp45
 70
     1
102
RTVSPost2010Prop46
 90
       50
102
RTVSPost2010PropOp46
 70
     1
102
RTVSPost2010Prop47
 90
       50
102
RTVSPost2010PropOp47
 70
     1
102
RTVSPost2010Prop48
 90
       50
102
RTVSPost2010PropOp48
 70
     1
102
RTVSPost2010Prop49
280
     0
102
RTVSPost2010PropOp49
 70
     1
102
RTVSPost2010Prop50
 90
       50
102
RTVSPost2010PropOp50
 70
     1
102
RTVSPost2010Prop51ColorIndex
 90
      256
102
RTVSPost2010Prop51ColorRGB
 90
-16777216
102
RTVSPost2010PropOp51
 70
     0
102
RTVSPost2010Prop52
140
1.0
102
RTVSPost2010PropOp52
 70
     0
102
RTVSPost2010Prop53
 90
        2
102
RTVSPost2010PropOp53
 70
     1
102
RTVSPost2010Prop54
  1
strokes_ogs.tif
102
RTVSPost2010PropOp54
 70
     1
102
RTVSPost2010Prop55
280
     0
102
RTVSPost2010PropOp55
 70
     1
102
RTVSPost2010Prop56
140
1.0
102
RTVSPost2010PropOp56
 70
     1
102
RTVSPost2010Prop57
140
1.0
102
RTVSPost2010PropOp57
 70
     1
102
RTVSPropertyOp0
 70
     1
102
RTVSPropertyOp1
 70
     1
102
RTVSPropertyOp2
 70
     1
102
RTVSPropertyOp3
 70
     1
102
RTVSPropertyOp4
 70
     1
102
RTVSPropertyOp5
 70
     1
102
RTVSPropertyOp6
 70
     1
102
RTVSPropertyOp7
 70
     1
102
RTVSPropertyOp8
 70
     1
102
RTVSPropertyOp9
 70
     1
102
RTVSPropertyOp10
 70
     1
102
RTVSPropertyOp11
 70
     1
102
RTVSPropertyOp12
 70
     1
102
RTVSPropertyOp13
 70
     1
102
RTVSPropertyOp14
 70
     1
102
RTVSPropertyOp15
 70
     1
102
RTVSPropertyOp16
 70
     1
102
RTVSPropertyOp17
 70
     1
102
RTVSPropertyOp18
 70
     1
102
RTVSPropertyOp19
 70
     1
102
RTVSPropertyOp20
 70
     1
102
RTVSPropertyOp21
 70
     1
102
RTVSPropertyOp22
 70
     1
102
RTVSPropertyOp23
 70
     1
102
RTVSPropertyOp24
 70
     1
102
RTVSPropertyOp25
 70
     1
102
RTVSPropertyOp26
 70
     1
102
RTVSPropertyOp27
 70
     1
102
RTVSPropertyOp28
 70
     1
102
RTVSPropertyOp29
 70
     1
102
RTVSPropertyOp30
 70
     1
102
RTVSPropertyOp31
 70
     1
102
RTVSPropertyOp32
 70
     1
102
RTVSPropertyOp33
 70
     1
102
RTVSPropertyOp34
 70
     1
102
RTVSPropertyOp35
 70
     1
102
RTVSPropertyOp36
 70
     1
102
RTVSPropertyOp37
 70
     1
102
RTVSPropertyOp38
 70
     1
102
RTVSPropertyOp39
 70
     1
102
RTVSPropertyOp40
 70
     1
102
RTVSPropertyOp41
 70
     1
102
RTVSPropertyOp42
 70
     1
102
RTVSPropertyOp43
 70
     1
102
RTVSPropertyOp44
 70
     1
102
RTVSPropertyOp45
 70
     1
102
RTVSPropertyOp46
 70
     1
102
RTVSPropertyOp47
 70
     1
102
RTVSPropertyOp48
 70
     1
102
RTVSPropertyOp49
 70
     1
102
RTVSPropertyOp50
 70
     1
102
RTVSPropertyOp51
 70
     0
102
RTVSPropertyOp52
 70
     0
102
RTVSPropertyOp53
 70
     1
102
RTVSPropertyOp54
 70
     1
102
RTVSPropertyOp55
 70
     1
102
RTVSPropertyOp56
 70
     1
102
RTVSPropertyOp57
 70
     1
102
RTVSPropertyOp58
 70
     1
102
RTVSPropertyOp59
 70
     1
102
RTVSPropertyOp60
 70
     1
102
RTVSPropertyOp61
 70
     1
102
RTVSPropertyOp62
 70
     1
  0
XRECORD
  5
2E69
102
{ACAD_REACTORS
330
2E68
102
}
330
2E68
100
AcDbXrecord
280
     1
102
RTVSPost2010Prop28
280
     0
102
RTVSPost2010PropOp28
 70
     1
102
RTVSPost2010Prop29
280
     1
102
RTVSPost2010PropOp29
 70
     1
102
RTVSPost2010Prop30
280
     1
102
RTVSPost2010PropOp30
 70
     1
102
RTVSPost2010Prop31
280
     0
102
RTVSPost2010PropOp31
 70
     1
102
RTVSPost2010Prop32
280
     0
102
RTVSPost2010PropOp32
 70
     1
102
RTVSPost2010Prop33
280
     0
102
RTVSPost2010PropOp33
 70
     1
102
RTVSPost2010Prop34
280
     0
102
RTVSPost2010PropOp34
 70
     1
102
RTVSPost2010Prop35
280
     0
102
RTVSPost2010PropOp35
 70
     1
102
RTVSPost2010Prop36
280
     0
102
RTVSPost2010PropOp36
 70
     1
102
RTVSPost2010Prop37
 90
       50
102
RTVSPost2010PropOp37
 70
     1
102
RTVSPost2010Prop38
140
0.0
102
RTVSPost2010PropOp38
 70
     1
102
RTVSPost2010Prop39
140
1.0
102
RTVSPost2010PropOp39
 70
     1
102
RTVSPost2010Prop40
 90
        0
102
RTVSPost2010PropOp40
 70
     1
102
RTVSPost2010Prop41ColorIndex
 90
       18
102
RTVSPost2010Prop41ColorRGB
 90
        0
102
RTVSPost2010PropOp41
 70
     1
102
RTVSPost2010Prop42
 90
       50
102
RTVSPost2010PropOp42
 70
     1
102
RTVSPost2010Prop43
 90
        3
102
RTVSPost2010PropOp43
 70
     1
102
RTVSPost2010Prop44ColorIndex
 90
        5
102
RTVSPost2010Prop44ColorRGB
 90
      255
102
RTVSPost2010PropOp44
 70
     1
102
RTVSPost2010Prop45
280
     0
102
RTVSPost2010PropOp45
 70
     1
102
RTVSPost2010Prop46
 90
       50
102
RTVSPost2010PropOp46
 70
     1
102
RTVSPost2010Prop47
 90
       50
102
RTVSPost2010PropOp47
 70
     1
102
RTVSPost2010Prop48
 90
       50
102
RTVSPost2010PropOp48
 70
     1
102
RTVSPost2010Prop49
280
     0
102
RTVSPost2010PropOp49
 70
     1
102
RTVSPost2010Prop50
 90
       50
102
RTVSPost2010PropOp50
 70
     1
102
RTVSPost2010Prop51ColorIndex
 90
      256
102
RTVSPost2010Prop51ColorRGB
 90
-16777216
102
RTVSPost2010PropOp51
 70
     0
102
RTVSPost2010Prop52
140
1.0
102
RTVSPost2010PropOp52
 70
     0
102
RTVSPost2010Prop53
 90
        2
102
RTVSPost2010PropOp53
 70
     1
102
RTVSPost2010Prop54
  1
strokes_ogs.tif
102
RTVSPost2010PropOp54
 70
     1
102
RTVSPost2010Prop55
280
     0
102
RTVSPost2010PropOp55
 70
     1
102
RTVSPost2010Prop56
140
1.0
102
RTVSPost2010PropOp56
 70
     1
102
RTVSPost2010Prop57
140
1.0
102
RTVSPost2010PropOp57
 70
     1
102
RTVSPropertyOp0
 70
     1
102
RTVSPropertyOp1
 70
     1
102
RTVSPropertyOp2
 70
     1
102
RTVSPropertyOp3
 70
     1
102
RTVSPropertyOp4
 70
     1
102
RTVSPropertyOp5
 70
     1
102
RTVSPropertyOp6
 70
     1
102
RTVSPropertyOp7
 70
     1
102
RTVSPropertyOp8
 70
     1
102
RTVSPropertyOp9
 70
     1
102
RTVSPropertyOp10
 70
     1
102
RTVSPropertyOp11
 70
     1
102
RTVSPropertyOp12
 70
     1
102
RTVSPropertyOp13
 70
     1
102
RTVSPropertyOp14
 70
     1
102
RTVSPropertyOp15
 70
     1
102
RTVSPropertyOp16
 70
     1
102
RTVSPropertyOp17
 70
     1
102
RTVSPropertyOp18
 70
     1
102
RTVSPropertyOp19
 70
     1
102
RTVSPropertyOp20
 70
     1
102
RTVSPropertyOp21
 70
     1
102
RTVSPropertyOp22
 70
     1
102
RTVSPropertyOp23
 70
     1
102
RTVSPropertyOp24
 70
     1
102
RTVSPropertyOp25
 70
     1
102
RTVSPropertyOp26
 70
     1
102
RTVSPropertyOp27
 70
     1
102
RTVSPropertyOp28
 70
     1
102
RTVSPropertyOp29
 70
     1
102
RTVSPropertyOp30
 70
     1
102
RTVSPropertyOp31
 70
     1
102
RTVSPropertyOp32
 70
     1
102
RTVSPropertyOp33
 70
     1
102
RTVSPropertyOp34
 70
     1
102
RTVSPropertyOp35
 70
     1
102
RTVSPropertyOp36
 70
     1
102
RTVSPropertyOp37
 70
     1
102
RTVSPropertyOp38
 70
     1
102
RTVSPropertyOp39
 70
     1
102
RTVSPropertyOp40
 70
     1
102
RTVSPropertyOp41
 70
     1
102
RTVSPropertyOp42
 70
     1
102
RTVSPropertyOp43
 70
     1
102
RTVSPropertyOp44
 70
     1
102
RTVSPropertyOp45
 70
     1
102
RTVSPropertyOp46
 70
     1
102
RTVSPropertyOp47
 70
     1
102
RTVSPropertyOp48
 70
     1
102
RTVSPropertyOp49
 70
     1
102
RTVSPropertyOp50
 70
     1
102
RTVSPropertyOp51
 70
     0
102
RTVSPropertyOp52
 70
     0
102
RTVSPropertyOp53
 70
     1
102
RTVSPropertyOp54
 70
     1
102
RTVSPropertyOp55
 70
     1
102
RTVSPropertyOp56
 70
     1
102
RTVSPropertyOp57
 70
     1
102
RTVSPropertyOp58
 70
     1
102
RTVSPropertyOp59
 70
     1
102
RTVSPropertyOp60
 70
     1
102
RTVSPropertyOp61
 70
     1
102
RTVSPropertyOp62
 70
     1
  0
XRECORD
  5
2E77
102
{ACAD_REACTORS
330
2E76
102
}
330
2E76
100
AcDbXrecord
280
     1
102
RTVSPost2010Prop28
280
     0
102
RTVSPost2010PropOp28
 70
     1
102
RTVSPost2010Prop29
280
     1
102
RTVSPost2010PropOp29
 70
     1
102
RTVSPost2010Prop30
280
     1
102
RTVSPost2010PropOp30
 70
     1
102
RTVSPost2010Prop31
280
     0
102
RTVSPost2010PropOp31
 70
     1
102
RTVSPost2010Prop32
280
     0
102
RTVSPost2010PropOp32
 70
     1
102
RTVSPost2010Prop33
280
     0
102
RTVSPost2010PropOp33
 70
     1
102
RTVSPost2010Prop34
280
     0
102
RTVSPost2010PropOp34
 70
     1
102
RTVSPost2010Prop35
280
     0
102
RTVSPost2010PropOp35
 70
     1
102
RTVSPost2010Prop36
280
     0
102
RTVSPost2010PropOp36
 70
     1
102
RTVSPost2010Prop37
 90
       50
102
RTVSPost2010PropOp37
 70
     1
102
RTVSPost2010Prop38
140
0.0
102
RTVSPost2010PropOp38
 70
     1
102
RTVSPost2010Prop39
140
1.0
102
RTVSPost2010PropOp39
 70
     1
102
RTVSPost2010Prop40
 90
        0
102
RTVSPost2010PropOp40
 70
     1
102
RTVSPost2010Prop41ColorIndex
 90
       18
102
RTVSPost2010Prop41ColorRGB
 90
        0
102
RTVSPost2010PropOp41
 70
     1
102
RTVSPost2010Prop42
 90
       50
102
RTVSPost2010PropOp42
 70
     1
102
RTVSPost2010Prop43
 90
        3
102
RTVSPost2010PropOp43
 70
     1
102
RTVSPost2010Prop44ColorIndex
 90
        5
102
RTVSPost2010Prop44ColorRGB
 90
      255
102
RTVSPost2010PropOp44
 70
     1
102
RTVSPost2010Prop45
280
     0
102
RTVSPost2010PropOp45
 70
     1
102
RTVSPost2010Prop46
 90
       50
102
RTVSPost2010PropOp46
 70
     1
102
RTVSPost2010Prop47
 90
       50
102
RTVSPost2010PropOp47
 70
     1
102
RTVSPost2010Prop48
 90
       50
102
RTVSPost2010PropOp48
 70
     1
102
RTVSPost2010Prop49
280
     0
102
RTVSPost2010PropOp49
 70
     1
102
RTVSPost2010Prop50
 90
       50
102
RTVSPost2010PropOp50
 70
     1
102
RTVSPost2010Prop51ColorIndex
 90
      256
102
RTVSPost2010Prop51ColorRGB
 90
-16777216
102
RTVSPost2010PropOp51
 70
     0
102
RTVSPost2010Prop52
140
1.0
102
RTVSPost2010PropOp52
 70
     0
102
RTVSPost2010Prop53
 90
        2
102
RTVSPost2010PropOp53
 70
     1
102
RTVSPost2010Prop54
  1
strokes_ogs.tif
102
RTVSPost2010PropOp54
 70
     1
102
RTVSPost2010Prop55
280
     0
102
RTVSPost2010PropOp55
 70
     1
102
RTVSPost2010Prop56
140
1.0
102
RTVSPost2010PropOp56
 70
     1
102
RTVSPost2010Prop57
140
1.0
102
RTVSPost2010PropOp57
 70
     1
102
RTVSPropertyOp0
 70
     1
102
RTVSPropertyOp1
 70
     1
102
RTVSPropertyOp2
 70
     1
102
RTVSPropertyOp3
 70
     1
102
RTVSPropertyOp4
 70
     1
102
RTVSPropertyOp5
 70
     1
102
RTVSPropertyOp6
 70
     1
102
RTVSPropertyOp7
 70
     1
102
RTVSPropertyOp8
 70
     1
102
RTVSPropertyOp9
 70
     1
102
RTVSPropertyOp10
 70
     1
102
RTVSPropertyOp11
 70
     1
102
RTVSPropertyOp12
 70
     1
102
RTVSPropertyOp13
 70
     1
102
RTVSPropertyOp14
 70
     1
102
RTVSPropertyOp15
 70
     1
102
RTVSPropertyOp16
 70
     1
102
RTVSPropertyOp17
 70
     1
102
RTVSPropertyOp18
 70
     1
102
RTVSPropertyOp19
 70
     1
102
RTVSPropertyOp20
 70
     1
102
RTVSPropertyOp21
 70
     1
102
RTVSPropertyOp22
 70
     1
102
RTVSPropertyOp23
 70
     1
102
RTVSPropertyOp24
 70
     1
102
RTVSPropertyOp25
 70
     1
102
RTVSPropertyOp26
 70
     1
102
RTVSPropertyOp27
 70
     1
102
RTVSPropertyOp28
 70
     1
102
RTVSPropertyOp29
 70
     1
102
RTVSPropertyOp30
 70
     1
102
RTVSPropertyOp31
 70
     1
102
RTVSPropertyOp32
 70
     1
102
RTVSPropertyOp33
 70
     1
102
RTVSPropertyOp34
 70
     1
102
RTVSPropertyOp35
 70
     1
102
RTVSPropertyOp36
 70
     1
102
RTVSPropertyOp37
 70
     1
102
RTVSPropertyOp38
 70
     1
102
RTVSPropertyOp39
 70
     1
102
RTVSPropertyOp40
 70
     1
102
RTVSPropertyOp41
 70
     1
102
RTVSPropertyOp42
 70
     1
102
RTVSPropertyOp43
 70
     1
102
RTVSPropertyOp44
 70
     1
102
RTVSPropertyOp45
 70
     1
102
RTVSPropertyOp46
 70
     1
102
RTVSPropertyOp47
 70
     1
102
RTVSPropertyOp48
 70
     1
102
RTVSPropertyOp49
 70
     1
102
RTVSPropertyOp50
 70
     1
102
RTVSPropertyOp51
 70
     0
102
RTVSPropertyOp52
 70
     0
102
RTVSPropertyOp53
 70
     1
102
RTVSPropertyOp54
 70
     1
102
RTVSPropertyOp55
 70
     1
102
RTVSPropertyOp56
 70
     1
102
RTVSPropertyOp57
 70
     1
102
RTVSPropertyOp58
 70
     1
102
RTVSPropertyOp59
 70
     1
102
RTVSPropertyOp60
 70
     1
102
RTVSPropertyOp61
 70
     1
102
RTVSPropertyOp62
 70
     1
  0
XRECORD
  5
2E7F
102
{ACAD_REACTORS
330
2E7E
102
}
330
2E7E
100
AcDbXrecord
280
     1
102
RTVSPost2010Prop28
280
     0
102
RTVSPost2010PropOp28
 70
     1
102
RTVSPost2010Prop29
280
     1
102
RTVSPost2010PropOp29
 70
     1
102
RTVSPost2010Prop30
280
     1
102
RTVSPost2010PropOp30
 70
     1
102
RTVSPost2010Prop31
280
     0
102
RTVSPost2010PropOp31
 70
     1
102
RTVSPost2010Prop32
280
     0
102
RTVSPost2010PropOp32
 70
     1
102
RTVSPost2010Prop33
280
     0
102
RTVSPost2010PropOp33
 70
     1
102
RTVSPost2010Prop34
280
     0
102
RTVSPost2010PropOp34
 70
     1
102
RTVSPost2010Prop35
280
     0
102
RTVSPost2010PropOp35
 70
     1
102
RTVSPost2010Prop36
280
     0
102
RTVSPost2010PropOp36
 70
     1
102
RTVSPost2010Prop37
 90
       50
102
RTVSPost2010PropOp37
 70
     1
102
RTVSPost2010Prop38
140
0.0
102
RTVSPost2010PropOp38
 70
     1
102
RTVSPost2010Prop39
140
1.0
102
RTVSPost2010PropOp39
 70
     1
102
RTVSPost2010Prop40
 90
        0
102
RTVSPost2010PropOp40
 70
     1
102
RTVSPost2010Prop41ColorIndex
 90
       18
102
RTVSPost2010Prop41ColorRGB
 90
        0
102
RTVSPost2010PropOp41
 70
     1
102
RTVSPost2010Prop42
 90
       50
102
RTVSPost2010PropOp42
 70
     1
102
RTVSPost2010Prop43
 90
        3
102
RTVSPost2010PropOp43
 70
     1
102
RTVSPost2010Prop44ColorIndex
 90
        5
102
RTVSPost2010Prop44ColorRGB
 90
      255
102
RTVSPost2010PropOp44
 70
     1
102
RTVSPost2010Prop45
280
     0
102
RTVSPost2010PropOp45
 70
     1
102
RTVSPost2010Prop46
 90
       50
102
RTVSPost2010PropOp46
 70
     1
102
RTVSPost2010Prop47
 90
       50
102
RTVSPost2010PropOp47
 70
     1
102
RTVSPost2010Prop48
 90
       50
102
RTVSPost2010PropOp48
 70
     1
102
RTVSPost2010Prop49
280
     0
102
RTVSPost2010PropOp49
 70
     1
102
RTVSPost2010Prop50
 90
       50
102
RTVSPost2010PropOp50
 70
     1
102
RTVSPost2010Prop51ColorIndex
 90
      256
102
RTVSPost2010Prop51ColorRGB
 90
-16777216
102
RTVSPost2010PropOp51
 70
     0
102
RTVSPost2010Prop52
140
1.0
102
RTVSPost2010PropOp52
 70
     0
102
RTVSPost2010Prop53
 90
        2
102
RTVSPost2010PropOp53
 70
     1
102
RTVSPost2010Prop54
  1
strokes_ogs.tif
102
RTVSPost2010PropOp54
 70
     1
102
RTVSPost2010Prop55
280
     0
102
RTVSPost2010PropOp55
 70
     1
102
RTVSPost2010Prop56
140
1.0
102
RTVSPost2010PropOp56
 70
     1
102
RTVSPost2010Prop57
140
1.0
102
RTVSPost2010PropOp57
 70
     1
102
RTVSPropertyOp0
 70
     1
102
RTVSPropertyOp1
 70
     1
102
RTVSPropertyOp2
 70
     1
102
RTVSPropertyOp3
 70
     1
102
RTVSPropertyOp4
 70
     1
102
RTVSPropertyOp5
 70
     1
102
RTVSPropertyOp6
 70
     1
102
RTVSPropertyOp7
 70
     1
102
RTVSPropertyOp8
 70
     1
102
RTVSPropertyOp9
 70
     1
102
RTVSPropertyOp10
 70
     1
102
RTVSPropertyOp11
 70
     1
102
RTVSPropertyOp12
 70
     1
102
RTVSPropertyOp13
 70
     1
102
RTVSPropertyOp14
 70
     1
102
RTVSPropertyOp15
 70
     1
102
RTVSPropertyOp16
 70
     1
102
RTVSPropertyOp17
 70
     1
102
RTVSPropertyOp18
 70
     1
102
RTVSPropertyOp19
 70
     1
102
RTVSPropertyOp20
 70
     1
102
RTVSPropertyOp21
 70
     1
102
RTVSPropertyOp22
 70
     1
102
RTVSPropertyOp23
 70
     1
102
RTVSPropertyOp24
 70
     1
102
RTVSPropertyOp25
 70
     1
102
RTVSPropertyOp26
 70
     1
102
RTVSPropertyOp27
 70
     1
102
RTVSPropertyOp28
 70
     1
102
RTVSPropertyOp29
 70
     1
102
RTVSPropertyOp30
 70
     1
102
RTVSPropertyOp31
 70
     1
102
RTVSPropertyOp32
 70
     1
102
RTVSPropertyOp33
 70
     1
102
RTVSPropertyOp34
 70
     1
102
RTVSPropertyOp35
 70
     1
102
RTVSPropertyOp36
 70
     1
102
RTVSPropertyOp37
 70
     1
102
RTVSPropertyOp38
 70
     1
102
RTVSPropertyOp39
 70
     1
102
RTVSPropertyOp40
 70
     1
102
RTVSPropertyOp41
 70
     1
102
RTVSPropertyOp42
 70
     1
102
RTVSPropertyOp43
 70
     1
102
RTVSPropertyOp44
 70
     1
102
RTVSPropertyOp45
 70
     1
102
RTVSPropertyOp46
 70
     1
102
RTVSPropertyOp47
 70
     1
102
RTVSPropertyOp48
 70
     1
102
RTVSPropertyOp49
 70
     1
102
RTVSPropertyOp50
 70
     1
102
RTVSPropertyOp51
 70
     0
102
RTVSPropertyOp52
 70
     0
102
RTVSPropertyOp53
 70
     1
102
RTVSPropertyOp54
 70
     1
102
RTVSPropertyOp55
 70
     1
102
RTVSPropertyOp56
 70
     1
102
RTVSPropertyOp57
 70
     1
102
RTVSPropertyOp58
 70
     1
102
RTVSPropertyOp59
 70
     1
102
RTVSPropertyOp60
 70
     1
102
RTVSPropertyOp61
 70
     1
102
RTVSPropertyOp62
 70
     1
  0
XRECORD
  5
2E71
102
{ACAD_REACTORS
330
2E70
102
}
330
2E70
100
AcDbXrecord
280
     1
102
RTVSPost2010Prop28
280
     0
102
RTVSPost2010PropOp28
 70
     1
102
RTVSPost2010Prop29
280
     1
102
RTVSPost2010PropOp29
 70
     1
102
RTVSPost2010Prop30
280
     1
102
RTVSPost2010PropOp30
 70
     1
102
RTVSPost2010Prop31
280
     0
102
RTVSPost2010PropOp31
 70
     1
102
RTVSPost2010Prop32
280
     0
102
RTVSPost2010PropOp32
 70
     1
102
RTVSPost2010Prop33
280
     0
102
RTVSPost2010PropOp33
 70
     1
102
RTVSPost2010Prop34
280
     0
102
RTVSPost2010PropOp34
 70
     1
102
RTVSPost2010Prop35
280
     0
102
RTVSPost2010PropOp35
 70
     1
102
RTVSPost2010Prop36
280
     0
102
RTVSPost2010PropOp36
 70
     1
102
RTVSPost2010Prop37
 90
       50
102
RTVSPost2010PropOp37
 70
     1
102
RTVSPost2010Prop38
140
0.0
102
RTVSPost2010PropOp38
 70
     1
102
RTVSPost2010Prop39
140
1.0
102
RTVSPost2010PropOp39
 70
     1
102
RTVSPost2010Prop40
 90
        0
102
RTVSPost2010PropOp40
 70
     1
102
RTVSPost2010Prop41ColorIndex
 90
       18
102
RTVSPost2010Prop41ColorRGB
 90
        0
102
RTVSPost2010PropOp41
 70
     1
102
RTVSPost2010Prop42
 90
       50
102
RTVSPost2010PropOp42
 70
     1
102
RTVSPost2010Prop43
 90
        3
102
RTVSPost2010PropOp43
 70
     1
102
RTVSPost2010Prop44ColorIndex
 90
        5
102
RTVSPost2010Prop44ColorRGB
 90
      255
102
RTVSPost2010PropOp44
 70
     1
102
RTVSPost2010Prop45
280
     0
102
RTVSPost2010PropOp45
 70
     1
102
RTVSPost2010Prop46
 90
       50
102
RTVSPost2010PropOp46
 70
     1
102
RTVSPost2010Prop47
 90
       50
102
RTVSPost2010PropOp47
 70
     1
102
RTVSPost2010Prop48
 90
       50
102
RTVSPost2010PropOp48
 70
     1
102
RTVSPost2010Prop49
280
     0
102
RTVSPost2010PropOp49
 70
     1
102
RTVSPost2010Prop50
 90
       50
102
RTVSPost2010PropOp50
 70
     1
102
RTVSPost2010Prop51ColorIndex
 90
      256
102
RTVSPost2010Prop51ColorRGB
 90
-16777216
102
RTVSPost2010PropOp51
 70
     0
102
RTVSPost2010Prop52
140
1.0
102
RTVSPost2010PropOp52
 70
     0
102
RTVSPost2010Prop53
 90
        2
102
RTVSPost2010PropOp53
 70
     1
102
RTVSPost2010Prop54
  1
strokes_ogs.tif
102
RTVSPost2010PropOp54
 70
     1
102
RTVSPost2010Prop55
280
     0
102
RTVSPost2010PropOp55
 70
     1
102
RTVSPost2010Prop56
140
1.0
102
RTVSPost2010PropOp56
 70
     1
102
RTVSPost2010Prop57
140
1.0
102
RTVSPost2010PropOp57
 70
     1
102
RTVSPropertyOp0
 70
     1
102
RTVSPropertyOp1
 70
     1
102
RTVSPropertyOp2
 70
     1
102
RTVSPropertyOp3
 70
     1
102
RTVSPropertyOp4
 70
     1
102
RTVSPropertyOp5
 70
     1
102
RTVSPropertyOp6
 70
     1
102
RTVSPropertyOp7
 70
     1
102
RTVSPropertyOp8
 70
     1
102
RTVSPropertyOp9
 70
     1
102
RTVSPropertyOp10
 70
     1
102
RTVSPropertyOp11
 70
     1
102
RTVSPropertyOp12
 70
     1
102
RTVSPropertyOp13
 70
     1
102
RTVSPropertyOp14
 70
     1
102
RTVSPropertyOp15
 70
     1
102
RTVSPropertyOp16
 70
     1
102
RTVSPropertyOp17
 70
     1
102
RTVSPropertyOp18
 70
     1
102
RTVSPropertyOp19
 70
     1
102
RTVSPropertyOp20
 70
     1
102
RTVSPropertyOp21
 70
     1
102
RTVSPropertyOp22
 70
     1
102
RTVSPropertyOp23
 70
     1
102
RTVSPropertyOp24
 70
     1
102
RTVSPropertyOp25
 70
     1
102
RTVSPropertyOp26
 70
     1
102
RTVSPropertyOp27
 70
     1
102
RTVSPropertyOp28
 70
     1
102
RTVSPropertyOp29
 70
     1
102
RTVSPropertyOp30
 70
     1
102
RTVSPropertyOp31
 70
     1
102
RTVSPropertyOp32
 70
     1
102
RTVSPropertyOp33
 70
     1
102
RTVSPropertyOp34
 70
     1
102
RTVSPropertyOp35
 70
     1
102
RTVSPropertyOp36
 70
     1
102
RTVSPropertyOp37
 70
     1
102
RTVSPropertyOp38
 70
     1
102
RTVSPropertyOp39
 70
     1
102
RTVSPropertyOp40
 70
     1
102
RTVSPropertyOp41
 70
     1
102
RTVSPropertyOp42
 70
     1
102
RTVSPropertyOp43
 70
     1
102
RTVSPropertyOp44
 70
     1
102
RTVSPropertyOp45
 70
     1
102
RTVSPropertyOp46
 70
     1
102
RTVSPropertyOp47
 70
     1
102
RTVSPropertyOp48
 70
     1
102
RTVSPropertyOp49
 70
     1
102
RTVSPropertyOp50
 70
     1
102
RTVSPropertyOp51
 70
     0
102
RTVSPropertyOp52
 70
     0
102
RTVSPropertyOp53
 70
     1
102
RTVSPropertyOp54
 70
     1
102
RTVSPropertyOp55
 70
     1
102
RTVSPropertyOp56
 70
     1
102
RTVSPropertyOp57
 70
     1
102
RTVSPropertyOp58
 70
     1
102
RTVSPropertyOp59
 70
     1
102
RTVSPropertyOp60
 70
     1
102
RTVSPropertyOp61
 70
     1
102
RTVSPropertyOp62
 70
     1
  0
XRECORD
  5
2E75
102
{ACAD_REACTORS
330
2E74
102
}
330
2E74
100
AcDbXrecord
280
     1
102
RTVSPost2010Prop28
280
     0
102
RTVSPost2010PropOp28
 70
     1
102
RTVSPost2010Prop29
280
     1
102
RTVSPost2010PropOp29
 70
     1
102
RTVSPost2010Prop30
280
     1
102
RTVSPost2010PropOp30
 70
     1
102
RTVSPost2010Prop31
280
     0
102
RTVSPost2010PropOp31
 70
     1
102
RTVSPost2010Prop32
280
     0
102
RTVSPost2010PropOp32
 70
     1
102
RTVSPost2010Prop33
280
     0
102
RTVSPost2010PropOp33
 70
     1
102
RTVSPost2010Prop34
280
     0
102
RTVSPost2010PropOp34
 70
     1
102
RTVSPost2010Prop35
280
     0
102
RTVSPost2010PropOp35
 70
     1
102
RTVSPost2010Prop36
280
     0
102
RTVSPost2010PropOp36
 70
     1
102
RTVSPost2010Prop37
 90
       50
102
RTVSPost2010PropOp37
 70
     1
102
RTVSPost2010Prop38
140
0.0
102
RTVSPost2010PropOp38
 70
     1
102
RTVSPost2010Prop39
140
1.0
102
RTVSPost2010PropOp39
 70
     1
102
RTVSPost2010Prop40
 90
        0
102
RTVSPost2010PropOp40
 70
     1
102
RTVSPost2010Prop41ColorIndex
 90
       18
102
RTVSPost2010Prop41ColorRGB
 90
        0
102
RTVSPost2010PropOp41
 70
     1
102
RTVSPost2010Prop42
 90
       50
102
RTVSPost2010PropOp42
 70
     1
102
RTVSPost2010Prop43
 90
        3
102
RTVSPost2010PropOp43
 70
     1
102
RTVSPost2010Prop44ColorIndex
 90
        5
102
RTVSPost2010Prop44ColorRGB
 90
      255
102
RTVSPost2010PropOp44
 70
     1
102
RTVSPost2010Prop45
280
     0
102
RTVSPost2010PropOp45
 70
     1
102
RTVSPost2010Prop46
 90
       50
102
RTVSPost2010PropOp46
 70
     1
102
RTVSPost2010Prop47
 90
       50
102
RTVSPost2010PropOp47
 70
     1
102
RTVSPost2010Prop48
 90
       50
102
RTVSPost2010PropOp48
 70
     1
102
RTVSPost2010Prop49
280
     0
102
RTVSPost2010PropOp49
 70
     1
102
RTVSPost2010Prop50
 90
       50
102
RTVSPost2010PropOp50
 70
     1
102
RTVSPost2010Prop51ColorIndex
 90
      256
102
RTVSPost2010Prop51ColorRGB
 90
-16777216
102
RTVSPost2010PropOp51
 70
     0
102
RTVSPost2010Prop52
140
1.0
102
RTVSPost2010PropOp52
 70
     0
102
RTVSPost2010Prop53
 90
        2
102
RTVSPost2010PropOp53
 70
     1
102
RTVSPost2010Prop54
  1
strokes_ogs.tif
102
RTVSPost2010PropOp54
 70
     1
102
RTVSPost2010Prop55
280
     0
102
RTVSPost2010PropOp55
 70
     1
102
RTVSPost2010Prop56
140
1.0
102
RTVSPost2010PropOp56
 70
     1
102
RTVSPost2010Prop57
140
1.0
102
RTVSPost2010PropOp57
 70
     1
102
RTVSPropertyOp0
 70
     1
102
RTVSPropertyOp1
 70
     1
102
RTVSPropertyOp2
 70
     1
102
RTVSPropertyOp3
 70
     1
102
RTVSPropertyOp4
 70
     1
102
RTVSPropertyOp5
 70
     1
102
RTVSPropertyOp6
 70
     1
102
RTVSPropertyOp7
 70
     1
102
RTVSPropertyOp8
 70
     1
102
RTVSPropertyOp9
 70
     1
102
RTVSPropertyOp10
 70
     1
102
RTVSPropertyOp11
 70
     1
102
RTVSPropertyOp12
 70
     1
102
RTVSPropertyOp13
 70
     1
102
RTVSPropertyOp14
 70
     1
102
RTVSPropertyOp15
 70
     1
102
RTVSPropertyOp16
 70
     1
102
RTVSPropertyOp17
 70
     1
102
RTVSPropertyOp18
 70
     1
102
RTVSPropertyOp19
 70
     1
102
RTVSPropertyOp20
 70
     1
102
RTVSPropertyOp21
 70
     1
102
RTVSPropertyOp22
 70
     1
102
RTVSPropertyOp23
 70
     1
102
RTVSPropertyOp24
 70
     1
102
RTVSPropertyOp25
 70
     1
102
RTVSPropertyOp26
 70
     1
102
RTVSPropertyOp27
 70
     1
102
RTVSPropertyOp28
 70
     1
102
RTVSPropertyOp29
 70
     1
102
RTVSPropertyOp30
 70
     1
102
RTVSPropertyOp31
 70
     1
102
RTVSPropertyOp32
 70
     1
102
RTVSPropertyOp33
 70
     1
102
RTVSPropertyOp34
 70
     1
102
RTVSPropertyOp35
 70
     1
102
RTVSPropertyOp36
 70
     1
102
RTVSPropertyOp37
 70
     1
102
RTVSPropertyOp38
 70
     1
102
RTVSPropertyOp39
 70
     1
102
RTVSPropertyOp40
 70
     1
102
RTVSPropertyOp41
 70
     1
102
RTVSPropertyOp42
 70
     1
102
RTVSPropertyOp43
 70
     1
102
RTVSPropertyOp44
 70
     1
102
RTVSPropertyOp45
 70
     1
102
RTVSPropertyOp46
 70
     1
102
RTVSPropertyOp47
 70
     1
102
RTVSPropertyOp48
 70
     1
102
RTVSPropertyOp49
 70
     1
102
RTVSPropertyOp50
 70
     1
102
RTVSPropertyOp51
 70
     0
102
RTVSPropertyOp52
 70
     0
102
RTVSPropertyOp53
 70
     1
102
RTVSPropertyOp54
 70
     1
102
RTVSPropertyOp55
 70
     1
102
RTVSPropertyOp56
 70
     1
102
RTVSPropertyOp57
 70
     1
102
RTVSPropertyOp58
 70
     1
102
RTVSPropertyOp59
 70
     1
102
RTVSPropertyOp60
 70
     1
102
RTVSPropertyOp61
 70
     1
102
RTVSPropertyOp62
 70
     1
  0
XRECORD
  5
2E8F
102
{ACAD_REACTORS
330
2E8E
102
}
330
2E8E
100
AcDbXrecord
280
     1
102
RTVSPost2010Prop28
280
     0
102
RTVSPost2010PropOp28
 70
     1
102
RTVSPost2010Prop29
280
     1
102
RTVSPost2010PropOp29
 70
     1
102
RTVSPost2010Prop30
280
     1
102
RTVSPost2010PropOp30
 70
     1
102
RTVSPost2010Prop31
280
     0
102
RTVSPost2010PropOp31
 70
     1
102
RTVSPost2010Prop32
280
     0
102
RTVSPost2010PropOp32
 70
     1
102
RTVSPost2010Prop33
280
     0
102
RTVSPost2010PropOp33
 70
     1
102
RTVSPost2010Prop34
280
     0
102
RTVSPost2010PropOp34
 70
     1
102
RTVSPost2010Prop35
280
     0
102
RTVSPost2010PropOp35
 70
     1
102
RTVSPost2010Prop36
280
     0
102
RTVSPost2010PropOp36
 70
     1
102
RTVSPost2010Prop37
 90
       50
102
RTVSPost2010PropOp37
 70
     0
102
RTVSPost2010Prop38
140
0.0
102
RTVSPost2010PropOp38
 70
     0
102
RTVSPost2010Prop39
140
1.0
102
RTVSPost2010PropOp39
 70
     0
102
RTVSPost2010Prop40
 90
        0
102
RTVSPost2010PropOp40
 70
     0
102
RTVSPost2010Prop41ColorIndex
 90
       18
102
RTVSPost2010Prop41ColorRGB
 90
        0
102
RTVSPost2010PropOp41
 70
     0
102
RTVSPost2010Prop42
 90
       50
102
RTVSPost2010PropOp42
 70
     0
102
RTVSPost2010Prop43
 90
        3
102
RTVSPost2010PropOp43
 70
     0
102
RTVSPost2010Prop44ColorIndex
 90
        5
102
RTVSPost2010Prop44ColorRGB
 90
      255
102
RTVSPost2010PropOp44
 70
     0
102
RTVSPost2010Prop45
280
     0
102
RTVSPost2010PropOp45
 70
     1
102
RTVSPost2010Prop46
 90
       50
102
RTVSPost2010PropOp46
 70
     0
102
RTVSPost2010Prop47
 90
       50
102
RTVSPost2010PropOp47
 70
     0
102
RTVSPost2010Prop48
 90
       50
102
RTVSPost2010PropOp48
 70
     0
102
RTVSPost2010Prop49
280
     0
102
RTVSPost2010PropOp49
 70
     1
102
RTVSPost2010Prop50
 90
       50
102
RTVSPost2010PropOp50
 70
     0
102
RTVSPost2010Prop51ColorIndex
 90
      256
102
RTVSPost2010Prop51ColorRGB
 90
-16777216
102
RTVSPost2010PropOp51
 70
     0
102
RTVSPost2010Prop52
140
1.0
102
RTVSPost2010PropOp52
 70
     0
102
RTVSPost2010Prop53
 90
        2
102
RTVSPost2010PropOp53
 70
     0
102
RTVSPost2010Prop54
  1
strokes_ogs.tif
102
RTVSPost2010PropOp54
 70
     0
102
RTVSPost2010Prop55
280
     0
102
RTVSPost2010PropOp55
 70
     1
102
RTVSPost2010Prop56
140
1.0
102
RTVSPost2010PropOp56
 70
     0
102
RTVSPost2010Prop57
140
1.0
102
RTVSPost2010PropOp57
 70
     0
102
RTVSPropertyOp0
 70
     0
102
RTVSPropertyOp1
 70
     0
102
RTVSPropertyOp2
 70
     0
102
RTVSPropertyOp3
 70
     0
102
RTVSPropertyOp4
 70
     0
102
RTVSPropertyOp5
 70
     0
102
RTVSPropertyOp6
 70
     0
102
RTVSPropertyOp7
 70
     0
102
RTVSPropertyOp8
 70
     0
102
RTVSPropertyOp9
 70
     0
102
RTVSPropertyOp10
 70
     0
102
RTVSPropertyOp11
 70
     0
102
RTVSPropertyOp12
 70
     0
102
RTVSPropertyOp13
 70
     0
102
RTVSPropertyOp14
 70
     2
102
RTVSPropertyOp15
 70
     0
102
RTVSPropertyOp16
 70
     0
102
RTVSPropertyOp17
 70
     0
102
RTVSPropertyOp18
 70
     0
102
RTVSPropertyOp19
 70
     0
102
RTVSPropertyOp20
 70
     0
102
RTVSPropertyOp21
 70
     0
102
RTVSPropertyOp22
 70
     0
102
RTVSPropertyOp23
 70
     0
102
RTVSPropertyOp24
 70
     0
102
RTVSPropertyOp25
 70
     0
102
RTVSPropertyOp26
 70
     0
102
RTVSPropertyOp27
 70
     0
102
RTVSPropertyOp28
 70
     1
102
RTVSPropertyOp29
 70
     1
102
RTVSPropertyOp30
 70
     1
102
RTVSPropertyOp31
 70
     1
102
RTVSPropertyOp32
 70
     1
102
RTVSPropertyOp33
 70
     1
102
RTVSPropertyOp34
 70
     1
102
RTVSPropertyOp35
 70
     1
102
RTVSPropertyOp36
 70
     1
102
RTVSPropertyOp37
 70
     0
102
RTVSPropertyOp38
 70
     0
102
RTVSPropertyOp39
 70
     0
102
RTVSPropertyOp40
 70
     0
102
RTVSPropertyOp41
 70
     0
102
RTVSPropertyOp42
 70
     0
102
RTVSPropertyOp43
 70
     0
102
RTVSPropertyOp44
 70
     0
102
RTVSPropertyOp45
 70
     1
102
RTVSPropertyOp46
 70
     0
102
RTVSPropertyOp47
 70
     0
102
RTVSPropertyOp48
 70
     0
102
RTVSPropertyOp49
 70
     1
102
RTVSPropertyOp50
 70
     0
102
RTVSPropertyOp51
 70
     0
102
RTVSPropertyOp52
 70
     0
102
RTVSPropertyOp53
 70
     0
102
RTVSPropertyOp54
 70
     0
102
RTVSPropertyOp55
 70
     1
102
RTVSPropertyOp56
 70
     0
102
RTVSPropertyOp57
 70
     0
102
RTVSPropertyOp58
 70
     0
102
RTVSPropertyOp59
 70
     0
102
RTVSPropertyOp60
 70
     0
102
RTVSPropertyOp61
 70
     0
102
RTVSPropertyOp62
 70
     0
  0
XRECORD
  5
2E7D
102
{ACAD_REACTORS
330
2E7C
102
}
330
2E7C
100
AcDbXrecord
280
     1
102
RTVSPost2010Prop28
280
     0
102
RTVSPost2010PropOp28
 70
     1
102
RTVSPost2010Prop29
280
     1
102
RTVSPost2010PropOp29
 70
     1
102
RTVSPost2010Prop30
280
     1
102
RTVSPost2010PropOp30
 70
     1
102
RTVSPost2010Prop31
280
     0
102
RTVSPost2010PropOp31
 70
     1
102
RTVSPost2010Prop32
280
     0
102
RTVSPost2010PropOp32
 70
     1
102
RTVSPost2010Prop33
280
     0
102
RTVSPost2010PropOp33
 70
     1
102
RTVSPost2010Prop34
280
     0
102
RTVSPost2010PropOp34
 70
     1
102
RTVSPost2010Prop35
280
     0
102
RTVSPost2010PropOp35
 70
     1
102
RTVSPost2010Prop36
280
     0
102
RTVSPost2010PropOp36
 70
     1
102
RTVSPost2010Prop37
 90
       50
102
RTVSPost2010PropOp37
 70
     1
102
RTVSPost2010Prop38
140
0.0
102
RTVSPost2010PropOp38
 70
     1
102
RTVSPost2010Prop39
140
1.0
102
RTVSPost2010PropOp39
 70
     1
102
RTVSPost2010Prop40
 90
        0
102
RTVSPost2010PropOp40
 70
     1
102
RTVSPost2010Prop41ColorIndex
 90
       18
102
RTVSPost2010Prop41ColorRGB
 90
        0
102
RTVSPost2010PropOp41
 70
     1
102
RTVSPost2010Prop42
 90
       50
102
RTVSPost2010PropOp42
 70
     1
102
RTVSPost2010Prop43
 90
        3
102
RTVSPost2010PropOp43
 70
     1
102
RTVSPost2010Prop44ColorIndex
 90
        5
102
RTVSPost2010Prop44ColorRGB
 90
      255
102
RTVSPost2010PropOp44
 70
     1
102
RTVSPost2010Prop45
280
     0
102
RTVSPost2010PropOp45
 70
     1
102
RTVSPost2010Prop46
 90
       50
102
RTVSPost2010PropOp46
 70
     1
102
RTVSPost2010Prop47
 90
       50
102
RTVSPost2010PropOp47
 70
     1
102
RTVSPost2010Prop48
 90
       50
102
RTVSPost2010PropOp48
 70
     1
102
RTVSPost2010Prop49
280
     0
102
RTVSPost2010PropOp49
 70
     1
102
RTVSPost2010Prop50
 90
       50
102
RTVSPost2010PropOp50
 70
     1
102
RTVSPost2010Prop51ColorIndex
 90
      256
102
RTVSPost2010Prop51ColorRGB
 90
-16777216
102
RTVSPost2010PropOp51
 70
     0
102
RTVSPost2010Prop52
140
1.0
102
RTVSPost2010PropOp52
 70
     0
102
RTVSPost2010Prop53
 90
        2
102
RTVSPost2010PropOp53
 70
     1
102
RTVSPost2010Prop54
  1
strokes_ogs.tif
102
RTVSPost2010PropOp54
 70
     1
102
RTVSPost2010Prop55
280
     0
102
RTVSPost2010PropOp55
 70
     1
102
RTVSPost2010Prop56
140
1.0
102
RTVSPost2010PropOp56
 70
     1
102
RTVSPost2010Prop57
140
1.0
102
RTVSPost2010PropOp57
 70
     1
102
RTVSPropertyOp0
 70
     1
102
RTVSPropertyOp1
 70
     1
102
RTVSPropertyOp2
 70
     1
102
RTVSPropertyOp3
 70
     1
102
RTVSPropertyOp4
 70
     1
102
RTVSPropertyOp5
 70
     1
102
RTVSPropertyOp6
 70
     1
102
RTVSPropertyOp7
 70
     1
102
RTVSPropertyOp8
 70
     1
102
RTVSPropertyOp9
 70
     1
102
RTVSPropertyOp10
 70
     1
102
RTVSPropertyOp11
 70
     1
102
RTVSPropertyOp12
 70
     1
102
RTVSPropertyOp13
 70
     1
102
RTVSPropertyOp14
 70
     1
102
RTVSPropertyOp15
 70
     1
102
RTVSPropertyOp16
 70
     1
102
RTVSPropertyOp17
 70
     1
102
RTVSPropertyOp18
 70
     1
102
RTVSPropertyOp19
 70
     1
102
RTVSPropertyOp20
 70
     1
102
RTVSPropertyOp21
 70
     1
102
RTVSPropertyOp22
 70
     1
102
RTVSPropertyOp23
 70
     1
102
RTVSPropertyOp24
 70
     1
102
RTVSPropertyOp25
 70
     1
102
RTVSPropertyOp26
 70
     1
102
RTVSPropertyOp27
 70
     1
102
RTVSPropertyOp28
 70
     1
102
RTVSPropertyOp29
 70
     1
102
RTVSPropertyOp30
 70
     1
102
RTVSPropertyOp31
 70
     1
102
RTVSPropertyOp32
 70
     1
102
RTVSPropertyOp33
 70
     1
102
RTVSPropertyOp34
 70
     1
102
RTVSPropertyOp35
 70
     1
102
RTVSPropertyOp36
 70
     1
102
RTVSPropertyOp37
 70
     1
102
RTVSPropertyOp38
 70
     1
102
RTVSPropertyOp39
 70
     1
102
RTVSPropertyOp40
 70
     1
102
RTVSPropertyOp41
 70
     1
102
RTVSPropertyOp42
 70
     1
102
RTVSPropertyOp43
 70
     1
102
RTVSPropertyOp44
 70
     1
102
RTVSPropertyOp45
 70
     1
102
RTVSPropertyOp46
 70
     1
102
RTVSPropertyOp47
 70
     1
102
RTVSPropertyOp48
 70
     1
102
RTVSPropertyOp49
 70
     1
102
RTVSPropertyOp50
 70
     1
102
RTVSPropertyOp51
 70
     0
102
RTVSPropertyOp52
 70
     0
102
RTVSPropertyOp53
 70
     1
102
RTVSPropertyOp54
 70
     1
102
RTVSPropertyOp55
 70
     1
102
RTVSPropertyOp56
 70
     1
102
RTVSPropertyOp57
 70
     1
102
RTVSPropertyOp58
 70
     1
102
RTVSPropertyOp59
 70
     1
102
RTVSPropertyOp60
 70
     1
102
RTVSPropertyOp61
 70
     1
102
RTVSPropertyOp62
 70
     1
  0
XRECORD
  5
2E61
102
{ACAD_REACTORS
330
2E60
102
}
330
2E60
100
AcDbXrecord
280
     1
102
RTVSPost2010Prop28
280
     0
102
RTVSPost2010PropOp28
 70
     1
102
RTVSPost2010Prop29
280
     1
102
RTVSPost2010PropOp29
 70
     1
102
RTVSPost2010Prop30
280
     1
102
RTVSPost2010PropOp30
 70
     1
102
RTVSPost2010Prop31
280
     0
102
RTVSPost2010PropOp31
 70
     1
102
RTVSPost2010Prop32
280
     0
102
RTVSPost2010PropOp32
 70
     1
102
RTVSPost2010Prop33
280
     0
102
RTVSPost2010PropOp33
 70
     1
102
RTVSPost2010Prop34
280
     0
102
RTVSPost2010PropOp34
 70
     1
102
RTVSPost2010Prop35
280
     0
102
RTVSPost2010PropOp35
 70
     1
102
RTVSPost2010Prop36
280
     0
102
RTVSPost2010PropOp36
 70
     1
102
RTVSPost2010Prop37
 90
       50
102
RTVSPost2010PropOp37
 70
     1
102
RTVSPost2010Prop38
140
0.0
102
RTVSPost2010PropOp38
 70
     1
102
RTVSPost2010Prop39
140
1.0
102
RTVSPost2010PropOp39
 70
     1
102
RTVSPost2010Prop40
 90
        0
102
RTVSPost2010PropOp40
 70
     1
102
RTVSPost2010Prop41ColorIndex
 90
       18
102
RTVSPost2010Prop41ColorRGB
 90
        0
102
RTVSPost2010PropOp41
 70
     1
102
RTVSPost2010Prop42
 90
       50
102
RTVSPost2010PropOp42
 70
     1
102
RTVSPost2010Prop43
 90
        3
102
RTVSPost2010PropOp43
 70
     1
102
RTVSPost2010Prop44ColorIndex
 90
        5
102
RTVSPost2010Prop44ColorRGB
 90
      255
102
RTVSPost2010PropOp44
 70
     1
102
RTVSPost2010Prop45
280
     0
102
RTVSPost2010PropOp45
 70
     1
102
RTVSPost2010Prop46
 90
       50
102
RTVSPost2010PropOp46
 70
     1
102
RTVSPost2010Prop47
 90
       50
102
RTVSPost2010PropOp47
 70
     1
102
RTVSPost2010Prop48
 90
       50
102
RTVSPost2010PropOp48
 70
     1
102
RTVSPost2010Prop49
280
     0
102
RTVSPost2010PropOp49
 70
     1
102
RTVSPost2010Prop50
 90
       50
102
RTVSPost2010PropOp50
 70
     1
102
RTVSPost2010Prop51ColorIndex
 90
      256
102
RTVSPost2010Prop51ColorRGB
 90
-16777216
102
RTVSPost2010PropOp51
 70
     0
102
RTVSPost2010Prop52
140
1.0
102
RTVSPost2010PropOp52
 70
     0
102
RTVSPost2010Prop53
 90
        2
102
RTVSPost2010PropOp53
 70
     1
102
RTVSPost2010Prop54
  1
strokes_ogs.tif
102
RTVSPost2010PropOp54
 70
     1
102
RTVSPost2010Prop55
280
     0
102
RTVSPost2010PropOp55
 70
     1
102
RTVSPost2010Prop56
140
1.0
102
RTVSPost2010PropOp56
 70
     1
102
RTVSPost2010Prop57
140
1.0
102
RTVSPost2010PropOp57
 70
     1
102
RTVSPropertyOp0
 70
     1
102
RTVSPropertyOp1
 70
     1
102
RTVSPropertyOp2
 70
     1
102
RTVSPropertyOp3
 70
     1
102
RTVSPropertyOp4
 70
     1
102
RTVSPropertyOp5
 70
     1
102
RTVSPropertyOp6
 70
     1
102
RTVSPropertyOp7
 70
     1
102
RTVSPropertyOp8
 70
     1
102
RTVSPropertyOp9
 70
     1
102
RTVSPropertyOp10
 70
     1
102
RTVSPropertyOp11
 70
     1
102
RTVSPropertyOp12
 70
     1
102
RTVSPropertyOp13
 70
     1
102
RTVSPropertyOp14
 70
     1
102
RTVSPropertyOp15
 70
     1
102
RTVSPropertyOp16
 70
     1
102
RTVSPropertyOp17
 70
     1
102
RTVSPropertyOp18
 70
     1
102
RTVSPropertyOp19
 70
     1
102
RTVSPropertyOp20
 70
     1
102
RTVSPropertyOp21
 70
     1
102
RTVSPropertyOp22
 70
     1
102
RTVSPropertyOp23
 70
     1
102
RTVSPropertyOp24
 70
     1
102
RTVSPropertyOp25
 70
     1
102
RTVSPropertyOp26
 70
     1
102
RTVSPropertyOp27
 70
     1
102
RTVSPropertyOp28
 70
     1
102
RTVSPropertyOp29
 70
     1
102
RTVSPropertyOp30
 70
     1
102
RTVSPropertyOp31
 70
     1
102
RTVSPropertyOp32
 70
     1
102
RTVSPropertyOp33
 70
     1
102
RTVSPropertyOp34
 70
     1
102
RTVSPropertyOp35
 70
     1
102
RTVSPropertyOp36
 70
     1
102
RTVSPropertyOp37
 70
     1
102
RTVSPropertyOp38
 70
     1
102
RTVSPropertyOp39
 70
     1
102
RTVSPropertyOp40
 70
     1
102
RTVSPropertyOp41
 70
     1
102
RTVSPropertyOp42
 70
     1
102
RTVSPropertyOp43
 70
     1
102
RTVSPropertyOp44
 70
     1
102
RTVSPropertyOp45
 70
     1
102
RTVSPropertyOp46
 70
     1
102
RTVSPropertyOp47
 70
     1
102
RTVSPropertyOp48
 70
     1
102
RTVSPropertyOp49
 70
     1
102
RTVSPropertyOp50
 70
     1
102
RTVSPropertyOp51
 70
     0
102
RTVSPropertyOp52
 70
     0
102
RTVSPropertyOp53
 70
     1
102
RTVSPropertyOp54
 70
     1
102
RTVSPropertyOp55
 70
     1
102
RTVSPropertyOp56
 70
     1
102
RTVSPropertyOp57
 70
     1
102
RTVSPropertyOp58
 70
     1
102
RTVSPropertyOp59
 70
     1
102
RTVSPropertyOp60
 70
     1
102
RTVSPropertyOp61
 70
     1
102
RTVSPropertyOp62
 70
     1
  0
XRECORD
  5
2E63
102
{ACAD_REACTORS
330
2E62
102
}
330
2E62
100
AcDbXrecord
280
     1
102
RTVSPost2010Prop28
280
     0
102
RTVSPost2010PropOp28
 70
     1
102
RTVSPost2010Prop29
280
     1
102
RTVSPost2010PropOp29
 70
     1
102
RTVSPost2010Prop30
280
     1
102
RTVSPost2010PropOp30
 70
     1
102
RTVSPost2010Prop31
280
     0
102
RTVSPost2010PropOp31
 70
     1
102
RTVSPost2010Prop32
280
     0
102
RTVSPost2010PropOp32
 70
     1
102
RTVSPost2010Prop33
280
     0
102
RTVSPost2010PropOp33
 70
     1
102
RTVSPost2010Prop34
280
     0
102
RTVSPost2010PropOp34
 70
     1
102
RTVSPost2010Prop35
280
     0
102
RTVSPost2010PropOp35
 70
     1
102
RTVSPost2010Prop36
280
     0
102
RTVSPost2010PropOp36
 70
     1
102
RTVSPost2010Prop37
 90
       50
102
RTVSPost2010PropOp37
 70
     1
102
RTVSPost2010Prop38
140
0.0
102
RTVSPost2010PropOp38
 70
     1
102
RTVSPost2010Prop39
140
1.0
102
RTVSPost2010PropOp39
 70
     1
102
RTVSPost2010Prop40
 90
        0
102
RTVSPost2010PropOp40
 70
     1
102
RTVSPost2010Prop41ColorIndex
 90
       18
102
RTVSPost2010Prop41ColorRGB
 90
        0
102
RTVSPost2010PropOp41
 70
     1
102
RTVSPost2010Prop42
 90
       50
102
RTVSPost2010PropOp42
 70
     1
102
RTVSPost2010Prop43
 90
        3
102
RTVSPost2010PropOp43
 70
     1
102
RTVSPost2010Prop44ColorIndex
 90
        5
102
RTVSPost2010Prop44ColorRGB
 90
      255
102
RTVSPost2010PropOp44
 70
     1
102
RTVSPost2010Prop45
280
     0
102
RTVSPost2010PropOp45
 70
     1
102
RTVSPost2010Prop46
 90
       50
102
RTVSPost2010PropOp46
 70
     1
102
RTVSPost2010Prop47
 90
       50
102
RTVSPost2010PropOp47
 70
     1
102
RTVSPost2010Prop48
 90
       50
102
RTVSPost2010PropOp48
 70
     1
102
RTVSPost2010Prop49
280
     0
102
RTVSPost2010PropOp49
 70
     1
102
RTVSPost2010Prop50
 90
       50
102
RTVSPost2010PropOp50
 70
     1
102
RTVSPost2010Prop51ColorIndex
 90
      256
102
RTVSPost2010Prop51ColorRGB
 90
-16777216
102
RTVSPost2010PropOp51
 70
     0
102
RTVSPost2010Prop52
140
1.0
102
RTVSPost2010PropOp52
 70
     0
102
RTVSPost2010Prop53
 90
        2
102
RTVSPost2010PropOp53
 70
     1
102
RTVSPost2010Prop54
  1
strokes_ogs.tif
102
RTVSPost2010PropOp54
 70
     1
102
RTVSPost2010Prop55
280
     0
102
RTVSPost2010PropOp55
 70
     1
102
RTVSPost2010Prop56
140
1.0
102
RTVSPost2010PropOp56
 70
     1
102
RTVSPost2010Prop57
140
1.0
102
RTVSPost2010PropOp57
 70
     1
102
RTVSPropertyOp0
 70
     1
102
RTVSPropertyOp1
 70
     1
102
RTVSPropertyOp2
 70
     1
102
RTVSPropertyOp3
 70
     1
102
RTVSPropertyOp4
 70
     1
102
RTVSPropertyOp5
 70
     1
102
RTVSPropertyOp6
 70
     1
102
RTVSPropertyOp7
 70
     1
102
RTVSPropertyOp8
 70
     1
102
RTVSPropertyOp9
 70
     1
102
RTVSPropertyOp10
 70
     1
102
RTVSPropertyOp11
 70
     1
102
RTVSPropertyOp12
 70
     1
102
RTVSPropertyOp13
 70
     1
102
RTVSPropertyOp14
 70
     1
102
RTVSPropertyOp15
 70
     1
102
RTVSPropertyOp16
 70
     1
102
RTVSPropertyOp17
 70
     1
102
RTVSPropertyOp18
 70
     1
102
RTVSPropertyOp19
 70
     1
102
RTVSPropertyOp20
 70
     1
102
RTVSPropertyOp21
 70
     1
102
RTVSPropertyOp22
 70
     1
102
RTVSPropertyOp23
 70
     1
102
RTVSPropertyOp24
 70
     1
102
RTVSPropertyOp25
 70
     1
102
RTVSPropertyOp26
 70
     1
102
RTVSPropertyOp27
 70
     1
102
RTVSPropertyOp28
 70
     1
102
RTVSPropertyOp29
 70
     1
102
RTVSPropertyOp30
 70
     1
102
RTVSPropertyOp31
 70
     1
102
RTVSPropertyOp32
 70
     1
102
RTVSPropertyOp33
 70
     1
102
RTVSPropertyOp34
 70
     1
102
RTVSPropertyOp35
 70
     1
102
RTVSPropertyOp36
 70
     1
102
RTVSPropertyOp37
 70
     1
102
RTVSPropertyOp38
 70
     1
102
RTVSPropertyOp39
 70
     1
102
RTVSPropertyOp40
 70
     1
102
RTVSPropertyOp41
 70
     1
102
RTVSPropertyOp42
 70
     1
102
RTVSPropertyOp43
 70
     1
102
RTVSPropertyOp44
 70
     1
102
RTVSPropertyOp45
 70
     1
102
RTVSPropertyOp46
 70
     1
102
RTVSPropertyOp47
 70
     1
102
RTVSPropertyOp48
 70
     1
102
RTVSPropertyOp49
 70
     1
102
RTVSPropertyOp50
 70
     1
102
RTVSPropertyOp51
 70
     0
102
RTVSPropertyOp52
 70
     0
102
RTVSPropertyOp53
 70
     1
102
RTVSPropertyOp54
 70
     1
102
RTVSPropertyOp55
 70
     1
102
RTVSPropertyOp56
 70
     1
102
RTVSPropertyOp57
 70
     1
102
RTVSPropertyOp58
 70
     1
102
RTVSPropertyOp59
 70
     1
102
RTVSPropertyOp60
 70
     1
102
RTVSPropertyOp61
 70
     1
102
RTVSPropertyOp62
 70
     1
  0
XRECORD
  5
2E65
102
{ACAD_REACTORS
330
2E64
102
}
330
2E64
100
AcDbXrecord
280
     1
102
RTVSPost2010Prop28
280
     0
102
RTVSPost2010PropOp28
 70
     1
102
RTVSPost2010Prop29
280
     1
102
RTVSPost2010PropOp29
 70
     1
102
RTVSPost2010Prop30
280
     1
102
RTVSPost2010PropOp30
 70
     1
102
RTVSPost2010Prop31
280
     0
102
RTVSPost2010PropOp31
 70
     1
102
RTVSPost2010Prop32
280
     0
102
RTVSPost2010PropOp32
 70
     1
102
RTVSPost2010Prop33
280
     0
102
RTVSPost2010PropOp33
 70
     1
102
RTVSPost2010Prop34
280
     0
102
RTVSPost2010PropOp34
 70
     1
102
RTVSPost2010Prop35
280
     0
102
RTVSPost2010PropOp35
 70
     1
102
RTVSPost2010Prop36
280
     0
102
RTVSPost2010PropOp36
 70
     1
102
RTVSPost2010Prop37
 90
       50
102
RTVSPost2010PropOp37
 70
     1
102
RTVSPost2010Prop38
140
0.0
102
RTVSPost2010PropOp38
 70
     1
102
RTVSPost2010Prop39
140
1.0
102
RTVSPost2010PropOp39
 70
     1
102
RTVSPost2010Prop40
 90
        0
102
RTVSPost2010PropOp40
 70
     1
102
RTVSPost2010Prop41ColorIndex
 90
       18
102
RTVSPost2010Prop41ColorRGB
 90
        0
102
RTVSPost2010PropOp41
 70
     1
102
RTVSPost2010Prop42
 90
       50
102
RTVSPost2010PropOp42
 70
     1
102
RTVSPost2010Prop43
 90
        3
102
RTVSPost2010PropOp43
 70
     1
102
RTVSPost2010Prop44ColorIndex
 90
        5
102
RTVSPost2010Prop44ColorRGB
 90
      255
102
RTVSPost2010PropOp44
 70
     1
102
RTVSPost2010Prop45
280
     0
102
RTVSPost2010PropOp45
 70
     1
102
RTVSPost2010Prop46
 90
       50
102
RTVSPost2010PropOp46
 70
     1
102
RTVSPost2010Prop47
 90
       50
102
RTVSPost2010PropOp47
 70
     1
102
RTVSPost2010Prop48
 90
       50
102
RTVSPost2010PropOp48
 70
     1
102
RTVSPost2010Prop49
280
     0
102
RTVSPost2010PropOp49
 70
     1
102
RTVSPost2010Prop50
 90
       50
102
RTVSPost2010PropOp50
 70
     1
102
RTVSPost2010Prop51ColorIndex
 90
      256
102
RTVSPost2010Prop51ColorRGB
 90
-16777216
102
RTVSPost2010PropOp51
 70
     0
102
RTVSPost2010Prop52
140
1.0
102
RTVSPost2010PropOp52
 70
     0
102
RTVSPost2010Prop53
 90
        2
102
RTVSPost2010PropOp53
 70
     1
102
RTVSPost2010Prop54
  1
strokes_ogs.tif
102
RTVSPost2010PropOp54
 70
     1
102
RTVSPost2010Prop55
280
     0
102
RTVSPost2010PropOp55
 70
     1
102
RTVSPost2010Prop56
140
1.0
102
RTVSPost2010PropOp56
 70
     1
102
RTVSPost2010Prop57
140
1.0
102
RTVSPost2010PropOp57
 70
     1
102
RTVSPropertyOp0
 70
     1
102
RTVSPropertyOp1
 70
     1
102
RTVSPropertyOp2
 70
     1
102
RTVSPropertyOp3
 70
     1
102
RTVSPropertyOp4
 70
     1
102
RTVSPropertyOp5
 70
     1
102
RTVSPropertyOp6
 70
     1
102
RTVSPropertyOp7
 70
     1
102
RTVSPropertyOp8
 70
     1
102
RTVSPropertyOp9
 70
     1
102
RTVSPropertyOp10
 70
     1
102
RTVSPropertyOp11
 70
     1
102
RTVSPropertyOp12
 70
     1
102
RTVSPropertyOp13
 70
     1
102
RTVSPropertyOp14
 70
     1
102
RTVSPropertyOp15
 70
     1
102
RTVSPropertyOp16
 70
     1
102
RTVSPropertyOp17
 70
     1
102
RTVSPropertyOp18
 70
     1
102
RTVSPropertyOp19
 70
     1
102
RTVSPropertyOp20
 70
     1
102
RTVSPropertyOp21
 70
     1
102
RTVSPropertyOp22
 70
     1
102
RTVSPropertyOp23
 70
     1
102
RTVSPropertyOp24
 70
     1
102
RTVSPropertyOp25
 70
     1
102
RTVSPropertyOp26
 70
     1
102
RTVSPropertyOp27
 70
     1
102
RTVSPropertyOp28
 70
     1
102
RTVSPropertyOp29
 70
     1
102
RTVSPropertyOp30
 70
     1
102
RTVSPropertyOp31
 70
     1
102
RTVSPropertyOp32
 70
     1
102
RTVSPropertyOp33
 70
     1
102
RTVSPropertyOp34
 70
     1
102
RTVSPropertyOp35
 70
     1
102
RTVSPropertyOp36
 70
     1
102
RTVSPropertyOp37
 70
     1
102
RTVSPropertyOp38
 70
     1
102
RTVSPropertyOp39
 70
     1
102
RTVSPropertyOp40
 70
     1
102
RTVSPropertyOp41
 70
     1
102
RTVSPropertyOp42
 70
     1
102
RTVSPropertyOp43
 70
     1
102
RTVSPropertyOp44
 70
     1
102
RTVSPropertyOp45
 70
     1
102
RTVSPropertyOp46
 70
     1
102
RTVSPropertyOp47
 70
     1
102
RTVSPropertyOp48
 70
     1
102
RTVSPropertyOp49
 70
     1
102
RTVSPropertyOp50
 70
     1
102
RTVSPropertyOp51
 70
     0
102
RTVSPropertyOp52
 70
     0
102
RTVSPropertyOp53
 70
     1
102
RTVSPropertyOp54
 70
     1
102
RTVSPropertyOp55
 70
     1
102
RTVSPropertyOp56
 70
     1
102
RTVSPropertyOp57
 70
     1
102
RTVSPropertyOp58
 70
     1
102
RTVSPropertyOp59
 70
     1
102
RTVSPropertyOp60
 70
     1
102
RTVSPropertyOp61
 70
     1
102
RTVSPropertyOp62
 70
     1
  0
XRECORD
  5
2E67
102
{ACAD_REACTORS
330
2E66
102
}
330
2E66
100
AcDbXrecord
280
     1
102
RTVSPost2010Prop28
280
     0
102
RTVSPost2010PropOp28
 70
     1
102
RTVSPost2010Prop29
280
     1
102
RTVSPost2010PropOp29
 70
     1
102
RTVSPost2010Prop30
280
     1
102
RTVSPost2010PropOp30
 70
     1
102
RTVSPost2010Prop31
280
     0
102
RTVSPost2010PropOp31
 70
     1
102
RTVSPost2010Prop32
280
     0
102
RTVSPost2010PropOp32
 70
     1
102
RTVSPost2010Prop33
280
     0
102
RTVSPost2010PropOp33
 70
     1
102
RTVSPost2010Prop34
280
     0
102
RTVSPost2010PropOp34
 70
     1
102
RTVSPost2010Prop35
280
     0
102
RTVSPost2010PropOp35
 70
     1
102
RTVSPost2010Prop36
280
     0
102
RTVSPost2010PropOp36
 70
     1
102
RTVSPost2010Prop37
 90
       50
102
RTVSPost2010PropOp37
 70
     1
102
RTVSPost2010Prop38
140
0.0
102
RTVSPost2010PropOp38
 70
     1
102
RTVSPost2010Prop39
140
1.0
102
RTVSPost2010PropOp39
 70
     1
102
RTVSPost2010Prop40
 90
        0
102
RTVSPost2010PropOp40
 70
     1
102
RTVSPost2010Prop41ColorIndex
 90
       18
102
RTVSPost2010Prop41ColorRGB
 90
        0
102
RTVSPost2010PropOp41
 70
     1
102
RTVSPost2010Prop42
 90
       50
102
RTVSPost2010PropOp42
 70
     1
102
RTVSPost2010Prop43
 90
        3
102
RTVSPost2010PropOp43
 70
     1
102
RTVSPost2010Prop44ColorIndex
 90
        5
102
RTVSPost2010Prop44ColorRGB
 90
      255
102
RTVSPost2010PropOp44
 70
     1
102
RTVSPost2010Prop45
280
     0
102
RTVSPost2010PropOp45
 70
     1
102
RTVSPost2010Prop46
 90
       50
102
RTVSPost2010PropOp46
 70
     1
102
RTVSPost2010Prop47
 90
       50
102
RTVSPost2010PropOp47
 70
     1
102
RTVSPost2010Prop48
 90
       50
102
RTVSPost2010PropOp48
 70
     1
102
RTVSPost2010Prop49
280
     0
102
RTVSPost2010PropOp49
 70
     1
102
RTVSPost2010Prop50
 90
       50
102
RTVSPost2010PropOp50
 70
     1
102
RTVSPost2010Prop51ColorIndex
 90
      256
102
RTVSPost2010Prop51ColorRGB
 90
-16777216
102
RTVSPost2010PropOp51
 70
     0
102
RTVSPost2010Prop52
140
1.0
102
RTVSPost2010PropOp52
 70
     0
102
RTVSPost2010Prop53
 90
        2
102
RTVSPost2010PropOp53
 70
     1
102
RTVSPost2010Prop54
  1
strokes_ogs.tif
102
RTVSPost2010PropOp54
 70
     1
102
RTVSPost2010Prop55
280
     0
102
RTVSPost2010PropOp55
 70
     1
102
RTVSPost2010Prop56
140
1.0
102
RTVSPost2010PropOp56
 70
     1
102
RTVSPost2010Prop57
140
1.0
102
RTVSPost2010PropOp57
 70
     1
102
RTVSPropertyOp0
 70
     1
102
RTVSPropertyOp1
 70
     1
102
RTVSPropertyOp2
 70
     1
102
RTVSPropertyOp3
 70
     1
102
RTVSPropertyOp4
 70
     1
102
RTVSPropertyOp5
 70
     1
102
RTVSPropertyOp6
 70
     1
102
RTVSPropertyOp7
 70
     1
102
RTVSPropertyOp8
 70
     1
102
RTVSPropertyOp9
 70
     1
102
RTVSPropertyOp10
 70
     1
102
RTVSPropertyOp11
 70
     1
102
RTVSPropertyOp12
 70
     1
102
RTVSPropertyOp13
 70
     1
102
RTVSPropertyOp14
 70
     1
102
RTVSPropertyOp15
 70
     1
102
RTVSPropertyOp16
 70
     1
102
RTVSPropertyOp17
 70
     1
102
RTVSPropertyOp18
 70
     1
102
RTVSPropertyOp19
 70
     1
102
RTVSPropertyOp20
 70
     1
102
RTVSPropertyOp21
 70
     1
102
RTVSPropertyOp22
 70
     1
102
RTVSPropertyOp23
 70
     1
102
RTVSPropertyOp24
 70
     1
102
RTVSPropertyOp25
 70
     1
102
RTVSPropertyOp26
 70
     1
102
RTVSPropertyOp27
 70
     1
102
RTVSPropertyOp28
 70
     1
102
RTVSPropertyOp29
 70
     1
102
RTVSPropertyOp30
 70
     1
102
RTVSPropertyOp31
 70
     1
102
RTVSPropertyOp32
 70
     1
102
RTVSPropertyOp33
 70
     1
102
RTVSPropertyOp34
 70
     1
102
RTVSPropertyOp35
 70
     1
102
RTVSPropertyOp36
 70
     1
102
RTVSPropertyOp37
 70
     1
102
RTVSPropertyOp38
 70
     1
102
RTVSPropertyOp39
 70
     1
102
RTVSPropertyOp40
 70
     1
102
RTVSPropertyOp41
 70
     1
102
RTVSPropertyOp42
 70
     1
102
RTVSPropertyOp43
 70
     1
102
RTVSPropertyOp44
 70
     1
102
RTVSPropertyOp45
 70
     1
102
RTVSPropertyOp46
 70
     1
102
RTVSPropertyOp47
 70
     1
102
RTVSPropertyOp48
 70
     1
102
RTVSPropertyOp49
 70
     1
102
RTVSPropertyOp50
 70
     1
102
RTVSPropertyOp51
 70
     0
102
RTVSPropertyOp52
 70
     0
102
RTVSPropertyOp53
 70
     1
102
RTVSPropertyOp54
 70
     1
102
RTVSPropertyOp55
 70
     1
102
RTVSPropertyOp56
 70
     1
102
RTVSPropertyOp57
 70
     1
102
RTVSPropertyOp58
 70
     1
102
RTVSPropertyOp59
 70
     1
102
RTVSPropertyOp60
 70
     1
102
RTVSPropertyOp61
 70
     1
102
RTVSPropertyOp62
 70
     1
  0
XRECORD
  5
2E6F
102
{ACAD_REACTORS
330
2E6E
102
}
330
2E6E
100
AcDbXrecord
280
     1
102
RTVSPost2010Prop28
280
     0
102
RTVSPost2010PropOp28
 70
     1
102
RTVSPost2010Prop29
280
     1
102
RTVSPost2010PropOp29
 70
     1
102
RTVSPost2010Prop30
280
     1
102
RTVSPost2010PropOp30
 70
     1
102
RTVSPost2010Prop31
280
     0
102
RTVSPost2010PropOp31
 70
     1
102
RTVSPost2010Prop32
280
     0
102
RTVSPost2010PropOp32
 70
     1
102
RTVSPost2010Prop33
280
     0
102
RTVSPost2010PropOp33
 70
     1
102
RTVSPost2010Prop34
280
     0
102
RTVSPost2010PropOp34
 70
     1
102
RTVSPost2010Prop35
280
     0
102
RTVSPost2010PropOp35
 70
     1
102
RTVSPost2010Prop36
280
     0
102
RTVSPost2010PropOp36
 70
     1
102
RTVSPost2010Prop37
 90
       50
102
RTVSPost2010PropOp37
 70
     1
102
RTVSPost2010Prop38
140
0.0
102
RTVSPost2010PropOp38
 70
     1
102
RTVSPost2010Prop39
140
1.0
102
RTVSPost2010PropOp39
 70
     1
102
RTVSPost2010Prop40
 90
        0
102
RTVSPost2010PropOp40
 70
     1
102
RTVSPost2010Prop41ColorIndex
 90
       18
102
RTVSPost2010Prop41ColorRGB
 90
        0
102
RTVSPost2010PropOp41
 70
     1
102
RTVSPost2010Prop42
 90
       50
102
RTVSPost2010PropOp42
 70
     1
102
RTVSPost2010Prop43
 90
        3
102
RTVSPost2010PropOp43
 70
     1
102
RTVSPost2010Prop44ColorIndex
 90
        5
102
RTVSPost2010Prop44ColorRGB
 90
      255
102
RTVSPost2010PropOp44
 70
     1
102
RTVSPost2010Prop45
280
     0
102
RTVSPost2010PropOp45
 70
     1
102
RTVSPost2010Prop46
 90
       50
102
RTVSPost2010PropOp46
 70
     1
102
RTVSPost2010Prop47
 90
       50
102
RTVSPost2010PropOp47
 70
     1
102
RTVSPost2010Prop48
 90
       50
102
RTVSPost2010PropOp48
 70
     1
102
RTVSPost2010Prop49
280
     0
102
RTVSPost2010PropOp49
 70
     1
102
RTVSPost2010Prop50
 90
       50
102
RTVSPost2010PropOp50
 70
     1
102
RTVSPost2010Prop51ColorIndex
 90
      256
102
RTVSPost2010Prop51ColorRGB
 90
-16777216
102
RTVSPost2010PropOp51
 70
     0
102
RTVSPost2010Prop52
140
1.0
102
RTVSPost2010PropOp52
 70
     0
102
RTVSPost2010Prop53
 90
        2
102
RTVSPost2010PropOp53
 70
     1
102
RTVSPost2010Prop54
  1
strokes_ogs.tif
102
RTVSPost2010PropOp54
 70
     1
102
RTVSPost2010Prop55
280
     0
102
RTVSPost2010PropOp55
 70
     1
102
RTVSPost2010Prop56
140
1.0
102
RTVSPost2010PropOp56
 70
     1
102
RTVSPost2010Prop57
140
1.0
102
RTVSPost2010PropOp57
 70
     1
102
RTVSPropertyOp0
 70
     1
102
RTVSPropertyOp1
 70
     1
102
RTVSPropertyOp2
 70
     1
102
RTVSPropertyOp3
 70
     1
102
RTVSPropertyOp4
 70
     1
102
RTVSPropertyOp5
 70
     1
102
RTVSPropertyOp6
 70
     1
102
RTVSPropertyOp7
 70
     1
102
RTVSPropertyOp8
 70
     1
102
RTVSPropertyOp9
 70
     1
102
RTVSPropertyOp10
 70
     1
102
RTVSPropertyOp11
 70
     1
102
RTVSPropertyOp12
 70
     1
102
RTVSPropertyOp13
 70
     1
102
RTVSPropertyOp14
 70
     1
102
RTVSPropertyOp15
 70
     1
102
RTVSPropertyOp16
 70
     1
102
RTVSPropertyOp17
 70
     1
102
RTVSPropertyOp18
 70
     1
102
RTVSPropertyOp19
 70
     1
102
RTVSPropertyOp20
 70
     1
102
RTVSPropertyOp21
 70
     1
102
RTVSPropertyOp22
 70
     1
102
RTVSPropertyOp23
 70
     1
102
RTVSPropertyOp24
 70
     1
102
RTVSPropertyOp25
 70
     1
102
RTVSPropertyOp26
 70
     1
102
RTVSPropertyOp27
 70
     1
102
RTVSPropertyOp28
 70
     1
102
RTVSPropertyOp29
 70
     1
102
RTVSPropertyOp30
 70
     1
102
RTVSPropertyOp31
 70
     1
102
RTVSPropertyOp32
 70
     1
102
RTVSPropertyOp33
 70
     1
102
RTVSPropertyOp34
 70
     1
102
RTVSPropertyOp35
 70
     1
102
RTVSPropertyOp36
 70
     1
102
RTVSPropertyOp37
 70
     1
102
RTVSPropertyOp38
 70
     1
102
RTVSPropertyOp39
 70
     1
102
RTVSPropertyOp40
 70
     1
102
RTVSPropertyOp41
 70
     1
102
RTVSPropertyOp42
 70
     1
102
RTVSPropertyOp43
 70
     1
102
RTVSPropertyOp44
 70
     1
102
RTVSPropertyOp45
 70
     1
102
RTVSPropertyOp46
 70
     1
102
RTVSPropertyOp47
 70
     1
102
RTVSPropertyOp48
 70
     1
102
RTVSPropertyOp49
 70
     1
102
RTVSPropertyOp50
 70
     1
102
RTVSPropertyOp51
 70
     0
102
RTVSPropertyOp52
 70
     0
102
RTVSPropertyOp53
 70
     1
102
RTVSPropertyOp54
 70
     1
102
RTVSPropertyOp55
 70
     1
102
RTVSPropertyOp56
 70
     1
102
RTVSPropertyOp57
 70
     1
102
RTVSPropertyOp58
 70
     1
102
RTVSPropertyOp59
 70
     1
102
RTVSPropertyOp60
 70
     1
102
RTVSPropertyOp61
 70
     1
102
RTVSPropertyOp62
 70
     1
  0
XRECORD
  5
2E8B
102
{ACAD_REACTORS
330
2E8A
102
}
330
2E8A
100
AcDbXrecord
280
     1
102
RTVSPost2010Prop28
280
     0
102
RTVSPost2010PropOp28
 70
     1
102
RTVSPost2010Prop29
280
     1
102
RTVSPost2010PropOp29
 70
     1
102
RTVSPost2010Prop30
280
     1
102
RTVSPost2010PropOp30
 70
     1
102
RTVSPost2010Prop31
280
     0
102
RTVSPost2010PropOp31
 70
     1
102
RTVSPost2010Prop32
280
     0
102
RTVSPost2010PropOp32
 70
     1
102
RTVSPost2010Prop33
280
     0
102
RTVSPost2010PropOp33
 70
     1
102
RTVSPost2010Prop34
280
     0
102
RTVSPost2010PropOp34
 70
     1
102
RTVSPost2010Prop35
280
     0
102
RTVSPost2010PropOp35
 70
     1
102
RTVSPost2010Prop36
280
     0
102
RTVSPost2010PropOp36
 70
     1
102
RTVSPost2010Prop37
 90
       50
102
RTVSPost2010PropOp37
 70
     0
102
RTVSPost2010Prop38
140
0.0
102
RTVSPost2010PropOp38
 70
     0
102
RTVSPost2010Prop39
140
1.0
102
RTVSPost2010PropOp39
 70
     0
102
RTVSPost2010Prop40
 90
        0
102
RTVSPost2010PropOp40
 70
     0
102
RTVSPost2010Prop41ColorIndex
 90
       18
102
RTVSPost2010Prop41ColorRGB
 90
        0
102
RTVSPost2010PropOp41
 70
     0
102
RTVSPost2010Prop42
 90
       50
102
RTVSPost2010PropOp42
 70
     0
102
RTVSPost2010Prop43
 90
        3
102
RTVSPost2010PropOp43
 70
     0
102
RTVSPost2010Prop44ColorIndex
 90
        5
102
RTVSPost2010Prop44ColorRGB
 90
      255
102
RTVSPost2010PropOp44
 70
     0
102
RTVSPost2010Prop45
280
     0
102
RTVSPost2010PropOp45
 70
     1
102
RTVSPost2010Prop46
 90
       50
102
RTVSPost2010PropOp46
 70
     0
102
RTVSPost2010Prop47
 90
       50
102
RTVSPost2010PropOp47
 70
     0
102
RTVSPost2010Prop48
 90
       50
102
RTVSPost2010PropOp48
 70
     0
102
RTVSPost2010Prop49
280
     0
102
RTVSPost2010PropOp49
 70
     1
102
RTVSPost2010Prop50
 90
       50
102
RTVSPost2010PropOp50
 70
     0
102
RTVSPost2010Prop51ColorIndex
 90
      256
102
RTVSPost2010Prop51ColorRGB
 90
-16777216
102
RTVSPost2010PropOp51
 70
     0
102
RTVSPost2010Prop52
140
1.0
102
RTVSPost2010PropOp52
 70
     0
102
RTVSPost2010Prop53
 90
        2
102
RTVSPost2010PropOp53
 70
     0
102
RTVSPost2010Prop54
  1
strokes_ogs.tif
102
RTVSPost2010PropOp54
 70
     0
102
RTVSPost2010Prop55
280
     0
102
RTVSPost2010PropOp55
 70
     1
102
RTVSPost2010Prop56
140
1.0
102
RTVSPost2010PropOp56
 70
     0
102
RTVSPost2010Prop57
140
1.0
102
RTVSPost2010PropOp57
 70
     0
102
RTVSPropertyOp0
 70
     0
102
RTVSPropertyOp1
 70
     0
102
RTVSPropertyOp2
 70
     0
102
RTVSPropertyOp3
 70
     0
102
RTVSPropertyOp4
 70
     0
102
RTVSPropertyOp5
 70
     0
102
RTVSPropertyOp6
 70
     0
102
RTVSPropertyOp7
 70
     0
102
RTVSPropertyOp8
 70
     0
102
RTVSPropertyOp9
 70
     0
102
RTVSPropertyOp10
 70
     0
102
RTVSPropertyOp11
 70
     0
102
RTVSPropertyOp12
 70
     0
102
RTVSPropertyOp13
 70
     0
102
RTVSPropertyOp14
 70
     2
102
RTVSPropertyOp15
 70
     0
102
RTVSPropertyOp16
 70
     0
102
RTVSPropertyOp17
 70
     0
102
RTVSPropertyOp18
 70
     0
102
RTVSPropertyOp19
 70
     0
102
RTVSPropertyOp20
 70
     0
102
RTVSPropertyOp21
 70
     0
102
RTVSPropertyOp22
 70
     0
102
RTVSPropertyOp23
 70
     0
102
RTVSPropertyOp24
 70
     0
102
RTVSPropertyOp25
 70
     0
102
RTVSPropertyOp26
 70
     0
102
RTVSPropertyOp27
 70
     0
102
RTVSPropertyOp28
 70
     1
102
RTVSPropertyOp29
 70
     1
102
RTVSPropertyOp30
 70
     1
102
RTVSPropertyOp31
 70
     1
102
RTVSPropertyOp32
 70
     1
102
RTVSPropertyOp33
 70
     1
102
RTVSPropertyOp34
 70
     1
102
RTVSPropertyOp35
 70
     1
102
RTVSPropertyOp36
 70
     1
102
RTVSPropertyOp37
 70
     0
102
RTVSPropertyOp38
 70
     0
102
RTVSPropertyOp39
 70
     0
102
RTVSPropertyOp40
 70
     0
102
RTVSPropertyOp41
 70
     0
102
RTVSPropertyOp42
 70
     0
102
RTVSPropertyOp43
 70
     0
102
RTVSPropertyOp44
 70
     0
102
RTVSPropertyOp45
 70
     1
102
RTVSPropertyOp46
 70
     0
102
RTVSPropertyOp47
 70
     0
102
RTVSPropertyOp48
 70
     0
102
RTVSPropertyOp49
 70
     1
102
RTVSPropertyOp50
 70
     0
102
RTVSPropertyOp51
 70
     0
102
RTVSPropertyOp52
 70
     0
102
RTVSPropertyOp53
 70
     0
102
RTVSPropertyOp54
 70
     0
102
RTVSPropertyOp55
 70
     1
102
RTVSPropertyOp56
 70
     0
102
RTVSPropertyOp57
 70
     0
102
RTVSPropertyOp58
 70
     0
102
RTVSPropertyOp59
 70
     0
102
RTVSPropertyOp60
 70
     0
102
RTVSPropertyOp61
 70
     0
102
RTVSPropertyOp62
 70
     0
  0
XRECORD
  5
2E7B
102
{ACAD_REACTORS
330
2E7A
102
}
330
2E7A
100
AcDbXrecord
280
     1
102
RTVSPost2010Prop28
280
     0
102
RTVSPost2010PropOp28
 70
     1
102
RTVSPost2010Prop29
280
     1
102
RTVSPost2010PropOp29
 70
     1
102
RTVSPost2010Prop30
280
     1
102
RTVSPost2010PropOp30
 70
     1
102
RTVSPost2010Prop31
280
     0
102
RTVSPost2010PropOp31
 70
     1
102
RTVSPost2010Prop32
280
     0
102
RTVSPost2010PropOp32
 70
     1
102
RTVSPost2010Prop33
280
     0
102
RTVSPost2010PropOp33
 70
     1
102
RTVSPost2010Prop34
280
     0
102
RTVSPost2010PropOp34
 70
     1
102
RTVSPost2010Prop35
280
     0
102
RTVSPost2010PropOp35
 70
     1
102
RTVSPost2010Prop36
280
     0
102
RTVSPost2010PropOp36
 70
     1
102
RTVSPost2010Prop37
 90
       50
102
RTVSPost2010PropOp37
 70
     1
102
RTVSPost2010Prop38
140
0.0
102
RTVSPost2010PropOp38
 70
     1
102
RTVSPost2010Prop39
140
1.0
102
RTVSPost2010PropOp39
 70
     1
102
RTVSPost2010Prop40
 90
        0
102
RTVSPost2010PropOp40
 70
     1
102
RTVSPost2010Prop41ColorIndex
 90
       18
102
RTVSPost2010Prop41ColorRGB
 90
        0
102
RTVSPost2010PropOp41
 70
     1
102
RTVSPost2010Prop42
 90
       50
102
RTVSPost2010PropOp42
 70
     1
102
RTVSPost2010Prop43
 90
        3
102
RTVSPost2010PropOp43
 70
     1
102
RTVSPost2010Prop44ColorIndex
 90
        5
102
RTVSPost2010Prop44ColorRGB
 90
      255
102
RTVSPost2010PropOp44
 70
     1
102
RTVSPost2010Prop45
280
     0
102
RTVSPost2010PropOp45
 70
     1
102
RTVSPost2010Prop46
 90
       50
102
RTVSPost2010PropOp46
 70
     1
102
RTVSPost2010Prop47
 90
       50
102
RTVSPost2010PropOp47
 70
     1
102
RTVSPost2010Prop48
 90
       50
102
RTVSPost2010PropOp48
 70
     1
102
RTVSPost2010Prop49
280
     0
102
RTVSPost2010PropOp49
 70
     1
102
RTVSPost2010Prop50
 90
       50
102
RTVSPost2010PropOp50
 70
     1
102
RTVSPost2010Prop51ColorIndex
 90
      256
102
RTVSPost2010Prop51ColorRGB
 90
-16777216
102
RTVSPost2010PropOp51
 70
     0
102
RTVSPost2010Prop52
140
1.0
102
RTVSPost2010PropOp52
 70
     0
102
RTVSPost2010Prop53
 90
        2
102
RTVSPost2010PropOp53
 70
     1
102
RTVSPost2010Prop54
  1
strokes_ogs.tif
102
RTVSPost2010PropOp54
 70
     1
102
RTVSPost2010Prop55
280
     0
102
RTVSPost2010PropOp55
 70
     1
102
RTVSPost2010Prop56
140
1.0
102
RTVSPost2010PropOp56
 70
     1
102
RTVSPost2010Prop57
140
1.0
102
RTVSPost2010PropOp57
 70
     1
102
RTVSPropertyOp0
 70
     1
102
RTVSPropertyOp1
 70
     1
102
RTVSPropertyOp2
 70
     1
102
RTVSPropertyOp3
 70
     1
102
RTVSPropertyOp4
 70
     1
102
RTVSPropertyOp5
 70
     1
102
RTVSPropertyOp6
 70
     1
102
RTVSPropertyOp7
 70
     1
102
RTVSPropertyOp8
 70
     1
102
RTVSPropertyOp9
 70
     1
102
RTVSPropertyOp10
 70
     1
102
RTVSPropertyOp11
 70
     1
102
RTVSPropertyOp12
 70
     1
102
RTVSPropertyOp13
 70
     1
102
RTVSPropertyOp14
 70
     1
102
RTVSPropertyOp15
 70
     1
102
RTVSPropertyOp16
 70
     1
102
RTVSPropertyOp17
 70
     1
102
RTVSPropertyOp18
 70
     1
102
RTVSPropertyOp19
 70
     1
102
RTVSPropertyOp20
 70
     1
102
RTVSPropertyOp21
 70
     1
102
RTVSPropertyOp22
 70
     1
102
RTVSPropertyOp23
 70
     1
102
RTVSPropertyOp24
 70
     1
102
RTVSPropertyOp25
 70
     1
102
RTVSPropertyOp26
 70
     1
102
RTVSPropertyOp27
 70
     1
102
RTVSPropertyOp28
 70
     1
102
RTVSPropertyOp29
 70
     1
102
RTVSPropertyOp30
 70
     1
102
RTVSPropertyOp31
 70
     1
102
RTVSPropertyOp32
 70
     1
102
RTVSPropertyOp33
 70
     1
102
RTVSPropertyOp34
 70
     1
102
RTVSPropertyOp35
 70
     1
102
RTVSPropertyOp36
 70
     1
102
RTVSPropertyOp37
 70
     1
102
RTVSPropertyOp38
 70
     1
102
RTVSPropertyOp39
 70
     1
102
RTVSPropertyOp40
 70
     1
102
RTVSPropertyOp41
 70
     1
102
RTVSPropertyOp42
 70
     1
102
RTVSPropertyOp43
 70
     1
102
RTVSPropertyOp44
 70
     1
102
RTVSPropertyOp45
 70
     1
102
RTVSPropertyOp46
 70
     1
102
RTVSPropertyOp47
 70
     1
102
RTVSPropertyOp48
 70
     1
102
RTVSPropertyOp49
 70
     1
102
RTVSPropertyOp50
 70
     1
102
RTVSPropertyOp51
 70
     0
102
RTVSPropertyOp52
 70
     0
102
RTVSPropertyOp53
 70
     1
102
RTVSPropertyOp54
 70
     1
102
RTVSPropertyOp55
 70
     1
102
RTVSPropertyOp56
 70
     1
102
RTVSPropertyOp57
 70
     1
102
RTVSPropertyOp58
 70
     1
102
RTVSPropertyOp59
 70
     1
102
RTVSPropertyOp60
 70
     1
102
RTVSPropertyOp61
 70
     1
102
RTVSPropertyOp62
 70
     1
  0
XRECORD
  5
2E8D
102
{ACAD_REACTORS
330
2E8C
102
}
330
2E8C
100
AcDbXrecord
280
     1
102
RTVSPost2010Prop28
280
     0
102
RTVSPost2010PropOp28
 70
     1
102
RTVSPost2010Prop29
280
     1
102
RTVSPost2010PropOp29
 70
     1
102
RTVSPost2010Prop30
280
     1
102
RTVSPost2010PropOp30
 70
     1
102
RTVSPost2010Prop31
280
     0
102
RTVSPost2010PropOp31
 70
     1
102
RTVSPost2010Prop32
280
     0
102
RTVSPost2010PropOp32
 70
     1
102
RTVSPost2010Prop33
280
     0
102
RTVSPost2010PropOp33
 70
     1
102
RTVSPost2010Prop34
280
     0
102
RTVSPost2010PropOp34
 70
     1
102
RTVSPost2010Prop35
280
     0
102
RTVSPost2010PropOp35
 70
     1
102
RTVSPost2010Prop36
280
     0
102
RTVSPost2010PropOp36
 70
     1
102
RTVSPost2010Prop37
 90
       50
102
RTVSPost2010PropOp37
 70
     0
102
RTVSPost2010Prop38
140
0.0
102
RTVSPost2010PropOp38
 70
     0
102
RTVSPost2010Prop39
140
1.0
102
RTVSPost2010PropOp39
 70
     0
102
RTVSPost2010Prop40
 90
        0
102
RTVSPost2010PropOp40
 70
     0
102
RTVSPost2010Prop41ColorIndex
 90
       18
102
RTVSPost2010Prop41ColorRGB
 90
        0
102
RTVSPost2010PropOp41
 70
     0
102
RTVSPost2010Prop42
 90
       50
102
RTVSPost2010PropOp42
 70
     0
102
RTVSPost2010Prop43
 90
        3
102
RTVSPost2010PropOp43
 70
     0
102
RTVSPost2010Prop44ColorIndex
 90
        5
102
RTVSPost2010Prop44ColorRGB
 90
      255
102
RTVSPost2010PropOp44
 70
     0
102
RTVSPost2010Prop45
280
     0
102
RTVSPost2010PropOp45
 70
     1
102
RTVSPost2010Prop46
 90
       50
102
RTVSPost2010PropOp46
 70
     0
102
RTVSPost2010Prop47
 90
       50
102
RTVSPost2010PropOp47
 70
     0
102
RTVSPost2010Prop48
 90
       50
102
RTVSPost2010PropOp48
 70
     0
102
RTVSPost2010Prop49
280
     0
102
RTVSPost2010PropOp49
 70
     1
102
RTVSPost2010Prop50
 90
       50
102
RTVSPost2010PropOp50
 70
     0
102
RTVSPost2010Prop51ColorIndex
 90
      256
102
RTVSPost2010Prop51ColorRGB
 90
-16777216
102
RTVSPost2010PropOp51
 70
     0
102
RTVSPost2010Prop52
140
1.0
102
RTVSPost2010PropOp52
 70
     0
102
RTVSPost2010Prop53
 90
        2
102
RTVSPost2010PropOp53
 70
     0
102
RTVSPost2010Prop54
  1
strokes_ogs.tif
102
RTVSPost2010PropOp54
 70
     0
102
RTVSPost2010Prop55
280
     0
102
RTVSPost2010PropOp55
 70
     1
102
RTVSPost2010Prop56
140
1.0
102
RTVSPost2010PropOp56
 70
     0
102
RTVSPost2010Prop57
140
1.0
102
RTVSPost2010PropOp57
 70
     0
102
RTVSPropertyOp0
 70
     0
102
RTVSPropertyOp1
 70
     0
102
RTVSPropertyOp2
 70
     0
102
RTVSPropertyOp3
 70
     0
102
RTVSPropertyOp4
 70
     0
102
RTVSPropertyOp5
 70
     0
102
RTVSPropertyOp6
 70
     0
102
RTVSPropertyOp7
 70
     0
102
RTVSPropertyOp8
 70
     0
102
RTVSPropertyOp9
 70
     0
102
RTVSPropertyOp10
 70
     0
102
RTVSPropertyOp11
 70
     0
102
RTVSPropertyOp12
 70
     0
102
RTVSPropertyOp13
 70
     0
102
RTVSPropertyOp14
 70
     2
102
RTVSPropertyOp15
 70
     0
102
RTVSPropertyOp16
 70
     0
102
RTVSPropertyOp17
 70
     0
102
RTVSPropertyOp18
 70
     0
102
RTVSPropertyOp19
 70
     0
102
RTVSPropertyOp20
 70
     0
102
RTVSPropertyOp21
 70
     0
102
RTVSPropertyOp22
 70
     0
102
RTVSPropertyOp23
 70
     0
102
RTVSPropertyOp24
 70
     0
102
RTVSPropertyOp25
 70
     0
102
RTVSPropertyOp26
 70
     0
102
RTVSPropertyOp27
 70
     0
102
RTVSPropertyOp28
 70
     1
102
RTVSPropertyOp29
 70
     1
102
RTVSPropertyOp30
 70
     1
102
RTVSPropertyOp31
 70
     1
102
RTVSPropertyOp32
 70
     1
102
RTVSPropertyOp33
 70
     1
102
RTVSPropertyOp34
 70
     1
102
RTVSPropertyOp35
 70
     1
102
RTVSPropertyOp36
 70
     1
102
RTVSPropertyOp37
 70
     0
102
RTVSPropertyOp38
 70
     0
102
RTVSPropertyOp39
 70
     0
102
RTVSPropertyOp40
 70
     0
102
RTVSPropertyOp41
 70
     0
102
RTVSPropertyOp42
 70
     0
102
RTVSPropertyOp43
 70
     0
102
RTVSPropertyOp44
 70
     0
102
RTVSPropertyOp45
 70
     1
102
RTVSPropertyOp46
 70
     0
102
RTVSPropertyOp47
 70
     0
102
RTVSPropertyOp48
 70
     0
102
RTVSPropertyOp49
 70
     1
102
RTVSPropertyOp50
 70
     0
102
RTVSPropertyOp51
 70
     0
102
RTVSPropertyOp52
 70
     0
102
RTVSPropertyOp53
 70
     0
102
RTVSPropertyOp54
 70
     0
102
RTVSPropertyOp55
 70
     1
102
RTVSPropertyOp56
 70
     0
102
RTVSPropertyOp57
 70
     0
102
RTVSPropertyOp58
 70
     0
102
RTVSPropertyOp59
 70
     0
102
RTVSPropertyOp60
 70
     0
102
RTVSPropertyOp61
 70
     0
102
RTVSPropertyOp62
 70
     0
  0
XRECORD
  5
2E73
102
{ACAD_REACTORS
330
2E72
102
}
330
2E72
100
AcDbXrecord
280
     1
102
RTVSPost2010Prop28
280
     0
102
RTVSPost2010PropOp28
 70
     1
102
RTVSPost2010Prop29
280
     1
102
RTVSPost2010PropOp29
 70
     1
102
RTVSPost2010Prop30
280
     1
102
RTVSPost2010PropOp30
 70
     1
102
RTVSPost2010Prop31
280
     0
102
RTVSPost2010PropOp31
 70
     1
102
RTVSPost2010Prop32
280
     0
102
RTVSPost2010PropOp32
 70
     1
102
RTVSPost2010Prop33
280
     0
102
RTVSPost2010PropOp33
 70
     1
102
RTVSPost2010Prop34
280
     0
102
RTVSPost2010PropOp34
 70
     1
102
RTVSPost2010Prop35
280
     0
102
RTVSPost2010PropOp35
 70
     1
102
RTVSPost2010Prop36
280
     0
102
RTVSPost2010PropOp36
 70
     1
102
RTVSPost2010Prop37
 90
       50
102
RTVSPost2010PropOp37
 70
     1
102
RTVSPost2010Prop38
140
0.0
102
RTVSPost2010PropOp38
 70
     1
102
RTVSPost2010Prop39
140
1.0
102
RTVSPost2010PropOp39
 70
     1
102
RTVSPost2010Prop40
 90
        0
102
RTVSPost2010PropOp40
 70
     1
102
RTVSPost2010Prop41ColorIndex
 90
       18
102
RTVSPost2010Prop41ColorRGB
 90
        0
102
RTVSPost2010PropOp41
 70
     1
102
RTVSPost2010Prop42
 90
       50
102
RTVSPost2010PropOp42
 70
     1
102
RTVSPost2010Prop43
 90
        3
102
RTVSPost2010PropOp43
 70
     1
102
RTVSPost2010Prop44ColorIndex
 90
        5
102
RTVSPost2010Prop44ColorRGB
 90
      255
102
RTVSPost2010PropOp44
 70
     1
102
RTVSPost2010Prop45
280
     0
102
RTVSPost2010PropOp45
 70
     1
102
RTVSPost2010Prop46
 90
       50
102
RTVSPost2010PropOp46
 70
     1
102
RTVSPost2010Prop47
 90
       50
102
RTVSPost2010PropOp47
 70
     1
102
RTVSPost2010Prop48
 90
       50
102
RTVSPost2010PropOp48
 70
     1
102
RTVSPost2010Prop49
280
     0
102
RTVSPost2010PropOp49
 70
     1
102
RTVSPost2010Prop50
 90
       50
102
RTVSPost2010PropOp50
 70
     1
102
RTVSPost2010Prop51ColorIndex
 90
      256
102
RTVSPost2010Prop51ColorRGB
 90
-16777216
102
RTVSPost2010PropOp51
 70
     0
102
RTVSPost2010Prop52
140
1.0
102
RTVSPost2010PropOp52
 70
     0
102
RTVSPost2010Prop53
 90
        2
102
RTVSPost2010PropOp53
 70
     1
102
RTVSPost2010Prop54
  1
strokes_ogs.tif
102
RTVSPost2010PropOp54
 70
     1
102
RTVSPost2010Prop55
280
     0
102
RTVSPost2010PropOp55
 70
     1
102
RTVSPost2010Prop56
140
1.0
102
RTVSPost2010PropOp56
 70
     1
102
RTVSPost2010Prop57
140
1.0
102
RTVSPost2010PropOp57
 70
     1
102
RTVSPropertyOp0
 70
     1
102
RTVSPropertyOp1
 70
     1
102
RTVSPropertyOp2
 70
     1
102
RTVSPropertyOp3
 70
     1
102
RTVSPropertyOp4
 70
     1
102
RTVSPropertyOp5
 70
     1
102
RTVSPropertyOp6
 70
     1
102
RTVSPropertyOp7
 70
     1
102
RTVSPropertyOp8
 70
     1
102
RTVSPropertyOp9
 70
     1
102
RTVSPropertyOp10
 70
     1
102
RTVSPropertyOp11
 70
     1
102
RTVSPropertyOp12
 70
     1
102
RTVSPropertyOp13
 70
     1
102
RTVSPropertyOp14
 70
     1
102
RTVSPropertyOp15
 70
     1
102
RTVSPropertyOp16
 70
     1
102
RTVSPropertyOp17
 70
     1
102
RTVSPropertyOp18
 70
     1
102
RTVSPropertyOp19
 70
     1
102
RTVSPropertyOp20
 70
     1
102
RTVSPropertyOp21
 70
     1
102
RTVSPropertyOp22
 70
     1
102
RTVSPropertyOp23
 70
     1
102
RTVSPropertyOp24
 70
     1
102
RTVSPropertyOp25
 70
     1
102
RTVSPropertyOp26
 70
     1
102
RTVSPropertyOp27
 70
     1
102
RTVSPropertyOp28
 70
     1
102
RTVSPropertyOp29
 70
     1
102
RTVSPropertyOp30
 70
     1
102
RTVSPropertyOp31
 70
     1
102
RTVSPropertyOp32
 70
     1
102
RTVSPropertyOp33
 70
     1
102
RTVSPropertyOp34
 70
     1
102
RTVSPropertyOp35
 70
     1
102
RTVSPropertyOp36
 70
     1
102
RTVSPropertyOp37
 70
     1
102
RTVSPropertyOp38
 70
     1
102
RTVSPropertyOp39
 70
     1
102
RTVSPropertyOp40
 70
     1
102
RTVSPropertyOp41
 70
     1
102
RTVSPropertyOp42
 70
     1
102
RTVSPropertyOp43
 70
     1
102
RTVSPropertyOp44
 70
     1
102
RTVSPropertyOp45
 70
     1
102
RTVSPropertyOp46
 70
     1
102
RTVSPropertyOp47
 70
     1
102
RTVSPropertyOp48
 70
     1
102
RTVSPropertyOp49
 70
     1
102
RTVSPropertyOp50
 70
     1
102
RTVSPropertyOp51
 70
     0
102
RTVSPropertyOp52
 70
     0
102
RTVSPropertyOp53
 70
     1
102
RTVSPropertyOp54
 70
     1
102
RTVSPropertyOp55
 70
     1
102
RTVSPropertyOp56
 70
     1
102
RTVSPropertyOp57
 70
     1
102
RTVSPropertyOp58
 70
     1
102
RTVSPropertyOp59
 70
     1
102
RTVSPropertyOp60
 70
     1
102
RTVSPropertyOp61
 70
     1
102
RTVSPropertyOp62
 70
     1
  0
XRECORD
  5
2E89
102
{ACAD_REACTORS
330
2E88
102
}
330
2E88
100
AcDbXrecord
280
     1
102
RTVSPost2010Prop28
280
     0
102
RTVSPost2010PropOp28
 70
     1
102
RTVSPost2010Prop29
280
     1
102
RTVSPost2010PropOp29
 70
     1
102
RTVSPost2010Prop30
280
     1
102
RTVSPost2010PropOp30
 70
     1
102
RTVSPost2010Prop31
280
     0
102
RTVSPost2010PropOp31
 70
     1
102
RTVSPost2010Prop32
280
     0
102
RTVSPost2010PropOp32
 70
     1
102
RTVSPost2010Prop33
280
     0
102
RTVSPost2010PropOp33
 70
     1
102
RTVSPost2010Prop34
280
     0
102
RTVSPost2010PropOp34
 70
     1
102
RTVSPost2010Prop35
280
     0
102
RTVSPost2010PropOp35
 70
     1
102
RTVSPost2010Prop36
280
     0
102
RTVSPost2010PropOp36
 70
     1
102
RTVSPost2010Prop37
 90
       50
102
RTVSPost2010PropOp37
 70
     1
102
RTVSPost2010Prop38
140
0.0
102
RTVSPost2010PropOp38
 70
     1
102
RTVSPost2010Prop39
140
1.0
102
RTVSPost2010PropOp39
 70
     1
102
RTVSPost2010Prop40
 90
        0
102
RTVSPost2010PropOp40
 70
     1
102
RTVSPost2010Prop41ColorIndex
 90
       18
102
RTVSPost2010Prop41ColorRGB
 90
        0
102
RTVSPost2010PropOp41
 70
     1
102
RTVSPost2010Prop42
 90
       50
102
RTVSPost2010PropOp42
 70
     1
102
RTVSPost2010Prop43
 90
        3
102
RTVSPost2010PropOp43
 70
     1
102
RTVSPost2010Prop44ColorIndex
 90
        5
102
RTVSPost2010Prop44ColorRGB
 90
      255
102
RTVSPost2010PropOp44
 70
     1
102
RTVSPost2010Prop45
280
     0
102
RTVSPost2010PropOp45
 70
     1
102
RTVSPost2010Prop46
 90
       50
102
RTVSPost2010PropOp46
 70
     1
102
RTVSPost2010Prop47
 90
       50
102
RTVSPost2010PropOp47
 70
     1
102
RTVSPost2010Prop48
 90
       50
102
RTVSPost2010PropOp48
 70
     1
102
RTVSPost2010Prop49
280
     0
102
RTVSPost2010PropOp49
 70
     1
102
RTVSPost2010Prop50
 90
       50
102
RTVSPost2010PropOp50
 70
     1
102
RTVSPost2010Prop51ColorIndex
 90
      256
102
RTVSPost2010Prop51ColorRGB
 90
-16777216
102
RTVSPost2010PropOp51
 70
     0
102
RTVSPost2010Prop52
140
1.0
102
RTVSPost2010PropOp52
 70
     0
102
RTVSPost2010Prop53
 90
        2
102
RTVSPost2010PropOp53
 70
     1
102
RTVSPost2010Prop54
  1
strokes_ogs.tif
102
RTVSPost2010PropOp54
 70
     1
102
RTVSPost2010Prop55
280
     0
102
RTVSPost2010PropOp55
 70
     1
102
RTVSPost2010Prop56
140
1.0
102
RTVSPost2010PropOp56
 70
     1
102
RTVSPost2010Prop57
140
1.0
102
RTVSPost2010PropOp57
 70
     1
102
RTVSPropertyOp0
 70
     1
102
RTVSPropertyOp1
 70
     1
102
RTVSPropertyOp2
 70
     1
102
RTVSPropertyOp3
 70
     1
102
RTVSPropertyOp4
 70
     1
102
RTVSPropertyOp5
 70
     1
102
RTVSPropertyOp6
 70
     1
102
RTVSPropertyOp7
 70
     1
102
RTVSPropertyOp8
 70
     1
102
RTVSPropertyOp9
 70
     1
102
RTVSPropertyOp10
 70
     1
102
RTVSPropertyOp11
 70
     1
102
RTVSPropertyOp12
 70
     1
102
RTVSPropertyOp13
 70
     1
102
RTVSPropertyOp14
 70
     1
102
RTVSPropertyOp15
 70
     1
102
RTVSPropertyOp16
 70
     1
102
RTVSPropertyOp17
 70
     1
102
RTVSPropertyOp18
 70
     1
102
RTVSPropertyOp19
 70
     1
102
RTVSPropertyOp20
 70
     1
102
RTVSPropertyOp21
 70
     1
102
RTVSPropertyOp22
 70
     1
102
RTVSPropertyOp23
 70
     1
102
RTVSPropertyOp24
 70
     1
102
RTVSPropertyOp25
 70
     1
102
RTVSPropertyOp26
 70
     1
102
RTVSPropertyOp27
 70
     1
102
RTVSPropertyOp28
 70
     1
102
RTVSPropertyOp29
 70
     1
102
RTVSPropertyOp30
 70
     1
102
RTVSPropertyOp31
 70
     1
102
RTVSPropertyOp32
 70
     1
102
RTVSPropertyOp33
 70
     1
102
RTVSPropertyOp34
 70
     1
102
RTVSPropertyOp35
 70
     1
102
RTVSPropertyOp36
 70
     1
102
RTVSPropertyOp37
 70
     1
102
RTVSPropertyOp38
 70
     1
102
RTVSPropertyOp39
 70
     1
102
RTVSPropertyOp40
 70
     1
102
RTVSPropertyOp41
 70
     1
102
RTVSPropertyOp42
 70
     1
102
RTVSPropertyOp43
 70
     1
102
RTVSPropertyOp44
 70
     1
102
RTVSPropertyOp45
 70
     1
102
RTVSPropertyOp46
 70
     1
102
RTVSPropertyOp47
 70
     1
102
RTVSPropertyOp48
 70
     1
102
RTVSPropertyOp49
 70
     1
102
RTVSPropertyOp50
 70
     1
102
RTVSPropertyOp51
 70
     0
102
RTVSPropertyOp52
 70
     0
102
RTVSPropertyOp53
 70
     1
102
RTVSPropertyOp54
 70
     1
102
RTVSPropertyOp55
 70
     1
102
RTVSPropertyOp56
 70
     1
102
RTVSPropertyOp57
 70
     1
102
RTVSPropertyOp58
 70
     1
102
RTVSPropertyOp59
 70
     1
102
RTVSPropertyOp60
 70
     1
102
RTVSPropertyOp61
 70
     1
102
RTVSPropertyOp62
 70
     1
  0
XRECORD
  5
2E87
102
{ACAD_REACTORS
330
2E86
102
}
330
2E86
100
AcDbXrecord
280
     1
102
RTVSPost2010Prop28
280
     0
102
RTVSPost2010PropOp28
 70
     1
102
RTVSPost2010Prop29
280
     1
102
RTVSPost2010PropOp29
 70
     1
102
RTVSPost2010Prop30
280
     1
102
RTVSPost2010PropOp30
 70
     1
102
RTVSPost2010Prop31
280
     0
102
RTVSPost2010PropOp31
 70
     1
102
RTVSPost2010Prop32
280
     0
102
RTVSPost2010PropOp32
 70
     1
102
RTVSPost2010Prop33
280
     0
102
RTVSPost2010PropOp33
 70
     1
102
RTVSPost2010Prop34
280
     0
102
RTVSPost2010PropOp34
 70
     1
102
RTVSPost2010Prop35
280
     0
102
RTVSPost2010PropOp35
 70
     1
102
RTVSPost2010Prop36
280
     0
102
RTVSPost2010PropOp36
 70
     1
102
RTVSPost2010Prop37
 90
       50
102
RTVSPost2010PropOp37
 70
     1
102
RTVSPost2010Prop38
140
0.0
102
RTVSPost2010PropOp38
 70
     1
102
RTVSPost2010Prop39
140
1.0
102
RTVSPost2010PropOp39
 70
     1
102
RTVSPost2010Prop40
 90
        0
102
RTVSPost2010PropOp40
 70
     1
102
RTVSPost2010Prop41ColorIndex
 90
       18
102
RTVSPost2010Prop41ColorRGB
 90
        0
102
RTVSPost2010PropOp41
 70
     1
102
RTVSPost2010Prop42
 90
       50
102
RTVSPost2010PropOp42
 70
     1
102
RTVSPost2010Prop43
 90
        3
102
RTVSPost2010PropOp43
 70
     1
102
RTVSPost2010Prop44ColorIndex
 90
        5
102
RTVSPost2010Prop44ColorRGB
 90
      255
102
RTVSPost2010PropOp44
 70
     1
102
RTVSPost2010Prop45
280
     0
102
RTVSPost2010PropOp45
 70
     1
102
RTVSPost2010Prop46
 90
       50
102
RTVSPost2010PropOp46
 70
     1
102
RTVSPost2010Prop47
 90
       50
102
RTVSPost2010PropOp47
 70
     1
102
RTVSPost2010Prop48
 90
       50
102
RTVSPost2010PropOp48
 70
     1
102
RTVSPost2010Prop49
280
     0
102
RTVSPost2010PropOp49
 70
     1
102
RTVSPost2010Prop50
 90
       50
102
RTVSPost2010PropOp50
 70
     1
102
RTVSPost2010Prop51ColorIndex
 90
      256
102
RTVSPost2010Prop51ColorRGB
 90
-16777216
102
RTVSPost2010PropOp51
 70
     0
102
RTVSPost2010Prop52
140
1.0
102
RTVSPost2010PropOp52
 70
     0
102
RTVSPost2010Prop53
 90
        2
102
RTVSPost2010PropOp53
 70
     1
102
RTVSPost2010Prop54
  1
strokes_ogs.tif
102
RTVSPost2010PropOp54
 70
     1
102
RTVSPost2010Prop55
280
     0
102
RTVSPost2010PropOp55
 70
     1
102
RTVSPost2010Prop56
140
1.0
102
RTVSPost2010PropOp56
 70
     1
102
RTVSPost2010Prop57
140
1.0
102
RTVSPost2010PropOp57
 70
     1
102
RTVSPropertyOp0
 70
     1
102
RTVSPropertyOp1
 70
     1
102
RTVSPropertyOp2
 70
     1
102
RTVSPropertyOp3
 70
     1
102
RTVSPropertyOp4
 70
     1
102
RTVSPropertyOp5
 70
     1
102
RTVSPropertyOp6
 70
     1
102
RTVSPropertyOp7
 70
     1
102
RTVSPropertyOp8
 70
     1
102
RTVSPropertyOp9
 70
     1
102
RTVSPropertyOp10
 70
     1
102
RTVSPropertyOp11
 70
     1
102
RTVSPropertyOp12
 70
     1
102
RTVSPropertyOp13
 70
     1
102
RTVSPropertyOp14
 70
     1
102
RTVSPropertyOp15
 70
     1
102
RTVSPropertyOp16
 70
     1
102
RTVSPropertyOp17
 70
     1
102
RTVSPropertyOp18
 70
     1
102
RTVSPropertyOp19
 70
     1
102
RTVSPropertyOp20
 70
     1
102
RTVSPropertyOp21
 70
     1
102
RTVSPropertyOp22
 70
     1
102
RTVSPropertyOp23
 70
     1
102
RTVSPropertyOp24
 70
     1
102
RTVSPropertyOp25
 70
     1
102
RTVSPropertyOp26
 70
     1
102
RTVSPropertyOp27
 70
     1
102
RTVSPropertyOp28
 70
     1
102
RTVSPropertyOp29
 70
     1
102
RTVSPropertyOp30
 70
     1
102
RTVSPropertyOp31
 70
     1
102
RTVSPropertyOp32
 70
     1
102
RTVSPropertyOp33
 70
     1
102
RTVSPropertyOp34
 70
     1
102
RTVSPropertyOp35
 70
     1
102
RTVSPropertyOp36
 70
     1
102
RTVSPropertyOp37
 70
     1
102
RTVSPropertyOp38
 70
     1
102
RTVSPropertyOp39
 70
     1
102
RTVSPropertyOp40
 70
     1
102
RTVSPropertyOp41
 70
     1
102
RTVSPropertyOp42
 70
     1
102
RTVSPropertyOp43
 70
     1
102
RTVSPropertyOp44
 70
     1
102
RTVSPropertyOp45
 70
     1
102
RTVSPropertyOp46
 70
     1
102
RTVSPropertyOp47
 70
     1
102
RTVSPropertyOp48
 70
     1
102
RTVSPropertyOp49
 70
     1
102
RTVSPropertyOp50
 70
     1
102
RTVSPropertyOp51
 70
     0
102
RTVSPropertyOp52
 70
     0
102
RTVSPropertyOp53
 70
     1
102
RTVSPropertyOp54
 70
     1
102
RTVSPropertyOp55
 70
     1
102
RTVSPropertyOp56
 70
     1
102
RTVSPropertyOp57
 70
     1
102
RTVSPropertyOp58
 70
     1
102
RTVSPropertyOp59
 70
     1
102
RTVSPropertyOp60
 70
     1
102
RTVSPropertyOp61
 70
     1
102
RTVSPropertyOp62
 70
     1
  0
XRECORD
  5
2E81
102
{ACAD_REACTORS
330
2E80
102
}
330
2E80
100
AcDbXrecord
280
     1
102
RTVSPost2010Prop28
280
     0
102
RTVSPost2010PropOp28
 70
     1
102
RTVSPost2010Prop29
280
     1
102
RTVSPost2010PropOp29
 70
     1
102
RTVSPost2010Prop30
280
     1
102
RTVSPost2010PropOp30
 70
     1
102
RTVSPost2010Prop31
280
     0
102
RTVSPost2010PropOp31
 70
     1
102
RTVSPost2010Prop32
280
     0
102
RTVSPost2010PropOp32
 70
     1
102
RTVSPost2010Prop33
280
     0
102
RTVSPost2010PropOp33
 70
     1
102
RTVSPost2010Prop34
280
     0
102
RTVSPost2010PropOp34
 70
     1
102
RTVSPost2010Prop35
280
     0
102
RTVSPost2010PropOp35
 70
     1
102
RTVSPost2010Prop36
280
     0
102
RTVSPost2010PropOp36
 70
     1
102
RTVSPost2010Prop37
 90
       50
102
RTVSPost2010PropOp37
 70
     1
102
RTVSPost2010Prop38
140
0.0
102
RTVSPost2010PropOp38
 70
     1
102
RTVSPost2010Prop39
140
1.0
102
RTVSPost2010PropOp39
 70
     1
102
RTVSPost2010Prop40
 90
        0
102
RTVSPost2010PropOp40
 70
     1
102
RTVSPost2010Prop41ColorIndex
 90
       18
102
RTVSPost2010Prop41ColorRGB
 90
        0
102
RTVSPost2010PropOp41
 70
     1
102
RTVSPost2010Prop42
 90
       50
102
RTVSPost2010PropOp42
 70
     1
102
RTVSPost2010Prop43
 90
        3
102
RTVSPost2010PropOp43
 70
     1
102
RTVSPost2010Prop44ColorIndex
 90
        5
102
RTVSPost2010Prop44ColorRGB
 90
      255
102
RTVSPost2010PropOp44
 70
     1
102
RTVSPost2010Prop45
280
     0
102
RTVSPost2010PropOp45
 70
     1
102
RTVSPost2010Prop46
 90
       50
102
RTVSPost2010PropOp46
 70
     1
102
RTVSPost2010Prop47
 90
       50
102
RTVSPost2010PropOp47
 70
     1
102
RTVSPost2010Prop48
 90
       50
102
RTVSPost2010PropOp48
 70
     1
102
RTVSPost2010Prop49
280
     0
102
RTVSPost2010PropOp49
 70
     1
102
RTVSPost2010Prop50
 90
       50
102
RTVSPost2010PropOp50
 70
     1
102
RTVSPost2010Prop51ColorIndex
 90
      256
102
RTVSPost2010Prop51ColorRGB
 90
-16777216
102
RTVSPost2010PropOp51
 70
     0
102
RTVSPost2010Prop52
140
1.0
102
RTVSPost2010PropOp52
 70
     0
102
RTVSPost2010Prop53
 90
        2
102
RTVSPost2010PropOp53
 70
     1
102
RTVSPost2010Prop54
  1
strokes_ogs.tif
102
RTVSPost2010PropOp54
 70
     1
102
RTVSPost2010Prop55
280
     0
102
RTVSPost2010PropOp55
 70
     1
102
RTVSPost2010Prop56
140
1.0
102
RTVSPost2010PropOp56
 70
     1
102
RTVSPost2010Prop57
140
1.0
102
RTVSPost2010PropOp57
 70
     1
102
RTVSPropertyOp0
 70
     1
102
RTVSPropertyOp1
 70
     1
102
RTVSPropertyOp2
 70
     1
102
RTVSPropertyOp3
 70
     1
102
RTVSPropertyOp4
 70
     1
102
RTVSPropertyOp5
 70
     1
102
RTVSPropertyOp6
 70
     1
102
RTVSPropertyOp7
 70
     1
102
RTVSPropertyOp8
 70
     1
102
RTVSPropertyOp9
 70
     1
102
RTVSPropertyOp10
 70
     1
102
RTVSPropertyOp11
 70
     1
102
RTVSPropertyOp12
 70
     1
102
RTVSPropertyOp13
 70
     1
102
RTVSPropertyOp14
 70
     1
102
RTVSPropertyOp15
 70
     1
102
RTVSPropertyOp16
 70
     1
102
RTVSPropertyOp17
 70
     1
102
RTVSPropertyOp18
 70
     1
102
RTVSPropertyOp19
 70
     1
102
RTVSPropertyOp20
 70
     1
102
RTVSPropertyOp21
 70
     1
102
RTVSPropertyOp22
 70
     1
102
RTVSPropertyOp23
 70
     1
102
RTVSPropertyOp24
 70
     1
102
RTVSPropertyOp25
 70
     1
102
RTVSPropertyOp26
 70
     1
102
RTVSPropertyOp27
 70
     1
102
RTVSPropertyOp28
 70
     1
102
RTVSPropertyOp29
 70
     1
102
RTVSPropertyOp30
 70
     1
102
RTVSPropertyOp31
 70
     1
102
RTVSPropertyOp32
 70
     1
102
RTVSPropertyOp33
 70
     1
102
RTVSPropertyOp34
 70
     1
102
RTVSPropertyOp35
 70
     1
102
RTVSPropertyOp36
 70
     1
102
RTVSPropertyOp37
 70
     1
102
RTVSPropertyOp38
 70
     1
102
RTVSPropertyOp39
 70
     1
102
RTVSPropertyOp40
 70
     1
102
RTVSPropertyOp41
 70
     1
102
RTVSPropertyOp42
 70
     1
102
RTVSPropertyOp43
 70
     1
102
RTVSPropertyOp44
 70
     1
102
RTVSPropertyOp45
 70
     1
102
RTVSPropertyOp46
 70
     1
102
RTVSPropertyOp47
 70
     1
102
RTVSPropertyOp48
 70
     1
102
RTVSPropertyOp49
 70
     1
102
RTVSPropertyOp50
 70
     1
102
RTVSPropertyOp51
 70
     0
102
RTVSPropertyOp52
 70
     0
102
RTVSPropertyOp53
 70
     1
102
RTVSPropertyOp54
 70
     1
102
RTVSPropertyOp55
 70
     1
102
RTVSPropertyOp56
 70
     1
102
RTVSPropertyOp57
 70
     1
102
RTVSPropertyOp58
 70
     1
102
RTVSPropertyOp59
 70
     1
102
RTVSPropertyOp60
 70
     1
102
RTVSPropertyOp61
 70
     1
102
RTVSPropertyOp62
 70
     1
  0
XRECORD
  5
2E83
102
{ACAD_REACTORS
330
2E82
102
}
330
2E82
100
AcDbXrecord
280
     1
102
RTVSPost2010Prop28
280
     0
102
RTVSPost2010PropOp28
 70
     1
102
RTVSPost2010Prop29
280
     1
102
RTVSPost2010PropOp29
 70
     1
102
RTVSPost2010Prop30
280
     1
102
RTVSPost2010PropOp30
 70
     1
102
RTVSPost2010Prop31
280
     0
102
RTVSPost2010PropOp31
 70
     1
102
RTVSPost2010Prop32
280
     0
102
RTVSPost2010PropOp32
 70
     1
102
RTVSPost2010Prop33
280
     0
102
RTVSPost2010PropOp33
 70
     1
102
RTVSPost2010Prop34
280
     0
102
RTVSPost2010PropOp34
 70
     1
102
RTVSPost2010Prop35
280
     0
102
RTVSPost2010PropOp35
 70
     1
102
RTVSPost2010Prop36
280
     0
102
RTVSPost2010PropOp36
 70
     1
102
RTVSPost2010Prop37
 90
       50
102
RTVSPost2010PropOp37
 70
     1
102
RTVSPost2010Prop38
140
0.0
102
RTVSPost2010PropOp38
 70
     1
102
RTVSPost2010Prop39
140
1.0
102
RTVSPost2010PropOp39
 70
     1
102
RTVSPost2010Prop40
 90
        0
102
RTVSPost2010PropOp40
 70
     1
102
RTVSPost2010Prop41ColorIndex
 90
       18
102
RTVSPost2010Prop41ColorRGB
 90
        0
102
RTVSPost2010PropOp41
 70
     1
102
RTVSPost2010Prop42
 90
       50
102
RTVSPost2010PropOp42
 70
     1
102
RTVSPost2010Prop43
 90
        3
102
RTVSPost2010PropOp43
 70
     1
102
RTVSPost2010Prop44ColorIndex
 90
        5
102
RTVSPost2010Prop44ColorRGB
 90
      255
102
RTVSPost2010PropOp44
 70
     1
102
RTVSPost2010Prop45
280
     0
102
RTVSPost2010PropOp45
 70
     1
102
RTVSPost2010Prop46
 90
       50
102
RTVSPost2010PropOp46
 70
     1
102
RTVSPost2010Prop47
 90
       50
102
RTVSPost2010PropOp47
 70
     1
102
RTVSPost2010Prop48
 90
       50
102
RTVSPost2010PropOp48
 70
     1
102
RTVSPost2010Prop49
280
     0
102
RTVSPost2010PropOp49
 70
     1
102
RTVSPost2010Prop50
 90
       50
102
RTVSPost2010PropOp50
 70
     1
102
RTVSPost2010Prop51ColorIndex
 90
      256
102
RTVSPost2010Prop51ColorRGB
 90
-16777216
102
RTVSPost2010PropOp51
 70
     0
102
RTVSPost2010Prop52
140
1.0
102
RTVSPost2010PropOp52
 70
     0
102
RTVSPost2010Prop53
 90
        2
102
RTVSPost2010PropOp53
 70
     1
102
RTVSPost2010Prop54
  1
strokes_ogs.tif
102
RTVSPost2010PropOp54
 70
     1
102
RTVSPost2010Prop55
280
     0
102
RTVSPost2010PropOp55
 70
     1
102
RTVSPost2010Prop56
140
1.0
102
RTVSPost2010PropOp56
 70
     1
102
RTVSPost2010Prop57
140
1.0
102
RTVSPost2010PropOp57
 70
     1
102
RTVSPropertyOp0
 70
     1
102
RTVSPropertyOp1
 70
     1
102
RTVSPropertyOp2
 70
     1
102
RTVSPropertyOp3
 70
     1
102
RTVSPropertyOp4
 70
     1
102
RTVSPropertyOp5
 70
     1
102
RTVSPropertyOp6
 70
     1
102
RTVSPropertyOp7
 70
     1
102
RTVSPropertyOp8
 70
     1
102
RTVSPropertyOp9
 70
     1
102
RTVSPropertyOp10
 70
     1
102
RTVSPropertyOp11
 70
     1
102
RTVSPropertyOp12
 70
     1
102
RTVSPropertyOp13
 70
     1
102
RTVSPropertyOp14
 70
     1
102
RTVSPropertyOp15
 70
     1
102
RTVSPropertyOp16
 70
     1
102
RTVSPropertyOp17
 70
     1
102
RTVSPropertyOp18
 70
     1
102
RTVSPropertyOp19
 70
     1
102
RTVSPropertyOp20
 70
     1
102
RTVSPropertyOp21
 70
     1
102
RTVSPropertyOp22
 70
     1
102
RTVSPropertyOp23
 70
     1
102
RTVSPropertyOp24
 70
     1
102
RTVSPropertyOp25
 70
     1
102
RTVSPropertyOp26
 70
     1
102
RTVSPropertyOp27
 70
     1
102
RTVSPropertyOp28
 70
     1
102
RTVSPropertyOp29
 70
     1
102
RTVSPropertyOp30
 70
     1
102
RTVSPropertyOp31
 70
     1
102
RTVSPropertyOp32
 70
     1
102
RTVSPropertyOp33
 70
     1
102
RTVSPropertyOp34
 70
     1
102
RTVSPropertyOp35
 70
     1
102
RTVSPropertyOp36
 70
     1
102
RTVSPropertyOp37
 70
     1
102
RTVSPropertyOp38
 70
     1
102
RTVSPropertyOp39
 70
     1
102
RTVSPropertyOp40
 70
     1
102
RTVSPropertyOp41
 70
     1
102
RTVSPropertyOp42
 70
     1
102
RTVSPropertyOp43
 70
     1
102
RTVSPropertyOp44
 70
     1
102
RTVSPropertyOp45
 70
     1
102
RTVSPropertyOp46
 70
     1
102
RTVSPropertyOp47
 70
     1
102
RTVSPropertyOp48
 70
     1
102
RTVSPropertyOp49
 70
     1
102
RTVSPropertyOp50
 70
     1
102
RTVSPropertyOp51
 70
     0
102
RTVSPropertyOp52
 70
     0
102
RTVSPropertyOp53
 70
     1
102
RTVSPropertyOp54
 70
     1
102
RTVSPropertyOp55
 70
     1
102
RTVSPropertyOp56
 70
     1
102
RTVSPropertyOp57
 70
     1
102
RTVSPropertyOp58
 70
     1
102
RTVSPropertyOp59
 70
     1
102
RTVSPropertyOp60
 70
     1
102
RTVSPropertyOp61
 70
     1
102
RTVSPropertyOp62
 70
     1
  0
XRECORD
  5
2E79
102
{ACAD_REACTORS
330
2E78
102
}
330
2E78
100
AcDbXrecord
280
     1
102
RTVSPost2010Prop28
280
     0
102
RTVSPost2010PropOp28
 70
     1
102
RTVSPost2010Prop29
280
     1
102
RTVSPost2010PropOp29
 70
     1
102
RTVSPost2010Prop30
280
     1
102
RTVSPost2010PropOp30
 70
     1
102
RTVSPost2010Prop31
280
     0
102
RTVSPost2010PropOp31
 70
     1
102
RTVSPost2010Prop32
280
     0
102
RTVSPost2010PropOp32
 70
     1
102
RTVSPost2010Prop33
280
     0
102
RTVSPost2010PropOp33
 70
     1
102
RTVSPost2010Prop34
280
     0
102
RTVSPost2010PropOp34
 70
     1
102
RTVSPost2010Prop35
280
     0
102
RTVSPost2010PropOp35
 70
     1
102
RTVSPost2010Prop36
280
     0
102
RTVSPost2010PropOp36
 70
     1
102
RTVSPost2010Prop37
 90
       50
102
RTVSPost2010PropOp37
 70
     1
102
RTVSPost2010Prop38
140
0.0
102
RTVSPost2010PropOp38
 70
     1
102
RTVSPost2010Prop39
140
1.0
102
RTVSPost2010PropOp39
 70
     1
102
RTVSPost2010Prop40
 90
        0
102
RTVSPost2010PropOp40
 70
     1
102
RTVSPost2010Prop41ColorIndex
 90
       18
102
RTVSPost2010Prop41ColorRGB
 90
        0
102
RTVSPost2010PropOp41
 70
     1
102
RTVSPost2010Prop42
 90
       50
102
RTVSPost2010PropOp42
 70
     1
102
RTVSPost2010Prop43
 90
        3
102
RTVSPost2010PropOp43
 70
     1
102
RTVSPost2010Prop44ColorIndex
 90
        5
102
RTVSPost2010Prop44ColorRGB
 90
      255
102
RTVSPost2010PropOp44
 70
     1
102
RTVSPost2010Prop45
280
     0
102
RTVSPost2010PropOp45
 70
     1
102
RTVSPost2010Prop46
 90
       50
102
RTVSPost2010PropOp46
 70
     1
102
RTVSPost2010Prop47
 90
       50
102
RTVSPost2010PropOp47
 70
     1
102
RTVSPost2010Prop48
 90
       50
102
RTVSPost2010PropOp48
 70
     1
102
RTVSPost2010Prop49
280
     0
102
RTVSPost2010PropOp49
 70
     1
102
RTVSPost2010Prop50
 90
       50
102
RTVSPost2010PropOp50
 70
     1
102
RTVSPost2010Prop51ColorIndex
 90
      256
102
RTVSPost2010Prop51ColorRGB
 90
-16777216
102
RTVSPost2010PropOp51
 70
     0
102
RTVSPost2010Prop52
140
1.0
102
RTVSPost2010PropOp52
 70
     0
102
RTVSPost2010Prop53
 90
        2
102
RTVSPost2010PropOp53
 70
     1
102
RTVSPost2010Prop54
  1
strokes_ogs.tif
102
RTVSPost2010PropOp54
 70
     1
102
RTVSPost2010Prop55
280
     0
102
RTVSPost2010PropOp55
 70
     1
102
RTVSPost2010Prop56
140
1.0
102
RTVSPost2010PropOp56
 70
     1
102
RTVSPost2010Prop57
140
1.0
102
RTVSPost2010PropOp57
 70
     1
102
RTVSPropertyOp0
 70
     1
102
RTVSPropertyOp1
 70
     1
102
RTVSPropertyOp2
 70
     1
102
RTVSPropertyOp3
 70
     1
102
RTVSPropertyOp4
 70
     1
102
RTVSPropertyOp5
 70
     1
102
RTVSPropertyOp6
 70
     1
102
RTVSPropertyOp7
 70
     1
102
RTVSPropertyOp8
 70
     1
102
RTVSPropertyOp9
 70
     1
102
RTVSPropertyOp10
 70
     1
102
RTVSPropertyOp11
 70
     1
102
RTVSPropertyOp12
 70
     1
102
RTVSPropertyOp13
 70
     1
102
RTVSPropertyOp14
 70
     1
102
RTVSPropertyOp15
 70
     1
102
RTVSPropertyOp16
 70
     1
102
RTVSPropertyOp17
 70
     1
102
RTVSPropertyOp18
 70
     1
102
RTVSPropertyOp19
 70
     1
102
RTVSPropertyOp20
 70
     1
102
RTVSPropertyOp21
 70
     1
102
RTVSPropertyOp22
 70
     1
102
RTVSPropertyOp23
 70
     1
102
RTVSPropertyOp24
 70
     1
102
RTVSPropertyOp25
 70
     1
102
RTVSPropertyOp26
 70
     1
102
RTVSPropertyOp27
 70
     1
102
RTVSPropertyOp28
 70
     1
102
RTVSPropertyOp29
 70
     1
102
RTVSPropertyOp30
 70
     1
102
RTVSPropertyOp31
 70
     1
102
RTVSPropertyOp32
 70
     1
102
RTVSPropertyOp33
 70
     1
102
RTVSPropertyOp34
 70
     1
102
RTVSPropertyOp35
 70
     1
102
RTVSPropertyOp36
 70
     1
102
RTVSPropertyOp37
 70
     1
102
RTVSPropertyOp38
 70
     1
102
RTVSPropertyOp39
 70
     1
102
RTVSPropertyOp40
 70
     1
102
RTVSPropertyOp41
 70
     1
102
RTVSPropertyOp42
 70
     1
102
RTVSPropertyOp43
 70
     1
102
RTVSPropertyOp44
 70
     1
102
RTVSPropertyOp45
 70
     1
102
RTVSPropertyOp46
 70
     1
102
RTVSPropertyOp47
 70
     1
102
RTVSPropertyOp48
 70
     1
102
RTVSPropertyOp49
 70
     1
102
RTVSPropertyOp50
 70
     1
102
RTVSPropertyOp51
 70
     0
102
RTVSPropertyOp52
 70
     0
102
RTVSPropertyOp53
 70
     1
102
RTVSPropertyOp54
 70
     1
102
RTVSPropertyOp55
 70
     1
102
RTVSPropertyOp56
 70
     1
102
RTVSPropertyOp57
 70
     1
102
RTVSPropertyOp58
 70
     1
102
RTVSPropertyOp59
 70
     1
102
RTVSPropertyOp60
 70
     1
102
RTVSPropertyOp61
 70
     1
102
RTVSPropertyOp62
 70
     1
  0
XRECORD
  5
2E6D
102
{ACAD_REACTORS
330
2E6C
102
}
330
2E6C
100
AcDbXrecord
280
     1
102
RTVSPost2010Prop28
280
     0
102
RTVSPost2010PropOp28
 70
     1
102
RTVSPost2010Prop29
280
     1
102
RTVSPost2010PropOp29
 70
     1
102
RTVSPost2010Prop30
280
     1
102
RTVSPost2010PropOp30
 70
     1
102
RTVSPost2010Prop31
280
     0
102
RTVSPost2010PropOp31
 70
     1
102
RTVSPost2010Prop32
280
     0
102
RTVSPost2010PropOp32
 70
     1
102
RTVSPost2010Prop33
280
     0
102
RTVSPost2010PropOp33
 70
     1
102
RTVSPost2010Prop34
280
     0
102
RTVSPost2010PropOp34
 70
     1
102
RTVSPost2010Prop35
280
     0
102
RTVSPost2010PropOp35
 70
     1
102
RTVSPost2010Prop36
280
     0
102
RTVSPost2010PropOp36
 70
     1
102
RTVSPost2010Prop37
 90
       50
102
RTVSPost2010PropOp37
 70
     1
102
RTVSPost2010Prop38
140
0.0
102
RTVSPost2010PropOp38
 70
     1
102
RTVSPost2010Prop39
140
1.0
102
RTVSPost2010PropOp39
 70
     1
102
RTVSPost2010Prop40
 90
        0
102
RTVSPost2010PropOp40
 70
     1
102
RTVSPost2010Prop41ColorIndex
 90
       18
102
RTVSPost2010Prop41ColorRGB
 90
        0
102
RTVSPost2010PropOp41
 70
     1
102
RTVSPost2010Prop42
 90
       50
102
RTVSPost2010PropOp42
 70
     1
102
RTVSPost2010Prop43
 90
        3
102
RTVSPost2010PropOp43
 70
     1
102
RTVSPost2010Prop44ColorIndex
 90
        5
102
RTVSPost2010Prop44ColorRGB
 90
      255
102
RTVSPost2010PropOp44
 70
     1
102
RTVSPost2010Prop45
280
     0
102
RTVSPost2010PropOp45
 70
     1
102
RTVSPost2010Prop46
 90
       50
102
RTVSPost2010PropOp46
 70
     1
102
RTVSPost2010Prop47
 90
       50
102
RTVSPost2010PropOp47
 70
     1
102
RTVSPost2010Prop48
 90
       50
102
RTVSPost2010PropOp48
 70
     1
102
RTVSPost2010Prop49
280
     0
102
RTVSPost2010PropOp49
 70
     1
102
RTVSPost2010Prop50
 90
       50
102
RTVSPost2010PropOp50
 70
     1
102
RTVSPost2010Prop51ColorIndex
 90
      256
102
RTVSPost2010Prop51ColorRGB
 90
-16777216
102
RTVSPost2010PropOp51
 70
     0
102
RTVSPost2010Prop52
140
1.0
102
RTVSPost2010PropOp52
 70
     0
102
RTVSPost2010Prop53
 90
        2
102
RTVSPost2010PropOp53
 70
     1
102
RTVSPost2010Prop54
  1
strokes_ogs.tif
102
RTVSPost2010PropOp54
 70
     1
102
RTVSPost2010Prop55
280
     0
102
RTVSPost2010PropOp55
 70
     1
102
RTVSPost2010Prop56
140
1.0
102
RTVSPost2010PropOp56
 70
     1
102
RTVSPost2010Prop57
140
1.0
102
RTVSPost2010PropOp57
 70
     1
102
RTVSPropertyOp0
 70
     1
102
RTVSPropertyOp1
 70
     1
102
RTVSPropertyOp2
 70
     1
102
RTVSPropertyOp3
 70
     1
102
RTVSPropertyOp4
 70
     1
102
RTVSPropertyOp5
 70
     1
102
RTVSPropertyOp6
 70
     1
102
RTVSPropertyOp7
 70
     1
102
RTVSPropertyOp8
 70
     1
102
RTVSPropertyOp9
 70
     1
102
RTVSPropertyOp10
 70
     1
102
RTVSPropertyOp11
 70
     1
102
RTVSPropertyOp12
 70
     1
102
RTVSPropertyOp13
 70
     1
102
RTVSPropertyOp14
 70
     1
102
RTVSPropertyOp15
 70
     1
102
RTVSPropertyOp16
 70
     1
102
RTVSPropertyOp17
 70
     1
102
RTVSPropertyOp18
 70
     1
102
RTVSPropertyOp19
 70
     1
102
RTVSPropertyOp20
 70
     1
102
RTVSPropertyOp21
 70
     1
102
RTVSPropertyOp22
 70
     1
102
RTVSPropertyOp23
 70
     1
102
RTVSPropertyOp24
 70
     1
102
RTVSPropertyOp25
 70
     1
102
RTVSPropertyOp26
 70
     1
102
RTVSPropertyOp27
 70
     1
102
RTVSPropertyOp28
 70
     1
102
RTVSPropertyOp29
 70
     1
102
RTVSPropertyOp30
 70
     1
102
RTVSPropertyOp31
 70
     1
102
RTVSPropertyOp32
 70
     1
102
RTVSPropertyOp33
 70
     1
102
RTVSPropertyOp34
 70
     1
102
RTVSPropertyOp35
 70
     1
102
RTVSPropertyOp36
 70
     1
102
RTVSPropertyOp37
 70
     1
102
RTVSPropertyOp38
 70
     1
102
RTVSPropertyOp39
 70
     1
102
RTVSPropertyOp40
 70
     1
102
RTVSPropertyOp41
 70
     1
102
RTVSPropertyOp42
 70
     1
102
RTVSPropertyOp43
 70
     1
102
RTVSPropertyOp44
 70
     1
102
RTVSPropertyOp45
 70
     1
102
RTVSPropertyOp46
 70
     1
102
RTVSPropertyOp47
 70
     1
102
RTVSPropertyOp48
 70
     1
102
RTVSPropertyOp49
 70
     1
102
RTVSPropertyOp50
 70
     1
102
RTVSPropertyOp51
 70
     0
102
RTVSPropertyOp52
 70
     0
102
RTVSPropertyOp53
 70
     1
102
RTVSPropertyOp54
 70
     1
102
RTVSPropertyOp55
 70
     1
102
RTVSPropertyOp56
 70
     1
102
RTVSPropertyOp57
 70
     1
102
RTVSPropertyOp58
 70
     1
102
RTVSPropertyOp59
 70
     1
102
RTVSPropertyOp60
 70
     1
102
RTVSPropertyOp61
 70
     1
102
RTVSPropertyOp62
 70
     1
  0
XRECORD
  5
2E85
102
{ACAD_REACTORS
330
2E84
102
}
330
2E84
100
AcDbXrecord
280
     1
102
RTVSPost2010Prop28
280
     0
102
RTVSPost2010PropOp28
 70
     1
102
RTVSPost2010Prop29
280
     1
102
RTVSPost2010PropOp29
 70
     1
102
RTVSPost2010Prop30
280
     1
102
RTVSPost2010PropOp30
 70
     1
102
RTVSPost2010Prop31
280
     0
102
RTVSPost2010PropOp31
 70
     1
102
RTVSPost2010Prop32
280
     0
102
RTVSPost2010PropOp32
 70
     1
102
RTVSPost2010Prop33
280
     0
102
RTVSPost2010PropOp33
 70
     1
102
RTVSPost2010Prop34
280
     0
102
RTVSPost2010PropOp34
 70
     1
102
RTVSPost2010Prop35
280
     0
102
RTVSPost2010PropOp35
 70
     1
102
RTVSPost2010Prop36
280
     0
102
RTVSPost2010PropOp36
 70
     1
102
RTVSPost2010Prop37
 90
       50
102
RTVSPost2010PropOp37
 70
     1
102
RTVSPost2010Prop38
140
0.0
102
RTVSPost2010PropOp38
 70
     1
102
RTVSPost2010Prop39
140
1.0
102
RTVSPost2010PropOp39
 70
     1
102
RTVSPost2010Prop40
 90
        0
102
RTVSPost2010PropOp40
 70
     1
102
RTVSPost2010Prop41ColorIndex
 90
       18
102
RTVSPost2010Prop41ColorRGB
 90
        0
102
RTVSPost2010PropOp41
 70
     1
102
RTVSPost2010Prop42
 90
       50
102
RTVSPost2010PropOp42
 70
     1
102
RTVSPost2010Prop43
 90
        3
102
RTVSPost2010PropOp43
 70
     1
102
RTVSPost2010Prop44ColorIndex
 90
        5
102
RTVSPost2010Prop44ColorRGB
 90
      255
102
RTVSPost2010PropOp44
 70
     1
102
RTVSPost2010Prop45
280
     0
102
RTVSPost2010PropOp45
 70
     1
102
RTVSPost2010Prop46
 90
       50
102
RTVSPost2010PropOp46
 70
     1
102
RTVSPost2010Prop47
 90
       50
102
RTVSPost2010PropOp47
 70
     1
102
RTVSPost2010Prop48
 90
       50
102
RTVSPost2010PropOp48
 70
     1
102
RTVSPost2010Prop49
280
     0
102
RTVSPost2010PropOp49
 70
     1
102
RTVSPost2010Prop50
 90
       50
102
RTVSPost2010PropOp50
 70
     1
102
RTVSPost2010Prop51ColorIndex
 90
      256
102
RTVSPost2010Prop51ColorRGB
 90
-16777216
102
RTVSPost2010PropOp51
 70
     0
102
RTVSPost2010Prop52
140
1.0
102
RTVSPost2010PropOp52
 70
     0
102
RTVSPost2010Prop53
 90
        2
102
RTVSPost2010PropOp53
 70
     1
102
RTVSPost2010Prop54
  1
strokes_ogs.tif
102
RTVSPost2010PropOp54
 70
     1
102
RTVSPost2010Prop55
280
     0
102
RTVSPost2010PropOp55
 70
     1
102
RTVSPost2010Prop56
140
1.0
102
RTVSPost2010PropOp56
 70
     1
102
RTVSPost2010Prop57
140
1.0
102
RTVSPost2010PropOp57
 70
     1
102
RTVSPropertyOp0
 70
     1
102
RTVSPropertyOp1
 70
     1
102
RTVSPropertyOp2
 70
     1
102
RTVSPropertyOp3
 70
     1
102
RTVSPropertyOp4
 70
     1
102
RTVSPropertyOp5
 70
     1
102
RTVSPropertyOp6
 70
     1
102
RTVSPropertyOp7
 70
     1
102
RTVSPropertyOp8
 70
     1
102
RTVSPropertyOp9
 70
     1
102
RTVSPropertyOp10
 70
     1
102
RTVSPropertyOp11
 70
     1
102
RTVSPropertyOp12
 70
     1
102
RTVSPropertyOp13
 70
     1
102
RTVSPropertyOp14
 70
     1
102
RTVSPropertyOp15
 70
     1
102
RTVSPropertyOp16
 70
     1
102
RTVSPropertyOp17
 70
     1
102
RTVSPropertyOp18
 70
     1
102
RTVSPropertyOp19
 70
     1
102
RTVSPropertyOp20
 70
     1
102
RTVSPropertyOp21
 70
     1
102
RTVSPropertyOp22
 70
     1
102
RTVSPropertyOp23
 70
     1
102
RTVSPropertyOp24
 70
     1
102
RTVSPropertyOp25
 70
     1
102
RTVSPropertyOp26
 70
     1
102
RTVSPropertyOp27
 70
     1
102
RTVSPropertyOp28
 70
     1
102
RTVSPropertyOp29
 70
     1
102
RTVSPropertyOp30
 70
     1
102
RTVSPropertyOp31
 70
     1
102
RTVSPropertyOp32
 70
     1
102
RTVSPropertyOp33
 70
     1
102
RTVSPropertyOp34
 70
     1
102
RTVSPropertyOp35
 70
     1
102
RTVSPropertyOp36
 70
     1
102
RTVSPropertyOp37
 70
     1
102
RTVSPropertyOp38
 70
     1
102
RTVSPropertyOp39
 70
     1
102
RTVSPropertyOp40
 70
     1
102
RTVSPropertyOp41
 70
     1
102
RTVSPropertyOp42
 70
     1
102
RTVSPropertyOp43
 70
     1
102
RTVSPropertyOp44
 70
     1
102
RTVSPropertyOp45
 70
     1
102
RTVSPropertyOp46
 70
     1
102
RTVSPropertyOp47
 70
     1
102
RTVSPropertyOp48
 70
     1
102
RTVSPropertyOp49
 70
     1
102
RTVSPropertyOp50
 70
     1
102
RTVSPropertyOp51
 70
     0
102
RTVSPropertyOp52
 70
     0
102
RTVSPropertyOp53
 70
     1
102
RTVSPropertyOp54
 70
     1
102
RTVSPropertyOp55
 70
     1
102
RTVSPropertyOp56
 70
     1
102
RTVSPropertyOp57
 70
     1
102
RTVSPropertyOp58
 70
     1
102
RTVSPropertyOp59
 70
     1
102
RTVSPropertyOp60
 70
     1
102
RTVSPropertyOp61
 70
     1
102
RTVSPropertyOp62
 70
     1
  0
ENDSEC
  0
EOF
