0
SECTION
2
HEADER
9
$ACADVER
1
AC1015
9
$DWGCODEPAGE
3
ANSI_1252
9
$HANDSEED
5
1ac
9
$ANGBASE
50
0
9
$ANGDIR
70
0
9
$ATTMODE
70
1
9
$AUNITS
70
0
9
$AUPREC
70
0
9
$CECOLOR
62
256
9
$CELTSCALE
40
1
9
$CELTYPE
6
ByLayer
9
$CELWEIGHT
370
18
9
$CLAYER
8
0
9
$CMLJUST
70
0
9
$CMLSCALE
40
1
9
$CMLSTYLE
2
Standard
9
$DIMSTYLE
2
Standard
9
$TEXTSIZE
40
0.2
9
$TEXTSTYLE
7
Standard
9
$LUNITS
70
2
9
$LUPREC
70
4
9
$EXTNAMES
290
1
9
$INSUNITS
70
4
9
$LTSCALE
40
1
9
$LWDISPLAY
290
1
9
$PDMODE
70
0
9
$PDSIZE
40
0
9
$PLINEGEN
70
0
0
ENDSEC
0
SECTION
2
CLASSES
0
CLASS
1
RASTERVARIABLES
2
AcDbRasterVariables
3
ISM
90
0
280
0
281
0
0
ENDSEC
0
SECTION
2
TABLES
0
TABLE
2
VPORT
5
1a2
100
AcDbSymbolTable
0
VPORT
5
1
100
AcDbSymbolTableRecord
100
AcDbViewportTableRecord
2
*Active
70
0
10
0
20
0
11
1
21
1
12
-1
22
1
13
0
23
0
14
0.5
24
0.5
15
10
25
10
16
0
26
0
36
1
17
0
27
0
37
0
0
ENDTAB
0
TABLE
2
LTYPE
5
1a3
100
AcDbSymbolTable
0
LTYPE
5
14
100
AcDbSymbolTableRecord
100
AcDbLinetypeTableRecord
70
0
2
ByBlock
3

72
65
73
0
40
0
0
LTYPE
5
15
100
AcDbSymbolTableRecord
100
AcDbLinetypeTableRecord
70
0
2
ByLayer
3

72
65
73
0
40
0
0
LTYPE
5
16
100
AcDbSymbolTableRecord
100
AcDbLinetypeTableRecord
70
0
2
CONTINUOUS
3
Solid line
72
65
73
0
40
0
0
LTYPE
5
6A
100
AcDbSymbolTableRecord
100
AcDbLinetypeTableRecord
70
0
2
CENTER
3
____ _ ____ _ ____ _ ____
72
65
73
4
40
47.5
49
22
74
0
49
-8.5
74
0
49
8.5
74
0
49
-8.5
74
0
0
LTYPE
5
6B
100
AcDbSymbolTableRecord
100
AcDbLinetypeTableRecord
70
0
2
DASHED
3
__ __ __ __ __ __ __ __ __
72
65
73
2
40
25.72
49
12.86
74
0
49
-12.86
74
0
0
ENDTAB
0
TABLE
2
LAYER
5
1a4
100
AcDbSymbolTable
0
LAYER
5
10
100
AcDbSymbolTableRecord
100
AcDbLayerTableRecord
2
0
70
0
62
7
6
CONTINUOUS
290
1
370
-3
390
0
0
LAYER
5
6D
100
AcDbSymbolTableRecord
100
AcDbLayerTableRecord
2
81
70
0
62
-3
6
CONTINUOUS
290
1
370
-3
390
0
0
LAYER
5
6F
100
AcDbSymbolTableRecord
100
AcDbLayerTableRecord
2
80
70
0
62
-6
6
CONTINUOUS
290
1
370
-3
390
0
0
LAYER
5
74
100
AcDbSymbolTableRecord
100
AcDbLayerTableRecord
2
2
70
0
62
7
6
CONTINUOUS
290
1
370
-3
390
0
0
LAYER
5
78
100
AcDbSymbolTableRecord
100
AcDbLayerTableRecord
2
1
70
0
62
4
6
CONTINUOUS
290
1
370
-3
390
0
0
LAYER
5
84
100
AcDbSymbolTableRecord
100
AcDbLayerTableRecord
2
4
70
0
62
-2
6
CENTER
290
1
370
-3
390
0
0
LAYER
5
18e
100
AcDbSymbolTableRecord
100
AcDbLayerTableRecord
2
SK2
70
0
62
7
6
CONTINUOUS
290
1
370
-3
390
0
0
LAYER
5
18f
100
AcDbSymbolTableRecord
100
AcDbLayerTableRecord
2
SK1
70
0
62
4
6
CONTINUOUS
290
1
370
-3
390
0
0
LAYER
5
190
100
AcDbSymbolTableRecord
100
AcDbLayerTableRecord
2
SK4
70
0
62
2
6
CENTER
290
1
370
-3
390
0
0
LAYER
5
191
100
AcDbSymbolTableRecord
100
AcDbLayerTableRecord
2
SK6
70
0
62
5
6
CONTINUOUS
290
1
370
-3
390
0
0
ENDTAB
0
TABLE
2
STYLE
5
1a5
100
AcDbSymbolTable
0
STYLE
5
11
100
AcDbSymbolTableRecord
100
AcDbTextStyleTableRecord
2
Standard
3
txt
70
0
71
0
40
0
41
1
42
0
50
0
0
STYLE
5
EA
100
AcDbSymbolTableRecord
100
AcDbTextStyleTableRecord
2
iso_b_vert
3
simplex.shx
70
0
71
0
40
0
41
1
42
0
50
0
0
STYLE
5
EB
100
AcDbSymbolTableRecord
100
AcDbTextStyleTableRecord
2
DWGDirectTextStyle
3
simplex
70
0
71
0
40
0
41
1
42
0
50
0
0
ENDTAB
0
TABLE
2
DIMSTYLE
5
1a6
100
AcDbSymbolTable
100
AcDbDimStyleTable
0
DIMSTYLE
105
27
100
AcDbSymbolTableRecord
100
AcDbDimStyleTableRecord
2
Standard
70
0
3
<>
41
0.18
42
0.0625
44
0.18
140
0.18
147
0.09
73
0
74
0
77
1
271
2
275
0
278
52
280
0
340
11
0
ENDTAB
0
TABLE
2
VIEW
5
1a7
100
AcDbSymbolTable
0
ENDTAB
0
TABLE
2
UCS
5
1a8
100
AcDbSymbolTable
0
ENDTAB
0
TABLE
2
APPID
5
1a9
100
AcDbSymbolTable
0
APPID
5
12
100
AcDbSymbolTableRecord
100
AcDbRegAppTableRecord
2
ACAD
70
0
0
ENDTAB
0
TABLE
2
BLOCK_RECORD
5
1aa
100
AcDbSymbolTable
0
BLOCK_RECORD
5
1F
100
AcDbSymbolTableRecord
100
AcDbBlockTableRecord
2
*Model_Space
340
0
70
0
0
BLOCK_RECORD
5
1B
100
AcDbSymbolTableRecord
100
AcDbBlockTableRecord
2
*Paper_Space
340
0
70
0
0
BLOCK_RECORD
5
23
100
AcDbSymbolTableRecord
100
AcDbBlockTableRecord
2
*Paper_Space0
340
0
70
0
0
BLOCK_RECORD
5
ED
100
AcDbSymbolTableRecord
100
AcDbBlockTableRecord
2
DimnDraft3D1
340
0
70
0
0
BLOCK_RECORD
5
F7
100
AcDbSymbolTableRecord
100
AcDbBlockTableRecord
2
DimnDraft3D2
340
0
70
0
0
BLOCK_RECORD
5
101
100
AcDbSymbolTableRecord
100
AcDbBlockTableRecord
2
DimnDraft3D3
340
0
70
0
0
BLOCK_RECORD
5
10B
100
AcDbSymbolTableRecord
100
AcDbBlockTableRecord
2
DimnDraft3D4
340
0
70
0
0
BLOCK_RECORD
5
115
100
AcDbSymbolTableRecord
100
AcDbBlockTableRecord
2
DimnDraft3D5
340
0
70
0
0
BLOCK_RECORD
5
11F
100
AcDbSymbolTableRecord
100
AcDbBlockTableRecord
2
DimnDraft3D6
340
0
70
0
0
BLOCK_RECORD
5
12A
100
AcDbSymbolTableRecord
100
AcDbBlockTableRecord
2
DimnDraft3D7
340
0
70
0
0
ENDTAB
0
ENDSEC
0
SECTION
2
BLOCKS
0
BLOCK
5
20
100
AcDbEntity
8
0
100
AcDbBlockBegin
2
*Model_Space
70
0
10
0
20
0
30
0
3
*Model_Space
0
ENDBLK
5
21
100
AcDbEntity
8
0
100
AcDbBlockEnd
0
BLOCK
5
1C
100
AcDbEntity
8
0
100
AcDbBlockBegin
2
*Paper_Space
70
0
10
0
20
0
30
0
3
*Paper_Space
0
ENDBLK
5
1D
100
AcDbEntity
8
0
100
AcDbBlockEnd
0
BLOCK
5
24
100
AcDbEntity
8
0
100
AcDbBlockBegin
2
*Paper_Space0
70
0
10
0
20
0
30
0
3
*Paper_Space0
0
ENDBLK
5
25
100
AcDbEntity
8
0
100
AcDbBlockEnd
0
BLOCK
5
F4
100
AcDbEntity
8
0
100
AcDbBlockBegin
2
DimnDraft3D1
70
0
10
0
20
0
30
0
3
DimnDraft3D1
0
MTEXT
5
EE
100
AcDbEntity
8
2
62
256
6
ByLayer
370
13
48
1
60
0
100
AcDbMText
10
18.162464
20
-13.588398
30
0
210
0
220
0
230
1
1
\W0.7494;47,61
40
3.5
41
0
44
1.084337
50
0
71
7
72
5
7
iso_b_vert
0
LINE
5
EF
100
AcDbEntity
8
2
62
256
6
ByLayer
370
13
48
1
60
0
100
AcDbLine
10
0
20
-1.5875
30
0
11
0
21
-16.463398
31
0
39
0
210
0
220
0
230
1
0
LINE
5
F0
100
AcDbEntity
8
2
62
256
6
ByLayer
370
13
48
1
60
0
100
AcDbLine
10
47.6078
20
-5.8375
30
0
11
47.6078
21
-16.463398
31
0
39
0
210
0
220
0
230
1
0
LINE
5
F1
100
AcDbEntity
8
2
62
256
6
ByLayer
370
13
48
1
60
0
100
AcDbLine
10
0
20
-14.463398
30
0
11
47.6078
21
-14.463398
31
0
39
0
210
0
220
0
230
1
0
SOLID
5
F2
100
AcDbEntity
8
2
62
256
6
ByLayer
370
13
48
1
60
0
100
AcDbTrace
10
0
20
-14.463398
30
0
11
3.499998
21
-14.002615
31
0
12
3.500002
22
-14.924182
32
0
13
0
23
-14.463398
33
0
39
0
210
0
220
0
230
1
0
SOLID
5
F3
100
AcDbEntity
8
2
62
256
6
ByLayer
370
13
48
1
60
0
100
AcDbTrace
10
47.6078
20
-14.463398
30
0
11
44.107802
21
-14.924182
31
0
12
44.107798
22
-14.002615
32
0
13
47.6078
23
-14.463398
33
0
39
0
210
0
220
0
230
1
0
ENDBLK
5
F5
100
AcDbEntity
8
0
100
AcDbBlockEnd
0
BLOCK
5
FE
100
AcDbEntity
8
0
100
AcDbBlockBegin
2
DimnDraft3D2
70
0
10
0
20
0
30
0
3
DimnDraft3D2
0
MTEXT
5
F8
100
AcDbEntity
8
SK2
62
256
6
ByLayer
370
13
48
1
60
0
100
AcDbMText
10
0.000416
20
-32.817985
30
0
210
0
220
0
230
1
1
\W0.7317;89,00
40
3.5
41
0
44
1.084337
50
0
71
7
72
5
7
iso_b_vert
0
LINE
5
F9
100
AcDbEntity
8
SK2
62
256
6
ByLayer
370
13
48
1
60
0
100
AcDbLine
10
-40
20
-6.5875
30
0
11
-40
21
-35.692985
31
0
39
0
210
0
220
0
230
1
0
LINE
5
FA
100
AcDbEntity
8
SK2
62
256
6
ByLayer
370
13
48
1
60
0
100
AcDbLine
10
49
20
-1.5875
30
0
11
49
21
-35.692985
31
0
39
0
210
0
220
0
230
1
0
LINE
5
FB
100
AcDbEntity
8
SK2
62
256
6
ByLayer
370
13
48
1
60
0
100
AcDbLine
10
-40
20
-33.692985
30
0
11
49
21
-33.692985
31
0
39
0
210
0
220
0
230
1
0
SOLID
5
FC
100
AcDbEntity
8
SK2
62
256
6
ByLayer
370
13
48
1
60
0
100
AcDbTrace
10
-40
20
-33.692985
30
0
11
-36.500002
21
-33.232202
31
0
12
-36.499998
22
-34.153769
32
0
13
-40
23
-33.692985
33
0
39
0
210
0
220
0
230
1
0
SOLID
5
FD
100
AcDbEntity
8
SK2
62
256
6
ByLayer
370
13
48
1
60
0
100
AcDbTrace
10
49
20
-33.692985
30
0
11
45.500002
21
-34.153769
31
0
12
45.499998
22
-33.232202
32
0
13
49
23
-33.692985
33
0
39
0
210
0
220
0
230
1
0
ENDBLK
5
FF
100
AcDbEntity
8
0
100
AcDbBlockEnd
0
BLOCK
5
108
100
AcDbEntity
8
0
100
AcDbBlockBegin
2
DimnDraft3D3
70
0
10
0
20
0
30
0
3
DimnDraft3D3
0
MTEXT
5
102
100
AcDbEntity
8
SK2
62
256
6
ByLayer
370
13
48
1
60
0
100
AcDbMText
10
31.106316
20
16.734119
30
0
210
0
220
0
230
1
1
\W0.7402;26,89
40
3.5
41
0
44
1.084337
50
0
71
7
72
5
7
iso_b_vert
0
LINE
5
103
100
AcDbEntity
8
SK2
62
256
6
ByLayer
370
13
48
1
60
0
100
AcDbLine
10
22.11
20
5.8375
30
0
11
22.11
21
17.859119
31
0
39
0
210
0
220
0
230
1
0
LINE
5
104
100
AcDbEntity
8
SK2
62
256
6
ByLayer
370
13
48
1
60
0
100
AcDbLine
10
49
20
1.5875
30
0
11
49
21
17.859119
31
0
39
0
210
0
220
0
230
1
0
LINE
5
105
100
AcDbEntity
8
SK2
62
256
6
ByLayer
370
13
48
1
60
0
100
AcDbLine
10
22.11
20
15.859119
30
0
11
49
21
15.859119
31
0
39
0
210
0
220
0
230
1
0
SOLID
5
106
100
AcDbEntity
8
SK2
62
256
6
ByLayer
370
13
48
1
60
0
100
AcDbTrace
10
22.11
20
15.859119
30
0
11
25.609998
21
16.319903
31
0
12
25.610002
22
15.398335
32
0
13
22.11
23
15.859119
33
0
39
0
210
0
220
0
230
1
0
SOLID
5
107
100
AcDbEntity
8
SK2
62
256
6
ByLayer
370
13
48
1
60
0
100
AcDbTrace
10
49
20
15.859119
30
0
11
45.500002
21
15.398335
31
0
12
45.499998
22
16.319903
32
0
13
49
23
15.859119
33
0
39
0
210
0
220
0
230
1
0
ENDBLK
5
109
100
AcDbEntity
8
0
100
AcDbBlockEnd
0
BLOCK
5
112
100
AcDbEntity
8
0
100
AcDbBlockBegin
2
DimnDraft3D4
70
0
10
0
20
0
30
0
3
DimnDraft3D4
0
MTEXT
5
10C
100
AcDbEntity
8
SK2
62
256
6
ByLayer
370
13
48
1
60
0
100
AcDbMText
10
56.278136
20
-16.177503
30
0
210
0
220
0
230
1
1
\W0.6463;1,39
40
3.5
41
0
44
1.084337
50
0
71
7
72
5
7
iso_b_vert
0
LINE
5
10D
100
AcDbEntity
8
SK2
62
256
6
ByLayer
370
13
48
1
60
0
100
AcDbLine
10
49
20
-1.5875
30
0
11
49
21
-19.052503
31
0
39
0
210
0
220
0
230
1
0
LINE
5
10E
100
AcDbEntity
8
SK2
62
256
6
ByLayer
370
13
48
1
60
0
100
AcDbLine
10
47.6078
20
-5.8375
30
0
11
47.6078
21
-19.052503
31
0
39
0
210
0
220
0
230
1
0
LINE
5
10F
100
AcDbEntity
8
SK2
62
256
6
ByLayer
370
13
48
1
60
0
100
AcDbLine
10
38.8578
20
-17.052503
30
0
11
62.559715
21
-17.052503
31
0
39
0
210
0
220
0
230
1
0
SOLID
5
110
100
AcDbEntity
8
SK2
62
256
6
ByLayer
370
13
48
1
60
0
100
AcDbTrace
10
49
20
-17.052503
30
0
11
52.499998
21
-16.591719
31
0
12
52.500002
22
-17.513287
32
0
13
49
23
-17.052503
33
0
39
0
210
0
220
0
230
1
0
SOLID
5
111
100
AcDbEntity
8
SK2
62
256
6
ByLayer
370
13
48
1
60
0
100
AcDbTrace
10
47.6078
20
-17.052503
30
0
11
44.107802
21
-17.513287
31
0
12
44.107798
22
-16.591719
32
0
13
47.6078
23
-17.052503
33
0
39
0
210
0
220
0
230
1
0
ENDBLK
5
113
100
AcDbEntity
8
0
100
AcDbBlockEnd
0
BLOCK
5
11C
100
AcDbEntity
8
0
100
AcDbBlockBegin
2
DimnDraft3D5
70
0
10
0
20
0
30
0
3
DimnDraft3D5
0
MTEXT
5
116
100
AcDbEntity
8
SK2
62
256
6
ByLayer
370
13
48
1
60
0
100
AcDbMText
10
-2.642708
20
-22.468428
30
0
210
0
220
0
230
1
1
\W0.7211;87,61
40
3.5
41
0
44
1.084337
50
0
71
7
72
5
7
iso_b_vert
0
LINE
5
117
100
AcDbEntity
8
SK2
62
256
6
ByLayer
370
13
48
1
60
0
100
AcDbLine
10
-40
20
-6.5875
30
0
11
-40
21
-25.343428
31
0
39
0
210
0
220
0
230
1
0
LINE
5
118
100
AcDbEntity
8
SK2
62
256
6
ByLayer
370
13
48
1
60
0
100
AcDbLine
10
47.6078
20
-5.8375
30
0
11
47.6078
21
-25.343428
31
0
39
0
210
0
220
0
230
1
0
LINE
5
119
100
AcDbEntity
8
SK2
62
256
6
ByLayer
370
13
48
1
60
0
100
AcDbLine
10
-40
20
-23.343428
30
0
11
47.6078
21
-23.343428
31
0
39
0
210
0
220
0
230
1
0
SOLID
5
11A
100
AcDbEntity
8
SK2
62
256
6
ByLayer
370
13
48
1
60
0
100
AcDbTrace
10
-40
20
-23.343428
30
0
11
-36.500002
21
-22.882645
31
0
12
-36.499998
22
-23.804212
32
0
13
-40
23
-23.343428
33
0
39
0
210
0
220
0
230
1
0
SOLID
5
11B
100
AcDbEntity
8
SK2
62
256
6
ByLayer
370
13
48
1
60
0
100
AcDbTrace
10
47.6078
20
-23.343428
30
0
11
44.107802
21
-23.804212
31
0
12
44.107798
22
-22.882645
32
0
13
47.6078
23
-23.343428
33
0
39
0
210
0
220
0
230
1
0
ENDBLK
5
11D
100
AcDbEntity
8
0
100
AcDbBlockEnd
0
BLOCK
5
127
100
AcDbEntity
8
0
100
AcDbBlockBegin
2
DimnDraft3D6
70
0
10
0
20
0
30
0
3
DimnDraft3D6
0
MTEXT
5
120
100
AcDbEntity
8
SK2
62
256
6
ByLayer
370
13
48
1
60
0
100
AcDbMText
10
-50.375163
20
24.34918
30
0
210
0
220
0
230
1
1
\W0.6930;10,000
40
3.5
41
0
44
1.084337
50
90
71
7
72
5
7
iso_b_vert
0
MTEXT
5
121
100
AcDbEntity
8
SK2
62
256
6
ByLayer
370
13
48
1
60
0
100
AcDbMText
10
-50.375163
20
19.126524
30
0
210
0
220
0
230
1
1
%%c
40
3.5
41
0
44
1.084337
50
90
71
7
72
5
7
iso_b_vert
0
LINE
5
122
100
AcDbEntity
8
SK2
62
256
6
ByLayer
370
13
48
1
60
0
100
AcDbLine
10
-41.5875
20
-5
30
0
11
-50.625163
21
-5
31
0
39
0
210
0
220
0
230
1
0
LINE
5
123
100
AcDbEntity
8
SK2
62
256
6
ByLayer
370
13
48
1
60
0
100
AcDbLine
10
-41.5875
20
5
30
0
11
-50.625163
21
5
31
0
39
0
210
0
220
0
230
1
0
LINE
5
124
100
AcDbEntity
8
SK2
62
256
6
ByLayer
370
13
48
1
60
0
100
AcDbLine
10
-48.625163
20
-5
30
0
11
-48.625163
21
35.862338
31
0
39
0
210
0
220
0
230
1
0
SOLID
5
125
100
AcDbEntity
8
SK2
62
256
6
ByLayer
370
13
48
1
60
0
100
AcDbTrace
10
-48.625163
20
-5
30
0
11
-49.085946
21
-1.500002
31
0
12
-48.164379
22
-1.499998
32
0
13
-48.625163
23
-5
33
0
39
0
210
0
220
0
230
1
0
SOLID
5
126
100
AcDbEntity
8
SK2
62
256
6
ByLayer
370
13
48
1
60
0
100
AcDbTrace
10
-48.625163
20
5
30
0
11
-48.164379
21
1.500002
31
0
12
-49.085946
22
1.499998
32
0
13
-48.625163
23
5
33
0
39
0
210
0
220
0
230
1
0
ENDBLK
5
128
100
AcDbEntity
8
0
100
AcDbBlockEnd
0
BLOCK
5
132
100
AcDbEntity
8
0
100
AcDbBlockBegin
2
DimnDraft3D7
70
0
10
0
20
0
30
0
3
DimnDraft3D7
0
MTEXT
5
12B
100
AcDbEntity
8
2
62
256
6
ByLayer
370
13
48
1
60
0
100
AcDbMText
10
59.333343
20
22.192266
30
0
210
0
220
0
230
1
1
\W0.7317;8,500
40
3.5
41
0
44
1.084337
50
90
71
7
72
5
7
iso_b_vert
0
MTEXT
5
12C
100
AcDbEntity
8
2
62
256
6
ByLayer
370
13
48
1
60
0
100
AcDbMText
10
59.333343
20
16.96961
30
0
210
0
220
0
230
1
1
%%c
40
3.5
41
0
44
1.084337
50
90
71
7
72
5
7
iso_b_vert
0
LINE
5
12D
100
AcDbEntity
8
2
62
256
6
ByLayer
370
13
48
1
60
0
100
AcDbLine
10
49.1953
20
-4.25
30
0
11
63.083343
21
-4.25
31
0
39
0
210
0
220
0
230
1
0
LINE
5
12E
100
AcDbEntity
8
2
62
256
6
ByLayer
370
13
48
1
60
0
100
AcDbLine
10
49.1953
20
4.25
30
0
11
63.083343
21
4.25
31
0
39
0
210
0
220
0
230
1
0
LINE
5
12F
100
AcDbEntity
8
2
62
256
6
ByLayer
370
13
48
1
60
0
100
AcDbLine
10
61.083343
20
-4.25
30
0
11
61.083343
21
31.964635
31
0
39
0
210
0
220
0
230
1
0
SOLID
5
130
100
AcDbEntity
8
2
62
256
6
ByLayer
370
13
48
1
60
0
100
AcDbTrace
10
61.083343
20
-4.25
30
0
11
60.622559
21
-0.750002
31
0
12
61.544126
22
-0.749998
32
0
13
61.083343
23
-4.25
33
0
39
0
210
0
220
0
230
1
0
SOLID
5
131
100
AcDbEntity
8
2
62
256
6
ByLayer
370
13
48
1
60
0
100
AcDbTrace
10
61.083343
20
4.25
30
0
11
61.544126
21
0.750002
31
0
12
60.622559
22
0.749998
32
0
13
61.083343
23
4.25
33
0
39
0
210
0
220
0
230
1
0
ENDBLK
5
133
100
AcDbEntity
8
0
100
AcDbBlockEnd
0
ENDSEC
0
SECTION
2
ENTITIES
0
ARC
5
99
100
AcDbEntity
8
1
62
256
6
ByLayer
370
18
48
1
60
0
100
AcDbCircle
39
0
10
0
20
4.2
30
0
40
0.799999999999996
210
0
220
0
230
1
100
AcDbArc
50
27.513764
51
90
0
ARC
5
9A
100
AcDbEntity
8
1
62
256
6
ByLayer
370
18
48
1
60
0
100
AcDbCircle
39
0
10
-1.41904
20
4.939139
30
0
40
0.800000000000003
210
0
220
0
230
-1
100
AcDbArc
50
269.86249
51
332.486236
0
ARC
5
9B
100
AcDbEntity
8
1
62
256
6
ByLayer
370
18
48
1
60
0
100
AcDbCircle
39
0
10
0
20
-4.2
30
0
40
0.799999999999996
210
0
220
0
230
1
100
AcDbArc
50
270
51
332.486236
0
ARC
5
9C
100
AcDbEntity
8
1
62
256
6
ByLayer
370
18
48
1
60
0
100
AcDbCircle
39
0
10
-1.41904
20
-4.939139
30
0
40
0.800000000000003
210
0
220
0
230
-1
100
AcDbArc
50
27.513764
51
90.13751
0
ELLIPSE
5
9D
100
AcDbEntity
8
1
62
256
6
ByLayer
370
13
48
1
60
0
100
AcDbEllipse
10
49.120824
20
2.257819
30
0
11
2.45052313441603
21
-1.21375060331582
31
0
210
0
220
0
230
-1
40
0.715108
41
1.84170957443651
42
2.00668351172111
0
ELLIPSE
5
9E
100
AcDbEntity
8
1
62
256
6
ByLayer
370
13
48
1
60
0
100
AcDbEllipse
10
47.819551
20
0.954548
30
0
11
0.182972835236731
21
0.237741333312977
31
0
210
0
220
0
230
1
40
0.455639
41
0.912984858149085
42
2.15012741233614
0
ELLIPSE
5
9F
100
AcDbEntity
8
1
62
256
6
ByLayer
370
18
48
1
60
0
100
AcDbEllipse
10
47.195812
20
1.434596
30
0
11
1.71557613346033
21
-1.11353633359384
31
0
210
0
220
0
230
-1
40
0.12325
41
-0.0798284010971286
42
0.0403034312429957
0
ELLIPSE
5
A0
100
AcDbEntity
8
1
62
256
6
ByLayer
370
13
48
1
60
0
100
AcDbEllipse
10
4.185953
20
0.566263
30
0
11
-0.0463236501735888
21
-0.0886234699986125
31
0
210
0
220
0
230
1
40
0.336931
41
-1.25707159553982
42
0.0284281037808782
0
ELLIPSE
5
A1
100
AcDbEntity
8
1
62
256
6
ByLayer
370
18
48
1
60
0
100
AcDbEllipse
10
48.916869
20
0.110019
30
0
11
0.166900986522997
21
0.249907615947849
31
0
210
0
220
0
230
-1
40
0.487455
41
-2.11736978758616
42
-1.00035906630542
0
ELLIPSE
5
A2
100
AcDbEntity
8
1
62
256
6
ByLayer
370
13
48
1
60
0
100
AcDbEllipse
10
4.250427
20
0.534525
30
0
11
0.0422579649778936
21
0.0906325791088785
31
0
210
0
220
0
230
1
40
0.05833
41
3.04279753683628
42
-1.68856832598177
0
POINT
5
6C
100
AcDbEntity
8
81
62
256
6
ByLayer
370
18
48
1
60
0
100
AcDbPoint
10
49
20
0
30
0
39
0
210
0
220
0
230
1
50
360
0
POINT
5
6E
100
AcDbEntity
8
80
62
256
6
ByLayer
370
18
48
1
60
0
100
AcDbPoint
10
0
20
0
30
0
39
0
210
0
220
0
230
1
50
360
0
POINT
5
70
100
AcDbEntity
8
SK2
62
256
6
ByLayer
370
18
48
1
60
1
100
AcDbPoint
10
-40
20
-5
30
0
39
0
210
0
220
0
230
1
50
360
0
POINT
5
72
100
AcDbEntity
8
SK2
62
256
6
ByLayer
370
18
48
1
60
1
100
AcDbPoint
10
-40
20
5
30
0
39
0
210
0
220
0
230
1
50
360
0
POINT
5
73
100
AcDbEntity
8
2
62
256
6
ByLayer
370
18
48
1
60
1
100
AcDbPoint
10
47.6078
20
-4.25
30
0
39
0
210
0
220
0
230
1
50
360
0
POINT
5
75
100
AcDbEntity
8
2
62
256
6
ByLayer
370
18
48
1
60
1
100
AcDbPoint
10
47.6078
20
4.25
30
0
39
0
210
0
220
0
230
1
50
360
0
SPLINE
5
A3
100
AcDbEntity
8
1
62
256
6
ByLayer
370
18
48
1
60
0
100
AcDbSpline
70
4
71
1
72
4
73
2
40
0
40
0
40
1
40
1
41
1
10
5.14858227605035
20
0.0028039394304926
30
0
41
1
10
5.14857217383005
20
0.0028036066356663
30
0
0
SPLINE
5
A4
100
AcDbEntity
8
1
62
256
6
ByLayer
370
18
48
1
60
0
100
AcDbSpline
70
4
71
3
72
17
73
13
40
0
40
0
40
0
40
0
40
0.0204186954689953
40
0.134325172402545
40
0.234949035106502
40
0.315653804940122
40
0.455438602142462
40
0.602885865912009
40
0.669343621586337
40
0.762815470901766
40
0.911510509244413
40
1
40
1
40
1
40
1
41
1
10
16.3692486908877
20
-0.246982578260486
30
0
41
1
10
16.3692765435404
20
-0.246986946295124
30
0
41
1
10
16.3590859919476
20
-0.244156269487178
30
0
41
1
10
16.3203162437125
20
-0.232650483794743
30
0
41
1
10
16.270096311415
20
-0.216319042145159
30
0
41
1
10
16.2001443853309
20
-0.192277747603327
30
0
41
1
10
16.0989799676066
20
-0.154982196996002
30
0
41
1
10
15.9532323228347
20
-0.0973966444317682
30
0
41
1
10
15.8285070373718
20
-0.0459632571132715
30
0
41
1
10
15.6854440350068
20
0.0148145685287204
30
0
41
1
10
15.5202724683306
20
0.0879150652858129
30
0
41
1
10
15.3956738901646
20
0.145626622138593
30
0
41
1
10
15.3482165518236
20
0.167910016963816
30
0
0
SPLINE
5
A5
100
AcDbEntity
8
1
62
256
6
ByLayer
370
18
48
1
60
0
100
AcDbSpline
70
4
71
3
72
24
73
20
40
0
40
0
40
0
40
0
40
0.0061446038323317
40
0.0166317730116088
40
0.0472881448684167
40
0.0927985175120882
40
0.171691797128204
40
0.246340871932453
40
0.319082792055072
40
0.406591165523616
40
0.513092647429928
40
0.569973280867089
40
0.626523867620484
40
0.697598402231208
40
0.761916563413594
40
0.799833284466116
40
0.84842795303404
40
0.923608733686975
40
1
40
1
40
1
40
1
41
1
10
32.3304571434032
20
-0.993357932959981
30
0
41
1
10
32.330653092802
20
-0.993563035546032
30
0
41
1
10
32.3344009715415
20
-0.994267859348412
30
0
41
1
10
32.3725219127373
20
-0.998113316343051
30
0
41
1
10
32.4690690818229
20
-1.00747372934245
30
0
41
1
10
32.6532068577695
20
-1.02679242049541
30
0
41
1
10
32.8892138172628
20
-1.06049022315165
30
0
41
1
10
33.1559678519472
20
-1.10620644364647
30
0
41
1
10
33.4822698173904
20
-1.17061951204158
30
0
41
1
10
33.8293459970972
20
-1.25060712198615
30
0
41
1
10
34.1582942573112
20
-1.33740039547953
30
0
41
1
10
34.4533095225526
20
-1.42478821337426
30
0
41
1
10
34.720879510985
20
-1.50904144057719
30
0
41
1
10
34.9973046938691
20
-1.60158557310277
30
0
41
1
10
35.2501496076152
20
-1.69093080881999
30
0
41
1
10
35.4743211519723
20
-1.77301693239366
30
0
41
1
10
35.7147075965575
20
-1.8639370500542
30
0
41
1
10
36.0107323106904
20
-1.98094892468046
30
0
41
1
10
36.2350945087595
20
-2.07412063263561
30
0
41
1
10
36.3480841492545
20
-2.12220204668265
30
0
0
SPLINE
5
A6
100
AcDbEntity
8
1
62
256
6
ByLayer
370
18
48
1
60
0
100
AcDbSpline
70
4
71
2
72
6
73
3
40
0
40
0
40
0
40
1
40
1
40
1
41
1
10
46.1988927601907
20
-4.07673655625493
30
0
41
1
10
46.854069432031
20
-4.07663223388244
30
0
41
1
10
47.5095434682124
20
-4.08082339669949
30
0
0
SPLINE
5
A7
100
AcDbEntity
8
1
62
256
6
ByLayer
370
18
48
1
60
0
100
AcDbSpline
70
4
71
3
72
27
73
23
40
0
40
0
40
0
40
0
40
0.0689280571695005
40
0.120879359284242
40
0.151253038320466
40
0.180304270154729
40
0.255935472031467
40
0.323086496149989
40
0.372592905016485
40
0.416639950725065
40
0.473081412263843
40
0.543293669490689
40
0.594087808823766
40
0.63367076407195
40
0.677477922279945
40
0.730048140893576
40
0.793803070493358
40
0.837594633936201
40
0.877478692136644
40
0.913457770310619
40
0.952438151639493
40
1
40
1
40
1
40
1
41
1
10
18.9861581464925
20
-4.01132605853371
30
0
41
1
10
19.2243784651522
20
-4.01193117552319
30
0
41
1
10
19.6421569432065
20
-4.01289703073306
30
0
41
1
10
20.1649460561378
20
-4.01379778466702
30
0
41
1
10
20.5499046265489
20
-4.01447117606637
30
0
41
1
10
21.016693080541
20
-4.01540656093584
30
0
41
1
10
21.610618428299
20
-4.0180385994741
30
0
41
1
10
22.275219400445
20
-4.01922200772998
30
0
41
1
10
22.8306666140107
20
-4.02015759194558
30
0
41
1
10
23.3491048216477
20
-4.02066936574712
30
0
41
1
10
23.9390912528967
20
-4.02300425183222
30
0
41
1
10
24.5524195106779
20
-4.02450536403933
30
0
41
1
10
25.1074691954369
20
-4.02501130619561
30
0
41
1
10
25.5712456472325
20
-4.02570956581997
30
0
41
1
10
26.0411765911611
20
-4.02644080022205
30
0
41
1
10
26.5946430335183
20
-4.02961035413526
30
0
41
1
10
27.1480648463381
20
-4.0313000116455
30
0
41
1
10
27.6576353429096
20
-4.03148316311822
30
0
41
1
10
28.0712064422351
20
-4.03170004681354
30
0
41
1
10
28.4679539468264
20
-4.03201422680041
30
0
41
1
10
28.8913432087871
20
-4.03304672442471
30
0
41
1
10
29.1904410707339
20
-4.03409165487781
30
0
41
1
10
29.3548363294364
20
-4.03478499236576
30
0
0
SPLINE
5
A8
100
AcDbEntity
8
1
62
256
6
ByLayer
370
18
48
1
60
0
100
AcDbSpline
70
4
71
3
72
24
73
20
40
0
40
0
40
0
40
0
40
0.0680052683417276
40
0.117866848766459
40
0.16754554733844
40
0.256973781246912
40
0.344902827999014
40
0.409020222451362
40
0.462839131786158
40
0.511795841862551
40
0.574747588234491
40
0.646059943726431
40
0.708576868913103
40
0.756170917126336
40
0.801267996306908
40
0.85188584281971
40
0.90527793995811
40
0.970328346520789
40
1
40
1
40
1
40
1
41
1
10
29.3545731508638
20
4.03479280610381
30
0
41
1
10
29.1677818238726
20
4.03398168871945
30
0
41
1
10
28.8440818334184
20
4.03285304734234
30
0
41
1
10
28.3841502210385
20
4.03191219786748
30
0
41
1
10
27.8653269323086
20
4.03154524803807
30
0
41
1
10
27.2417632366423
20
4.03158200799848
30
0
41
1
10
26.5786056833516
20
4.0294681222602
30
0
41
1
10
26.0132345389009
20
4.02638513230821
30
0
41
1
10
25.5548873783862
20
4.02567972642021
30
0
41
1
10
25.0997563177269
20
4.02501792433185
30
0
41
1
10
24.5965739929047
20
4.02446895473952
30
0
41
1
10
24.0561433290926
20
4.02360829107025
30
0
41
1
10
23.5579021165935
20
4.02119864315389
30
0
41
1
10
23.1316580245974
20
4.0205295114724
30
0
41
1
10
22.7380791396134
20
4.01997204615245
30
0
41
1
10
22.3285861015885
20
4.01933159949078
30
0
41
1
10
21.864303225956
20
4.01842857881331
30
0
41
1
10
21.4575311635023
20
4.01729026001343
30
0
41
1
10
21.1973929831546
20
4.0163008350423
30
0
41
1
10
21.1159051294945
20
4.01600447574145
30
0
0
SPLINE
5
A9
100
AcDbEntity
8
1
62
256
6
ByLayer
370
18
48
1
60
0
100
AcDbSpline
70
4
71
3
72
17
73
13
40
0
40
0
40
0
40
0
40
0.0296479334847432
40
0.10684823181318
40
0.240342849522147
40
0.388879817875432
40
0.518128475782669
40
0.618721444975824
40
0.665759055551134
40
0.751604496043799
40
0.879528720832536
40
1
40
1
40
1
40
1
41
1
10
43.5624621478708
20
-0.245110598341739
30
0
41
1
10
43.5625000184198
20
-0.245099574650368
30
0
41
1
10
43.5515861032575
20
-0.242022752095238
30
0
41
1
10
43.5158464022679
20
-0.231177171199505
30
0
41
1
10
43.461517702391
20
-0.213847732084361
30
0
41
1
10
43.3421519100845
20
-0.171289349041075
30
0
41
1
10
43.2007250810533
20
-0.116483602586356
30
0
41
1
10
43.0815705612805
20
-0.0681940491842568
30
0
41
1
10
42.969359876576
20
-0.0210581465604776
30
0
41
1
10
42.8310027770645
20
0.0388296667550776
30
0
41
1
10
42.6482383532149
20
0.120728267858794
30
0
41
1
10
42.5070226818341
20
0.186339130235893
30
0
41
1
10
42.4373198348202
20
0.219252768789829
30
0
0
SPLINE
5
AA
100
AcDbEntity
8
1
62
256
6
ByLayer
370
18
48
1
60
0
100
AcDbSpline
70
4
71
3
72
8
73
4
40
0
40
0
40
0
40
0
40
1
40
1
40
1
40
1
41
1
10
47.5835786158142
20
-4.10529591281909
30
0
41
1
10
47.5742484090726
20
-4.12933184637441
30
0
41
1
10
47.5649098367678
20
-4.15336462059801
30
0
41
1
10
47.5555636352844
20
-4.17739365258859
30
0
0
SPLINE
5
AB
100
AcDbEntity
8
1
62
256
6
ByLayer
370
18
48
1
60
0
100
AcDbSpline
70
4
71
3
72
10
73
6
40
0
40
0
40
0
40
0
40
0.5
40
0.5
40
1
40
1
40
1
40
1
41
1
10
48.9460614935952
20
0.289533848694845
30
0
41
1
10
48.9513548962101
20
0.254483529535975
30
0
41
1
10
48.9586611812049
20
0.216461373991251
30
0
41
1
10
48.9766861568326
20
0.135385317550885
30
0
41
1
10
48.9875668403153
20
0.0918078271252796
30
0
41
1
10
48.999902501847
20
0.0472553399239359
30
0
0
SPLINE
5
AC
100
AcDbEntity
8
1
62
256
6
ByLayer
370
18
48
1
60
0
100
AcDbSpline
70
4
71
3
72
16
73
12
40
0
40
0
40
0
40
0
40
0.25
40
0.25
40
0.5
40
0.5
40
0.75
40
0.75
40
0.875
40
0.875
40
1
40
1
40
1
40
1
41
1
10
47.299372466598
20
1.18174983053052
30
0
41
1
10
47.2874704199771
20
1.21426408846256
30
0
41
1
10
47.2779205419251
20
1.24723268287025
30
0
41
1
10
47.2654486072836
20
1.31442931325427
30
0
41
1
10
47.2623527613356
20
1.34917094859531
30
0
41
1
10
47.2685640466732
20
1.41833162132801
30
0
41
1
10
47.2774214499487
20
1.45305142770357
30
0
41
1
10
47.3068776350562
20
1.49568828664093
30
0
41
1
10
47.3195645938841
20
1.50783836967253
30
0
41
1
10
47.3488008251461
20
1.52546150023434
30
0
41
1
10
47.3653529759922
20
1.5310450713618
30
0
41
1
10
47.3823958600358
20
1.53384198556972
30
0
0
SPLINE
5
AD
100
AcDbEntity
8
1
62
256
6
ByLayer
370
18
48
1
60
0
100
AcDbSpline
70
4
71
3
72
8
73
4
40
0
40
0
40
0
40
0
40
1
40
1
40
1
40
1
41
1
10
48.9465642724456
20
-0.077125929354537
30
0
41
1
10
48.9458593564928
20
-0.0784683636467776
30
0
41
1
10
48.9451545266757
20
-0.0798108800777584
30
0
41
1
10
48.9444497830073
20
-0.0811534786284369
30
0
0
SPLINE
5
AE
100
AcDbEntity
8
1
62
256
6
ByLayer
370
18
48
1
60
0
100
AcDbSpline
70
4
71
3
72
50
73
46
40
0
40
0
40
0
40
0
40
0.0470686429739095
40
0.0470686429739095
40
0.0941372859478191
40
0.0941372859478191
40
0.141205928921729
40
0.141205928921729
40
0.188274571895638
40
0.188274571895638
40
0.235343214869548
40
0.235343214869548
40
0.258877536356502
40
0.258877536356502
40
0.282411857843456
40
0.282411857843456
40
0.329480500817364
40
0.329480500817364
40
0.353014822304318
40
0.353014822304318
40
0.376549143791272
40
0.376549143791272
40
0.470686429739082
40
0.470686429739082
40
0.517755072712988
40
0.517755072712988
40
0.564823715686893
40
0.564823715686893
40
0.611892358660799
40
0.611892358660799
40
0.658961001634704
40
0.658961001634704
40
0.70602964460861
40
0.70602964460861
40
0.753098287582515
40
0.753098287582515
40
0.800166930556421
40
0.800166930556421
40
0.847235573530326
40
0.847235573530326
40
0.894304216504232
40
0.894304216504232
40
0.941372859478137
40
0.941372859478137
40
1
40
1
40
1
40
1
41
1
10
47.5555636352844
20
-4.17739365258856
30
0
41
1
10
47.1039296972527
20
-4.21717146906232
30
0
41
1
10
46.6526905755179
20
-4.23970351283305
30
0
41
1
10
45.7490665255321
20
-4.25010488502241
30
0
41
1
10
45.2967522256124
20
-4.23791579317529
30
0
41
1
10
44.3934474850807
20
-4.17918208463871
30
0
41
1
10
43.9413988574131
20
-4.13260861357944
30
0
41
1
10
43.0373706721432
20
-4.00612404992779
30
0
41
1
10
42.5864385600402
20
-3.9264659070713
30
0
41
1
10
41.6847695839093
20
-3.73607402599842
30
0
41
1
10
41.2339987223648
20
-3.62535749776239
30
0
41
1
10
40.5562715071833
20
-3.43763868179843
30
0
41
1
10
40.3299047144686
20
-3.37137922544733
30
0
41
1
10
39.8778427505132
20
-3.23233363525617
30
0
41
1
10
39.6520786404149
20
-3.15953609929792
30
0
41
1
10
38.9751956061215
20
-2.93190004218371
30
0
41
1
10
38.5244363246013
20
-2.76788360194732
30
0
41
1
10
37.8474512767712
20
-2.50594663565195
30
0
41
1
10
37.6216691694531
20
-2.41594912637132
30
0
41
1
10
37.1695610482648
20
-2.23106602763372
30
0
41
1
10
36.9430948193038
20
-2.13612216485652
30
0
41
1
10
35.8128678227787
20
-1.65205308552723
30
0
41
1
10
34.9127144828085
20
-1.2333621669265
30
0
41
1
10
33.5553547299296
20
-0.583814628580711
30
0
41
1
10
33.1028635927613
20
-0.364134557778129
30
0
41
1
10
32.1999853236673
20
0.0753243342895757
30
0
41
1
10
31.7488643346636
20
0.295199484137811
30
0
41
1
10
30.8452210803559
20
0.731033593221895
30
0
41
1
10
30.3918918625326
20
0.947379515211054
30
0
41
1
10
29.4876230028193
20
1.36931549135969
30
0
41
1
10
29.0363050773307
20
1.57499414022709
30
0
41
1
10
28.1331505936388
20
1.97168232347838
30
0
41
1
10
27.6813257452171
20
2.1627157598609
30
0
41
1
10
26.7751141057092
20
2.52630568297852
30
0
41
1
10
26.3231034053015
20
2.69798892205316
30
0
41
1
10
25.4197268691188
20
3.01747743048742
30
0
41
1
10
24.9682103553374
20
3.16527308144833
30
0
41
1
10
24.0634333100665
20
3.43404253980174
30
0
41
1
10
23.6097744373388
20
3.55520957224192
30
0
41
1
10
22.7052815128098
20
3.76656141005472
30
0
41
1
10
22.2536906415036
20
3.85698795406665
30
0
41
1
10
21.3496404338799
20
4.00563419725714
30
0
41
1
10
20.8968401137371
20
4.0640027696341
30
0
41
1
10
19.8792896898631
20
4.15700636865233
30
0
41
1
10
19.3164871832112
20
4.18212075455463
30
0
41
1
10
18.7533983464468
20
4.18073428516183
30
0
0
SPLINE
5
AF
100
AcDbEntity
8
1
62
256
6
ByLayer
370
13
48
1
60
0
100
AcDbSpline
70
4
71
3
72
10
73
6
40
0
40
0
40
0
40
0
40
0.5
40
0.5
40
1
40
1
40
1
40
1
41
1
10
47.8456972257341
20
1.16587303233862
30
0
41
1
10
47.7649095061708
20
1.2195582070899
30
0
41
1
10
47.6857183699623
20
1.27668396102814
30
0
41
1
10
47.5310457313317
20
1.39888319876897
30
0
41
1
10
47.4553620828702
20
1.46412890145038
30
0
41
1
10
47.3823958600414
20
1.53384198555656
30
0
0
SPLINE
5
B0
100
AcDbEntity
8
1
62
256
6
ByLayer
370
18
48
1
60
0
100
AcDbSpline
70
4
71
3
72
10
73
6
40
0
40
0
40
0
40
0
40
0.845629223625461
40
0.845629223625461
40
1
40
1
40
1
40
1
41
1
10
47.5555636352845
20
4.17739365258856
30
0
41
1
10
47.1041434246235
20
4.21715264494966
30
0
41
1
10
46.652980776873
20
4.23969427437689
30
0
41
1
10
46.118619137717
20
4.24585213970894
30
0
41
1
10
46.0361257838818
20
4.24622346117093
30
0
41
1
10
45.9536320879067
20
4.24601680049955
30
0
0
SPLINE
5
B1
100
AcDbEntity
8
1
62
256
6
ByLayer
370
18
48
1
60
0
100
AcDbSpline
70
4
71
3
72
34
73
30
40
0
40
0
40
0
40
0
40
0.0384603188381028
40
0.0384603188381028
40
0.118588625601596
40
0.118588625601596
40
0.198716932365088
40
0.198716932365088
40
0.278845239128581
40
0.278845239128581
40
0.318909392510327
40
0.318909392510327
40
0.358973545892073
40
0.358973545892073
40
0.519230159419056
40
0.519230159419056
40
0.559294312800801
40
0.559294312800801
40
0.599358466182547
40
0.599358466182547
40
0.679486772946037
40
0.679486772946037
40
0.759615079709528
40
0.759615079709528
40
0.839743386473019
40
0.839743386473019
40
0.919871693236509
40
0.919871693236509
40
1
40
1
40
1
40
1
41
1
10
21.0971469977626
20
-4.03402612250457
30
0
41
1
10
20.8801231758976
20
-4.06158567950595
30
0
41
1
10
20.663245221768
20
-4.08532098317133
30
0
41
1
10
19.9945803347529
20
-4.14653542446129
30
0
41
1
10
19.5427654641858
20
-4.17102571175883
30
0
41
1
10
18.6371384485317
20
-4.18578676441899
30
0
41
1
10
18.1835279675963
20
-4.17596022391677
30
0
41
1
10
17.2789675336096
20
-4.12233311639059
30
0
41
1
10
16.8272134753905
20
-4.07857804887055
30
0
41
1
10
16.148823536931
20
-3.98822532402261
30
0
41
1
10
15.9225467162236
20
-3.95400155315096
30
0
41
1
10
15.4694758031667
20
-3.87746273206412
30
0
41
1
10
15.2425128186387
20
-3.83510666660658
30
0
41
1
10
14.1097346832975
20
-3.60423808686787
30
0
41
1
10
13.2075614079789
20
-3.35809937716075
30
0
41
1
10
12.0741111070533
20
-2.9864097223014
30
0
41
1
10
11.8470764605228
20
-2.90885854750533
30
0
41
1
10
11.3939475487543
20
-2.74819054093498
30
0
41
1
10
11.1676529166931
20
-2.6649946578226
30
0
41
1
10
10.4890133332348
20
-2.40775363366498
30
0
41
1
10
10.0368922455538
20
-2.22609530699839
30
0
41
1
10
9.13128158217918
20
-1.84596768724623
30
0
41
1
10
8.67715705811153
20
-1.64702536568603
30
0
41
1
10
7.77029105564671
20
-1.23796585348731
30
0
41
1
10
7.31729872388453
20
-1.02793867443529
30
0
41
1
10
6.41017574307048
20
-0.600975701567279
30
0
41
1
10
5.95597305037634
20
-0.384021966410643
30
0
41
1
10
5.04927285387231
20
0.0503400044305238
30
0
41
1
10
4.59606714795666
20
0.267814535189984
30
0
41
1
10
4.14204495889612
20
0.483570789325341
30
0
0
SPLINE
5
B2
100
AcDbEntity
8
1
62
256
6
ByLayer
370
18
48
1
60
0
100
AcDbSpline
70
4
71
3
72
32
73
28
40
0
40
0
40
0
40
0
40
0.0298119670065784
40
0.0298119670065784
40
0.118010879096889
40
0.118010879096889
40
0.206209791187201
40
0.206209791187201
40
0.294408703277512
40
0.294408703277512
40
0.338508159322667
40
0.338508159322667
40
0.382607615367823
40
0.382607615367823
40
0.470806527458134
40
0.470806527458134
40
0.559005439548445
40
0.559005439548445
40
0.647204351638756
40
0.647204351638756
40
0.735403263729067
40
0.735403263729067
40
0.823602175819378
40
0.823602175819378
40
0.911801087909689
40
0.911801087909689
40
1
40
1
40
1
40
1
41
1
10
37.2169193971137
20
2.47717004248688
30
0
41
1
10
37.3201962438282
20
2.51817385924321
30
0
41
1
10
37.4235264809097
20
2.55862457098269
30
0
41
1
10
37.8330193485642
20
2.716135786509
30
0
41
1
10
38.1401139621654
20
2.82888633010614
30
0
41
1
10
38.7523384099639
20
3.044824862045
30
0
41
1
10
39.057726276363
20
3.14746232935735
30
0
41
1
10
39.6691591933984
20
3.33931138741042
30
0
41
1
10
39.9748827623374
20
3.42903023121019
30
0
41
1
10
40.4329424571177
20
3.55482730298533
30
0
41
1
10
40.5854843818289
20
3.59534042518874
30
0
41
1
10
40.8911653541231
20
3.67254644320809
30
0
41
1
10
41.044210324661
20
3.70935422379455
30
0
41
1
10
41.5037687097877
20
3.81462258113135
30
0
41
1
10
41.8104042404038
20
3.87808154946305
30
0
41
1
10
42.4213743516833
20
3.99048882274693
30
0
41
1
10
42.7266542724845
20
4.03910706331448
30
0
41
1
10
43.3374056235482
20
4.12110203234548
30
0
41
1
10
43.6425342754347
20
4.15468755466503
30
0
41
1
10
44.252389381084
20
4.20659607513056
30
0
41
1
10
44.5582254972682
20
4.22457365338036
30
0
41
1
10
45.1706951427803
20
4.245029333204
30
0
41
1
10
45.476791825993
20
4.24741317935761
30
0
41
1
10
46.0875168177727
20
4.23626062519446
30
0
41
1
10
46.3929177237409
20
4.22286732749001
30
0
41
1
10
47.0031262832884
20
4.18056900466425
30
0
41
1
10
47.3074800262034
20
4.15140118043828
30
0
41
1
10
47.6124896896493
20
4.11471545467711
30
0
0
SPLINE
5
B3
100
AcDbEntity
8
1
62
256
6
ByLayer
370
18
48
1
60
0
100
AcDbSpline
70
4
71
3
72
10
73
6
40
0
40
0
40
0
40
0
40
0.5
40
0.5
40
1
40
1
40
1
40
1
41
1
10
48.9999025018471
20
0.0472553399239359
30
0
41
1
10
48.9921067910793
20
0.024995996633578
30
0
41
1
10
48.9834102690244
20
0.0025932589154252
30
0
41
1
10
48.9654251037221
20
-0.0393032589992686
30
0
41
1
10
48.9559409247945
20
-0.0592691343576348
30
0
41
1
10
48.9465642724457
20
-0.0771259293545086
30
0
0
SPLINE
5
B4
100
AcDbEntity
8
1
62
256
6
ByLayer
370
18
48
1
60
0
100
AcDbSpline
70
4
71
3
72
16
73
12
40
0
40
0
40
0
40
0
40
0.354862029452768
40
0.354862029452768
40
0.709724058905536
40
0.709724058905536
40
0.798439566268727
40
0.798439566268727
40
0.887155073631918
40
0.887155073631918
40
1
40
1
40
1
40
1
41
1
10
4.20785375455006
20
0.444577969737935
30
0
41
1
10
5.11899379698687
20
0.0187072983702876
30
0
41
1
10
6.02168640410426
20
-0.411472195271728
30
0
41
1
10
7.82663074668017
20
-1.24541679905698
30
0
41
1
10
8.72867374425522
20
-1.64958832281812
30
0
41
1
10
9.86598842380769
20
-2.11716143209358
30
0
41
1
10
10.0942214645704
20
-2.20894009015839
30
0
41
1
10
10.5489278007314
20
-2.3871643594326
30
0
41
1
10
10.7756919661367
20
-2.47373623895717
30
0
41
1
10
11.2898483233807
20
-2.66422597357681
30
0
41
1
10
11.5770194492429
20
-2.7663909082649
30
0
41
1
10
11.8637404156721
20
-2.86370556960932
30
0
0
SPLINE
5
B5
100
AcDbEntity
8
1
62
256
6
ByLayer
370
13
48
1
60
0
100
AcDbSpline
70
4
71
3
72
20
73
16
40
0
40
0
40
0
40
0
40
0.0569071881045688
40
0.0569071881045688
40
0.369577837781026
40
0.369577837781026
40
0.525913162619254
40
0.525913162619254
40
0.604080825038366
40
0.604080825038366
40
0.682248487457479
40
0.682248487457479
40
0.994919137133934
40
0.994919137133934
40
1
40
1
40
1
40
1
41
1
10
11.8637397805035
20
-2.86370535402961
30
0
41
1
10
12.0278429458187
20
-2.91940286822103
30
0
41
1
10
12.1917986486548
20
-2.97351153862337
30
0
41
1
10
13.2559174069598
20
-3.31414768109829
30
0
41
1
10
14.152826965981
20
-3.55295935361926
30
0
41
1
10
15.5053380279056
20
-3.82144918450132
30
0
41
1
10
15.9573867355877
20
-3.89597703235572
30
0
41
1
10
16.6385970818459
20
-3.98393003109703
30
0
41
1
10
16.8666051554336
20
-4.00930316584504
30
0
41
1
10
17.3212462698661
20
-4.0515731705766
30
0
41
1
10
17.5480068471651
20
-4.06849963704346
30
0
41
1
10
18.679306137624
20
-4.13192575748326
30
0
41
1
10
19.5771562264485
20
-4.11520103687562
30
0
41
1
10
20.489822356044
20
-4.03157173960045
30
0
41
1
10
20.5044161172091
20
-4.03021731292074
30
0
41
1
10
20.5190100942743
20
-4.02884571020266
30
0
0
SPLINE
5
B6
100
AcDbEntity
8
1
62
256
6
ByLayer
370
18
48
1
60
0
100
AcDbSpline
70
4
71
3
72
42
73
38
40
0
40
0
40
0
40
0
40
0.0625000000000003
40
0.0625000000000003
40
0.125000000000001
40
0.125000000000001
40
0.187500000000001
40
0.187500000000001
40
0.250000000000001
40
0.250000000000001
40
0.312500000000002
40
0.312500000000002
40
0.375000000000002
40
0.375000000000002
40
0.437500000000002
40
0.437500000000002
40
0.500000000000003
40
0.500000000000003
40
0.562500000000003
40
0.562500000000003
40
0.593750000000003
40
0.593750000000003
40
0.625000000000003
40
0.625000000000003
40
0.656250000000004
40
0.656250000000004
40
0.687500000000004
40
0.687500000000004
40
0.750000000000003
40
0.750000000000003
40
0.812500000000002
40
0.812500000000002
40
0.875000000000001
40
0.875000000000001
40
0.937500000000001
40
0.937500000000001
40
1
40
1
40
1
40
1
41
1
10
48.3296033379137
20
-1.77043020297498
30
0
41
1
10
48.3140762713233
20
-1.7480691821871
30
0
41
1
10
48.294708230556
20
-1.73339229836833
30
0
41
1
10
48.2517121110548
20
-1.71801896793485
30
0
41
1
10
48.2277674891348
20
-1.71702243910261
30
0
41
1
10
48.1761715058454
20
-1.72698546003585
30
0
41
1
10
48.1490445972183
20
-1.73779693293929
30
0
41
1
10
48.0923797761066
20
-1.76999695926139
30
0
41
1
10
48.0626929783479
20
-1.79159996168073
30
0
41
1
10
48.0029660873413
20
-1.84388784433591
30
0
41
1
10
47.9726885454033
20
-1.87466321315384
30
0
41
1
10
47.9112441315574
20
-1.94616058863571
30
0
41
1
10
47.8802565189203
20
-1.98677468763705
30
0
41
1
10
47.8199647596233
20
-2.07580378972341
30
0
41
1
10
47.7899986875156
20
-2.12520011417433
30
0
41
1
10
47.7332538349446
20
-2.23135238934185
30
0
41
1
10
47.706582024875
20
-2.28777333826159
30
0
41
1
10
47.6584370085351
20
-2.40707288692101
30
0
41
1
10
47.6377576760242
20
-2.46808919247815
30
0
41
1
10
47.6137158961768
20
-2.55914412538726
30
0
41
1
10
47.6070501636017
20
-2.58871646887789
30
0
41
1
10
47.5964233612747
20
-2.6462977711594
30
0
41
1
10
47.5924406613433
20
-2.67457200473447
30
0
41
1
10
47.5874817955208
20
-2.72814453257186
30
0
41
1
10
47.5864982822309
20
-2.75319140328148
30
0
41
1
10
47.5873322987489
20
-2.80002820811603
30
0
41
1
10
47.5891910412747
20
-2.82195774372838
30
0
41
1
10
47.5985802568299
20
-2.88103091235897
30
0
41
1
10
47.6100150075922
20
-2.91249019358867
30
0
41
1
10
47.6402052658985
20
-2.95932124681946
30
0
41
1
10
47.6591138310193
20
-2.97501505248206
30
0
41
1
10
47.70166402065
20
-2.99235130890435
30
0
41
1
10
47.7251872049306
20
-2.99415946297199
30
0
41
1
10
47.7761544449793
20
-2.98581135535102
30
0
41
1
10
47.8035113903941
20
-2.97552657825645
30
0
41
1
10
47.8598770286187
20
-2.94444723985257
30
0
41
1
10
47.8893561826685
20
-2.92341904599942
30
0
41
1
10
47.9194142770037
20
-2.89741538553329
30
0
0
SPLINE
5
B7
100
AcDbEntity
8
1
62
256
6
ByLayer
370
18
48
1
60
0
100
AcDbSpline
70
4
71
3
72
10
73
6
40
0
40
0
40
0
40
0
40
0.5
40
0.5
40
1
40
1
40
1
40
1
41
1
10
48.9460614935953
20
-0.289533848694759
30
0
41
1
10
48.9513537940487
20
-0.254490827509159
30
0
41
1
10
48.9586581619068
20
-0.216477175373143
30
0
41
1
10
48.976677917423
20
-0.135420159046873
30
0
41
1
10
48.9875457621172
20
-0.0918839548745609
30
0
41
1
10
48.9999025018491
20
-0.0472553399165179
30
0
0
SPLINE
5
B8
100
AcDbEntity
8
1
62
256
6
ByLayer
370
18
48
1
60
0
100
AcDbSpline
70
4
71
3
72
20
73
16
40
0
40
0
40
0
40
0
40
0.250000000000014
40
0.250000000000014
40
0.500000000000029
40
0.500000000000029
40
0.625000000000022
40
0.625000000000022
40
0.750000000000015
40
0.750000000000015
40
0.875000000000007
40
0.875000000000007
40
0.937500000000004
40
0.937500000000004
40
1
40
1
40
1
40
1
41
1
10
47.3823958600375
20
1.53384198556992
30
0
41
1
10
47.4877963461269
20
1.55113929959216
30
0
41
1
10
47.5924752333766
20
1.57103997250752
30
0
41
1
10
47.7995806207135
20
1.61928908805183
30
0
41
1
10
47.9020526304005
20
1.64744529418226
30
0
41
1
10
48.0527606823022
20
1.70146599811053
30
0
41
1
10
48.1024873988662
20
1.72147490893866
30
0
41
1
10
48.200385185497
20
1.76779773629482
30
0
41
1
10
48.2482700076658
20
1.79401431411912
30
0
41
1
10
48.3375356411368
20
1.85449448824085
30
0
41
1
10
48.3798524269967
20
1.8894082819007
30
0
41
1
10
48.4336936257656
20
1.95052824063291
30
0
41
1
10
48.4499522782728
20
1.9722590923954
30
0
41
1
10
48.4782819522366
20
2.01913358422252
30
0
41
1
10
48.4902067374601
20
2.04421381586303
30
0
41
1
10
48.499203486765
20
2.07001008005221
30
0
0
SPLINE
5
B9
100
AcDbEntity
8
1
62
256
6
ByLayer
370
18
48
1
60
0
100
AcDbSpline
70
4
71
3
72
18
73
14
40
0
40
0
40
0
40
0
40
0.0155249149420268
40
0.0155249149420268
40
0.343683276628018
40
0.343683276628018
40
0.507762457471013
40
0.507762457471013
40
0.671841638314009
40
0.671841638314009
40
0.835920819157005
40
0.835920819157005
40
1
40
1
40
1
40
1
41
1
10
8.23567507700713
20
-3.03957991420424
30
0
41
1
10
8.21437573757984
20
-3.04626137605146
30
0
41
1
10
8.1930853922735
20
-3.05291871693677
30
0
41
1
10
7.72198065785773
20
-3.19974475890928
30
0
41
1
10
7.27561885704867
20
-3.32936556210845
30
0
41
1
10
6.61091339683199
20
-3.50294174510825
30
0
41
1
10
6.38991101484123
20
-3.55727233378374
30
0
41
1
10
5.95085484973964
20
-3.65823844283969
30
0
41
1
10
5.73305570272348
20
-3.70487331248671
30
0
41
1
10
5.30151181664436
20
-3.78895737587982
30
0
41
1
10
5.08776354043496
20
-3.82640541968036
30
0
41
1
10
4.66526869829639
20
-3.89027478244205
30
0
41
1
10
4.45650258455646
20
-3.91672587942091
30
0
41
1
10
4.25109032934463
20
-3.93623909533662
30
0
0
SPLINE
5
BA
100
AcDbEntity
8
1
62
256
6
ByLayer
370
18
48
1
60
0
100
AcDbSpline
70
4
71
3
72
70
73
66
40
0
40
0
40
0
40
0
40
0.0337784822470268
40
0.0337784822470268
40
0.0675569644940536
40
0.0675569644940536
40
0.10133544674108
40
0.10133544674108
40
0.135113928988107
40
0.135113928988107
40
0.168892411235135
40
0.168892411235135
40
0.202670893482162
40
0.202670893482162
40
0.23644937572919
40
0.23644937572919
40
0.270227857976217
40
0.270227857976217
40
0.304006340223244
40
0.304006340223244
40
0.337784822470272
40
0.337784822470272
40
0.371563304717299
40
0.371563304717299
40
0.405341786964327
40
0.405341786964327
40
0.439120269211354
40
0.439120269211354
40
0.472898751458381
40
0.472898751458381
40
0.506677233705409
40
0.506677233705409
40
0.540455715952436
40
0.540455715952436
40
0.55734495707595
40
0.55734495707595
40
0.574234198199464
40
0.574234198199464
40
0.608012680446491
40
0.608012680446491
40
0.641791162693519
40
0.641791162693519
40
0.675569644940546
40
0.675569644940546
40
0.709348127187573
40
0.709348127187573
40
0.743126609434601
40
0.743126609434601
40
0.776905091681628
40
0.776905091681628
40
0.810683573928656
40
0.810683573928656
40
0.827572815052169
40
0.827572815052169
40
0.844462056175683
40
0.844462056175683
40
0.87824053842271
40
0.87824053842271
40
0.912019020669738
40
0.912019020669738
40
0.945797502916765
40
0.945797502916765
40
0.979575985163793
40
0.979575985163793
40
1
40
1
40
1
40
1
41
1
10
18.2362170896886
20
4.17923506121184
30
0
41
1
10
18.5429362248737
20
4.17830109566432
30
0
41
1
10
18.8497670830326
20
4.16947136620067
30
0
41
1
10
19.4629245021743
20
4.13651604752948
30
0
41
1
10
19.7690349165626
20
4.11229467719565
30
0
41
1
10
20.3807017741318
20
4.04817445388358
30
0
41
1
10
20.6872466240444
20
4.00878657365919
30
0
41
1
10
21.3007029445555
20
3.91497791934441
30
0
41
1
10
21.6076716249964
20
3.86013633111756
30
0
41
1
10
22.2208493700076
20
3.7365570529773
30
0
41
1
10
22.5274433037938
20
3.66816594309921
30
0
41
1
10
23.1398816714562
20
3.51763671477286
30
0
41
1
10
23.4452955199131
20
3.43491941945606
30
0
41
1
10
24.0575161935913
20
3.25799519625366
30
0
41
1
10
24.3642466860552
20
3.16382248323049
30
0
41
1
10
24.977728149544
20
2.96228189722115
30
0
41
1
10
25.2842928255629
20
2.8549914786189
30
0
41
1
10
25.8970446058715
20
2.63212525403282
30
0
41
1
10
26.203366884839
20
2.51615249407175
30
0
41
1
10
26.8150885686345
20
2.27375190740906
30
0
41
1
10
27.1204952186136
20
2.14726076970646
30
0
41
1
10
27.7332007143297
20
1.88871153011689
30
0
41
1
10
28.0401950409477
20
1.75553822526194
30
0
41
1
10
28.6532804861945
20
1.48121867894386
30
0
41
1
10
28.9593168003335
20
1.34127834768807
30
0
41
1
10
29.5716425994207
20
1.0584117955209
30
0
41
1
10
29.8776309497494
20
0.914900276318718
30
0
41
1
10
30.4886172965477
20
0.622345902168206
30
0
41
1
10
30.7946376338238
20
0.475386971739113
30
0
41
1
10
31.4077561305303
20
0.180212602042843
30
0
41
1
10
31.7146225671547
20
0.0308607965712895
30
0
41
1
10
32.3267330350417
20
-0.267038281458582
30
0
41
1
10
32.6327724832407
20
-0.41477763545879
30
0
41
1
10
33.0916265319777
20
-0.634983091544314
30
0
41
1
10
33.2445195122481
20
-0.70819987083641
30
0
41
1
10
33.5501118509872
20
-0.854412856273512
30
0
41
1
10
33.7027128704554
20
-0.927606633385153
30
0
41
1
10
34.1612508275712
20
-1.14476803530073
30
0
41
1
10
34.4677318928458
20
-1.28672022429166
30
0
41
1
10
35.08115193247
20
-1.56722738519454
30
0
41
1
10
35.3870320282897
20
-1.70579343427539
30
0
41
1
10
35.9986559527578
20
-1.9742608058414
30
0
41
1
10
36.3046200653834
20
-2.10418571739348
30
0
41
1
10
36.9158954230227
20
-2.3571956873254
30
0
41
1
10
37.2209261972841
20
-2.48069447876247
30
0
41
1
10
37.8330193485641
20
-2.71613578650897
30
0
41
1
10
38.1401139621654
20
-2.82888633010612
30
0
41
1
10
38.7523384099638
20
-3.04482486204498
30
0
41
1
10
39.057726276363
20
-3.1474623293573
30
0
41
1
10
39.6691591933984
20
-3.33931138741042
30
0
41
1
10
39.9748827623373
20
-3.42903023121016
30
0
41
1
10
40.4329424571176
20
-3.55482730298533
30
0
41
1
10
40.5854843818289
20
-3.59534042518874
30
0
41
1
10
40.8911653541231
20
-3.67254644320809
30
0
41
1
10
41.044210324661
20
-3.70935422379455
30
0
41
1
10
41.5037687097876
20
-3.81462258113135
30
0
41
1
10
41.8104042404037
20
-3.87808154946305
30
0
41
1
10
42.4213743516832
20
-3.99048882274693
30
0
41
1
10
42.7266542724845
20
-4.03910706331448
30
0
41
1
10
43.3374056235481
20
-4.12110203234548
30
0
41
1
10
43.6425342754347
20
-4.15468755466503
30
0
41
1
10
44.252389381084
20
-4.20659607513056
30
0
41
1
10
44.5582254972681
20
-4.22457365338036
30
0
41
1
10
45.0496238959833
20
-4.24098571295528
30
0
41
1
10
45.2347369686157
20
-4.24430219633933
30
0
41
1
10
45.4196677777863
20
-4.24472527228832
30
0
0
SPLINE
5
BB
100
AcDbEntity
8
1
62
256
6
ByLayer
370
18
48
1
60
0
100
AcDbSpline
70
4
71
3
72
8
73
4
40
0
40
0
40
0
40
0
40
1
40
1
40
1
40
1
41
1
10
48.999902501847
20
0.0472553399239359
30
0
41
1
10
49.0000324990791
20
0.0157518537972976
30
0
41
1
10
49.0000324990791
20
-0.0157518537887711
30
0
41
1
10
48.9999025018471
20
-0.0472553399154094
30
0
0
SPLINE
5
BC
100
AcDbEntity
8
1
62
256
6
ByLayer
370
18
48
1
60
0
100
AcDbSpline
70
4
71
3
72
14
73
10
40
0
40
0
40
0
40
0
40
0.25
40
0.25
40
0.5
40
0.5
40
0.75
40
0.75
40
1
40
1
40
1
40
1
41
1
10
47.6006936395084
20
-4.02552280630414
30
0
41
1
10
47.6031469704429
20
-4.02329475562982
30
0
41
1
10
47.604912402906
20
-4.02289700774853
30
0
41
1
10
47.6066168453333
20
-4.02690831953214
30
0
41
1
10
47.6064720887145
20
-4.03138448425923
30
0
41
1
10
47.6036606636427
20
-4.04573852293674
30
0
41
1
10
47.6009243214458
20
-4.05578601393538
30
0
41
1
10
47.5933988322813
20
-4.07907295424405
30
0
41
1
10
47.5886451334396
20
-4.09224384608851
30
0
41
1
10
47.5835786158142
20
-4.10529591281906
30
0
0
SPLINE
5
BD
100
AcDbEntity
8
1
62
256
6
ByLayer
370
18
48
1
60
0
100
AcDbSpline
70
4
71
3
72
8
73
4
40
0
40
0
40
0
40
0
40
1
40
1
40
1
40
1
41
1
10
48.7991606711811
20
-1.10688813445444
30
0
41
1
10
48.8419396616087
20
-0.896923148602127
30
0
41
1
10
48.8811875725313
20
-0.68684045906582
30
0
41
1
10
48.9168695
20
-0.476638902370382
30
0
0
SPLINE
5
BE
100
AcDbEntity
8
1
62
256
6
ByLayer
370
18
48
1
60
0
100
AcDbSpline
70
4
71
3
72
28
73
24
40
0
40
0
40
0
40
0
40
0.125
40
0.125
40
0.249999999999999
40
0.249999999999999
40
0.312499999999999
40
0.312499999999999
40
0.374999999999999
40
0.374999999999999
40
0.499999999999999
40
0.499999999999999
40
0.562499999999999
40
0.562499999999999
40
0.625
40
0.625
40
0.75
40
0.75
40
0.8125
40
0.8125
40
0.875
40
0.875
40
1
40
1
40
1
40
1
41
1
10
4.01338533539692
20
0.657599523155881
30
0
41
1
10
4.01339721320201
20
0.876328610471546
30
0
41
1
10
4.01340751422271
20
1.0928415674212
30
0
41
1
10
4.01342543932813
20
1.50987655122034
30
0
41
1
10
4.01343313048301
20
1.71147484877466
30
0
41
1
10
4.01344353710567
20
2.00354314520368
30
0
41
1
10
4.01344681646125
20
2.09916977020865
30
0
41
1
10
4.01345311656149
20
2.28687238032805
30
0
41
1
10
4.0134561281576
20
2.37867678547593
30
0
41
1
10
4.01346480354562
20
2.64391954311731
30
0
41
1
10
4.01347016948168
20
2.80886201582859
30
0
41
1
10
4.01347824576473
20
3.03869389031817
30
0
41
1
10
4.01348094054987
20
3.11236048436763
30
0
41
1
10
4.01348642591111
20
3.25367783578713
30
0
41
1
10
4.01348922629668
20
3.32151440769437
30
0
41
1
10
4.01349774165439
20
3.51245711550689
30
0
41
1
10
4.01350361775471
20
3.62417317535295
30
0
41
1
10
4.01351299098033
20
3.76891371342251
30
0
41
1
10
4.01351620636424
20
3.81333681003426
30
0
41
1
10
4.01352283723597
20
3.89440576724144
30
0
41
1
10
4.01352626827349
20
3.93118649594055
30
0
41
1
10
4.01353673947807
20
4.0283399753072
30
0
41
1
10
4.01354393571211
20
4.07553548166388
30
0
41
1
10
4.01355119541549
20
4.1057180384195
30
0
0
SPLINE
5
BF
100
AcDbEntity
8
1
62
256
6
ByLayer
370
18
48
1
60
0
100
AcDbSpline
70
4
71
3
72
8
73
4
40
0
40
0
40
0
40
0
40
1
40
1
40
1
40
1
41
1
10
4.14204495889607
20
0.483570789325341
30
0
41
1
10
4.09886162348178
20
0.504091977308121
30
0
41
1
10
4.06252674786478
20
0.536640664003357
30
0
41
1
10
4.0375918385962
20
0.576425489638183
30
0
0
SPLINE
5
C0
100
AcDbEntity
8
1
62
256
6
ByLayer
370
18
48
1
60
0
100
AcDbSpline
70
4
71
3
72
34
73
30
40
0
40
0
40
0
40
0
40
0.0677664712748355
40
0.0677664712748355
40
0.139476742715233
40
0.139476742715233
40
0.21118701415563
40
0.21118701415563
40
0.282897285596027
40
0.282897285596027
40
0.354607557036425
40
0.354607557036425
40
0.426317828476822
40
0.426317828476822
40
0.498028099917219
40
0.498028099917219
40
0.569738371357616
40
0.569738371357616
40
0.641448642798014
40
0.641448642798014
40
0.713158914238411
40
0.713158914238411
40
0.784869185678808
40
0.784869185678808
40
0.856579457119205
40
0.856579457119205
40
0.928289728559603
40
0.928289728559603
40
1
40
1
40
1
40
1
41
1
10
29.3555956291148
20
4.03479523453873
30
0
41
1
10
29.7013164008197
20
4.03506466873387
30
0
41
1
10
30.0476857545766
20
4.02510306908482
30
0
41
1
10
30.759385489716
20
3.98667697652022
30
0
41
1
10
31.124443206392
20
3.95423145620114
30
0
41
1
10
31.8546994843564
20
3.86932708767273
30
0
41
1
10
32.220149462305
20
3.81690530241224
30
0
41
1
10
32.951376385597
20
3.69263499412901
30
0
41
1
10
33.3175806212821
20
3.62199853181107
30
0
41
1
10
34.0487856136095
20
3.45753058996496
30
0
41
1
10
34.4136971686379
20
3.36520750628051
30
0
41
1
10
35.1432414240181
20
3.16389628061427
30
0
41
1
10
35.508337824187
20
3.05574558827695
30
0
41
1
10
36.2387557880991
20
2.82339032638745
30
0
41
1
10
36.6047688147596
20
2.69722080446297
30
0
41
1
10
37.3358725113619
20
2.43325267008729
30
0
41
1
10
37.7008729509559
20
2.29443577612653
30
0
41
1
10
38.4300843535383
20
2.00527927828586
30
0
41
1
10
38.7949961817808
20
1.85586893756221
30
0
41
1
10
39.525449661405
20
1.54542450062715
30
0
41
1
10
39.8913738840052
20
1.38454164884334
30
0
41
1
10
40.6223938504611
20
1.05842401825504
30
0
41
1
10
40.9874507890638
20
0.89286755809718
30
0
41
1
10
41.7164706386543
20
0.555521118513184
30
0
41
1
10
42.081343169374
20
0.385496457189532
30
0
41
1
10
42.8117396453034
20
0.0434785439971677
30
0
41
1
10
43.1774676742675
20
-0.12912606159432
30
0
41
1
10
43.9083671982412
20
-0.472107564544871
30
0
41
1
10
44.2735235151874
20
-0.642034509590957
30
0
41
1
10
44.6384721698393
20
-0.810558885925673
30
0
0
SPLINE
5
C1
100
AcDbEntity
8
1
62
256
6
ByLayer
370
13
48
1
60
0
100
AcDbSpline
70
4
71
3
72
8
73
4
40
0
40
0
40
0
40
0
40
1
40
1
40
1
40
1
41
1
10
4.25071173765068
20
0.521428335138893
30
0
41
1
10
4.21348808148525
20
0.531580478540292
30
0
41
1
10
4.17717142459449
20
0.542442256845334
30
0
41
1
10
4.1432547251369
20
0.553759197949319
30
0
0
SPLINE
5
C2
100
AcDbEntity
8
1
62
256
6
ByLayer
370
18
48
1
60
0
100
AcDbSpline
70
4
71
3
72
8
73
4
40
0
40
0
40
0
40
0
40
1
40
1
40
1
40
1
41
1
10
48.7991606711811
20
1.10688813445444
30
0
41
1
10
48.8419396616086
20
0.896923148602099
30
0
41
1
10
48.8811875725312
20
0.686840459065763
30
0
41
1
10
48.9168695
20
0.476638902370269
30
0
0
SPLINE
5
C3
100
AcDbEntity
8
1
62
256
6
ByLayer
370
13
48
1
60
0
100
AcDbSpline
70
4
71
3
72
24
73
20
40
0
40
0
40
0
40
0
40
0.125
40
0.125
40
0.1875
40
0.1875
40
0.25
40
0.25
40
0.375
40
0.375
40
0.5
40
0.5
40
0.625
40
0.625
40
0.75
40
0.75
40
0.875
40
0.875
40
1
40
1
40
1
40
1
41
1
10
4.25071173765068
20
0.521428335138893
30
0
41
1
10
4.25074002907476
20
0.735938554518413
30
0
41
1
10
4.25076370704355
20
0.946175797057862
30
0
41
1
10
4.25079441772726
20
1.25522137659081
30
0
41
1
10
4.25080387978372
20
1.35752157763548
30
0
41
1
10
4.25082138077477
20
1.55825360886871
30
0
41
1
10
4.25082940013962
20
1.65639354048508
30
0
41
1
10
4.25085185669411
20
1.944312725619
30
0
41
1
10
4.25086470431677
20
2.12763252980759
30
0
41
1
10
4.25088888092435
20
2.47693042335899
30
0
41
1
10
4.25090027761635
20
2.6437197365091
30
0
41
1
10
4.25092313980306
20
2.94814412605592
30
0
41
1
10
4.2509346981133
20
3.08725811589855
30
0
41
1
10
4.25095981459404
20
3.33933126782358
30
0
41
1
10
4.25097347445305
20
3.45280327019424
30
0
41
1
10
4.25100318945792
20
3.64714846121367
30
0
41
1
10
4.25101933559824
20
3.72882462952046
30
0
41
1
10
4.25105379672559
20
3.85851615992215
30
0
41
1
10
4.25107191461174
20
3.90591593434195
30
0
41
1
10
4.25109032815894
20
3.93623909528932
30
0
0
SPLINE
5
C4
100
AcDbEntity
8
1
62
256
6
ByLayer
370
18
48
1
60
0
100
AcDbSpline
70
4
71
3
72
46
73
42
40
0
40
0
40
0
40
0
40
0.124999999999995
40
0.124999999999995
40
0.249999999999991
40
0.249999999999991
40
0.374999999999986
40
0.374999999999986
40
0.437499999999987
40
0.437499999999987
40
0.468749999999989
40
0.468749999999989
40
0.499999999999992
40
0.499999999999992
40
0.562499999999992
40
0.562499999999992
40
0.624999999999992
40
0.624999999999992
40
0.656249999999992
40
0.656249999999992
40
0.671874999999992
40
0.671874999999992
40
0.687499999999992
40
0.687499999999992
40
0.718749999999994
40
0.718749999999994
40
0.749999999999996
40
0.749999999999996
40
0.781249999999998
40
0.781249999999998
40
0.812500000000001
40
0.812500000000001
40
0.843750000000003
40
0.843750000000003
40
0.859375000000002
40
0.859375000000002
40
0.875000000000002
40
0.875000000000002
40
0.937500000000001
40
0.937500000000001
40
1
40
1
40
1
40
1
41
1
10
44.6384721698393
20
-0.810558885925673
30
0
41
1
10
44.8414620239176
20
-0.866835457534108
30
0
41
1
10
45.0444601059593
20
-0.921131733390439
30
0
41
1
10
45.4505225509932
20
-1.01377187095218
30
0
41
1
10
45.6535854239044
20
-1.05247436340068
30
0
41
1
10
46.0597923085196
20
-1.11035096761853
30
0
41
1
10
46.2631880256027
20
-1.12962047208356
30
0
41
1
10
46.5660760296391
20
-1.14101736714787
30
0
41
1
10
46.6667792273003
20
-1.14193014447076
30
0
41
1
10
46.8171386368986
20
-1.13873368080652
30
0
41
1
10
46.8671555555911
20
-1.13690913732282
30
0
41
1
10
46.9669299414283
20
-1.13170995197731
30
0
41
1
10
47.0166818174937
20
-1.12827859372166
30
0
41
1
10
47.1643287137398
20
-1.10984799326636
30
0
41
1
10
47.2609297697561
20
-1.08794906157542
30
0
41
1
10
47.4442430975029
20
-1.01747441062105
30
0
41
1
10
47.529555548509
20
-0.969074703087244
30
0
41
1
10
47.6448918469869
20
-0.870266660228253
30
0
41
1
10
47.6814565060718
20
-0.832385981165515
30
0
41
1
10
47.7297819011356
20
-0.769058630773145
30
0
41
1
10
47.7449119671336
20
-0.746864999398667
30
0
41
1
10
47.7714418176195
20
-0.698342874923839
30
0
41
1
10
47.7835481986212
20
-0.672686282606634
30
0
41
1
10
47.8160494860445
20
-0.592198268253384
30
0
41
1
10
47.8319137306659
20
-0.535258413536582
30
0
41
1
10
47.8518532459305
20
-0.414713210528362
30
0
41
1
10
47.8557864406517
20
-0.350695444664041
30
0
41
1
10
47.8508623633407
20
-0.2227167701312
30
0
41
1
10
47.8421447886915
20
-0.157402737200812
30
0
41
1
10
47.815423623174
20
-0.02818341268582
30
0
41
1
10
47.7976562361198
20
0.035051266335131
30
0
41
1
10
47.7553763314872
20
0.159416051362769
30
0
41
1
10
47.7308100568823
20
0.220676358005193
30
0
41
1
10
47.690293303199
20
0.310921328349991
30
0
41
1
10
47.676198507484
20
0.340667618312295
30
0
41
1
10
47.6470758780634
20
0.399566771814051
30
0
41
1
10
47.6317745299649
20
0.428522503200469
30
0
41
1
10
47.5568544437758
20
0.574363238703114
30
0
41
1
10
47.5008353929209
20
0.693569712040556
30
0
41
1
10
47.3952751380324
20
0.935458672372562
30
0
41
1
10
47.3447627590067
20
1.05775168785848
30
0
41
1
10
47.2993724665979
20
1.18174983053049
30
0
0
SPLINE
5
C5
100
AcDbEntity
8
1
62
256
6
ByLayer
370
13
48
1
60
0
100
AcDbSpline
70
4
71
3
72
10
73
6
40
0
40
0
40
0
40
0
40
0.5
40
0.5
40
1
40
1
40
1
40
1
41
1
10
4.01338533539382
20
0.657599523154119
30
0
41
1
10
4.02371493607257
20
0.635736319091507
30
0
41
1
10
4.03988993598421
20
0.615302947834721
30
0
41
1
10
4.08364013053327
20
0.579601032063096
30
0
41
1
10
4.11105941514379
20
0.564501765264225
30
0
41
1
10
4.1432547251369
20
0.553759197949319
30
0
0
SPLINE
5
C6
100
AcDbEntity
8
1
62
256
6
ByLayer
370
18
48
1
60
0
100
AcDbSpline
70
4
71
3
72
18
73
14
40
0
40
0
40
0
40
0
40
0.125000000000003
40
0.125000000000003
40
0.250000000000007
40
0.250000000000007
40
0.500000000000007
40
0.500000000000007
40
0.625000000000007
40
0.625000000000007
40
0.750000000000007
40
0.750000000000007
40
1
40
1
40
1
40
1
41
1
10
47.6124896896493
20
-4.11471545467714
30
0
41
1
10
47.6484329744121
20
-4.03514727392979
30
0
41
1
10
47.6847192549129
20
-3.95446687497508
30
0
41
1
10
47.7578395860008
20
-3.79148690028873
30
0
41
1
10
47.7946591119245
20
-3.70935680798502
30
0
41
1
10
47.905877790741
20
-3.46021550761881
30
0
41
1
10
47.980835617093
20
-3.29027158795117
30
0
41
1
10
48.0930305704946
20
-3.0332196989597
30
0
41
1
10
48.13049459425
20
-2.94730275137121
30
0
41
1
10
48.205225342629
20
-2.77367491641863
30
0
41
1
10
48.2425341348005
20
-2.68606651209797
30
0
41
1
10
48.3538286374803
20
-2.42316511213031
30
0
41
1
10
48.42729963508
20
-2.24720239490364
30
0
41
1
10
48.499203486765
20
-2.07001008005238
30
0
0
SPLINE
5
C7
100
AcDbEntity
8
1
62
256
6
ByLayer
370
18
48
1
60
0
100
AcDbSpline
70
4
71
3
72
8
73
4
40
0
40
0
40
0
40
0
40
1
40
1
40
1
40
1
41
1
10
48.9168695
20
-0.476638902370382
30
0
41
1
10
48.9269051140764
20
-0.414313103166961
30
0
41
1
10
48.9366360099687
20
-0.351944784225338
30
0
41
1
10
48.9460614935952
20
-0.289533848694845
30
0
0
SPLINE
5
C8
100
AcDbEntity
8
1
62
256
6
ByLayer
370
18
48
1
60
0
100
AcDbSpline
70
4
71
3
72
8
73
4
40
0
40
0
40
0
40
0
40
1
40
1
40
1
40
1
41
1
10
4.03759183859614
20
0.576425489638211
30
0
41
1
10
4.02224842084888
20
0.600906637459616
30
0
41
1
10
4.01338377296545
20
0.628827428645195
30
0
41
1
10
4.01338533539689
20
0.657599523144995
30
0
0
SPLINE
5
C9
100
AcDbEntity
8
1
62
256
6
ByLayer
370
18
48
1
60
0
100
AcDbSpline
70
4
71
3
72
18
73
14
40
0
40
0
40
0
40
0
40
0.249999999999998
40
0.249999999999998
40
0.374999999999997
40
0.374999999999997
40
0.499999999999996
40
0.499999999999996
40
0.749999999999997
40
0.749999999999997
40
0.874999999999999
40
0.874999999999999
40
1
40
1
40
1
40
1
41
1
10
47.4897382870244
20
-4.07794046568389
30
0
41
1
10
47.3983851386991
20
-4.0710946242167
30
0
41
1
10
47.3135777292746
20
-4.04488637767449
30
0
41
1
10
47.1971279223164
20
-3.97374188135871
30
0
41
1
10
47.160125512552
20
-3.94459696682762
30
0
41
1
10
47.0914473484947
20
-3.87651841648503
30
0
41
1
10
47.05955359508
20
-3.83747721200476
30
0
41
1
10
46.9712738017884
20
-3.7052138687649
30
0
41
1
10
46.92221854603
20
-3.59699658222269
30
0
41
1
10
46.8647246555741
20
-3.40176055349903
30
0
41
1
10
46.8483467304201
20
-3.33127137454693
30
0
41
1
10
46.8218350081171
20
-3.18191053735703
30
0
41
1
10
46.8115978111049
20
-3.10271921421338
30
0
41
1
10
46.8044194517303
20
-3.01895695373557
30
0
0
SPLINE
5
CA
100
AcDbEntity
8
1
62
256
6
ByLayer
370
18
48
1
60
0
100
AcDbSpline
70
4
71
3
72
18
73
14
40
0
40
0
40
0
40
0
40
0.124999999999999
40
0.124999999999999
40
0.249999999999998
40
0.249999999999998
40
0.499999999999996
40
0.499999999999996
40
0.625
40
0.625
40
0.750000000000003
40
0.750000000000003
40
1
40
1
40
1
40
1
41
1
10
44.6384721698393
20
-0.810558885925701
30
0
41
1
10
44.7057384158969
20
-0.931880185173611
30
0
41
1
10
44.7785700593744
20
-1.05090773936567
30
0
41
1
10
44.931098656516
20
-1.27974503343458
30
0
41
1
10
45.0106626134075
20
-1.38951641086482
30
0
41
1
10
45.2578811301878
20
-1.70682153512487
30
0
41
1
10
45.4339840813928
20
-1.90245648870047
30
0
41
1
10
45.7118623718769
20
-2.17658010125368
30
0
41
1
10
45.8070829323875
20
-2.26493748369029
30
0
41
1
10
46.0001091524145
20
-2.43411465738623
30
0
41
1
10
46.0979258705973
20
-2.51498468411501
30
0
41
1
10
46.3949148101019
20
-2.7475003318504
30
0
41
1
10
46.5976028414661
20
-2.88911705666129
30
0
41
1
10
46.8044194517303
20
-3.0189569537356
30
0
0
SPLINE
5
CB
100
AcDbEntity
8
1
62
256
6
ByLayer
370
18
48
1
60
0
100
AcDbSpline
70
4
71
3
72
8
73
4
40
0
40
0
40
0
40
0
40
1
40
1
40
1
40
1
41
1
10
48.9168695
20
0.476638902370269
30
0
41
1
10
48.9269051140764
20
0.414313103166904
30
0
41
1
10
48.9366360099687
20
0.351944784225338
30
0
41
1
10
48.9460614935952
20
0.289533848694873
30
0
0
SPLINE
5
CC
100
AcDbEntity
8
1
62
256
6
ByLayer
370
18
48
1
60
0
100
AcDbSpline
70
4
71
3
72
8
73
4
40
0
40
0
40
0
40
0
40
1
40
1
40
1
40
1
41
1
10
48.9444497830305
20
-0.0811534785831896
30
0
41
1
10
48.7395009679915
20
-0.644245720047252
30
0
41
1
10
48.5345521529524
20
-1.20733796151137
30
0
41
1
10
48.3296033379134
20
-1.77043020297546
30
0
0
SPLINE
5
CD
100
AcDbEntity
8
1
62
256
6
ByLayer
370
18
48
1
60
0
100
AcDbSpline
70
4
71
3
72
16
73
12
40
0
40
0
40
0
40
0
40
0.0018544569166738
40
0.0018544569166738
40
0.249103881466428
40
0.249103881466428
40
0.74360273056593
40
0.74360273056593
40
0.990852155115684
40
0.990852155115684
40
1
40
1
40
1
40
1
41
1
10
46.2504573612276
20
-4.07674376417586
30
0
41
1
10
46.2470559835118
20
-4.07674771552743
30
0
41
1
10
46.2436546062143
20
-4.07675072058171
30
0
41
1
10
45.7867574047339
20
-4.07702726414416
30
0
41
1
10
45.335597338798
20
-4.06050221123488
30
0
41
1
10
43.9862779627657
20
-3.96243501674636
30
0
41
1
10
43.0920827081615
20
-3.83218888380523
30
0
41
1
10
41.7476093805303
20
-3.54835896990818
30
0
41
1
10
41.2988841296407
20
-3.43910111863821
30
0
41
1
10
40.8319248875443
20
-3.31155635758256
30
0
41
1
10
40.8152619004236
20
-3.30698660087671
30
0
41
1
10
40.7985963012586
20
-3.30239775750363
30
0
0
SPLINE
5
CE
100
AcDbEntity
8
1
62
256
6
ByLayer
370
13
48
1
60
0
100
AcDbSpline
70
4
71
3
72
22
73
18
40
0
40
0
40
0
40
0
40
0.0977317168307669
40
0.0977317168307669
40
0.300704840997427
40
0.300704840997427
40
0.503677965164087
40
0.503677965164087
40
0.605164527247418
40
0.605164527247418
40
0.706651089330749
40
0.706651089330749
40
0.808137651414081
40
0.808137651414081
40
0.909624213497412
40
0.909624213497412
40
1
40
1
40
1
40
1
41
1
10
40.7985963012485
20
-3.30239775750078
30
0
41
1
10
40.3648214026357
20
-3.18295860327544
30
0
41
1
10
39.9292769350306
20
-3.05058889683812
30
0
41
1
10
38.5845703388776
20
-2.6076880511624
30
0
41
1
10
37.6861980134554
20
-2.2644913022225
30
0
41
1
10
35.8926911682262
20
-1.51969985825798
30
0
41
1
10
34.9976508427991
20
-1.11777865968156
30
0
41
1
10
33.6459502870549
20
-0.494885965933832
30
0
41
1
10
33.1935986962175
20
-0.283802736204421
30
0
41
1
10
32.2850139490479
20
0.140805622998471
30
0
41
1
10
31.8318901130487
20
0.352659420898476
30
0
41
1
10
30.9259744615419
20
0.771164317317243
30
0
41
1
10
30.4731733592251
20
0.977789982247799
30
0
41
1
10
29.566027489339
20
1.38185961549402
30
0
41
1
10
29.1110836173686
20
1.57939573764582
30
0
41
1
10
28.2536559262393
20
1.93758275644072
30
0
41
1
10
27.8503342931537
20
2.10013718590722
30
0
41
1
10
27.4468904081193
20
2.25530712841538
30
0
0
SPLINE
5
CF
100
AcDbEntity
8
1
62
256
6
ByLayer
370
18
48
1
60
0
100
AcDbSpline
70
4
71
3
72
8
73
4
40
0
40
0
40
0
40
0
40
1
40
1
40
1
40
1
41
1
10
47.4897382870246
20
-4.07794046568389
30
0
41
1
10
47.4947311565372
20
-4.07929717911597
30
0
41
1
10
47.5000034808794
20
-4.07984107382572
30
0
41
1
10
47.5055623069657
20
-4.0795769738555
30
0
0
SPLINE
5
D0
100
AcDbEntity
8
1
62
256
6
ByLayer
370
18
48
1
60
0
100
AcDbSpline
70
4
71
3
72
8
73
4
40
0
40
0
40
0
40
0
40
1
40
1
40
1
40
1
41
1
10
47.5665847204388
20
-4.05336339605162
30
0
41
1
10
47.5773043131615
20
-4.04573021732193
30
0
41
1
10
47.5886668889565
20
-4.0364451850601
30
0
41
1
10
47.6006936395327
20
-4.02552280628203
30
0
0
SPLINE
5
D1
100
AcDbEntity
8
1
62
256
6
ByLayer
370
18
48
1
60
0
100
AcDbSpline
70
4
71
3
72
18
73
14
40
0
40
0
40
0
40
0
40
0.124999999999999
40
0.124999999999999
40
0.249999999999998
40
0.249999999999998
40
0.499999999999996
40
0.499999999999996
40
0.624999999999995
40
0.624999999999995
40
0.749999999999994
40
0.749999999999994
40
1
40
1
40
1
40
1
41
1
10
47.6124896896493
20
4.11471545467711
30
0
41
1
10
47.6484329373183
20
4.03514735604477
30
0
41
1
10
47.6847192202585
20
3.95446695221239
30
0
41
1
10
47.7578396175394
20
3.79148682999639
30
0
41
1
10
47.7946592013306
20
3.70935660897879
30
0
41
1
10
47.9058781585124
20
3.46021468122754
30
0
41
1
10
47.9808356831777
20
3.29027143748789
30
0
41
1
10
48.0930306362112
20
3.03321954792295
30
0
41
1
10
48.1304946772286
20
2.94730256095895
30
0
41
1
10
48.2052255734724
20
2.77367437770317
30
0
41
1
10
48.2425343332851
20
2.68606604414506
30
0
41
1
10
48.3538285455235
20
2.42316532753165
30
0
41
1
10
48.4272994924181
20
2.24720274646464
30
0
41
1
10
48.499203486765
20
2.07001008005238
30
0
0
SPLINE
5
D2
100
AcDbEntity
8
1
62
256
6
ByLayer
370
18
48
1
60
0
100
AcDbSpline
70
4
71
3
72
67
73
63
40
0
40
0
40
0
40
0
40
0.0574632694299674
40
0.0574632694299674
40
0.120299051467974
40
0.120299051467974
40
0.245970615543985
40
0.245970615543985
40
0.371642179619996
40
0.371642179619996
40
0.497313743696008
40
0.497313743696008
40
0.560149525734013
40
0.560149525734013
40
0.622985307772018
40
0.622985307772018
40
0.685821089810023
40
0.685821089810023
40
0.717238980829026
40
0.717238980829026
40
0.732947926338528
40
0.732947926338528
40
0.736875162715904
40
0.738838780904592
40
0.738838780904592
40
0.74080239909328
40
0.74080239909328
40
0.742766017281967
40
0.742766017281967
40
0.744729635470655
40
0.744729635470655
40
0.746693253659343
40
0.746693253659343
40
0.748656871848031
40
0.748656871848031
40
0.780074762867027
40
0.780074762867027
40
0.795783708376525
40
0.795783708376525
40
0.811492653886022
40
0.811492653886022
40
0.819347126640771
40
0.819347126640771
40
0.82720159939552
40
0.82720159939552
40
0.842910544905018
40
0.842910544905018
40
0.850765017659767
40
0.850765017659767
40
0.858619490414516
40
0.858619490414516
40
0.874328435924014
40
0.874328435924014
40
0.890037381433512
40
0.890037381433512
40
0.905746326943011
40
0.905746326943011
40
0.937164217962007
40
0.937164217962007
40
0.968582108981004
40
0.968582108981004
40
1
40
1
40
1
40
1
41
1
10
18.1345213843136
20
-4.17925489399363
30
0
41
1
10
17.7702415870149
20
-4.17830033939885
30
0
41
1
10
17.4027157012167
20
-4.16640772170305
30
0
41
1
10
16.6268909971307
20
-4.12380136638151
30
0
41
1
10
16.2174242023009
20
-4.0913262358676
30
0
41
1
10
14.981600694016
20
-3.97132171719036
30
0
41
1
10
14.1533124078453
20
-3.86202772639828
30
0
41
1
10
12.4838326377325
20
-3.62228760309293
30
0
41
1
10
11.6426077001165
20
-3.49178674978947
30
0
41
1
10
9.94403226278757
20
-3.24222286476996
30
0
41
1
10
9.08668548503891
20
-3.12325677737761
30
0
41
1
10
7.78725668430852
20
-2.97356477601255
30
0
41
1
10
7.35188986414519
20
-2.92840264911615
30
0
41
1
10
6.47657376171188
20
-2.85012863965525
30
0
41
1
10
6.03599675912045
20
-2.81698497449204
30
0
41
1
10
5.15380819096936
20
-2.76499196619369
30
0
41
1
10
4.71225409105293
20
-2.74611895462795
30
0
41
1
10
4.04920935956025
20
-2.72937967721938
30
0
41
1
10
3.82807550562765
20
-2.7257244023896
30
0
41
1
10
3.49619279614021
20
-2.72320867785538
30
0
41
1
10
3.38552366906399
20
-2.72286449464068
30
0
41
1
10
3.2471884896606
20
-2.7230592218601
30
0
41
1
10
3.2056882545435
20
-2.72316449502227
30
0
41
1
10
3.16418849875274
20
-2.72334020640381
30
0
41
1
10
3.13652210155905
20
-2.72347301704781
30
0
41
1
10
3.12264346252104
20
-2.723466685137
30
0
41
1
10
3.09524166989547
20
-2.72518753357536
30
0
41
1
10
3.08169134415951
20
-2.72670527225711
30
0
41
1
10
3.05498824444237
20
-2.73146969386528
30
0
41
1
10
3.04163103939825
20
-2.73476496158537
30
0
41
1
10
3.01715123409033
20
-2.74381118358454
30
0
41
1
10
3.00640122832297
20
-2.75011715213881
30
0
41
1
10
2.9844042872717
20
-2.76209557967121
30
0
41
1
10
2.97343602083927
20
-2.76810893840215
30
0
41
1
10
2.78766924795664
20
-2.87066499352787
30
0
41
1
10
2.62162530686646
20
-2.9729355450277
30
0
41
1
10
2.40337286385542
20
-3.13269125003066
30
0
41
1
10
2.33564781509659
20
-3.18707339504618
30
0
41
1
10
2.21357360048836
20
-3.29853173192481
30
0
41
1
10
2.15919746032262
20
-3.35589013437391
30
0
41
1
10
2.09446666005041
20
-3.44034690507533
30
0
41
1
10
2.07553578961424
20
-3.46837018011243
30
0
41
1
10
2.04352746024091
20
-3.52407632729117
30
0
41
1
10
2.03040128438963
20
-3.55195498313952
30
0
41
1
10
2.00145307719978
20
-3.63287310162201
30
0
41
1
10
1.99567613615119
20
-3.68351168035665
30
0
41
1
10
2.00678393608584
20
-3.75428191675047
30
0
41
1
10
2.0138634002939
20
-3.77707387696319
30
0
41
1
10
2.03390084734463
20
-3.81979808110847
30
0
41
1
10
2.04685613404897
20
-3.8398880175877
30
0
41
1
10
2.09357687145419
20
-3.8966777619662
30
0
41
1
10
2.13560436147554
20
-3.93006737241546
30
0
41
1
10
2.23319097529989
20
-3.98720509077464
30
0
41
1
10
2.28888751115073
20
-4.01129354856698
30
0
41
1
10
2.41062294028123
20
-4.05249685332575
30
0
41
1
10
2.47703090173306
20
-4.0696568437956
30
0
41
1
10
2.6859648831641
20
-4.11198274673404
30
0
41
1
10
2.83717163985804
20
-4.12825547873678
30
0
41
1
10
3.15410863624487
20
-4.14506933941166
30
0
41
1
10
3.32001196071298
20
-4.14546102316407
30
0
41
1
10
3.66238086850657
20
-4.13402059270402
30
0
41
1
10
3.83684488472477
20
-4.12223085073452
30
0
41
1
10
4.01355119541017
20
-4.10571803842001
30
0
0
SPLINE
5
D3
100
AcDbEntity
8
1
62
256
6
ByLayer
370
18
48
1
60
0
100
AcDbSpline
70
4
71
3
72
8
73
4
40
0
40
0
40
0
40
0
40
1
40
1
40
1
40
1
41
1
10
47.6124896896493
20
-4.11471545467711
30
0
41
1
10
47.5921439813696
20
-4.13884073272391
30
0
41
1
10
47.5731947548886
20
-4.15972540260029
30
0
41
1
10
47.5555636352844
20
-4.17739365258856
30
0
0
SPLINE
5
D4
100
AcDbEntity
8
1
62
256
6
ByLayer
370
18
48
1
60
0
100
AcDbSpline
70
4
71
3
72
14
73
10
40
0
40
0
40
0
40
0
40
0.25
40
0.25
40
0.5
40
0.5
40
0.75
40
0.75
40
1
40
1
40
1
40
1
41
1
10
4.01355119541552
20
4.10571803841952
30
0
41
1
10
4.02136468606685
20
4.08514058234684
30
0
41
1
10
4.03276984698934
20
4.06429738127991
30
0
41
1
10
4.06431437742143
20
4.02385262378326
30
0
41
1
10
4.08450042308638
20
4.00460932852954
30
0
41
1
10
4.12976538337441
20
3.97295403334215
30
0
41
1
10
4.15487270960031
20
3.96045611686662
30
0
41
1
10
4.2044858756949
20
3.94319301652553
30
0
41
1
10
4.2281922477105
20
3.9384143073757
30
0
41
1
10
4.25109032815902
20
3.93623909544903
30
0
0
SPLINE
5
D5
100
AcDbEntity
8
1
62
256
6
ByLayer
370
18
48
1
60
0
100
AcDbSpline
70
4
71
3
72
22
73
18
40
0
40
0
40
0
40
0
40
0.125
40
0.125
40
0.249999999999999
40
0.249999999999999
40
0.374999999999999
40
0.374999999999999
40
0.499999999999999
40
0.499999999999999
40
0.625
40
0.625
40
0.75
40
0.75
40
0.875
40
0.875
40
1
40
1
40
1
40
1
41
1
10
48.3296033379138
20
-1.77043020297541
30
0
41
1
10
48.3314656488925
20
-1.79376260679908
30
0
41
1
10
48.3295653116804
20
-1.82481739424423
30
0
41
1
10
48.3174850915254
20
-1.90368050442615
30
0
41
1
10
48.3076299957999
20
-1.94931191748145
30
0
41
1
10
48.2804734678199
20
-2.05256627366035
30
0
41
1
10
48.2638538391795
20
-2.10759221530375
30
0
41
1
10
48.2254461719873
20
-2.22315614473234
30
0
41
1
10
48.2045106085782
20
-2.28115587806067
30
0
41
1
10
48.1598819244049
20
-2.39738972819421
30
0
41
1
10
48.1369060441017
20
-2.45373466238837
30
0
41
1
10
48.0903955678096
20
-2.56229823071692
30
0
41
1
10
48.0670316776891
20
-2.61406867081959
30
0
41
1
10
48.0217665277984
20
-2.70961284008663
30
0
41
1
10
47.9994203879543
20
-2.75429633300752
30
0
41
1
10
47.957555733206
20
-2.833189642696
30
0
41
1
10
47.9378480402108
20
-2.86784352531467
30
0
41
1
10
47.9194142770039
20
-2.89741538553307
30
0
0
SPLINE
5
D6
100
AcDbEntity
8
1
62
256
6
ByLayer
370
18
48
1
60
0
100
AcDbSpline
70
4
71
3
72
14
73
10
40
0
40
0
40
0
40
0
40
0.25
40
0.25
40
0.5
40
0.5
40
0.75
40
0.75
40
1
40
1
40
1
40
1
41
1
10
4.25109032815902
20
-3.93623909544903
30
0
41
1
10
4.22818335638041
20
-3.93841515201024
30
0
41
1
10
4.20425446663663
20
-3.9432609260796
30
0
41
1
10
4.15484187661949
20
-3.96047952257967
30
0
41
1
10
4.1297270615766
20
-3.9729790570259
30
0
41
1
10
4.08451398428014
20
-4.00460162173425
30
0
41
1
10
4.06429755068265
20
-4.02386776153384
30
0
41
1
10
4.03273827667488
20
-4.06434430559284
30
0
41
1
10
4.02136497682395
20
-4.08513981661452
30
0
41
1
10
4.01355119541546
20
-4.10571803841952
30
0
0
SPLINE
5
D7
100
AcDbEntity
8
1
62
256
6
ByLayer
370
18
48
1
60
0
100
AcDbSpline
70
4
71
3
72
26
73
22
40
0
40
0
40
0
40
0
40
0.0145476560247501
40
0.0145476560247501
40
0.103523269562268
40
0.103523269562268
40
0.281474496637305
40
0.281474496637305
40
0.370450110174824
40
0.370450110174824
40
0.459425723712343
40
0.459425723712343
40
0.548401337249862
40
0.548401337249862
40
0.637376950787381
40
0.637376950787381
40
0.815328177862418
40
0.815328177862418
40
0.993279404937456
40
0.993279404937456
40
1
40
1
40
1
40
1
41
1
10
24.3201388897039
20
3.30035648176945
30
0
41
1
10
24.3944846388398
20
3.2792934335354
30
0
41
1
10
24.4688212185981
20
3.25786430737296
30
0
41
1
10
24.997769198411
20
3.10279397784171
30
0
41
1
10
25.4523702715266
20
2.95589620244189
30
0
41
1
10
26.8171796182117
20
2.47944305985115
30
0
41
1
10
27.7219721824323
20
2.11704235573106
30
0
41
1
10
29.0836700073355
20
1.52762301394659
30
0
41
1
10
29.5390091967037
20
1.32317660599025
30
0
41
1
10
30.4468090055147
20
0.905978606051292
30
0
41
1
10
30.899917927611
20
0.693071917155436
30
0
41
1
10
31.8065139034384
20
0.262722264126751
30
0
41
1
10
32.2599929749952
20
0.045267212376416
30
0
41
1
10
33.1693886045392
20
-0.389880066367056
30
0
41
1
10
33.6218753860412
20
-0.605646622834882
30
0
41
1
10
34.9741686344407
20
-1.24111019133176
30
0
41
1
10
35.8693683698172
20
-1.64947823079771
30
0
41
1
10
37.6635309592561
20
-2.40280218211052
30
0
41
1
10
38.5623330692636
20
-2.748180648827
30
0
41
1
10
39.5052320005034
20
-3.05831286346435
30
0
41
1
10
39.5395347914337
20
-3.06952400095557
30
0
41
1
10
39.5738263560847
20
-3.0806593326773
30
0
0
SPLINE
5
D8
100
AcDbEntity
8
1
62
256
6
ByLayer
370
13
48
1
60
0
100
AcDbSpline
70
4
71
3
72
16
73
12
40
0
40
0
40
0
40
0
40
0.156042123343543
40
0.156042123343543
40
0.324833698674835
40
0.324833698674835
40
0.66241684933742
40
0.66241684933742
40
0.83120842466871
40
0.83120842466871
40
1
40
1
40
1
40
1
41
1
10
39.5738273069585
20
-3.08065964144984
30
0
41
1
10
39.9935298943683
20
-3.21694758931639
30
0
41
1
10
40.4115507972648
20
-3.34187991363706
30
0
41
1
10
41.2784492371222
20
-3.57609454140794
30
0
41
1
10
41.7272960007001
20
-3.68347476743858
30
0
41
1
10
43.0721710041149
20
-3.96005579526536
30
0
41
1
10
43.966548599023
20
-4.08331162616085
30
0
41
1
10
45.3166945523245
20
-4.16803880476576
30
0
41
1
10
45.7682049294111
20
-4.17965451104612
30
0
41
1
10
46.6761003229197
20
-4.16832817027816
30
0
41
1
10
47.1298378879174
20
-4.14503643657824
30
0
41
1
10
47.5835786158142
20
-4.10529591281906
30
0
0
SPLINE
5
D9
100
AcDbEntity
8
1
62
256
6
ByLayer
370
18
48
1
60
0
100
AcDbSpline
70
4
71
3
72
22
73
18
40
0
40
0
40
0
40
0
40
0.0500684988426692
40
0.0500684988426692
40
0.25608817983604
40
0.25608817983604
40
0.359098020332726
40
0.359098020332726
40
0.462107860829412
40
0.462107860829412
40
0.668127541822783
40
0.668127541822783
40
0.874147222816155
40
0.874147222816155
40
0.977157063312841
40
0.977157063312841
40
1
40
1
40
1
40
1
41
1
10
18.2364066796136
20
4.17929653385275
30
0
41
1
10
18.1276225812198
20
4.14402464332304
30
0
41
1
10
18.0187415472602
20
4.10826064564262
30
0
41
1
10
17.4612809293415
20
3.92283179122941
30
0
41
1
10
17.0109560094531
20
3.76534555424516
30
0
41
1
10
16.3307400968704
20
3.5187742088479
30
0
41
1
10
16.1035494111567
20
3.43500268549525
30
0
41
1
10
15.6504404413626
20
3.26592521426318
30
0
41
1
10
15.4241685638086
20
3.1804925775825
30
0
41
1
10
14.7457208421347
20
2.92281651639831
30
0
41
1
10
14.293926223218
20
2.74915720665169
30
0
41
1
10
13.3883738197411
20
2.40619698497059
30
0
41
1
10
12.9346084198748
20
2.2369170110112
30
0
41
1
10
12.2499983219545
20
1.99309320159006
30
0
41
1
10
12.0211327752112
20
1.91350664871857
30
0
41
1
10
11.7404439852833
20
1.81905477997253
30
0
41
1
10
11.689440071032
20
1.80201890196952
30
0
41
1
10
11.6383869736908
20
1.78510047251663
30
0
0
SPLINE
5
DA
100
AcDbEntity
8
1
62
256
6
ByLayer
370
18
48
1
60
0
100
AcDbSpline
70
4
71
3
72
8
73
4
40
0
40
0
40
0
40
0
40
1
40
1
40
1
40
1
41
1
10
47.9194142770034
20
-2.89741538553443
30
0
41
1
10
47.7761889470105
20
-3.2909237455842
30
0
41
1
10
47.6329636170175
20
-3.68443210563393
30
0
41
1
10
47.4897382870246
20
-4.07794046568364
30
0
0
SPLINE
5
DB
100
AcDbEntity
8
1
62
256
6
ByLayer
370
18
48
1
60
0
100
AcDbSpline
70
4
71
3
72
20
73
16
40
0
40
0
40
0
40
0
40
0.124999999999999
40
0.124999999999999
40
0.249999999999998
40
0.249999999999998
40
0.374999999999998
40
0.374999999999998
40
0.499999999999997
40
0.499999999999997
40
0.749999999999998
40
0.749999999999998
40
0.874999999999999
40
0.874999999999999
40
1
40
1
40
1
40
1
41
1
10
4.25109032976687
20
3.93623909529646
30
0
41
1
10
4.45672891924593
20
3.91670437866108
30
0
41
1
10
4.6656008382792
20
3.89023005597636
30
0
41
1
10
5.08810522577312
20
3.82634827391553
30
0
41
1
10
5.30175703752687
20
3.78891038394636
30
0
41
1
10
5.73293166306101
20
3.70489669267329
30
0
41
1
10
5.95045813620118
20
3.65832171052711
30
0
41
1
10
6.38881337628402
20
3.55753268277493
30
0
41
1
10
6.60999211832129
20
3.50317701026512
30
0
41
1
10
7.27588458044869
20
3.32930677542299
30
0
41
1
10
7.72241943219476
20
3.19960892036318
30
0
41
1
10
8.39659170770318
20
2.9894928174885
30
0
41
1
10
8.62206274404173
20
2.91678126989933
30
0
41
1
10
9.07459907560886
20
2.76738769369734
30
0
41
1
10
9.30182540208571
20
2.69065651771916
30
0
41
1
10
9.52961184489004
20
2.61203557909082
30
0
0
SPLINE
5
DC
100
AcDbEntity
8
1
62
256
6
ByLayer
370
18
48
1
60
0
100
AcDbSpline
70
4
71
3
72
14
73
10
40
0
40
0
40
0
40
0
40
0.25
40
0.25
40
0.5
40
0.5
40
0.75
40
0.75
40
1
40
1
40
1
40
1
41
1
10
48.499203486765
20
2.07001008005233
30
0
41
1
10
48.5325974159108
20
1.98297468964918
30
0
41
1
10
48.5649948156662
20
1.89526517967633
30
0
41
1
10
48.6254594933974
20
1.72365970755567
30
0
41
1
10
48.6533999697412
20
1.64019725270236
30
0
41
1
10
48.7044158758025
20
1.47797546183429
30
0
41
1
10
48.7274950835588
20
1.39921297648161
30
0
41
1
10
48.7681644544148
20
1.24681042603609
30
0
41
1
10
48.7853903577397
20
1.17447466789071
30
0
41
1
10
48.7991606711811
20
1.10688813445446
30
0
0
SPLINE
5
DD
100
AcDbEntity
8
1
62
256
6
ByLayer
370
18
48
1
60
0
100
AcDbSpline
70
4
71
3
72
14
73
10
40
0
40
0
40
0
40
0
40
0.25
40
0.25
40
0.5
40
0.5
40
0.75
40
0.75
40
1
40
1
40
1
40
1
41
1
10
48.499203486765
20
-2.07001008005236
30
0
41
1
10
48.5325974159108
20
-1.98297468964921
30
0
41
1
10
48.5649948156662
20
-1.89526517967639
30
0
41
1
10
48.6254594933974
20
-1.7236597075557
30
0
41
1
10
48.6533999697412
20
-1.64019725270236
30
0
41
1
10
48.7044158758025
20
-1.47797546183429
30
0
41
1
10
48.7274950835589
20
-1.39921297648161
30
0
41
1
10
48.7681644544148
20
-1.24681042603609
30
0
41
1
10
48.7853903577397
20
-1.17447466789071
30
0
41
1
10
48.7991606711811
20
-1.10688813445444
30
0
0
SPLINE
5
DE
100
AcDbEntity
8
1
62
256
6
ByLayer
370
18
48
1
60
0
100
AcDbSpline
70
4
71
3
72
8
73
4
40
0
40
0
40
0
40
0
40
1
40
1
40
1
40
1
41
1
10
47.6124896896493
20
4.11471545467711
30
0
41
1
10
47.5921439813696
20
4.13884073272391
30
0
41
1
10
47.5731947548886
20
4.15972540260029
30
0
41
1
10
47.5555636352844
20
4.17739365258856
30
0
0
SPLINE
5
DF
100
AcDbEntity
8
1
62
256
6
ByLayer
370
18
48
1
60
0
100
AcDbSpline
70
4
71
3
72
18
73
14
40
0
40
0
40
0
40
0
40
0.124976563719683
40
0.124976563719683
40
0.249953127439365
40
0.249953127439365
40
0.499906254878728
40
0.499906254878728
40
0.749859382318091
40
0.749859382318091
40
0.999812509757454
40
0.999812509757454
40
1
40
1
40
1
40
1
41
1
10
18.2366108285589
20
4.17923376806385
30
0
41
1
10
17.8389382811194
20
4.18045018963988
30
0
41
1
10
17.4373637549908
20
4.16831050629156
30
0
41
1
10
16.6268909971291
20
4.1238013663814
30
0
41
1
10
16.2174242022988
20
4.0913262358674
30
0
41
1
10
14.9816006940127
20
3.97132171718999
30
0
41
1
10
14.1533124078412
20
3.86202772639771
30
0
41
1
10
12.4838326377267
20
3.62228760309205
30
0
41
1
10
11.6426077001099
20
3.49178674978847
30
0
41
1
10
9.94403226277925
20
3.24222286476873
30
0
41
1
10
9.08668548502965
20
3.12325677737638
30
0
41
1
10
8.21974981545415
20
3.02338725365922
30
0
41
1
10
8.21910000802808
20
3.02331240817583
30
0
41
1
10
8.21845019559666
20
3.02323757335387
30
0
0
SPLINE
5
E0
100
AcDbEntity
8
1
62
256
6
ByLayer
370
18
48
1
60
0
100
AcDbSpline
70
4
71
3
72
10
73
6
40
0
40
0
40
0
40
0
40
0.301899258509766
40
0.301899258509766
40
1
40
1
40
1
40
1
41
1
10
3.27224336566937
20
4.14357898639722
30
0
41
1
10
3.34412391400519
20
4.14354526681134
30
0
41
1
10
3.4171663260766
20
4.14221456083789
30
0
41
1
10
3.66238086851089
20
4.13402059270379
30
0
41
1
10
3.83684488472485
20
4.1222308507345
30
0
41
1
10
4.01355119540901
20
4.10571803842012
30
0
0
SPLINE
5
E1
100
AcDbEntity
8
1
62
256
6
ByLayer
370
18
48
1
60
0
100
AcDbSpline
70
4
71
3
72
8
73
4
40
0
40
0
40
0
40
0
40
1
40
1
40
1
40
1
41
1
10
4.03759183859646
20
0.576425489637757
30
0
41
1
10
4.06174707499054
20
0.535149742367565
30
0
41
1
10
4.09767812562728
20
0.499294382354037
30
0
41
1
10
4.1432547251369
20
0.476450385398351
30
0
0
SPLINE
5
E2
100
AcDbEntity
8
1
62
256
6
ByLayer
370
18
48
1
60
0
100
AcDbSpline
70
4
71
3
72
16
73
12
40
0
40
0
40
0
40
0
40
0.207263894745694
40
0.207263894745694
40
0.327630248064855
40
0.327630248064855
40
0.447996601384015
40
0.447996601384015
40
0.688729308022337
40
0.688729308022337
40
1
40
1
40
1
40
1
41
1
10
18.973524077583
20
-4.01127738886342
30
0
41
1
10
18.5861389048697
20
-4.01006284410346
30
0
41
1
10
18.1980359742419
20
-3.99678717320191
30
0
41
1
10
17.5825086118871
20
-3.95654549180546
30
0
41
1
10
17.3558889005885
20
-3.93762894441278
30
0
41
1
10
16.901565396681
20
-3.89165677493531
30
0
41
1
10
16.6737738684313
20
-3.86456579554783
30
0
41
1
10
15.9931135164069
20
-3.77185978786764
30
0
41
1
10
15.5413518260666
20
-3.69469043489644
30
0
41
1
10
14.5080796645991
20
-3.4845734925452
30
0
41
1
10
13.9273208706102
20
-3.34199748550162
30
0
41
1
10
13.346357561165
20
-3.17816423348737
30
0
0
SPLINE
5
E3
100
AcDbEntity
8
1
62
256
6
ByLayer
370
13
48
1
60
0
100
AcDbSpline
70
4
71
3
72
18
73
14
40
0
40
0
40
0
40
0
40
0.105410521281345
40
0.105410521281345
40
0.254508767734452
40
0.254508767734452
40
0.329057890961006
40
0.329057890961006
40
0.403607014187561
40
0.403607014187561
40
0.70180350709378
40
0.70180350709378
40
1
40
1
40
1
40
1
41
1
10
13.3463585223649
20
-3.17816450454836
30
0
41
1
10
13.0287025695976
20
-3.08858466449701
30
0
41
1
10
12.710985474743
20
-2.99264970679093
30
0
41
1
10
11.9428958344492
20
-2.74679416188076
30
0
41
1
10
11.4921488547065
20
-2.59083554160068
30
0
41
1
10
10.8136327453063
20
-2.34113971515063
30
0
41
1
10
10.5870195256255
20
-2.25532134571424
30
0
41
1
10
10.1326592404708
20
-2.07890127758768
30
0
41
1
10
9.90463997037111
20
-1.98818167419705
30
0
41
1
10
8.7682848745097
20
-1.52652993658404
30
0
41
1
10
7.86672969809138
20
-1.12912994687488
30
0
41
1
10
6.06290371022757
20
-0.31231591788142
30
0
41
1
10
5.16084593172999
20
0.107518983076545
30
0
41
1
10
4.25071173765056
20
0.52142833513895
30
0
0
SPLINE
5
E4
100
AcDbEntity
8
1
62
256
6
ByLayer
370
18
48
1
60
0
100
AcDbSpline
70
4
71
3
72
64
73
60
40
0
40
0
40
0
40
0
40
0.0089177594724673
40
0.0089177594724673
40
0.0485610490935683
40
0.0485610490935683
40
0.0882043387146692
40
0.0882043387146692
40
0.12784762833577
40
0.12784762833577
40
0.167490917956871
40
0.167490917956871
40
0.207134207577972
40
0.207134207577972
40
0.246777497199073
40
0.246777497199073
40
0.286420786820174
40
0.286420786820174
40
0.326064076441275
40
0.326064076441275
40
0.365707366062376
40
0.365707366062376
40
0.405350655683477
40
0.405350655683477
40
0.444993945304577
40
0.444993945304577
40
0.464815590115128
40
0.464815590115128
40
0.484637234925679
40
0.484637234925679
40
0.524280524546781
40
0.524280524546781
40
0.563923814167883
40
0.563923814167883
40
0.583745458978434
40
0.583745458978434
40
0.603567103788984
40
0.603567103788984
40
0.643210393410086
40
0.643210393410086
40
0.663032038220637
40
0.663032038220637
40
0.682853683031188
40
0.682853683031188
40
0.722496972652289
40
0.722496972652289
40
0.762140262273391
40
0.762140262273391
40
0.801783551894492
40
0.801783551894492
40
0.841426841515594
40
0.841426841515594
40
0.881070131136695
40
0.881070131136695
40
0.920713420757797
40
0.920713420757797
40
0.960356710378898
40
0.960356710378898
40
1
40
1
40
1
40
1
41
1
10
37.2146274141729
20
-2.47599080443825
30
0
41
1
10
37.1323598389424
20
-2.50638805844753
30
0
41
1
10
37.0501202322737
20
-2.53643110705158
30
0
41
1
10
36.6025359234449
20
-2.69799827113269
30
0
41
1
10
36.2378854912252
20
-2.82367902933569
30
0
41
1
10
35.5077583362814
20
-3.05591805678515
30
0
41
1
10
35.1422341423925
20
-3.16420222695004
30
0
41
1
10
34.410716999042
20
-3.36600170849727
30
0
41
1
10
34.0444256065395
20
-3.45859092789837
30
0
41
1
10
33.3135234994688
20
-3.62283051328652
30
0
41
1
10
32.9488937179932
20
-3.69309143150989
30
0
41
1
10
32.2187069866715
20
-3.81711574793147
30
0
41
1
10
31.8532015097506
20
-3.86954032211125
30
0
41
1
10
31.1216346383588
20
-3.95451869789025
30
0
41
1
10
30.7554015763136
20
-3.98696128736148
30
0
41
1
10
30.0245381400085
20
-4.026282976489
30
0
41
1
10
29.6597330963267
20
-4.03620021774628
30
0
41
1
10
28.9296634248634
20
-4.03308302796697
30
0
41
1
10
28.5641874973681
20
-4.02082394560526
30
0
41
1
10
27.8326131765952
20
-3.97664720796141
30
0
41
1
10
27.4663753803224
20
-3.94408934828738
30
0
41
1
10
26.7352813823138
20
-3.85756607278205
30
0
41
1
10
26.3704951102486
20
-3.80130410031782
30
0
41
1
10
25.6404048450996
20
-3.67245327619605
30
0
41
1
10
25.2749568266655
20
-3.59920562818425
30
0
41
1
10
24.7262518189567
20
-3.47474020320749
30
0
41
1
10
24.5432112733772
20
-3.43072839511677
30
0
41
1
10
24.1771883788163
20
-3.33823281369484
30
0
41
1
10
23.9943247486616
20
-3.28939482190864
30
0
41
1
10
23.4459728372906
20
-3.13625285504193
30
0
41
1
10
23.0808848267724
20
-3.02673152656169
30
0
41
1
10
22.3506930531645
20
-2.79201911738562
30
0
41
1
10
21.9852725670663
20
-2.66738477723427
30
0
41
1
10
21.4364604143998
20
-2.46913799722932
30
0
41
1
10
21.2533414842769
20
-2.40027694026151
30
0
41
1
10
20.8871046711337
20
-2.26008032528429
30
0
41
1
10
20.7040022185579
20
-2.18906607494435
30
0
41
1
10
20.1548894665247
20
-1.9725880577256
30
0
41
1
10
19.7893018238408
20
-1.82318471287326
30
0
41
1
10
19.2410383935081
20
-1.59190218970483
30
0
41
1
10
19.0582403427104
20
-1.51377427635936
30
0
41
1
10
18.6923872664484
20
-1.35549583388186
30
0
41
1
10
18.5093221069987
20
-1.27504169803311
30
0
41
1
10
17.959759220211
20
-1.0313290555155
30
0
41
1
10
17.5930205333056
20
-0.865313742797127
30
0
41
1
10
16.8607869098021
20
-0.531342970180475
30
0
41
1
10
16.4950062656878
20
-0.363061585730946
30
0
41
1
10
15.7636884472455
20
-0.024739173923507
30
0
41
1
10
15.3977948789214
20
0.144553845801028
30
0
41
1
10
14.6647856409808
20
0.481925536287207
30
0
41
1
10
14.2978641225645
20
0.650562876923289
30
0
41
1
10
13.5645232609993
20
0.981374444162981
30
0
41
1
10
13.1980190728729
20
1.14461081610159
30
0
41
1
10
12.4650221164276
20
1.46478795029088
30
0
41
1
10
12.0976843956487
20
1.62078008224003
30
0
41
1
10
11.3636370992723
20
1.92239171768523
30
0
41
1
10
10.9973056383051
20
2.06936287309969
30
0
41
1
10
10.2638984395083
20
2.35037288039948
30
0
41
1
10
9.89688376806819
20
2.48457521258442
30
0
41
1
10
9.52961184488515
20
2.61203557909249
30
0
0
SPLINE
5
E5
100
AcDbEntity
8
SK1
62
256
6
ByLayer
370
18
48
1
60
0
100
AcDbSpline
70
4
71
3
72
14
73
10
40
0
40
0
40
0
40
0
40
0.124999999999999
40
0.124999999999999
40
0.249999999999998
40
0.249999999999998
40
0.499999999999997
40
0.499999999999997
40
1
40
1
40
1
40
1
41
1
10
-38.85
20
-2.58287861848018
30
0
41
1
10
-38.85
20
-2.57343740828961
30
0
41
1
10
-38.8517453396943
20
-2.56255941499995
30
0
41
1
10
-38.8568901241518
20
-2.54116114310966
30
0
41
1
10
-38.860211966304
20
-2.53071646043168
30
0
41
1
10
-38.8714485682307
20
-2.49981396587796
30
0
41
1
10
-38.880205404054
20
-2.48084723612257
30
0
41
1
10
-38.9082792076553
20
-2.42661942825507
30
0
41
1
10
-38.9286347141253
20
-2.39552225844
30
0
41
1
10
-38.95
20
-2.36867550852185
30
0
0
SPLINE
5
E6
100
AcDbEntity
8
SK1
62
256
6
ByLayer
370
18
48
1
60
0
100
AcDbSpline
70
4
71
3
72
14
73
10
40
0
40
0
40
0
40
0
40
0.500000000000002
40
0.500000000000002
40
0.750000000000003
40
0.750000000000003
40
0.875000000000002
40
0.875000000000002
40
1
40
1
40
1
40
1
41
1
10
-38.9500000000001
20
-4.15246243374622
30
0
41
1
10
-38.9287234691649
20
-4.17919765768883
30
0
41
1
10
-38.9083432483059
20
-4.20159494354692
30
0
41
1
10
-38.880223151313
20
-4.22548169163454
30
0
41
1
10
-38.8713218079587
20
-4.23171112188302
30
0
41
1
10
-38.8602667834558
20
-4.23547399179617
30
0
41
1
10
-38.8569157654531
20
-4.23581512981934
30
0
41
1
10
-38.851744720606
20
-4.23304638103141
30
0
41
1
10
-38.8499999999999
20
-4.22985612203047
30
0
41
1
10
-38.8499999999999
20
-4.22396258968666
30
0
0
SPLINE
5
E7
100
AcDbEntity
8
SK1
62
256
6
ByLayer
370
18
48
1
60
0
100
AcDbSpline
70
4
71
3
72
10
73
6
40
0
40
0
40
0
40
0
40
0.5
40
0.5
40
1
40
1
40
1
40
1
41
1
10
-40
20
-2.80266398897706
30
0
41
1
10
-39.8301430061037
20
-3.02941376708989
30
0
41
1
10
-39.6563418345959
20
-3.25480542270864
30
0
41
1
10
-39.3053878389133
20
-3.70443463914424
30
0
41
1
10
-39.1281268986067
20
-3.92863541225714
30
0
41
1
10
-38.95
20
-4.15246243374614
30
0
0
SPLINE
5
E8
100
AcDbEntity
8
SK1
62
256
6
ByLayer
370
18
48
1
60
0
100
AcDbSpline
70
4
71
3
72
10
73
6
40
0
40
0
40
0
40
0
40
0.5
40
0.5
40
1
40
1
40
1
40
1
41
1
10
-38.95
20
-2.36867550852185
30
0
41
1
10
-39.1280955999382
20
-2.14488781566763
30
0
41
1
10
-39.3052989507492
20
-1.92076038024308
30
0
41
1
10
-39.6562185116464
20
-1.47117770741963
30
0
41
1
10
-39.8300410447181
20
-1.24576295472758
30
0
41
1
10
-40
20
-1.01887706375271
30
0
0
LINE
5
76
100
AcDbEntity
8
81
62
256
6
ByLayer
370
18
48
1
60
0
100
AcDbLine
10
49
20
0
30
0
11
54
21
0
31
0
39
0
210
0
220
0
230
1
0
LINE
5
77
100
AcDbEntity
8
1
62
256
6
ByLayer
370
18
48
1
60
0
100
AcDbLine
10
3.267301
20
4.143572
30
0
11
1.42096
21
4.139141
31
0
39
0
210
0
220
0
230
1
0
LINE
5
79
100
AcDbEntity
8
1
62
256
6
ByLayer
370
18
48
1
60
0
100
AcDbLine
10
18.754491
20
4.180741
30
0
11
18.1345
21
4.179253
31
0
39
0
210
0
220
0
230
1
0
LINE
5
7A
100
AcDbEntity
8
1
62
256
6
ByLayer
370
18
48
1
60
0
100
AcDbLine
10
45.955179
20
4.246023
30
0
11
45.417273
21
4.244732
31
0
39
0
210
0
220
0
230
1
0
LINE
5
7B
100
AcDbEntity
8
1
62
256
6
ByLayer
370
18
48
1
60
0
100
AcDbLine
10
45.417273
20
-4.244732
30
0
11
45.954433
21
-4.246021
31
0
39
0
210
0
220
0
230
1
0
LINE
5
7C
100
AcDbEntity
8
1
62
256
6
ByLayer
370
18
48
1
60
0
100
AcDbLine
10
18.1345
20
-4.179253
30
0
11
18.753718
21
-4.18074
31
0
39
0
210
0
220
0
230
1
0
LINE
5
7D
100
AcDbEntity
8
1
62
256
6
ByLayer
370
18
48
1
60
0
100
AcDbLine
10
1.42096
20
-4.139141
30
0
11
3.267301
21
-4.143572
31
0
39
0
210
0
220
0
230
1
0
LINE
5
7E
100
AcDbEntity
8
SK1
62
256
6
ByLayer
370
18
48
1
60
0
100
AcDbLine
10
-38.845299
20
5
30
0
11
-40
21
3
31
0
39
0
210
0
220
0
230
1
0
LINE
5
80
100
AcDbEntity
8
SK1
62
256
6
ByLayer
370
18
48
1
60
0
100
AcDbLine
10
-40
20
-3
30
0
11
-38.845299
21
-5
31
0
39
0
210
0
220
0
230
1
0
LINE
5
81
100
AcDbEntity
8
SK1
62
256
6
ByLayer
370
18
48
1
60
0
100
AcDbLine
10
0
20
5
30
0
11
-38.845299
21
5
31
0
39
0
210
0
220
0
230
1
0
LINE
5
82
100
AcDbEntity
8
SK1
62
256
6
ByLayer
370
18
48
1
60
0
100
AcDbLine
10
-38.845299
20
-5
30
0
11
0
21
-5
31
0
39
0
210
0
220
0
230
1
0
LINE
5
83
100
AcDbEntity
8
4
62
256
6
ByLayer
370
18
48
0.05
60
0
100
AcDbLine
10
49
20
0
30
0
11
0
21
0
31
0
39
0
210
0
220
0
230
1
0
LINE
5
85
100
AcDbEntity
8
SK4
62
256
6
ByLayer
370
18
48
0.05
60
0
100
AcDbLine
10
54
20
0
30
0
11
-45
21
0
31
0
39
0
210
0
220
0
230
1
0
LINE
5
87
100
AcDbEntity
8
80
62
256
6
ByLayer
370
18
48
1
60
0
100
AcDbLine
10
0
20
0
30
0
11
-5
21
0
31
0
39
0
210
0
220
0
230
1
0
LINE
5
88
100
AcDbEntity
8
1
62
256
6
ByLayer
370
13
48
1
60
0
100
AcDbLine
10
48.72605
20
0.04963
30
0
11
48.946564
21
-0.077126
31
0
39
0
210
0
220
0
230
1
0
LINE
5
89
100
AcDbEntity
8
1
62
256
6
ByLayer
370
18
48
1
60
0
100
AcDbLine
10
48.916869
20
0.476639
30
0
11
48.916869
21
0.341467
31
0
39
0
210
0
220
0
230
1
0
LINE
5
8A
100
AcDbEntity
8
1
62
256
6
ByLayer
370
13
48
1
60
0
100
AcDbLine
10
48.916869
20
0.341467
30
0
11
47.845697
21
1.165873
31
0
39
0
210
0
220
0
230
1
0
LINE
5
8B
100
AcDbEntity
8
1
62
256
6
ByLayer
370
13
48
1
60
0
100
AcDbLine
10
1.42096
20
4.139141
30
0
11
1.42096
21
-4.139141
31
0
39
0
210
0
220
0
230
1
0
LINE
5
8C
100
AcDbEntity
8
1
62
256
6
ByLayer
370
13
48
1
60
0
100
AcDbLine
10
48.799161
20
1.106888
30
0
11
47.845697
21
1.165873
31
0
39
0
210
0
220
0
230
1
0
LINE
5
8D
100
AcDbEntity
8
1
62
256
6
ByLayer
370
13
48
1
60
0
100
AcDbLine
10
0.70952
20
4.569569
30
0
11
0.70952
21
-4.569569
31
0
39
0
210
0
220
0
230
1
0
LINE
5
8E
100
AcDbEntity
8
1
62
256
6
ByLayer
370
13
48
1
60
0
100
AcDbLine
10
48.904466
20
0.313444
30
0
11
48.946061
21
0.289534
31
0
39
0
210
0
220
0
230
1
0
LINE
5
8F
100
AcDbEntity
8
1
62
256
6
ByLayer
370
13
48
1
60
0
100
AcDbLine
10
47.628731
20
0.894159
30
0
11
48.72605
21
0.04963
31
0
39
0
210
0
220
0
230
1
0
LINE
5
90
100
AcDbEntity
8
1
62
256
6
ByLayer
370
18
48
1
60
0
100
AcDbLine
10
46.804419
20
-3.018957
30
0
11
48.94445
21
-0.081153
31
0
39
0
210
0
220
0
230
1
0
LINE
5
91
100
AcDbEntity
8
1
62
256
6
ByLayer
370
18
48
1
60
0
100
AcDbLine
10
0
20
-5
30
0
11
0
21
5
31
0
39
0
210
0
220
0
230
1
0
LINE
5
92
100
AcDbEntity
8
SK1
62
256
6
ByLayer
370
18
48
1
60
0
100
AcDbLine
10
-40
20
-1.01884
30
0
11
-40
21
-2.802664
31
0
39
0
210
0
220
0
230
1
0
LINE
5
93
100
AcDbEntity
8
SK1
62
256
6
ByLayer
370
18
48
1
60
0
100
AcDbLine
10
-38.845299
20
5
30
0
11
-38.845299
21
-5
31
0
39
0
210
0
220
0
230
1
0
LINE
5
94
100
AcDbEntity
8
SK1
62
256
6
ByLayer
370
18
48
1
60
0
100
AcDbLine
10
0
20
-5
30
0
11
0
21
5
31
0
39
0
210
0
220
0
230
1
0
LINE
5
95
100
AcDbEntity
8
SK1
62
256
6
ByLayer
370
13
48
1
60
0
100
AcDbLine
10
-38.95
20
-2.368626
30
0
11
-38.95
21
-4.152462
31
0
39
0
210
0
220
0
230
1
0
LINE
5
96
100
AcDbEntity
8
SK1
62
256
6
ByLayer
370
18
48
1
60
0
100
AcDbLine
10
-38.85
20
-4.223963
30
0
11
-38.85
21
-2.582879
31
0
39
0
210
0
220
0
230
1
0
LINE
5
97
100
AcDbEntity
8
SK1
62
256
6
ByLayer
370
18
48
1
60
0
100
AcDbLine
10
-40
20
-3
30
0
11
-40
21
-2.802664
31
0
39
0
210
0
220
0
230
1
0
LINE
5
98
100
AcDbEntity
8
SK1
62
256
6
ByLayer
370
18
48
1
60
0
100
AcDbLine
10
-40
20
3
30
0
11
-40
21
-1.018877
31
0
39
0
210
0
220
0
230
1
0
MTEXT
5
E9
100
AcDbEntity
8
SK6
62
256
6
ByLayer
370
13
48
1
60
0
100
AcDbMText
10
6.629169
20
36.632694
30
0
210
0
220
0
230
1
1
\W0.7315;860.1-0850-026A1-MM 2214
40
3.5
41
0
44
1.084337
50
0
71
8
72
5
7
iso_b_vert
0
DIMENSION
5
F6
100
AcDbEntity
8
2
62
256
6
ByLayer
370
13
48
1
60
0
100
AcDbDimension
2
DimnDraft3D1
10
47.6078
20
-14.463398
30
0
11
22.357859
21
-14.463398
31
0
70
32
71
5
72
1
41
1
210
0
220
0
230
1
3
Standard
100
AcDbAlignedDimension
13
0
23
-1.5875
33
0
14
47.6078
24
-5.8375
34
0
50
0
100
AcDbRotatedDimension
1001
ACAD
1000
DSTYLE
1002
{
1070
   279
1070
     0
1070
   172
1070
     1
1070
   173
1070
     1
1070
   340
1005
EA
1070
   271
1070
     2
1070
   272
1070
     2
1070
    77
1070
     1
1070
    73
1070
     0
1070
   171
1070
     3
1070
   274
1070
     4
1070
   177
1070
    35
1070
   176
1070
    35
1070
   178
1070
    35
1070
    48
1040
-0.005
1070
    41
1041
3.5
1070
   147
1041
1.75
1070
    42
1041
1.5875
1070
    44
1041
2.0
1070
   140
1041
3.5
1070
   343
1005
0
1070
   344
1005
0
1002
}
0
DIMENSION
5
100
100
AcDbEntity
8
SK2
62
256
6
ByLayer
370
13
48
1
60
0
100
AcDbDimension
2
DimnDraft3D2
10
49
20
-33.692985
30
0
11
4.4491
21
-33.692985
31
0
70
32
71
5
72
1
41
1
210
0
220
0
230
1
3
Standard
100
AcDbAlignedDimension
13
-40
23
-6.5875
33
0
14
49
24
-1.5875
34
0
50
0
100
AcDbRotatedDimension
1001
ACAD
1000
DSTYLE
1002
{
1070
   279
1070
     0
1070
   172
1070
     1
1070
   173
1070
     1
1070
   340
1005
EA
1070
   271
1070
     2
1070
   272
1070
     2
1070
    77
1070
     1
1070
    73
1070
     0
1070
   171
1070
     3
1070
   274
1070
     4
1070
   177
1070
    35
1070
   176
1070
    35
1070
   178
1070
    35
1070
    48
1040
-0.005
1070
    41
1041
3.5
1070
   147
1041
1.75
1070
    42
1041
1.5875
1070
    44
1041
2.0
1070
   140
1041
3.5
1070
   343
1005
0
1070
   344
1005
0
1002
}
0
DIMENSION
5
10A
100
AcDbEntity
8
SK2
62
256
6
ByLayer
370
13
48
1
60
0
100
AcDbDimension
2
DimnDraft3D3
10
49
20
15.859119
30
0
11
35.555
21
15.859119
31
0
70
32
71
5
72
1
41
1
210
0
220
0
230
1
3
Standard
100
AcDbAlignedDimension
13
22.11
23
5.8375
33
0
14
49
24
1.5875
34
0
50
0
100
AcDbRotatedDimension
1001
ACAD
1000
DSTYLE
1002
{
1070
   279
1070
     0
1070
   172
1070
     1
1070
   173
1070
     1
1070
   340
1005
EA
1070
   271
1070
     2
1070
   272
1070
     2
1070
    77
1070
     1
1070
    73
1070
     0
1070
   171
1070
     3
1070
   274
1070
     4
1070
   177
1070
    35
1070
   176
1070
    35
1070
   178
1070
    35
1070
    48
1040
-0.005
1070
    41
1041
3.5
1070
   147
1041
1.75
1070
    42
1041
1.5875
1070
    44
1041
2.0
1070
   140
1041
3.5
1070
   343
1005
0
1070
   344
1005
0
1002
}
0
DIMENSION
5
114
100
AcDbEntity
8
SK2
62
256
6
ByLayer
370
13
48
1
60
0
100
AcDbDimension
2
DimnDraft3D4
10
47.6078
20
-17.052503
30
0
11
58.981425
21
-17.052503
31
0
70
32
71
5
72
1
41
1
210
0
220
0
230
1
3
Standard
100
AcDbAlignedDimension
13
49
23
-1.5875
33
0
14
47.6078
24
-5.8375
34
0
50
0
100
AcDbRotatedDimension
1001
ACAD
1000
DSTYLE
1002
{
1070
   279
1070
     0
1070
   172
1070
     1
1070
   173
1070
     1
1070
   340
1005
EA
1070
   271
1070
     2
1070
   272
1070
     2
1070
    77
1070
     1
1070
    73
1070
     0
1070
   171
1070
     3
1070
   274
1070
     4
1070
   177
1070
    35
1070
   176
1070
    35
1070
   178
1070
    35
1070
    48
1040
-0.005
1070
    41
1041
3.5
1070
   147
1041
1.75
1070
    42
1041
1.5875
1070
    44
1041
2.0
1070
   140
1041
3.5
1070
   343
1005
0
1070
   344
1005
0
1002
}
0
DIMENSION
5
11E
100
AcDbEntity
8
SK2
62
256
6
ByLayer
370
13
48
1
60
0
100
AcDbDimension
2
DimnDraft3D5
10
47.6078
20
-23.343428
30
0
11
1.368476
21
-23.343428
31
0
70
32
71
5
72
1
41
1
210
0
220
0
230
1
3
Standard
100
AcDbAlignedDimension
13
-40
23
-6.5875
33
0
14
47.6078
24
-5.8375
34
0
50
0
100
AcDbRotatedDimension
1001
ACAD
1000
DSTYLE
1002
{
1070
   279
1070
     0
1070
   172
1070
     1
1070
   173
1070
     1
1070
   340
1005
EA
1070
   271
1070
     2
1070
   272
1070
     2
1070
    77
1070
     1
1070
    73
1070
     0
1070
   171
1070
     3
1070
   274
1070
     4
1070
   177
1070
    35
1070
   176
1070
    35
1070
   178
1070
    35
1070
    48
1040
-0.005
1070
    41
1041
3.5
1070
   147
1041
1.75
1070
    42
1041
1.5875
1070
    44
1041
2.0
1070
   140
1041
3.5
1070
   343
1005
0
1070
   344
1005
0
1002
}
0
DIMENSION
5
129
100
AcDbEntity
8
SK2
62
256
6
ByLayer
370
13
48
1
60
0
100
AcDbDimension
2
DimnDraft3D6
10
-50.625163
20
5
30
0
11
-51.250163
21
23.47418
31
0
70
33
71
5
72
1
41
1
210
0
220
0
230
1
3
Standard
100
AcDbAlignedDimension
13
-41.5875
23
-5
33
0
14
-41.5875
24
5
34
0
1001
ACAD
1000
DSTYLE
1002
{
1070
   279
1070
     0
1070
    74
1070
     0
1070
   173
1070
     1
1070
   340
1005
EA
1070
   271
1070
     3
1070
   272
1070
     2
1070
    77
1070
     1
1070
    73
1070
     0
1070
   171
1070
     3
1070
   274
1070
     4
1070
   177
1070
    35
1070
   176
1070
    35
1070
   178
1070
    35
1070
    48
1040
-0.005
1070
    41
1041
3.5
1070
   147
1041
1.75
1070
    42
1041
1.5875
1070
    44
1041
2.0
1070
   140
1041
3.5
1070
   343
1005
0
1070
   344
1005
0
1002
}
0
DIMENSION
5
134
100
AcDbEntity
8
2
62
256
6
ByLayer
370
13
48
1
60
0
100
AcDbDimension
2
DimnDraft3D7
10
63.083343
20
4.25
30
0
11
58.458343
21
21.317266
31
0
70
33
71
5
72
1
41
1
210
0
220
0
230
1
3
Standard
100
AcDbAlignedDimension
13
49.1953
23
-4.25
33
0
14
49.1953
24
4.25
34
0
1001
ACAD
1000
DSTYLE
1002
{
1070
   279
1070
     0
1070
    74
1070
     0
1070
   173
1070
     1
1070
   340
1005
EA
1070
   271
1070
     3
1070
   272
1070
     2
1070
    77
1070
     1
1070
    73
1070
     0
1070
   171
1070
     3
1070
   274
1070
     4
1070
   177
1070
    35
1070
   176
1070
    35
1070
   178
1070
    35
1070
    48
1040
-0.005
1070
    41
1041
3.5
1070
   147
1041
1.75
1070
    42
1041
1.5875
1070
    44
1041
2.0
1070
   140
1041
3.5
1070
   343
1005
0
1070
   344
1005
0
1002
}
0
ENDSEC
0
SECTION
2
OBJECTS
0
DICTIONARY
5
19f
330
0
100
AcDbDictionary
280
0
281
1
3
ACAD_GROUP
350
1a0
3
ACAD_MLINESTYLE
350
1a1
0
DICTIONARY
5
1a0
330
0
100
AcDbDictionary
280
0
281
1
0
DICTIONARY
5
1a1
330
0
100
AcDbDictionary
280
0
281
1
3
Standard
350
18
0
MLINESTYLE
5
18
330
1a1
100
AcDbMlineStyle
2
Standard
70
0
3

62
256
51
90
52
90
71
2
49
-0.5
62
256
6
ByLayer
49
0.5
62
256
6
ByLayer
0
RASTERVARIABLES
5
18d
330

100
AcDbRasterVariables
90
0
70
1
71
1
72
1
0
ENDSEC
0
EOF
