0
SECTION
2
HEADER
9
$ACADVER
1
AC1015
9
$DWGCODEPAGE
3
ANSI_1252
9
$HANDSEED
5
1a6
9
$ANGBASE
50
0
9
$ANGDIR
70
0
9
$ATTMODE
70
1
9
$AUNITS
70
0
9
$AUPREC
70
0
9
$CECOLOR
62
256
9
$CELTSCALE
40
1
9
$CELTYPE
6
ByLayer
9
$CELWEIGHT
370
18
9
$CLAYER
8
0
9
$CMLJUST
70
0
9
$CMLSCALE
40
1
9
$CMLSTYLE
2
Standard
9
$DIMSTYLE
2
Standard
9
$TEXTSIZE
40
0.2
9
$TEXTSTYLE
7
Standard
9
$LUNITS
70
2
9
$LUPREC
70
4
9
$EXTNAMES
290
1
9
$INSUNITS
70
4
9
$LTSCALE
40
1
9
$LWDISPLAY
290
1
9
$PDMODE
70
0
9
$PDSIZE
40
0
9
$PLINEGEN
70
0
0
ENDSEC
0
SECTION
2
CLASSES
0
CLASS
1
RASTERVARIABLES
2
AcDbRasterVariables
3
ISM
90
0
280
0
281
0
0
ENDSEC
0
SECTION
2
TABLES
0
TABLE
2
VPORT
5
19c
100
AcDbSymbolTable
0
VPORT
5
1
100
AcDbSymbolTableRecord
100
AcDbViewportTableRecord
2
*Active
70
0
10
0
20
0
11
1
21
1
12
-1
22
1
13
0
23
0
14
0.5
24
0.5
15
10
25
10
16
0
26
0
36
1
17
0
27
0
37
0
0
ENDTAB
0
TABLE
2
LTYPE
5
19d
100
AcDbSymbolTable
0
LTYPE
5
14
100
AcDbSymbolTableRecord
100
AcDbLinetypeTableRecord
70
0
2
ByBlock
3

72
65
73
0
40
0
0
LTYPE
5
15
100
AcDbSymbolTableRecord
100
AcDbLinetypeTableRecord
70
0
2
ByLayer
3

72
65
73
0
40
0
0
LTYPE
5
16
100
AcDbSymbolTableRecord
100
AcDbLinetypeTableRecord
70
0
2
CONTINUOUS
3
Solid line
72
65
73
0
40
0
0
LTYPE
5
6A
100
AcDbSymbolTableRecord
100
AcDbLinetypeTableRecord
70
0
2
CENTER
3
____ _ ____ _ ____ _ ____
72
65
73
4
40
47.5
49
22
74
0
49
-8.5
74
0
49
8.5
74
0
49
-8.5
74
0
0
LTYPE
5
6B
100
AcDbSymbolTableRecord
100
AcDbLinetypeTableRecord
70
0
2
DASHED
3
__ __ __ __ __ __ __ __ __
72
65
73
2
40
25.72
49
12.86
74
0
49
-12.86
74
0
0
ENDTAB
0
TABLE
2
LAYER
5
19e
100
AcDbSymbolTable
0
LAYER
5
10
100
AcDbSymbolTableRecord
100
AcDbLayerTableRecord
2
0
70
0
62
7
6
CONTINUOUS
290
1
370
-3
390
0
0
LAYER
5
6D
100
AcDbSymbolTableRecord
100
AcDbLayerTableRecord
2
81
70
0
62
-3
6
CONTINUOUS
290
1
370
-3
390
0
0
LAYER
5
6F
100
AcDbSymbolTableRecord
100
AcDbLayerTableRecord
2
80
70
0
62
-6
6
CONTINUOUS
290
1
370
-3
390
0
0
LAYER
5
74
100
AcDbSymbolTableRecord
100
AcDbLayerTableRecord
2
2
70
0
62
7
6
CONTINUOUS
290
1
370
-3
390
0
0
LAYER
5
78
100
AcDbSymbolTableRecord
100
AcDbLayerTableRecord
2
1
70
0
62
4
6
CONTINUOUS
290
1
370
-3
390
0
0
LAYER
5
88
100
AcDbSymbolTableRecord
100
AcDbLayerTableRecord
2
4
70
0
62
-2
6
CENTER
290
1
370
-3
390
0
0
LAYER
5
188
100
AcDbSymbolTableRecord
100
AcDbLayerTableRecord
2
SK2
70
0
62
7
6
CONTINUOUS
290
1
370
-3
390
0
0
LAYER
5
189
100
AcDbSymbolTableRecord
100
AcDbLayerTableRecord
2
SK1
70
0
62
4
6
CONTINUOUS
290
1
370
-3
390
0
0
LAYER
5
18a
100
AcDbSymbolTableRecord
100
AcDbLayerTableRecord
2
SK4
70
0
62
2
6
CENTER
290
1
370
-3
390
0
0
LAYER
5
18b
100
AcDbSymbolTableRecord
100
AcDbLayerTableRecord
2
SK6
70
0
62
5
6
CONTINUOUS
290
1
370
-3
390
0
0
ENDTAB
0
TABLE
2
STYLE
5
19f
100
AcDbSymbolTable
0
STYLE
5
11
100
AcDbSymbolTableRecord
100
AcDbTextStyleTableRecord
2
Standard
3
txt
70
0
71
0
40
0
41
1
42
0
50
0
0
STYLE
5
E4
100
AcDbSymbolTableRecord
100
AcDbTextStyleTableRecord
2
iso_b_vert
3
simplex.shx
70
0
71
0
40
0
41
1
42
0
50
0
0
STYLE
5
E5
100
AcDbSymbolTableRecord
100
AcDbTextStyleTableRecord
2
DWGDirectTextStyle
3
simplex
70
0
71
0
40
0
41
1
42
0
50
0
0
ENDTAB
0
TABLE
2
DIMSTYLE
5
1a0
100
AcDbSymbolTable
100
AcDbDimStyleTable
0
DIMSTYLE
105
27
100
AcDbSymbolTableRecord
100
AcDbDimStyleTableRecord
2
Standard
70
0
3
<>
41
0.18
42
0.0625
44
0.18
140
0.18
147
0.09
73
0
74
0
77
1
271
2
275
0
278
52
280
0
340
11
0
ENDTAB
0
TABLE
2
VIEW
5
1a1
100
AcDbSymbolTable
0
ENDTAB
0
TABLE
2
UCS
5
1a2
100
AcDbSymbolTable
0
ENDTAB
0
TABLE
2
APPID
5
1a3
100
AcDbSymbolTable
0
APPID
5
12
100
AcDbSymbolTableRecord
100
AcDbRegAppTableRecord
2
ACAD
70
0
0
ENDTAB
0
TABLE
2
BLOCK_RECORD
5
1a4
100
AcDbSymbolTable
0
BLOCK_RECORD
5
1F
100
AcDbSymbolTableRecord
100
AcDbBlockTableRecord
2
*Model_Space
340
0
70
0
0
BLOCK_RECORD
5
1B
100
AcDbSymbolTableRecord
100
AcDbBlockTableRecord
2
*Paper_Space
340
0
70
0
0
BLOCK_RECORD
5
23
100
AcDbSymbolTableRecord
100
AcDbBlockTableRecord
2
*Paper_Space0
340
0
70
0
0
BLOCK_RECORD
5
E7
100
AcDbSymbolTableRecord
100
AcDbBlockTableRecord
2
DimnDraft3D1
340
0
70
0
0
BLOCK_RECORD
5
F1
100
AcDbSymbolTableRecord
100
AcDbBlockTableRecord
2
DimnDraft3D2
340
0
70
0
0
BLOCK_RECORD
5
FB
100
AcDbSymbolTableRecord
100
AcDbBlockTableRecord
2
DimnDraft3D3
340
0
70
0
0
BLOCK_RECORD
5
105
100
AcDbSymbolTableRecord
100
AcDbBlockTableRecord
2
DimnDraft3D4
340
0
70
0
0
BLOCK_RECORD
5
10F
100
AcDbSymbolTableRecord
100
AcDbBlockTableRecord
2
DimnDraft3D5
340
0
70
0
0
BLOCK_RECORD
5
119
100
AcDbSymbolTableRecord
100
AcDbBlockTableRecord
2
DimnDraft3D6
340
0
70
0
0
BLOCK_RECORD
5
124
100
AcDbSymbolTableRecord
100
AcDbBlockTableRecord
2
DimnDraft3D7
340
0
70
0
0
ENDTAB
0
ENDSEC
0
SECTION
2
BLOCKS
0
BLOCK
5
20
100
AcDbEntity
8
0
100
AcDbBlockBegin
2
*Model_Space
70
0
10
0
20
0
30
0
3
*Model_Space
0
ENDBLK
5
21
100
AcDbEntity
8
0
100
AcDbBlockEnd
0
BLOCK
5
1C
100
AcDbEntity
8
0
100
AcDbBlockBegin
2
*Paper_Space
70
0
10
0
20
0
30
0
3
*Paper_Space
0
ENDBLK
5
1D
100
AcDbEntity
8
0
100
AcDbBlockEnd
0
BLOCK
5
24
100
AcDbEntity
8
0
100
AcDbBlockBegin
2
*Paper_Space0
70
0
10
0
20
0
30
0
3
*Paper_Space0
0
ENDBLK
5
25
100
AcDbEntity
8
0
100
AcDbBlockEnd
0
BLOCK
5
EE
100
AcDbEntity
8
0
100
AcDbBlockBegin
2
DimnDraft3D1
70
0
10
0
20
0
30
0
3
DimnDraft3D1
0
MTEXT
5
E8
100
AcDbEntity
8
2
62
256
6
ByLayer
370
13
48
1
60
0
100
AcDbMText
10
33.521875
20
-13.338398
30
0
210
0
220
0
230
1
1
\W0.7317;78,72
40
3.5
41
0
44
1.084337
50
0
71
7
72
5
7
iso_b_vert
0
LINE
5
E9
100
AcDbEntity
8
2
62
256
6
ByLayer
370
13
48
1
60
0
100
AcDbLine
10
0
20
-1.5875
30
0
11
0
21
-16.213398
31
0
39
0
210
0
220
0
230
1
0
LINE
5
EA
100
AcDbEntity
8
2
62
256
6
ByLayer
370
13
48
1
60
0
100
AcDbLine
10
78.7205
20
-5.5875
30
0
11
78.7205
21
-16.213398
31
0
39
0
210
0
220
0
230
1
0
LINE
5
EB
100
AcDbEntity
8
2
62
256
6
ByLayer
370
13
48
1
60
0
100
AcDbLine
10
0
20
-14.213398
30
0
11
78.7205
21
-14.213398
31
0
39
0
210
0
220
0
230
1
0
SOLID
5
EC
100
AcDbEntity
8
2
62
256
6
ByLayer
370
13
48
1
60
0
100
AcDbTrace
10
0
20
-14.213398
30
0
11
3.499998
21
-13.752615
31
0
12
3.500002
22
-14.674182
32
0
13
0
23
-14.213398
33
0
39
0
210
0
220
0
230
1
0
SOLID
5
ED
100
AcDbEntity
8
2
62
256
6
ByLayer
370
13
48
1
60
0
100
AcDbTrace
10
78.7205
20
-14.213398
30
0
11
75.220502
21
-14.674182
31
0
12
75.220498
22
-13.752615
32
0
13
78.7205
23
-14.213398
33
0
39
0
210
0
220
0
230
1
0
ENDBLK
5
EF
100
AcDbEntity
8
0
100
AcDbBlockEnd
0
BLOCK
5
F8
100
AcDbEntity
8
0
100
AcDbBlockBegin
2
DimnDraft3D2
70
0
10
0
20
0
30
0
3
DimnDraft3D2
0
MTEXT
5
F2
100
AcDbEntity
8
SK2
62
256
6
ByLayer
370
13
48
1
60
0
100
AcDbMText
10
17.180221
20
-31.817985
30
0
210
0
220
0
230
1
1
\W0.6440;116,00
40
3.5
41
0
44
1.084337
50
0
71
7
72
5
7
iso_b_vert
0
LINE
5
F3
100
AcDbEntity
8
SK2
62
256
6
ByLayer
370
13
48
1
60
0
100
AcDbLine
10
-36
20
-5.5875
30
0
11
-36
21
-34.692985
31
0
39
0
210
0
220
0
230
1
0
LINE
5
F4
100
AcDbEntity
8
SK2
62
256
6
ByLayer
370
13
48
1
60
0
100
AcDbLine
10
80
20
-1.5875
30
0
11
80
21
-34.692985
31
0
39
0
210
0
220
0
230
1
0
LINE
5
F5
100
AcDbEntity
8
SK2
62
256
6
ByLayer
370
13
48
1
60
0
100
AcDbLine
10
-36
20
-32.692985
30
0
11
80
21
-32.692985
31
0
39
0
210
0
220
0
230
1
0
SOLID
5
F6
100
AcDbEntity
8
SK2
62
256
6
ByLayer
370
13
48
1
60
0
100
AcDbTrace
10
-36
20
-32.692985
30
0
11
-32.500002
21
-32.232202
31
0
12
-32.499998
22
-33.153769
32
0
13
-36
23
-32.692985
33
0
39
0
210
0
220
0
230
1
0
SOLID
5
F7
100
AcDbEntity
8
SK2
62
256
6
ByLayer
370
13
48
1
60
0
100
AcDbTrace
10
80
20
-32.692985
30
0
11
76.500002
21
-33.153769
31
0
12
76.499998
22
-32.232202
32
0
13
80
23
-32.692985
33
0
39
0
210
0
220
0
230
1
0
ENDBLK
5
F9
100
AcDbEntity
8
0
100
AcDbBlockEnd
0
BLOCK
5
102
100
AcDbEntity
8
0
100
AcDbBlockBegin
2
DimnDraft3D3
70
0
10
0
20
0
30
0
3
DimnDraft3D3
0
MTEXT
5
FC
100
AcDbEntity
8
SK2
62
256
6
ByLayer
370
13
48
1
60
0
100
AcDbMText
10
42.911316
20
16.484119
30
0
210
0
220
0
230
1
1
\W0.7317;65,28
40
3.5
41
0
44
1.084337
50
0
71
7
72
5
7
iso_b_vert
0
LINE
5
FD
100
AcDbEntity
8
SK2
62
256
6
ByLayer
370
13
48
1
60
0
100
AcDbLine
10
14.72
20
5.5875
30
0
11
14.72
21
17.609119
31
0
39
0
210
0
220
0
230
1
0
LINE
5
FE
100
AcDbEntity
8
SK2
62
256
6
ByLayer
370
13
48
1
60
0
100
AcDbLine
10
80
20
1.5875
30
0
11
80
21
17.609119
31
0
39
0
210
0
220
0
230
1
0
LINE
5
FF
100
AcDbEntity
8
SK2
62
256
6
ByLayer
370
13
48
1
60
0
100
AcDbLine
10
14.72
20
15.609119
30
0
11
80
21
15.609119
31
0
39
0
210
0
220
0
230
1
0
SOLID
5
100
100
AcDbEntity
8
SK2
62
256
6
ByLayer
370
13
48
1
60
0
100
AcDbTrace
10
14.72
20
15.609119
30
0
11
18.219998
21
16.069903
31
0
12
18.220002
22
15.148335
32
0
13
14.72
23
15.609119
33
0
39
0
210
0
220
0
230
1
0
SOLID
5
101
100
AcDbEntity
8
SK2
62
256
6
ByLayer
370
13
48
1
60
0
100
AcDbTrace
10
80
20
15.609119
30
0
11
76.500002
21
15.148335
31
0
12
76.499998
22
16.069903
32
0
13
80
23
15.609119
33
0
39
0
210
0
220
0
230
1
0
ENDBLK
5
103
100
AcDbEntity
8
0
100
AcDbBlockEnd
0
BLOCK
5
10C
100
AcDbEntity
8
0
100
AcDbBlockBegin
2
DimnDraft3D4
70
0
10
0
20
0
30
0
3
DimnDraft3D4
0
MTEXT
5
106
100
AcDbEntity
8
SK2
62
256
6
ByLayer
370
13
48
1
60
0
100
AcDbMText
10
87.278136
20
-15.927503
30
0
210
0
220
0
230
1
1
\W0.6367;1,28
40
3.5
41
0
44
1.084337
50
0
71
7
72
5
7
iso_b_vert
0
LINE
5
107
100
AcDbEntity
8
SK2
62
256
6
ByLayer
370
13
48
1
60
0
100
AcDbLine
10
80
20
-1.5875
30
0
11
80
21
-18.802503
31
0
39
0
210
0
220
0
230
1
0
LINE
5
108
100
AcDbEntity
8
SK2
62
256
6
ByLayer
370
13
48
1
60
0
100
AcDbLine
10
78.7205
20
-5.5875
30
0
11
78.7205
21
-18.802503
31
0
39
0
210
0
220
0
230
1
0
LINE
5
109
100
AcDbEntity
8
SK2
62
256
6
ByLayer
370
13
48
1
60
0
100
AcDbLine
10
69.9705
20
-16.802503
30
0
11
93.559715
21
-16.802503
31
0
39
0
210
0
220
0
230
1
0
SOLID
5
10A
100
AcDbEntity
8
SK2
62
256
6
ByLayer
370
13
48
1
60
0
100
AcDbTrace
10
80
20
-16.802503
30
0
11
83.499998
21
-16.341719
31
0
12
83.500002
22
-17.263287
32
0
13
80
23
-16.802503
33
0
39
0
210
0
220
0
230
1
0
SOLID
5
10B
100
AcDbEntity
8
SK2
62
256
6
ByLayer
370
13
48
1
60
0
100
AcDbTrace
10
78.7205
20
-16.802503
30
0
11
75.220502
21
-17.263287
31
0
12
75.220498
22
-16.341719
32
0
13
78.7205
23
-16.802503
33
0
39
0
210
0
220
0
230
1
0
ENDBLK
5
10D
100
AcDbEntity
8
0
100
AcDbBlockEnd
0
BLOCK
5
116
100
AcDbEntity
8
0
100
AcDbBlockBegin
2
DimnDraft3D5
70
0
10
0
20
0
30
0
3
DimnDraft3D5
0
MTEXT
5
110
100
AcDbEntity
8
SK2
62
256
6
ByLayer
370
13
48
1
60
0
100
AcDbMText
10
13.915387
20
-21.468428
30
0
210
0
220
0
230
1
1
\W0.6654;114,72
40
3.5
41
0
44
1.084337
50
0
71
7
72
5
7
iso_b_vert
0
LINE
5
111
100
AcDbEntity
8
SK2
62
256
6
ByLayer
370
13
48
1
60
0
100
AcDbLine
10
-36
20
-5.5875
30
0
11
-36
21
-24.343428
31
0
39
0
210
0
220
0
230
1
0
LINE
5
112
100
AcDbEntity
8
SK2
62
256
6
ByLayer
370
13
48
1
60
0
100
AcDbLine
10
78.7205
20
-5.5875
30
0
11
78.7205
21
-24.343428
31
0
39
0
210
0
220
0
230
1
0
LINE
5
113
100
AcDbEntity
8
SK2
62
256
6
ByLayer
370
13
48
1
60
0
100
AcDbLine
10
-36
20
-22.343428
30
0
11
78.7205
21
-22.343428
31
0
39
0
210
0
220
0
230
1
0
SOLID
5
114
100
AcDbEntity
8
SK2
62
256
6
ByLayer
370
13
48
1
60
0
100
AcDbTrace
10
-36
20
-22.343428
30
0
11
-32.500002
21
-21.882645
31
0
12
-32.499998
22
-22.804212
32
0
13
-36
23
-22.343428
33
0
39
0
210
0
220
0
230
1
0
SOLID
5
115
100
AcDbEntity
8
SK2
62
256
6
ByLayer
370
13
48
1
60
0
100
AcDbTrace
10
78.7205
20
-22.343428
30
0
11
75.220502
21
-22.804212
31
0
12
75.220498
22
-21.882645
32
0
13
78.7205
23
-22.343428
33
0
39
0
210
0
220
0
230
1
0
ENDBLK
5
117
100
AcDbEntity
8
0
100
AcDbBlockEnd
0
BLOCK
5
121
100
AcDbEntity
8
0
100
AcDbBlockBegin
2
DimnDraft3D6
70
0
10
0
20
0
30
0
3
DimnDraft3D6
0
MTEXT
5
11A
100
AcDbEntity
8
SK2
62
256
6
ByLayer
370
13
48
1
60
0
100
AcDbMText
10
-46.375163
20
23.34918
30
0
210
0
220
0
230
1
1
\W0.7317;8,000
40
3.5
41
0
44
1.084337
50
90
71
7
72
5
7
iso_b_vert
0
MTEXT
5
11B
100
AcDbEntity
8
SK2
62
256
6
ByLayer
370
13
48
1
60
0
100
AcDbMText
10
-46.375163
20
18.126524
30
0
210
0
220
0
230
1
1
%%c
40
3.5
41
0
44
1.084337
50
90
71
7
72
5
7
iso_b_vert
0
LINE
5
11C
100
AcDbEntity
8
SK2
62
256
6
ByLayer
370
13
48
1
60
0
100
AcDbLine
10
-37.5875
20
-4
30
0
11
-46.625163
21
-4
31
0
39
0
210
0
220
0
230
1
0
LINE
5
11D
100
AcDbEntity
8
SK2
62
256
6
ByLayer
370
13
48
1
60
0
100
AcDbLine
10
-37.5875
20
4
30
0
11
-46.625163
21
4
31
0
39
0
210
0
220
0
230
1
0
LINE
5
11E
100
AcDbEntity
8
SK2
62
256
6
ByLayer
370
13
48
1
60
0
100
AcDbLine
10
-44.625163
20
-4
30
0
11
-44.625163
21
33.121549
31
0
39
0
210
0
220
0
230
1
0
SOLID
5
11F
100
AcDbEntity
8
SK2
62
256
6
ByLayer
370
13
48
1
60
0
100
AcDbTrace
10
-44.625163
20
-4
30
0
11
-45.085946
21
-0.500002
31
0
12
-44.164379
22
-0.499998
32
0
13
-44.625163
23
-4
33
0
39
0
210
0
220
0
230
1
0
SOLID
5
120
100
AcDbEntity
8
SK2
62
256
6
ByLayer
370
13
48
1
60
0
100
AcDbTrace
10
-44.625163
20
4
30
0
11
-44.164379
21
0.500002
31
0
12
-45.085946
22
0.499998
32
0
13
-44.625163
23
4
33
0
39
0
210
0
220
0
230
1
0
ENDBLK
5
122
100
AcDbEntity
8
0
100
AcDbBlockEnd
0
BLOCK
5
12C
100
AcDbEntity
8
0
100
AcDbBlockBegin
2
DimnDraft3D7
70
0
10
0
20
0
30
0
3
DimnDraft3D7
0
MTEXT
5
125
100
AcDbEntity
8
2
62
256
6
ByLayer
370
13
48
1
60
0
100
AcDbMText
10
90.333343
20
21.942266
30
0
210
0
220
0
230
1
1
\W0.7317;8,000
40
3.5
41
0
44
1.084337
50
90
71
7
72
5
7
iso_b_vert
0
MTEXT
5
126
100
AcDbEntity
8
2
62
256
6
ByLayer
370
13
48
1
60
0
100
AcDbMText
10
90.333343
20
16.71961
30
0
210
0
220
0
230
1
1
%%c
40
3.5
41
0
44
1.084337
50
90
71
7
72
5
7
iso_b_vert
0
LINE
5
127
100
AcDbEntity
8
2
62
256
6
ByLayer
370
13
48
1
60
0
100
AcDbLine
10
80.308
20
-4
30
0
11
94.083343
21
-4
31
0
39
0
210
0
220
0
230
1
0
LINE
5
128
100
AcDbEntity
8
2
62
256
6
ByLayer
370
13
48
1
60
0
100
AcDbLine
10
80.308
20
4
30
0
11
94.083343
21
4
31
0
39
0
210
0
220
0
230
1
0
LINE
5
129
100
AcDbEntity
8
2
62
256
6
ByLayer
370
13
48
1
60
0
100
AcDbLine
10
92.083343
20
-4
30
0
11
92.083343
21
31.714635
31
0
39
0
210
0
220
0
230
1
0
SOLID
5
12A
100
AcDbEntity
8
2
62
256
6
ByLayer
370
13
48
1
60
0
100
AcDbTrace
10
92.083343
20
-4
30
0
11
91.622559
21
-0.500002
31
0
12
92.544126
22
-0.499998
32
0
13
92.083343
23
-4
33
0
39
0
210
0
220
0
230
1
0
SOLID
5
12B
100
AcDbEntity
8
2
62
256
6
ByLayer
370
13
48
1
60
0
100
AcDbTrace
10
92.083343
20
4
30
0
11
92.544126
21
0.500002
31
0
12
91.622559
22
0.499998
32
0
13
92.083343
23
4
33
0
39
0
210
0
220
0
230
1
0
ENDBLK
5
12D
100
AcDbEntity
8
0
100
AcDbBlockEnd
0
ENDSEC
0
SECTION
2
ENTITIES
0
ARC
5
91
100
AcDbEntity
8
1
62
256
6
ByLayer
370
18
48
1
60
0
100
AcDbCircle
39
0
10
0
20
3.15
30
0
40
0.849999999999995
210
0
220
0
230
1
100
AcDbArc
50
66.544022
51
90
0
ARC
5
92
100
AcDbEntity
8
1
62
256
6
ByLayer
370
18
48
1
60
0
100
AcDbCircle
39
0
10
0
20
-3.15
30
0
40
0.849999999999995
210
0
220
0
230
1
100
AcDbArc
50
270
51
293.455978
0
ARC
5
93
100
AcDbEntity
8
1
62
256
6
ByLayer
370
18
48
1
60
0
100
AcDbCircle
39
0
10
-0.676675
20
4.709522
30
0
40
0.85
210
0
220
0
230
-1
100
AcDbArc
50
269.896868
51
293.455978
0
ARC
5
94
100
AcDbEntity
8
1
62
256
6
ByLayer
370
18
48
1
60
0
100
AcDbCircle
39
0
10
-0.676675
20
-4.709522
30
0
40
0.85
210
0
220
0
230
-1
100
AcDbArc
50
66.544022
51
90.103132
0
ELLIPSE
5
95
100
AcDbEntity
8
1
62
256
6
ByLayer
370
13
48
1
60
0
100
AcDbEllipse
10
4.819924
20
-0.037314
30
0
11
0.151766414847682
21
0.258779742878536
31
0
210
0
220
0
230
1
40
0.003135
41
1.56203641418881
42
2.40342709956618
0
ELLIPSE
5
96
100
AcDbEntity
8
1
62
256
6
ByLayer
370
13
48
1
60
0
100
AcDbEllipse
10
11.507287
20
-67.100109
30
0
11
45.3490560027229
21
59.0596440307546
31
0
210
0
220
0
230
1
40
0.768019
41
0.882755568653016
42
0.901417784974744
0
ELLIPSE
5
97
100
AcDbEntity
8
1
62
256
6
ByLayer
370
13
48
1
60
0
100
AcDbEllipse
10
12.628056
20
67.960694
30
0
11
-45.3490560027227
21
59.0596440307547
31
0
210
0
220
0
230
1
40
0.768019
41
2.28650706267913
42
2.35630336723346
0
ELLIPSE
5
98
100
AcDbEntity
8
1
62
256
6
ByLayer
370
13
48
1
60
0
100
AcDbEllipse
10
124.194174
20
42.329751
30
0
11
-60.9999999999999
21
7.47009875831649E-15
31
0
210
0
220
0
230
1
40
0.99863
41
0.735616599708019
42
0.757691491931509
0
POINT
5
6C
100
AcDbEntity
8
81
62
256
6
ByLayer
370
18
48
1
60
0
100
AcDbPoint
10
80
20
0
30
0
39
0
210
0
220
0
230
1
50
360
0
POINT
5
6E
100
AcDbEntity
8
80
62
256
6
ByLayer
370
18
48
1
60
0
100
AcDbPoint
10
0
20
0
30
0
39
0
210
0
220
0
230
1
50
360
0
POINT
5
70
100
AcDbEntity
8
SK2
62
256
6
ByLayer
370
18
48
1
60
1
100
AcDbPoint
10
-36
20
-4
30
0
39
0
210
0
220
0
230
1
50
360
0
POINT
5
72
100
AcDbEntity
8
SK2
62
256
6
ByLayer
370
18
48
1
60
1
100
AcDbPoint
10
-36
20
4
30
0
39
0
210
0
220
0
230
1
50
360
0
POINT
5
73
100
AcDbEntity
8
2
62
256
6
ByLayer
370
18
48
1
60
1
100
AcDbPoint
10
78.7205
20
-4
30
0
39
0
210
0
220
0
230
1
50
360
0
POINT
5
75
100
AcDbEntity
8
2
62
256
6
ByLayer
370
18
48
1
60
1
100
AcDbPoint
10
78.7205
20
4
30
0
39
0
210
0
220
0
230
1
50
360
0
SPLINE
5
99
100
AcDbEntity
8
1
62
256
6
ByLayer
370
18
48
1
60
0
100
AcDbSpline
70
4
71
3
72
27
73
23
40
0
40
0
40
0
40
0
40
0.0082039754852495
40
0.075542573871872
40
0.123429781235123
40
0.152040010153531
40
0.177851781996736
40
0.224759167853556
40
0.280898569972477
40
0.326284695517512
40
0.38421076916194
40
0.44717611179931
40
0.527212585878191
40
0.60658501504655
40
0.667856127391423
40
0.748689997032129
40
0.825448720088506
40
0.859652644406123
40
0.889485246618899
40
0.916371277065535
40
0.962454190001075
40
1
40
1
40
1
40
1
41
1
10
25.0080259589982
20
3.79754282918265
30
0
41
1
10
24.9852884000166
20
3.79749741644727
30
0
41
1
10
24.7759112600676
20
3.79707045729373
30
0
41
1
10
24.4337454394162
20
3.79665213935388
30
0
41
1
10
24.0346423985167
20
3.79510858910294
30
0
41
1
10
23.7519726051002
20
3.79476618165393
30
0
41
1
10
23.4717469162805
20
3.79452307909131
30
0
41
1
10
23.1141170957586
20
3.7942916546568
30
0
41
1
10
22.7028935761411
20
3.79406392339155
30
0
41
1
10
22.2608555582863
20
3.79366650618559
30
0
41
1
10
21.7998416978228
20
3.79047035843476
30
0
41
1
10
21.2427689716385
20
3.78942611470927
30
0
41
1
10
20.6262284879892
20
3.78955815962132
30
0
41
1
10
20.0143863878071
20
3.79023245787673
30
0
41
1
10
19.4003356100731
20
3.78695576493254
30
0
41
1
10
18.793543687414
20
3.78648853256269
30
0
41
1
10
18.2617713316926
20
3.7853520428211
30
0
41
1
10
17.871427887911
20
3.78502737669493
30
0
41
1
10
17.6193063492314
20
3.78477806433298
30
0
41
1
10
17.3347021779933
20
3.78429186548556
30
0
41
1
10
17.0282929426199
20
3.7836952946422
30
0
41
1
10
16.7964113269854
20
3.78319835894399
30
0
41
1
10
16.6923122896708
20
3.78297742409458
30
0
0
SPLINE
5
9A
100
AcDbEntity
8
1
62
256
6
ByLayer
370
18
48
1
60
0
100
AcDbSpline
70
4
71
3
72
11
73
7
40
0
40
0
40
0
40
0
40
0.202980914275793
40
0.437073354694978
40
0.702595596595013
40
1
40
1
40
1
40
1
41
1
10
68.3747130498113
20
-0.0461631864507694
30
0
41
1
10
68.4824774027131
20
-0.0709415573889771
30
0
41
1
10
68.7142861189103
20
-0.132352561023254
30
0
41
1
10
69.0861392587565
20
-0.259165564626585
30
0
41
1
10
69.5067990926144
20
-0.438677162404474
30
0
41
1
10
69.802765789705
20
-0.592930169588783
30
0
41
1
10
69.9588308381246
20
-0.682172401108119
30
0
0
SPLINE
5
9B
100
AcDbEntity
8
1
62
256
6
ByLayer
370
18
48
1
60
0
100
AcDbSpline
70
4
71
3
72
11
73
7
40
0
40
0
40
0
40
0
40
0.210618075470377
40
0.453120571188943
40
0.727770328463254
40
1
40
1
40
1
40
1
41
1
10
46.625406032762
20
-0.0463661093034773
30
0
41
1
10
46.7349326278294
20
-0.0716498127038392
30
0
41
1
10
46.9695156700701
20
-0.133903690083088
30
0
41
1
10
47.3421518933791
20
-0.261545288695061
30
0
41
1
10
47.7430043517084
20
-0.43245740218353
30
0
41
1
10
48.018436204952
20
-0.576336253553023
30
0
41
1
10
48.154965063566
20
-0.654129252922274
30
0
0
SPLINE
5
9C
100
AcDbEntity
8
1
62
256
6
ByLayer
370
18
48
1
60
0
100
AcDbSpline
70
4
71
3
72
11
73
7
40
0
40
0
40
0
40
0
40
0.212118229499733
40
0.457241046221214
40
0.735709061948931
40
1
40
1
40
1
40
1
41
1
10
24.8745988622151
20
-0.0461158960288799
30
0
41
1
10
24.9821142100984
20
-0.0708614172004616
30
0
41
1
10
25.2136519375279
20
-0.132173293422426
30
0
41
1
10
25.5854656903695
20
-0.25911704837165
30
0
41
1
10
25.9826233038505
20
-0.427484735677922
30
0
41
1
10
26.255163044597
20
-0.569802549520603
30
0
41
1
10
26.38764930601
20
-0.645090716791941
30
0
0
SPLINE
5
9D
100
AcDbEntity
8
1
62
256
6
ByLayer
370
18
48
1
60
0
100
AcDbSpline
70
4
71
3
72
11
73
7
40
0
40
0
40
0
40
0
40
0.212171950693467
40
0.457259506586061
40
0.735533809312754
40
1
40
1
40
1
40
1
41
1
10
36.2532430145758
20
0.0455303964953089
30
0
41
1
10
36.1505702722223
20
0.0691661410914435
30
0
41
1
10
35.9295579512055
20
0.127361028972331
30
0
41
1
10
35.5749796695322
20
0.246595905001612
30
0
41
1
10
35.1962365514509
20
0.404078167726595
30
0
41
1
10
34.9363501223432
20
0.536386609266629
30
0
41
1
10
34.809934972476
20
0.606307905625755
30
0
0
SPLINE
5
9E
100
AcDbEntity
8
1
62
256
6
ByLayer
370
18
48
1
60
0
100
AcDbSpline
70
4
71
3
72
28
73
24
40
0
40
0
40
0
40
0
40
0.0597437810896463
40
0.108649490191063
40
0.140929448806181
40
0.17217197986899
40
0.208936362978091
40
0.249840985229664
40
0.285508477395512
40
0.314186873338007
40
0.375969509935889
40
0.449662251208372
40
0.521938741005468
40
0.566915980835993
40
0.618441723004283
40
0.683563888659039
40
0.736645993234657
40
0.763745105728248
40
0.791544223029149
40
0.823441243426112
40
0.877975391096996
40
0.959219453689216
40
1
40
1
40
1
40
1
41
1
10
15.6301322966872
20
-3.78102604682766
30
0
41
1
10
15.8173318567246
20
-3.78125104430612
30
0
41
1
10
16.1577677703848
20
-3.78175753779891
30
0
41
1
10
16.5993586376146
20
-3.78297176156673
30
0
41
1
10
16.9516130540074
20
-3.78364329231633
30
0
41
1
10
17.2657003156181
20
-3.78422901192229
30
0
41
1
10
17.6069914933553
20
-3.78478410697574
30
0
41
1
10
17.9621364464772
20
-3.78508775955277
30
0
41
1
10
18.2919358835594
20
-3.78544852370843
30
0
41
1
10
18.6871604061191
20
-3.78616937507417
30
0
41
1
10
19.2015474855427
20
-3.7868123992549
30
0
41
1
10
19.8525452082499
20
-3.78953815071463
30
0
41
1
10
20.4508819314748
20
-3.7898318889381
30
0
41
1
10
20.9797622630568
20
-3.78946656958075
30
0
41
1
10
21.4862241778642
20
-3.78957163119131
30
0
41
1
10
22.0180772483736
20
-3.79207137553999
30
0
41
1
10
22.4733893178832
20
-3.79403026233524
30
0
41
1
10
22.8117514086894
20
-3.79408485862103
30
0
41
1
10
23.0837277100337
20
-3.79433084313664
30
0
41
1
10
23.4416734350442
20
-3.79462868364877
30
0
41
1
10
23.9670687966034
20
-3.79468239073509
30
0
41
1
10
24.5203328865737
20
-3.7969539199556
30
0
41
1
10
24.9026911300118
20
-3.79753161402087
30
0
41
1
10
25.0304747336992
20
-3.79771956750111
30
0
0
SPLINE
5
9F
100
AcDbEntity
8
1
62
256
6
ByLayer
370
18
48
1
60
0
100
AcDbSpline
70
4
71
3
72
26
73
22
40
0
40
0
40
0
40
0
40
0.0640892902311521
40
0.111817741790434
40
0.143761654336968
40
0.174035212101799
40
0.236764695586515
40
0.291356446719078
40
0.328598096973384
40
0.370007840371857
40
0.419459367974102
40
0.484259734732425
40
0.557212002909768
40
0.615894340506873
40
0.668742901354154
40
0.731336583239783
40
0.803629103849431
40
0.852953735325806
40
0.910264769833058
40
0.981257043426831
40
1
40
1
40
1
40
1
41
1
10
59.0690945024277
20
-3.8595803170688
30
0
41
1
10
59.2739581770216
20
-3.85998606535694
30
0
41
1
10
59.63138541016
20
-3.8606458125924
30
0
41
1
10
60.0909381370866
20
-3.86143416806763
30
0
41
1
10
60.442365089059
20
-3.86191669486112
30
0
41
1
10
60.841481620757
20
-3.86252083859355
30
0
41
1
10
61.3133596881922
20
-3.86287245923296
30
0
41
1
10
61.8074529372169
20
-3.86458875148668
30
0
41
1
10
62.2333389245877
20
-3.86561416777892
30
0
41
1
10
62.6428671719775
20
-3.86560802245253
30
0
41
1
10
63.1404706909107
20
-3.86571012840665
30
0
41
1
10
63.7389221158624
20
-3.86613985306107
30
0
41
1
10
64.3668632285925
20
-3.86879825895898
30
0
41
1
10
64.9566022677433
20
-3.87010000221008
30
0
41
1
10
65.5132300461439
20
-3.87207224930799
30
0
41
1
10
66.1133931380484
20
-3.87100547079109
30
0
41
1
10
66.702184702336
20
-3.87089683502489
30
0
41
1
10
67.2743390098151
20
-3.87276119629019
30
0
41
1
10
67.8383677492291
20
-3.87793867042185
30
0
41
1
10
68.3071947435678
20
-3.87390935551102
30
0
41
1
10
68.5907875864914
20
-3.874811301102
30
0
41
1
10
68.6499760383825
20
-3.87501316061881
30
0
0
SPLINE
5
A0
100
AcDbEntity
8
1
62
256
6
ByLayer
370
18
48
1
60
0
100
AcDbSpline
70
4
71
3
72
25
73
21
40
0
40
0
40
0
40
0
40
0.0311610532178991
40
0.115101804882864
40
0.181319375345825
40
0.235175679008571
40
0.306913795186043
40
0.385764228887463
40
0.453107664148081
40
0.508540987222711
40
0.57675754628684
40
0.643145200592167
40
0.69179737056722
40
0.743124919077576
40
0.807112309758553
40
0.857721249303672
40
0.906216817906204
40
0.942022829119725
40
0.980478478711094
40
1
40
1
40
1
40
1
41
1
10
46.8860483500095
20
3.83651832760975
30
0
41
1
10
46.7993698236264
20
3.83592692409252
30
0
41
1
10
46.4790264351824
20
3.83403617960423
30
0
41
1
10
45.9714472245984
20
3.83488300173895
30
0
41
1
10
45.40276224448
20
3.83408599288191
30
0
41
1
10
44.8648082714279
20
3.83421904246296
30
0
41
1
10
44.2920149078203
20
3.83168882228847
30
0
41
1
10
43.6812247868337
20
3.83127094987887
30
0
41
1
10
43.1161866283118
20
3.82972944544446
30
0
41
1
10
42.5809333464126
20
3.82928743824738
30
0
41
1
10
42.04836812178
20
3.82739264385574
30
0
41
1
10
41.5348076239777
20
3.82729976280612
30
0
41
1
10
41.0685656103087
20
3.82691976542222
30
0
41
1
10
40.6091092374225
20
3.82646797072624
30
0
41
1
10
40.1440200089731
20
3.82491317967617
30
0
41
1
10
39.6872727034225
20
3.82345226128786
30
0
41
1
10
39.3092443091578
20
3.82308812464785
30
0
41
1
10
38.9653195366209
20
3.82293843934761
30
0
41
1
10
38.7034127854497
20
3.82272076455828
30
0
41
1
10
38.5410819622537
20
3.82246665825943
30
0
41
1
10
38.4863940979282
20
3.82237153631522
30
0
0
SPLINE
5
A1
100
AcDbEntity
8
1
62
256
6
ByLayer
370
18
48
1
60
0
100
AcDbSpline
70
4
71
3
72
28
73
24
40
0
40
0
40
0
40
0
40
0.0824542923391244
40
0.148075198049105
40
0.205234406793734
40
0.256010137143201
40
0.300683977313149
40
0.345730270337473
40
0.402722580532342
40
0.449697149950183
40
0.483492108852108
40
0.516559146161065
40
0.554870221195275
40
0.601628051708793
40
0.656626453890559
40
0.702735680303714
40
0.740830610342864
40
0.791758905950483
40
0.844318334289994
40
0.883423861204233
40
0.919856244926485
40
0.980918994185121
40
1
40
1
40
1
40
1
41
1
10
37.3189941141719
20
-3.81980729448009
30
0
41
1
10
37.5779876454846
20
-3.8202403562814
30
0
41
1
10
38.0433355809648
20
-3.82100860599667
30
0
41
1
10
38.6893714691424
20
-3.82283735481394
30
0
41
1
10
39.235356000753
20
-3.82312130030661
30
0
41
1
10
39.7164736459386
20
-3.82344323926657
30
0
41
1
10
40.1591226036963
20
-3.82505047122621
30
0
41
1
10
40.6214703091554
20
-3.82650293515138
30
0
41
1
10
41.0910180004756
20
-3.82695719981115
30
0
41
1
10
41.5251458951219
20
-3.82726361361844
30
0
41
1
10
41.8838667032895
20
-3.82735542694817
30
0
41
1
10
42.2152918688524
20
-3.82805205880163
30
0
41
1
10
42.5875641520816
20
-3.82920382060871
30
0
41
1
10
43.0289499479161
20
-3.82967273511258
30
0
41
1
10
43.4949058353818
20
-3.83065692950007
30
0
41
1
10
43.93356391306
20
-3.83163579908776
30
0
41
1
10
44.3593988557441
20
-3.83202139274084
30
0
41
1
10
44.8055551981262
20
-3.83381914660362
30
0
41
1
10
45.2548985163498
20
-3.83428331132828
30
0
41
1
10
45.6585645670748
20
-3.83427969227608
30
0
41
1
10
46.0890207687392
20
-3.83498903915742
30
0
41
1
10
46.4563815765377
20
-3.83542857295473
30
0
41
1
10
46.7089248453423
20
-3.83649753686839
30
0
41
1
10
46.7690513090697
20
-3.83677441298997
30
0
0
SPLINE
5
A2
100
AcDbEntity
8
1
62
256
6
ByLayer
370
18
48
1
60
0
100
AcDbSpline
70
4
71
3
72
25
73
21
40
0
40
0
40
0
40
0
40
0.0211354591289509
40
0.101234696646934
40
0.16589765126178
40
0.221549698620107
40
0.30311598021613
40
0.373739245800918
40
0.433367275916037
40
0.499577445831184
40
0.576373909998534
40
0.646293975466624
40
0.700643405754114
40
0.745718558980221
40
0.784918651413155
40
0.823619261990551
40
0.878076272494335
40
0.931909544365384
40
0.966066626131695
40
1
40
1
40
1
40
1
41
1
10
68.649876311087
20
3.87501291825643
30
0
41
1
10
68.5907210345192
20
3.87481119764954
30
0
41
1
10
68.3071613870873
20
3.87390944415037
30
0
41
1
10
67.8383676969201
20
3.87793873664742
30
0
41
1
10
67.2743390205586
20
3.87276117224306
30
0
41
1
10
66.7021846977151
20
3.87089688331415
30
0
41
1
10
66.1133931419964
20
3.8710052343923
30
0
41
1
10
65.5132300375074
20
3.87207294083882
30
0
41
1
10
64.9566022950936
20
3.87009775933842
30
0
41
1
10
64.3824862411313
20
3.868842855
30
0
41
1
10
63.7792150540213
20
3.86628150462758
30
0
41
1
10
63.2095311498197
20
3.86571738044222
30
0
41
1
10
62.729733443457
20
3.8656571862515
30
0
41
1
10
62.3369616260355
20
3.8655410037388
30
0
41
1
10
61.9885543498721
20
3.86531284359103
30
0
41
1
10
61.6135902136183
20
3.86354338617576
30
0
41
1
10
61.1971075544465
20
3.86297907321952
30
0
41
1
10
60.7935118803977
20
3.86241939631944
30
0
41
1
10
60.4483343595795
20
3.86193164926888
30
0
41
1
10
60.2554411334215
20
3.86166161568209
30
0
41
1
10
60.1593068164183
20
3.86151657671661
30
0
0
SPLINE
5
A3
100
AcDbEntity
8
1
62
256
6
ByLayer
370
18
48
1
60
0
100
AcDbSpline
70
4
71
3
72
11
73
7
40
0
40
0
40
0
40
0
40
0.214893993025381
40
0.463513920853683
40
0.746202770397423
40
1
40
1
40
1
40
1
41
1
10
14.5039655660796
20
0.04531537214541
30
0
41
1
10
14.4011347686703
20
0.068970371102921
30
0
41
1
10
14.1792802188386
20
0.127402075020939
30
0
41
1
10
13.8217278566653
20
0.247904270280429
30
0
41
1
10
13.4457641508379
20
0.404129937950302
30
0
41
1
10
13.1894582866729
20
0.535253672814179
30
0
41
1
10
13.0683071864149
20
0.602425546406153
30
0
0
SPLINE
5
A4
100
AcDbEntity
8
1
62
256
6
ByLayer
370
18
48
1
60
0
100
AcDbSpline
70
4
71
2
72
6
73
3
40
0
40
0
40
0
40
1
40
1
40
1
41
1
10
58.003644403126
20
0.0453876649510789
30
0
41
1
10
57.2623610263282
20
0.215525058972474
30
0
41
1
10
56.5312050797216
20
0.622123488681211
30
0
0
SPLINE
5
A5
100
AcDbEntity
8
1
62
256
6
ByLayer
370
18
48
1
60
0
100
AcDbSpline
70
4
71
3
72
12
73
8
40
0
40
0
40
0
40
0
40
0.5
40
0.5
40
0.75
40
0.75
40
1
40
1
40
1
40
1
41
1
10
4.82062090512562
20
-3.72494826455653
30
0
41
1
10
4.7566076649326
20
-3.73455806025606
30
0
41
1
10
4.68936446210051
20
-3.74737730735615
30
0
41
1
10
4.57777386467961
20
-3.77806242035874
30
0
41
1
10
4.53933229704751
20
-3.79010711407582
30
0
41
1
10
4.45828949274608
20
-3.82021815985584
30
0
41
1
10
4.41618357068
20
-3.83819927400216
30
0
41
1
10
4.37400622090613
20
-3.85944436549937
30
0
0
SPLINE
5
A6
100
AcDbEntity
8
1
62
256
6
ByLayer
370
18
48
1
60
0
100
AcDbSpline
70
4
71
3
72
12
73
8
40
0
40
0
40
0
40
0
40
0.5
40
0.5
40
0.75
40
0.75
40
1
40
1
40
1
40
1
41
1
10
79.5837707393968
20
-1.58744209147784
30
0
41
1
10
79.6398338148801
20
-1.39514162755211
30
0
41
1
10
79.7023203235643
20
-1.21267114192762
30
0
41
1
10
79.8057468877125
20
-0.951276449195035
30
0
41
1
10
79.8417637268227
20
-0.866621024573362
30
0
41
1
10
79.9149508249308
20
-0.706392147268389
30
0
41
1
10
79.9523884547885
20
-0.630132438427978
30
0
41
1
10
79.9907059478804
20
-0.557593222289626
30
0
0
SPLINE
5
A7
100
AcDbEntity
8
1
62
256
6
ByLayer
370
18
48
1
60
0
100
AcDbSpline
70
4
71
3
72
8
73
4
40
0
40
0
40
0
40
0
40
1
40
1
40
1
40
1
41
1
10
13.3823894425836
20
-3.84352976380072
30
0
41
1
10
13.710074614683
20
-3.87013652124583
30
0
41
1
10
14.0373370468864
20
-3.88361008436831
30
0
41
1
10
14.3641561850639
20
-3.88415892730819
30
0
0
SPLINE
5
A8
100
AcDbEntity
8
1
62
256
6
ByLayer
370
18
48
1
60
0
100
AcDbSpline
70
4
71
3
72
72
73
68
40
0
40
0
40
0
40
0
40
0.0111565049057169
40
0.0111565049057169
40
0.0484769234722834
40
0.0484769234722834
40
0.0857973420388499
40
0.0857973420388499
40
0.123117760605416
40
0.123117760605416
40
0.1417779698887
40
0.1417779698887
40
0.160438179171983
40
0.160438179171983
40
0.197758597738549
40
0.197758597738549
40
0.235079016305116
40
0.235079016305116
40
0.272399434871682
40
0.272399434871682
40
0.309719853438249
40
0.309719853438249
40
0.328380062721532
40
0.328380062721532
40
0.347040272004816
40
0.347040272004816
40
0.384360690571383
40
0.384360690571383
40
0.421681109137951
40
0.421681109137951
40
0.459001527704518
40
0.459001527704518
40
0.477661736987802
40
0.477661736987802
40
0.496321946271086
40
0.496321946271086
40
0.533642364837655
40
0.533642364837655
40
0.570962783404223
40
0.570962783404223
40
0.589622992687508
40
0.589622992687508
40
0.608283201970792
40
0.608283201970792
40
0.64560362053736
40
0.64560362053736
40
0.682924039103927
40
0.682924039103927
40
0.720244457670495
40
0.720244457670495
40
0.757564876237062
40
0.757564876237062
40
0.79488529480363
40
0.79488529480363
40
0.832205713370198
40
0.832205713370198
40
0.869526131936765
40
0.869526131936765
40
0.906846550503333
40
0.906846550503333
40
0.925506759786616
40
0.925506759786616
40
0.944166969069899
40
0.944166969069899
40
0.981487387636464
40
0.981487387636464
40
1
40
1
40
1
40
1
41
1
10
30.49858955322
20
2.69202727837325
30
0
41
1
10
30.6006069596972
20
2.73396858466981
30
0
41
1
10
30.7025854969635
20
2.77501374952058
30
0
41
1
10
31.1455405946135
20
2.94928059060817
30
0
41
1
10
31.4862590100867
20
3.07329197889629
30
0
41
1
10
32.1688732210409
20
3.29880129857298
30
0
41
1
10
32.5111375854496
20
3.40007530449415
30
0
41
1
10
33.1931935261132
20
3.57672882937317
30
0
41
1
10
33.5337270499923
20
3.65227824190134
30
0
41
1
10
34.0453039728748
20
3.74543027821062
30
0
41
1
10
34.2158276923023
20
3.77318933215082
30
0
41
1
10
34.5574204848148
20
3.82178708811006
30
0
41
1
10
34.7285349600936
20
3.84261152449841
30
0
41
1
10
35.240406751289
20
3.89455540641845
30
0
41
1
10
35.581041790434
20
3.91502289327508
30
0
41
1
10
36.262462214545
20
3.92754234096162
30
0
41
1
10
36.6034722565417
20
3.91955088807785
30
0
41
1
10
37.2871038431333
20
3.87502668394183
30
0
41
1
10
37.6278365890418
20
3.83859443910998
30
0
41
1
10
38.3089303898049
20
3.73812342177788
30
0
41
1
10
38.6495062712172
20
3.67420274556912
30
0
41
1
10
39.1614459330465
20
3.5582926286238
30
0
41
1
10
39.3325122615813
20
3.51636819649326
30
0
41
1
10
39.6736971009982
20
3.42612126933136
30
0
41
1
10
39.8441158664868
20
3.37790366644194
30
0
41
1
10
40.355232410534
20
3.22438598692059
30
0
41
1
10
40.6955337309937
20
3.10997998642381
30
0
41
1
10
41.3770414343227
20
2.85876939603014
30
0
41
1
10
41.7190438431073
20
2.72195347200542
30
0
41
1
10
42.4007727147537
20
2.43010782735746
30
0
41
1
10
42.7409841265068
20
2.27499000194212
30
0
41
1
10
43.2518658456833
20
2.0307623951357
30
0
41
1
10
43.4221150823007
20
1.94721772488194
30
0
41
1
10
43.763109213284
20
1.776722968271
30
0
41
1
10
43.9340553688977
20
1.68973896153005
30
0
41
1
10
44.4457610828191
20
1.42410049852177
30
0
41
1
10
44.786142387799
20
1.24177756114628
30
0
41
1
10
45.4668047290538
20
0.869087553285311
30
0
41
1
10
45.807133994009
20
0.678794787957827
30
0
41
1
10
46.3191690674934
20
0.390077278543657
30
0
41
1
10
46.4898145423929
20
0.29312656277105
30
0
41
1
10
46.8305946528011
20
0.0994297698123603
30
0
41
1
10
47.0009050034659
20
0.0026453556316994
30
0
41
1
10
47.5112593119513
20
-0.288113994131265
30
0
41
1
10
47.851381323965
20
-0.48133788163139
30
0
41
1
10
48.5328321074745
20
-0.864026649729709
30
0
41
1
10
48.8744169574883
20
-1.05350769418902
30
0
41
1
10
49.5554709814275
20
-1.42199901265926
30
0
41
1
10
49.8954266238649
20
-1.60170802674637
30
0
41
1
10
50.5759564920857
20
-1.94912820213054
30
0
41
1
10
50.9174422733909
20
-2.11680906608302
30
0
41
1
10
51.5988292125408
20
-2.43520102821722
30
0
41
1
10
51.9387558115742
20
-2.58586886477303
30
0
41
1
10
52.6191359691781
20
-2.86746898618088
30
0
41
1
10
52.9595907466304
20
-2.9987152177705
30
0
41
1
10
53.6416502966619
20
-3.23925460177458
30
0
41
1
10
53.9817996700009
20
-3.34773177638618
30
0
41
1
10
54.6617829692096
20
-3.53994683926254
30
0
41
1
10
55.0016557087455
20
-3.62362722207334
30
0
41
1
10
55.5128373083091
20
-3.72924770939252
30
0
41
1
10
55.6834243427585
20
-3.76123447509613
30
0
41
1
10
56.0240366436042
20
-3.81812364258002
30
0
41
1
10
56.1942358871655
20
-3.84306540726539
30
0
41
1
10
56.7041770595861
20
-3.90755800549812
30
0
41
1
10
57.0439195123244
20
-3.93650337697844
30
0
41
1
10
57.5529203966253
20
-3.95849251129417
30
0
41
1
10
57.7219515595413
20
-3.96225368389708
30
0
41
1
10
57.8909925377662
20
-3.96248727907366
30
0
0
SPLINE
5
A9
100
AcDbEntity
8
1
62
256
6
ByLayer
370
18
48
1
60
0
100
AcDbSpline
70
4
71
3
72
16
73
12
40
0
40
0
40
0
40
0
40
0.151466454565604
40
0.151466454565604
40
0.363599840924199
40
0.363599840924199
40
0.469666534103501
40
0.469666534103501
40
0.575733227282802
40
0.575733227282802
40
1
40
1
40
1
40
1
41
1
10
73.9941425569907
20
2.7341115882339
30
0
41
1
10
74.2370085795687
20
2.83630860434997
30
0
41
1
10
74.480002379218
20
2.93363085440043
30
0
41
1
10
75.0617729927434
20
3.15348241351552
30
0
41
1
10
75.4007991193953
20
3.27056883796266
30
0
41
1
10
75.9098116828403
20
3.42834221430417
30
0
41
1
10
76.0796947291214
20
3.4778381634693
30
0
41
1
10
76.4196183475101
20
3.57083213087995
30
0
41
1
10
76.5898413466254
20
3.61419418206899
30
0
41
1
10
77.4386217765918
20
3.81370069460112
30
0
41
1
10
78.1122995439004
20
3.91983958053552
30
0
41
1
10
78.7881747218526
20
3.96937077644557
30
0
0
SPLINE
5
AA
100
AcDbEntity
8
1
62
256
6
ByLayer
370
18
48
1
60
0
100
AcDbSpline
70
4
71
3
72
12
73
8
40
0
40
0
40
0
40
0
40
0.5
40
0.5
40
0.75
40
0.75
40
1
40
1
40
1
40
1
41
1
10
78.7881747218525
20
-3.96937077644557
30
0
41
1
10
78.9212421495273
20
-3.60034296263811
30
0
41
1
10
79.0573418244281
20
-3.21852718525796
30
0
41
1
10
79.2595581478658
20
-2.62245322110817
30
0
41
1
10
79.3267015377163
20
-2.4194985680393
30
0
41
1
10
79.4585094160378
20
-2.00602225788632
30
0
41
1
10
79.5224824596733
20
-1.79766538947607
30
0
41
1
10
79.5837707393968
20
-1.58744209147784
30
0
0
SPLINE
5
AB
100
AcDbEntity
8
1
62
256
6
ByLayer
370
18
48
1
60
0
100
AcDbSpline
70
4
71
3
72
10
73
6
40
0
40
0
40
0
40
0
40
0.843649613565108
40
0.843649613565108
40
1
40
1
40
1
40
1
41
1
10
59.1191311826106
20
-3.85968611786188
30
0
41
1
10
58.7335944136919
20
-3.85890736030171
30
0
41
1
10
58.3482023677206
20
-3.8401795677018
30
0
41
1
10
57.890063748623
20
-3.79683588660393
30
0
41
1
10
57.8183936821635
20
-3.78944367432274
30
0
41
1
10
57.7466759173954
20
-3.78143714586048
30
0
0
SPLINE
5
AC
100
AcDbEntity
8
1
62
256
6
ByLayer
370
13
48
1
60
0
100
AcDbSpline
70
4
71
3
72
42
73
38
40
0
40
0
40
0
40
0
40
0.0527683979431454
40
0.0527683979431454
40
0.0852211670793516
40
0.0852211670793516
40
0.117673936215558
40
0.117673936215558
40
0.247485012760387
40
0.247485012760387
40
0.3123905510328
40
0.3123905510328
40
0.344843320169008
40
0.344843320169008
40
0.377296089305216
40
0.377296089305216
40
0.442201627577631
40
0.442201627577631
40
0.507107165850046
40
0.507107165850046
40
0.572012704122462
40
0.572012704122462
40
0.60446547325867
40
0.60446547325867
40
0.636918242394877
40
0.636918242394877
40
0.766729318939708
40
0.766729318939708
40
0.831634857212123
40
0.831634857212123
40
0.896540395484539
40
0.896540395484539
40
0.928993164620747
40
0.928993164620747
40
0.961445933756956
40
0.961445933756956
40
1
40
1
40
1
40
1
41
1
10
57.7466749233287
20
-3.7814370348834
30
0
41
1
10
57.4348676148059
20
-3.74662702855983
30
0
41
1
10
57.1221586886643
20
-3.70020491504891
30
0
41
1
10
56.6146435829651
20
-3.60662473243255
30
0
41
1
10
56.4211011540867
20
-3.56665225498122
30
0
41
1
10
56.035744312885
20
-3.4788332086805
30
0
41
1
10
55.8435260440157
20
-3.4309743282129
30
0
41
1
10
54.8842476413498
20
-3.1729039026018
30
0
41
1
10
54.1222130609958
20
-2.9056326926613
30
0
41
1
10
52.972166150116
20
-2.43107150740718
30
0
41
1
10
52.5877477635179
20
-2.26071516998306
30
0
41
1
10
52.0075680318618
20
-1.98887404714068
30
0
41
1
10
51.8140343225509
20
-1.89570810805927
30
0
41
1
10
51.4285840357418
20
-1.70604767579834
30
0
41
1
10
51.2363112645904
20
-1.60943719670581
30
0
41
1
10
50.6604904367343
20
-1.31496810716482
30
0
41
1
10
50.2779339711244
20
-1.11247801625805
30
0
41
1
10
49.5130141209004
20
-0.699384125266363
30
0
41
1
10
49.130611973327
20
-0.488786770838573
30
0
41
1
10
48.3634466288854
20
-0.0642299214327124
30
0
41
1
10
47.9787534808756
20
0.149868580443609
30
0
41
1
10
47.3981304292921
20
0.470395049830955
30
0
41
1
10
47.2045851379522
20
0.576818650209447
30
0
41
1
10
46.8187865403433
20
0.787178344452656
30
0
41
1
10
46.6262497027637
20
0.891265356760783
30
0
41
1
10
45.6648600254621
20
1.40540112081564
30
0
41
1
10
44.8995161714885
20
1.79565071352033
30
0
41
1
10
43.7426925371664
20
2.32506332153994
30
0
41
1
10
43.3546605420821
20
2.49244124133713
30
0
41
1
10
42.5808688191632
20
2.80098398705886
30
0
41
1
10
42.1943605652494
20
2.94240650766818
30
0
41
1
10
41.6135338176713
20
3.13356424016953
30
0
41
1
10
41.4195670714314
20
3.19383176601175
30
0
41
1
10
41.0331661011724
20
3.30620169371113
30
0
41
1
10
40.8404774807547
20
3.35840205550895
30
0
41
1
10
40.4196503116011
20
3.46365125114477
30
0
41
1
10
40.1916437072497
20
3.51493769502397
30
0
41
1
10
39.9639117582258
20
3.56041165393469
30
0
0
SPLINE
5
AD
100
AcDbEntity
8
1
62
256
6
ByLayer
370
18
48
1
60
0
100
AcDbSpline
70
4
71
3
72
8
73
4
40
0
40
0
40
0
40
0
40
1
40
1
40
1
40
1
41
1
10
15.6369639436299
20
-3.78102793954781
30
0
41
1
10
15.1826972028063
20
-3.78052652061544
30
0
41
1
10
14.727691503431
20
-3.75570531208808
30
0
41
1
10
14.2698767612008
20
-3.70604768496355
30
0
0
SPLINE
5
AE
100
AcDbEntity
8
1
62
256
6
ByLayer
370
13
48
1
60
0
100
AcDbSpline
70
4
71
3
72
28
73
24
40
0
40
0
40
0
40
0
40
0.0188858221664808
40
0.0188858221664808
40
0.0802054582810764
40
0.0802054582810764
40
0.141525094395673
40
0.141525094395673
40
0.264164366624863
40
0.264164366624863
40
0.509442911083243
40
0.509442911083243
40
0.570762547197837
40
0.570762547197837
40
0.632082183312432
40
0.632082183312432
40
0.754721455541622
40
0.754721455541622
40
0.877360727770811
40
0.877360727770811
40
0.938680363885405
40
0.938680363885405
40
1
40
1
40
1
40
1
41
1
10
14.2698767589948
20
-3.70604768472427
30
0
41
1
10
14.2102787945705
20
-3.699583293724
30
0
41
1
10
14.1506332263406
20
-3.69269800916709
30
0
41
1
10
13.8971052379762
20
-3.66166484727157
30
0
41
1
10
13.702411206643
20
-3.63351904961579
30
0
41
1
10
13.3147352168496
20
-3.5690893975532
30
0
41
1
10
13.1214278256417
20
-3.53274167810611
30
0
41
1
10
12.5426147356095
20
-3.41174966864892
30
0
41
1
10
12.1582513261831
20
-3.31507422753313
30
0
41
1
10
11.005938467598
20
-2.98098114648718
30
0
41
1
10
10.238948505402
20
-2.69993081430542
30
0
41
1
10
9.26947426755618
20
-2.28813667500569
30
0
41
1
10
9.07475257195495
20
-2.2026367454055
30
0
41
1
10
8.68671179462081
20
-2.02734010291945
30
0
41
1
10
8.49313746115226
20
-1.93744082091305
30
0
41
1
10
7.91327340009562
20
-1.66181075535763
30
0
41
1
10
7.52783599996258
20
-1.47014070897586
30
0
41
1
10
6.75695231990485
20
-1.07499387837481
30
0
41
1
10
6.37156669543916
20
-0.871461313998481
30
0
41
1
10
5.79154966889405
20
-0.560732252731839
30
0
41
1
10
5.59789933368643
20
-0.456238126095116
30
0
41
1
10
5.20964252111273
20
-0.246004076177371
30
0
41
1
10
5.01489835282155
20
-0.140202868127375
30
0
41
1
10
4.82044192174104
20
-0.0345716964189933
30
0
0
SPLINE
5
AF
100
AcDbEntity
8
1
62
256
6
ByLayer
370
13
48
1
60
0
100
AcDbSpline
70
4
71
3
72
78
73
74
40
0
40
0
40
0
40
0
40
0.0052877083965585
40
0.0195339835110776
40
0.0409033961828611
40
0.0480265337401223
40
0.0622728088546403
40
0.0765190839691632
40
0.0978884966409418
40
0.105011634198203
40
0.119257909312725
40
0.133504184427243
40
0.154873597099024
40
0.161996734656284
40
0.176243009770807
40
0.190489284885324
40
0.211858697557105
40
0.218981835114366
40
0.233228110228886
40
0.247474385343407
40
0.268843798015184
40
0.275966935572447
40
0.290213210686967
40
0.304459485801489
40
0.325828898473266
40
0.332952036030528
40
0.347198311145046
40
0.361444586259569
40
0.382813998931347
40
0.389937136488609
40
0.40418341160313
40
0.418429686717649
40
0.439799099389428
40
0.44692223694669
40
0.461168512061211
40
0.47541478717573
40
0.496784199847511
40
0.503907337404772
40
0.518153612519294
40
0.532399887633812
40
0.553769300305594
40
0.560892437862853
40
0.575138712977373
40
0.589384988091893
40
0.610754400763675
40
0.617877538320934
40
0.632123813435455
40
0.646370088549974
40
0.667739501221754
40
0.674862638779016
40
0.689108913893535
40
0.703355189008056
40
0.724724601679836
40
0.731847739237096
40
0.746094014351618
40
0.760340289466134
40
0.781709702137914
40
0.788832839695178
40
0.803079114809697
40
0.817325389924216
40
0.838694802595997
40
0.845817940153259
40
0.860064215267778
40
0.8743104903823
40
0.895679903054079
40
0.90280304061134
40
0.917049315725861
40
0.931295590840378
40
0.952665003512158
40
0.959788141069421
40
0.974034416183942
40
0.988280691298462
40
1
40
1
40
1
40
1
41
1
10
49.6681899296444
20
-1.50264153766196
30
0
41
1
10
49.6445099163228
20
-1.50444800151652
30
0
41
1
10
49.5570312247392
20
-1.51102175344039
30
0
41
1
10
49.3738524760432
20
-1.52402186678356
30
0
41
1
10
49.1824352235343
20
-1.53618565994586
30
0
41
1
10
48.9910215805038
20
-1.54718473909097
30
0
41
1
10
48.8315251100655
20
-1.55557574243301
30
0
41
1
10
48.6082269733651
20
-1.56592732694978
30
0
41
1
10
48.4168098085004
20
-1.57335569607758
30
0
41
1
10
48.2253962904584
20
-1.5795935364215
30
0
41
1
10
48.0658999393167
20
-1.58399265677596
30
0
41
1
10
47.8426019851895
20
-1.58873120105685
30
0
41
1
10
47.6511849809091
20
-1.59133642318648
30
0
41
1
10
47.459771611748
20
-1.59273781027448
30
0
41
1
10
47.3002753697955
20
-1.59309124375829
30
0
41
1
10
47.0769775062437
20
-1.5921558918285
30
0
41
1
10
46.8855604813148
20
-1.58989919813018
30
0
41
1
10
46.6941469726207
20
-1.58643497718913
30
0
41
1
10
46.5346505488821
20
-1.58272487066213
30
0
41
1
10
46.3113523958003
20
-1.57610647691362
30
0
41
1
10
46.1199351573583
20
-1.56900133570889
30
0
41
1
10
45.9285215538919
20
-1.56070888309247
30
0
41
1
10
45.7690251318881
20
-1.55298347732906
30
0
41
1
10
45.5457270783386
20
-1.54077550380524
30
0
41
1
10
45.3543099874954
20
-1.528923722157
30
0
41
1
10
45.1628965309395
20
-1.51591678017326
30
0
41
1
10
45.0034002014708
20
-1.50427796791675
30
0
41
1
10
44.7801022149034
20
-1.48663588784018
30
0
41
1
10
44.5886851307322
20
-1.47018442126568
30
0
41
1
10
44.3972716541604
20
-1.45262292165702
30
0
41
1
10
44.2377753168439
20
-1.43721336755769
30
0
41
1
10
44.0144773291356
20
-1.41435188916884
30
0
41
1
10
43.8230602190094
20
-1.39349856600154
30
0
41
1
10
43.6316466573601
20
-1.37159090804789
30
0
41
1
10
43.4721502086433
20
-1.35259165261991
30
0
41
1
10
43.2488520534772
20
-1.32477897094279
30
0
41
1
10
43.0574348506424
20
-1.29977109918011
30
0
41
1
10
42.8660213135547
20
-1.27378287591742
30
0
41
1
10
42.7065249770692
20
-1.25142848438563
30
0
41
1
10
42.4832270667609
20
-1.21901234946441
30
0
41
1
10
42.2918100749988
20
-1.19016365620632
30
0
41
1
10
42.1003966416032
20
-1.16041750949833
30
0
41
1
10
41.9409002739168
20
-1.1349825692478
30
0
41
1
10
41.7176021614945
20
-1.09835758287701
30
0
41
1
10
41.5261849273521
20
-1.06601741544282
30
0
41
1
10
41.3347713106094
20
-1.03287440775711
30
0
41
1
10
41.1752748640542
20
-1.00466866604444
30
0
41
1
10
40.9519767596191
20
-0.964282119738556
30
0
41
1
10
40.7605596214322
20
-0.928846124432084
30
0
41
1
10
40.5691461280295
20
-0.8927114888657
30
0
41
1
10
40.4096498037964
20
-0.862079505993108
30
0
41
1
10
40.1863519017718
20
-0.818424554071868
30
0
41
1
10
39.994934950371
20
-0.780325598285515
30
0
41
1
10
39.8035216330131
20
-0.741641322507036
30
0
41
1
10
39.6440254364092
20
-0.70895822188001
30
0
41
1
10
39.4207276336524
20
-0.662570370694226
30
0
41
1
10
39.229310645313
20
-0.622276867259302
30
0
41
1
10
39.0378971479806
20
-0.581519514625171
30
0
41
1
10
38.8784006984947
20
-0.547188540478544
30
0
41
1
10
38.6551024429472
20
-0.498639540835768
30
0
41
1
10
38.4636850657968
20
-0.456645661022805
30
0
41
1
10
38.2722713038872
20
-0.414310904994096
30
0
41
1
10
38.1127747465579
20
-0.378746528050414
30
0
41
1
10
37.8894765242952
20
-0.328618992024644
30
0
41
1
10
37.698059333842
20
-0.285427228716259
30
0
41
1
10
37.5066458401702
20
-0.242023261410651
30
0
41
1
10
37.3471495422522
20
-0.205653988813196
30
0
41
1
10
37.123851705468
20
-0.154554992054784
30
0
41
1
10
36.9324348287042
20
-0.110691927066682
30
0
41
1
10
36.7410215854118
20
-0.0667509649095166
30
0
41
1
10
36.5815254463883
20
-0.0300247073941193
30
0
41
1
10
36.4014439507115
20
0.0114575894539541
30
0
41
1
10
36.2851534435549
20
0.0381980716464909
30
0
41
1
10
36.2326663226964
20
0.050259161569727
30
0
0
SPLINE
5
B0
100
AcDbEntity
8
1
62
256
6
ByLayer
370
18
48
1
60
0
100
AcDbSpline
70
4
71
3
72
20
73
16
40
0
40
0
40
0
40
0
40
0.0193369138324723
40
0.0193369138324723
40
0.264502685374363
40
0.264502685374363
40
0.509668456916254
40
0.509668456916254
40
0.632251342687191
40
0.632251342687191
40
0.754834228458127
40
0.754834228458127
40
0.877417114229064
40
0.877417114229064
40
1
40
1
40
1
40
1
41
1
10
78.3571987367906
20
0.56494351646117
30
0
41
1
10
78.361046050979
20
0.568596976709983
30
0
41
1
10
78.3649060164956
20
0.57230278470405
30
0
41
1
10
78.417879443687
20
0.623706265390354
30
0
41
1
10
78.4696540781355
20
0.680477702368194
30
0
41
1
10
78.5736577718659
20
0.806256972530974
30
0
41
1
10
78.6260419073458
20
0.875228743006119
30
0
41
1
10
78.7048977820517
20
0.987783199919733
30
0
41
1
10
78.7311997744288
20
1.02681917493979
30
0
41
1
10
78.782553857873
20
1.10630704090209
30
0
41
1
10
78.8077595473455
20
1.14696353318496
30
0
41
1
10
78.8568641033272
20
1.23025858619519
30
0
41
1
10
78.8807784920253
20
1.27288879734343
30
0
41
1
10
78.9264539465083
20
1.36059019532848
30
0
41
1
10
78.9483263764736
20
1.40580072207044
30
0
41
1
10
78.9677289817603
20
1.4521386458203
30
0
0
SPLINE
5
B1
100
AcDbEntity
8
1
62
256
6
ByLayer
370
18
48
1
60
0
100
AcDbSpline
70
4
71
3
72
8
73
4
40
0
40
0
40
0
40
0
40
1
40
1
40
1
40
1
41
1
10
78.967728981758
20
1.45213864580825
30
0
41
1
10
78.9860507994241
20
1.49589539792115
30
0
41
1
10
78.9939186418148
20
1.54418166401692
30
0
41
1
10
78.9907805554308
20
1.59216276761674
30
0
0
SPLINE
5
B2
100
AcDbEntity
8
1
62
256
6
ByLayer
370
18
48
1
60
0
100
AcDbSpline
70
4
71
3
72
26
73
22
40
0
40
0
40
0
40
0
40
0.0963386960895397
40
0.0963386960895397
40
0.192677392179079
40
0.192677392179079
40
0.24084674022385
40
0.24084674022385
40
0.289016088268621
40
0.289016088268621
40
0.385354784358162
40
0.385354784358162
40
0.481693480447703
40
0.481693480447703
40
0.578032176537244
40
0.578032176537244
40
0.770709568716326
40
0.770709568716326
40
0.963386960895408
40
0.963386960895408
40
1
40
1
40
1
40
1
41
1
10
4.70711548549889
20
-0.228414606914811
30
0
41
1
10
5.09525372654468
20
-0.44475152134288
30
0
41
1
10
5.48322648683737
20
-0.66033116768935
30
0
41
1
10
6.25741320587531
20
-1.08239382324447
30
0
41
1
10
6.64399019911571
20
-1.28923701712506
30
0
41
1
10
7.22524337956696
20
-1.58950745856495
30
0
41
1
10
7.41945881042003
20
-1.68805125835743
30
0
41
1
10
7.80641802517533
20
-1.88035278676202
30
0
41
1
10
7.99936943140514
20
-1.97421019326214
30
0
41
1
10
8.57711779876848
20
-2.24823393782094
30
0
41
1
10
8.96076038136499
20
-2.42091165104444
30
0
41
1
10
9.72794256080573
20
-2.74222062774106
30
0
41
1
10
10.1114857666843
20
-2.89087416879585
30
0
41
1
10
10.880614640167
20
-3.16129920762515
30
0
41
1
10
11.2666350039272
20
-3.28312045865502
30
0
41
1
10
12.4296217607797
20
-3.60187429322357
30
0
41
1
10
13.199915564222
20
-3.74949822360796
30
0
41
1
10
14.7505969149992
20
-3.90177537151806
30
0
41
1
10
15.5205579724275
20
-3.90546236318463
30
0
41
1
10
16.4430293678803
20
-3.823390497697
30
0
41
1
10
16.5901393102547
20
-3.80768960104217
30
0
41
1
10
16.7371285929251
20
-3.78943519345759
30
0
0
SPLINE
5
B3
100
AcDbEntity
8
1
62
256
6
ByLayer
370
18
48
1
60
0
100
AcDbSpline
70
4
71
3
72
58
73
54
40
0
40
0
40
0
40
0
40
0.0104433771692332
40
0.0104433771692332
40
0.0353091070703869
40
0.0353091070703869
40
0.0601748369715404
40
0.0601748369715404
40
0.109906296773848
40
0.109906296773848
40
0.134772026675001
40
0.134772026675001
40
0.159637756576155
40
0.159637756576155
40
0.209369216378462
40
0.209369216378462
40
0.234234946279616
40
0.234234946279616
40
0.25910067618077
40
0.25910067618077
40
0.308832135983077
40
0.308832135983077
40
0.333697865884231
40
0.333697865884231
40
0.358563595785384
40
0.358563595785384
40
0.408295055587692
40
0.408295055587692
40
0.433160785488846
40
0.433160785488846
40
0.45802651539
40
0.45802651539
40
0.507757975192309
40
0.507757975192309
40
0.557489434994617
40
0.557489434994617
40
0.607220894796925
40
0.607220894796925
40
0.656952354599234
40
0.656952354599234
40
0.706683814401542
40
0.706683814401542
40
0.75641527420385
40
0.75641527420385
40
0.806146734006158
40
0.806146734006158
40
0.855878193808467
40
0.855878193808467
40
0.905609653610775
40
0.905609653610775
40
0.955341113413083
40
0.955341113413083
40
1
40
1
40
1
40
1
41
1
10
36.9099251685634
20
3.92473573588018
30
0
41
1
10
36.9909263095456
20
3.92494946322807
30
0
41
1
10
37.0719576955551
20
3.92435664669316
30
0
41
1
10
37.3460718428681
20
3.91961685010313
30
0
41
1
10
37.5395491917971
20
3.91167760285629
30
0
41
1
10
37.9257373236199
20
3.88674519079927
30
0
41
1
10
38.118593175445
20
3.86975715060808
30
0
41
1
10
38.6967372814927
20
3.80535069181826
30
0
41
1
10
39.0816959787657
20
3.74449489248917
30
0
41
1
10
39.6606186134946
20
3.62723584909239
30
0
41
1
10
39.8540503700656
20
3.58378151828333
30
0
41
1
10
40.2402218946764
20
3.48885214343917
30
0
41
1
10
40.4330274935712
20
3.43731115636862
30
0
41
1
10
41.0110292817087
20
3.27084116062639
30
0
41
1
10
41.395820600561
20
3.14404848489571
30
0
41
1
10
41.9745453419339
20
2.93241297666367
30
0
41
1
10
42.1679285235116
20
2.85822482365487
30
0
41
1
10
42.5539665535276
20
2.70359310836244
30
0
41
1
10
42.746702005452
20
2.62310732685879
30
0
41
1
10
43.3245630250748
20
2.37283314802667
30
0
41
1
10
43.7093205276645
20
2.19419263743757
30
0
41
1
10
44.2878093875469
20
1.91143561097957
30
0
41
1
10
44.4811103671483
20
1.81464924947341
30
0
41
1
10
44.8671011501903
20
1.61742127391608
30
0
41
1
10
45.0598075712788
20
1.51690224717288
30
0
41
1
10
45.6375573334532
20
1.2104565502656
30
0
41
1
10
46.022251488323
20
0.999673233851212
30
0
41
1
10
46.6006159631069
20
0.677172599276844
30
0
41
1
10
46.7938483964541
20
0.568497795984143
30
0
41
1
10
47.1797326396003
20
0.350342631694417
30
0
41
1
10
47.3723918685878
20
0.240857714330389
30
0
41
1
10
47.9499876183181
20
-0.0879958639445135
30
0
41
1
10
48.3345797215839
20
-0.307696996349364
30
0
41
1
10
49.1055203740578
20
-0.743269879576275
30
0
41
1
10
49.491919980331
20
-0.959194111613982
30
0
41
1
10
50.2618831680345
20
-1.37903011925039
30
0
41
1
10
50.6463619489438
20
-1.58338920909577
30
0
41
1
10
51.4170462825257
20
-1.97648232317079
30
0
41
1
10
51.8033334924165
20
-2.16533706671225
30
0
41
1
10
52.5731005834634
20
-2.52014750384046
30
0
41
1
10
52.9574869423171
20
-2.68652685239454
30
0
41
1
10
53.7279499483048
20
-2.99361754521033
30
0
41
1
10
54.1141613503273
20
-3.13442052780772
30
0
41
1
10
54.8837760245598
20
-3.38485426739018
30
0
41
1
10
55.2680366802499
20
-3.4948736273505
30
0
41
1
10
56.0381252306817
20
-3.68207130433697
30
0
41
1
10
56.4243565504444
20
-3.75912674183647
30
0
41
1
10
57.1938118008887
20
-3.8773988256425
30
0
41
1
10
57.5780206329293
20
-3.91878758570661
30
0
41
1
10
58.3478924869964
20
-3.9651326705079
30
0
41
1
10
58.7339672682517
20
-3.96997537523239
30
0
41
1
10
59.4639428962601
20
-3.94422776449949
30
0
41
1
10
59.8089471430426
20
-3.91729261491562
30
0
41
1
10
60.1544361795395
20
-3.87580717900764
30
0
0
SPLINE
5
B4
100
AcDbEntity
8
1
62
256
6
ByLayer
370
18
48
1
60
0
100
AcDbSpline
70
4
71
3
72
12
73
8
40
0
40
0
40
0
40
0
40
0.249999999999991
40
0.249999999999991
40
0.499999999999982
40
0.499999999999982
40
1
40
1
40
1
40
1
41
1
10
78.7291602470253
20
-3.83962084431857
30
0
41
1
10
78.7271652613428
20
-3.82222295910239
30
0
41
1
10
78.723923006286
20
-3.80621828258455
30
0
41
1
10
78.715846623871
20
-3.77775924464598
30
0
41
1
10
78.7110120988788
20
-3.76513847809366
30
0
41
1
10
78.6946812019098
20
-3.73096773181231
30
0
41
1
10
78.681386129927
20
-3.71320552401809
30
0
41
1
10
78.6667250606032
20
-3.69959210474616
30
0
0
SPLINE
5
B5
100
AcDbEntity
8
1
62
256
6
ByLayer
370
18
48
1
60
0
100
AcDbSpline
70
4
71
3
72
32
73
28
40
0
40
0
40
0
40
0
40
0.0312500000000006
40
0.0312500000000006
40
0.0625000000000012
40
0.0625000000000012
40
0.0937500000000017
40
0.0937500000000017
40
0.125000000000002
40
0.125000000000002
40
0.187499999999999
40
0.187499999999999
40
0.249999999999997
40
0.249999999999997
40
0.374999999999996
40
0.374999999999996
40
0.437499999999995
40
0.437499999999995
40
0.499999999999995
40
0.499999999999995
40
0.749999999999997
40
0.749999999999997
40
0.812499999999998
40
0.812499999999998
40
0.874999999999999
40
0.874999999999999
40
1
40
1
40
1
40
1
41
1
10
4.07550797100973
20
-3.1405601395972
30
0
41
1
10
4.09707229067018
20
-3.11701568570766
30
0
41
1
10
4.12333314458078
20
-3.09408233276074
30
0
41
1
10
4.18116886465265
20
-3.05108220592234
30
0
41
1
10
4.21283983391325
20
-3.03083771358195
30
0
41
1
10
4.28039175585732
20
-2.99236458237004
30
0
41
1
10
4.31649204636062
20
-2.97404983097482
30
0
41
1
10
4.39092554724664
20
-2.9396883379784
30
0
41
1
10
4.42924283711864
20
-2.9236240680832
30
0
41
1
10
4.54678701999438
20
-2.87815786784424
30
0
41
1
10
4.62856946124697
20
-2.85144942527339
30
0
41
1
10
4.7969897071894
20
-2.80352557349531
30
0
41
1
10
4.88350523165946
20
-2.78241073410345
30
0
41
1
10
5.14405670775977
20
-2.72701110594676
30
0
41
1
10
5.32086359549481
20
-2.70002256821846
30
0
41
1
10
5.58944279188066
20
-2.671249321
30
0
41
1
10
5.67954737728519
20
-2.6636531114853
30
0
41
1
10
5.86083224337864
20
-2.65226119351627
30
0
41
1
10
5.95203711653375
20
-2.64848019353158
30
0
41
1
10
6.40541196267333
20
-2.63888627707075
30
0
41
1
10
6.76409228522976
20
-2.66018475453259
30
0
41
1
10
7.20758831878908
20
-2.71969150268885
30
0
41
1
10
7.29603817611294
20
-2.73326110896338
30
0
41
1
10
7.47241994871399
20
-2.76371921384245
30
0
41
1
10
7.56063203675069
20
-2.78067337375742
30
0
41
1
10
7.82136685004758
20
-2.83580437704208
30
0
41
1
10
7.99053234136281
20
-2.87830421130056
30
0
41
1
10
8.1549389959205
20
-2.92561589804112
30
0
0
SPLINE
5
B6
100
AcDbEntity
8
1
62
256
6
ByLayer
370
18
48
1
60
0
100
AcDbSpline
70
4
71
3
72
8
73
4
40
0
40
0
40
0
40
0
40
1
40
1
40
1
40
1
41
1
10
78.7881747218525
20
-3.96937077644557
30
0
41
1
10
78.7642912683046
20
-3.94940330003169
30
0
41
1
10
78.742883792708
20
-3.91984582471494
30
0
41
1
10
78.7235563801455
20
-3.88055763156658
30
0
0
SPLINE
5
B7
100
AcDbEntity
8
1
62
256
6
ByLayer
370
18
48
1
60
0
100
AcDbSpline
70
4
71
3
72
18
73
14
40
0
40
0
40
0
40
0
40
0.125
40
0.125
40
0.25
40
0.25
40
0.375
40
0.375
40
0.5
40
0.5
40
0.75
40
0.75
40
1
40
1
40
1
40
1
41
1
10
79.4322116109361
20
-0.994748055506307
30
0
41
1
10
79.3860292673463
20
-1.00045701053398
30
0
41
1
10
79.3417199615121
20
-0.992870631274513
30
0
41
1
10
79.2561630316283
20
-0.95596521804157
30
0
41
1
10
79.2145979647159
20
-0.926080732979017
30
0
41
1
10
79.1374759239099
20
-0.85000921436307
30
0
41
1
10
79.1014972452811
20
-0.803788773503726
30
0
41
1
10
79.0338858966715
20
-0.697573302705138
30
0
41
1
10
79.0021836910263
20
-0.637216967223736
30
0
41
1
10
78.9155219414607
20
-0.443349106047663
30
0
41
1
10
78.8677288853885
20
-0.295868803961355
30
0
41
1
10
78.7885840634236
20
0.0291283305151353
30
0
41
1
10
78.7584715854828
20
0.202086498371301
30
0
41
1
10
78.7368610313573
20
0.38278800323323
30
0
0
SPLINE
5
B8
100
AcDbEntity
8
1
62
256
6
ByLayer
370
18
48
1
60
0
100
AcDbSpline
70
4
71
3
72
8
73
4
40
0
40
0
40
0
40
0
40
1
40
1
40
1
40
1
41
1
10
7.86446970514166
20
2.84842496370186
30
0
41
1
10
7.96281655489327
20
2.87240519016976
30
0
41
1
10
8.05964748919382
20
2.89819363872064
30
0
41
1
10
8.15493899592053
20
2.92561589804109
30
0
0
SPLINE
5
B9
100
AcDbEntity
8
1
62
256
6
ByLayer
370
18
48
1
60
0
100
AcDbSpline
70
4
71
3
72
30
73
26
40
0
40
0
40
0
40
0
40
0.11005948230475
40
0.11005948230475
40
0.165089223457126
40
0.165089223457126
40
0.220118964609502
40
0.220118964609502
40
0.330178446914258
40
0.330178446914258
40
0.440237929219015
40
0.440237929219015
40
0.550297411523771
40
0.550297411523771
40
0.660356893828527
40
0.660356893828527
40
0.715386634980905
40
0.715386634980905
40
0.770416376133283
40
0.770416376133283
40
0.880475858438042
40
0.880475858438042
40
0.990535340742802
40
0.990535340742802
40
1
40
1
40
1
40
1
41
1
10
78.1881741327115
20
0.670582469968792
30
0
41
1
10
77.8366074744649
20
0.865117070449259
30
0
41
1
10
77.4852346316861
20
1.05699661771726
30
0
41
1
10
76.957168509227
20
1.33842847200549
30
0
41
1
10
76.7808743248445
20
1.43095408495961
30
0
41
1
10
76.4277207944201
20
1.61334958469845
30
0
41
1
10
76.2513926685222
20
1.70310533522383
30
0
41
1
10
75.7238443554088
20
1.96581628208816
30
0
41
1
10
75.3739977967269
20
2.13305181746458
30
0
41
1
10
74.675900359449
20
2.44908758969174
30
0
41
1
10
74.3275382248461
20
2.5982153965742
30
0
41
1
10
73.6306898368903
20
2.87546064315492
30
0
41
1
10
73.2820752561371
20
3.00366084131107
30
0
41
1
10
72.5824068074728
20
3.23533882085275
30
0
41
1
10
72.2314778934681
20
3.33996414183852
30
0
41
1
10
71.7022207974608
20
3.47871850031788
30
0
41
1
10
71.5254784696302
20
3.52174896625894
30
0
41
1
10
71.1735268263901
20
3.60038326220337
30
0
41
1
10
70.9981957620775
20
3.63593474937289
30
0
41
1
10
70.473084650305
20
3.73079762235659
30
0
41
1
10
70.1243261428173
20
3.77987409762801
30
0
41
1
10
69.4274166743873
20
3.84783009036823
30
0
41
1
10
69.0793214543845
20
3.86788103735975
30
0
41
1
10
68.7007798150494
20
3.8745128653072
30
0
41
1
10
68.6707984611366
20
3.87493239020668
30
0
41
1
10
68.6408109317572
20
3.87524549486699
30
0
0
SPLINE
5
BA
100
AcDbEntity
8
1
62
256
6
ByLayer
370
18
48
1
60
0
100
AcDbSpline
70
4
71
3
72
80
73
76
40
0
40
0
40
0
40
0
40
0.0116853614352192
40
0.0116853614352192
40
0.0503867658037735
40
0.0503867658037735
40
0.089088170172328
40
0.089088170172328
40
0.127789574540882
40
0.127789574540882
40
0.166490978909437
40
0.166490978909437
40
0.185841681093714
40
0.185841681093714
40
0.205192383277991
40
0.205192383277991
40
0.243893787646546
40
0.243893787646546
40
0.263244489830822
40
0.263244489830822
40
0.282595192015099
40
0.282595192015099
40
0.321296596383653
40
0.321296596383653
40
0.34064729856793
40
0.34064729856793
40
0.359998000752207
40
0.359998000752207
40
0.379348702936484
40
0.379348702936484
40
0.398699405120762
40
0.398699405120762
40
0.437400809489316
40
0.437400809489316
40
0.456751511673592
40
0.456751511673592
40
0.476102213857869
40
0.476102213857869
40
0.514803618226421
40
0.514803618226421
40
0.534154320410697
40
0.534154320410697
40
0.553505022594973
40
0.553505022594973
40
0.592206426963525
40
0.592206426963525
40
0.630907831332077
40
0.630907831332077
40
0.669609235700629
40
0.669609235700629
40
0.708310640069181
40
0.708310640069181
40
0.747012044437733
40
0.747012044437733
40
0.766362746622009
40
0.766362746622009
40
0.785713448806286
40
0.785713448806286
40
0.805064150990562
40
0.805064150990562
40
0.824414853174839
40
0.824414853174839
40
0.86311625754339
40
0.86311625754339
40
0.882466959727667
40
0.882466959727667
40
0.901817661911942
40
0.901817661911942
40
0.940519066280494
40
0.940519066280494
40
0.95986976846477
40
0.95986976846477
40
0.979220470649046
40
0.979220470649046
40
1
40
1
40
1
40
1
41
1
10
52.2246530768422
20
-2.71604040301722
30
0
41
1
10
52.1180424258124
20
-2.75804478037702
30
0
41
1
10
52.0115549801037
20
-2.79899066256584
30
0
41
1
10
51.5536201107129
20
-2.97028707248614
30
0
41
1
10
51.2038243852335
20
-3.08822048385895
30
0
41
1
10
50.5048354543855
20
-3.30310641068633
30
0
41
1
10
50.1560729723496
20
-3.39909226431357
30
0
41
1
10
49.4584270274607
20
-3.56286445468842
30
0
41
1
10
49.1095362163189
20
-3.62903283880271
30
0
41
1
10
48.4094331189983
20
-3.7373166552926
30
0
41
1
10
48.0582587079792
20
-3.77869957349324
30
0
41
1
10
47.5284126127655
20
-3.81819960754265
30
0
41
1
10
47.3513299663032
20
-3.82753510431215
30
0
41
1
10
46.9990588827938
20
-3.83737346756058
30
0
41
1
10
46.8233799534693
20
-3.83786489900061
30
0
41
1
10
46.2972335798788
20
-3.83084441349604
30
0
41
1
10
45.9476484259787
20
-3.81186671753966
30
0
41
1
10
45.4239277901714
20
-3.76227960654236
30
0
41
1
10
45.2493633140423
20
-3.74242382280644
30
0
41
1
10
44.900504251711
20
-3.69498192683889
30
0
41
1
10
44.7260698436585
20
-3.66703742107831
30
0
41
1
10
44.2021885272277
20
-3.57379555850139
30
0
41
1
10
43.8524859679936
20
-3.49865254876724
30
0
41
1
10
43.3258834349755
20
-3.36447852807478
30
0
41
1
10
43.1499202659274
20
-3.31645813087832
30
0
41
1
10
42.7970434992873
20
-3.21405094855464
30
0
41
1
10
42.6199066227152
20
-3.15928791430528
30
0
41
1
10
42.2668805455248
20
-3.04392777546627
30
0
41
1
10
42.0908571111237
20
-2.9833175069121
30
0
41
1
10
41.7395143261991
20
-2.85727987567589
30
0
41
1
10
41.5640627065812
20
-2.79195617345923
30
0
41
1
10
41.03870142777
20
-2.58790873604045
30
0
41
1
10
40.6895010781016
20
-2.44185481056744
30
0
41
1
10
40.1660161854211
20
-2.20811548290632
30
0
41
1
10
39.9914493518557
20
-2.12768851536256
30
0
41
1
10
39.6421638254372
20
-1.9640844651602
30
0
41
1
10
39.4674445065887
20
-1.88052346214965
30
0
41
1
10
38.9424125018527
20
-1.62495048130788
30
0
41
1
10
38.5916808606588
20
-1.44769781793093
30
0
41
1
10
38.062866378349
20
-1.17137536319973
30
0
41
1
10
37.8857627819247
20
-1.07708785929876
30
0
41
1
10
37.5317556067731
20
-0.887646583420434
30
0
41
1
10
37.3552005997029
20
-0.792313850296779
30
0
41
1
10
36.8264881032805
20
-0.505341741972984
30
0
41
1
10
36.475474601358
20
-0.312338535284766
30
0
41
1
10
35.7746799801682
20
0.073725913286097
30
0
41
1
10
35.4251193369029
20
0.267105055598307
30
0
41
1
10
34.7251852304005
20
0.650428723203078
30
0
41
1
10
34.3748077547385
20
0.840220439647766
30
0
41
1
10
33.6714780219997
20
1.213008338208
30
0
41
1
10
33.3181600532394
20
1.39627277331337
30
0
41
1
10
32.608905018327
20
1.75166038799182
30
0
41
1
10
32.2565348201047
20
1.92173540765111
30
0
41
1
10
31.7296226507824
20
2.16440894627809
30
0
41
1
10
31.5541422329675
20
2.24306953401015
30
0
41
1
10
31.2037994255294
20
2.39599851403804
30
0
41
1
10
31.0289323342993
20
2.46968071412544
30
0
41
1
10
30.6790436195516
20
2.61235086039727
30
0
41
1
10
30.5042039652895
20
2.68156660434423
30
0
41
1
10
30.1544097939197
20
2.81433775244017
30
0
41
1
10
29.9793665958362
20
2.8778114519728
30
0
41
1
10
29.4540655728123
20
3.06074938253229
30
0
41
1
10
29.1031315053813
20
3.17180082416638
30
0
41
1
10
28.5743281793974
20
3.31929637326235
30
0
41
1
10
28.3975975793632
20
3.36547485106945
30
0
41
1
10
28.0433120996604
20
3.45153701154649
30
0
41
1
10
27.8656529052233
20
3.49111723636793
30
0
41
1
10
27.3340020918877
20
3.59899645067759
30
0
41
1
10
26.9803148505572
20
3.65761529814267
30
0
41
1
10
26.449629014426
20
3.72259791526707
30
0
41
1
10
26.2725754504162
20
3.74061632521261
30
0
41
1
10
25.9182003287019
20
3.7697661030254
30
0
41
1
10
25.74073238724
20
3.78074502225988
30
0
41
1
10
25.3728222617834
20
3.79525077070238
30
0
41
1
10
25.1829055628709
20
3.79858568156229
30
0
41
1
10
24.9934580944019
20
3.79761258459337
30
0
0
SPLINE
5
BB
100
AcDbEntity
8
1
62
256
6
ByLayer
370
18
48
1
60
0
100
AcDbSpline
70
4
71
3
72
8
73
4
40
0
40
0
40
0
40
0
40
1
40
1
40
1
40
1
41
1
10
4.37400622090402
20
3.85944436549974
30
0
41
1
10
4.3180549394086
20
3.86366288845798
30
0
41
1
10
4.26483767522561
20
3.86594730754084
30
0
41
1
10
4.2147963424184
20
3.86594992896866
30
0
0
SPLINE
5
BC
100
AcDbEntity
8
1
62
256
6
ByLayer
370
18
48
1
60
0
100
AcDbSpline
70
4
71
3
72
12
73
8
40
0
40
0
40
0
40
0
40
0.249999999999999
40
0.249999999999999
40
0.499999999999998
40
0.499999999999998
40
1
40
1
40
1
40
1
41
1
10
78.9907805554474
20
1.59216276761646
30
0
41
1
10
78.9831549388001
20
1.70875786970831
30
0
41
1
10
78.9853616214226
20
1.82365255389087
30
0
41
1
10
78.9997626041327
20
2.05171464330161
30
0
41
1
10
79.0121440414016
20
2.16484968464334
30
0
41
1
10
79.0583942651801
20
2.50268001366183
30
0
41
1
10
79.1011043937225
20
2.72584626159721
30
0
41
1
10
79.1488423442877
20
2.94814298772732
30
0
0
SPLINE
5
BD
100
AcDbEntity
8
1
62
256
6
ByLayer
370
18
48
1
60
0
100
AcDbSpline
70
4
71
3
72
8
73
4
40
0
40
0
40
0
40
0
40
1
40
1
40
1
40
1
41
1
10
78.7881747218525
20
3.96937077644557
30
0
41
1
10
78.9071336993089
20
3.63946907059182
30
0
41
1
10
79.0283611040399
20
3.29963903097644
30
0
41
1
10
79.1488423442861
20
2.94814298772658
30
0
0
SPLINE
5
BE
100
AcDbEntity
8
1
62
256
6
ByLayer
370
18
48
1
60
0
100
AcDbSpline
70
4
71
3
72
62
73
58
40
0
40
0
40
0
40
0
40
0.0536049442577395
40
0.0536049442577395
40
0.107209888515479
40
0.107209888515479
40
0.134012360644349
40
0.134012360644349
40
0.160814832773219
40
0.160814832773219
40
0.187617304902088
40
0.187617304902088
40
0.214419777030958
40
0.214419777030958
40
0.268024721288697
40
0.268024721288697
40
0.294827193417567
40
0.294827193417567
40
0.321629665546437
40
0.321629665546437
40
0.348432137675307
40
0.348432137675307
40
0.375234609804177
40
0.375234609804177
40
0.428839554061917
40
0.428839554061917
40
0.482444498319657
40
0.482444498319657
40
0.536049442577398
40
0.536049442577398
40
0.562851914706268
40
0.562851914706268
40
0.589654386835138
40
0.589654386835138
40
0.616456858964008
40
0.616456858964008
40
0.643259331092878
40
0.643259331092878
40
0.670061803221748
40
0.670061803221748
40
0.696864275350618
40
0.696864275350618
40
0.723666747479489
40
0.723666747479489
40
0.750469219608359
40
0.750469219608359
40
0.804074163866099
40
0.804074163866099
40
0.857679108123839
40
0.857679108123839
40
0.911284052381578
40
0.911284052381578
40
0.964888996639318
40
0.964888996639318
40
0.991691468768187
40
0.991691468768187
40
1
40
1
40
1
40
1
41
1
10
10.7894646196897
20
1.77051966907766
30
0
41
1
10
11.1428215191497
20
1.60130235200535
30
0
41
1
10
11.4945390151263
20
1.42483515707161
30
0
41
1
10
12.198037501155
20
1.06336236466336
30
0
41
1
10
12.5496725301133
20
0.877371227554221
30
0
41
1
10
13.0781898931738
20
0.593749477823735
30
0
41
1
10
13.2548224898262
20
0.498542952012627
30
0
41
1
10
13.6074719059234
20
0.307309882341315
30
0
41
1
10
13.7834739515278
20
0.211220332738662
30
0
41
1
10
14.1353963814238
20
0.0191461200572007
30
0
41
1
10
14.3111595500941
20
-0.0771154670477756
30
0
41
1
10
14.6627922896008
20
-0.269088857430688
30
0
41
1
10
14.8387691391638
20
-0.364631382995299
30
0
41
1
10
15.3667880722572
20
-0.650699906322558
30
0
41
1
10
15.7200378788961
20
-0.839928642014428
30
0
41
1
10
16.2483013750447
20
-1.11872908878004
30
0
41
1
10
16.4242746599251
20
-1.21073744209013
30
0
41
1
10
16.7759285427032
20
-1.39176417953121
30
0
41
1
10
16.9517262466145
20
-1.48081040139377
30
0
41
1
10
17.3034969673695
20
-1.65601878492655
30
0
41
1
10
17.4793305595429
20
-1.74234004017245
30
0
41
1
10
17.8315682097145
20
-1.91107581764285
30
0
41
1
10
18.0081236600791
20
-1.99361293444434
30
0
41
1
10
18.5370550902942
20
-2.23599239561864
30
0
41
1
10
18.8887615567562
20
-2.38941251017377
30
0
41
1
10
19.5922598556478
20
-2.67635206751623
30
0
41
1
10
19.9436482790028
20
-2.81197752463774
30
0
41
1
10
20.6490387633816
20
-3.05608527988346
30
0
41
1
10
21.0016924507498
20
-3.16605849470233
30
0
41
1
10
21.5293983407107
20
-3.31342268728341
30
0
41
1
10
21.7053383399693
20
-3.35954716074798
30
0
41
1
10
22.057035104487
20
-3.44626441668797
30
0
41
1
10
22.232815568004
20
-3.48673363524023
30
0
41
1
10
22.5850765042046
20
-3.55913600686566
30
0
41
1
10
22.7615175050207
20
-3.5916031998853
30
0
41
1
10
23.1141998774551
20
-3.64970159389779
30
0
41
1
10
23.2904177453109
20
-3.67514653618414
30
0
41
1
10
23.6423922694707
20
-3.71881518803445
30
0
41
1
10
23.8182577599501
20
-3.7370327436972
30
0
41
1
10
24.1700430598989
20
-3.76688034021069
30
0
41
1
10
24.3458000844159
20
-3.77850874001757
30
0
41
1
10
24.6976652450753
20
-3.79383350249398
30
0
41
1
10
24.8738255768156
20
-3.79749661987103
30
0
41
1
10
25.2263538132096
20
-3.79768607278732
30
0
41
1
10
25.4028237579969
20
-3.7942822097973
30
0
41
1
10
25.9312086734314
20
-3.772776564146
30
0
41
1
10
26.2827001000148
20
-3.74324982101481
30
0
41
1
10
26.985802012993
20
-3.65672727886499
30
0
41
1
10
27.3380277500475
20
-3.5982357209227
30
0
41
1
10
28.0432707693155
20
-3.45501966018071
30
0
41
1
10
28.3948054089614
20
-3.36926434823775
30
0
41
1
10
29.0977812036056
20
-3.17339697074104
30
0
41
1
10
29.4492715690407
20
-3.06236394672561
30
0
41
1
10
29.9776764793054
20
-2.87842720567824
30
0
41
1
10
30.1541273580012
20
-2.8144539248087
30
0
41
1
10
30.3846627313143
20
-2.7269379864789
30
0
41
1
10
30.4391957917291
20
-2.70595912489878
30
0
41
1
10
30.4937145604838
20
-2.68473217267948
30
0
0
SPLINE
5
BF
100
AcDbEntity
8
1
62
256
6
ByLayer
370
18
48
1
60
0
100
AcDbSpline
70
4
71
3
72
84
73
80
40
0
40
0
40
0
40
0
40
0.011017135451448
40
0.011017135451448
40
0.0304142806592856
40
0.0304142806592856
40
0.0692085710749609
40
0.0692085710749609
40
0.088605716282799
40
0.088605716282799
40
0.108002861490637
40
0.108002861490637
40
0.146797151906314
40
0.146797151906314
40
0.18559144232199
40
0.18559144232199
40
0.224385732737666
40
0.224385732737666
40
0.243782877945504
40
0.243782877945504
40
0.263180023153342
40
0.263180023153342
40
0.301974313569017
40
0.301974313569017
40
0.321371458776855
40
0.321371458776855
40
0.340768603984693
40
0.340768603984693
40
0.360165749192532
40
0.360165749192532
40
0.37956289440037
40
0.37956289440037
40
0.418357184816045
40
0.418357184816045
40
0.437754330023882
40
0.437754330023882
40
0.45715147523172
40
0.45715147523172
40
0.476548620439558
40
0.476548620439558
40
0.495945765647395
40
0.495945765647395
40
0.515342910855233
40
0.515342910855233
40
0.534740056063071
40
0.534740056063071
40
0.554137201270908
40
0.554137201270908
40
0.573534346478746
40
0.573534346478746
40
0.61232863689442
40
0.61232863689442
40
0.651122927310094
40
0.651122927310094
40
0.670520072517931
40
0.670520072517931
40
0.689917217725769
40
0.689917217725769
40
0.728711508141443
40
0.728711508141443
40
0.748108653349279
40
0.748108653349279
40
0.767505798557116
40
0.767505798557116
40
0.786902943764952
40
0.786902943764952
40
0.806300088972789
40
0.806300088972789
40
0.845094379388462
40
0.845094379388462
40
0.864491524596298
40
0.864491524596298
40
0.883888669804135
40
0.883888669804135
40
0.922682960219807
40
0.922682960219807
40
0.96147725063548
40
0.96147725063548
40
1
40
1
40
1
40
1
41
1
10
46.9030525328711
20
3.83672071496798
30
0
41
1
10
47.0028783083078
20
3.83628367421508
30
0
41
1
10
47.1026383230931
20
3.83469893081124
30
0
41
1
10
47.3778158053442
20
3.82631611486698
30
0
41
1
10
47.5532038399294
20
3.81666961979988
30
0
41
1
10
48.0795560032081
20
3.77640648045613
30
0
41
1
10
48.4304527066748
20
3.73461729831595
30
0
41
1
10
48.9577900189883
20
3.65219991589433
30
0
41
1
10
49.1337940185847
20
3.62155707985343
30
0
41
1
10
49.4850346476053
20
3.55386364296305
30
0
41
1
10
49.660336473419
20
3.51581198938948
30
0
41
1
10
50.1864455049295
20
3.39117931201878
30
0
41
1
10
50.5369533700772
20
3.29394712701057
30
0
41
1
10
51.2392182474484
20
3.07655283879183
30
0
41
1
10
51.5909996012673
20
2.95710494815526
30
0
41
1
10
52.2920527147292
20
2.69317927817008
30
0
41
1
10
52.6422313243112
20
2.54954983953675
30
0
41
1
10
53.1682568541432
20
2.32103489206665
30
0
41
1
10
53.3436492215089
20
2.24254440476034
30
0
41
1
10
53.6946416689615
20
2.08173119191773
30
0
41
1
10
53.8703846286267
20
1.99953532514394
30
0
41
1
10
54.3962653026107
20
1.74623265664425
30
0
41
1
10
54.7461808755509
20
1.5699059176147
30
0
41
1
10
55.2712453350314
20
1.29740276611474
30
0
41
1
10
55.4464487454346
20
1.20534849555978
30
0
41
1
10
55.7969253752509
20
1.01857413138794
30
0
41
1
10
55.9724155328394
20
0.9240562537681
30
0
41
1
10
56.3232904291671
20
0.733520027260397
30
0
41
1
10
56.4983815730271
20
0.637334652185672
30
0
41
1
10
56.8484556247325
20
0.444316910859015
30
0
41
1
10
57.0234453845066
20
0.347485653591633
30
0
41
1
10
57.5480232047418
20
0.0555887210857122
30
0
41
1
10
57.8977906737956
20
-0.139915689415886
30
0
41
1
10
58.4238770519409
20
-0.432016558359209
30
0
41
1
10
58.5993862611372
20
-0.529147950016153
30
0
41
1
10
58.9495515170324
20
-0.722094420743986
30
0
41
1
10
59.1245468885493
20
-0.8176654423402
30
0
41
1
10
59.4743101250979
20
-1.00744991027062
30
0
41
1
10
59.6489664335446
20
-1.10187935341918
30
0
41
1
10
59.9987914583772
20
-1.28734989588367
30
0
41
1
10
60.1737666148168
20
-1.37893739404893
30
0
41
1
10
60.5239388248527
20
-1.55981377205785
30
0
41
1
10
60.6994745815512
20
-1.64889831449659
30
0
41
1
10
61.0500312977384
20
-1.82384738411008
30
0
41
1
10
61.2249972376071
20
-1.90964487086009
30
0
41
1
10
61.5749145396717
20
-2.07729021924493
30
0
41
1
10
61.7496620405981
20
-2.15977399536374
30
0
41
1
10
62.099110321666
20
-2.32011828158295
30
0
41
1
10
62.274045692913
20
-2.39719378396401
30
0
41
1
10
62.7989311155788
20
-2.62235876200043
30
0
41
1
10
63.1500811284198
20
-2.76323820525101
30
0
41
1
10
63.8502213581115
20
-3.02363243259901
30
0
41
1
10
64.1996116212751
20
-3.1435771701735
30
0
41
1
10
64.7242183680991
20
-3.30396394718261
30
0
41
1
10
64.899069863747
20
-3.35434664496739
30
0
41
1
10
65.2492062930224
20
-3.44894253032169
30
0
41
1
10
65.4247513754588
20
-3.49287147926543
30
0
41
1
10
65.9502575041053
20
-3.61306618148663
30
0
41
1
10
66.2998375247093
20
-3.67874366553866
30
0
41
1
10
66.8243170636207
20
-3.75743341200723
30
0
41
1
10
66.9991930219957
20
-3.78037648106039
30
0
41
1
10
67.3488908535688
20
-3.81998125018845
30
0
41
1
10
67.5238006074489
20
-3.83706359847349
30
0
41
1
10
67.8744247500067
20
-3.86117199056798
30
0
41
1
10
68.0494759830155
20
-3.86867851850664
30
0
41
1
10
68.3994257950036
20
-3.87669075709888
30
0
41
1
10
68.5742574719816
20
-3.87696589189008
30
0
41
1
10
69.0984451254913
20
-3.8670340901289
30
0
41
1
10
69.4478023622873
20
-3.84642724448102
30
0
41
1
10
69.9729722202792
20
-3.79431172194845
30
0
41
1
10
70.1483152024687
20
-3.77323360996056
30
0
41
1
10
70.4982231050687
20
-3.72337700956993
30
0
41
1
10
70.673076439268
20
-3.69498745489139
30
0
41
1
10
71.1970710566046
20
-3.59929718499649
30
0
41
1
10
71.5461592625385
20
-3.52003367874846
30
0
41
1
10
72.2454016392413
20
-3.33589279615387
30
0
41
1
10
72.5961074874613
20
-3.23111113359437
30
0
41
1
10
73.292768803857
20
-2.99980109921469
30
0
41
1
10
73.6392350863933
20
-2.87220846754818
30
0
41
1
10
73.9860310740678
20
-2.73408465681928
30
0
0
SPLINE
5
C0
100
AcDbEntity
8
1
62
256
6
ByLayer
370
13
48
1
60
0
100
AcDbSpline
70
4
71
3
72
26
73
22
40
0
40
0
40
0
40
0
40
0.125
40
0.125
40
0.1875
40
0.1875
40
0.25
40
0.25
40
0.375
40
0.375
40
0.5
40
0.5
40
0.625
40
0.625
40
0.75
40
0.75
40
0.8125
40
0.8125
40
0.875
40
0.875
40
1
40
1
40
1
40
1
41
1
10
4.82044192174126
20
-0.034571696419107
30
0
41
1
10
4.82041921966561
20
0.192979212091785
30
0
41
1
10
4.82039726591046
20
0.417584924156301
30
0
41
1
10
4.82036876771883
20
0.750222655922244
30
0
41
1
10
4.82035999931699
20
0.860385668068659
30
0
41
1
10
4.820344412183
20
1.07925076630991
30
0
41
1
10
4.82033760226736
20
1.1880327397339
30
0
41
1
10
4.82032103925943
20
1.50593022269351
30
0
41
1
10
4.82031500700009
20
1.70880748798851
30
0
41
1
10
4.82031440741295
20
2.09667113146364
30
0
41
1
10
4.82031996828766
20
2.28277281889768
30
0
41
1
10
4.8203424610895
20
2.62638679600534
30
0
41
1
10
4.82035948511481
20
2.78544748341494
30
0
41
1
10
4.82040156343774
20
3.06780954621192
30
0
41
1
10
4.82042664627434
20
3.19240445308788
30
0
41
1
10
4.82046768527039
20
3.35433892051935
30
0
41
1
10
4.82048196208541
20
3.40423470393219
30
0
41
1
10
4.82051097419077
20
3.49489590225326
30
0
41
1
10
4.82052556047722
20
3.53523080664078
30
0
41
1
10
4.82056865109627
20
3.64162416937003
30
0
41
1
10
4.82059651373788
20
3.69318881501044
30
0
41
1
10
4.82062090512551
20
3.72494826455619
30
0
0
SPLINE
5
C1
100
AcDbEntity
8
1
62
256
6
ByLayer
370
18
48
1
60
0
100
AcDbSpline
70
4
71
3
72
22
73
18
40
0
40
0
40
0
40
0
40
0.0624999999999993
40
0.0624999999999993
40
0.124999999999999
40
0.124999999999999
40
0.25
40
0.25
40
0.375
40
0.375
40
0.500000000000001
40
0.500000000000001
40
0.750000000000001
40
0.750000000000001
40
0.875
40
0.875
40
1
40
1
40
1
40
1
41
1
10
4.82062090512548
20
3.72494826455792
30
0
41
1
10
4.91892460583858
20
3.71019071631485
30
0
41
1
10
5.02196434954857
20
3.69151510363577
30
0
41
1
10
5.23596756957579
20
3.64777946953086
30
0
41
1
10
5.34716216038862
20
3.62264283659599
30
0
41
1
10
5.68530815643248
20
3.54068673767111
30
0
41
1
10
5.91853469838924
20
3.47715154545674
30
0
41
1
10
6.39638348032508
20
3.33800343463176
30
0
41
1
10
6.64115547156405
20
3.26219076674775
30
0
41
1
10
7.13980576650977
20
3.10161500031501
30
0
41
1
10
7.39415530090599
20
3.01673696607435
30
0
41
1
10
8.16081917925257
20
2.75359122102489
30
0
41
1
10
8.67918006799925
20
2.56637789138145
30
0
41
1
10
9.46453588881505
20
2.2758141860748
30
0
41
1
10
9.7276454471675
20
2.1772774530657
30
0
41
1
10
10.256595333457
20
1.97647462966481
30
0
41
1
10
10.5224364047239
20
1.87420494406391
30
0
41
1
10
10.7894646196898
20
1.7705196690776
30
0
0
SPLINE
5
C2
100
AcDbEntity
8
1
62
256
6
ByLayer
370
18
48
1
60
0
100
AcDbSpline
70
4
71
3
72
14
73
10
40
0
40
0
40
0
40
0
40
0.250000000000001
40
0.250000000000001
40
0.375000000000001
40
0.375000000000001
40
0.500000000000002
40
0.500000000000002
40
1
40
1
40
1
40
1
41
1
10
8.15493899592047
20
-2.92561589804109
30
0
41
1
10
8.58727070648166
20
-3.05002900353915
30
0
41
1
10
9.02208519361278
20
-3.16180067611572
30
0
41
1
10
9.6774897167715
20
-3.31218598798745
30
0
41
1
10
9.89653143845774
20
-3.35941717287406
30
0
41
1
10
10.333859453246
20
-3.44783651425647
30
0
41
1
10
10.5523694258422
20
-3.48907789305756
30
0
41
1
10
11.6440963706469
20
-3.68063524103076
30
0
41
1
10
12.514828601898
20
-3.78810731688105
30
0
41
1
10
13.3823894425834
20
-3.84352976380063
30
0
0
SPLINE
5
C3
100
AcDbEntity
8
1
62
256
6
ByLayer
370
18
48
1
60
0
100
AcDbSpline
70
4
71
3
72
20
73
16
40
0
40
0
40
0
40
0
40
0.0653417152321411
40
0.0653417152321411
40
0.299006286424107
40
0.299006286424107
40
0.415838572020088
40
0.415838572020088
40
0.532670857616068
40
0.532670857616068
40
0.766335428808034
40
0.766335428808034
40
0.883167714404017
40
0.883167714404017
40
1
40
1
40
1
40
1
41
1
10
7.86876809649246
20
-2.85327886573771
30
0
41
1
10
7.79725888701455
20
-2.8781799491974
30
0
41
1
10
7.72589685887573
20
-2.90286270302823
30
0
41
1
10
7.40004252424228
20
-3.01474707998179
30
0
41
1
10
7.14739098674175
20
-3.09911870901053
30
0
41
1
10
6.7718062235484
20
-3.22014431757611
30
0
41
1
10
6.64715116813648
20
-3.25954939062416
30
0
41
1
10
6.40106023413841
20
-3.33547190655651
30
0
41
1
10
6.27941023839901
20
-3.37205373457132
30
0
41
1
10
5.91915466982198
20
-3.47699463930991
30
0
41
1
10
5.68508415257088
20
-3.54075352100722
30
0
41
1
10
5.34639617586197
20
-3.62282221729131
30
0
41
1
10
5.23530148917447
20
-3.64792266968482
30
0
41
1
10
5.02168051932583
20
-3.69156600428872
30
0
41
1
10
4.91879970104964
20
-3.71020946727197
30
0
41
1
10
4.82062090512565
20
-3.72494826455821
30
0
0
SPLINE
5
C4
100
AcDbEntity
8
1
62
256
6
ByLayer
370
18
48
1
60
0
100
AcDbSpline
70
4
71
1
72
4
73
2
40
0
40
0
40
1
40
1
41
1
10
78.7291602470254
20
-3.83962084431903
30
0
41
1
10
79.4388794676427
20
-0.993092526106039
30
0
0
SPLINE
5
C5
100
AcDbEntity
8
1
62
256
6
ByLayer
370
18
48
1
60
0
100
AcDbSpline
70
4
71
3
72
8
73
4
40
0
40
0
40
0
40
0
40
1
40
1
40
1
40
1
41
1
10
78.1881741327116
20
0.670582469968764
30
0
41
1
10
78.3696114862259
20
0.566585603983157
30
0
41
1
10
78.5524604085198
20
0.470395770535674
30
0
41
1
10
78.7368610313574
20
0.382788003233287
30
0
0
SPLINE
5
C6
100
AcDbEntity
8
1
62
256
6
ByLayer
370
18
48
1
60
0
100
AcDbSpline
70
4
71
3
72
10
73
6
40
0
40
0
40
0
40
0
40
0.0959615559714321
40
0.0959615559714321
40
1
40
1
40
1
40
1
41
1
10
12.3482740266224
20
0.976294233459839
30
0
41
1
10
12.3587673398323
20
0.992248645001894
30
0
41
1
10
12.3691516793331
20
1.00856637469053
30
0
41
1
10
12.4760958139741
20
1.18223993471324
30
0
41
1
10
12.5618308445947
20
1.369936190842
30
0
41
1
10
12.6280564079787
20
1.56957473993989
30
0
0
SPLINE
5
C7
100
AcDbEntity
8
1
62
256
6
ByLayer
370
18
48
1
60
0
100
AcDbSpline
70
4
71
3
72
8
73
4
40
0
40
0
40
0
40
0
40
1
40
1
40
1
40
1
41
1
10
78.7235563801484
20
-3.88055763155614
30
0
41
1
10
78.7258338148567
20
-3.86630265649646
30
0
41
1
10
78.7276954243019
20
-3.85266886627045
30
0
41
1
10
78.7291602470247
20
-3.83962084432341
30
0
0
SPLINE
5
C8
100
AcDbEntity
8
1
62
256
6
ByLayer
370
13
48
1
60
0
100
AcDbSpline
70
4
71
3
72
10
73
6
40
0
40
0
40
0
40
0
40
0.5
40
0.5
40
1
40
1
40
1
40
1
41
1
10
4.82044192174124
20
-0.034571696419107
30
0
41
1
10
4.74333965405208
20
-0.0052586290282761
30
0
41
1
10
4.66742831143415
20
0.0231562145864643
30
0
41
1
10
4.51832438763438
20
0.0792424823409874
30
0
41
1
10
4.44455430931185
20
0.107134923225544
30
0
41
1
10
4.37442581203189
20
0.13429168453635
30
0
0
SPLINE
5
C9
100
AcDbEntity
8
1
62
256
6
ByLayer
370
18
48
1
60
0
100
AcDbSpline
70
4
71
3
72
20
73
16
40
0
40
0
40
0
40
0
40
0.249999999999993
40
0.249999999999993
40
0.374999999999994
40
0.374999999999994
40
0.499999999999996
40
0.499999999999996
40
0.624999999999997
40
0.624999999999997
40
0.749999999999998
40
0.749999999999998
40
0.874999999999999
40
0.874999999999999
40
1
40
1
40
1
40
1
41
1
10
79.4388794674525
20
-0.993092526242975
30
0
41
1
10
79.4815716703925
20
-0.96240647797174
30
0
41
1
10
79.5267196485857
20
-0.912535938019062
30
0
41
1
10
79.5985764716411
20
-0.81089240098737
30
0
41
1
10
79.623080566215
20
-0.772609765302803
30
0
41
1
10
79.6719089362244
20
-0.689774388920966
30
0
41
1
10
79.6964198533261
20
-0.644962149456916
30
0
41
1
10
79.745636541484
20
-0.548831831367607
30
0
41
1
10
79.770437428352
20
-0.497264583466716
30
0
41
1
10
79.8188998117621
20
-0.390581369876031
30
0
41
1
10
79.8427186503152
20
-0.335179941186141
30
0
41
1
10
79.8895250819565
20
-0.220494993505469
30
0
41
1
10
79.9126140013026
20
-0.160929977318972
30
0
41
1
10
79.9573948449857
20
-0.0393288491191868
30
0
41
1
10
79.9789856990176
20
0.0224007651829652
30
0
41
1
10
79.9997839717286
20
0.0850100418828958
30
0
0
SPLINE
5
CA
100
AcDbEntity
8
1
62
256
6
ByLayer
370
18
48
1
60
0
100
AcDbSpline
70
4
71
3
72
18
73
14
40
0
40
0
40
0
40
0
40
0.250000000000003
40
0.250000000000003
40
0.375000000000002
40
0.375000000000002
40
0.500000000000002
40
0.500000000000002
40
0.750000000000001
40
0.750000000000001
40
0.875
40
0.875
40
1
40
1
40
1
40
1
41
1
10
78.6667250606032
20
-3.69959210474619
30
0
41
1
10
78.5927186168511
20
-3.63087401022193
30
0
41
1
10
78.5258333204357
20
-3.54487685909655
30
0
41
1
10
78.4364446608467
20
-3.38933758312669
30
0
41
1
10
78.4084809400334
20
-3.3330447036997
30
0
41
1
10
78.3563877629749
20
-3.2111553212346
30
0
41
1
10
78.3321618810171
20
-3.14518458653859
30
0
41
1
10
78.2668379421763
20
-2.93654328716431
30
0
41
1
10
78.2326554949871
20
-2.78271216403073
30
0
41
1
10
78.1956039438786
20
-2.52958971864715
30
0
41
1
10
78.1856367388061
20
-2.44146588874938
30
0
41
1
10
78.1706693882956
20
-2.25740351917693
30
0
41
1
10
78.165704025933
20
-2.16151654405021
30
0
41
1
10
78.163365948345
20
-2.06326366758614
30
0
0
SPLINE
5
CB
100
AcDbEntity
8
1
62
256
6
ByLayer
370
18
48
1
60
0
100
AcDbSpline
70
4
71
3
72
8
73
4
40
0
40
0
40
0
40
0
40
1
40
1
40
1
40
1
41
1
10
79.9997839717286
20
0.0850100418828958
30
0
41
1
10
79.9596819443829
20
0.210830154984222
30
0
41
1
10
79.9205362025507
20
0.337547826108448
30
0
41
1
10
79.8822818469651
20
0.465178394993956
30
0
0
SPLINE
5
CC
100
AcDbEntity
8
1
62
256
6
ByLayer
370
18
48
1
60
0
100
AcDbSpline
70
4
71
3
72
56
73
52
40
0
40
0
40
0
40
0
40
0.0450429797779497
40
0.0450429797779497
40
0.0900859595558994
40
0.0900859595558994
40
0.112607449444874
40
0.112607449444874
40
0.135128939333849
40
0.135128939333849
40
0.180171919111798
40
0.180171919111798
40
0.225214898889747
40
0.225214898889747
40
0.270257878667696
40
0.270257878667696
40
0.315300858445645
40
0.315300858445645
40
0.360343838223594
40
0.360343838223594
40
0.405386818001543
40
0.405386818001543
40
0.450429797779492
40
0.450429797779492
40
0.495472777557441
40
0.495472777557441
40
0.54051575733539
40
0.54051575733539
40
0.585558737113339
40
0.585558737113339
40
0.608080227002313
40
0.608080227002313
40
0.630601716891286
40
0.630601716891286
40
0.720687676447181
40
0.720687676447181
40
0.765730656225128
40
0.765730656225128
40
0.810773636003075
40
0.810773636003075
40
0.855816615781022
40
0.855816615781022
40
0.900859595558969
40
0.900859595558969
40
0.923381085447944
40
0.923381085447944
40
0.945902575336918
40
0.945902575336918
40
0.990945555114867
40
0.990945555114867
40
1
40
1
40
1
40
1
41
1
10
13.3823894425836
20
3.84352976380069
30
0
41
1
10
13.7247970408873
20
3.87133192481113
30
0
41
1
10
14.0667430597642
20
3.88479426986092
30
0
41
1
10
14.7496650369301
20
3.88351503772887
30
0
41
1
10
15.0910402524053
20
3.86869757105941
30
0
41
1
10
15.6042967886494
20
3.82533580418695
30
0
41
1
10
15.7756632139705
20
3.80730762114132
30
0
41
1
10
16.1178739930296
20
3.76435306693873
30
0
41
1
10
16.2888776397888
20
3.73948648034144
30
0
41
1
10
16.8012314727631
20
3.65460371739513
30
0
41
1
10
17.1424640420726
20
3.5845689869461
30
0
41
1
10
17.8257003622166
20
3.41851705233313
30
0
41
1
10
18.1684658215039
20
3.32232624987239
30
0
41
1
10
18.8523217930244
20
3.10700150435829
30
0
41
1
10
19.1934840324612
20
2.98769925290816
30
0
41
1
10
19.8761085852971
20
2.72784475142962
30
0
41
1
10
20.2180668290615
20
2.58733235775597
30
0
41
1
10
20.9025077282829
20
2.28774352330979
30
0
41
1
10
21.2437870357933
20
2.12939120599987
30
0
41
1
10
21.9264223543242
20
1.79861985424989
30
0
41
1
10
22.267603749641
20
1.6259350216373
30
0
41
1
10
22.9514839286073
20
1.2686739215346
30
0
41
1
10
23.2936853193909
20
1.08473648667052
30
0
41
1
10
23.9761411336501
20
0.710856138064344
30
0
41
1
10
24.3170580784591
20
0.520764703781424
30
0
41
1
10
25.0002306029518
20
0.137734183364017
30
0
41
1
10
25.3428142309805
20
-0.0558004519090503
30
0
41
1
10
26.0255656128942
20
-0.440281072389894
30
0
41
1
10
26.3664596569161
20
-0.631174774247512
30
0
41
1
10
26.8781455795017
20
-0.913618599509761
30
0
41
1
10
27.0488951765773
20
-1.00689105874991
30
0
41
1
10
27.390509304225
20
-1.19212952219479
30
0
41
1
10
27.5616773071133
20
-1.28392670578987
30
0
41
1
10
28.4163491853826
20
-1.73541960088178
30
0
41
1
10
29.09634032548
20
-2.07558495485358
30
0
41
1
10
30.1220913273929
20
-2.53628671350799
30
0
41
1
10
30.4635142420152
20
-2.68095863509541
30
0
41
1
10
31.1455405946135
20
-2.94928059060817
30
0
41
1
10
31.4862590100867
20
-3.07329197889627
30
0
41
1
10
32.1688732210409
20
-3.29880129857298
30
0
41
1
10
32.5111375854496
20
-3.40007530449415
30
0
41
1
10
33.1931935261132
20
-3.57672882937317
30
0
41
1
10
33.5337270499923
20
-3.65227824190131
30
0
41
1
10
34.0453039728748
20
-3.74543027821062
30
0
41
1
10
34.2158276923023
20
-3.77318933215082
30
0
41
1
10
34.5574204848148
20
-3.82178708811006
30
0
41
1
10
34.7285349600935
20
-3.84261152449841
30
0
41
1
10
35.240406751289
20
-3.89455540641842
30
0
41
1
10
35.5810417904339
20
-3.91502289327508
30
0
41
1
10
35.9902408514081
20
-3.92254093361549
30
0
41
1
10
36.058741815913
20
-3.92322338580917
30
0
41
1
10
36.1272590054868
20
-3.92332981552906
30
0
0
SPLINE
5
CD
100
AcDbEntity
8
1
62
256
6
ByLayer
370
18
48
1
60
0
100
AcDbSpline
70
4
71
3
72
62
73
58
40
0
40
0
40
0
40
0
40
0.0014977689980725
40
0.0014977689980725
40
0.039901700959685
40
0.039901700959685
40
0.0783056329212977
40
0.0783056329212977
40
0.11670956488291
40
0.11670956488291
40
0.135911530863716
40
0.135911530863716
40
0.155113496844523
40
0.155113496844523
40
0.193517428806136
40
0.193517428806136
40
0.231921360767748
40
0.231921360767748
40
0.270325292729361
40
0.270325292729361
40
0.308729224690974
40
0.308729224690974
40
0.3855370886142
40
0.3855370886142
40
0.423941020575813
40
0.423941020575813
40
0.462344952537425
40
0.462344952537425
40
0.481546918518232
40
0.481546918518232
40
0.500748884499038
40
0.500748884499038
40
0.53915281646065
40
0.53915281646065
40
0.577556748422263
40
0.577556748422263
40
0.615960680383876
40
0.615960680383876
40
0.654364612345488
40
0.654364612345488
40
0.692768544307101
40
0.692768544307101
40
0.731172476268714
40
0.731172476268714
40
0.769576408230326
40
0.769576408230326
40
0.807980340191939
40
0.807980340191939
40
0.846384272153551
40
0.846384272153551
40
0.884788204115164
40
0.884788204115164
40
0.90399017009597
40
0.90399017009597
40
0.923192136076776
40
0.923192136076776
40
1
40
1
40
1
40
1
41
1
10
52.2391443763836
20
2.71015019809067
30
0
41
1
10
52.2524111877008
20
2.71567139677478
30
0
41
1
10
52.2656783386579
20
2.72117766572623
30
0
41
1
10
52.6191359691781
20
2.86746898618083
30
0
41
1
10
52.9595907466303
20
2.99871521777055
30
0
41
1
10
53.6416502966619
20
3.23925460177446
30
0
41
1
10
53.9817996700009
20
3.34773177638615
30
0
41
1
10
54.6617829692095
20
3.53994683926254
30
0
41
1
10
55.0016557087456
20
3.62362722207328
30
0
41
1
10
55.5128373083091
20
3.72924770939252
30
0
41
1
10
55.6834243427584
20
3.76123447509613
30
0
41
1
10
56.0240366436042
20
3.81812364258002
30
0
41
1
10
56.1942358871653
20
3.84306540726539
30
0
41
1
10
56.704177059586
20
3.90755800549812
30
0
41
1
10
57.0439195123244
20
3.93650337697844
30
0
41
1
10
57.7243814444963
20
3.96589972831057
30
0
41
1
10
58.065674118576
20
3.96625272474361
30
0
41
1
10
58.7462630229306
20
3.93830454905051
30
0
41
1
10
59.0858826525002
20
3.91005751858907
30
0
41
1
10
59.7655654086414
20
3.82540576876141
30
0
41
1
10
60.1064554648721
20
3.76897060355583
30
0
41
1
10
61.1280318438683
20
3.5592588934355
30
0
41
1
10
61.8058712278184
20
3.36659243944936
30
0
41
1
10
62.8278843507052
20
3.00655524399295
30
0
41
1
10
63.1680432516886
20
2.87551116598453
30
0
41
1
10
63.8473946831454
20
2.59371786728349
30
0
41
1
10
64.1868494216343
20
2.44293070125738
30
0
41
1
10
64.6972599587501
20
2.20397927251366
30
0
41
1
10
64.8676369578227
20
2.121912005604
30
0
41
1
10
65.2080574570823
20
1.95444840311987
30
0
41
1
10
65.3781453605152
20
1.86912115351171
30
0
41
1
10
65.8876815191383
20
1.60781213621527
30
0
41
1
10
66.2270722691324
20
1.42754546456911
30
0
41
1
10
66.9066324953811
20
1.05712501542908
30
0
41
1
10
67.2475241626826
20
0.866671096893924
30
0
41
1
10
67.9276574863391
20
0.482098807198525
30
0
41
1
10
68.2669592544353
20
0.287552871019784
30
0
41
1
10
68.94583572611
20
-0.102923103951895
30
0
41
1
10
69.2860512728852
20
-0.298716555710058
30
0
41
1
10
69.9666990188792
20
-0.687391901794598
30
0
41
1
10
70.3060775843433
20
-0.87950015244914
30
0
41
1
10
70.9850057084583
20
-1.25579654597865
30
0
41
1
10
71.3243672518738
20
-1.44030402521039
30
0
41
1
10
72.0046765777872
20
-1.79898356894827
30
0
41
1
10
72.3448350299763
20
-1.97225272893482
30
0
41
1
10
73.0235269839315
20
-2.30300640370854
30
0
41
1
10
73.362603094214
20
-2.46061666878859
30
0
41
1
10
74.0422525887776
20
-2.75742708432608
30
0
41
1
10
74.3829334750066
20
-2.89694844137316
30
0
41
1
10
75.0617729927434
20
-3.15348241351546
30
0
41
1
10
75.4007991193953
20
-3.27056883796257
30
0
41
1
10
75.9098116828402
20
-3.42834221430417
30
0
41
1
10
76.0796947291213
20
-3.47783816346924
30
0
41
1
10
76.41961834751
20
-3.57083213087995
30
0
41
1
10
76.5898413466253
20
-3.61419418206896
30
0
41
1
10
77.4386217765918
20
-3.81370069460112
30
0
41
1
10
78.1122995439003
20
-3.91983958053552
30
0
41
1
10
78.7881747218526
20
-3.96937077644557
30
0
0
SPLINE
5
CE
100
AcDbEntity
8
1
62
256
6
ByLayer
370
18
48
1
60
0
100
AcDbSpline
70
4
71
3
72
8
73
4
40
0
40
0
40
0
40
0
40
1
40
1
40
1
40
1
41
1
10
79.9997839717286
20
0.085010041882839
30
0
41
1
10
80.0008726311357
20
-0.12919104617464
30
0
41
1
10
79.9978466231863
20
-0.343392134232119
30
0
41
1
10
79.9907059478804
20
-0.557593222289626
30
0
0
SPLINE
5
CF
100
AcDbEntity
8
1
62
256
6
ByLayer
370
18
48
1
60
0
100
AcDbSpline
70
4
71
3
72
24
73
20
40
0
40
0
40
0
40
0
40
0.249999999999999
40
0.249999999999999
40
0.374999999999999
40
0.374999999999999
40
0.499999999999998
40
0.499999999999998
40
0.562499999999998
40
0.562499999999998
40
0.624999999999999
40
0.624999999999999
40
0.749999999999999
40
0.749999999999999
40
0.812499999999999
40
0.812499999999999
40
0.874999999999999
40
0.874999999999999
40
1
40
1
40
1
40
1
41
1
10
4.37400622090578
20
-3.8594443654996
30
0
41
1
10
4.23085351887087
20
-3.87023755814738
30
0
41
1
10
4.10559781872888
20
-3.86837001870669
30
0
41
1
10
3.95566167918162
20
-3.83784273598235
30
0
41
1
10
3.91186354525246
20
-3.82273939475408
30
0
41
1
10
3.84277373296513
20
-3.78220953506673
30
0
41
1
10
3.81708478995981
20
-3.75681484282904
30
0
41
1
10
3.7932762144537
20
-3.71011340785518
30
0
41
1
10
3.78779262439198
20
-3.69299684407611
30
0
41
1
10
3.78213690598346
20
-3.65631108124245
30
0
41
1
10
3.78192940107417
20
-3.63677783049152
30
0
41
1
10
3.78893183475617
20
-3.57470390509513
30
0
41
1
10
3.80374814203032
20
-3.52869631531658
30
0
41
1
10
3.84062074132257
20
-3.45299038831928
30
0
41
1
10
3.85537238509392
20
-3.42665234688926
30
0
41
1
10
3.88895245844301
20
-3.37284697912224
30
0
41
1
10
3.90783578958795
20
-3.34525757357827
30
0
41
1
10
3.97026291554874
20
-3.26059736120132
30
0
41
1
10
4.01978900735858
20
-3.20139547273536
30
0
41
1
10
4.07550797100907
20
-3.14056013959725
30
0
0
SPLINE
5
D0
100
AcDbEntity
8
1
62
256
6
ByLayer
370
18
48
1
60
0
100
AcDbSpline
70
4
71
3
72
30
73
26
40
0
40
0
40
0
40
0
40
0.125000000000001
40
0.125000000000001
40
0.187500000000001
40
0.187500000000001
40
0.250000000000001
40
0.250000000000001
40
0.375000000000001
40
0.375000000000001
40
0.437500000000001
40
0.437500000000001
40
0.500000000000001
40
0.500000000000001
40
0.625000000000001
40
0.625000000000001
40
0.687500000000001
40
0.687500000000001
40
0.75
40
0.75
40
0.875
40
0.875
40
0.9375
40
0.9375
40
1
40
1
40
1
40
1
41
1
10
4.37400622090522
20
3.85944436549957
30
0
41
1
10
4.37382382242021
20
3.84531114304491
30
0
41
1
10
4.37365479706676
20
3.80934114613629
30
0
41
1
10
4.37344062437899
20
3.72376724507828
30
0
41
1
10
4.373375730031
20
3.68993844857113
30
0
41
1
10
4.37326155807011
20
3.61145088348701
30
0
41
1
10
4.3732121761783
20
3.56654380650372
30
0
41
1
10
4.37309293684714
20
3.41795982316427
30
0
41
1
10
4.37305103605132
20
3.30012603794736
30
0
41
1
10
4.37304495726349
20
3.09570112835115
30
0
41
1
10
4.37305234571861
20
3.02291813864861
30
0
41
1
10
4.37308542140514
20
2.86779046087574
30
0
41
1
10
4.37311107725583
20
2.78589478444206
30
0
41
1
10
4.37321091023691
20
2.53077150382572
30
0
41
1
10
4.37330837849339
20
2.34694096856794
30
0
41
1
10
4.3734828483278
20
2.05057433705389
30
0
41
1
10
4.37354594141405
20
1.9479005106474
30
0
41
1
10
4.37367649783658
20
1.7373634825004
30
0
41
1
10
4.37374349558243
20
1.63020128096204
30
0
41
1
10
4.37394295613532
20
1.30319984050635
30
0
41
1
10
4.37407408757704
20
1.07789166665435
30
0
41
1
10
4.37423917216535
20
0.728775362872625
30
0
41
1
10
4.37428896139056
20
0.610169174724632
30
0
41
1
10
4.37437121378503
20
0.372866476224999
30
0
41
1
10
4.37440389969876
20
0.253790916786414
30
0
41
1
10
4.37442581203194
20
0.134291684536549
30
0
0
SPLINE
5
D1
100
AcDbEntity
8
1
62
256
6
ByLayer
370
18
48
1
60
0
100
AcDbSpline
70
4
71
3
72
8
73
4
40
0
40
0
40
0
40
0
40
1
40
1
40
1
40
1
41
1
10
79.4322116109361
20
-0.994748055506307
30
0
41
1
10
79.4344271663208
20
-0.994228942895376
30
0
41
1
10
79.4366497646151
20
-0.99367719525435
30
0
41
1
10
79.4388794676419
20
-0.993092526111525
30
0
0
SPLINE
5
D2
100
AcDbEntity
8
1
62
256
6
ByLayer
370
18
48
1
60
0
100
AcDbSpline
70
4
71
3
72
8
73
4
40
0
40
0
40
0
40
0
40
1
40
1
40
1
40
1
41
1
10
79.8822818469702
20
0.465178394976761
30
0
41
1
10
79.6345032685152
20
1.29185866292903
30
0
41
1
10
79.3900156471445
20
2.11951122650953
30
0
41
1
10
79.1488423442861
20
2.94814298772687
30
0
0
SPLINE
5
D3
100
AcDbEntity
8
1
62
256
6
ByLayer
370
18
48
1
60
0
100
AcDbSpline
70
4
71
3
72
56
73
52
40
0
40
0
40
0
40
0
40
0.0488951708444484
40
0.0488951708444484
40
0.148279168614377
40
0.148279168614377
40
0.197971167499341
40
0.197971167499341
40
0.247663166384306
40
0.247663166384306
40
0.29735516526927
40
0.29735516526927
40
0.347047164154235
40
0.347047164154235
40
0.396739163039199
40
0.396739163039199
40
0.446431161924164
40
0.446431161924164
40
0.496123160809128
40
0.496123160809128
40
0.545815159694093
40
0.545815159694093
40
0.570661159136575
40
0.570661159136575
40
0.595507158579058
40
0.595507158579058
40
0.645199157464025
40
0.645199157464025
40
0.670045156906508
40
0.670045156906508
40
0.694891156348992
40
0.694891156348992
40
0.744583155233961
40
0.744583155233961
40
0.769429154676446
40
0.769429154676446
40
0.794275154118931
40
0.794275154118931
40
0.8439671530039
40
0.8439671530039
40
0.868813152446385
40
0.868813152446385
40
0.89365915188887
40
0.89365915188887
40
0.943351150773842
40
0.943351150773842
40
0.968197150216328
40
0.968197150216328
40
0.993043149658814
40
0.993043149658814
40
1
40
1
40
1
40
1
41
1
10
15.1539978455194
20
3.88555373259163
30
0
41
1
10
15.534102097463
20
3.88677478900712
30
0
41
1
10
15.9142062652228
20
3.87043482033951
30
0
41
1
10
17.0707315933253
20
3.76755392950994
30
0
41
1
10
17.8406303590054
20
3.62671384621666
30
0
41
1
10
19.0027517445517
20
3.31684674873776
30
0
41
1
10
19.3891477522145
20
3.19758893952556
30
0
41
1
10
20.1614014349728
20
2.93070244853266
30
0
41
1
10
20.5474070232871
20
2.78291615851626
30
0
41
1
10
21.3217840149077
20
2.46154337028582
30
0
41
1
10
21.7082675909898
20
2.28865537434441
30
0
41
1
10
22.4803227553423
20
1.923651004524
30
0
41
1
10
22.86617324392
20
1.73124941046015
30
0
41
1
10
23.6402083813797
20
1.33070958105139
30
0
41
1
10
24.0268168476762
20
1.12342438883039
30
0
41
1
10
24.7986868929453
20
0.700768734810282
30
0
41
1
10
25.1843712684285
20
0.48505462898845
30
0
41
1
10
25.9580895326362
20
0.0498163710111328
30
0
41
1
10
26.3446993476448
20
-0.169045503602604
30
0
41
1
10
27.116383027434
20
-0.602461701468684
30
0
41
1
10
27.501968599446
20
-0.8174361274788
30
0
41
1
10
28.0820240677444
20
-1.13365338469177
30
0
41
1
10
28.2756134741228
20
-1.23804951850266
30
0
41
1
10
28.6619239786652
20
-1.44324332285009
30
0
41
1
10
28.8548742541501
20
-1.54414847961078
30
0
41
1
10
29.4335036980502
20
-1.84116553902368
30
0
41
1
10
29.818977704051
20
-2.03154735735947
30
0
41
1
10
30.3987985143295
20
-2.30243938822386
30
0
41
1
10
30.5923564874822
20
-2.39034744225592
30
0
41
1
10
30.9785987105561
20
-2.55997023533735
30
0
41
1
10
31.1715032804132
20
-2.64178764473977
30
0
41
1
10
31.7500464230069
20
-2.87767353505959
30
0
41
1
10
32.1354249436348
20
-3.02228572704325
30
0
41
1
10
32.7150327899918
20
-3.21771909391523
30
0
41
1
10
32.9085729524817
20
-3.27932113223747
30
0
41
1
10
33.2947686233435
20
-3.39446037226287
30
0
41
1
10
33.4876388306422
20
-3.44806581339571
30
0
41
1
10
34.0660105558672
20
-3.59666366741553
30
0
41
1
10
34.4512321573507
20
-3.67946133863867
30
0
41
1
10
35.0305711643919
20
-3.77770407295242
30
0
41
1
10
35.224084581266
20
-3.80612934915288
30
0
41
1
10
35.6102866940356
20
-3.85390473495508
30
0
41
1
10
35.8031425625072
20
-3.87330210123787
30
0
41
1
10
36.3814292850805
20
-3.91793935658086
30
0
41
1
10
36.7665191073989
20
-3.92962414280672
30
0
41
1
10
37.3456282143526
20
-3.91963147987045
30
0
41
1
10
37.539102844785
20
-3.9116993804306
30
0
41
1
10
37.9252864556819
20
-3.88678132133504
30
0
41
1
10
38.1181400115011
20
-3.86980054412976
30
0
41
1
10
38.3648115077149
20
-3.84232988949671
30
0
41
1
10
38.4187614811471
20
-3.83596951624281
30
0
41
1
10
38.4727062242717
20
-3.8292596050666
30
0
0
SPLINE
5
D4
100
AcDbEntity
8
1
62
256
6
ByLayer
370
18
48
1
60
0
100
AcDbSpline
70
4
71
3
72
44
73
40
40
0
40
0
40
0
40
0
40
0.0225867420578547
40
0.0225867420578547
40
0.0800816395838631
40
0.0800816395838631
40
0.137576537109872
40
0.137576537109872
40
0.19507143463588
40
0.19507143463588
40
0.252566332161889
40
0.252566332161889
40
0.310061229687898
40
0.310061229687898
40
0.367556127213906
40
0.367556127213906
40
0.425051024739915
40
0.425051024739915
40
0.482545922265923
40
0.482545922265923
40
0.540040819791932
40
0.540040819791932
40
0.59753571731794
40
0.59753571731794
40
0.655030614843949
40
0.655030614843949
40
0.712525512369958
40
0.712525512369958
40
0.770020409895966
40
0.770020409895966
40
0.827515307421975
40
0.827515307421975
40
0.885010204947983
40
0.885010204947983
40
0.942505102473992
40
0.942505102473992
40
0.971252551236996
40
0.971252551236996
40
1
40
1
40
1
40
1
41
1
10
58.6640443161522
20
3.9638776574462
30
0
41
1
10
58.8154288224473
20
3.9642347200174
30
0
41
1
10
58.9667445000737
20
3.96175566596059
30
0
41
1
10
59.5024307182646
20
3.94289361520478
30
0
41
1
10
59.8865701318018
20
3.91105680122925
30
0
41
1
10
60.6562902687882
20
3.8113542323614
30
0
41
1
10
61.0422307517108
20
3.74330289654651
30
0
41
1
10
61.811242769256
20
3.57357252291118
30
0
41
1
10
62.1953306828754
20
3.47197149564175
30
0
41
1
10
62.9648356797242
20
3.23702553884715
30
0
41
1
10
63.3506681471173
20
3.10343367589772
30
0
41
1
10
64.1195195624711
20
2.80960116922486
30
0
41
1
10
64.5033619914482
20
2.64914904930362
30
0
41
1
10
65.2725649606816
20
2.30454498345281
30
0
41
1
10
65.6584108533676
20
2.12019402331794
30
0
41
1
10
66.4272218307701
20
1.73466215111836
30
0
41
1
10
66.8109335988502
20
1.53303485060897
30
0
41
1
10
67.5798152624564
20
1.11652554552012
30
0
41
1
10
67.9656039420348
20
0.901615708241792
30
0
41
1
10
68.7341804693277
20
0.466461219161687
30
0
41
1
10
69.1178107302238
20
0.245864500470247
30
0
41
1
10
69.8865397407321
20
-0.196534625962102
30
0
41
1
10
70.2721141271116
20
-0.418642560038791
30
0
41
1
10
71.0404906090633
20
-0.855522872087874
30
0
41
1
10
71.4241301895859
20
-1.07067178605905
30
0
41
1
10
72.192755500377
20
-1.49023775828482
30
0
41
1
10
72.5782423655355
20
-1.69490388080405
30
0
41
1
10
73.3463582626223
20
-2.08553380900142
30
0
41
1
10
73.729829912354
20
-2.27184806612564
30
0
41
1
10
74.4981375533441
20
-2.62273764433817
30
0
41
1
10
74.8835554239822
20
-2.78738677213789
30
0
41
1
10
75.6515937438542
20
-3.08853758043804
30
0
41
1
10
76.0350338649783
20
-3.22536197334313
30
0
41
1
10
76.8032683960766
20
-3.46875316427426
30
0
41
1
10
77.1885348591707
20
-3.57530299033021
30
0
41
1
10
77.7643932994589
20
-3.70915487945374
30
0
41
1
10
77.9561995095956
20
-3.74952556913507
30
0
41
1
10
78.3397992807285
20
-3.82159965771493
30
0
41
1
10
78.5313088891727
20
-3.85342251600559
30
0
41
1
10
78.7235563801412
20
-3.88055763156908
30
0
0
SPLINE
5
D5
100
AcDbEntity
8
1
62
256
6
ByLayer
370
18
48
1
60
0
100
AcDbSpline
70
4
71
3
72
18
73
14
40
0
40
0
40
0
40
0
40
0.250000000000002
40
0.250000000000002
40
0.375000000000002
40
0.375000000000002
40
0.500000000000002
40
0.500000000000002
40
0.750000000000001
40
0.750000000000001
40
0.875000000000001
40
0.875000000000001
40
1
40
1
40
1
40
1
41
1
10
78.1881741327115
20
0.670582469968764
30
0
41
1
10
78.142887689719
20
0.438222927856032
30
0
41
1
10
78.1080513858061
20
0.203874656390553
30
0
41
1
10
78.0715695371116
20
-0.15064938041462
30
0
41
1
10
78.062053333048
20
-0.26932730816381
30
0
41
1
10
78.0485311858552
20
-0.507731802113568
30
0
41
1
10
78.044596675662
20
-0.626752479265434
30
0
41
1
10
78.0413161502351
20
-0.977416546325799
30
0
41
1
10
78.0502768290278
20
-1.20505563301222
30
0
41
1
10
78.08041776947
20
-1.53732072886561
30
0
41
1
10
78.0933378304186
20
-1.64690689035768
30
0
41
1
10
78.1244233114904
20
-1.8594895663399
30
0
41
1
10
78.1425987816976
20
-1.96282937877677
30
0
41
1
10
78.1633659483422
20
-2.0632636675862
30
0
0
SPLINE
5
D6
100
AcDbEntity
8
1
62
256
6
ByLayer
370
13
48
1
60
0
100
AcDbSpline
70
4
71
3
72
78
73
74
40
0
40
0
40
0
40
0
40
0.0047826357602876
40
0.018986244637421
40
0.0402916579531208
40
0.0473934623916866
40
0.0615970712688151
40
0.0758006801459463
40
0.0971060934616466
40
0.104207897900214
40
0.118411506777343
40
0.132615115654478
40
0.153920528970174
40
0.161022333408741
40
0.175225942285873
40
0.189429551163001
40
0.2107349644787
40
0.217836768917268
40
0.232040377794398
40
0.246243986671529
40
0.26754939998723
40
0.274651204425795
40
0.288854813302922
40
0.303058422180059
40
0.324363835495755
40
0.331465639934322
40
0.345669248811453
40
0.359872857688585
40
0.38117827100428
40
0.388280075442849
40
0.402483684319978
40
0.41668729319711
40
0.437992706512809
40
0.445094510951377
40
0.459298119828507
40
0.473501728705638
40
0.494807142021336
40
0.501908946459904
40
0.516112555337032
40
0.530316164214167
40
0.551621577529863
40
0.558723381968431
40
0.572926990845561
40
0.587130599722693
40
0.608436013038393
40
0.615537817476958
40
0.629741426354087
40
0.643945035231219
40
0.66525044854692
40
0.672352252985485
40
0.686555861862614
40
0.700759470739746
40
0.722064884055443
40
0.729166688494012
40
0.743370297371145
40
0.757573906248273
40
0.778879319563971
40
0.78598112400254
40
0.800184732879671
40
0.814388341756802
40
0.835693755072502
40
0.842795559511067
40
0.856999168388197
40
0.87120277726533
40
0.892508190581025
40
0.899609995019594
40
0.913813603896724
40
0.928017212773856
40
0.949322626089556
40
0.956424430528121
40
0.970628039405254
40
0.984831648282384
40
1
40
1
40
1
40
1
41
1
10
68.3917095419011
20
-0.0500668170597576
30
0
41
1
10
68.3702251434936
20
-0.0451324087371743
30
0
41
1
10
68.2849352883791
20
-0.025544144150956
30
0
41
1
10
68.1039390687911
20
0.0160366889752481
30
0
41
1
10
67.9125435462399
20
0.0600893014984078
30
0
41
1
10
67.7211444660561
20
0.104095793748882
30
0
41
1
10
67.5616304242273
20
0.140646676671934
30
0
41
1
10
67.3383139597223
20
0.191687015971183
30
0
41
1
10
67.1469186759851
20
0.235354104019676
30
0
41
1
10
66.9555197818056
20
0.278837756441446
30
0
41
1
10
66.7960058238701
20
0.314862365755202
30
0
41
1
10
66.57268936057
20
0.365008296167842
30
0
41
1
10
66.3812939894747
20
0.40774592177115
30
0
41
1
10
66.1898949790513
20
0.450166641716064
30
0
41
1
10
66.0303809025194
20
0.485219428280428
30
0
41
1
10
65.8070642378112
20
0.533853685119849
30
0
41
1
10
65.6156686771366
20
0.575138259076337
30
0
41
1
10
65.4242694857001
20
0.615977514754346
30
0
41
1
10
65.2647552778323
20
0.649630565455308
30
0
41
1
10
65.0414385110029
20
0.696160695858364
30
0
41
1
10
64.8500429869265
20
0.735490897044994
30
0
41
1
10
64.6586439767648
20
0.774254362361969
30
0
41
1
10
64.4991300222041
20
0.806101413314732
30
0
41
1
10
64.2758137056912
20
0.849966461306078
30
0
41
1
10
64.0844185651461
20
0.886867597326979
30
0
41
1
10
63.893019811548
20
0.923085381127943
30
0
41
1
10
63.7335059572446
20
0.952738766481953
30
0
41
1
10
63.5101895974564
20
0.993402541109584
30
0
41
1
10
63.3187942637397
20
1.02742199729735
30
0
41
1
10
63.127395238863
20
1.06064966047557
30
0
41
1
10
62.9678811260379
20
1.08774556886808
30
0
41
1
10
62.744564388007
20
1.12470909236938
30
0
41
1
10
62.5531687516754
20
1.15542910268391
30
0
41
1
10
62.3617694899624
20
1.18525805133307
30
0
41
1
10
62.2022552278037
20
1.20946287833424
30
0
41
1
10
61.9789383910867
20
1.24227005508333
30
0
41
1
10
61.7875428146164
20
1.26931021617403
30
0
41
1
10
61.5961437586491
20
1.295369643393
30
0
41
1
10
61.4366297717706
20
1.31638148429686
30
0
41
1
10
61.2133134229224
20
1.34462365189005
30
0
41
1
10
61.0219182684297
20
1.36765037309316
30
0
41
1
10
60.8305195112528
20
1.38962460758773
30
0
41
1
10
60.6710056694857
20
1.40719337213286
30
0
41
1
10
60.4476893624089
20
1.43054004102219
30
0
41
1
10
60.25629410673
20
1.44928707981171
30
0
41
1
10
60.0648951824057
20
1.46692115531413
30
0
41
1
10
59.9053811608507
20
1.48084170114043
30
0
41
1
10
59.6820645483362
20
1.49901748360656
30
0
41
1
10
59.4906690072377
20
1.51326032929654
30
0
41
1
10
59.2992698177393
20
1.52633995177751
30
0
41
1
10
59.139755600505
20
1.53644099291522
30
0
41
1
10
58.9164388010296
20
1.54921791453392
30
0
41
1
10
58.7250432298497
20
1.55877280296612
30
0
41
1
10
58.5336441610018
20
1.56712446930711
30
0
41
1
10
58.3741301349073
20
1.57326868018637
30
0
41
1
10
58.1508136751334
20
1.58047055636424
30
0
41
1
10
57.9594183848861
20
1.58520722560083
30
0
41
1
10
57.7680194803258
20
1.5887235190438
30
0
41
1
10
57.6085055042064
20
1.59083750255271
30
0
41
1
10
57.3851889982417
20
1.59238574814119
30
0
41
1
10
57.1937935825984
20
1.59225724855425
30
0
41
1
10
57.002394528743
20
1.59090277287296
30
0
41
1
10
56.8428804559245
20
1.58896372727184
30
0
41
1
10
56.6195638890395
20
1.58484032043952
30
0
41
1
10
56.4281684837231
20
1.57984838569754
30
0
41
1
10
56.2367694784784
20
1.5736429385538
30
0
41
1
10
56.0772554377027
20
1.5676799531009
30
0
41
1
10
55.8539388923815
20
1.55794484426269
30
0
41
1
10
55.6625435103175
20
1.54815757666233
30
0
41
1
10
55.4711445649498
20
1.5371793144335
30
0
41
1
10
55.3116305781766
20
1.52726339758097
30
0
41
1
10
55.1158826585399
20
1.51390961220522
30
0
41
1
10
54.9839501389357
20
1.50410366527156
30
0
41
1
10
54.9158174979169
20
1.49882207863958
30
0
0
SPLINE
5
D7
100
AcDbEntity
8
1
62
256
6
ByLayer
370
13
48
1
60
0
100
AcDbSpline
70
4
71
3
72
70
73
66
40
0
40
0
40
0
40
0
40
0.0155217579049633
40
0.0311483966683759
40
0.0545883548134946
40
0.0624016741952018
40
0.0780283129586151
40
0.0936549517220295
40
0.117094909867149
40
0.124908229248855
40
0.140534868012269
40
0.156161506775682
40
0.179601464920801
40
0.187414784302508
40
0.203041423065922
40
0.218668061829335
40
0.242108019974456
40
0.249921339356162
40
0.265547978119575
40
0.281174616882988
40
0.304614575028109
40
0.312427894409815
40
0.328054533173228
40
0.343681171936642
40
0.367121130081761
40
0.374934449463468
40
0.390561088226881
40
0.406187726990296
40
0.429627685135414
40
0.437441004517121
40
0.453067643280534
40
0.468694282043948
40
0.492134240189068
40
0.499947559570774
40
0.515574198334188
40
0.531200837097602
40
0.554640795242721
40
0.562454114624428
40
0.578080753387841
40
0.593707392151254
40
0.617147350296374
40
0.624960669678081
40
0.640587308441494
40
0.656213947204907
40
0.679653905350027
40
0.687467224731734
40
0.703093863495148
40
0.71872050225856
40
0.74216046040368
40
0.749973779785387
40
0.765600418548801
40
0.781227057312214
40
0.804667015457334
40
0.81248033483904
40
0.828106973602454
40
0.843733612365867
40
0.867173570510987
40
0.874986889892693
40
0.890613528656107
40
0.90624016741952
40
0.931633455410067
40
0.937493444946347
40
0.943353434482627
40
0.968746722473174
40
1
40
1
40
1
40
1
41
1
10
24.8767589696666
20
-0.0466126710581418
30
0
41
1
10
24.8133854792868
20
-0.0320380655068674
30
0
41
1
10
24.6862024785569
20
-0.0028170120055222
30
0
41
1
10
24.4633140924497
20
0.0483859713906154
30
0
41
1
10
24.2719185814307
20
0.0924053837849779
30
0
41
1
10
24.0805194416564
20
0.136350407109887
30
0
41
1
10
23.921005279624
20
0.172831194353306
30
0
41
1
10
23.6976885747095
20
0.223742468327713
30
0
41
1
10
23.5062930892414
20
0.267269198449951
30
0
41
1
10
23.3148940938358
20
0.310590698869503
30
0
41
1
10
23.1553801173328
20
0.346466554496287
30
0
41
1
10
22.9320637060941
20
0.396379816988768
30
0
41
1
10
22.7406684366751
20
0.438891871153144
30
0
41
1
10
22.5492695378411
20
0.481064463126015
30
0
41
1
10
22.3897555604438
20
0.515895769860945
30
0
41
1
10
22.1664390493493
20
0.564193659795646
30
0
41
1
10
21.9750436304186
20
0.605162035958355
30
0
41
1
10
21.7836445811689
20
0.645661927922416
30
0
41
1
10
21.6241305097353
20
0.679017413038733
30
0
41
1
10
21.4008139338892
20
0.725104228500666
30
0
41
1
10
21.2094185135443
20
0.764025898639769
30
0
41
1
10
21.0180194912892
20
0.802357361121604
30
0
41
1
10
20.8585054327353
20
0.833829687955184
30
0
41
1
10
20.6351888603564
20
0.877144209803443
30
0
41
1
10
20.4437934615248
20
0.913546697450723
30
0
41
1
10
20.2523945129479
20
0.949245358320748
30
0
41
1
10
20.0928805500425
20
0.978453789134217
30
0
41
1
10
19.8695641145937
20
1.01847235566083
30
0
41
1
10
19.6781687785279
20
1.05191522008505
30
0
41
1
10
19.4867697781817
20
1.08454804456232
30
0
41
1
10
19.3272556870634
20
1.11113739320538
30
0
41
1
10
19.1039389997295
20
1.14737117984952
30
0
41
1
10
18.9125434613366
20
1.17744299618135
30
0
41
1
10
18.7211443767786
20
1.20660547974682
30
0
41
1
10
18.5616303365755
20
1.23024404274619
30
0
41
1
10
18.3383138793752
20
1.26223982348258
30
0
41
1
10
18.146918605082
20
1.28856613644794
30
0
41
1
10
17.9555197198533
20
1.3139001153128
30
0
41
1
10
17.7960057681439
20
1.33430153492344
30
0
41
1
10
17.572689311674
20
1.36167681018363
30
0
41
1
10
17.3812939451894
20
1.38394583161692
30
0
41
1
10
17.1898949391739
20
1.40515052983289
30
0
41
1
10
17.0303808672382
20
1.42207146893542
30
0
41
1
10
16.8070642104881
20
1.44449744971217
30
0
41
1
10
16.6156686569539
20
1.46243909656024
30
0
41
1
10
16.424269471662
20
1.47925505645568
30
0
41
1
10
16.2647552659584
20
1.49248694689788
30
0
41
1
10
16.0414384935782
20
1.50968391569042
30
0
41
1
10
15.8500429548372
20
1.52307034852594
30
0
41
1
10
15.6586439205305
20
1.5352800887056
30
0
41
1
10
15.4991299431425
20
1.54464904061165
30
0
41
1
10
15.2758135964076
20
1.55639010728463
30
0
41
1
10
15.0844184346288
20
1.56504850268234
30
0
41
1
10
14.8930196675265
20
1.57250336653308
30
0
41
1
10
14.7335058076446
20
1.57790265017609
30
0
41
1
10
14.5101894500943
20
1.58406401932299
30
0
41
1
10
14.3187941284917
20
1.58790973001134
30
0
41
1
10
14.1273951231393
20
1.59053702632391
30
0
41
1
10
13.9678810315316
20
1.59191298762652
30
0
41
1
10
13.736585974912
20
1.59243983308567
30
0
41
1
10
13.5451926991789
20
1.5913615710263
30
0
41
1
10
13.3936792091064
20
1.5895682903494
30
0
41
1
10
13.242129107121
20
1.58729715111314
30
0
41
1
10
12.9868823583542
20
1.58184279791265
30
0
41
1
10
12.755637846106
20
1.57445528024467
30
0
41
1
10
12.6280564079788
20
1.56957473993994
30
0
0
SPLINE
5
D8
100
AcDbEntity
8
1
62
256
6
ByLayer
370
13
48
1
60
0
100
AcDbSpline
70
4
71
3
72
20
73
16
40
0
40
0
40
0
40
0
40
0.0584489660092926
40
0.181674287204804
40
0.222749394269978
40
0.304899608400309
40
0.387049822530658
40
0.510275143726147
40
0.551350250791334
40
0.633500464921655
40
0.715650679052001
40
0.838876000247509
40
0.879951107312693
40
0.962101321443033
40
1
40
1
40
1
40
1
41
1
10
78.9907805554259
20
1.59216276761662
30
0
41
1
10
78.9453841640516
20
1.59206939018002
30
0
41
1
10
78.804282236632
20
1.59146482488608
30
0
41
1
10
78.6312933053125
20
1.5895558498216
30
0
41
1
10
78.4398942291732
20
1.58621748456346
30
0
41
1
10
78.2803801770092
20
1.58262893059796
30
0
41
1
10
78.0570636811478
20
1.57619960829194
30
0
41
1
10
77.8656683611503
20
1.5692329491548
30
0
41
1
10
77.6742694339539
20
1.56106045106019
30
0
41
1
10
77.5147554500796
20
1.55346762842785
30
0
41
1
10
77.2914389632674
20
1.54146416953989
30
0
41
1
10
77.10004359966
20
1.52974487155733
30
0
41
1
10
76.9086446356619
20
1.5168508304369
30
0
41
1
10
76.783500537123
20
1.50783062202253
30
0
41
1
10
76.6902601771937
20
1.50070407983298
30
0
41
1
10
76.6608250789314
20
1.49841426560678
30
0
0
SPLINE
5
D9
100
AcDbEntity
8
1
62
256
6
ByLayer
370
13
48
1
60
0
100
AcDbSpline
70
4
71
3
72
78
73
74
40
0
40
0
40
0
40
0
40
0.0174158042837398
40
0.0245094757365488
40
0.0386968186421591
40
0.0528841615477754
40
0.074165175906193
40
0.0812588473590009
40
0.0954461902646134
40
0.109633533170225
40
0.130914547528644
40
0.138008218981452
40
0.152195561887066
40
0.166382904792677
40
0.187663919151097
40
0.194757590603904
40
0.208944933509519
40
0.22313227641513
40
0.244413290773551
40
0.251506962226356
40
0.265694305131969
40
0.279881648037582
40
0.301162662396002
40
0.308256333848808
40
0.322443676754421
40
0.336631019660032
40
0.357912034018453
40
0.36500570547126
40
0.379193048376872
40
0.393380391282486
40
0.414661405640905
40
0.421755077093711
40
0.435942419999325
40
0.450129762904935
40
0.471410777263353
40
0.478504448716163
40
0.492691791621775
40
0.506879134527387
40
0.528160148885807
40
0.535253820338615
40
0.549441163244226
40
0.563628506149841
40
0.584909520508259
40
0.592003191961067
40
0.60619053486668
40
0.62037787777229
40
0.641658892130709
40
0.648752563583518
40
0.662939906489132
40
0.677127249394744
40
0.698408263753165
40
0.70550193520597
40
0.719689278111581
40
0.733876621017197
40
0.755157635375617
40
0.762251306828422
40
0.776438649734035
40
0.790625992639645
40
0.811907006998068
40
0.819000678450874
40
0.833188021356485
40
0.847375364262099
40
0.868656378620518
40
0.875750050073326
40
0.889937392978938
40
0.904124735884553
40
0.925405750242972
40
0.932499421695777
40
0.946686764601391
40
0.960874107507003
40
0.982155121865423
40
0.989248793318229
40
1
40
1
40
1
40
1
41
1
10
46.6461974431702
20
-0.0511469073705937
30
0
41
1
10
46.5678779172821
20
-0.03314013664027
30
0
41
1
10
46.4576619866878
20
-0.0077655595628698
30
0
41
1
10
46.2836445664483
20
0.0323017851228256
30
0
41
1
10
46.1241304909161
20
0.068939188896081
30
0
41
1
10
45.900813906372
20
0.120160645635024
30
0
41
1
10
45.7094184763375
20
0.164046092288515
30
0
41
1
10
45.5180194434384
20
0.207802150750978
30
0
41
1
10
45.358505375718
20
0.244089347629198
30
0
41
1
10
45.1351887922646
20
0.294666309972796
30
0
41
1
10
44.9437933881198
20
0.337840556414561
30
0
41
1
10
44.7523944401908
20
0.380754691895957
30
0
41
1
10
44.5928804837556
20
0.416255484916517
30
0
41
1
10
44.3695640676034
20
0.465581048553131
30
0
41
1
10
44.1781687560875
20
0.507524071712849
30
0
41
1
10
43.9867697836214
20
0.549074151476444
30
0
41
1
10
43.8272557150555
20
0.583352545354186
30
0
41
1
10
43.6039390542711
20
0.63081646215721
30
0
41
1
10
43.4125435318918
20
0.671007919924901
30
0
41
1
10
43.2211444558699
20
0.710681360538498
30
0
41
1
10
43.061630418524
20
0.743317111698186
30
0
41
1
10
42.838313959738
20
0.788340764903804
30
0
41
1
10
42.6469186795647
20
0.82629246052721
30
0
41
1
10
42.4555197867401
20
0.863606648820418
30
0
41
1
10
42.296005828185
20
0.894201890149158
30
0
41
1
10
42.072689361384
20
0.936235331565139
30
0
41
1
10
41.8812939852945
20
0.971483136928181
30
0
41
1
10
41.6898949691923
20
1.00598199256222
30
0
41
1
10
41.5303808883891
20
1.03416307241809
30
0
41
1
10
41.3070642193155
20
1.07269316092487
30
0
41
1
10
41.1156686565711
20
1.10480659329385
30
0
41
1
10
40.9242694645404
20
1.13606815492101
30
0
41
1
10
40.764755256182
20
1.16148987416812
30
0
41
1
10
40.5414384878812
20
1.19604360102428
30
0
41
1
10
40.3500429620322
20
1.22462722446991
30
0
41
1
10
40.158643949857
20
1.25226547042859
30
0
41
1
10
39.9991299942275
20
1.27461320565009
30
0
41
1
10
39.7758136784534
20
1.30476333684523
30
0
41
1
10
39.5844185411933
20
1.32946606357177
30
0
41
1
10
39.3930197934442
20
1.35314567943385
30
0
41
1
10
39.2335059455996
20
1.37215146739762
30
0
41
1
10
39.01018959657
20
1.39754035950426
30
0
41
1
10
38.8187942727319
20
1.41807110466487
30
0
41
1
10
38.6273952569109
20
1.43751193146721
30
0
41
1
10
38.4678811498086
20
1.45294961532266
30
0
41
1
10
38.2445644155228
20
1.47327241300243
30
0
41
1
10
38.0531687781786
20
1.48938136577976
30
0
41
1
10
37.8617695121371
20
1.50434383669491
30
0
41
1
10
37.7022552462557
20
1.51602113755151
30
0
41
1
10
37.4789384062403
20
1.53102053826239
30
0
41
1
10
37.2875428288448
20
1.54249878378615
30
0
41
1
10
37.0961437737093
20
1.55278420343728
30
0
41
1
10
36.9366297878299
20
1.56054278821721
30
0
41
1
10
36.7133134395079
20
1.57001435205003
30
0
41
1
10
36.5219182840516
20
1.57670993855839
30
0
41
1
10
36.3305195240763
20
1.58219285190804
30
0
41
1
10
36.1710056785474
20
1.58594695629377
30
0
41
1
10
35.9476893643781
20
1.58979852328462
30
0
41
1
10
35.756294101724
20
1.59165554978227
30
0
41
1
10
35.564895170898
20
1.59229225118701
30
0
41
1
10
35.405381145164
20
1.59201228048439
30
0
41
1
10
35.1820645296392
20
1.59021359811458
30
0
41
1
10
34.9906689887063
20
1.58721722875077
30
0
41
1
10
34.799269801413
20
1.58300236890312
30
0
41
1
10
34.6397555863415
20
1.57869033970905
30
0
41
1
10
34.4164387893916
20
1.57125492124799
30
0
41
1
10
34.2250432197975
20
1.5634274512476
30
0
41
1
10
34.0336441518704
20
1.55439244739304
30
0
41
1
10
33.8741301260215
20
1.54608069420049
30
0
41
1
10
33.6508136664747
20
1.53306998505726
30
0
41
1
10
33.4594183772846
20
1.52048711515573
30
0
41
1
10
33.2834715750632
20
1.5078444303765
30
0
41
1
10
33.2032179427816
20
1.50176305150875
30
0
41
1
10
33.1548662624176
20
1.49798919481423
30
0
0
SPLINE
5
DA
100
AcDbEntity
8
1
62
256
6
ByLayer
370
13
48
1
60
0
100
AcDbSpline
70
4
71
3
72
34
73
30
40
0
40
0
40
0
40
0
40
0.137268475889411
40
0.137268475889411
40
0.205902713834116
40
0.205902713834116
40
0.240219832806468
40
0.240219832806468
40
0.27453695177882
40
0.27453695177882
40
0.411805427668233
40
0.411805427668233
40
0.480439665612939
40
0.480439665612939
40
0.514756784585292
40
0.514756784585292
40
0.549073903557644
40
0.549073903557644
40
0.686342379447054
40
0.686342379447054
40
0.754976617391758
40
0.754976617391758
40
0.789293736364111
40
0.789293736364111
40
0.823610855336465
40
0.823610855336465
40
0.960879331225876
40
0.960879331225876
40
1
40
1
40
1
40
1
41
1
10
78.6667250606033
20
-3.69959210474619
30
0
41
1
10
77.8953124882214
20
-3.56254196016545
30
0
41
1
10
77.1314858226006
20
-3.35818701513816
30
0
41
1
10
75.9823828504171
20
-2.96550235507843
30
0
41
1
10
75.5987808649473
20
-2.82023131141256
30
0
41
1
10
75.0205792842012
20
-2.58276099018042
30
0
41
1
10
74.8271681915729
20
-2.50025386346752
30
0
41
1
10
74.44211735005
20
-2.33038826552422
30
0
41
1
10
74.2501312979367
20
-2.24289343931196
30
0
41
1
10
73.2920424238166
20
-1.79401227081121
30
0
41
1
10
72.5313809836093
20
-1.39852912566047
30
0
41
1
10
71.3843165573856
20
-0.775751510701213
30
0
41
1
10
71.0009817345475
20
-0.563142834966982
30
0
41
1
10
70.4225583828161
20
-0.240053511352244
30
0
41
1
10
70.2290950284093
20
-0.131580342299856
30
0
41
1
10
69.8439910335504
20
0.0842543650069842
30
0
41
1
10
69.6519424427871
20
0.191853187680209
30
0
41
1
10
68.6934991712673
20
0.727067944445139
30
0
41
1
10
67.9324572608498
20
1.14609193846439
30
0
41
1
10
66.7846366378625
20
1.73485214994651
30
0
41
1
10
66.4010027028768
20
1.9245566903993
30
0
41
1
10
65.8220442768717
20
2.19579373047193
30
0
41
1
10
65.6285182227444
20
2.28395589347087
30
0
41
1
10
65.2433613704142
20
2.45390540332374
30
0
41
1
10
65.0512792688427
20
2.53584132955032
30
0
41
1
10
64.0926536654196
20
2.92980580853765
30
0
41
1
10
63.3313041910456
20
3.19425394166691
30
0
41
1
10
62.3473456126496
20
3.45506077901345
30
0
41
1
10
62.1287598825363
20
3.50783986926129
30
0
41
1
10
61.9095987827417
20
3.55539409440399
30
0
0
SPLINE
5
DB
100
AcDbEntity
8
1
62
256
6
ByLayer
370
18
48
1
60
0
100
AcDbSpline
70
4
71
3
72
14
73
10
40
0
40
0
40
0
40
0
40
0.122273793591775
40
0.122273793591775
40
0.541036199740297
40
0.541036199740297
40
0.959798605888818
40
0.959798605888818
40
1
40
1
40
1
40
1
41
1
10
37.3619964645963
20
-3.81988704087721
30
0
41
1
10
37.3056030300083
20
-3.81971141590299
30
0
41
1
10
37.249168775727
20
-3.81916037864903
30
0
41
1
10
36.999265435191
20
-3.81506319158649
30
0
41
1
10
36.8051232773362
20
-3.80741111471141
30
0
41
1
10
36.4186382034599
20
-3.78327764173224
30
0
41
1
10
36.2259012739775
20
-3.76681052259843
30
0
41
1
10
36.0150544642065
20
-3.74403416121544
30
0
41
1
10
35.9965893201037
20
-3.74199930948035
30
0
41
1
10
35.9781273236893
20
-3.73992474360674
30
0
0
SPLINE
5
DC
100
AcDbEntity
8
1
62
256
6
ByLayer
370
13
48
1
60
0
100
AcDbSpline
70
4
71
3
72
38
73
34
40
0
40
0
40
0
40
0
40
0.061391614824899
40
0.061391614824899
40
0.190365628663414
40
0.190365628663414
40
0.222609132123043
40
0.222609132123043
40
0.254852635582672
40
0.254852635582672
40
0.319339642501928
40
0.319339642501928
40
0.44831365634044
40
0.44831365634044
40
0.480557159800069
40
0.480557159800069
40
0.512800663259698
40
0.512800663259698
40
0.577287670178959
40
0.577287670178959
40
0.70626168401748
40
0.70626168401748
40
0.73850518747711
40
0.73850518747711
40
0.77074869093674
40
0.77074869093674
40
0.835235697856001
40
0.835235697856001
40
0.964209711694521
40
0.964209711694521
40
0.996453215154151
40
0.996453215154151
40
1
40
1
40
1
40
1
41
1
10
35.9781273214974
20
-3.73992474336046
30
0
41
1
10
35.611966336697
20
-3.69877940526058
30
0
41
1
10
35.247043516928
20
-3.64201223540033
30
0
41
1
10
34.1162417340659
20
-3.42041560016003
30
0
41
1
10
33.351036269627
20
-3.20497271848817
30
0
41
1
10
32.3833515021432
20
-2.86320782441817
30
0
41
1
10
32.1890744678769
20
-2.79115571082014
30
0
41
1
10
31.8023665171643
20
-2.64137099644984
30
0
41
1
10
31.6095283477459
20
-2.56353129326715
30
0
41
1
10
31.032116325643
20
-2.32185510775611
30
0
41
1
10
30.6486374263337
20
-2.14990019578255
30
0
41
1
10
29.4988069259609
20
-1.60764032691367
30
0
41
1
10
28.7332368831883
20
-1.21060651086413
30
0
41
1
10
27.7651629177224
20
-0.690127385526495
30
0
41
1
10
27.5707802631913
20
-0.584731856118509
30
0
41
1
10
27.1838535753334
20
-0.373784848128054
30
0
41
1
10
26.990918991738
20
-0.268046760995446
30
0
41
1
10
26.4131532884448
20
0.0489297324324696
30
0
41
1
10
26.0294396115434
20
0.260095719307145
30
0
41
1
10
24.8790184848792
20
0.886400532598714
30
0
41
1
10
24.1130325875859
20
1.29431917170015
30
0
41
1
10
23.1445860765902
20
1.77004893790476
30
0
41
1
10
22.9501074978037
20
1.86355771542623
30
0
41
1
10
22.5629540408944
20
2.04511477994512
30
0
41
1
10
22.3699213114092
20
2.13336156133696
30
0
41
1
10
21.7919168852179
20
2.38956900983524
30
0
41
1
10
21.4079927255535
20
2.54926387131113
30
0
41
1
10
20.2569712835514
20
2.99093558443303
30
0
41
1
10
19.4907721234742
20
3.234868002479
30
0
41
1
10
18.5219516824842
20
3.46179835728907
30
0
41
1
10
18.3273569108448
20
3.50330423740726
30
0
41
1
10
18.112340293255
20
3.54456992004754
30
0
41
1
10
18.0910388732289
20
3.54860805928817
30
0
41
1
10
18.0697437652444
20
3.55259485817362
30
0
0
SPLINE
5
DD
100
AcDbEntity
8
1
62
256
6
ByLayer
370
18
48
1
60
0
100
AcDbSpline
70
4
71
3
72
12
73
8
40
0
40
0
40
0
40
0
40
0.25
40
0.25
40
0.5
40
0.5
40
1
40
1
40
1
40
1
41
1
10
4.37400622090519
20
3.8594443655011
30
0
41
1
10
4.41585611894217
20
3.83836421424181
30
0
41
1
10
4.45860803164192
20
3.82009397201793
30
0
41
1
10
4.53932424063379
20
3.79011596620487
30
0
41
1
10
4.57834425697928
20
3.77789266994967
30
0
41
1
10
4.68965006944791
20
3.74732482949813
30
0
41
1
10
4.7566103395732
20
3.73455765873473
30
0
41
1
10
4.82062090513051
20
3.72494826455719
30
0
0
SPLINE
5
DE
100
AcDbEntity
8
1
62
256
6
ByLayer
370
18
48
1
60
0
100
AcDbSpline
70
4
71
3
72
14
73
10
40
0
40
0
40
0
40
0
40
0.25
40
0.25
40
0.5
40
0.5
40
0.75
40
0.75
40
1
40
1
40
1
40
1
41
1
10
4.37442581203197
20
0.134291684536549
30
0
41
1
10
4.3744337580944
20
0.0909577157950139
30
0
41
1
10
4.39244698737147
20
0.0504950557225357
30
0
41
1
10
4.43875789510108
20
-0.020965006833876
30
0
41
1
10
4.46793681917001
20
-0.0527665618149058
30
0
41
1
10
4.53010251448725
20
-0.110326063738398
30
0
41
1
10
4.56371990453994
20
-0.136539719484517
30
0
41
1
10
4.63365881230578
20
-0.185253426526174
30
0
41
1
10
4.66986735650644
20
-0.207653588178971
30
0
41
1
10
4.70711548549892
20
-0.228414606914811
30
0
0
SPLINE
5
DF
100
AcDbEntity
8
1
62
256
6
ByLayer
370
18
48
1
60
0
100
AcDbSpline
70
4
71
3
72
14
73
10
40
0
40
0
40
0
40
0
40
0.249999999999996
40
0.249999999999996
40
0.374999999999996
40
0.374999999999996
40
0.499999999999995
40
0.499999999999995
40
1
40
1
40
1
40
1
41
1
10
8.1549389959205
20
2.92561589804109
30
0
41
1
10
8.58727070648175
20
3.05002900353915
30
0
41
1
10
9.02208519361284
20
3.16180067611572
30
0
41
1
10
9.67748971677153
20
3.31218598798745
30
0
41
1
10
9.89653143845777
20
3.35941717287403
30
0
41
1
10
10.333859453246
20
3.44783651425647
30
0
41
1
10
10.5523694258422
20
3.48907789305756
30
0
41
1
10
11.644096370647
20
3.68063524103076
30
0
41
1
10
12.5148286018981
20
3.78810731688105
30
0
41
1
10
13.3823894425834
20
3.84352976380063
30
0
0
SPLINE
5
E0
100
AcDbEntity
8
1
62
256
6
ByLayer
370
18
48
1
60
0
100
AcDbSpline
70
4
71
4
72
10
73
5
40
0
40
0
40
0
40
0
40
0
40
1
40
1
40
1
40
1
40
1
41
1
10
13.3823894425835
20
3.8435297638006
30
0
41
1
10
13.1938061839323
20
3.27504100783543
30
0
41
1
10
13.0052229252811
20
2.70655225187025
30
0
41
1
10
12.8166396666299
20
2.1380634959051
30
0
41
1
10
12.6280564079787
20
1.56957473993992
30
0
0
SPLINE
5
E1
100
AcDbEntity
8
1
62
256
6
ByLayer
370
13
48
1
60
0
100
AcDbSpline
70
4
71
3
72
79
73
75
40
0
40
0
40
0
40
0
40
0.006515864722289
40
0.0136577185129135
40
0.0279414260941558
40
0.0422251336754065
40
0.0636506950472749
40
0.0707925488378988
40
0.0850762564191428
40
0.0993599640003879
40
0.12078552537226
40
0.127927379162884
40
0.14221108674413
40
0.156494794325375
40
0.177920355697246
40
0.185062209487869
40
0.199345917069113
40
0.213629624650357
40
0.23505518602223
40
0.242197039812854
40
0.256480747394095
40
0.270764454975347
40
0.292190016347211
40
0.299331870137839
40
0.313615577719081
40
0.327899285300329
40
0.349324846672201
40
0.356466700462824
40
0.370750408044067
40
0.385034115625313
40
0.406459676997185
40
0.413601530787809
40
0.427885238369053
40
0.442168945950301
40
0.463594507322169
40
0.470736361112794
40
0.485020068694041
40
0.499303776275283
40
0.520729337647155
40
0.527871191437779
40
0.542154899019024
40
0.556438606600269
40
0.577864167972141
40
0.585006021762764
40
0.599289729344006
40
0.613573436925257
40
0.634998998297125
40
0.642140852087749
40
0.656424559668994
40
0.670708267250241
40
0.692133828622107
40
0.699275682412735
40
0.713559389993977
40
0.727843097575224
40
0.749268658947095
40
0.756410512737719
40
0.770694220318965
40
0.784977927900209
40
0.806403489272079
40
0.813545343062705
40
0.827829050643947
40
0.842112758225197
40
0.863538319597064
40
0.87068017338769
40
0.884963880968935
40
0.899247588550181
40
0.920673149922053
40
0.927815003712675
40
0.942098711293917
40
0.956382418875165
40
0.977807980247037
40
0.98494983403766
40
0.999233541618903
40
1
40
1
40
1
40
1
41
1
10
71.4090747174129
20
-1.50331630486266
30
0
41
1
10
71.3799685422018
20
-1.50553353166848
30
0
41
1
10
71.318959761324
20
-1.51009833671029
30
0
41
1
10
71.1941470132306
20
-1.51907965294208
30
0
41
1
10
71.0346505879351
20
-1.52979768762793
30
0
41
1
10
70.811352428986
20
-1.54342349611028
30
0
41
1
10
70.6199351827649
20
-1.55366869522663
30
0
41
1
10
70.4285215707156
20
-1.56273586092033
30
0
41
1
10
70.2690251403554
20
-1.5695053971121
30
0
41
1
10
70.045727073199
20
-1.57757396814378
30
0
41
1
10
69.8543099702417
20
-1.58303748264439
30
0
41
1
10
69.6628965028025
20
-1.58730253345124
30
0
41
1
10
69.5034001670429
20
-1.59004976336757
30
0
41
1
10
69.2801021779794
20
-1.59246958081994
30
0
41
1
10
69.0886850975226
20
-1.5930868503182
30
0
41
1
10
68.8972716285693
20
-1.59249908841485
30
0
41
1
10
68.7377752997117
20
-1.59119163091088
30
0
41
1
10
68.5144773255591
20
-1.58793324307897
30
0
41
1
10
68.3230602267254
20
-1.58369348000411
30
0
41
1
10
68.1316466736238
20
-1.57825213827439
30
0
41
1
10
67.9721502281732
20
-1.5728959736262
30
0
41
1
10
67.7488520703926
20
-1.56398367832983
30
0
41
1
10
67.5574348596479
20
-1.55492888087062
30
0
41
1
10
67.3660213120282
20
-1.54469958366647
30
0
41
1
10
67.2065249680569
20
-1.53536631904629
30
0
41
1
10
66.9832270522356
20
-1.52092395072108
30
0
41
1
10
66.7918100606481
20
-1.50717731184031
30
0
41
1
10
66.6003966314191
20
-1.49228899008645
30
0
41
1
10
66.4409002682185
20
-1.4790887880647
30
0
41
1
10
66.2176021615169
20
-1.45927995893104
30
0
41
1
10
66.0261849309385
20
-1.44099687524474
30
0
41
1
10
65.8347713155517
20
-1.42162531836675
30
0
41
1
10
65.6752748683786
20
-1.40472001979086
30
0
41
1
10
65.4519767604452
20
-1.37979458834769
30
0
41
1
10
65.2605596172648
20
-1.35720891065779
30
0
41
1
10
65.0691461181812
20
-1.33359971178146
30
0
41
1
10
64.9096497896737
20
-1.31320136555675
30
0
41
1
10
64.6863518832787
20
-1.28346859626922
30
0
41
1
10
64.4949349298038
20
-1.25685780981235
30
0
41
1
10
64.3035216118489
20
-1.22929975267141
30
0
41
1
10
64.1440254147516
20
-1.2056572595387
30
0
41
1
10
63.9207276105195
20
-1.17147863973031
30
0
41
1
10
63.7293106204046
20
-1.14116470153468
30
0
41
1
10
63.5378971210565
20
-1.10998974217699
30
0
41
1
10
63.3784006705017
20
-1.08338697531448
30
0
41
1
10
63.1551024156956
20
-1.04517245658201
30
0
41
1
10
62.9636850418339
20
-1.01151984961589
30
0
41
1
10
62.7722712857765
20
-0.977105150375309
30
0
41
1
10
62.6127747349077
20
-0.947865726623036
30
0
41
1
10
62.3894765234056
20
-0.906082558719959
30
0
41
1
10
62.1980593428331
20
-0.869504333898647
30
0
41
1
10
62.0066458582211
20
-0.832272442591233
30
0
41
1
10
61.84714956603
20
-0.800755213034051
30
0
41
1
10
61.623851732995
20
-0.755916133619792
30
0
41
1
10
61.43243485522
20
-0.716861338286719
30
0
41
1
10
61.2410216075973
20
-0.677269750750412
30
0
41
1
10
61.0815254648498
20
-0.643862312398994
30
0
41
1
10
60.858227730599
20
-0.59651958236617
30
0
41
1
10
60.6668107929549
20
-0.55547035960177
30
0
41
1
10
60.4753973394685
20
-0.514009004680673
30
0
41
1
10
60.3159009212595
20
-0.479125518022329
30
0
41
1
10
60.0926026987993
20
-0.429865119445054
30
0
41
1
10
59.901185338873
20
-0.387326046804702
30
0
41
1
10
59.7097715863778
20
-0.344498745114322
30
0
41
1
10
59.5502750229476
20
-0.308558864657158
30
0
41
1
10
59.326976758673
20
-0.257968319853774
30
0
41
1
10
59.1355594999893
20
-0.214444287590624
30
0
41
1
10
58.9441459147412
20
-0.170760979411199
30
0
41
1
10
58.7846495312119
20
-0.134194419832085
30
0
41
1
10
58.5613515725708
20
-0.0828820673796145
30
0
41
1
10
58.3699345994857
20
-0.0389003039163924
30
0
41
1
10
58.178521279565
20
0.005106520618483
30
0
41
1
10
58.0794001647163
20
0.0279424434099269
30
0
41
1
10
58.0121777943693
20
0.043422632865088
30
0
41
1
10
58.0087543654625
20
0.0442109712532783
30
0
0
SPLINE
5
E2
100
AcDbEntity
8
1
62
256
6
ByLayer
370
13
48
1
60
0
100
AcDbSpline
70
4
71
3
72
78
73
74
40
0
40
0
40
0
40
0
40
0.0196144309720566
40
0.0267253847566028
40
0.0409472923256974
40
0.0551691998947942
40
0.076502061248435
40
0.083613015032984
40
0.0978349226020791
40
0.112056830171174
40
0.133389691524817
40
0.140500645309365
40
0.15472255287846
40
0.168944460447554
40
0.190277321801197
40
0.197388275585746
40
0.211610183154841
40
0.225832090723935
40
0.247164952077579
40
0.254275905862127
40
0.268497813431221
40
0.282719721000317
40
0.30405258235396
40
0.311163536138508
40
0.325385443707604
40
0.339607351276699
40
0.360940212630341
40
0.368051166414889
40
0.382273073983984
40
0.39649498155308
40
0.417827842906722
40
0.42493879669127
40
0.439160704260365
40
0.453382611829461
40
0.474715473183103
40
0.481826426967651
40
0.496048334536746
40
0.510270242105841
40
0.531603103459485
40
0.538714057244032
40
0.552935964813127
40
0.567157872382222
40
0.588490733735865
40
0.595601687520413
40
0.609823595089508
40
0.624045502658604
40
0.645378364012246
40
0.652489317796794
40
0.666711225365889
40
0.680933132934985
40
0.702265994288626
40
0.709376948073175
40
0.723598855642269
40
0.737820763211366
40
0.759153624565008
40
0.766264578349556
40
0.780486485918651
40
0.794708393487746
40
0.816041254841389
40
0.823152208625937
40
0.837374116195032
40
0.851596023764127
40
0.87292888511777
40
0.880039838902318
40
0.894261746471413
40
0.908483654040508
40
0.929816515394151
40
0.936927469178699
40
0.951149376747794
40
0.965371284316889
40
0.986704145670532
40
0.99381509945508
40
1
40
1
40
1
40
1
41
1
10
27.9451220538779
20
-1.50053163441777
30
0
41
1
10
27.8571274844021
20
-1.50732024648317
30
0
41
1
10
27.7372257780474
20
-1.51608486517844
30
0
41
1
10
27.5535216605208
20
-1.52847772222319
30
0
41
1
10
27.3940252199577
20
-1.53847676153805
30
0
41
1
10
27.1707271158089
20
-1.55109492159792
30
0
41
1
10
26.979309958369
20
-1.56047591532723
30
0
41
1
10
26.7878964176405
20
-1.56867518462232
30
0
41
1
10
26.6284000365115
20
-1.57471723617007
30
0
41
1
10
26.4051020337548
20
-1.58176315463498
30
0
41
1
10
26.2136849824107
20
-1.58634816046162
30
0
41
1
10
26.0222715651491
20
-1.58973236162316
30
0
41
1
10
25.8627752920465
20
-1.591742790198
30
0
41
1
10
25.6394774123821
20
-1.59312782428441
30
0
41
1
10
25.4480604036734
20
-1.59285520444683
30
0
41
1
10
25.2566469394032
20
-1.59137233413608
30
0
41
1
10
25.0971505508605
20
-1.58931406362666
30
0
41
1
10
24.8738524220087
20
-1.5850020416423
30
0
41
1
10
24.6824351798124
20
-1.57986219359924
30
0
41
1
10
24.4910215522177
20
-1.57352679415757
30
0
41
1
10
24.3315250957624
20
-1.56742921081604
30
0
41
1
10
24.1082269777737
20
-1.55748745122543
30
0
41
1
10
23.9168098272687
20
-1.54755990898292
30
0
41
1
10
23.725396321086
20
-1.53646331893191
30
0
41
1
10
23.5658999772269
20
-1.5264094932609
30
0
41
1
10
23.3426020286879
20
-1.51096682714689
30
0
41
1
10
23.1511850255135
20
-1.49637535053049
30
0
41
1
10
22.9597716558518
20
-1.4806538819019
30
0
41
1
10
22.8002754128805
20
-1.46676645995439
30
0
41
1
10
22.5769775466773
20
-1.44600911195297
30
0
41
1
10
22.3855605179093
20
-1.42692679963835
30
0
41
1
10
22.1941470037681
20
-1.40676401286785
30
0
41
1
10
22.0346505751491
20
-1.38920330265029
30
0
41
1
10
21.8113524151122
20
-1.36337074233648
30
0
41
1
10
21.6199351702012
20
-1.34002093575987
30
0
41
1
10
21.4285215594719
20
-1.31565933290682
30
0
41
1
10
21.2690251317762
20
-1.29464125221799
30
0
41
1
10
21.0457270716842
20
-1.26405673620374
30
0
41
1
10
20.8543099764003
20
-1.236734424606
30
0
41
1
10
20.662896516217
20
-1.20848030123611
30
0
41
1
10
20.5034001826474
20
-1.18426743968215
30
0
41
1
10
20.2801021873744
20
-1.14931030582585
30
0
41
1
10
20.0886850935054
20
-1.11835174839896
30
0
41
1
10
19.8972716062826
20
-1.08655107289263
30
0
41
1
10
19.7377752597951
20
-1.05943892889528
30
0
41
1
10
19.514477261009
20
-1.02053425965795
30
0
41
1
10
19.323060145569
20
-0.986314540132099
30
0
41
1
10
19.1316465845681
20
-0.95135182271369
30
0
41
1
10
18.972150142324
20
-0.921667803646045
30
0
41
1
10
18.7488520064638
20
-0.879285325075585
30
0
41
1
10
18.5574348281914
20
-0.842218245474356
30
0
41
1
10
18.3660213189993
20
-0.804517681009543
30
0
41
1
10
18.2065250050782
20
-0.772622987734707
30
0
41
1
10
17.9832271213321
20
-0.727280738853239
30
0
41
1
10
17.7918101455904
20
-0.687822247220481
30
0
41
1
10
17.6003967207346
20
-0.647850359256807
30
0
41
1
10
17.4409003559076
20
-0.61414146762624
30
0
41
1
10
17.2176022419017
20
-0.566403717100116
30
0
41
1
10
17.0261850018784
20
-0.525042660230213
30
0
41
1
10
16.8347713775359
20
-0.483289433297955
30
0
41
1
10
16.6752749241297
20
-0.448175621521841
30
0
41
1
10
16.4519768093543
20
-0.398617189369674
30
0
41
1
10
16.2605596615536
20
-0.355849139795509
30
0
41
1
10
16.0691461580567
20
-0.312816069321258
30
0
41
1
10
15.9096498249509
20
-0.276720519544767
30
0
41
1
10
15.6863519105973
20
-0.225941333157721
30
0
41
1
10
15.4949349499839
20
-0.182286880829281
30
0
41
1
10
15.303521625887
20
-0.138500116823394
30
0
41
1
10
15.1440254266306
20
-0.101865608805156
30
0
41
1
10
14.9207276279626
20
-0.0504916281426802
30
0
41
1
10
14.7293106525295
20
-0.0064925737505348
30
0
41
1
10
14.5739540245524
20
0.0292139025643792
30
0
41
1
10
14.5143075839702
20
0.0429357807241217
30
0
41
1
10
14.4865619281647
20
0.0493194705627502
30
0
0
LINE
5
76
100
AcDbEntity
8
81
62
256
6
ByLayer
370
18
48
1
60
0
100
AcDbLine
10
80
20
0
30
0
11
85
21
0
31
0
39
0
210
0
220
0
230
1
0
LINE
5
77
100
AcDbEntity
8
1
62
256
6
ByLayer
370
18
48
1
60
0
100
AcDbLine
10
4.220051
20
3.865899
30
0
11
0.678205
21
3.859524
31
0
39
0
210
0
220
0
230
1
0
LINE
5
79
100
AcDbEntity
8
1
62
256
6
ByLayer
370
18
48
1
60
0
100
AcDbLine
10
15.171296
20
3.885611
30
0
11
14.363088
21
3.884157
31
0
39
0
210
0
220
0
230
1
0
LINE
5
7A
100
AcDbEntity
8
1
62
256
6
ByLayer
370
18
48
1
60
0
100
AcDbLine
10
36.919992
20
3.924759
30
0
11
36.124197
21
3.923327
31
0
39
0
210
0
220
0
230
1
0
LINE
5
7B
100
AcDbEntity
8
1
62
256
6
ByLayer
370
18
48
1
60
0
100
AcDbLine
10
58.670127
20
3.963909
30
0
11
57.886198
21
3.962498
31
0
39
0
210
0
220
0
230
1
0
LINE
5
7C
100
AcDbEntity
8
1
62
256
6
ByLayer
370
18
48
1
60
0
100
AcDbLine
10
57.886198
20
-3.962498
30
0
11
58.670071
21
-3.963909
31
0
39
0
210
0
220
0
230
1
0
LINE
5
7D
100
AcDbEntity
8
1
62
256
6
ByLayer
370
18
48
1
60
0
100
AcDbLine
10
36.124197
20
-3.923327
30
0
11
36.919775
21
-3.924759
31
0
39
0
210
0
220
0
230
1
0
LINE
5
7E
100
AcDbEntity
8
1
62
256
6
ByLayer
370
18
48
1
60
0
100
AcDbLine
10
14.363088
20
-3.884157
30
0
11
15.171475
21
-3.885612
31
0
39
0
210
0
220
0
230
1
0
LINE
5
7F
100
AcDbEntity
8
1
62
256
6
ByLayer
370
18
48
1
60
0
100
AcDbLine
10
0.678205
20
-3.859524
30
0
11
4.220051
21
-3.865899
31
0
39
0
210
0
220
0
230
1
0
LINE
5
80
100
AcDbEntity
8
SK1
62
256
6
ByLayer
370
18
48
1
60
0
100
AcDbLine
10
-34.845299
20
4
30
0
11
-36
21
2
31
0
39
0
210
0
220
0
230
1
0
LINE
5
82
100
AcDbEntity
8
SK1
62
256
6
ByLayer
370
18
48
1
60
0
100
AcDbLine
10
-36
20
-2
30
0
11
-34.845299
21
-4
31
0
39
0
210
0
220
0
230
1
0
LINE
5
83
100
AcDbEntity
8
SK1
62
256
6
ByLayer
370
18
48
1
60
0
100
AcDbLine
10
0
20
4
30
0
11
-34.845299
21
4
31
0
39
0
210
0
220
0
230
1
0
LINE
5
84
100
AcDbEntity
8
SK1
62
256
6
ByLayer
370
18
48
1
60
0
100
AcDbLine
10
-34.845299
20
-4
30
0
11
0
21
-4
31
0
39
0
210
0
220
0
230
1
0
LINE
5
85
100
AcDbEntity
8
SK4
62
256
6
ByLayer
370
18
48
0.05
60
0
100
AcDbLine
10
85
20
0
30
0
11
-41
21
0
31
0
39
0
210
0
220
0
230
1
0
LINE
5
87
100
AcDbEntity
8
4
62
256
6
ByLayer
370
18
48
0.05
60
0
100
AcDbLine
10
80
20
0
30
0
11
0
21
0
31
0
39
0
210
0
220
0
230
1
0
LINE
5
89
100
AcDbEntity
8
80
62
256
6
ByLayer
370
18
48
1
60
0
100
AcDbLine
10
0
20
0
30
0
11
-5
21
0
31
0
39
0
210
0
220
0
230
1
0
LINE
5
8A
100
AcDbEntity
8
1
62
256
6
ByLayer
370
13
48
1
60
0
100
AcDbLine
10
0.338338
20
3.929761
30
0
11
0.338338
21
-3.929761
31
0
39
0
210
0
220
0
230
1
0
LINE
5
8B
100
AcDbEntity
8
1
62
256
6
ByLayer
370
18
48
1
60
0
100
AcDbLine
10
78.163366
20
-2.063264
30
0
11
79.432212
21
-0.994748
31
0
39
0
210
0
220
0
230
1
0
LINE
5
8C
100
AcDbEntity
8
1
62
256
6
ByLayer
370
18
48
1
60
0
100
AcDbLine
10
0
20
-4
30
0
11
0
21
4
31
0
39
0
210
0
220
0
230
1
0
LINE
5
8D
100
AcDbEntity
8
1
62
256
6
ByLayer
370
13
48
1
60
0
100
AcDbLine
10
0.678205
20
3.859524
30
0
11
0.678205
21
-3.859524
31
0
39
0
210
0
220
0
230
1
0
LINE
5
8E
100
AcDbEntity
8
SK1
62
256
6
ByLayer
370
18
48
1
60
0
100
AcDbLine
10
0
20
-4
30
0
11
0
21
4
31
0
39
0
210
0
220
0
230
1
0
LINE
5
8F
100
AcDbEntity
8
SK1
62
256
6
ByLayer
370
18
48
1
60
0
100
AcDbLine
10
-34.845299
20
4
30
0
11
-34.845299
21
-4
31
0
39
0
210
0
220
0
230
1
0
LINE
5
90
100
AcDbEntity
8
SK1
62
256
6
ByLayer
370
18
48
1
60
0
100
AcDbLine
10
-36
20
2
30
0
11
-36
21
-2
31
0
39
0
210
0
220
0
230
1
0
MTEXT
5
E3
100
AcDbEntity
8
SK6
62
256
6
ByLayer
370
13
48
1
60
0
100
AcDbMText
10
24.129169
20
36.382694
30
0
210
0
220
0
230
1
1
\W0.7507;860.1-0800-064A1-PM 4234
40
3.5
41
0
44
1.084337
50
0
71
8
72
5
7
iso_b_vert
0
DIMENSION
5
F0
100
AcDbEntity
8
2
62
256
6
ByLayer
370
13
48
1
60
0
100
AcDbDimension
2
DimnDraft3D1
10
78.7205
20
-14.213398
30
0
11
37.970559
21
-14.213398
31
0
70
32
71
5
72
1
41
1
210
0
220
0
230
1
3
Standard
100
AcDbAlignedDimension
13
0
23
-1.5875
33
0
14
78.7205
24
-5.5875
34
0
50
0
100
AcDbRotatedDimension
1001
ACAD
1000
DSTYLE
1002
{
1070
   279
1070
     0
1070
   172
1070
     1
1070
   173
1070
     1
1070
   340
1005
E4
1070
   271
1070
     2
1070
   272
1070
     2
1070
    77
1070
     1
1070
    73
1070
     0
1070
   171
1070
     3
1070
   274
1070
     4
1070
   177
1070
    35
1070
   176
1070
    35
1070
   178
1070
    35
1070
    48
1040
-0.005
1070
    41
1041
3.5
1070
   147
1041
1.75
1070
    42
1041
1.5875
1070
    44
1041
2.0
1070
   140
1041
3.5
1070
   343
1005
0
1070
   344
1005
0
1002
}
0
DIMENSION
5
FA
100
AcDbEntity
8
SK2
62
256
6
ByLayer
370
13
48
1
60
0
100
AcDbDimension
2
DimnDraft3D2
10
80
20
-32.692985
30
0
11
22.0618
21
-32.692985
31
0
70
32
71
5
72
1
41
1
210
0
220
0
230
1
3
Standard
100
AcDbAlignedDimension
13
-36
23
-5.5875
33
0
14
80
24
-1.5875
34
0
50
0
100
AcDbRotatedDimension
1001
ACAD
1000
DSTYLE
1002
{
1070
   279
1070
     0
1070
   172
1070
     1
1070
   173
1070
     1
1070
   340
1005
E4
1070
   271
1070
     2
1070
   272
1070
     2
1070
    77
1070
     1
1070
    73
1070
     0
1070
   171
1070
     3
1070
   274
1070
     4
1070
   177
1070
    35
1070
   176
1070
    35
1070
   178
1070
    35
1070
    48
1040
-0.005
1070
    41
1041
3.5
1070
   147
1041
1.75
1070
    42
1041
1.5875
1070
    44
1041
2.0
1070
   140
1041
3.5
1070
   343
1005
0
1070
   344
1005
0
1002
}
0
DIMENSION
5
104
100
AcDbEntity
8
SK2
62
256
6
ByLayer
370
13
48
1
60
0
100
AcDbDimension
2
DimnDraft3D3
10
80
20
15.609119
30
0
11
47.36
21
15.609119
31
0
70
32
71
5
72
1
41
1
210
0
220
0
230
1
3
Standard
100
AcDbAlignedDimension
13
14.72
23
5.5875
33
0
14
80
24
1.5875
34
0
50
0
100
AcDbRotatedDimension
1001
ACAD
1000
DSTYLE
1002
{
1070
   279
1070
     0
1070
   172
1070
     1
1070
   173
1070
     1
1070
   340
1005
E4
1070
   271
1070
     2
1070
   272
1070
     2
1070
    77
1070
     1
1070
    73
1070
     0
1070
   171
1070
     3
1070
   274
1070
     4
1070
   177
1070
    35
1070
   176
1070
    35
1070
   178
1070
    35
1070
    48
1040
-0.005
1070
    41
1041
3.5
1070
   147
1041
1.75
1070
    42
1041
1.5875
1070
    44
1041
2.0
1070
   140
1041
3.5
1070
   343
1005
0
1070
   344
1005
0
1002
}
0
DIMENSION
5
10E
100
AcDbEntity
8
SK2
62
256
6
ByLayer
370
13
48
1
60
0
100
AcDbDimension
2
DimnDraft3D4
10
78.7205
20
-16.802503
30
0
11
89.981425
21
-16.802503
31
0
70
32
71
5
72
1
41
1
210
0
220
0
230
1
3
Standard
100
AcDbAlignedDimension
13
80
23
-1.5875
33
0
14
78.7205
24
-5.5875
34
0
50
0
100
AcDbRotatedDimension
1001
ACAD
1000
DSTYLE
1002
{
1070
   279
1070
     0
1070
   172
1070
     1
1070
   173
1070
     1
1070
   340
1005
E4
1070
   271
1070
     2
1070
   272
1070
     2
1070
    77
1070
     1
1070
    73
1070
     0
1070
   171
1070
     3
1070
   274
1070
     4
1070
   177
1070
    35
1070
   176
1070
    35
1070
   178
1070
    35
1070
    48
1040
-0.005
1070
    41
1041
3.5
1070
   147
1041
1.75
1070
    42
1041
1.5875
1070
    44
1041
2.0
1070
   140
1041
3.5
1070
   343
1005
0
1070
   344
1005
0
1002
}
0
DIMENSION
5
118
100
AcDbEntity
8
SK2
62
256
6
ByLayer
370
13
48
1
60
0
100
AcDbDimension
2
DimnDraft3D5
10
78.7205
20
-22.343428
30
0
11
18.981176
21
-22.343428
31
0
70
32
71
5
72
1
41
1
210
0
220
0
230
1
3
Standard
100
AcDbAlignedDimension
13
-36
23
-5.5875
33
0
14
78.7205
24
-5.5875
34
0
50
0
100
AcDbRotatedDimension
1001
ACAD
1000
DSTYLE
1002
{
1070
   279
1070
     0
1070
   172
1070
     1
1070
   173
1070
     1
1070
   340
1005
E4
1070
   271
1070
     2
1070
   272
1070
     2
1070
    77
1070
     1
1070
    73
1070
     0
1070
   171
1070
     3
1070
   274
1070
     4
1070
   177
1070
    35
1070
   176
1070
    35
1070
   178
1070
    35
1070
    48
1040
-0.005
1070
    41
1041
3.5
1070
   147
1041
1.75
1070
    42
1041
1.5875
1070
    44
1041
2.0
1070
   140
1041
3.5
1070
   343
1005
0
1070
   344
1005
0
1002
}
0
DIMENSION
5
123
100
AcDbEntity
8
SK2
62
256
6
ByLayer
370
13
48
1
60
0
100
AcDbDimension
2
DimnDraft3D6
10
-46.625163
20
4
30
0
11
-47.250163
21
22.47418
31
0
70
33
71
5
72
1
41
1
210
0
220
0
230
1
3
Standard
100
AcDbAlignedDimension
13
-37.5875
23
-4
33
0
14
-37.5875
24
4
34
0
1001
ACAD
1000
DSTYLE
1002
{
1070
   279
1070
     0
1070
    74
1070
     0
1070
   173
1070
     1
1070
   340
1005
E4
1070
   271
1070
     3
1070
   272
1070
     2
1070
    77
1070
     1
1070
    73
1070
     0
1070
   171
1070
     3
1070
   274
1070
     4
1070
   177
1070
    35
1070
   176
1070
    35
1070
   178
1070
    35
1070
    48
1040
-0.005
1070
    41
1041
3.5
1070
   147
1041
1.75
1070
    42
1041
1.5875
1070
    44
1041
2.0
1070
   140
1041
3.5
1070
   343
1005
0
1070
   344
1005
0
1002
}
0
DIMENSION
5
12E
100
AcDbEntity
8
2
62
256
6
ByLayer
370
13
48
1
60
0
100
AcDbDimension
2
DimnDraft3D7
10
94.083343
20
4
30
0
11
89.458343
21
21.067266
31
0
70
33
71
5
72
1
41
1
210
0
220
0
230
1
3
Standard
100
AcDbAlignedDimension
13
80.308
23
-4
33
0
14
80.308
24
4
34
0
1001
ACAD
1000
DSTYLE
1002
{
1070
   279
1070
     0
1070
    74
1070
     0
1070
   173
1070
     1
1070
   340
1005
E4
1070
   271
1070
     3
1070
   272
1070
     2
1070
    77
1070
     1
1070
    73
1070
     0
1070
   171
1070
     3
1070
   274
1070
     4
1070
   177
1070
    35
1070
   176
1070
    35
1070
   178
1070
    35
1070
    48
1040
-0.005
1070
    41
1041
3.5
1070
   147
1041
1.75
1070
    42
1041
1.5875
1070
    44
1041
2.0
1070
   140
1041
3.5
1070
   343
1005
0
1070
   344
1005
0
1002
}
0
ENDSEC
0
SECTION
2
OBJECTS
0
DICTIONARY
5
199
330
0
100
AcDbDictionary
280
0
281
1
3
ACAD_GROUP
350
19a
3
ACAD_MLINESTYLE
350
19b
0
DICTIONARY
5
19a
330
0
100
AcDbDictionary
280
0
281
1
0
DICTIONARY
5
19b
330
0
100
AcDbDictionary
280
0
281
1
3
Standard
350
18
0
MLINESTYLE
5
18
330
19b
100
AcDbMlineStyle
2
Standard
70
0
3

62
256
51
90
52
90
71
2
49
-0.5
62
256
6
ByLayer
49
0.5
62
256
6
ByLayer
0
RASTERVARIABLES
5
187
330

100
AcDbRasterVariables
90
0
70
1
71
1
72
1
0
ENDSEC
0
EOF
