0
SECTION
2
HEADER
9
$ACADVER
1
AC1015
9
$DWGCODEPAGE
3
ANSI_1252
9
$HANDSEED
5
1b1
9
$ANGBASE
50
0
9
$ANGDIR
70
0
9
$ATTMODE
70
1
9
$AUNITS
70
0
9
$AUPREC
70
0
9
$CECOLOR
62
256
9
$CELTSCALE
40
1
9
$CELTYPE
6
ByLayer
9
$CELWEIGHT
370
18
9
$CLAYER
8
0
9
$CMLJUST
70
0
9
$CMLSCALE
40
1
9
$CMLSTYLE
2
Standard
9
$DIMSTYLE
2
Standard
9
$TEXTSIZE
40
0.2
9
$TEXTSTYLE
7
Standard
9
$LUNITS
70
2
9
$LUPREC
70
4
9
$EXTNAMES
290
1
9
$INSUNITS
70
4
9
$LTSCALE
40
1
9
$LWDISPLAY
290
1
9
$PDMODE
70
0
9
$PDSIZE
40
0
9
$PLINEGEN
70
0
0
ENDSEC
0
SECTION
2
CLASSES
0
CLASS
1
RASTERVARIABLES
2
AcDbRasterVariables
3
ISM
90
0
280
0
281
0
0
ENDSEC
0
SECTION
2
TABLES
0
TABLE
2
VPORT
5
1a7
100
AcDbSymbolTable
0
VPORT
5
1
100
AcDbSymbolTableRecord
100
AcDbViewportTableRecord
2
*Active
70
0
10
0
20
0
11
1
21
1
12
-1
22
1
13
0
23
0
14
0.5
24
0.5
15
10
25
10
16
0
26
0
36
1
17
0
27
0
37
0
0
ENDTAB
0
TABLE
2
LTYPE
5
1a8
100
AcDbSymbolTable
0
LTYPE
5
14
100
AcDbSymbolTableRecord
100
AcDbLinetypeTableRecord
70
0
2
ByBlock
3

72
65
73
0
40
0
0
LTYPE
5
15
100
AcDbSymbolTableRecord
100
AcDbLinetypeTableRecord
70
0
2
ByLayer
3

72
65
73
0
40
0
0
LTYPE
5
16
100
AcDbSymbolTableRecord
100
AcDbLinetypeTableRecord
70
0
2
CONTINUOUS
3
Solid line
72
65
73
0
40
0
0
LTYPE
5
6A
100
AcDbSymbolTableRecord
100
AcDbLinetypeTableRecord
70
0
2
CENTER
3
____ _ ____ _ ____ _ ____
72
65
73
4
40
47.5
49
22
74
0
49
-8.5
74
0
49
8.5
74
0
49
-8.5
74
0
0
LTYPE
5
6B
100
AcDbSymbolTableRecord
100
AcDbLinetypeTableRecord
70
0
2
DASHED
3
__ __ __ __ __ __ __ __ __
72
65
73
2
40
25.72
49
12.86
74
0
49
-12.86
74
0
0
ENDTAB
0
TABLE
2
LAYER
5
1a9
100
AcDbSymbolTable
0
LAYER
5
10
100
AcDbSymbolTableRecord
100
AcDbLayerTableRecord
2
0
70
0
62
7
6
CONTINUOUS
290
1
370
-3
390
0
0
LAYER
5
6D
100
AcDbSymbolTableRecord
100
AcDbLayerTableRecord
2
81
70
0
62
-3
6
CONTINUOUS
290
1
370
-3
390
0
0
LAYER
5
6F
100
AcDbSymbolTableRecord
100
AcDbLayerTableRecord
2
80
70
0
62
-6
6
CONTINUOUS
290
1
370
-3
390
0
0
LAYER
5
74
100
AcDbSymbolTableRecord
100
AcDbLayerTableRecord
2
2
70
0
62
7
6
CONTINUOUS
290
1
370
-3
390
0
0
LAYER
5
78
100
AcDbSymbolTableRecord
100
AcDbLayerTableRecord
2
1
70
0
62
4
6
CONTINUOUS
290
1
370
-3
390
0
0
LAYER
5
8A
100
AcDbSymbolTableRecord
100
AcDbLayerTableRecord
2
4
70
0
62
-2
6
CENTER
290
1
370
-3
390
0
0
LAYER
5
193
100
AcDbSymbolTableRecord
100
AcDbLayerTableRecord
2
SK2
70
0
62
7
6
CONTINUOUS
290
1
370
-3
390
0
0
LAYER
5
194
100
AcDbSymbolTableRecord
100
AcDbLayerTableRecord
2
SK1
70
0
62
4
6
CONTINUOUS
290
1
370
-3
390
0
0
LAYER
5
195
100
AcDbSymbolTableRecord
100
AcDbLayerTableRecord
2
SK4
70
0
62
2
6
CENTER
290
1
370
-3
390
0
0
LAYER
5
196
100
AcDbSymbolTableRecord
100
AcDbLayerTableRecord
2
SK6
70
0
62
5
6
CONTINUOUS
290
1
370
-3
390
0
0
ENDTAB
0
TABLE
2
STYLE
5
1aa
100
AcDbSymbolTable
0
STYLE
5
11
100
AcDbSymbolTableRecord
100
AcDbTextStyleTableRecord
2
Standard
3
txt
70
0
71
0
40
0
41
1
42
0
50
0
0
STYLE
5
EF
100
AcDbSymbolTableRecord
100
AcDbTextStyleTableRecord
2
iso_b_vert
3
simplex.shx
70
0
71
0
40
0
41
1
42
0
50
0
0
STYLE
5
F0
100
AcDbSymbolTableRecord
100
AcDbTextStyleTableRecord
2
DWGDirectTextStyle
3
simplex
70
0
71
0
40
0
41
1
42
0
50
0
0
ENDTAB
0
TABLE
2
DIMSTYLE
5
1ab
100
AcDbSymbolTable
100
AcDbDimStyleTable
0
DIMSTYLE
105
27
100
AcDbSymbolTableRecord
100
AcDbDimStyleTableRecord
2
Standard
70
0
3
<>
41
0.18
42
0.0625
44
0.18
140
0.18
147
0.09
73
0
74
0
77
1
271
2
275
0
278
52
280
0
340
11
0
ENDTAB
0
TABLE
2
VIEW
5
1ac
100
AcDbSymbolTable
0
ENDTAB
0
TABLE
2
UCS
5
1ad
100
AcDbSymbolTable
0
ENDTAB
0
TABLE
2
APPID
5
1ae
100
AcDbSymbolTable
0
APPID
5
12
100
AcDbSymbolTableRecord
100
AcDbRegAppTableRecord
2
ACAD
70
0
0
ENDTAB
0
TABLE
2
BLOCK_RECORD
5
1af
100
AcDbSymbolTable
0
BLOCK_RECORD
5
1F
100
AcDbSymbolTableRecord
100
AcDbBlockTableRecord
2
*Model_Space
340
0
70
0
0
BLOCK_RECORD
5
1B
100
AcDbSymbolTableRecord
100
AcDbBlockTableRecord
2
*Paper_Space
340
0
70
0
0
BLOCK_RECORD
5
23
100
AcDbSymbolTableRecord
100
AcDbBlockTableRecord
2
*Paper_Space0
340
0
70
0
0
BLOCK_RECORD
5
F2
100
AcDbSymbolTableRecord
100
AcDbBlockTableRecord
2
DimnDraft3D1
340
0
70
0
0
BLOCK_RECORD
5
FC
100
AcDbSymbolTableRecord
100
AcDbBlockTableRecord
2
DimnDraft3D2
340
0
70
0
0
BLOCK_RECORD
5
106
100
AcDbSymbolTableRecord
100
AcDbBlockTableRecord
2
DimnDraft3D3
340
0
70
0
0
BLOCK_RECORD
5
110
100
AcDbSymbolTableRecord
100
AcDbBlockTableRecord
2
DimnDraft3D4
340
0
70
0
0
BLOCK_RECORD
5
11A
100
AcDbSymbolTableRecord
100
AcDbBlockTableRecord
2
DimnDraft3D5
340
0
70
0
0
BLOCK_RECORD
5
124
100
AcDbSymbolTableRecord
100
AcDbBlockTableRecord
2
DimnDraft3D6
340
0
70
0
0
BLOCK_RECORD
5
12F
100
AcDbSymbolTableRecord
100
AcDbBlockTableRecord
2
DimnDraft3D7
340
0
70
0
0
ENDTAB
0
ENDSEC
0
SECTION
2
BLOCKS
0
BLOCK
5
20
100
AcDbEntity
8
0
100
AcDbBlockBegin
2
*Model_Space
70
0
10
0
20
0
30
0
3
*Model_Space
0
ENDBLK
5
21
100
AcDbEntity
8
0
100
AcDbBlockEnd
0
BLOCK
5
1C
100
AcDbEntity
8
0
100
AcDbBlockBegin
2
*Paper_Space
70
0
10
0
20
0
30
0
3
*Paper_Space
0
ENDBLK
5
1D
100
AcDbEntity
8
0
100
AcDbBlockEnd
0
BLOCK
5
24
100
AcDbEntity
8
0
100
AcDbBlockBegin
2
*Paper_Space0
70
0
10
0
20
0
30
0
3
*Paper_Space0
0
ENDBLK
5
25
100
AcDbEntity
8
0
100
AcDbBlockEnd
0
BLOCK
5
F9
100
AcDbEntity
8
0
100
AcDbBlockBegin
2
DimnDraft3D1
70
0
10
0
20
0
30
0
3
DimnDraft3D1
0
MTEXT
5
F3
100
AcDbEntity
8
2
62
256
6
ByLayer
370
13
48
1
60
0
100
AcDbMText
10
20.991075
20
-13.338398
30
0
210
0
220
0
230
1
1
\W0.7402;53,69
40
3.5
41
0
44
1.084337
50
0
71
7
72
5
7
iso_b_vert
0
LINE
5
F4
100
AcDbEntity
8
2
62
256
6
ByLayer
370
13
48
1
60
0
100
AcDbLine
10
0
20
-1.5875
30
0
11
0
21
-16.213398
31
0
39
0
210
0
220
0
230
1
0
LINE
5
F5
100
AcDbEntity
8
2
62
256
6
ByLayer
370
13
48
1
60
0
100
AcDbLine
10
53.6897
20
-5.5875
30
0
11
53.6897
21
-16.213398
31
0
39
0
210
0
220
0
230
1
0
LINE
5
F6
100
AcDbEntity
8
2
62
256
6
ByLayer
370
13
48
1
60
0
100
AcDbLine
10
0
20
-14.213398
30
0
11
53.6897
21
-14.213398
31
0
39
0
210
0
220
0
230
1
0
SOLID
5
F7
100
AcDbEntity
8
2
62
256
6
ByLayer
370
13
48
1
60
0
100
AcDbTrace
10
0
20
-14.213398
30
0
11
3.499998
21
-13.752615
31
0
12
3.500002
22
-14.674182
32
0
13
0
23
-14.213398
33
0
39
0
210
0
220
0
230
1
0
SOLID
5
F8
100
AcDbEntity
8
2
62
256
6
ByLayer
370
13
48
1
60
0
100
AcDbTrace
10
53.6897
20
-14.213398
30
0
11
50.189702
21
-14.674182
31
0
12
50.189698
22
-13.752615
32
0
13
53.6897
23
-14.213398
33
0
39
0
210
0
220
0
230
1
0
ENDBLK
5
FA
100
AcDbEntity
8
0
100
AcDbBlockEnd
0
BLOCK
5
103
100
AcDbEntity
8
0
100
AcDbBlockBegin
2
DimnDraft3D2
70
0
10
0
20
0
30
0
3
DimnDraft3D2
0
MTEXT
5
FD
100
AcDbEntity
8
SK2
62
256
6
ByLayer
370
13
48
1
60
0
100
AcDbMText
10
5.519816
20
-31.817985
30
0
210
0
220
0
230
1
1
\W0.6713;91,00
40
3.5
41
0
44
1.084337
50
0
71
7
72
5
7
iso_b_vert
0
LINE
5
FE
100
AcDbEntity
8
SK2
62
256
6
ByLayer
370
13
48
1
60
0
100
AcDbLine
10
-36
20
-5.5875
30
0
11
-36
21
-34.692985
31
0
39
0
210
0
220
0
230
1
0
LINE
5
FF
100
AcDbEntity
8
SK2
62
256
6
ByLayer
370
13
48
1
60
0
100
AcDbLine
10
55
20
-1.5875
30
0
11
55
21
-34.692985
31
0
39
0
210
0
220
0
230
1
0
LINE
5
100
100
AcDbEntity
8
SK2
62
256
6
ByLayer
370
13
48
1
60
0
100
AcDbLine
10
-36
20
-32.692985
30
0
11
55
21
-32.692985
31
0
39
0
210
0
220
0
230
1
0
SOLID
5
101
100
AcDbEntity
8
SK2
62
256
6
ByLayer
370
13
48
1
60
0
100
AcDbTrace
10
-36
20
-32.692985
30
0
11
-32.500002
21
-32.232202
31
0
12
-32.499998
22
-33.153769
32
0
13
-36
23
-32.692985
33
0
39
0
210
0
220
0
230
1
0
SOLID
5
102
100
AcDbEntity
8
SK2
62
256
6
ByLayer
370
13
48
1
60
0
100
AcDbTrace
10
55
20
-32.692985
30
0
11
51.500002
21
-33.153769
31
0
12
51.499998
22
-32.232202
32
0
13
55
23
-32.692985
33
0
39
0
210
0
220
0
230
1
0
ENDBLK
5
104
100
AcDbEntity
8
0
100
AcDbBlockEnd
0
BLOCK
5
10D
100
AcDbEntity
8
0
100
AcDbBlockBegin
2
DimnDraft3D3
70
0
10
0
20
0
30
0
3
DimnDraft3D3
0
MTEXT
5
107
100
AcDbEntity
8
SK2
62
256
6
ByLayer
370
13
48
1
60
0
100
AcDbMText
10
30.587105
20
16.484119
30
0
210
0
220
0
230
1
1
\W0.6846;41,31
40
3.5
41
0
44
1.084337
50
0
71
7
72
5
7
iso_b_vert
0
LINE
5
108
100
AcDbEntity
8
SK2
62
256
6
ByLayer
370
13
48
1
60
0
100
AcDbLine
10
13.69
20
5.5875
30
0
11
13.69
21
17.609119
31
0
39
0
210
0
220
0
230
1
0
LINE
5
109
100
AcDbEntity
8
SK2
62
256
6
ByLayer
370
13
48
1
60
0
100
AcDbLine
10
55
20
1.5875
30
0
11
55
21
17.609119
31
0
39
0
210
0
220
0
230
1
0
LINE
5
10A
100
AcDbEntity
8
SK2
62
256
6
ByLayer
370
13
48
1
60
0
100
AcDbLine
10
13.69
20
15.609119
30
0
11
55
21
15.609119
31
0
39
0
210
0
220
0
230
1
0
SOLID
5
10B
100
AcDbEntity
8
SK2
62
256
6
ByLayer
370
13
48
1
60
0
100
AcDbTrace
10
13.69
20
15.609119
30
0
11
17.189998
21
16.069903
31
0
12
17.190002
22
15.148335
32
0
13
13.69
23
15.609119
33
0
39
0
210
0
220
0
230
1
0
SOLID
5
10C
100
AcDbEntity
8
SK2
62
256
6
ByLayer
370
13
48
1
60
0
100
AcDbTrace
10
55
20
15.609119
30
0
11
51.500002
21
15.148335
31
0
12
51.499998
22
16.069903
32
0
13
55
23
15.609119
33
0
39
0
210
0
220
0
230
1
0
ENDBLK
5
10E
100
AcDbEntity
8
0
100
AcDbBlockEnd
0
BLOCK
5
117
100
AcDbEntity
8
0
100
AcDbBlockBegin
2
DimnDraft3D4
70
0
10
0
20
0
30
0
3
DimnDraft3D4
0
MTEXT
5
111
100
AcDbEntity
8
SK2
62
256
6
ByLayer
370
13
48
1
60
0
100
AcDbMText
10
62.715636
20
-15.927503
30
0
210
0
220
0
230
1
1
\W0.6132;1,31
40
3.5
41
0
44
1.084337
50
0
71
7
72
5
7
iso_b_vert
0
LINE
5
112
100
AcDbEntity
8
SK2
62
256
6
ByLayer
370
13
48
1
60
0
100
AcDbLine
10
55
20
-1.5875
30
0
11
55
21
-18.802503
31
0
39
0
210
0
220
0
230
1
0
LINE
5
113
100
AcDbEntity
8
SK2
62
256
6
ByLayer
370
13
48
1
60
0
100
AcDbLine
10
53.6897
20
-5.5875
30
0
11
53.6897
21
-18.802503
31
0
39
0
210
0
220
0
230
1
0
LINE
5
114
100
AcDbEntity
8
SK2
62
256
6
ByLayer
370
13
48
1
60
0
100
AcDbLine
10
44.9397
20
-16.802503
30
0
11
68.122215
21
-16.802503
31
0
39
0
210
0
220
0
230
1
0
SOLID
5
115
100
AcDbEntity
8
SK2
62
256
6
ByLayer
370
13
48
1
60
0
100
AcDbTrace
10
55
20
-16.802503
30
0
11
58.499998
21
-16.341719
31
0
12
58.500002
22
-17.263287
32
0
13
55
23
-16.802503
33
0
39
0
210
0
220
0
230
1
0
SOLID
5
116
100
AcDbEntity
8
SK2
62
256
6
ByLayer
370
13
48
1
60
0
100
AcDbTrace
10
53.6897
20
-16.802503
30
0
11
50.189702
21
-17.263287
31
0
12
50.189698
22
-16.341719
32
0
13
53.6897
23
-16.802503
33
0
39
0
210
0
220
0
230
1
0
ENDBLK
5
118
100
AcDbEntity
8
0
100
AcDbBlockEnd
0
BLOCK
5
121
100
AcDbEntity
8
0
100
AcDbBlockBegin
2
DimnDraft3D5
70
0
10
0
20
0
30
0
3
DimnDraft3D5
0
MTEXT
5
11B
100
AcDbEntity
8
SK2
62
256
6
ByLayer
370
13
48
1
60
0
100
AcDbMText
10
2.001692
20
-21.468428
30
0
210
0
220
0
230
1
1
\W0.7402;89,69
40
3.5
41
0
44
1.084337
50
0
71
7
72
5
7
iso_b_vert
0
LINE
5
11C
100
AcDbEntity
8
SK2
62
256
6
ByLayer
370
13
48
1
60
0
100
AcDbLine
10
-36
20
-5.5875
30
0
11
-36
21
-24.343428
31
0
39
0
210
0
220
0
230
1
0
LINE
5
11D
100
AcDbEntity
8
SK2
62
256
6
ByLayer
370
13
48
1
60
0
100
AcDbLine
10
53.6897
20
-5.5875
30
0
11
53.6897
21
-24.343428
31
0
39
0
210
0
220
0
230
1
0
LINE
5
11E
100
AcDbEntity
8
SK2
62
256
6
ByLayer
370
13
48
1
60
0
100
AcDbLine
10
-36
20
-22.343428
30
0
11
53.6897
21
-22.343428
31
0
39
0
210
0
220
0
230
1
0
SOLID
5
11F
100
AcDbEntity
8
SK2
62
256
6
ByLayer
370
13
48
1
60
0
100
AcDbTrace
10
-36
20
-22.343428
30
0
11
-32.500002
21
-21.882645
31
0
12
-32.499998
22
-22.804212
32
0
13
-36
23
-22.343428
33
0
39
0
210
0
220
0
230
1
0
SOLID
5
120
100
AcDbEntity
8
SK2
62
256
6
ByLayer
370
13
48
1
60
0
100
AcDbTrace
10
53.6897
20
-22.343428
30
0
11
50.189702
21
-22.804212
31
0
12
50.189698
22
-21.882645
32
0
13
53.6897
23
-22.343428
33
0
39
0
210
0
220
0
230
1
0
ENDBLK
5
122
100
AcDbEntity
8
0
100
AcDbBlockEnd
0
BLOCK
5
12C
100
AcDbEntity
8
0
100
AcDbBlockBegin
2
DimnDraft3D6
70
0
10
0
20
0
30
0
3
DimnDraft3D6
0
MTEXT
5
125
100
AcDbEntity
8
SK2
62
256
6
ByLayer
370
13
48
1
60
0
100
AcDbMText
10
-46.375163
20
23.34918
30
0
210
0
220
0
230
1
1
\W0.7317;8,000
40
3.5
41
0
44
1.084337
50
90
71
7
72
5
7
iso_b_vert
0
MTEXT
5
126
100
AcDbEntity
8
SK2
62
256
6
ByLayer
370
13
48
1
60
0
100
AcDbMText
10
-46.375163
20
18.126524
30
0
210
0
220
0
230
1
1
%%c
40
3.5
41
0
44
1.084337
50
90
71
7
72
5
7
iso_b_vert
0
LINE
5
127
100
AcDbEntity
8
SK2
62
256
6
ByLayer
370
13
48
1
60
0
100
AcDbLine
10
-37.5875
20
-4
30
0
11
-46.625163
21
-4
31
0
39
0
210
0
220
0
230
1
0
LINE
5
128
100
AcDbEntity
8
SK2
62
256
6
ByLayer
370
13
48
1
60
0
100
AcDbLine
10
-37.5875
20
4
30
0
11
-46.625163
21
4
31
0
39
0
210
0
220
0
230
1
0
LINE
5
129
100
AcDbEntity
8
SK2
62
256
6
ByLayer
370
13
48
1
60
0
100
AcDbLine
10
-44.625163
20
-4
30
0
11
-44.625163
21
33.121549
31
0
39
0
210
0
220
0
230
1
0
SOLID
5
12A
100
AcDbEntity
8
SK2
62
256
6
ByLayer
370
13
48
1
60
0
100
AcDbTrace
10
-44.625163
20
-4
30
0
11
-45.085946
21
-0.500002
31
0
12
-44.164379
22
-0.499998
32
0
13
-44.625163
23
-4
33
0
39
0
210
0
220
0
230
1
0
SOLID
5
12B
100
AcDbEntity
8
SK2
62
256
6
ByLayer
370
13
48
1
60
0
100
AcDbTrace
10
-44.625163
20
4
30
0
11
-44.164379
21
0.500002
31
0
12
-45.085946
22
0.499998
32
0
13
-44.625163
23
4
33
0
39
0
210
0
220
0
230
1
0
ENDBLK
5
12D
100
AcDbEntity
8
0
100
AcDbBlockEnd
0
BLOCK
5
137
100
AcDbEntity
8
0
100
AcDbBlockBegin
2
DimnDraft3D7
70
0
10
0
20
0
30
0
3
DimnDraft3D7
0
MTEXT
5
130
100
AcDbEntity
8
2
62
256
6
ByLayer
370
13
48
1
60
0
100
AcDbMText
10
65.333343
20
21.942266
30
0
210
0
220
0
230
1
1
\W0.7317;8,000
40
3.5
41
0
44
1.084337
50
90
71
7
72
5
7
iso_b_vert
0
MTEXT
5
131
100
AcDbEntity
8
2
62
256
6
ByLayer
370
13
48
1
60
0
100
AcDbMText
10
65.333343
20
16.71961
30
0
210
0
220
0
230
1
1
%%c
40
3.5
41
0
44
1.084337
50
90
71
7
72
5
7
iso_b_vert
0
LINE
5
132
100
AcDbEntity
8
2
62
256
6
ByLayer
370
13
48
1
60
0
100
AcDbLine
10
55.2772
20
-4
30
0
11
69.083343
21
-4
31
0
39
0
210
0
220
0
230
1
0
LINE
5
133
100
AcDbEntity
8
2
62
256
6
ByLayer
370
13
48
1
60
0
100
AcDbLine
10
55.2772
20
4
30
0
11
69.083343
21
4
31
0
39
0
210
0
220
0
230
1
0
LINE
5
134
100
AcDbEntity
8
2
62
256
6
ByLayer
370
13
48
1
60
0
100
AcDbLine
10
67.083343
20
-4
30
0
11
67.083343
21
31.714635
31
0
39
0
210
0
220
0
230
1
0
SOLID
5
135
100
AcDbEntity
8
2
62
256
6
ByLayer
370
13
48
1
60
0
100
AcDbTrace
10
67.083343
20
-4
30
0
11
66.622559
21
-0.500002
31
0
12
67.544126
22
-0.499998
32
0
13
67.083343
23
-4
33
0
39
0
210
0
220
0
230
1
0
SOLID
5
136
100
AcDbEntity
8
2
62
256
6
ByLayer
370
13
48
1
60
0
100
AcDbTrace
10
67.083343
20
4
30
0
11
67.544126
21
0.500002
31
0
12
66.622559
22
0.499998
32
0
13
67.083343
23
4
33
0
39
0
210
0
220
0
230
1
0
ENDBLK
5
138
100
AcDbEntity
8
0
100
AcDbBlockEnd
0
ENDSEC
0
SECTION
2
ENTITIES
0
ELLIPSE
5
9C
100
AcDbEntity
8
1
62
256
6
ByLayer
370
13
48
1
60
0
100
AcDbEllipse
10
54.076978
20
0.759621
30
0
11
0.182972835236731
21
0.237741333312977
31
0
210
0
220
0
230
1
40
0.455639
41
0.912984858149146
42
2.15012741233611
0
ELLIPSE
5
9D
100
AcDbEntity
8
1
62
256
6
ByLayer
370
13
48
1
60
0
100
AcDbEllipse
10
55.392836
20
2.07622
30
0
11
2.47447466337223
21
-1.22561386109433
31
0
210
0
220
0
230
-1
40
0.715108
41
1.84170957369637
42
1.9927163998946
0
ELLIPSE
5
9E
100
AcDbEntity
8
1
62
256
6
ByLayer
370
18
48
1
60
0
100
AcDbEllipse
10
53.212115
20
1.425246
30
0
11
1.71557612285089
21
-1.11353632671909
31
0
210
0
220
0
230
-1
40
0.12325
41
-0.0798284013445047
42
0.0403034313672994
0
ELLIPSE
5
9F
100
AcDbEntity
8
1
62
256
6
ByLayer
370
13
48
1
60
0
100
AcDbEllipse
10
4.177228
20
-2.922318
30
0
11
-0.00703754355866343
21
0.0997520575259474
31
0
210
0
220
0
230
1
40
0.610454
41
0.798095020241298
42
2.11337775134735
0
ELLIPSE
5
A0
100
AcDbEntity
8
1
62
256
6
ByLayer
370
13
48
1
60
0
100
AcDbEllipse
10
4.250494
20
-2.933781
30
0
11
0.0335563660574219
21
0.0942017531525836
31
0
210
0
220
0
230
1
40
0.369329
41
0.760508442078759
42
2.31274660279256
0
ELLIPSE
5
A1
100
AcDbEntity
8
1
62
256
6
ByLayer
370
18
48
1
60
0
100
AcDbEllipse
10
54.933172
20
0.100669
30
0
11
0.1669009865234
21
0.249907615947961
31
0
210
0
220
0
230
-1
40
0.487455
41
-2.11736978758773
42
-1.0003590663082
0
POINT
5
6C
100
AcDbEntity
8
81
62
256
6
ByLayer
370
18
48
1
60
0
100
AcDbPoint
10
55
20
0
30
0
39
0
210
0
220
0
230
1
50
360
0
POINT
5
6E
100
AcDbEntity
8
80
62
256
6
ByLayer
370
18
48
1
60
0
100
AcDbPoint
10
0
20
0
30
0
39
0
210
0
220
0
230
1
50
360
0
POINT
5
70
100
AcDbEntity
8
SK2
62
256
6
ByLayer
370
18
48
1
60
1
100
AcDbPoint
10
-36
20
-4
30
0
39
0
210
0
220
0
230
1
50
360
0
POINT
5
72
100
AcDbEntity
8
SK2
62
256
6
ByLayer
370
18
48
1
60
1
100
AcDbPoint
10
-36
20
4
30
0
39
0
210
0
220
0
230
1
50
360
0
POINT
5
73
100
AcDbEntity
8
2
62
256
6
ByLayer
370
18
48
1
60
1
100
AcDbPoint
10
53.6897
20
-4
30
0
39
0
210
0
220
0
230
1
50
360
0
POINT
5
75
100
AcDbEntity
8
2
62
256
6
ByLayer
370
18
48
1
60
1
100
AcDbPoint
10
53.6897
20
4
30
0
39
0
210
0
220
0
230
1
50
360
0
SPLINE
5
A2
100
AcDbEntity
8
1
62
256
6
ByLayer
370
18
48
1
60
0
100
AcDbSpline
70
4
71
3
72
23
73
19
40
0
40
0
40
0
40
0
40
0.0107735225303637
40
0.082568250706446
40
0.129854063871069
40
0.16641969564203
40
0.208548783282817
40
0.256271693888782
40
0.306459218727995
40
0.413462419971431
40
0.506251290215303
40
0.586922410903721
40
0.654319107937874
40
0.735327845089794
40
0.837253830043576
40
0.934308172330739
40
0.989499641260834
40
1
40
1
40
1
40
1
41
1
10
40.0117807552854
20
3.80731907328632
30
0
41
1
10
39.9851043809406
20
3.80721917662805
30
0
41
1
10
39.780658656917
20
3.8064852985477
30
0
41
1
10
39.4591584781568
20
3.80587743104039
30
0
41
1
10
39.0738300203279
20
3.80548418526985
30
0
41
1
10
38.7618888483297
20
3.80463018292414
30
0
41
1
10
38.4488596858704
20
3.80325758903297
30
0
41
1
10
38.1021384652278
20
3.80247212763607
30
0
41
1
10
37.5948208456822
20
3.80237001335837
30
0
41
1
10
36.9758343709343
20
3.7991182002005
30
0
41
1
10
36.2813664994058
20
3.79904021005345
30
0
41
1
10
35.6849715362241
20
3.79723063522681
30
0
41
1
10
35.1177486903192
20
3.79531654667122
30
0
41
1
10
34.4979079476838
20
3.7949889285764
30
0
41
1
10
33.8046152739379
20
3.79214522549171
30
0
41
1
10
33.1752517279663
20
3.79141738195491
30
0
41
1
10
32.7722652892033
20
3.79030271529294
30
0
41
1
10
32.6096150147333
20
3.78983503466415
30
0
41
1
10
32.5836169174454
20
3.78976047715656
30
0
0
SPLINE
5
A3
100
AcDbEntity
8
1
62
256
6
ByLayer
370
18
48
1
60
0
100
AcDbSpline
70
4
71
3
72
25
73
21
40
0
40
0
40
0
40
0
40
0.0702429064362938
40
0.125768806135718
40
0.162059975787387
40
0.19494672558436
40
0.229880486763111
40
0.267240283970064
40
0.30880863428214
40
0.394571414992046
40
0.471759703023132
40
0.536913087805949
40
0.592314520639865
40
0.650663716603008
40
0.718950901801084
40
0.804785430414933
40
0.865327637498368
40
0.913368317543744
40
0.977611240124548
40
1
40
1
40
1
40
1
41
1
10
9.06355349000518
20
-3.73290116042574
30
0
41
1
10
9.27919840151117
20
-3.73342165980577
30
0
41
1
10
9.66532473502289
20
-3.73437235437527
30
0
41
1
10
10.1629415629885
20
-3.73569454544335
30
0
41
1
10
10.545836331876
20
-3.73666765957159
30
0
41
1
10
10.8655135149026
20
-3.73733816611943
30
0
41
1
10
11.1884686538629
20
-3.73801108129942
30
0
41
1
10
11.5380807135178
20
-3.73893156869346
30
0
41
1
10
12.0437613134393
20
-3.7404463952183
30
0
41
1
10
12.6717450464929
20
-3.74144369930707
30
0
41
1
10
13.372120370461
20
-3.74443027531609
30
0
41
1
10
13.9792913445663
20
-3.74455818914387
30
0
41
1
10
14.5286140768021
20
-3.74697929618688
30
0
41
1
10
15.0875601799185
20
-3.74825095778445
30
0
41
1
10
15.7399626650977
20
-3.74891143611941
30
0
41
1
10
16.3990457921887
20
-3.75256844154964
30
0
41
1
10
16.9961090083699
20
-3.7517240672712
30
0
41
1
10
17.5262526636797
20
-3.75451730514672
30
0
41
1
10
17.9399667640187
20
-3.75543612683455
30
0
41
1
10
18.2058706220676
20
-3.75597956620749
30
0
41
1
10
18.2745895683788
20
-3.75610043122674
30
0
0
SPLINE
5
A4
100
AcDbEntity
8
1
62
256
6
ByLayer
370
18
48
1
60
0
100
AcDbSpline
70
4
71
3
72
27
73
23
40
0
40
0
40
0
40
0
40
0.0643660064258762
40
0.116160460020713
40
0.151347142368476
40
0.185959051043805
40
0.224643588185844
40
0.267087844308984
40
0.312179623959625
40
0.377937960244022
40
0.436612744012431
40
0.483279841608436
40
0.525944048112884
40
0.591069796877578
40
0.665978197787491
40
0.752361819851383
40
0.799612611007605
40
0.843243550996621
40
0.880728131756918
40
0.918184877940909
40
0.980036062192288
40
1
40
1
40
1
40
1
41
1
10
30.8127420424242
20
-3.78542142009704
30
0
41
1
10
31.0101654330352
20
-3.78593384954974
30
0
41
1
10
31.366446110088
20
-3.78682152676018
30
0
41
1
10
31.8306500904732
20
-3.78796480342297
30
0
41
1
10
32.203562409182
20
-3.78873108442386
30
0
41
1
10
32.5362183181019
20
-3.78959990825169
30
0
41
1
10
32.8912151638822
20
-3.79065033407079
30
0
41
1
10
33.2783570574639
20
-3.79156173204086
30
0
41
1
10
33.7485407267167
20
-3.79221184224062
30
0
41
1
10
34.2685062243369
20
-3.79409622071196
30
0
41
1
10
34.79329416415
20
-3.79529232779598
30
0
41
1
10
35.2472499149564
20
-3.7955702764159
30
0
41
1
10
35.7209956671058
20
-3.79741697484505
30
0
41
1
10
36.2813666554049
20
-3.79901111895327
30
0
41
1
10
36.9758341752993
20
-3.79913257792663
30
0
41
1
10
37.6154772332663
20
-3.80245996259211
30
0
41
1
10
38.1590948088358
20
-3.80247416636794
30
0
41
1
10
38.5527872775895
20
-3.80367542382834
30
0
41
1
10
38.9164892739333
20
-3.80519983733919
30
0
41
1
10
39.3359941305547
20
-3.80580740542149
30
0
41
1
10
39.7017676911458
20
-3.80619652132364
30
0
41
1
10
39.9527040942067
20
-3.80710784136204
30
0
41
1
10
40.0139368794306
20
-3.80735002837517
30
0
0
SPLINE
5
A5
100
AcDbEntity
8
1
62
256
6
ByLayer
370
18
48
1
60
0
100
AcDbSpline
70
4
71
3
72
22
73
18
40
0
40
0
40
0
40
0
40
0.0130043475374964
40
0.0859635444445718
40
0.137643672381054
40
0.192665957138602
40
0.260545023191061
40
0.33136713744274
40
0.421844295844042
40
0.497398583562584
40
0.568659015463048
40
0.644751692294741
40
0.734035887563175
40
0.835058030096173
40
0.923162810989882
40
0.97157933664887
40
1
40
1
40
1
40
1
41
1
10
18.276165184373
20
3.75594077647295
30
0
41
1
10
18.2436480905932
20
3.75586493135018
30
0
41
1
10
18.0286955384533
20
3.75534187268599
30
0
41
1
10
17.684293184275
20
3.75568523053642
30
0
41
1
10
17.2351433167136
20
3.7525536583675
30
0
41
1
10
16.7985973525504
20
3.75185907306872
30
0
41
1
10
16.3139844021201
20
3.75238392636473
30
0
41
1
10
15.7407407358509
20
3.74903093832054
30
0
41
1
10
15.1482761466144
20
3.74826342741881
30
0
41
1
10
14.5547198460646
20
3.74714996873706
30
0
41
1
10
13.9971475146492
20
3.74458650264765
30
0
41
1
10
13.4052282564264
20
3.7444481598736
30
0
41
1
10
12.7388822588016
20
3.74172078936766
30
0
41
1
10
12.0424662843747
20
3.74047248374907
30
0
41
1
10
11.4482847090432
20
3.73863275681936
30
0
41
1
10
11.0357041337246
20
3.73768840289631
30
0
41
1
10
10.8435052716411
20
3.73729165019631
30
0
41
1
10
10.7724145208329
20
3.73714153174208
30
0
0
SPLINE
5
A6
100
AcDbEntity
8
1
62
256
6
ByLayer
370
18
48
1
60
0
100
AcDbSpline
70
4
71
3
72
9
73
5
40
0
40
0
40
0
40
0
40
0.12911095802488
40
1
40
1
40
1
40
1
41
1
10
29.6838182654548
20
-0.304493900045571
30
0
41
1
10
29.6837379346836
20
-0.304390101436269
30
0
41
1
10
29.6813690294826
20
-0.30267084340403
30
0
41
1
10
29.6678246988423
20
-0.294917226019294
30
0
41
1
10
29.6458745072929
20
-0.282835471646337
30
0
0
SPLINE
5
A7
100
AcDbEntity
8
1
62
256
6
ByLayer
370
18
48
1
60
0
100
AcDbSpline
70
4
71
2
72
6
73
3
40
0
40
0
40
0
40
1
40
1
40
1
41
1
10
52.5684103987543
20
-3.83736203945165
30
0
41
1
10
53.0825363083514
20
-3.83644123894251
30
0
41
1
10
53.5970225539473
20
-3.84149370871543
30
0
0
SPLINE
5
A8
100
AcDbEntity
8
1
62
256
6
ByLayer
370
18
48
1
60
0
100
AcDbSpline
70
4
71
1
72
4
73
2
40
0
40
0
40
1
40
1
41
1
10
41.4832627688428
20
0.0006837345018482
30
0
41
1
10
41.4832482460338
20
0.0006917830220914
30
0
0
SPLINE
5
A9
100
AcDbEntity
8
1
62
256
6
ByLayer
370
18
48
1
60
0
100
AcDbSpline
70
4
71
3
72
21
73
17
40
0
40
0
40
0
40
0
40
0.0141947159091001
40
0.0337537688921868
40
0.103456428642548
40
0.188778848016948
40
0.24537677741059
40
0.298292452720013
40
0.398300830420661
40
0.496127552375755
40
0.570046473463269
40
0.655420288102973
40
0.718379741469287
40
0.783804043775243
40
0.887534458187973
40
1
40
1
40
1
40
1
41
1
10
42.0047628525257
20
-0.896312143353839
30
0
41
1
10
42.0048261876588
20
-0.896393309426799
30
0
41
1
10
42.011708107284
20
-0.897364385571478
30
0
41
1
10
42.0622091054725
20
-0.904390148556331
30
0
41
1
10
42.1502057306154
20
-0.918830805297631
30
0
41
1
10
42.2542795253656
20
-0.938838035305395
30
0
41
1
10
42.3765748871554
20
-0.966432557714342
30
0
41
1
10
42.4803333239838
20
-0.992286773292165
30
0
41
1
10
42.5802762066724
20
-1.02239673106766
30
0
41
1
10
42.7517687759993
20
-1.07955183401126
30
0
41
1
10
42.9422892316347
20
-1.15084418464943
30
0
41
1
10
43.0837931306162
20
-1.20710740075617
30
0
41
1
10
43.2321220937275
20
-1.27150707183935
30
0
41
1
10
43.449969409804
20
-1.37102987642572
30
0
41
1
10
43.7144523869554
20
-1.49928551687773
30
0
41
1
10
43.9234134525329
20
-1.60582339284511
30
0
41
1
10
44.0332130372449
20
-1.66336798704742
30
0
0
SPLINE
5
AA
100
AcDbEntity
8
1
62
256
6
ByLayer
370
18
48
1
60
0
100
AcDbSpline
70
4
71
3
72
18
73
14
40
0
40
0
40
0
40
0
40
0.0056303361334752
40
0.0264591084303633
40
0.182737726025593
40
0.331167734983132
40
0.465785700484262
40
0.54936929209762
40
0.629109940597031
40
0.693082663019447
40
0.815342755052289
40
0.904210249686693
40
1
40
1
40
1
40
1
41
1
10
20.2611501006015
20
-0.898506048079724
30
0
41
1
10
20.2613661764206
20
-0.89855838017283
30
0
41
1
10
20.2642486537631
20
-0.899004915696651
30
0
41
1
10
20.3453835070137
20
-0.909428840856606
30
0
41
1
10
20.465848273843
20
-0.926438814938479
30
0
41
1
10
20.7086539675615
20
-0.987285492718001
30
0
41
1
10
20.889585800086
20
-1.04011222736264
30
0
41
1
10
21.0694305033426
20
-1.1027263085507
30
0
41
1
10
21.2212647425397
20
-1.1622276026994
30
0
41
1
10
21.4200127522501
20
-1.24499274771801
30
0
41
1
10
21.6612647695002
20
-1.35261364744463
30
0
41
1
10
21.9418936879916
20
-1.48645906165893
30
0
41
1
10
22.1092967635171
20
-1.57221679891248
30
0
41
1
10
22.1964027483572
20
-1.61828694044607
30
0
0
SPLINE
5
AB
100
AcDbEntity
8
1
62
256
6
ByLayer
370
18
48
1
60
0
100
AcDbSpline
70
4
71
3
72
12
73
8
40
0
40
0
40
0
40
0
40
0.25
40
0.25
40
0.5
40
0.5
40
1
40
1
40
1
40
1
41
1
10
54.5533789152051
20
1.84509430550855
30
0
41
1
10
54.5848796759065
20
1.7613309886473
30
0
41
1
10
54.6147612508176
20
1.67870016103055
30
0
41
1
10
54.67097060749
20
1.5156968339667
30
0
41
1
10
54.6974617289366
20
1.43479284189658
30
0
41
1
10
54.7696295916338
20
1.19943945291792
30
0
41
1
10
54.807206733699
20
1.05551228237138
30
0
41
1
10
54.832775224267
20
0.925807050759744
30
0
0
SPLINE
5
AC
100
AcDbEntity
8
1
62
256
6
ByLayer
370
18
48
1
60
0
100
AcDbSpline
70
4
71
3
72
48
73
44
40
0
40
0
40
0
40
0
40
0.0670465952089876
40
0.0670465952089876
40
0.100569892813481
40
0.100569892813481
40
0.134093190417975
40
0.134093190417975
40
0.201139785626963
40
0.201139785626963
40
0.234663083231457
40
0.234663083231457
40
0.268186380835952
40
0.268186380835952
40
0.335232976044939
40
0.335232976044939
40
0.368756273649433
40
0.368756273649433
40
0.402279571253927
40
0.402279571253927
40
0.435802868858421
40
0.435802868858421
40
0.469326166462914
40
0.469326166462914
40
0.536372761671902
40
0.536372761671902
40
0.60341935688089
40
0.60341935688089
40
0.636942654485384
40
0.636942654485384
40
0.670465952089879
40
0.670465952089879
40
0.804559142507855
40
0.804559142507855
40
0.83808244011235
40
0.83808244011235
40
0.854844088914596
40
0.854844088914596
40
0.871605737716843
40
0.871605737716843
40
0.93865233292583
40
0.93865233292583
40
1
40
1
40
1
40
1
41
1
10
53.6397755148064
20
-3.93165924928707
30
0
41
1
10
53.1229184180322
20
-3.98547597973575
30
0
41
1
10
52.6070779990408
20
-4.0060055475002
30
0
41
1
10
51.8306680520783
20
-3.98665364964691
30
0
41
1
10
51.5718640909816
20
-3.97180583905126
30
0
41
1
10
51.0565991584876
20
-3.92588111113127
30
0
41
1
10
50.7996710681909
20
-3.89480508036434
30
0
41
1
10
50.0300364366104
20
-3.777864037108
30
0
41
1
10
49.5182413840896
20
-3.6683655446875
30
0
41
1
10
48.7476850018078
20
-3.45992649117088
30
0
41
1
10
48.4903622485758
20
-3.38308031054944
30
0
41
1
10
47.9740268913383
20
-3.21512248472658
30
0
41
1
10
47.7145850596362
20
-3.12381657322766
30
0
41
1
10
46.9385836446282
20
-2.83180550616046
30
0
41
1
10
46.4227019072655
20
-2.61270103162306
30
0
41
1
10
45.646627282241
20
-2.25310475980604
30
0
41
1
10
45.3872124570605
20
-2.1279644879219
30
0
41
1
10
44.8697121779253
20
-1.87010378814944
30
0
41
1
10
44.6113366935196
20
-1.73725490779754
30
0
41
1
10
44.0945340958169
20
-1.46501329512989
30
0
41
1
10
43.8361057336828
20
-1.32562297987408
30
0
41
1
10
43.3184276518904
20
-1.04153849049715
30
0
41
1
10
43.0587546824083
20
-0.896571110838181
30
0
41
1
10
42.2841349181839
20
-0.459448486192059
30
0
41
1
10
41.7715000473876
20
-0.164482663716456
30
0
41
1
10
40.7479487906529
20
0.422232180464221
30
0
41
1
10
40.236764307992
20
0.713506183649287
30
0
41
1
10
39.4668938926384
20
1.1402434776798
30
0
41
1
10
39.2096562748747
20
1.2806205517972
30
0
41
1
10
38.6931612056614
20
1.55624301001276
30
0
41
1
10
38.4331755053594
20
1.69191809585388
30
0
41
1
10
37.1404046714411
20
2.34793062175265
30
0
41
1
10
36.1221068770625
20
2.80160402792362
30
0
41
1
10
34.8388325291323
20
3.2416674277876
30
0
41
1
10
34.5816730924064
20
3.32334108386402
30
0
41
1
10
34.194514189835
20
3.43553362405319
30
0
41
1
10
34.0652212537301
20
3.47120924373098
30
0
41
1
10
33.8060804095923
20
3.53901648618734
30
0
41
1
10
33.6760980826214
20
3.57117806534174
30
0
41
1
10
33.0283758133588
20
3.72195841041594
30
0
41
1
10
32.514483105436
20
3.81115934530584
30
0
41
1
10
31.5327174067649
20
3.92070416728248
30
0
41
1
10
31.0645799774195
20
3.9462344297925
30
0
41
1
10
30.595136095963
20
3.94455674753217
30
0
0
SPLINE
5
AD
100
AcDbEntity
8
1
62
256
6
ByLayer
370
18
48
1
60
0
100
AcDbSpline
70
4
71
3
72
18
73
14
40
0
40
0
40
0
40
0
40
0.0655280957416419
40
0.0655280957416419
40
0.299146071806235
40
0.299146071806235
40
0.41595505983853
40
0.41595505983853
40
0.532764047870824
40
0.532764047870824
40
0.766382023935413
40
0.766382023935413
40
1
40
1
40
1
40
1
41
1
10
10.7704707107914
20
-3.7494697856313
30
0
41
1
10
10.6261148477621
20
-3.77128486408807
30
0
41
1
10
10.4818859379928
20
-3.79062997006039
30
0
41
1
10
9.82372741831833
20
-3.86757846039367
30
0
41
1
10
9.3104620120954
20
-3.89601739254727
30
0
41
1
10
8.53709815303333
20
-3.89010334065597
30
0
41
1
10
8.2787298849095
20
-3.88004019585981
30
0
41
1
10
7.76011483211235
20
-3.84354145749799
30
0
41
1
10
7.49917151445911
20
-3.81699440407621
30
0
41
1
10
6.71886238173954
20
-3.71354813767883
30
0
41
1
10
6.20164132313042
20
-3.61294627315212
30
0
41
1
10
5.16656698170462
20
-3.35360267531277
30
0
41
1
10
4.64868709373511
20
-3.19494789233838
30
0
41
1
10
4.12769622624089
20
-3.00944896701145
30
0
0
SPLINE
5
AE
100
AcDbEntity
8
1
62
256
6
ByLayer
370
18
48
1
60
0
100
AcDbSpline
70
4
71
3
72
8
73
4
40
0
40
0
40
0
40
0
40
1
40
1
40
1
40
1
41
1
10
53.6934001861454
20
3.87262459318262
30
0
41
1
10
53.6742426928894
20
3.89533785035408
30
0
41
1
10
53.6563911583835
20
3.9150114604785
30
0
41
1
10
53.6397755148064
20
3.93165924928704
30
0
0
SPLINE
5
AF
100
AcDbEntity
8
1
62
256
6
ByLayer
370
18
48
1
60
0
100
AcDbSpline
70
4
71
3
72
10
73
6
40
0
40
0
40
0
40
0
40
0.5
40
0.5
40
1
40
1
40
1
40
1
41
1
10
54.9458737178132
20
0.289663002317212
30
0
41
1
10
54.9512078259449
20
0.254591992162943
30
0
41
1
10
54.9585477880571
20
0.216549243841655
30
0
41
1
10
54.9766309879809
20
0.135428640804918
30
0
41
1
10
54.9875358757139
20
0.0918280017501161
30
0
41
1
10
54.9998964220413
20
0.0472397435109428
30
0
0
SPLINE
5
B0
100
AcDbEntity
8
1
62
256
6
ByLayer
370
18
48
1
60
0
100
AcDbSpline
70
4
71
3
72
8
73
4
40
0
40
0
40
0
40
0
40
1
40
1
40
1
40
1
41
1
10
54.9998964220413
20
0.047239743510886
30
0
41
1
10
55.0000345256206
20
0.0157466644503756
30
0
41
1
10
55.0000345256206
20
-0.0157466644419344
30
0
41
1
10
54.9998964220414
20
-0.0472397435024732
30
0
0
SPLINE
5
B1
100
AcDbEntity
8
1
62
256
6
ByLayer
370
18
48
1
60
0
100
AcDbSpline
70
4
71
3
72
8
73
4
40
0
40
0
40
0
40
0
40
1
40
1
40
1
40
1
41
1
10
4.04901432462995
20
-2.96502235437961
30
0
41
1
10
4.0290955372727
20
-2.94760924664692
30
0
41
1
10
4.01707911962248
20
-2.92657147504701
30
0
41
1
10
4.01708338013347
20
-2.9043059340581
30
0
0
SPLINE
5
B2
100
AcDbEntity
8
1
62
256
6
ByLayer
370
18
48
1
60
0
100
AcDbSpline
70
4
71
3
72
10
73
6
40
0
40
0
40
0
40
0
40
0.5
40
0.5
40
1
40
1
40
1
40
1
41
1
10
54.9458737178133
20
-0.289663002317127
30
0
41
1
10
54.9512067250945
20
-0.254599230099728
30
0
41
1
10
54.9585447814525
20
-0.216564914532171
30
0
41
1
10
54.9766227990305
20
-0.135463194335273
30
0
41
1
10
54.987514870274
20
-0.0919037747741811
30
0
41
1
10
54.9998964220433
20
-0.0472397435035532
30
0
0
SPLINE
5
B3
100
AcDbEntity
8
1
62
256
6
ByLayer
370
18
48
1
60
0
100
AcDbSpline
70
4
71
3
72
28
73
24
40
0
40
0
40
0
40
0
40
0.125
40
0.125
40
0.25
40
0.25
40
0.3125
40
0.3125
40
0.375
40
0.375
40
0.5
40
0.5
40
0.5625
40
0.5625
40
0.625
40
0.625
40
0.75
40
0.75
40
0.8125
40
0.8125
40
0.875
40
0.875
40
1
40
1
40
1
40
1
41
1
10
4.0170833801335
20
-2.9043059340562
30
0
41
1
10
4.01711230503503
20
-2.7531436736198
30
0
41
1
10
4.01713868144486
20
-2.58633281361827
30
0
41
1
10
4.01718647227241
20
-2.23229720680493
30
0
41
1
10
4.01720806463661
20
-2.04436500330905
30
0
41
1
10
4.01723826603418
20
-1.74603339809951
30
0
41
1
10
4.01724799902863
20
-1.64346360699298
30
0
41
1
10
4.01726676722384
20
-1.43431796365695
30
0
41
1
10
4.01727574152596
20
-1.32847947060816
30
0
41
1
10
4.0173017614394
20
-1.00727707413486
30
0
41
1
10
4.01731791928543
20
-0.788253588592909
30
0
41
1
10
4.0173413380198
20
-0.452310379171991
30
0
41
1
10
4.01734904073072
20
-0.338523702220016
30
0
41
1
10
4.01736407452424
20
-0.111505502577927
30
0
41
1
10
4.01737139834265
20
0.0015765415066653
30
0
41
1
10
4.01739293589014
20
0.339574535205998
30
0
41
1
10
4.01740673671063
20
0.563251698928866
30
0
41
1
10
4.01742678089551
20
0.896243545565625
30
0
41
1
10
4.01743337570625
20
1.00731016121804
30
0
41
1
10
4.01744607709546
20
1.22473550606693
30
0
41
1
10
4.01745220250504
20
1.33139397036314
30
0
41
1
10
4.01746982222488
20
1.64534587659125
30
0
41
1
10
4.01748058501343
20
1.84666152631092
30
0
41
1
10
4.01748986531314
20
2.03980494116078
30
0
0
SPLINE
5
B4
100
AcDbEntity
8
1
62
256
6
ByLayer
370
18
48
1
60
0
100
AcDbSpline
70
4
71
3
72
14
73
10
40
0
40
0
40
0
40
0
40
0.0527090376801598
40
0.0527090376801598
40
0.369369908925401
40
0.369369908925401
40
0.686030780170641
40
0.686030780170641
40
1
40
1
40
1
40
1
41
1
10
30.8187788957793
20
-3.7854273272315
30
0
41
1
10
30.7324439834211
20
-3.78525517865367
30
0
41
1
10
30.6461243283272
20
-3.78420237734724
30
0
41
1
10
30.0418164818491
20
-3.7706438087744
30
0
41
1
10
29.5247560087389
20
-3.72724327125349
30
0
41
1
10
28.4868627529137
20
-3.57831756231963
30
0
41
1
10
27.9714958860368
20
-3.47364993664081
30
0
41
1
10
26.9493942949846
20
-3.21151306646226
30
0
41
1
10
26.4421195279826
20
-3.05440773338424
30
0
41
1
10
25.9337469243036
20
-2.87382865417123
30
0
0
SPLINE
5
B5
100
AcDbEntity
8
1
62
256
6
ByLayer
370
13
48
1
60
0
100
AcDbSpline
70
4
71
3
72
24
73
20
40
0
40
0
40
0
40
0
40
0.0012538879881356
40
0.0012538879881356
40
0.148768254486131
40
0.148768254486131
40
0.22252543773513
40
0.22252543773513
40
0.296282620984129
40
0.296282620984129
40
0.591311353980125
40
0.591311353980125
40
0.665068537229123
40
0.665068537229123
40
0.738825720478121
40
0.738825720478121
40
0.886340086976117
40
0.886340086976117
40
1
40
1
40
1
40
1
41
1
10
25.9337469246105
20
-2.87382865428023
30
0
41
1
10
25.9293886570347
20
-2.87228055365466
30
0
41
1
10
25.9250303087722
20
-2.87073072780345
30
0
41
1
10
25.4079218225484
20
-2.68664630005637
30
0
41
1
10
24.8939072417037
20
-2.48027330184331
30
0
41
1
10
24.1168270647997
20
-2.13985063866818
30
0
41
1
10
23.8568123569548
20
-2.02124277710016
30
0
41
1
10
23.3399896654704
20
-1.77779964851356
30
0
41
1
10
23.0824657240742
20
-1.65256228672149
30
0
41
1
10
21.7975336846719
20
-1.0119573816286
30
0
41
1
10
20.7775481390162
20
-0.454304687906586
30
0
41
1
10
19.4841589355317
20
0.247402987220965
30
0
41
1
10
19.2238174495454
20
0.38834344233527
30
0
41
1
10
18.7056553359447
20
0.666601364725523
30
0
41
1
10
18.4475410670223
20
0.803996467132663
30
0
41
1
10
17.6749935717376
20
1.2090964298593
30
0
41
1
10
17.1624520882581
20
1.46995393413559
30
0
41
1
10
16.2541404270576
20
1.90640896552279
30
0
41
1
10
15.8586699052823
20
2.08805405072218
30
0
41
1
10
15.4616003051143
20
2.2590013395058
30
0
0
SPLINE
5
B6
100
AcDbEntity
8
1
62
256
6
ByLayer
370
18
48
1
60
0
100
AcDbSpline
70
4
71
3
72
42
73
38
40
0
40
0
40
0
40
0
40
0.124999999999995
40
0.124999999999995
40
0.24999999999999
40
0.24999999999999
40
0.374999999999986
40
0.374999999999986
40
0.499999999999981
40
0.499999999999981
40
0.531249999999979
40
0.531249999999979
40
0.562499999999978
40
0.562499999999978
40
0.624999999999981
40
0.624999999999981
40
0.687499999999984
40
0.687499999999984
40
0.718749999999985
40
0.718749999999985
40
0.749999999999986
40
0.749999999999986
40
0.781249999999988
40
0.781249999999988
40
0.812499999999989
40
0.812499999999989
40
0.843749999999991
40
0.843749999999991
40
0.874999999999992
40
0.874999999999992
40
0.906249999999993
40
0.906249999999993
40
0.921874999999994
40
0.921874999999994
40
0.937499999999995
40
0.937499999999995
40
1
40
1
40
1
40
1
41
1
10
50.5061057825362
20
0.209693019317626
30
0
41
1
10
50.6848103949451
20
0.0945634782799516
30
0
41
1
10
50.8653610135916
20
-0.0141729860409896
30
0
41
1
10
51.2311817519165
20
-0.211156489419665
30
0
41
1
10
51.4159512849322
20
-0.299567277369675
30
0
41
1
10
51.7881956867414
20
-0.452736611405982
30
0
41
1
10
51.976432383587
20
-0.517910134965177
30
0
41
1
10
52.3534170798201
20
-0.621180382265152
30
0
41
1
10
52.541845210889
20
-0.659332037697595
30
0
41
1
10
52.7772909237325
20
-0.68823984012937
30
0
41
1
10
52.8244001120995
20
-0.693077832752749
30
0
41
1
10
52.9184314008172
20
-0.700787980380113
30
0
41
1
10
52.9654008079051
20
-0.703874453031375
30
0
41
1
10
53.1055028514674
20
-0.706263068106466
30
0
41
1
10
53.1977008832517
20
-0.699988586734491
30
0
41
1
10
53.3765360453315
20
-0.66141308786419
30
0
41
1
10
53.4613659589713
20
-0.630581294971705
30
0
41
1
10
53.5795869725283
20
-0.561626685720199
30
0
41
1
10
53.6177149927319
20
-0.53452566564809
30
0
41
1
10
53.6884263843604
20
-0.470423743935442
30
0
41
1
10
53.7203205555932
20
-0.433895783963294
30
0
41
1
10
53.775109399874
20
-0.34920026867087
30
0
41
1
10
53.797994520616
20
-0.301172530256253
30
0
41
1
10
53.8324517622834
20
-0.199057698123994
30
0
41
1
10
53.8444561247596
20
-0.143644833060506
30
0
41
1
10
53.8571651015556
20
-0.028739980214084
30
0
41
1
10
53.8579358838351
20
0.0301096333708699
30
0
41
1
10
53.8495293550914
20
0.150298129845425
30
0
41
1
10
53.8402941873299
20
0.210756710765793
30
0
41
1
10
53.814098224352
20
0.32934786265642
30
0
41
1
10
53.7971873082583
20
0.388006117559939
30
0
41
1
10
53.7678232888066
20
0.475325305010614
30
0
41
1
10
53.757366220871
20
0.504288384983965
30
0
41
1
10
53.7353702893026
20
0.561787582414212
30
0
41
1
10
53.7236395863544
20
0.590292204173949
30
0
41
1
10
53.6651601626621
20
0.732873517056191
30
0
41
1
10
53.6218882901689
20
0.84811262731148
30
0
41
1
10
53.5799208359498
20
0.963787845400589
30
0
0
SPLINE
5
B7
100
AcDbEntity
8
1
62
256
6
ByLayer
370
18
48
1
60
0
100
AcDbSpline
70
4
71
3
72
8
73
4
40
0
40
0
40
0
40
0
40
1
40
1
40
1
40
1
41
1
10
4.12769622624066
20
-3.00944896701137
30
0
41
1
10
4.09670012193399
20
-2.99841279651983
30
0
41
1
10
4.06991931032249
20
-2.98329760183753
30
0
41
1
10
4.04901432462995
20
-2.96502235437964
30
0
0
SPLINE
5
B8
100
AcDbEntity
8
1
62
256
6
ByLayer
370
18
48
1
60
0
100
AcDbSpline
70
4
71
3
72
40
73
36
40
0
40
0
40
0
40
0
40
0.062500000000002
40
0.062500000000002
40
0.125000000000004
40
0.125000000000004
40
0.187500000000006
40
0.187500000000006
40
0.250000000000008
40
0.250000000000008
40
0.31250000000001
40
0.31250000000001
40
0.375000000000012
40
0.375000000000012
40
0.437500000000014
40
0.437500000000014
40
0.500000000000016
40
0.500000000000016
40
0.562500000000018
40
0.562500000000018
40
0.593750000000017
40
0.593750000000017
40
0.625000000000016
40
0.625000000000016
40
0.687500000000013
40
0.687500000000013
40
0.750000000000011
40
0.750000000000011
40
0.812500000000008
40
0.812500000000008
40
0.875000000000005
40
0.875000000000005
40
0.937500000000003
40
0.937500000000003
40
1
40
1
40
1
40
1
41
1
10
54.5350371347368
20
-1.20600548501031
30
0
41
1
10
54.5228425767665
20
-1.19067849924252
30
0
41
1
10
54.5081200063185
20
-1.18096845216456
30
0
41
1
10
54.4751117666296
20
-1.17149995397998
30
0
41
1
10
54.4571245901227
20
-1.17174282697869
30
0
41
1
10
54.4186012715163
20
-1.1807828738755
30
0
41
1
10
54.3978912532457
20
-1.18974982811628
30
0
41
1
10
54.3554787642908
20
-1.21526359753452
30
0
41
1
10
54.3336375126404
20
-1.23179625727713
30
0
41
1
10
54.2886759507894
20
-1.27246690398698
30
0
41
1
10
54.2658382113152
20
-1.2963994956055
30
0
41
1
10
54.2205064355265
20
-1.35046236156842
30
0
41
1
10
54.19785255258
20
-1.38071914965653
30
0
41
1
10
54.1525728614404
20
-1.44877553683906
30
0
41
1
10
54.1306416405779
20
-1.48554966443143
30
0
41
1
10
54.0887797582821
20
-1.5647450423036
30
0
41
1
10
54.0686874438129
20
-1.60763848835916
30
0
41
1
10
54.0332785531502
20
-1.695451201748
30
0
41
1
10
54.0174892778601
20
-1.74167884840293
30
0
41
1
10
53.9992967397946
20
-1.80865396224615
30
0
41
1
10
53.9940764983554
20
-1.83072974499544
30
0
41
1
10
53.9854526170002
20
-1.87434478124848
30
0
41
1
10
53.9820962684171
20
-1.89576663670621
30
0
41
1
10
53.9752645213724
20
-1.95630178926552
30
0
41
1
10
53.9748886712405
20
-1.99325149086704
30
0
41
1
10
53.9818702039663
20
-2.05514814574005
30
0
41
1
10
53.9892353823201
20
-2.08074371027743
30
0
41
1
10
54.0096047776125
20
-2.11978180555346
30
0
41
1
10
54.0227832699364
20
-2.13368093164664
30
0
41
1
10
54.0528918711148
20
-2.15072198758423
30
0
41
1
10
54.0700615138142
20
-2.15406754524321
30
0
41
1
10
54.1070000520441
20
-2.15147898531492
30
0
41
1
10
54.1266675930934
20
-2.1456467293558
30
0
41
1
10
54.1682069636763
20
-2.12563435586787
30
0
41
1
10
54.1899007088168
20
-2.11147394496365
30
0
41
1
10
54.2119321453287
20
-2.09372914752282
30
0
0
SPLINE
5
B9
100
AcDbEntity
8
1
62
256
6
ByLayer
370
18
48
1
60
0
100
AcDbSpline
70
4
71
3
72
8
73
4
40
0
40
0
40
0
40
0
40
1
40
1
40
1
40
1
41
1
10
54.9444666656562
20
-0.0811070939506067
30
0
41
1
10
54.8079901553497
20
-0.456073224303878
30
0
41
1
10
54.6715136450432
20
-0.83103935465715
30
0
41
1
10
54.5350371347366
20
-1.20600548501042
30
0
0
SPLINE
5
BA
100
AcDbEntity
8
1
62
256
6
ByLayer
370
18
48
1
60
0
100
AcDbSpline
70
4
71
3
72
86
73
82
40
0
40
0
40
0
40
0
40
0.0153262305544881
40
0.0153262305544881
40
0.0589837636735884
40
0.0589837636735884
40
0.0808125302331386
40
0.0808125302331386
40
0.102641296792688
40
0.102641296792688
40
0.124470063352238
40
0.124470063352238
40
0.146298829911787
40
0.146298829911787
40
0.168127596471337
40
0.168127596471337
40
0.189956363030887
40
0.189956363030887
40
0.233613896149985
40
0.233613896149985
40
0.255442662709534
40
0.255442662709534
40
0.277271429269083
40
0.277271429269083
40
0.299100195828632
40
0.299100195828632
40
0.320928962388181
40
0.320928962388181
40
0.34275772894773
40
0.34275772894773
40
0.364586495507279
40
0.364586495507279
40
0.408244028626376
40
0.408244028626376
40
0.430072795185924
40
0.430072795185924
40
0.451901561745472
40
0.451901561745472
40
0.47373032830502
40
0.47373032830502
40
0.495559094864567
40
0.495559094864567
40
0.517387861424115
40
0.517387861424115
40
0.539216627983663
40
0.539216627983663
40
0.58287416110276
40
0.58287416110276
40
0.604702927662309
40
0.604702927662309
40
0.626531694221857
40
0.626531694221857
40
0.648360460781406
40
0.648360460781406
40
0.670189227340954
40
0.670189227340954
40
0.713846760460051
40
0.713846760460051
40
0.757504293579148
40
0.757504293579148
40
0.779333060138697
40
0.779333060138697
40
0.801161826698245
40
0.801161826698245
40
0.822990593257794
40
0.822990593257794
40
0.844819359817342
40
0.844819359817342
40
0.866648126376891
40
0.866648126376891
40
0.888476892936439
40
0.888476892936439
40
0.932134426055535
40
0.932134426055535
40
0.953963192615083
40
0.953963192615083
40
0.975791959174631
40
0.975791959174631
40
0.997620725734179
40
0.997620725734179
40
1
40
1
40
1
40
1
41
1
10
24.0612312554168
20
2.5111631120624
30
0
41
1
10
24.2050312886734
20
2.57399172519038
30
0
41
1
10
24.3489686527689
20
2.63551863350028
30
0
41
1
10
24.9008556164897
20
2.86569137313455
30
0
41
1
10
25.308347882507
20
3.01865934012861
30
0
41
1
10
25.9164041456068
20
3.22532958180392
30
0
41
1
10
26.1181991121577
20
3.29070044267311
30
0
41
1
10
26.5224076416135
20
3.41195251847245
30
0
41
1
10
26.7247867440611
20
3.46793205665546
30
0
41
1
10
27.1296354055305
20
3.57114063884472
30
0
41
1
10
27.3321306385543
20
3.61834917493553
30
0
41
1
10
27.7368154305377
20
3.70407747643145
30
0
41
1
10
27.9391223043921
20
3.74245898934777
30
0
41
1
10
28.3457657882256
20
3.80901782412394
30
0
41
1
10
28.5497654385659
20
3.83743025004657
30
0
41
1
10
28.9587786510587
20
3.8845602799089
30
0
41
1
10
29.1640233196977
20
3.90330722002415
30
0
41
1
10
29.775742857637
20
3.94395762359053
30
0
41
1
10
30.1826826881028
20
3.95022930978567
30
0
41
1
10
30.7900308047955
20
3.92980196782912
30
0
41
1
10
30.9916126197243
20
3.91785299538415
30
0
41
1
10
31.3954643783348
20
3.88411118916162
30
0
41
1
10
31.5976936143528
20
3.8623816774099
30
0
41
1
10
32.0022973546691
20
3.80919620595063
30
0
41
1
10
32.2046975058566
20
3.77775125241746
30
0
41
1
10
32.6092517543924
20
3.7046722209418
30
0
41
1
10
32.8115251459109
20
3.66304014000838
30
0
41
1
10
33.2181546577573
20
3.57097624918111
30
0
41
1
10
33.4221740688261
20
3.52036064748731
30
0
41
1
10
33.8312827775743
20
3.40954068663885
30
0
41
1
10
34.0362583089017
20
3.34918280398802
30
0
41
1
10
34.6469636588925
20
3.15524469584881
30
0
41
1
10
35.0533499846072
20
3.01147511239463
30
0
41
1
10
35.6600397425538
20
2.77293198227579
30
0
41
1
10
35.861432452823
20
2.68907794007265
30
0
41
1
10
36.2649484003585
20
2.51578209954738
30
0
41
1
10
36.4670388095106
20
2.42634427989026
30
0
41
1
10
36.8714177819461
20
2.24132999629765
30
0
41
1
10
37.0737322958232
20
2.14579105124736
30
0
41
1
10
37.4781756963244
20
1.9478194337585
30
0
41
1
10
37.6804114652332
20
1.84550773360266
30
0
41
1
10
38.0870399933669
20
1.6376392187419
30
0
41
1
10
38.291091831337
20
1.53156197444332
30
0
41
1
10
38.7003333364634
20
1.31444709236806
30
0
41
1
10
38.9048576426322
20
1.20349181670864
30
0
41
1
10
39.5145813707437
20
0.866339657898322
30
0
41
1
10
39.9204158201059
20
0.640178212781109
30
0
41
1
10
40.5264639632197
20
0.295780969321612
30
0
41
1
10
40.7276709754962
20
0.179483149871004
30
0
41
1
10
41.1308462214588
20
-0.0518726890090022
30
0
41
1
10
41.3328036581054
20
-0.166949102353271
30
0
41
1
10
41.7369811977798
20
-0.396747695159377
30
0
41
1
10
41.9392279569448
20
-0.511422329692493
30
0
41
1
10
42.3436105160696
20
-0.741087432412002
30
0
41
1
10
42.5458257004856
20
-0.855936955987943
30
0
41
1
10
43.155816278119
20
-1.19468881763009
30
0
41
1
10
43.5669418886584
20
-1.41645827959911
30
0
41
1
10
44.3785733339799
20
-1.8448285074644
30
0
41
1
10
44.7838473216416
20
-2.04671376194943
30
0
41
1
10
45.3892977817321
20
-2.33444182138479
30
0
41
1
10
45.5903436790925
20
-2.42829083648462
30
0
41
1
10
45.9931982137407
20
-2.60853844351715
30
0
41
1
10
46.1950342686327
20
-2.69494454750375
30
0
41
1
10
46.5990330186994
20
-2.86105900169022
30
0
41
1
10
46.8012234489772
20
-2.94073126803363
30
0
41
1
10
47.2055699693863
20
-3.09364044906502
30
0
41
1
10
47.4077655289238
20
-3.16678496901241
30
0
41
1
10
47.8144790887073
20
-3.30385596617123
30
0
41
1
10
48.0189749697659
20
-3.36830122028852
30
0
41
1
10
48.4277681307664
20
-3.48862421967036
30
0
41
1
10
48.6312211498936
20
-3.54436679525958
30
0
41
1
10
49.2389785605162
20
-3.69801763026857
30
0
41
1
10
49.6436916588694
20
-3.78023100446328
30
0
41
1
10
50.2485640213149
20
-3.87530693477748
30
0
41
1
10
50.4494570397677
20
-3.90235376648047
30
0
41
1
10
50.8519886992194
20
-3.94617358082448
30
0
41
1
10
51.0537116677422
20
-3.9629876976247
30
0
41
1
10
51.4575608555998
20
-3.98668782668517
30
0
41
1
10
51.6597163563908
20
-3.9935670632147
30
0
41
1
10
51.8839379038695
20
-3.99555121625687
30
0
41
1
10
51.9059756039295
20
-3.99568487691641
30
0
41
1
10
51.9280150464107
20
-3.99575723657136
30
0
0
SPLINE
5
BB
100
AcDbEntity
8
1
62
256
6
ByLayer
370
18
48
1
60
0
100
AcDbSpline
70
4
71
3
72
14
73
10
40
0
40
0
40
0
40
0
40
0.25
40
0.25
40
0.5
40
0.5
40
0.75
40
0.75
40
1
40
1
40
1
40
1
41
1
10
9.00604466416456
20
-0.874183300270147
30
0
41
1
10
8.59890347363489
20
-0.661225345448372
30
0
41
1
10
8.19582157827509
20
-0.439310950818651
30
0
41
1
10
7.39361239073077
20
0.0149602204271844
30
0
41
1
10
6.99445233208769
20
0.247495951324026
30
0
41
1
10
6.19725068509118
20
0.718212821087292
30
0
41
1
10
5.79780387900453
20
0.957278163423553
30
0
41
1
10
5.01411760777609
20
1.43089727720681
30
0
41
1
10
4.62826937805244
20
1.66618858657577
30
0
41
1
10
4.25174800179835
20
1.90121061373841
30
0
0
SPLINE
5
BC
100
AcDbEntity
8
1
62
256
6
ByLayer
370
18
48
1
60
0
100
AcDbSpline
70
4
71
3
72
62
73
58
40
0
40
0
40
0
40
0
40
0.0625000000000095
40
0.0625000000000095
40
0.125000000000019
40
0.125000000000019
40
0.250000000000039
40
0.250000000000039
40
0.375000000000059
40
0.375000000000059
40
0.437500000000069
40
0.437500000000069
40
0.500000000000078
40
0.500000000000078
40
0.625000000000096
40
0.625000000000096
40
0.687500000000105
40
0.687500000000105
40
0.695312500000105
40
0.695312500000105
40
0.699218750000105
40
0.699218750000105
40
0.701171875000105
40
0.701171875000105
40
0.703125000000105
40
0.703125000000105
40
0.718750000000099
40
0.718750000000099
40
0.750000000000088
40
0.750000000000088
40
0.765625000000083
40
0.765625000000083
40
0.781250000000078
40
0.781250000000078
40
0.789062500000075
40
0.789062500000075
40
0.796875000000073
40
0.796875000000073
40
0.812500000000067
40
0.812500000000067
40
0.820312500000065
40
0.820312500000065
40
0.828125000000062
40
0.828125000000062
40
0.843750000000056
40
0.843750000000056
40
0.875000000000045
40
0.875000000000045
40
0.890625000000039
40
0.890625000000039
40
0.906250000000034
40
0.906250000000034
40
0.937500000000022
40
0.937500000000022
40
0.968750000000011
40
0.968750000000011
40
1
40
1
40
1
40
1
41
1
10
14.7289512348727
20
2.36978916635653
30
0
41
1
10
14.4076812982499
20
2.51395768983045
30
0
41
1
10
14.0831083980786
20
2.64549501897929
30
0
41
1
10
13.4270948723862
20
2.88573666532909
30
0
41
1
10
13.0953668750679
20
2.99441224691782
30
0
41
1
10
12.0992257889682
20
3.28546138507591
30
0
41
1
10
11.4303118911487
20
3.43412500782463
30
0
41
1
10
10.0747113104143
20
3.65834217061163
30
0
41
1
10
9.38794752732892
20
3.73376871345133
30
0
41
1
10
8.33955683255189
20
3.80874121738938
30
0
41
1
10
7.98707432899769
20
3.82742196614916
30
0
41
1
10
7.27555785165995
20
3.8553628167555
30
0
41
1
10
6.91582251991014
20
3.86464072549148
30
0
41
1
10
5.83223245160221
20
3.88304327552348
30
0
41
1
10
5.10459496838635
20
3.88321844997776
30
0
41
1
10
4.00447245250507
20
3.88081867501202
30
0
41
1
10
3.63618877436767
20
3.87948533658763
30
0
41
1
10
3.22051743999867
20
3.87813333604228
30
0
41
1
10
3.17432198522195
20
3.87798459073349
30
0
41
1
10
3.10502531744541
20
3.87776486408419
30
0
41
1
10
3.08198987877927
20
3.87771958505593
30
0
41
1
10
3.04778299644883
20
3.87777604065241
30
0
41
1
10
3.03673040932293
20
3.87781215726514
30
0
41
1
10
3.01597331862521
20
3.87791437629599
30
0
41
1
10
3.00653387508453
20
3.87798854365721
30
0
41
1
10
2.9209217019629
20
3.87847370009052
30
0
41
1
10
2.84644819455954
20
3.8779625468444
30
0
41
1
10
2.62957714807945
20
3.87260768421049
30
0
41
1
10
2.4950039308313
20
3.86414578810425
30
0
41
1
10
2.31851750540622
20
3.83827831477802
30
0
41
1
10
2.26387004850369
20
3.82742444544459
30
0
41
1
10
2.16573446280023
20
3.79933401581062
30
0
41
1
10
2.12324309511794
20
3.78227979613479
30
0
41
1
10
2.07270262948779
20
3.7515540302486
30
0
41
1
10
2.05798202992722
20
3.7404297388907
30
0
41
1
10
2.03318945995559
20
3.71618871827255
30
0
41
1
10
2.02317049867028
20
3.70306182390368
30
0
41
1
10
2.00113496689244
20
3.6615600322055
30
0
41
1
10
1.99675039265873
20
3.63075161099653
30
0
41
1
10
2.00508400207062
20
3.57963877709952
30
0
41
1
10
2.0103979962191
20
3.56172856405956
30
0
41
1
10
2.02547047131188
20
3.52513373369493
30
0
41
1
10
2.03523022930179
20
3.50635323792568
30
0
41
1
10
2.07049087292401
20
3.44863868409908
30
0
41
1
10
2.10228264173944
20
3.40799422781467
30
0
41
1
10
2.21432919352335
20
3.28420368688953
30
0
41
1
10
2.31040804568184
20
3.1990293951319
30
0
41
1
10
2.47371296056954
20
3.06768758402336
30
0
41
1
10
2.53111500914136
20
3.02359830795552
30
0
41
1
10
2.64947713714642
20
2.93558196679493
30
0
41
1
10
2.7106222600857
20
2.89151271401303
30
0
41
1
10
2.89876694479597
20
2.75896261689715
30
0
41
1
10
3.03041390183503
20
2.67013176585178
30
0
41
1
10
3.30242378576762
20
2.49102998319899
30
0
41
1
10
3.44321121700384
20
2.40052989033919
30
0
41
1
10
3.7277280879324
20
2.22019315234806
30
0
41
1
10
3.87188974699532
20
2.13007870127333
30
0
41
1
10
4.01748986522676
20
2.03980494121717
30
0
0
SPLINE
5
BD
100
AcDbEntity
8
1
62
256
6
ByLayer
370
18
48
1
60
0
100
AcDbSpline
70
4
71
3
72
8
73
4
40
0
40
0
40
0
40
0
40
1
40
1
40
1
40
1
41
1
10
54.832775224267
20
0.925807050759744
30
0
41
1
10
54.8691536505786
20
0.741264588315062
30
0
41
1
10
54.902627919295
20
0.556633567472403
30
0
41
1
10
54.933172
20
0.371913194469045
30
0
0
SPLINE
5
BE
100
AcDbEntity
8
1
62
256
6
ByLayer
370
18
48
1
60
0
100
AcDbSpline
70
4
71
3
72
8
73
4
40
0
40
0
40
0
40
0
40
1
40
1
40
1
40
1
41
1
10
54.933172
20
0.371913194469045
30
0
41
1
10
54.9374685338235
20
0.344505151670916
30
0
41
1
10
54.9417024617197
20
0.317088423999792
30
0
41
1
10
54.9458737178133
20
0.289663002317212
30
0
0
SPLINE
5
BF
100
AcDbEntity
8
1
62
256
6
ByLayer
370
13
48
1
60
0
100
AcDbSpline
70
4
71
3
72
10
73
6
40
0
40
0
40
0
40
0
40
0.5
40
0.5
40
1
40
1
40
1
40
1
41
1
10
4.12871352689925
20
-2.85575996692941
30
0
41
1
10
4.14759776658289
20
-2.85167991273676
30
0
41
1
10
4.16773890021662
20
-2.84977717971324
30
0
41
1
10
4.20861576156918
20
-2.85023182556515
30
0
41
1
10
4.22949727845415
20
-2.8525290184642
30
0
41
1
10
4.25082398774563
20
-2.85699032338241
30
0
0
SPLINE
5
C0
100
AcDbEntity
8
1
62
256
6
ByLayer
370
13
48
1
60
0
100
AcDbSpline
70
4
71
3
72
8
73
4
40
0
40
0
40
0
40
0
40
1
40
1
40
1
40
1
41
1
10
54.1031250783554
20
0.970946001343833
30
0
41
1
10
53.9495345228738
20
1.07316648576517
30
0
41
1
10
53.8014916959553
20
1.18748614697412
30
0
41
1
10
53.661350968644
20
1.31846299262602
30
0
0
SPLINE
5
C1
100
AcDbEntity
8
1
62
256
6
ByLayer
370
18
48
1
60
0
100
AcDbSpline
70
4
71
3
72
12
73
8
40
0
40
0
40
0
40
0
40
0.25
40
0.25
40
0.5
40
0.5
40
1
40
1
40
1
40
1
41
1
10
54.5533789152051
20
-1.84509430550852
30
0
41
1
10
54.5848796403245
20
-1.76133108326306
30
0
41
1
10
54.6147612187558
20
-1.67870025401817
30
0
41
1
10
54.670970639776
20
-1.51569674032905
30
0
41
1
10
54.697461888391
20
-1.43479233741647
30
0
41
1
10
54.769629581682
20
-1.1994394543089
30
0
41
1
10
54.8072067171648
20
-1.0555123662476
30
0
41
1
10
54.832775224267
20
-0.925807050759744
30
0
0
SPLINE
5
C2
100
AcDbEntity
8
1
62
256
6
ByLayer
370
18
48
1
60
0
100
AcDbSpline
70
4
71
3
72
8
73
4
40
0
40
0
40
0
40
0
40
1
40
1
40
1
40
1
41
1
10
54.2119321453288
20
-2.09372914752271
30
0
41
1
10
54.0003165197737
20
-2.67513830033917
30
0
41
1
10
53.7887008942187
20
-3.25654745315569
30
0
41
1
10
53.5770852686636
20
-3.83795660597232
30
0
0
SPLINE
5
C3
100
AcDbEntity
8
1
62
256
6
ByLayer
370
18
48
1
60
0
100
AcDbSpline
70
4
71
3
72
78
73
74
40
0
40
0
40
0
40
0
40
0.0386870214427041
40
0.0386870214427041
40
0.0793746623245767
40
0.0793746623245767
40
0.160749944088322
40
0.160749944088322
40
0.242125225852067
40
0.242125225852067
40
0.28281286673394
40
0.28281286673394
40
0.323500507615812
40
0.323500507615812
40
0.404875789379557
40
0.404875789379557
40
0.44556343026143
40
0.44556343026143
40
0.486251071143302
40
0.486251071143302
40
0.491337026253536
40
0.492608515031095
40
0.493244259419874
40
0.493562131614264
40
0.493562131614264
40
0.493721067711459
40
0.493721067711459
40
0.493880003808654
40
0.493880003808654
40
0.495151492586212
40
0.495151492586212
40
0.496422981363771
40
0.496422981363771
40
0.506594891584242
40
0.506594891584242
40
0.526938712025182
40
0.526938712025182
40
0.567626352907064
40
0.567626352907064
40
0.649001634670827
40
0.649001634670827
40
0.73037691643459
40
0.73037691643459
40
0.750720736875531
40
0.750720736875531
40
0.771064557316472
40
0.771064557316472
40
0.776150512426707
40
0.776150512426707
40
0.776786256815487
40
0.776786256815487
40
0.776945192912681
40
0.776945192912681
40
0.777104129009876
40
0.777104129009876
40
0.777263065107071
40
0.777263065107071
40
0.777422001204266
40
0.778693489981825
40
0.781236467536942
40
0.791408377757411
40
0.791408377757411
40
0.81175219819835
40
0.81175219819835
40
0.852439839080227
40
0.852439839080227
40
0.893127479962105
40
0.893127479962105
40
0.974502761725859
40
0.974502761725859
40
0.994846582166798
40
0.994846582166798
40
1
40
1
40
1
40
1
41
1
10
14.7289504220057
20
2.36979655420404
30
0
41
1
10
14.560482589507
20
2.39076909263187
30
0
41
1
10
14.391565063414
20
2.40731898373201
30
0
41
1
10
14.0436716710536
20
2.43121558083431
30
0
41
1
10
13.8641966884196
20
2.4380342234991
30
0
41
1
10
13.3263992220212
20
2.44067986712187
30
0
41
1
10
12.969177742884
20
2.41867357536407
30
0
41
1
10
12.2530090059655
20
2.32569736804163
30
0
41
1
10
11.8940419149139
20
2.25473190626613
30
0
41
1
10
11.3498542272062
20
2.11391724674172
30
0
41
1
10
11.1682404728861
20
2.06145422569068
30
0
41
1
10
10.8070320561939
20
1.94770015320606
30
0
41
1
10
10.6269528789099
20
1.88628916331459
30
0
41
1
10
10.0871265117005
20
1.69063545084413
30
0
41
1
10
9.72777785311143
20
1.54497954884687
30
0
41
1
10
9.18511607883366
20
1.31242039241346
30
0
41
1
10
9.00362566962477
20
1.23255325962299
30
0
41
1
10
8.63872436788969
20
1.06957732843733
30
0
41
1
10
8.45498124587982
20
0.986315418366502
30
0
41
1
10
8.24828458742255
20
0.892332988549555
30
0
41
1
10
8.21957401002666
20
0.879273151493635
30
0
41
1
10
8.18798922612888
20
0.864901399272213
30
0
41
1
10
8.17793920938172
20
0.860328069730912
30
0
41
1
10
8.17363199436724
20
0.858367973072689
30
0
41
1
10
8.17147837606555
20
0.857387909027295
30
0
41
1
10
8.17055623990947
20
0.856992749434056
30
0
41
1
10
8.17071267696005
20
0.855422920003093
30
0
41
1
10
8.1711846764488
20
0.854742326009671
30
0
41
1
10
8.17523131590704
20
0.849026587534951
30
0
41
1
10
8.18039851019117
20
0.845314844765795
30
0
41
1
10
8.19007110472469
20
0.837499691317078
30
0
41
1
10
8.19502659967324
20
0.833730075328248
30
0
41
1
10
8.23993887199563
20
0.800305344718311
30
0
41
1
10
8.28165218982269
20
0.773049964971506
30
0
41
1
10
8.40643067384323
20
0.691013542590497
30
0
41
1
10
8.49049700548056
20
0.63769797241892
30
0
41
1
10
8.74318814123205
20
0.478722248871122
30
0
41
1
10
8.9125473251589
20
0.374439726895616
30
0
41
1
10
9.4214102969506
20
0.0636927241160095
30
0
41
1
10
9.76163818323465
20
-0.140737538343757
30
0
41
1
10
10.4421856133872
20
-0.546115967119363
30
0
41
1
10
10.7824731934867
20
-0.747409123239464
30
0
41
1
10
11.2056501580615
20
-0.999329895104523
30
0
41
1
10
11.2901733191586
20
-1.04972588018629
30
0
41
1
10
11.4586880217657
20
-1.15080785351276
30
0
41
1
10
11.543009012535
20
-1.2012466159139
30
0
41
1
10
11.6462342120591
20
-1.26587993623832
30
0
41
1
10
11.6671285282231
20
-1.2786844076532
30
0
41
1
10
11.688816269458
20
-1.29422723400526
30
0
41
1
10
11.6912083418384
20
-1.29596720375505
30
0
41
1
10
11.6938939026496
20
-1.29826814942857
30
0
41
1
10
11.6944156250742
20
-1.29873485933837
30
0
41
1
10
11.695351025422
20
-1.29971409203159
30
0
41
1
10
11.695979953691
20
-1.30034191450755
30
0
41
1
10
11.6953612715577
20
-1.301059263762
30
0
41
1
10
11.6945006797959
20
-1.30103399954538
30
0
41
1
10
11.6932631523493
20
-1.30131322293013
30
0
41
1
10
11.6876942597242
20
-1.30256825336122
30
0
41
1
10
11.6722245626894
20
-1.30601758154981
30
0
41
1
10
11.6177659828374
20
-1.31781219163281
30
0
41
1
10
11.5682487500569
20
-1.32747567979993
30
0
41
1
10
11.4493634300743
20
-1.34859759758797
30
0
41
1
10
11.3699866184107
20
-1.35992197098665
30
0
41
1
10
11.1320780077571
20
-1.38528182952294
30
0
41
1
10
10.9734874139823
20
-1.39078009354847
30
0
41
1
10
10.6530629566931
20
-1.37809025542916
30
0
41
1
10
10.4906641409063
20
-1.35967739878811
30
0
41
1
10
10.0031914493891
20
-1.26992541453416
30
0
41
1
10
9.67470752119138
20
-1.16395201100303
30
0
41
1
10
9.24523134783354
20
-0.983501291810796
30
0
41
1
10
9.15849699636721
20
-0.945055272076416
30
0
41
1
10
9.05001039259687
20
-0.894854352485254
30
0
41
1
10
9.02807537350424
20
-0.884596836252086
30
0
41
1
10
9.00613084183138
20
-0.874232420715572
30
0
0
SPLINE
5
C4
100
AcDbEntity
8
1
62
256
6
ByLayer
370
18
48
1
60
0
100
AcDbSpline
70
4
71
3
72
20
73
16
40
0
40
0
40
0
40
0
40
0.25
40
0.25
40
0.375
40
0.375
40
0.5
40
0.5
40
0.625
40
0.625
40
0.75
40
0.75
40
0.875
40
0.875
40
1
40
1
40
1
40
1
41
1
10
53.6934001861454
20
-3.87262459318262
30
0
41
1
10
53.7641891779809
20
-3.71389922750439
30
0
41
1
10
53.8360650510649
20
-3.55004479591815
30
0
41
1
10
53.944765173312
20
-3.30137821570401
30
0
41
1
10
53.9812315663681
20
-3.21779762661674
30
0
41
1
10
54.0539359375547
20
-3.04928216261828
30
0
41
1
10
54.0901969098708
20
-2.96454952377636
30
0
41
1
10
54.1625881676592
20
-2.79445270143316
30
0
41
1
10
54.1987690069301
20
-2.70920388654392
30
0
41
1
10
54.2709064525755
20
-2.53797239067927
30
0
41
1
10
54.3068280070076
20
-2.45175999901596
30
0
41
1
10
54.3781397631691
20
-2.2788667938604
30
0
41
1
10
54.4134929480144
20
-2.19225086210426
30
0
41
1
10
54.4837843508198
20
-2.01879472640096
30
0
41
1
10
54.5188248794826
20
-1.93198903504836
30
0
41
1
10
54.5533789152051
20
-1.84509430550855
30
0
0
SPLINE
5
C5
100
AcDbEntity
8
1
62
256
6
ByLayer
370
13
48
1
60
0
100
AcDbSpline
70
4
71
3
72
8
73
4
40
0
40
0
40
0
40
0
40
1
40
1
40
1
40
1
41
1
10
4.12871352689928
20
-2.9775038597096
30
0
41
1
10
4.1516573735002
20
-2.97571029809583
30
0
41
1
10
4.17667308013722
20
-2.97947209669465
30
0
41
1
10
4.20217274771261
20
-2.98829962102454
30
0
0
SPLINE
5
C6
100
AcDbEntity
8
1
62
256
6
ByLayer
370
18
48
1
60
0
100
AcDbSpline
70
4
71
3
72
14
73
10
40
0
40
0
40
0
40
0
40
0.25
40
0.25
40
0.5
40
0.5
40
0.75
40
0.75
40
1
40
1
40
1
40
1
41
1
10
4.25174800024334
20
1.9012106146993
30
0
41
1
10
4.23001301209314
20
1.91477744329907
30
0
41
1
10
4.20779051300346
20
1.92849524709885
30
0
41
1
10
4.16203280056735
20
1.9563153982688
30
0
41
1
10
4.13898311326099
20
1.9701136676627
30
0
41
1
10
4.09471818927372
20
1.99614987176204
30
0
41
1
10
4.07447564432852
20
2.0078149776418
30
0
41
1
10
4.04020000134622
20
2.02726268652995
30
0
41
1
10
4.02680859772428
20
2.03469109339704
30
0
41
1
10
4.01748986530751
20
2.03980494116672
30
0
0
SPLINE
5
C7
100
AcDbEntity
8
1
62
256
6
ByLayer
370
13
48
1
60
0
100
AcDbSpline
70
4
71
3
72
8
73
4
40
0
40
0
40
0
40
0
40
1
40
1
40
1
40
1
41
1
10
4.04901432462921
20
-2.96502235437757
30
0
41
1
10
4.06952717256067
20
-2.97003967998427
30
0
41
1
10
4.09627257828134
20
-2.97433607159735
30
0
41
1
10
4.12871352689928
20
-2.9775038597096
30
0
0
SPLINE
5
C8
100
AcDbEntity
8
1
62
256
6
ByLayer
370
18
48
1
60
0
100
AcDbSpline
70
4
71
3
72
20
73
16
40
0
40
0
40
0
40
0
40
0.250000000000006
40
0.250000000000006
40
0.375000000000005
40
0.375000000000005
40
0.500000000000004
40
0.500000000000004
40
0.625000000000003
40
0.625000000000003
40
0.750000000000002
40
0.750000000000002
40
0.875000000000001
40
0.875000000000001
40
1
40
1
40
1
40
1
41
1
10
53.6934001861454
20
3.87262459318262
30
0
41
1
10
53.7641892007997
20
3.71389917633928
30
0
41
1
10
53.8360654401344
20
3.55004390743446
30
0
41
1
10
53.9447663288421
20
3.30137557148566
30
0
41
1
10
53.9812329233883
20
3.21779449534719
30
0
41
1
10
54.0539368325709
20
3.04928007407798
30
0
41
1
10
54.0901976691174
20
2.96454774560533
30
0
41
1
10
54.1625887799319
20
2.79445125696259
30
0
41
1
10
54.1987695888963
20
2.70920251591954
30
0
41
1
10
54.270907105362
20
2.53797083039055
30
0
41
1
10
54.3068289332342
20
2.45175776514159
30
0
41
1
10
54.3781402682948
20
2.27886555746386
30
0
41
1
10
54.4134933199218
20
2.1922499473738
30
0
41
1
10
54.4837845465012
20
2.01879424050799
30
0
41
1
10
54.5188249210077
20
1.93198893062299
30
0
41
1
10
54.5533789152051
20
1.84509430550855
30
0
0
SPLINE
5
C9
100
AcDbEntity
8
1
62
256
6
ByLayer
370
18
48
1
60
0
100
AcDbSpline
70
4
71
3
72
18
73
14
40
0
40
0
40
0
40
0
40
0.125000000000002
40
0.125000000000002
40
0.250000000000005
40
0.250000000000005
40
0.500000000000003
40
0.500000000000003
40
0.750000000000001
40
0.750000000000001
40
0.875000000000001
40
0.875000000000001
40
1
40
1
40
1
40
1
41
1
10
54.5350371347372
20
-1.20600548501068
30
0
41
1
10
54.5378483654852
20
-1.2230762237759
30
0
41
1
10
54.5375520676526
20
-1.24665983462987
30
0
41
1
10
54.5300971572951
20
-1.30777784752428
30
0
41
1
10
54.523126082404
20
-1.34370158001079
30
0
41
1
10
54.492710387978
20
-1.46661834413345
30
0
41
1
10
54.4611158638405
20
-1.56234835832626
30
0
41
1
10
54.3896629725124
20
-1.7486435404742
30
0
41
1
10
54.3508965326206
20
-1.8369389593021
30
0
41
1
10
54.2954141363539
20
-1.95019300668216
30
0
41
1
10
54.2772490935805
20
-1.98492967321172
30
0
41
1
10
54.2431623611705
20
-2.04555001501612
30
0
41
1
10
54.2268910653241
20
-2.07207994481087
30
0
41
1
10
54.2119321453289
20
-2.09372914752242
30
0
0
SPLINE
5
CA
100
AcDbEntity
8
1
62
256
6
ByLayer
370
18
48
1
60
0
100
AcDbSpline
70
4
71
3
72
8
73
4
40
0
40
0
40
0
40
0
40
1
40
1
40
1
40
1
41
1
10
53.5770852686649
20
-3.83795660597181
30
0
41
1
10
53.5821189091329
20
-3.83940434342634
30
0
41
1
10
53.587457246882
20
-3.83996536700914
30
0
41
1
10
53.5931084534673
20
-3.83964562694061
30
0
0
SPLINE
5
CB
100
AcDbEntity
8
1
62
256
6
ByLayer
370
18
48
1
60
0
100
AcDbSpline
70
4
71
3
72
8
73
4
40
0
40
0
40
0
40
0
40
1
40
1
40
1
40
1
41
1
10
53.6554420175969
20
-3.81107249170299
30
0
41
1
10
53.6635685193767
20
-3.8049794046957
30
0
41
1
10
53.6720734386053
20
-3.79792212641851
30
0
41
1
10
53.6809664390988
20
-3.78990769370043
30
0
0
SPLINE
5
CC
100
AcDbEntity
8
1
62
256
6
ByLayer
370
13
48
1
60
0
100
AcDbSpline
70
4
71
3
72
18
73
14
40
0
40
0
40
0
40
0
40
0.126390302400784
40
0.126390302400784
40
0.252780604801569
40
0.252780604801569
40
0.505561209603135
40
0.505561209603135
40
0.758341814404702
40
0.758341814404702
40
0.884732116805486
40
0.884732116805486
40
1
40
1
40
1
40
1
41
1
10
4.20217274771264
20
-2.98829962102454
30
0
41
1
10
4.46275441289816
20
-3.0785082867863
30
0
41
1
10
4.72314165633895
20
-3.16215173981897
30
0
41
1
10
5.24418755256769
20
-3.31580710942939
30
0
41
1
10
5.50508534543849
20
-3.38584936993971
30
0
41
1
10
6.28406077575102
20
-3.57337314586616
30
0
41
1
10
6.80007022524265
20
-3.66885388951937
30
0
41
1
10
7.83175027448416
20
-3.79737209344106
30
0
41
1
10
8.34735038001685
20
-3.83053290924056
30
0
41
1
10
9.12489208645155
20
-3.83192955503694
30
0
41
1
10
9.38533847448801
20
-3.82429743885046
30
0
41
1
10
9.88268649581821
20
-3.79424806652253
30
0
41
1
10
10.1189817750057
20
-3.77326253946464
30
0
41
1
10
10.3546190169099
20
-3.74580877005559
30
0
0
SPLINE
5
CD
100
AcDbEntity
8
1
62
256
6
ByLayer
370
18
48
1
60
0
100
AcDbSpline
70
4
71
3
72
22
73
18
40
0
40
0
40
0
40
0
40
0.135056832443602
40
0.135056832443602
40
0.28249448186764
40
0.28249448186764
40
0.356213306579659
40
0.356213306579659
40
0.429932131291679
40
0.429932131291679
40
0.724807430139749
40
0.724807430139749
40
0.798526254851767
40
0.798526254851767
40
0.872245079563785
40
0.872245079563785
40
1
40
1
40
1
40
1
41
1
10
36.8479895422005
20
2.42045296236316
30
0
41
1
10
37.3172315312873
20
2.21397636367749
30
0
41
1
10
37.7853032850577
20
1.99109511041067
30
0
41
1
10
38.7666984466558
20
1.49775689323147
30
0
41
1
10
39.280510672684
20
1.22532375376184
30
0
41
1
10
40.0575609556934
20
0.799988390142829
30
0
41
1
10
40.316663574679
20
0.656388523931923
30
0
41
1
10
40.8319245460152
20
0.368295502213499
30
0
41
1
10
41.0886463919983
20
0.223538755573912
30
0
41
1
10
42.3698500310863
20
-0.499965778665199
30
0
41
1
10
43.3870657226728
20
-1.07790050446445
30
0
41
1
10
44.678983186275
20
-1.74522416686182
30
0
41
1
10
44.9385880842318
20
-1.87601603797609
30
0
41
1
10
45.4542966242413
20
-2.12767413321495
30
0
41
1
10
45.7111753489738
20
-2.24895594736185
30
0
41
1
10
46.4116806487623
20
-2.5665146418375
30
0
41
1
10
46.8542469774869
20
-2.75246735928033
30
0
41
1
10
47.2969861269045
20
-2.92077187495417
30
0
0
SPLINE
5
CE
100
AcDbEntity
8
1
62
256
6
ByLayer
370
13
48
1
60
0
100
AcDbSpline
70
4
71
3
72
20
73
16
40
0
40
0
40
0
40
0
40
0.0322967717044157
40
0.0322967717044157
40
0.274222578778313
40
0.274222578778313
40
0.39518548231526
40
0.39518548231526
40
0.516148385852209
40
0.516148385852209
40
0.758074192926105
40
0.758074192926105
40
0.879037096463052
40
0.879037096463052
40
1
40
1
40
1
40
1
41
1
10
47.2969861265482
20
-2.92077187481883
30
0
41
1
10
47.3651973130583
20
-2.94670193030379
30
0
41
1
10
47.4334126017143
20
-2.97221308052684
30
0
41
1
10
48.0126996240392
20
-3.18519466175704
30
0
41
1
10
48.524492842049
20
-3.34906498498574
30
0
41
1
10
49.297821195183
20
-3.55305911356757
30
0
41
1
10
49.5572686800997
20
-3.61422624815734
30
0
41
1
10
50.0736256329967
20
-3.72069177665702
30
0
41
1
10
50.3308236720826
20
-3.76610378253889
30
0
41
1
10
51.1007439206486
20
-3.87859938452755
30
0
41
1
10
51.6118756058393
20
-3.92196715606627
30
0
41
1
10
52.3796416556653
20
-3.93872457012188
30
0
41
1
10
52.6357610267
20
-3.93625509902978
30
0
41
1
10
53.1490564380654
20
-3.9150234755067
30
0
41
1
10
53.4062838856866
20
-3.89585108330422
30
0
41
1
10
53.6642676796236
20
-3.86934051324082
30
0
0
SPLINE
5
CF
100
AcDbEntity
8
1
62
256
6
ByLayer
370
13
48
1
60
0
100
AcDbSpline
70
4
71
3
72
10
73
6
40
0
40
0
40
0
40
0
40
0.5
40
0.5
40
1
40
1
40
1
40
1
41
1
10
4.01708338013336
20
-2.90430593405668
30
0
41
1
10
4.0271728266668
20
-2.89471899888704
30
0
41
1
10
4.04138242742496
20
-2.88564388538276
30
0
41
1
10
4.07927420758341
20
-2.86882665941098
30
0
41
1
10
4.10192691958102
20
-2.86154737544112
30
0
41
1
10
4.12871352689925
20
-2.85575996692941
30
0
0
SPLINE
5
D0
100
AcDbEntity
8
1
62
256
6
ByLayer
370
18
48
1
60
0
100
AcDbSpline
70
4
71
3
72
24
73
20
40
0
40
0
40
0
40
0
40
0.0625
40
0.0625
40
0.125
40
0.125
40
0.25
40
0.25
40
0.3125
40
0.3125
40
0.375
40
0.375
40
0.5
40
0.5
40
0.625
40
0.625
40
0.75
40
0.75
40
1
40
1
40
1
40
1
41
1
10
50.5061057825363
20
0.209693019317626
30
0
41
1
10
50.5276569465121
20
0.123896539146699
30
0
41
1
10
50.5527081058399
20
0.0377666746154262
30
0
41
1
10
50.6083554728823
20
-0.131249906653863
30
0
41
1
10
50.6389451282936
20
-0.21428035791493
30
0
41
1
10
50.7383003728383
20
-0.459318416426328
30
0
41
1
10
50.8146252882216
20
-0.617287128701207
30
0
41
1
10
50.9423975582748
20
-0.847142169871432
30
0
41
1
10
50.9870779918435
20
-0.922303325816841
30
0
41
1
10
51.0792141608197
20
-1.06833170633547
30
0
41
1
10
51.1268164666117
20
-1.13946529886684
30
0
41
1
10
51.2737709360995
20
-1.34778214426837
30
0
41
1
10
51.3772448322931
20
-1.47991311377456
30
0
41
1
10
51.5936306088837
20
-1.73260628392487
30
0
41
1
10
51.7069710976956
20
-1.85356048622472
30
0
41
1
10
51.9401957613599
20
-2.0831706817219
30
0
41
1
10
52.0593697888835
20
-2.19120899676977
30
0
41
1
10
52.4235053634053
20
-2.49785423890424
30
0
41
1
10
52.6750041277702
20
-2.67919294418823
30
0
41
1
10
52.933748142041
20
-2.84139314215818
30
0
0
SPLINE
5
D1
100
AcDbEntity
8
1
62
256
6
ByLayer
370
18
48
1
60
0
100
AcDbSpline
70
4
71
3
72
14
73
10
40
0
40
0
40
0
40
0
40
0.25
40
0.25
40
0.5
40
0.5
40
0.75
40
0.75
40
1
40
1
40
1
40
1
41
1
10
53.6809664390516
20
-3.78990769374303
30
0
41
1
10
53.6834578064452
20
-3.78766245645085
30
0
41
1
10
53.6852973049682
20
-3.78713731360997
30
0
41
1
10
53.6872551384815
20
-3.7905855761108
30
0
41
1
10
53.68732156181
20
-3.79467063341417
30
0
41
1
10
53.6847618063721
20
-3.80873827081561
30
0
41
1
10
53.6820897087379
20
-3.81875090848021
30
0
41
1
10
53.6744334062722
20
-3.84245703697135
30
0
41
1
10
53.669494516303
20
-3.8560291382708
30
0
41
1
10
53.6642676796242
20
-3.86934051324079
30
0
0
SPLINE
5
D2
100
AcDbEntity
8
1
62
256
6
ByLayer
370
18
48
1
60
0
100
AcDbSpline
70
4
71
3
72
8
73
4
40
0
40
0
40
0
40
0
40
1
40
1
40
1
40
1
41
1
10
53.664267679624
20
-3.8693405132411
30
0
41
1
10
53.6561089949288
20
-3.89011853212952
30
0
41
1
10
53.6479447173851
20
-3.91089163838797
30
0
41
1
10
53.6397755148064
20
-3.93165924928707
30
0
0
SPLINE
5
D3
100
AcDbEntity
8
1
62
256
6
ByLayer
370
18
48
1
60
0
100
AcDbSpline
70
4
71
3
72
8
73
4
40
0
40
0
40
0
40
0
40
1
40
1
40
1
40
1
41
1
10
54.832775224267
20
-0.925807050759744
30
0
41
1
10
54.8691536505786
20
-0.741264588314948
30
0
41
1
10
54.902627919295
20
-0.556633567472176
30
0
41
1
10
54.9331720000001
20
-0.371913194468732
30
0
0
SPLINE
5
D4
100
AcDbEntity
8
1
62
256
6
ByLayer
370
18
48
1
60
0
100
AcDbSpline
70
4
71
3
72
54
73
50
40
0
40
0
40
0
40
0
40
0.0431313321746833
40
0.0431313321746833
40
0.0862626643493667
40
0.0862626643493667
40
0.12939399652405
40
0.12939399652405
40
0.172525328698733
40
0.172525328698733
40
0.215656660873417
40
0.215656660873417
40
0.2587879930481
40
0.2587879930481
40
0.301919325222783
40
0.301919325222783
40
0.345050657397467
40
0.345050657397467
40
0.38818198957215
40
0.38818198957215
40
0.431313321746833
40
0.431313321746833
40
0.474444653921517
40
0.474444653921517
40
0.5175759860962
40
0.5175759860962
40
0.560707318270883
40
0.560707318270883
40
0.603838650445567
40
0.603838650445567
40
0.64696998262025
40
0.64696998262025
40
0.690101314794933
40
0.690101314794933
40
0.733232646969617
40
0.733232646969617
40
0.7763639791443
40
0.7763639791443
40
0.819495311318983
40
0.819495311318983
40
0.862626643493667
40
0.862626643493667
40
0.90575797566835
40
0.90575797566835
40
0.948889307843033
40
0.948889307843033
40
0.992020640017717
40
0.992020640017717
40
1
40
1
40
1
40
1
41
1
10
9.00620218631818
20
-0.8742661163989
30
0
41
1
10
9.22462205876988
20
-0.989098544242125
30
0
41
1
10
9.44239099312691
20
-1.10176330290642
30
0
41
1
10
9.87679078224031
20
-1.32326995467409
30
0
41
1
10
10.0933934907037
20
-1.4321674046806
30
0
41
1
10
10.5255595358477
20
-1.6454109068633
30
0
41
1
10
10.7410439367298
20
-1.74978519425295
30
0
41
1
10
11.1722383436672
20
-1.95215888168369
30
0
41
1
10
11.3877866672263
20
-2.05055936780599
30
0
41
1
10
11.8187628405119
20
-2.24170102875425
30
0
41
1
10
12.0341160622219
20
-2.33441446746497
30
0
41
1
10
12.4652227505703
20
-2.51288520206518
30
0
41
1
10
12.6812580128657
20
-2.59841558376101
30
0
41
1
10
13.1141586683682
20
-2.76273455085754
30
0
41
1
10
13.3310620722582
20
-2.84093462586759
30
0
41
1
10
13.7659791246029
20
-2.98910948883037
30
0
41
1
10
13.9844644250265
20
-3.05935390891821
30
0
41
1
10
14.4202636128681
20
-3.19032161175241
30
0
41
1
10
14.6375928419187
20
-3.25145676261295
30
0
41
1
10
15.0707406576223
20
-3.36230331490216
30
0
41
1
10
15.2865852325163
20
-3.41265186993749
30
0
41
1
10
15.717798468664
20
-3.50385246309369
30
0
41
1
10
15.9334016954751
20
-3.54497954140581
30
0
41
1
10
16.3642480894019
20
-3.61604803486972
30
0
41
1
10
16.5795075501574
20
-3.64534944937333
30
0
41
1
10
17.0099945665235
20
-3.69431413005662
30
0
41
1
10
17.2252713112071
20
-3.71381195035053
30
0
41
1
10
17.6568864122686
20
-3.74330061592559
30
0
41
1
10
17.8730818247724
20
-3.75208172569299
30
0
41
1
10
18.3064493628975
20
-3.75747492881254
30
0
41
1
10
18.5234772366871
20
-3.75476428856192
30
0
41
1
10
18.9590616837961
20
-3.73939542342637
30
0
41
1
10
19.1775495851983
20
-3.7271329536795
30
0
41
1
10
19.6129728450288
20
-3.68867225731202
30
0
41
1
10
19.8303886657921
20
-3.66355505761243
30
0
41
1
10
20.2648628466749
20
-3.60365984482735
30
0
41
1
10
20.4820581733967
20
-3.56903273511011
30
0
41
1
10
20.9171789854957
20
-3.48904306404992
30
0
41
1
10
21.1349847010896
20
-3.44267547736359
30
0
41
1
10
21.5711952366987
20
-3.34015068925316
30
0
41
1
10
21.7887278018135
20
-3.28390826227877
30
0
41
1
10
22.2237582052834
20
-3.16355496911973
30
0
41
1
10
22.4412383122791
20
-3.09882221654732
30
0
41
1
10
22.8760490345276
20
-2.95866554460554
30
0
41
1
10
23.0934318366162
20
-2.88389301700431
30
0
41
1
10
23.5282983536256
20
-2.72641197470509
30
0
41
1
10
23.7462827816486
20
-2.64408352646845
30
0
41
1
10
24.0045450583795
20
-2.541395296454
30
0
41
1
10
24.0448516384352
20
-2.52522257936806
30
0
41
1
10
24.0851460728548
20
-2.50891512148974
30
0
0
SPLINE
5
D5
100
AcDbEntity
8
1
62
256
6
ByLayer
370
18
48
1
60
0
100
AcDbSpline
70
4
71
3
72
36
73
32
40
0
40
0
40
0
40
0
40
0.0135632741921181
40
0.0135632741921181
40
0.0752155695551111
40
0.0752155695551111
40
0.136867864918104
40
0.136867864918104
40
0.198520160281097
40
0.198520160281097
40
0.26017245564409
40
0.26017245564409
40
0.321824751007083
40
0.321824751007083
40
0.383477046370077
40
0.383477046370077
40
0.44512934173307
40
0.44512934173307
40
0.506781637096063
40
0.506781637096063
40
0.568433932459055
40
0.568433932459055
40
0.630086227822048
40
0.630086227822048
40
0.753390818548032
40
0.753390818548032
40
0.815043113911023
40
0.815043113911023
40
0.876695409274014
40
0.876695409274014
40
1
40
1
40
1
40
1
41
1
10
40.0077301194304
20
3.80734824663404
30
0
41
1
10
40.0551732027294
20
3.80752165681088
30
0
41
1
10
40.1026407580933
20
3.80744359076624
30
0
41
1
10
40.3660040530334
20
3.80561280116947
30
0
41
1
10
40.5824124800025
20
3.79826767738425
30
0
41
1
10
41.016539979478
20
3.77131978788219
30
0
41
1
10
41.2336089896717
20
3.75187551750849
30
0
41
1
10
41.6662888272663
20
3.70351013725153
30
0
41
1
10
41.882162514833
20
3.67469967689459
30
0
41
1
10
42.3126543205844
20
3.60505519308265
30
0
41
1
10
42.5272311765947
20
3.56450879915511
30
0
41
1
10
42.9561720587738
20
3.47414409270959
30
0
41
1
10
43.1707276543541
20
3.42488702791655
30
0
41
1
10
43.5996890917755
20
3.31644309197012
30
0
41
1
10
43.8141060821612
20
3.25664939872777
30
0
41
1
10
44.2430426047489
20
3.12692760707108
30
0
41
1
10
44.4576703902117
20
3.05718391383962
30
0
41
1
10
44.8882897907668
20
2.90941751474193
30
0
41
1
10
45.104120225847
20
2.83119265124043
30
0
41
1
10
45.536829883829
20
2.66624873902134
30
0
41
1
10
45.7539582874718
20
2.57925390238182
30
0
41
1
10
46.1879796326777
20
2.39860962440375
30
0
41
1
10
46.4048488431211
20
2.3050721389458
30
0
41
1
10
47.0547840621331
20
2.01368213555162
30
0
41
1
10
47.4867951510049
20
1.80513099945395
30
0
41
1
10
48.1376901145636
20
1.47897369211918
30
0
41
1
10
48.3552773797641
20
1.36761427311299
30
0
41
1
10
48.7880974574796
20
1.14193094552681
30
0
41
1
10
49.0035790340729
20
1.02719990587545
30
0
41
1
10
49.6491358436504
20
0.680801932224796
30
0
41
1
10
50.078183427643
20
0.446646154579298
30
0
41
1
10
50.5061057825365
20
0.209693019317484
30
0
0
SPLINE
5
D6
100
AcDbEntity
8
1
62
256
6
ByLayer
370
18
48
1
60
0
100
AcDbSpline
70
4
71
3
72
24
73
20
40
0
40
0
40
0
40
0
40
0.0603493543777931
40
0.0603493543777931
40
0.205245379696174
40
0.205245379696174
40
0.277693392355365
40
0.277693392355365
40
0.350141405014555
40
0.350141405014555
40
0.639933455651316
40
0.639933455651316
40
0.712381468310506
40
0.712381468310506
40
0.784829480969696
40
0.784829480969696
40
0.929725506288075
40
0.929725506288075
40
1
40
1
40
1
40
1
41
1
10
15.9681155754577
20
1.99156912481172
30
0
41
1
10
16.1822245343189
20
1.88998322554639
30
0
41
1
10
16.3960491429154
20
1.78563839533697
30
0
41
1
10
17.1230992507307
20
1.42273473094636
30
0
41
1
10
17.6358454693553
20
1.15243800661477
30
0
41
1
10
18.4089497303734
20
0.733912413551963
30
0
41
1
10
18.6672770805977
20
0.592149394446722
30
0
41
1
10
19.1859334899479
20
0.305344968526185
30
0
41
1
10
19.4465354561577
20
0.16028949748943
30
0
41
1
10
20.7408711318429
20
-0.560649556767714
30
0
41
1
10
21.761017786585
20
-1.13025951260943
30
0
41
1
10
23.0468021238134
20
-1.78072769421021
30
0
41
1
10
23.3045209203114
20
-1.90769854524456
30
0
41
1
10
23.8218034083667
20
-2.15412327665479
30
0
41
1
10
24.0821312082649
20
-2.27396991651813
30
0
41
1
10
24.8598072358261
20
-2.61701797145315
30
0
41
1
10
25.3740434630811
20
-2.82395586515528
30
0
41
1
10
26.1358261283066
20
-3.09409032717926
30
0
41
1
10
26.3843442057478
20
-3.17644296294313
30
0
41
1
10
26.6329187263096
20
-3.25255512034451
30
0
0
SPLINE
5
D7
100
AcDbEntity
8
1
62
256
6
ByLayer
370
13
48
1
60
0
100
AcDbSpline
70
4
71
3
72
20
73
16
40
0
40
0
40
0
40
0
40
0.144846135781561
40
0.144846135781561
40
0.285473304035696
40
0.285473304035696
40
0.426100472289831
40
0.426100472289831
40
0.707354808798107
40
0.707354808798107
40
0.847981977052247
40
0.847981977052247
40
0.988609145306387
40
0.988609145306387
40
1
40
1
40
1
40
1
41
1
10
26.6329187264503
20
-3.25255512038757
30
0
41
1
10
26.8968695635122
20
-3.33337542172279
30
0
41
1
10
27.1608840425834
20
-3.40715931936225
30
0
41
1
10
27.6821410061948
20
-3.53784307001547
30
0
41
1
10
27.9393558830842
20
-3.59517791433694
30
0
41
1
10
28.4553992144789
20
-3.69506317098433
30
0
41
1
10
28.7145323575222
20
-3.73765883378061
30
0
41
1
10
29.4936743104122
20
-3.84172549543524
30
0
41
1
10
30.011137663652
20
-3.87900626692001
30
0
41
1
10
30.7890174571134
20
-3.88587825442207
30
0
41
1
10
31.0490816110199
20
-3.87996315109765
30
0
41
1
10
31.5667983448572
20
-3.85193215430448
30
0
41
1
10
31.824766971166
20
-3.82985190754275
30
0
41
1
10
32.1031243246995
20
-3.79749679004902
30
0
41
1
10
32.1239787964599
20
-3.79502100159917
30
0
41
1
10
32.144830356952
20
-3.79249393766764
30
0
0
SPLINE
5
D8
100
AcDbEntity
8
1
62
256
6
ByLayer
370
18
48
1
60
0
100
AcDbSpline
70
4
71
3
72
8
73
4
40
0
40
0
40
0
40
0
40
1
40
1
40
1
40
1
41
1
10
53.6397755148064
20
3.93165924928704
30
0
41
1
10
53.2102668626216
20
3.97638099443535
30
0
41
1
10
52.7814602897865
20
3.998115879908
30
0
41
1
10
52.3517588130733
20
3.99678145937182
30
0
0
SPLINE
5
D9
100
AcDbEntity
8
1
62
256
6
ByLayer
370
18
48
1
60
0
100
AcDbSpline
70
4
71
3
72
46
73
42
40
0
40
0
40
0
40
0
40
0.0236383993891282
40
0.0236383993891282
40
0.0889359472905691
40
0.0889359472905691
40
0.121584721241289
40
0.121584721241289
40
0.154233495192009
40
0.154233495192009
40
0.21953104309345
40
0.21953104309345
40
0.25217981704417
40
0.25217981704417
40
0.28482859099489
40
0.28482859099489
40
0.415423686797771
40
0.415423686797771
40
0.448072460748492
40
0.448072460748492
40
0.480721234699213
40
0.480721234699213
40
0.546018782600653
40
0.546018782600653
40
0.611316330502093
40
0.611316330502093
40
0.643965104452814
40
0.643965104452814
40
0.660289491428174
40
0.660289491428174
40
0.676613878403534
40
0.676613878403534
40
0.807208974206415
40
0.807208974206415
40
0.839857748157134
40
0.839857748157134
40
0.872506522107854
40
0.872506522107854
40
0.937804070009294
40
0.937804070009294
40
1
40
1
40
1
40
1
41
1
10
32.5592145826929
20
-3.79368534045574
30
0
41
1
10
32.3731567015077
20
-3.82275301143372
30
0
41
1
10
32.1874042399261
20
-3.84765460699921
30
0
41
1
10
31.4891405984056
20
-3.9255664411636
30
0
41
1
10
30.9776124244661
20
-3.9507463596413
30
0
41
1
10
30.2076027637375
20
-3.93970357178341
30
0
41
1
10
29.9504708701721
20
-3.92788342677662
30
0
41
1
10
29.4344576367053
20
-3.88785626270951
30
0
41
1
10
29.1752734700463
20
-3.85960836642667
30
0
41
1
10
28.3959930366319
20
-3.75037088095084
30
0
41
1
10
27.8786972293529
20
-3.64561102333764
30
0
41
1
10
27.101193056124
20
-3.4440325004648
30
0
41
1
10
26.8415259856812
20
-3.36934466583929
30
0
41
1
10
26.3219577457852
20
-3.20607589439174
30
0
41
1
10
26.0633547301903
20
-3.11786599520528
30
0
41
1
10
24.7739936521916
20
-2.64703655968273
30
0
41
1
10
23.754322171593
20
-2.17496967710542
30
0
41
1
10
22.4642500926809
20
-1.50903694032056
30
0
41
1
10
22.2054359534812
20
-1.37210028475104
30
0
41
1
10
21.6854016492891
20
-1.09191474502308
30
0
41
1
10
21.4261041362207
20
-0.949663550070028
30
0
41
1
10
20.6513960920215
20
-0.519702914305299
30
0
41
1
10
20.1381176778684
20
-0.228475102623861
30
0
41
1
10
19.11182274287
20
0.352122848615977
30
0
41
1
10
18.5989327545786
20
0.641720108177736
30
0
41
1
10
17.8251137116832
20
1.06629579780863
30
0
41
1
10
17.5664903325752
20
1.20629829458795
30
0
41
1
10
17.1768670367515
20
1.41282574384445
30
0
41
1
10
17.0465704800769
20
1.48114474678007
30
0
41
1
10
16.7868387330147
20
1.61564476557152
30
0
41
1
10
16.6572388794848
20
1.68191416450594
30
0
41
1
10
15.4928141850983
20
2.26895312373978
30
0
41
1
10
14.4720004162068
20
2.72420914890355
30
0
41
1
10
13.1827187519781
20
3.16829879187324
30
0
41
1
10
12.9242214334087
20
3.25090428640885
30
0
41
1
10
12.405225287977
20
3.40270413135769
30
0
41
1
10
12.1442952153001
20
3.4719181694866
30
0
41
1
10
11.3664425120266
20
3.65565738324486
30
0
41
1
10
10.851704555826
20
3.74739268984789
30
0
41
1
10
9.8481417524242
20
3.86472406271321
30
0
41
1
10
9.35922361183165
20
3.89324428908122
30
0
41
1
10
8.86833998887653
20
3.892417420399
30
0
0
SPLINE
5
DA
100
AcDbEntity
8
1
62
256
6
ByLayer
370
18
48
1
60
0
100
AcDbSpline
70
4
71
3
72
90
73
86
40
0
40
0
40
0
40
0
40
0.0183458932970408
40
0.0183458932970408
40
0.0418659042811061
40
0.0418659042811061
40
0.0653859152651713
40
0.0653859152651713
40
0.0889059262492366
40
0.0889059262492366
40
0.112425937233302
40
0.112425937233302
40
0.135945948217367
40
0.135945948217367
40
0.159465959201432
40
0.159465959201432
40
0.182985970185498
40
0.182985970185498
40
0.206505981169563
40
0.206505981169563
40
0.230025992153628
40
0.230025992153628
40
0.253546003137693
40
0.253546003137693
40
0.277066014121759
40
0.277066014121759
40
0.300586025105824
40
0.300586025105824
40
0.324106036089889
40
0.324106036089889
40
0.347626047073954
40
0.347626047073954
40
0.37114605805802
40
0.37114605805802
40
0.394666069042085
40
0.394666069042085
40
0.41818608002615
40
0.41818608002615
40
0.441706091010215
40
0.441706091010215
40
0.465226101994281
40
0.465226101994281
40
0.488746112978346
40
0.488746112978346
40
0.512266123962411
40
0.512266123962411
40
0.535786134946476
40
0.535786134946476
40
0.582826156914606
40
0.582826156914606
40
0.60634616789867
40
0.60634616789867
40
0.629866178882734
40
0.629866178882734
40
0.653386189866798
40
0.653386189866798
40
0.676906200850862
40
0.676906200850862
40
0.700426211834926
40
0.700426211834926
40
0.723946222818991
40
0.723946222818991
40
0.747466233803056
40
0.747466233803056
40
0.77098624478712
40
0.77098624478712
40
0.794506255771185
40
0.794506255771185
40
0.818026266755249
40
0.818026266755249
40
0.841546277739314
40
0.841546277739314
40
0.865066288723379
40
0.865066288723379
40
0.888586299707444
40
0.888586299707444
40
0.912106310691508
40
0.912106310691508
40
0.935626321675573
40
0.935626321675573
40
0.959146332659638
40
0.959146332659638
40
0.982666343643702
40
0.982666343643702
40
1
40
1
40
1
40
1
41
1
10
45.8331109192951
20
-2.54584910786093
30
0
41
1
10
45.6656966084007
20
-2.61440077684304
30
0
41
1
10
45.498162887877
20
-2.68089087962721
30
0
41
1
10
45.1149889704078
20
-2.82716803412705
30
0
41
1
10
44.8992303402829
20
-2.90553150930668
30
0
41
1
10
44.4666506492212
20
-3.05422819162084
30
0
41
1
10
44.2496303447976
20
-3.12487271958005
30
0
41
1
10
43.8153626480488
20
-3.25633083942614
30
0
41
1
10
43.5988802900255
20
-3.31668493069103
30
0
41
1
10
43.1670612870967
20
-3.42577614844376
30
0
41
1
10
42.951642568982
20
-3.4751667046678
30
0
41
1
10
42.5219167086705
20
-3.56555842372777
30
0
41
1
10
42.3074558294751
20
-3.60597472093266
30
0
41
1
10
41.878395026821
20
-3.67522899720029
30
0
41
1
10
41.6638704390076
20
-3.70378898824839
30
0
41
1
10
41.2348676520105
20
-3.75172627875639
30
0
41
1
10
41.0205825794331
20
-3.77095223386445
30
0
41
1
10
40.5912092288977
20
-3.79783480960259
30
0
41
1
10
40.3760275960797
20
-3.8053667686745
30
0
41
1
10
39.944500268069
20
-3.80871118449457
30
0
41
1
10
39.7282224989495
20
-3.8051654471509
30
0
41
1
10
39.2948330305671
20
-3.78753913903131
30
0
41
1
10
39.0771001177099
20
-3.77322250343545
30
0
41
1
10
38.6436573473593
20
-3.73272498963587
30
0
41
1
10
38.4275453707605
20
-3.70668474921476
30
0
41
1
10
37.9963504504739
20
-3.64531715325128
30
0
41
1
10
37.7814882003542
20
-3.60961790889903
30
0
41
1
10
37.3519997250909
20
-3.52741486231145
30
0
41
1
10
37.1373360713485
20
-3.48047140088039
30
0
41
1
10
36.7080531326235
20
-3.37791513305515
30
0
41
1
10
36.4934764977244
20
-3.32254939886116
30
0
41
1
10
36.0644788842799
20
-3.20123937492409
30
0
41
1
10
35.849776513044
20
-3.13558342802057
30
0
41
1
10
35.4191250464989
20
-2.99479494932905
30
0
41
1
10
35.2033622819742
20
-2.92040796374437
30
0
41
1
10
34.7709797769498
20
-2.76321549193744
30
0
41
1
10
34.5544918847755
20
-2.67987298081044
30
0
41
1
10
34.1193058384305
20
-2.50462429506331
30
0
41
1
10
33.902301719933
20
-2.41337157702293
30
0
41
1
10
33.4693998888283
20
-2.22580412347401
30
0
41
1
10
33.2535487118717
20
-2.12903195467843
30
0
41
1
10
32.8230881587287
20
-1.92889700712101
30
0
41
1
10
32.6081641964402
20
-1.82593247464024
30
0
41
1
10
32.1783040034807
20
-1.61602766303559
30
0
41
1
10
31.9634569838695
20
-1.50916082257695
30
0
41
1
10
31.5339188379696
20
-1.29075106370985
30
0
41
1
10
31.319391031673
20
-1.17894627351566
30
0
41
1
10
30.6742081683963
20
-0.83948855855806
30
0
41
1
10
30.2425913923561
20
-0.608265279545037
30
0
41
1
10
29.592011456824
20
-0.253266043117293
30
0
41
1
10
29.373901269344
20
-0.134086708828164
30
0
41
1
10
28.9384902016084
20
0.103327543772792
30
0
41
1
10
28.7210267177098
20
0.221816680745491
30
0
41
1
10
28.2865546385123
20
0.457938015742315
30
0
41
1
10
28.0696553888464
20
0.57577254425442
30
0
41
1
10
27.6350591974889
20
0.808636219472817
30
0
41
1
10
27.4175195987431
20
0.924001834082873
30
0
41
1
10
26.9818146682532
20
1.15208020743796
30
0
41
1
10
26.7638823460454
20
1.26469227299674
30
0
41
1
10
26.3304495056112
20
1.48458788298168
30
0
41
1
10
26.1141425647612
20
1.59208941253087
30
0
41
1
10
25.682226826999
20
1.80187810386568
30
0
41
1
10
25.4666456842101
20
1.90418134146438
30
0
41
1
10
25.0362600545052
20
2.10196117483701
30
0
41
1
10
24.8214884456739
20
2.19787372047105
30
0
41
1
10
24.391460096495
20
2.38345406593081
30
0
41
1
10
24.1763548632947
20
2.47312319701072
30
0
41
1
10
23.7457393961878
20
2.64425739133742
30
0
41
1
10
23.5302737554335
20
2.72565204392134
30
0
41
1
10
23.0988048641246
20
2.88199106031953
30
0
41
1
10
22.8825492174406
20
2.95646674717364
30
0
41
1
10
22.4486507979048
20
3.09653314224562
30
0
41
1
10
22.2304687003748
20
3.16161906935727
30
0
41
1
10
21.7946246873358
20
3.28235400670357
30
0
41
1
10
21.5775574689858
20
3.33853737020894
30
0
41
1
10
21.1440193020153
20
3.44066588283042
30
0
41
1
10
20.9276799635628
20
3.48688959003684
30
0
41
1
10
20.49583877569
20
3.56671026703882
30
0
41
1
10
20.2804154748622
20
3.60123420637683
30
0
41
1
10
19.8498034736029
20
3.66113821872489
30
0
41
1
10
19.6344535614372
20
3.68630049209853
30
0
41
1
10
19.203507153792
20
3.72526489574236
30
0
41
1
10
18.9877959690901
20
3.73789493778662
30
0
41
1
10
18.6130206359485
20
3.7519072148954
30
0
41
1
10
18.4539418882073
20
3.75524171751064
30
0
41
1
10
18.2945608661367
20
3.75573115292516
30
0
0
SPLINE
5
DB
100
AcDbEntity
8
1
62
256
6
ByLayer
370
18
48
1
60
0
100
AcDbSpline
70
4
71
3
72
16
73
12
40
0
40
0
40
0
40
0
40
0.25
40
0.25
40
0.500000000000001
40
0.500000000000001
40
0.750000000000001
40
0.750000000000001
40
0.875
40
0.875
40
1
40
1
40
1
40
1
41
1
10
53.5799208359498
20
0.963787845400617
30
0
41
1
10
53.5680588749796
20
0.996483060007506
30
0
41
1
10
53.5585373437966
20
1.0296113031778
30
0
41
1
10
53.5459659824762
20
1.09704983373081
30
0
41
1
10
53.5427411984209
20
1.1317786176773
30
0
41
1
10
53.5481262253697
20
1.20129856644562
30
0
41
1
10
53.556791641991
20
1.23597437801271
30
0
41
1
10
53.586478907427
20
1.27887584240392
30
0
41
1
10
53.5989974003219
20
1.29105581215856
30
0
41
1
10
53.6280563090333
20
1.3092786207954
30
0
41
1
10
53.6443734761436
20
1.31524067062429
30
0
41
1
10
53.6613509686439
20
1.31846299262645
30
0
0
SPLINE
5
DC
100
AcDbEntity
8
1
62
256
6
ByLayer
370
18
48
1
60
0
100
AcDbSpline
70
4
71
3
72
8
73
4
40
0
40
0
40
0
40
0
40
1
40
1
40
1
40
1
41
1
10
53.6934001861454
20
-3.87262459318262
30
0
41
1
10
53.6742426928895
20
-3.89533785035408
30
0
41
1
10
53.6563911583835
20
-3.9150114604785
30
0
41
1
10
53.6397755148064
20
-3.93165924928707
30
0
0
SPLINE
5
DD
100
AcDbEntity
8
1
62
256
6
ByLayer
370
18
48
1
60
0
100
AcDbSpline
70
4
71
3
72
10
73
6
40
0
40
0
40
0
40
0
40
0.5
40
0.5
40
1
40
1
40
1
40
1
41
1
10
54.9998964220413
20
0.0472397435109144
30
0
41
1
10
54.992103783324
20
0.0249957962811322
30
0
41
1
10
54.9833995436298
20
0.0025800567337058
30
0
41
1
10
54.9654208342662
20
-0.0392934834659115
30
0
41
1
10
54.9559398653139
20
-0.0592523292767169
30
0
41
1
10
54.9465667385306
20
-0.0771061301774978
30
0
0
SPLINE
5
DE
100
AcDbEntity
8
1
62
256
6
ByLayer
370
18
48
1
60
0
100
AcDbSpline
70
4
71
3
72
14
73
10
40
0
40
0
40
0
40
0
40
0.450542586697203
40
0.450542586697203
40
0.62283985664972
40
0.62283985664972
40
0.795137126602236
40
0.795137126602236
40
1
40
1
40
1
40
1
41
1
10
52.6133475261274
20
-3.83732492438065
30
0
41
1
10
51.9434184371646
20
-3.83844017153311
30
0
41
1
10
51.2760493467213
20
-3.78561341890352
30
0
41
1
10
50.3485730182386
20
-3.6402633180204
30
0
41
1
10
50.0914625362526
20
-3.5923977606125
30
0
41
1
10
49.5753525759466
20
-3.481574946981
30
0
41
1
10
49.3162253949555
20
-3.41854496777529
30
0
41
1
10
48.7525273229705
20
-3.26627093919475
30
0
41
1
10
48.4476030086375
20
-3.17411409741456
30
0
41
1
10
48.1433230425203
20
-3.07332176995126
30
0
0
SPLINE
5
DF
100
AcDbEntity
8
1
62
256
6
ByLayer
370
13
48
1
60
0
100
AcDbSpline
70
4
71
3
72
24
73
20
40
0
40
0
40
0
40
0
40
0.0581521798724797
40
0.0581521798724797
40
0.201562218336273
40
0.201562218336273
40
0.273267237568169
40
0.273267237568169
40
0.344972256800065
40
0.344972256800065
40
0.631792333727649
40
0.631792333727649
40
0.703497352959545
40
0.703497352959545
40
0.775202372191441
40
0.775202372191441
40
0.918612410655237
40
0.918612410655237
40
1
40
1
40
1
40
1
41
1
10
48.1433230424958
20
-3.07332176994322
30
0
41
1
10
47.9357815487959
20
-3.00457393070073
30
0
41
1
10
47.7285398220727
20
-2.93180864658461
30
0
41
1
10
47.0105769549071
20
-2.66656205047468
30
0
41
1
10
46.5002839120947
20
-2.45496778042951
30
0
41
1
10
45.7315942196036
20
-2.10867493755671
30
0
41
1
10
45.4748108984382
20
-1.98845976160481
30
0
41
1
10
44.9593550766146
20
-1.73953641869414
30
0
41
1
10
44.6999671759235
20
-1.61045340928007
30
0
41
1
10
43.409506417611
20
-0.953218695398306
30
0
41
1
10
42.3925610875739
20
-0.387335960246702
30
0
41
1
10
41.1118570535022
20
0.31695799696962
30
0
41
1
10
40.8552473781561
20
0.457672890989869
30
0
41
1
10
40.340245052206
20
0.737262400550378
30
0
41
1
10
40.0812316845968
20
0.876409997692832
30
0
41
1
10
39.3050888174665
20
1.28762634464408
30
0
41
1
10
38.7916793690228
20
1.55028598748086
30
0
41
1
10
37.9892286164432
20
1.93815753534108
30
0
41
1
10
37.6991004606373
20
2.07351640616051
30
0
41
1
10
37.4088478967414
20
2.20302100602296
30
0
0
SPLINE
5
E0
100
AcDbEntity
8
1
62
256
6
ByLayer
370
18
48
1
60
0
100
AcDbSpline
70
4
71
3
72
16
73
12
40
0
40
0
40
0
40
0
40
0.0341161721009006
40
0.0341161721009006
40
0.356077448067267
40
0.356077448067267
40
0.678038724033635
40
0.678038724033635
40
0.839019362016817
40
0.839019362016817
40
1
40
1
40
1
40
1
41
1
10
9.075294419551
20
-3.7329276773043
30
0
41
1
10
9.02032092891469
20
-3.73284299332391
30
0
41
1
10
8.9653872242705
20
-3.73240499597051
30
0
41
1
10
8.39259442096107
20
-3.72414678654474
30
0
41
1
10
7.87731697963324
20
-3.68536107998818
30
0
41
1
10
6.84629473218311
20
-3.54757805812693
30
0
41
1
10
6.33060099369689
20
-3.4485083180069
30
0
41
1
10
5.55232392545696
20
-3.2573008863578
30
0
41
1
10
5.29170593856682
20
-3.18630730569609
30
0
41
1
10
4.77121661276234
20
-3.03131657713814
30
0
41
1
10
4.51110997159245
20
-2.94728821968056
30
0
41
1
10
4.2508239877456
20
-2.85699032338241
30
0
0
SPLINE
5
E1
100
AcDbEntity
8
1
62
256
6
ByLayer
370
13
48
1
60
0
100
AcDbSpline
70
4
71
3
72
8
73
4
40
0
40
0
40
0
40
0
40
1
40
1
40
1
40
1
41
1
10
4.12769622624069
20
-3.00944896700977
30
0
41
1
10
4.1280340124575
20
-2.99880142835656
30
0
41
1
10
4.1283731118568
20
-2.98815306388357
30
0
41
1
10
4.12871352689928
20
-2.97750385970957
30
0
0
SPLINE
5
E2
100
AcDbEntity
8
1
62
256
6
ByLayer
370
18
48
1
60
0
100
AcDbSpline
70
4
71
3
72
50
73
46
40
0
40
0
40
0
40
0
40
0.0791140602425448
40
0.0791140602425448
40
0.118671090363817
40
0.118671090363817
40
0.15822812048509
40
0.15822812048509
40
0.197785150606362
40
0.197785150606362
40
0.237342180727634
40
0.237342180727634
40
0.276899210848907
40
0.276899210848907
40
0.316456240970179
40
0.316456240970179
40
0.395570301212724
40
0.395570301212724
40
0.435127331333997
40
0.435127331333997
40
0.47468436145527
40
0.47468436145527
40
0.514241391576543
40
0.514241391576543
40
0.553798421697816
40
0.553798421697816
40
0.593355451819089
40
0.593355451819089
40
0.632912481940362
40
0.632912481940362
40
0.712026542182909
40
0.712026542182909
40
0.751583572304183
40
0.751583572304183
40
0.791140602425455
40
0.791140602425455
40
0.830697632546728
40
0.830697632546728
40
0.870254662668001
40
0.870254662668001
40
0.909811692789274
40
0.909811692789274
40
0.949368722910547
40
0.949368722910547
40
1
40
1
40
1
40
1
41
1
10
14.7289512348738
20
2.36978916635604
30
0
41
1
10
15.1386916327001
20
2.18475971026967
30
0
41
1
10
15.5477726561161
20
1.99203153898256
30
0
41
1
10
16.1575861031172
20
1.68752822707958
30
0
41
1
10
16.3598936176252
20
1.58287607754241
30
0
41
1
10
16.7649219462852
20
1.37113372503521
30
0
41
1
10
16.9676564303184
20
1.2640895572105
30
0
41
1
10
17.3730996339902
20
1.04691919554503
30
0
41
1
10
17.5758350419567
20
0.936839057601503
30
0
41
1
10
17.9808823962606
20
0.712827172713503
30
0
41
1
10
18.1832601066048
20
0.598990306589712
30
0
41
1
10
18.5899331592008
20
0.371642727877202
30
0
41
1
10
18.7938870205844
20
0.257529491423554
30
0
41
1
10
19.2026825623506
20
0.0277510053405479
30
0
41
1
10
19.4078272720514
20
-0.0883375546072784
30
0
41
1
10
20.0217913272805
20
-0.437344290334153
30
0
41
1
10
20.4299417224892
20
-0.664307210007109
30
0
41
1
10
21.0388544215577
20
-0.999623566948401
30
0
41
1
10
21.2409047846232
20
-1.11114878483812
30
0
41
1
10
21.6455324089717
20
-1.32956226081316
30
0
41
1
10
21.8480962025091
20
-1.43650113926003
30
0
41
1
10
22.2532619761912
20
-1.64668712782836
30
0
41
1
10
22.4558900452326
20
-1.74989097969686
30
0
41
1
10
22.8607859928502
20
-1.95316487910352
30
0
41
1
10
23.0631529607335
20
-2.05305087045946
30
0
41
1
10
23.4698548190933
20
-2.24598159316454
30
0
41
1
10
23.6738524242668
20
-2.33957085355163
30
0
41
1
10
24.082796745867
20
-2.52147358901954
30
0
41
1
10
24.2881270816501
20
-2.61014374329881
30
0
41
1
10
24.9008556164885
20
-2.86569137313401
30
0
41
1
10
25.3083478825057
20
-3.01865934012812
30
0
41
1
10
25.9164041456055
20
-3.22532958180355
30
0
41
1
10
26.1181991121565
20
-3.29070044267272
30
0
41
1
10
26.5224076416123
20
-3.41195251847211
30
0
41
1
10
26.7247867440599
20
-3.46793205665514
30
0
41
1
10
27.1296354055294
20
-3.57114063884447
30
0
41
1
10
27.3321306385532
20
-3.61834917493528
30
0
41
1
10
27.7368154305365
20
-3.70407747643122
30
0
41
1
10
27.939122304391
20
-3.74245898934757
30
0
41
1
10
28.3457657882244
20
-3.80901782412377
30
0
41
1
10
28.5497654385648
20
-3.83743025004642
30
0
41
1
10
28.9587786510575
20
-3.88456027990878
30
0
41
1
10
29.1640233196966
20
-3.90330722002406
30
0
41
1
10
29.6289212948087
20
-3.93420093705194
30
0
41
1
10
29.8895551209928
20
-3.94301371212828
30
0
41
1
10
30.1495251864566
20
-3.94354172104127
30
0
0
SPLINE
5
E3
100
AcDbEntity
8
1
62
256
6
ByLayer
370
18
48
1
60
0
100
AcDbSpline
70
4
71
3
72
30
73
26
40
0
40
0
40
0
40
0
40
0.071207419283936
40
0.071207419283936
40
0.148606801010277
40
0.148606801010277
40
0.226006182736618
40
0.226006182736618
40
0.303405564462959
40
0.303405564462959
40
0.3808049461893
40
0.3808049461893
40
0.535603709641978
40
0.535603709641978
40
0.613003091368315
40
0.613003091368315
40
0.690402473094652
40
0.690402473094652
40
0.767801854820989
40
0.767801854820989
40
0.845201236547326
40
0.845201236547326
40
0.922600618273663
40
0.922600618273663
40
1
40
1
40
1
40
1
41
1
10
45.840121306586
20
2.53997320316151
30
0
41
1
10
46.0254930898621
20
2.62234201383942
30
0
41
1
10
46.2111942497031
20
2.70158913844551
30
0
41
1
10
46.599033018699
20
2.86105900169005
30
0
41
1
10
46.8012234489769
20
2.94073126803349
30
0
41
1
10
47.2055699693859
20
3.09364044906491
30
0
41
1
10
47.4077655289234
20
3.1667849690123
30
0
41
1
10
47.8144790887069
20
3.30385596617111
30
0
41
1
10
48.0189749697655
20
3.36830122028843
30
0
41
1
10
48.427768130766
20
3.48862421967027
30
0
41
1
10
48.6312211498933
20
3.54436679525949
30
0
41
1
10
49.238978560516
20
3.69801763026851
30
0
41
1
10
49.6436916588691
20
3.78023100446322
30
0
41
1
10
50.2485640213147
20
3.87530693477746
30
0
41
1
10
50.4494570397675
20
3.90235376648045
30
0
41
1
10
50.8519886992192
20
3.94617358082445
30
0
41
1
10
51.0537116677421
20
3.96298769762467
30
0
41
1
10
51.4575608555996
20
3.98668782668517
30
0
41
1
10
51.6597163563906
20
3.9935670632147
30
0
41
1
10
52.0640844630739
20
3.99714534647094
30
0
41
1
10
52.2662858494353
20
3.99377045179708
30
0
41
1
10
52.6730963884541
20
3.9767694279727
30
0
41
1
10
52.8777123435717
20
3.96312882555961
30
0
41
1
10
53.2862563269246
20
3.92561056278021
30
0
41
1
10
53.4900519265882
20
3.90172724312831
30
0
41
1
10
53.6934001861453
20
3.87262459318262
30
0
0
SPLINE
5
E4
100
AcDbEntity
8
1
62
256
6
ByLayer
370
18
48
1
60
0
100
AcDbSpline
70
4
71
3
72
22
73
18
40
0
40
0
40
0
40
0
40
0.25
40
0.25
40
0.5
40
0.5
40
0.625
40
0.625
40
0.75
40
0.75
40
0.8125
40
0.8125
40
0.875
40
0.875
40
0.9375
40
0.9375
40
1
40
1
40
1
40
1
41
1
10
53.6613509686439
20
1.31846299262645
30
0
41
1
10
53.7520262218468
20
1.33567312324169
30
0
41
1
10
53.8417963173272
20
1.35550543756284
30
0
41
1
10
54.0183779903236
20
1.4040511315483
30
0
41
1
10
54.1057369780951
20
1.43276557560259
30
0
41
1
10
54.2307807373303
20
1.48816268860094
30
0
41
1
10
54.2713288050094
20
1.50866065484215
30
0
41
1
10
54.3490638061329
20
1.55582840371943
30
0
41
1
10
54.3858904664812
20
1.58232488843947
30
0
41
1
10
54.4354257762656
20
1.62768393396732
30
0
41
1
10
54.4510300717334
20
1.64377866844353
30
0
41
1
10
54.4799981523526
20
1.67840888348707
30
0
41
1
10
54.4934629594056
20
1.69714635735292
30
0
41
1
10
54.5167786342862
20
1.73631318786167
30
0
41
1
10
54.5267125490906
20
1.75678853725631
30
0
41
1
10
54.5429065401161
20
1.79967751402126
30
0
41
1
10
54.5491799863483
20
1.82229914447717
30
0
41
1
10
54.5533789152051
20
1.84509430550855
30
0
0
SPLINE
5
E5
100
AcDbEntity
8
1
62
256
6
ByLayer
370
18
48
1
60
0
100
AcDbSpline
70
4
71
3
72
18
73
14
40
0
40
0
40
0
40
0
40
0.249999999999999
40
0.249999999999999
40
0.374999999999998
40
0.374999999999998
40
0.499999999999998
40
0.499999999999998
40
0.75
40
0.75
40
0.875
40
0.875
40
1
40
1
40
1
40
1
41
1
10
53.5770852686635
20
-3.83795660597178
30
0
41
1
10
53.4913374870951
20
-3.83123644030928
30
0
41
1
10
53.4117350440313
20
-3.80638348997661
30
0
41
1
10
53.302444441289
20
-3.73926389003714
30
0
41
1
10
53.2676990522624
20
-3.71178648623538
30
0
41
1
10
53.2032169195921
20
-3.64764997404737
30
0
41
1
10
53.1732758640374
20
-3.61089220399506
30
0
41
1
10
53.0904098066219
20
-3.48643397730834
30
0
41
1
10
53.0443760703859
20
-3.38468285334005
30
0
41
1
10
52.9904219710696
20
-3.20127575900574
30
0
41
1
10
52.975027940473
20
-3.13498486718001
30
0
41
1
10
52.9501160026532
20
-2.99456072513863
30
0
41
1
10
52.9404958934707
20
-2.92011898600157
30
0
41
1
10
52.933748142041
20
-2.84139314215815
30
0
0
SPLINE
5
E6
100
AcDbEntity
8
1
62
256
6
ByLayer
370
18
48
1
60
0
100
AcDbSpline
70
4
71
3
72
18
73
14
40
0
40
0
40
0
40
0
40
0.656943075644439
40
0.656943075644439
40
0.774502299554867
40
0.774502299554867
40
0.833281911510073
40
0.833281911510073
40
0.862671717487676
40
0.862671717487676
40
0.892061523465281
40
0.892061523465281
40
1
40
1
40
1
40
1
41
1
10
4.0390993967529
20
-3.88076790226898
30
0
41
1
10
3.78230548531968
20
-3.88002669194569
30
0
41
1
10
3.52479755197442
20
-3.87912302872331
30
0
41
1
10
3.22051744000765
20
-3.87813333604231
30
0
41
1
10
3.17432198523096
20
-3.87798459073352
30
0
41
1
10
3.10502531745445
20
-3.87776486408421
30
0
41
1
10
3.08198987878822
20
-3.87771958505593
30
0
41
1
10
3.0477829964577
20
-3.87777604065238
30
0
41
1
10
3.0367304093314
20
-3.87781215726511
30
0
41
1
10
3.01597331863306
20
-3.87791437629593
30
0
41
1
10
3.006533875092
20
-3.87798854365718
30
0
41
1
10
2.96208545986056
20
-3.87824042880175
30
0
41
1
10
2.92749223952165
20
-3.87823979086491
30
0
41
1
10
2.89329563814385
20
-3.87800847209226
30
0
0
SPLINE
5
E7
100
AcDbEntity
8
1
62
256
6
ByLayer
370
18
48
1
60
0
100
AcDbSpline
70
4
71
3
72
8
73
4
40
0
40
0
40
0
40
0
40
1
40
1
40
1
40
1
41
1
10
54.9331720000001
20
-0.371913194468732
30
0
41
1
10
54.9374685338235
20
-0.344505151670717
30
0
41
1
10
54.9417024617198
20
-0.317088423999678
30
0
41
1
10
54.9458737178133
20
-0.289663002317184
30
0
0
SPLINE
5
E8
100
AcDbEntity
8
1
62
256
6
ByLayer
370
18
48
1
60
0
100
AcDbSpline
70
4
71
3
72
8
73
4
40
0
40
0
40
0
40
0
40
1
40
1
40
1
40
1
41
1
10
54.9465667385305
20
-0.0771061301775262
30
0
41
1
10
54.9458666239271
20
-0.0784396986895786
30
0
41
1
10
54.9451665996245
20
-0.0797733533000553
30
0
41
1
10
54.9444666656371
20
-0.0811070939878391
30
0
0
SPLINE
5
E9
100
AcDbEntity
8
1
62
256
6
ByLayer
370
13
48
1
60
0
100
AcDbSpline
70
4
71
3
72
30
73
26
40
0
40
0
40
0
40
0
40
0.125
40
0.125
40
0.1875
40
0.1875
40
0.25
40
0.25
40
0.375
40
0.375
40
0.4375
40
0.4375
40
0.5
40
0.5
40
0.5625
40
0.5625
40
0.625
40
0.625
40
0.75
40
0.75
40
0.8125
40
0.8125
40
0.875
40
0.875
40
1
40
1
40
1
40
1
41
1
10
4.25082398774569
20
-2.85699032338243
30
0
41
1
10
4.25088979527484
20
-2.71568828781474
30
0
41
1
10
4.25094880076006
20
-2.56089389222277
30
0
41
1
10
4.25103023714192
20
-2.30876274773689
30
0
41
1
10
4.25105629803051
20
-2.22098795517309
30
0
41
1
10
4.25110585423343
20
-2.04108637235171
30
0
41
1
10
4.25112938983523
20
-1.94890199625436
30
0
41
1
10
4.25119712125917
20
-1.66580903069018
30
0
41
1
10
4.25123846822802
20
-1.468410754551
30
0
41
1
10
4.251297541068
20
-1.15902962830188
30
0
41
1
10
4.25131677348722
20
-1.05342008276207
30
0
41
1
10
4.25135409015425
20
-0.840707211720314
30
0
41
1
10
4.251372240758
20
-0.733276063363206
30
0
41
1
10
4.25140787952549
20
-0.516259034769348
30
0
41
1
10
4.25142536344384
20
-0.406675001115559
30
0
41
1
10
4.2514594354187
20
-0.188608897397302
30
0
41
1
10
4.25147609129434
20
-0.0797174080711898
30
0
41
1
10
4.25152522300829
20
0.246539671627033
30
0
41
1
10
4.25155691169593
20
0.463491173585595
30
0
41
1
10
4.25160315452808
20
0.788058937794972
30
0
41
1
10
4.25161823842521
20
0.895395503080636
30
0
41
1
10
4.25164731982036
20
1.1058164187346
30
0
41
1
10
4.25166137471768
20
1.20930335274812
30
0
41
1
10
4.25170185562683
20
1.51466099853118
30
0
41
1
10
4.25172667648673
20
1.71162211237729
30
0
41
1
10
4.25174800023933
20
1.90121061470742
30
0
0
SPLINE
5
EA
100
AcDbEntity
8
SK1
62
256
6
ByLayer
370
18
48
1
60
0
100
AcDbSpline
70
4
71
3
72
14
73
10
40
0
40
0
40
0
40
0
40
0.124999999999998
40
0.124999999999998
40
0.249999999999996
40
0.249999999999996
40
0.499999999999996
40
0.499999999999996
40
1
40
1
40
1
40
1
41
1
10
-35.15
20
-2.80758944520679
30
0
41
1
10
-35.15
20
-2.79978409063597
30
0
41
1
10
-35.1517507934569
20
-2.78992205902915
30
0
41
1
10
-35.1569069278762
20
-2.76969382639294
30
0
41
1
10
-35.160234831946
20
-2.75942261018835
30
0
41
1
10
-35.1714888412644
20
-2.7283428254965
30
0
41
1
10
-35.1802429568048
20
-2.70838510614183
30
0
41
1
10
-35.208319135384
20
-2.64981424418608
30
0
41
1
10
-35.2286409685642
20
-2.61421521787327
30
0
41
1
10
-35.25
20
-2.581669862502
30
0
0
SPLINE
5
EB
100
AcDbEntity
8
SK1
62
256
6
ByLayer
370
18
48
1
60
0
100
AcDbSpline
70
4
71
3
72
8
73
4
40
0
40
0
40
0
40
0
40
1
40
1
40
1
40
1
41
1
10
-36
20
-2.47349122088642
30
0
41
1
10
-35.7560192206068
20
-2.86481054017159
30
0
41
1
10
-35.5039162763868
20
-3.25251658351129
30
0
41
1
10
-35.25
20
-3.63941593680721
30
0
0
SPLINE
5
EC
100
AcDbEntity
8
SK1
62
256
6
ByLayer
370
18
48
1
60
0
100
AcDbSpline
70
4
71
3
72
14
73
10
40
0
40
0
40
0
40
0
40
0.500000000000001
40
0.500000000000001
40
0.750000000000001
40
0.750000000000001
40
0.875
40
0.875
40
1
40
1
40
1
40
1
41
1
10
-35.25
20
-3.63941593680738
30
0
41
1
10
-35.2287404812744
20
-3.67180966187047
30
0
41
1
10
-35.208362723075
20
-3.70102982409421
30
0
41
1
10
-35.1802905070704
20
-3.73709850817099
30
0
41
1
10
-35.1714466180788
20
-3.74769179726951
30
0
41
1
10
-35.1602396792677
20
-3.7586484581297
30
0
41
1
10
-35.1568594217207
20
-3.76144343251042
30
0
41
1
10
-35.1517495297275
20
-3.76370599189227
30
0
41
1
10
-35.15
20
-3.7631350754919
30
0
41
1
10
-35.15
20
-3.75956091208147
30
0
0
SPLINE
5
ED
100
AcDbEntity
8
SK1
62
256
6
ByLayer
370
18
48
1
60
0
100
AcDbSpline
70
4
71
3
72
8
73
4
40
0
40
0
40
0
40
0
40
1
40
1
40
1
40
1
41
1
10
-35.25
20
-2.581669862502
30
0
41
1
10
-35.5038929080887
20
-2.19480611613759
30
0
41
1
10
-35.7559847014246
20
-1.80711983097709
30
0
41
1
10
-36
20
-1.41574514658123
30
0
0
LINE
5
76
100
AcDbEntity
8
81
62
256
6
ByLayer
370
18
48
1
60
0
100
AcDbLine
10
55
20
0
30
0
11
60
21
0
31
0
39
0
210
0
220
0
230
1
0
LINE
5
77
100
AcDbEntity
8
1
62
256
6
ByLayer
370
18
48
1
60
0
100
AcDbLine
10
2.93083
20
3.878171
30
0
11
0.8
21
3.873057
31
0
39
0
210
0
220
0
230
1
0
LINE
5
79
100
AcDbEntity
8
1
62
256
6
ByLayer
370
18
48
1
60
0
100
AcDbLine
10
8.859216
20
3.892399
30
0
11
4.074458
21
3.880915
31
0
39
0
210
0
220
0
230
1
0
LINE
5
7A
100
AcDbEntity
8
1
62
256
6
ByLayer
370
18
48
1
60
0
100
AcDbLine
10
4.075193
20
-3.880917
30
0
11
8.859216
21
-3.892399
31
0
39
0
210
0
220
0
230
1
0
LINE
5
7B
100
AcDbEntity
8
1
62
256
6
ByLayer
370
18
48
1
60
0
100
AcDbLine
10
0.8
20
-3.873057
30
0
11
2.93083
21
-3.878171
31
0
39
0
210
0
220
0
230
1
0
LINE
5
7C
100
AcDbEntity
8
1
62
256
6
ByLayer
370
18
48
1
60
0
100
AcDbLine
10
0
20
-4
30
0
11
0.8
21
-3.873057
31
0
39
0
210
0
220
0
230
1
0
LINE
5
7D
100
AcDbEntity
8
1
62
256
6
ByLayer
370
18
48
1
60
0
100
AcDbLine
10
0.8
20
3.873057
30
0
11
0
21
4
31
0
39
0
210
0
220
0
230
1
0
LINE
5
7E
100
AcDbEntity
8
SK1
62
256
6
ByLayer
370
18
48
1
60
0
100
AcDbLine
10
-35.133975
20
4
30
0
11
-36
21
2.5
31
0
39
0
210
0
220
0
230
1
0
LINE
5
80
100
AcDbEntity
8
SK1
62
256
6
ByLayer
370
18
48
1
60
0
100
AcDbLine
10
-36
20
-2.5
30
0
11
-35.133975
21
-4
31
0
39
0
210
0
220
0
230
1
0
LINE
5
81
100
AcDbEntity
8
SK1
62
256
6
ByLayer
370
18
48
1
60
0
100
AcDbLine
10
0
20
4
30
0
11
-35.133975
21
4
31
0
39
0
210
0
220
0
230
1
0
LINE
5
82
100
AcDbEntity
8
SK1
62
256
6
ByLayer
370
18
48
1
60
0
100
AcDbLine
10
-35.133975
20
-4
30
0
11
0
21
-4
31
0
39
0
210
0
220
0
230
1
0
LINE
5
83
100
AcDbEntity
8
1
62
256
6
ByLayer
370
18
48
1
60
0
100
AcDbLine
10
30.608988
20
3.944598
30
0
11
30.146552
21
3.943488
31
0
39
0
210
0
220
0
230
1
0
LINE
5
84
100
AcDbEntity
8
1
62
256
6
ByLayer
370
18
48
1
60
0
100
AcDbLine
10
52.358459
20
3.996797
30
0
11
51.938737
21
3.99579
31
0
39
0
210
0
220
0
230
1
0
LINE
5
85
100
AcDbEntity
8
1
62
256
6
ByLayer
370
18
48
1
60
0
100
AcDbLine
10
51.938737
20
-3.99579
30
0
11
52.358459
21
-3.996797
31
0
39
0
210
0
220
0
230
1
0
LINE
5
86
100
AcDbEntity
8
1
62
256
6
ByLayer
370
18
48
1
60
0
100
AcDbLine
10
30.146552
20
-3.943488
30
0
11
30.608988
21
-3.944598
31
0
39
0
210
0
220
0
230
1
0
LINE
5
87
100
AcDbEntity
8
SK4
62
256
6
ByLayer
370
18
48
0.05
60
0
100
AcDbLine
10
60
20
0
30
0
11
-41
21
0
31
0
39
0
210
0
220
0
230
1
0
LINE
5
89
100
AcDbEntity
8
4
62
256
6
ByLayer
370
18
48
0.05
60
0
100
AcDbLine
10
55
20
0
30
0
11
0
21
0
31
0
39
0
210
0
220
0
230
1
0
LINE
5
8B
100
AcDbEntity
8
80
62
256
6
ByLayer
370
18
48
1
60
0
100
AcDbLine
10
0
20
0
30
0
11
-5
21
0
31
0
39
0
210
0
220
0
230
1
0
LINE
5
8C
100
AcDbEntity
8
1
62
256
6
ByLayer
370
13
48
1
60
0
100
AcDbLine
10
54.742352
20
0.04028
30
0
11
54.946567
21
-0.077106
31
0
39
0
210
0
220
0
230
1
0
LINE
5
8D
100
AcDbEntity
8
1
62
256
6
ByLayer
370
13
48
1
60
0
100
AcDbLine
10
54.933172
20
0.332117
30
0
11
54.103125
21
0.970946
31
0
39
0
210
0
220
0
230
1
0
LINE
5
8E
100
AcDbEntity
8
1
62
256
6
ByLayer
370
18
48
1
60
0
100
AcDbLine
10
52.933748
20
-2.841393
30
0
11
54.944467
21
-0.081107
31
0
39
0
210
0
220
0
230
1
0
LINE
5
8F
100
AcDbEntity
8
1
62
256
6
ByLayer
370
18
48
1
60
0
100
AcDbLine
10
0.8
20
3.873057
30
0
11
0.8
21
-3.873057
31
0
39
0
210
0
220
0
230
1
0
LINE
5
90
100
AcDbEntity
8
1
62
256
6
ByLayer
370
13
48
1
60
0
100
AcDbLine
10
54.832775
20
0.925807
30
0
11
54.103125
21
0.970946
31
0
39
0
210
0
220
0
230
1
0
LINE
5
91
100
AcDbEntity
8
1
62
256
6
ByLayer
370
18
48
1
60
0
100
AcDbLine
10
0
20
-4
30
0
11
0
21
4
31
0
39
0
210
0
220
0
230
1
0
LINE
5
92
100
AcDbEntity
8
1
62
256
6
ByLayer
370
13
48
1
60
0
100
AcDbLine
10
53.886158
20
0.699232
30
0
11
54.742352
21
0.04028
31
0
39
0
210
0
220
0
230
1
0
LINE
5
93
100
AcDbEntity
8
1
62
256
6
ByLayer
370
13
48
1
60
0
100
AcDbLine
10
54.920768
20
0.304094
30
0
11
54.945874
21
0.289663
31
0
39
0
210
0
220
0
230
1
0
LINE
5
94
100
AcDbEntity
8
1
62
256
6
ByLayer
370
18
48
1
60
0
100
AcDbLine
10
54.933172
20
0.371913
30
0
11
54.933172
21
0.332117
31
0
39
0
210
0
220
0
230
1
0
LINE
5
95
100
AcDbEntity
8
SK1
62
256
6
ByLayer
370
18
48
1
60
0
100
AcDbLine
10
0
20
-4
30
0
11
0
21
4
31
0
39
0
210
0
220
0
230
1
0
LINE
5
96
100
AcDbEntity
8
SK1
62
256
6
ByLayer
370
18
48
1
60
0
100
AcDbLine
10
-35.133975
20
4
30
0
11
-35.133975
21
-4
31
0
39
0
210
0
220
0
230
1
0
LINE
5
97
100
AcDbEntity
8
SK1
62
256
6
ByLayer
370
18
48
1
60
0
100
AcDbLine
10
-36
20
-1.41574
30
0
11
-36
21
-2.473491
31
0
39
0
210
0
220
0
230
1
0
LINE
5
98
100
AcDbEntity
8
SK1
62
256
6
ByLayer
370
13
48
1
60
0
100
AcDbLine
10
-35.25
20
-2.581637
30
0
11
-35.25
21
-3.639416
31
0
39
0
210
0
220
0
230
1
0
LINE
5
99
100
AcDbEntity
8
SK1
62
256
6
ByLayer
370
18
48
1
60
0
100
AcDbLine
10
-36
20
2.5
30
0
11
-36
21
-1.415745
31
0
39
0
210
0
220
0
230
1
0
LINE
5
9A
100
AcDbEntity
8
SK1
62
256
6
ByLayer
370
18
48
1
60
0
100
AcDbLine
10
-36
20
-2.5
30
0
11
-36
21
-2.473491
31
0
39
0
210
0
220
0
230
1
0
LINE
5
9B
100
AcDbEntity
8
SK1
62
256
6
ByLayer
370
18
48
1
60
0
100
AcDbLine
10
-35.15
20
-3.759561
30
0
11
-35.15
21
-2.807589
31
0
39
0
210
0
220
0
230
1
0
MTEXT
5
EE
100
AcDbEntity
8
SK6
62
256
6
ByLayer
370
13
48
1
60
0
100
AcDbMText
10
11.629169
20
36.382694
30
0
210
0
220
0
230
1
1
\W0.7361;860.1-0800-040A1-MM 2214
40
3.5
41
0
44
1.084337
50
0
71
8
72
5
7
iso_b_vert
0
DIMENSION
5
FB
100
AcDbEntity
8
2
62
256
6
ByLayer
370
13
48
1
60
0
100
AcDbDimension
2
DimnDraft3D1
10
53.6897
20
-14.213398
30
0
11
25.439759
21
-14.213398
31
0
70
32
71
5
72
1
41
1
210
0
220
0
230
1
3
Standard
100
AcDbAlignedDimension
13
0
23
-1.5875
33
0
14
53.6897
24
-5.5875
34
0
50
0
100
AcDbRotatedDimension
1001
ACAD
1000
DSTYLE
1002
{
1070
   279
1070
     0
1070
   172
1070
     1
1070
   173
1070
     1
1070
   340
1005
EF
1070
   271
1070
     2
1070
   272
1070
     2
1070
    77
1070
     1
1070
    73
1070
     0
1070
   171
1070
     3
1070
   274
1070
     4
1070
   177
1070
    35
1070
   176
1070
    35
1070
   178
1070
    35
1070
    48
1040
-0.005
1070
    41
1041
3.5
1070
   147
1041
1.75
1070
    42
1041
1.5875
1070
    44
1041
2.0
1070
   140
1041
3.5
1070
   343
1005
0
1070
   344
1005
0
1002
}
0
DIMENSION
5
105
100
AcDbEntity
8
SK2
62
256
6
ByLayer
370
13
48
1
60
0
100
AcDbDimension
2
DimnDraft3D2
10
55
20
-32.692985
30
0
11
9.531
21
-32.692985
31
0
70
32
71
5
72
1
41
1
210
0
220
0
230
1
3
Standard
100
AcDbAlignedDimension
13
-36
23
-5.5875
33
0
14
55
24
-1.5875
34
0
50
0
100
AcDbRotatedDimension
1001
ACAD
1000
DSTYLE
1002
{
1070
   279
1070
     0
1070
   172
1070
     1
1070
   173
1070
     1
1070
   340
1005
EF
1070
   271
1070
     2
1070
   272
1070
     2
1070
    77
1070
     1
1070
    73
1070
     0
1070
   171
1070
     3
1070
   274
1070
     4
1070
   177
1070
    35
1070
   176
1070
    35
1070
   178
1070
    35
1070
    48
1040
-0.005
1070
    41
1041
3.5
1070
   147
1041
1.75
1070
    42
1041
1.5875
1070
    44
1041
2.0
1070
   140
1041
3.5
1070
   343
1005
0
1070
   344
1005
0
1002
}
0
DIMENSION
5
10F
100
AcDbEntity
8
SK2
62
256
6
ByLayer
370
13
48
1
60
0
100
AcDbDimension
2
DimnDraft3D3
10
55
20
15.609119
30
0
11
34.345
21
15.609119
31
0
70
32
71
5
72
1
41
1
210
0
220
0
230
1
3
Standard
100
AcDbAlignedDimension
13
13.69
23
5.5875
33
0
14
55
24
1.5875
34
0
50
0
100
AcDbRotatedDimension
1001
ACAD
1000
DSTYLE
1002
{
1070
   279
1070
     0
1070
   172
1070
     1
1070
   173
1070
     1
1070
   340
1005
EF
1070
   271
1070
     2
1070
   272
1070
     2
1070
    77
1070
     1
1070
    73
1070
     0
1070
   171
1070
     3
1070
   274
1070
     4
1070
   177
1070
    35
1070
   176
1070
    35
1070
   178
1070
    35
1070
    48
1040
-0.005
1070
    41
1041
3.5
1070
   147
1041
1.75
1070
    42
1041
1.5875
1070
    44
1041
2.0
1070
   140
1041
3.5
1070
   343
1005
0
1070
   344
1005
0
1002
}
0
DIMENSION
5
119
100
AcDbEntity
8
SK2
62
256
6
ByLayer
370
13
48
1
60
0
100
AcDbDimension
2
DimnDraft3D4
10
53.6897
20
-16.802503
30
0
11
64.981425
21
-16.802503
31
0
70
32
71
5
72
1
41
1
210
0
220
0
230
1
3
Standard
100
AcDbAlignedDimension
13
55
23
-1.5875
33
0
14
53.6897
24
-5.5875
34
0
50
0
100
AcDbRotatedDimension
1001
ACAD
1000
DSTYLE
1002
{
1070
   279
1070
     0
1070
   172
1070
     1
1070
   173
1070
     1
1070
   340
1005
EF
1070
   271
1070
     2
1070
   272
1070
     2
1070
    77
1070
     1
1070
    73
1070
     0
1070
   171
1070
     3
1070
   274
1070
     4
1070
   177
1070
    35
1070
   176
1070
    35
1070
   178
1070
    35
1070
    48
1040
-0.005
1070
    41
1041
3.5
1070
   147
1041
1.75
1070
    42
1041
1.5875
1070
    44
1041
2.0
1070
   140
1041
3.5
1070
   343
1005
0
1070
   344
1005
0
1002
}
0
DIMENSION
5
123
100
AcDbEntity
8
SK2
62
256
6
ByLayer
370
13
48
1
60
0
100
AcDbDimension
2
DimnDraft3D5
10
53.6897
20
-22.343428
30
0
11
6.450376
21
-22.343428
31
0
70
32
71
5
72
1
41
1
210
0
220
0
230
1
3
Standard
100
AcDbAlignedDimension
13
-36
23
-5.5875
33
0
14
53.6897
24
-5.5875
34
0
50
0
100
AcDbRotatedDimension
1001
ACAD
1000
DSTYLE
1002
{
1070
   279
1070
     0
1070
   172
1070
     1
1070
   173
1070
     1
1070
   340
1005
EF
1070
   271
1070
     2
1070
   272
1070
     2
1070
    77
1070
     1
1070
    73
1070
     0
1070
   171
1070
     3
1070
   274
1070
     4
1070
   177
1070
    35
1070
   176
1070
    35
1070
   178
1070
    35
1070
    48
1040
-0.005
1070
    41
1041
3.5
1070
   147
1041
1.75
1070
    42
1041
1.5875
1070
    44
1041
2.0
1070
   140
1041
3.5
1070
   343
1005
0
1070
   344
1005
0
1002
}
0
DIMENSION
5
12E
100
AcDbEntity
8
SK2
62
256
6
ByLayer
370
13
48
1
60
0
100
AcDbDimension
2
DimnDraft3D6
10
-46.625163
20
4
30
0
11
-47.250163
21
22.47418
31
0
70
33
71
5
72
1
41
1
210
0
220
0
230
1
3
Standard
100
AcDbAlignedDimension
13
-37.5875
23
-4
33
0
14
-37.5875
24
4
34
0
1001
ACAD
1000
DSTYLE
1002
{
1070
   279
1070
     0
1070
    74
1070
     0
1070
   173
1070
     1
1070
   340
1005
EF
1070
   271
1070
     3
1070
   272
1070
     2
1070
    77
1070
     1
1070
    73
1070
     0
1070
   171
1070
     3
1070
   274
1070
     4
1070
   177
1070
    35
1070
   176
1070
    35
1070
   178
1070
    35
1070
    48
1040
-0.005
1070
    41
1041
3.5
1070
   147
1041
1.75
1070
    42
1041
1.5875
1070
    44
1041
2.0
1070
   140
1041
3.5
1070
   343
1005
0
1070
   344
1005
0
1002
}
0
DIMENSION
5
139
100
AcDbEntity
8
2
62
256
6
ByLayer
370
13
48
1
60
0
100
AcDbDimension
2
DimnDraft3D7
10
69.083343
20
4
30
0
11
64.458343
21
21.067266
31
0
70
33
71
5
72
1
41
1
210
0
220
0
230
1
3
Standard
100
AcDbAlignedDimension
13
55.2772
23
-4
33
0
14
55.2772
24
4
34
0
1001
ACAD
1000
DSTYLE
1002
{
1070
   279
1070
     0
1070
    74
1070
     0
1070
   173
1070
     1
1070
   340
1005
EF
1070
   271
1070
     3
1070
   272
1070
     2
1070
    77
1070
     1
1070
    73
1070
     0
1070
   171
1070
     3
1070
   274
1070
     4
1070
   177
1070
    35
1070
   176
1070
    35
1070
   178
1070
    35
1070
    48
1040
-0.005
1070
    41
1041
3.5
1070
   147
1041
1.75
1070
    42
1041
1.5875
1070
    44
1041
2.0
1070
   140
1041
3.5
1070
   343
1005
0
1070
   344
1005
0
1002
}
0
ENDSEC
0
SECTION
2
OBJECTS
0
DICTIONARY
5
1a4
330
0
100
AcDbDictionary
280
0
281
1
3
ACAD_GROUP
350
1a5
3
ACAD_MLINESTYLE
350
1a6
0
DICTIONARY
5
1a5
330
0
100
AcDbDictionary
280
0
281
1
0
DICTIONARY
5
1a6
330
0
100
AcDbDictionary
280
0
281
1
3
Standard
350
18
0
MLINESTYLE
5
18
330
1a6
100
AcDbMlineStyle
2
Standard
70
0
3

62
256
51
90
52
90
71
2
49
-0.5
62
256
6
ByLayer
49
0.5
62
256
6
ByLayer
0
RASTERVARIABLES
5
192
330

100
AcDbRasterVariables
90
0
70
1
71
1
72
1
0
ENDSEC
0
EOF
