0
SECTION
2
HEADER
9
$ACADVER
1
AC1015
9
$DWGCODEPAGE
3
ANSI_1252
9
$HANDSEED
5
1bd
9
$ANGBASE
50
0
9
$ANGDIR
70
0
9
$ATTMODE
70
1
9
$AUNITS
70
0
9
$AUPREC
70
0
9
$CECOLOR
62
256
9
$CELTSCALE
40
1
9
$CELTYPE
6
ByLayer
9
$CELWEIGHT
370
18
9
$CLAYER
8
0
9
$CMLJUST
70
0
9
$CMLSCALE
40
1
9
$CMLSTYLE
2
Standard
9
$DIMSTYLE
2
Standard
9
$TEXTSIZE
40
0.2
9
$TEXTSTYLE
7
Standard
9
$LUNITS
70
2
9
$LUPREC
70
4
9
$EXTNAMES
290
1
9
$INSUNITS
70
4
9
$LTSCALE
40
1
9
$LWDISPLAY
290
1
9
$PDMODE
70
0
9
$PDSIZE
40
0
9
$PLINEGEN
70
0
0
ENDSEC
0
SECTION
2
CLASSES
0
CLASS
1
RASTERVARIABLES
2
AcDbRasterVariables
3
ISM
90
0
280
0
281
0
0
ENDSEC
0
SECTION
2
TABLES
0
TABLE
2
VPORT
5
1b3
100
AcDbSymbolTable
0
VPORT
5
1
100
AcDbSymbolTableRecord
100
AcDbViewportTableRecord
2
*Active
70
0
10
0
20
0
11
1
21
1
12
-1
22
1
13
0
23
0
14
0.5
24
0.5
15
10
25
10
16
0
26
0
36
1
17
0
27
0
37
0
0
ENDTAB
0
TABLE
2
LTYPE
5
1b4
100
AcDbSymbolTable
0
LTYPE
5
14
100
AcDbSymbolTableRecord
100
AcDbLinetypeTableRecord
70
0
2
ByBlock
3

72
65
73
0
40
0
0
LTYPE
5
15
100
AcDbSymbolTableRecord
100
AcDbLinetypeTableRecord
70
0
2
ByLayer
3

72
65
73
0
40
0
0
LTYPE
5
16
100
AcDbSymbolTableRecord
100
AcDbLinetypeTableRecord
70
0
2
CONTINUOUS
3
Solid line
72
65
73
0
40
0
0
LTYPE
5
6A
100
AcDbSymbolTableRecord
100
AcDbLinetypeTableRecord
70
0
2
CENTER
3
____ _ ____ _ ____ _ ____
72
65
73
4
40
47.5
49
22
74
0
49
-8.5
74
0
49
8.5
74
0
49
-8.5
74
0
0
LTYPE
5
6B
100
AcDbSymbolTableRecord
100
AcDbLinetypeTableRecord
70
0
2
DASHED
3
__ __ __ __ __ __ __ __ __
72
65
73
2
40
25.72
49
12.86
74
0
49
-12.86
74
0
0
ENDTAB
0
TABLE
2
LAYER
5
1b5
100
AcDbSymbolTable
0
LAYER
5
10
100
AcDbSymbolTableRecord
100
AcDbLayerTableRecord
2
0
70
0
62
7
6
CONTINUOUS
290
1
370
-3
390
0
0
LAYER
5
6D
100
AcDbSymbolTableRecord
100
AcDbLayerTableRecord
2
81
70
0
62
-3
6
CONTINUOUS
290
1
370
-3
390
0
0
LAYER
5
6F
100
AcDbSymbolTableRecord
100
AcDbLayerTableRecord
2
80
70
0
62
-6
6
CONTINUOUS
290
1
370
-3
390
0
0
LAYER
5
74
100
AcDbSymbolTableRecord
100
AcDbLayerTableRecord
2
2
70
0
62
7
6
CONTINUOUS
290
1
370
-3
390
0
0
LAYER
5
78
100
AcDbSymbolTableRecord
100
AcDbLayerTableRecord
2
1
70
0
62
4
6
CONTINUOUS
290
1
370
-3
390
0
0
LAYER
5
8C
100
AcDbSymbolTableRecord
100
AcDbLayerTableRecord
2
4
70
0
62
-2
6
CENTER
290
1
370
-3
390
0
0
LAYER
5
19f
100
AcDbSymbolTableRecord
100
AcDbLayerTableRecord
2
SK2
70
0
62
7
6
CONTINUOUS
290
1
370
-3
390
0
0
LAYER
5
1a0
100
AcDbSymbolTableRecord
100
AcDbLayerTableRecord
2
SK1
70
0
62
4
6
CONTINUOUS
290
1
370
-3
390
0
0
LAYER
5
1a1
100
AcDbSymbolTableRecord
100
AcDbLayerTableRecord
2
SK4
70
0
62
2
6
CENTER
290
1
370
-3
390
0
0
LAYER
5
1a2
100
AcDbSymbolTableRecord
100
AcDbLayerTableRecord
2
SK6
70
0
62
5
6
CONTINUOUS
290
1
370
-3
390
0
0
ENDTAB
0
TABLE
2
STYLE
5
1b6
100
AcDbSymbolTable
0
STYLE
5
11
100
AcDbSymbolTableRecord
100
AcDbTextStyleTableRecord
2
Standard
3
txt
70
0
71
0
40
0
41
1
42
0
50
0
0
STYLE
5
FB
100
AcDbSymbolTableRecord
100
AcDbTextStyleTableRecord
2
iso_b_vert
3
simplex.shx
70
0
71
0
40
0
41
1
42
0
50
0
0
STYLE
5
FC
100
AcDbSymbolTableRecord
100
AcDbTextStyleTableRecord
2
DWGDirectTextStyle
3
simplex
70
0
71
0
40
0
41
1
42
0
50
0
0
ENDTAB
0
TABLE
2
DIMSTYLE
5
1b7
100
AcDbSymbolTable
100
AcDbDimStyleTable
0
DIMSTYLE
105
27
100
AcDbSymbolTableRecord
100
AcDbDimStyleTableRecord
2
Standard
70
0
3
<>
41
0.18
42
0.0625
44
0.18
140
0.18
147
0.09
73
0
74
0
77
1
271
2
275
0
278
52
280
0
340
11
0
ENDTAB
0
TABLE
2
VIEW
5
1b8
100
AcDbSymbolTable
0
ENDTAB
0
TABLE
2
UCS
5
1b9
100
AcDbSymbolTable
0
ENDTAB
0
TABLE
2
APPID
5
1ba
100
AcDbSymbolTable
0
APPID
5
12
100
AcDbSymbolTableRecord
100
AcDbRegAppTableRecord
2
ACAD
70
0
0
ENDTAB
0
TABLE
2
BLOCK_RECORD
5
1bb
100
AcDbSymbolTable
0
BLOCK_RECORD
5
1F
100
AcDbSymbolTableRecord
100
AcDbBlockTableRecord
2
*Model_Space
340
0
70
0
0
BLOCK_RECORD
5
1B
100
AcDbSymbolTableRecord
100
AcDbBlockTableRecord
2
*Paper_Space
340
0
70
0
0
BLOCK_RECORD
5
23
100
AcDbSymbolTableRecord
100
AcDbBlockTableRecord
2
*Paper_Space0
340
0
70
0
0
BLOCK_RECORD
5
FE
100
AcDbSymbolTableRecord
100
AcDbBlockTableRecord
2
DimnDraft3D1
340
0
70
0
0
BLOCK_RECORD
5
108
100
AcDbSymbolTableRecord
100
AcDbBlockTableRecord
2
DimnDraft3D2
340
0
70
0
0
BLOCK_RECORD
5
112
100
AcDbSymbolTableRecord
100
AcDbBlockTableRecord
2
DimnDraft3D3
340
0
70
0
0
BLOCK_RECORD
5
11C
100
AcDbSymbolTableRecord
100
AcDbBlockTableRecord
2
DimnDraft3D4
340
0
70
0
0
BLOCK_RECORD
5
126
100
AcDbSymbolTableRecord
100
AcDbBlockTableRecord
2
DimnDraft3D5
340
0
70
0
0
BLOCK_RECORD
5
130
100
AcDbSymbolTableRecord
100
AcDbBlockTableRecord
2
DimnDraft3D6
340
0
70
0
0
BLOCK_RECORD
5
13B
100
AcDbSymbolTableRecord
100
AcDbBlockTableRecord
2
DimnDraft3D7
340
0
70
0
0
ENDTAB
0
ENDSEC
0
SECTION
2
BLOCKS
0
BLOCK
5
20
100
AcDbEntity
8
0
100
AcDbBlockBegin
2
*Model_Space
70
0
10
0
20
0
30
0
3
*Model_Space
0
ENDBLK
5
21
100
AcDbEntity
8
0
100
AcDbBlockEnd
0
BLOCK
5
1C
100
AcDbEntity
8
0
100
AcDbBlockBegin
2
*Paper_Space
70
0
10
0
20
0
30
0
3
*Paper_Space
0
ENDBLK
5
1D
100
AcDbEntity
8
0
100
AcDbBlockEnd
0
BLOCK
5
24
100
AcDbEntity
8
0
100
AcDbBlockBegin
2
*Paper_Space0
70
0
10
0
20
0
30
0
3
*Paper_Space0
0
ENDBLK
5
25
100
AcDbEntity
8
0
100
AcDbBlockEnd
0
BLOCK
5
105
100
AcDbEntity
8
0
100
AcDbBlockBegin
2
DimnDraft3D1
70
0
10
0
20
0
30
0
3
DimnDraft3D1
0
MTEXT
5
FF
100
AcDbEntity
8
2
62
256
6
ByLayer
370
13
48
1
60
0
100
AcDbMText
10
33.500875
20
-13.308398
30
0
210
0
220
0
230
1
1
\W0.7317;78,70
40
3.5
41
0
44
1.084337
50
0
71
7
72
5
7
iso_b_vert
0
LINE
5
100
100
AcDbEntity
8
2
62
256
6
ByLayer
370
13
48
1
60
0
100
AcDbLine
10
0
20
-1.5875
30
0
11
0
21
-16.183398
31
0
39
0
210
0
220
0
230
1
0
LINE
5
101
100
AcDbEntity
8
2
62
256
6
ByLayer
370
13
48
1
60
0
100
AcDbLine
10
78.6995
20
-5.5575
30
0
11
78.6995
21
-16.183398
31
0
39
0
210
0
220
0
230
1
0
LINE
5
102
100
AcDbEntity
8
2
62
256
6
ByLayer
370
13
48
1
60
0
100
AcDbLine
10
0
20
-14.183398
30
0
11
78.6995
21
-14.183398
31
0
39
0
210
0
220
0
230
1
0
SOLID
5
103
100
AcDbEntity
8
2
62
256
6
ByLayer
370
13
48
1
60
0
100
AcDbTrace
10
0
20
-14.183398
30
0
11
3.499998
21
-13.722615
31
0
12
3.500002
22
-14.644182
32
0
13
0
23
-14.183398
33
0
39
0
210
0
220
0
230
1
0
SOLID
5
104
100
AcDbEntity
8
2
62
256
6
ByLayer
370
13
48
1
60
0
100
AcDbTrace
10
78.6995
20
-14.183398
30
0
11
75.199502
21
-14.644182
31
0
12
75.199498
22
-13.722615
32
0
13
78.6995
23
-14.183398
33
0
39
0
210
0
220
0
230
1
0
ENDBLK
5
106
100
AcDbEntity
8
0
100
AcDbBlockEnd
0
BLOCK
5
10F
100
AcDbEntity
8
0
100
AcDbBlockBegin
2
DimnDraft3D2
70
0
10
0
20
0
30
0
3
DimnDraft3D2
0
MTEXT
5
109
100
AcDbEntity
8
SK2
62
256
6
ByLayer
370
13
48
1
60
0
100
AcDbMText
10
17.159221
20
-31.817985
30
0
210
0
220
0
230
1
1
\W0.6440;116,00
40
3.5
41
0
44
1.084337
50
0
71
7
72
5
7
iso_b_vert
0
LINE
5
10A
100
AcDbEntity
8
SK2
62
256
6
ByLayer
370
13
48
1
60
0
100
AcDbLine
10
-36
20
-5.5875
30
0
11
-36
21
-34.692985
31
0
39
0
210
0
220
0
230
1
0
LINE
5
10B
100
AcDbEntity
8
SK2
62
256
6
ByLayer
370
13
48
1
60
0
100
AcDbLine
10
80
20
-1.5875
30
0
11
80
21
-34.692985
31
0
39
0
210
0
220
0
230
1
0
LINE
5
10C
100
AcDbEntity
8
SK2
62
256
6
ByLayer
370
13
48
1
60
0
100
AcDbLine
10
-36
20
-32.692985
30
0
11
80
21
-32.692985
31
0
39
0
210
0
220
0
230
1
0
SOLID
5
10D
100
AcDbEntity
8
SK2
62
256
6
ByLayer
370
13
48
1
60
0
100
AcDbTrace
10
-36
20
-32.692985
30
0
11
-32.500002
21
-32.232202
31
0
12
-32.499998
22
-33.153769
32
0
13
-36
23
-32.692985
33
0
39
0
210
0
220
0
230
1
0
SOLID
5
10E
100
AcDbEntity
8
SK2
62
256
6
ByLayer
370
13
48
1
60
0
100
AcDbTrace
10
80
20
-32.692985
30
0
11
76.500002
21
-33.153769
31
0
12
76.499998
22
-32.232202
32
0
13
80
23
-32.692985
33
0
39
0
210
0
220
0
230
1
0
ENDBLK
5
110
100
AcDbEntity
8
0
100
AcDbBlockEnd
0
BLOCK
5
119
100
AcDbEntity
8
0
100
AcDbBlockBegin
2
DimnDraft3D3
70
0
10
0
20
0
30
0
3
DimnDraft3D3
0
MTEXT
5
113
100
AcDbEntity
8
SK2
62
256
6
ByLayer
370
13
48
1
60
0
100
AcDbMText
10
42.957105
20
16.454119
30
0
210
0
220
0
230
1
1
\W0.7581;64,82
40
3.5
41
0
44
1.084337
50
0
71
7
72
5
7
iso_b_vert
0
LINE
5
114
100
AcDbEntity
8
SK2
62
256
6
ByLayer
370
13
48
1
60
0
100
AcDbLine
10
15.18
20
5.5575
30
0
11
15.18
21
17.579119
31
0
39
0
210
0
220
0
230
1
0
LINE
5
115
100
AcDbEntity
8
SK2
62
256
6
ByLayer
370
13
48
1
60
0
100
AcDbLine
10
80
20
1.5875
30
0
11
80
21
17.579119
31
0
39
0
210
0
220
0
230
1
0
LINE
5
116
100
AcDbEntity
8
SK2
62
256
6
ByLayer
370
13
48
1
60
0
100
AcDbLine
10
15.18
20
15.579119
30
0
11
80
21
15.579119
31
0
39
0
210
0
220
0
230
1
0
SOLID
5
117
100
AcDbEntity
8
SK2
62
256
6
ByLayer
370
13
48
1
60
0
100
AcDbTrace
10
15.18
20
15.579119
30
0
11
18.679998
21
16.039903
31
0
12
18.680002
22
15.118335
32
0
13
15.18
23
15.579119
33
0
39
0
210
0
220
0
230
1
0
SOLID
5
118
100
AcDbEntity
8
SK2
62
256
6
ByLayer
370
13
48
1
60
0
100
AcDbTrace
10
80
20
15.579119
30
0
11
76.500002
21
15.118335
31
0
12
76.499998
22
16.039903
32
0
13
80
23
15.579119
33
0
39
0
210
0
220
0
230
1
0
ENDBLK
5
11A
100
AcDbEntity
8
0
100
AcDbBlockEnd
0
BLOCK
5
123
100
AcDbEntity
8
0
100
AcDbBlockBegin
2
DimnDraft3D4
70
0
10
0
20
0
30
0
3
DimnDraft3D4
0
MTEXT
5
11D
100
AcDbEntity
8
SK2
62
256
6
ByLayer
370
13
48
1
60
0
100
AcDbMText
10
87.278136
20
-15.897503
30
0
210
0
220
0
230
1
1
\W0.6367;1,30
40
3.5
41
0
44
1.084337
50
0
71
7
72
5
7
iso_b_vert
0
LINE
5
11E
100
AcDbEntity
8
SK2
62
256
6
ByLayer
370
13
48
1
60
0
100
AcDbLine
10
80
20
-1.5875
30
0
11
80
21
-18.772503
31
0
39
0
210
0
220
0
230
1
0
LINE
5
11F
100
AcDbEntity
8
SK2
62
256
6
ByLayer
370
13
48
1
60
0
100
AcDbLine
10
78.6995
20
-5.5575
30
0
11
78.6995
21
-18.772503
31
0
39
0
210
0
220
0
230
1
0
LINE
5
120
100
AcDbEntity
8
SK2
62
256
6
ByLayer
370
13
48
1
60
0
100
AcDbLine
10
69.9495
20
-16.772503
30
0
11
93.559715
21
-16.772503
31
0
39
0
210
0
220
0
230
1
0
SOLID
5
121
100
AcDbEntity
8
SK2
62
256
6
ByLayer
370
13
48
1
60
0
100
AcDbTrace
10
80
20
-16.772503
30
0
11
83.499998
21
-16.311719
31
0
12
83.500002
22
-17.233287
32
0
13
80
23
-16.772503
33
0
39
0
210
0
220
0
230
1
0
SOLID
5
122
100
AcDbEntity
8
SK2
62
256
6
ByLayer
370
13
48
1
60
0
100
AcDbTrace
10
78.6995
20
-16.772503
30
0
11
75.199502
21
-17.233287
31
0
12
75.199498
22
-16.311719
32
0
13
78.6995
23
-16.772503
33
0
39
0
210
0
220
0
230
1
0
ENDBLK
5
124
100
AcDbEntity
8
0
100
AcDbBlockEnd
0
BLOCK
5
12D
100
AcDbEntity
8
0
100
AcDbBlockBegin
2
DimnDraft3D5
70
0
10
0
20
0
30
0
3
DimnDraft3D5
0
MTEXT
5
127
100
AcDbEntity
8
SK2
62
256
6
ByLayer
370
13
48
1
60
0
100
AcDbMText
10
13.894387
20
-21.468428
30
0
210
0
220
0
230
1
1
\W0.6654;114,70
40
3.5
41
0
44
1.084337
50
0
71
7
72
5
7
iso_b_vert
0
LINE
5
128
100
AcDbEntity
8
SK2
62
256
6
ByLayer
370
13
48
1
60
0
100
AcDbLine
10
-36
20
-5.5875
30
0
11
-36
21
-24.343428
31
0
39
0
210
0
220
0
230
1
0
LINE
5
129
100
AcDbEntity
8
SK2
62
256
6
ByLayer
370
13
48
1
60
0
100
AcDbLine
10
78.6995
20
-5.5575
30
0
11
78.6995
21
-24.343428
31
0
39
0
210
0
220
0
230
1
0
LINE
5
12A
100
AcDbEntity
8
SK2
62
256
6
ByLayer
370
13
48
1
60
0
100
AcDbLine
10
-36
20
-22.343428
30
0
11
78.6995
21
-22.343428
31
0
39
0
210
0
220
0
230
1
0
SOLID
5
12B
100
AcDbEntity
8
SK2
62
256
6
ByLayer
370
13
48
1
60
0
100
AcDbTrace
10
-36
20
-22.343428
30
0
11
-32.500002
21
-21.882645
31
0
12
-32.499998
22
-22.804212
32
0
13
-36
23
-22.343428
33
0
39
0
210
0
220
0
230
1
0
SOLID
5
12C
100
AcDbEntity
8
SK2
62
256
6
ByLayer
370
13
48
1
60
0
100
AcDbTrace
10
78.6995
20
-22.343428
30
0
11
75.199502
21
-22.804212
31
0
12
75.199498
22
-21.882645
32
0
13
78.6995
23
-22.343428
33
0
39
0
210
0
220
0
230
1
0
ENDBLK
5
12E
100
AcDbEntity
8
0
100
AcDbBlockEnd
0
BLOCK
5
138
100
AcDbEntity
8
0
100
AcDbBlockBegin
2
DimnDraft3D6
70
0
10
0
20
0
30
0
3
DimnDraft3D6
0
MTEXT
5
131
100
AcDbEntity
8
SK2
62
256
6
ByLayer
370
13
48
1
60
0
100
AcDbMText
10
-46.375163
20
23.34918
30
0
210
0
220
0
230
1
1
\W0.7317;8,000
40
3.5
41
0
44
1.084337
50
90
71
7
72
5
7
iso_b_vert
0
MTEXT
5
132
100
AcDbEntity
8
SK2
62
256
6
ByLayer
370
13
48
1
60
0
100
AcDbMText
10
-46.375163
20
18.126524
30
0
210
0
220
0
230
1
1
%%c
40
3.5
41
0
44
1.084337
50
90
71
7
72
5
7
iso_b_vert
0
LINE
5
133
100
AcDbEntity
8
SK2
62
256
6
ByLayer
370
13
48
1
60
0
100
AcDbLine
10
-37.5875
20
-4
30
0
11
-46.625163
21
-4
31
0
39
0
210
0
220
0
230
1
0
LINE
5
134
100
AcDbEntity
8
SK2
62
256
6
ByLayer
370
13
48
1
60
0
100
AcDbLine
10
-37.5875
20
4
30
0
11
-46.625163
21
4
31
0
39
0
210
0
220
0
230
1
0
LINE
5
135
100
AcDbEntity
8
SK2
62
256
6
ByLayer
370
13
48
1
60
0
100
AcDbLine
10
-44.625163
20
-4
30
0
11
-44.625163
21
33.121549
31
0
39
0
210
0
220
0
230
1
0
SOLID
5
136
100
AcDbEntity
8
SK2
62
256
6
ByLayer
370
13
48
1
60
0
100
AcDbTrace
10
-44.625163
20
-4
30
0
11
-45.085946
21
-0.500002
31
0
12
-44.164379
22
-0.499998
32
0
13
-44.625163
23
-4
33
0
39
0
210
0
220
0
230
1
0
SOLID
5
137
100
AcDbEntity
8
SK2
62
256
6
ByLayer
370
13
48
1
60
0
100
AcDbTrace
10
-44.625163
20
4
30
0
11
-44.164379
21
0.500002
31
0
12
-45.085946
22
0.499998
32
0
13
-44.625163
23
4
33
0
39
0
210
0
220
0
230
1
0
ENDBLK
5
139
100
AcDbEntity
8
0
100
AcDbBlockEnd
0
BLOCK
5
143
100
AcDbEntity
8
0
100
AcDbBlockBegin
2
DimnDraft3D7
70
0
10
0
20
0
30
0
3
DimnDraft3D7
0
MTEXT
5
13C
100
AcDbEntity
8
2
62
256
6
ByLayer
370
13
48
1
60
0
100
AcDbMText
10
90.333343
20
21.912266
30
0
210
0
220
0
230
1
1
\W0.7581;7,940
40
3.5
41
0
44
1.084337
50
90
71
7
72
5
7
iso_b_vert
0
MTEXT
5
13D
100
AcDbEntity
8
2
62
256
6
ByLayer
370
13
48
1
60
0
100
AcDbMText
10
90.333343
20
16.68961
30
0
210
0
220
0
230
1
1
%%c
40
3.5
41
0
44
1.084337
50
90
71
7
72
5
7
iso_b_vert
0
LINE
5
13E
100
AcDbEntity
8
2
62
256
6
ByLayer
370
13
48
1
60
0
100
AcDbLine
10
80.287
20
-3.97
30
0
11
94.083343
21
-3.97
31
0
39
0
210
0
220
0
230
1
0
LINE
5
13F
100
AcDbEntity
8
2
62
256
6
ByLayer
370
13
48
1
60
0
100
AcDbLine
10
80.287
20
3.97
30
0
11
94.083343
21
3.97
31
0
39
0
210
0
220
0
230
1
0
LINE
5
140
100
AcDbEntity
8
2
62
256
6
ByLayer
370
13
48
1
60
0
100
AcDbLine
10
92.083343
20
-3.97
30
0
11
92.083343
21
32.053056
31
0
39
0
210
0
220
0
230
1
0
SOLID
5
141
100
AcDbEntity
8
2
62
256
6
ByLayer
370
13
48
1
60
0
100
AcDbTrace
10
92.083343
20
-3.97
30
0
11
91.622559
21
-0.470002
31
0
12
92.544126
22
-0.469998
32
0
13
92.083343
23
-3.97
33
0
39
0
210
0
220
0
230
1
0
SOLID
5
142
100
AcDbEntity
8
2
62
256
6
ByLayer
370
13
48
1
60
0
100
AcDbTrace
10
92.083343
20
3.97
30
0
11
92.544126
21
0.470002
31
0
12
91.622559
22
0.469998
32
0
13
92.083343
23
3.97
33
0
39
0
210
0
220
0
230
1
0
ENDBLK
5
144
100
AcDbEntity
8
0
100
AcDbBlockEnd
0
ENDSEC
0
SECTION
2
ENTITIES
0
ELLIPSE
5
9C
100
AcDbEntity
8
1
62
256
6
ByLayer
370
13
48
1
60
0
100
AcDbEllipse
10
79.527509
20
0.262737
30
0
11
0.158327240012454
21
0.254818533607818
31
0
210
0
220
0
230
1
40
0.529484
41
0.73901381933391
42
2.131824077292
0
ELLIPSE
5
9D
100
AcDbEntity
8
1
62
256
6
ByLayer
370
13
48
1
60
0
100
AcDbEllipse
10
4.177279
20
-1.324797
30
0
11
-0.0302442134924442
21
-0.09531677475777
31
0
210
0
220
0
230
1
40
0.55892
41
-1.71218026621812
42
-0.396741366698831
0
ELLIPSE
5
9E
100
AcDbEntity
8
1
62
256
6
ByLayer
370
18
48
1
60
0
100
AcDbEllipse
10
80
20
-0.030837
30
0
11
0.140683639780754
21
0.26552137750948
31
0
210
0
220
0
230
-1
40
0.557436
41
-2.09347258846098
42
-0.943396821525202
0
ELLIPSE
5
9F
100
AcDbEntity
8
1
62
256
6
ByLayer
370
13
48
1
60
0
100
AcDbEllipse
10
80.303648
20
1.824357
30
0
11
2.20303324207794
21
-1.42300191120184
31
0
210
0
220
0
230
-1
40
0.722703
41
1.54651556382383
42
1.85567267574296
0
ELLIPSE
5
A0
100
AcDbEntity
8
1
62
256
6
ByLayer
370
13
48
1
60
0
100
AcDbEllipse
10
4.250236
20
-1.355612
30
0
11
0.0458822748128082
21
0.0888527819373257
31
0
210
0
220
0
230
1
40
0.170043
41
1.24943131325465
42
2.80070685547218
0
POINT
5
6C
100
AcDbEntity
8
81
62
256
6
ByLayer
370
18
48
1
60
0
100
AcDbPoint
10
80
20
0
30
0
39
0
210
0
220
0
230
1
50
360
0
POINT
5
6E
100
AcDbEntity
8
80
62
256
6
ByLayer
370
18
48
1
60
0
100
AcDbPoint
10
0
20
0
30
0
39
0
210
0
220
0
230
1
50
360
0
POINT
5
70
100
AcDbEntity
8
SK2
62
256
6
ByLayer
370
18
48
1
60
1
100
AcDbPoint
10
-36
20
-4
30
0
39
0
210
0
220
0
230
1
50
360
0
POINT
5
72
100
AcDbEntity
8
SK2
62
256
6
ByLayer
370
18
48
1
60
1
100
AcDbPoint
10
-36
20
4
30
0
39
0
210
0
220
0
230
1
50
360
0
POINT
5
73
100
AcDbEntity
8
2
62
256
6
ByLayer
370
18
48
1
60
1
100
AcDbPoint
10
78.6995
20
-3.97
30
0
39
0
210
0
220
0
230
1
50
360
0
POINT
5
75
100
AcDbEntity
8
2
62
256
6
ByLayer
370
18
48
1
60
1
100
AcDbPoint
10
78.6995
20
3.97
30
0
39
0
210
0
220
0
230
1
50
360
0
SPLINE
5
A1
100
AcDbEntity
8
1
62
256
6
ByLayer
370
18
48
1
60
0
100
AcDbSpline
70
4
71
3
72
21
73
17
40
0
40
0
40
0
40
0
40
0.0114875999709828
40
0.0566229593686298
40
0.145022163718203
40
0.223316958974943
40
0.298268257929992
40
0.403321067388072
40
0.499805628900653
40
0.587248236636102
40
0.684973068171524
40
0.789886200781693
40
0.816553854866792
40
0.866972691791245
40
0.941967878606315
40
1
40
1
40
1
40
1
41
1
10
45.2848910813186
20
-0.895288814257384
30
0
41
1
10
45.2849433194219
20
-0.895445669884907
30
0
41
1
10
45.2921820776077
20
-0.89689182621251
30
0
41
1
10
45.3570925056704
20
-0.905681837062787
30
0
41
1
10
45.4956278894626
20
-0.928035047539368
30
0
41
1
10
45.5816441644438
20
-0.946055244171419
30
0
41
1
10
45.6658378113051
20
-0.967178449361825
30
0
41
1
10
45.8508947032506
20
-1.01883808732913
30
0
41
1
10
46.0697029638695
20
-1.09326690707135
30
0
41
1
10
46.254338047418
20
-1.1600070686352
30
0
41
1
10
46.4486932696554
20
-1.2403660229869
30
0
41
1
10
46.6342423147898
20
-1.32394857693339
30
0
41
1
10
46.8088592337231
20
-1.40615898428919
30
0
41
1
10
46.9638672418835
20
-1.48085806489101
30
0
41
1
10
47.1516198688981
20
-1.5741397158713
30
0
41
1
10
47.2893584451014
20
-1.64515282674603
30
0
41
1
10
47.349680110449
20
-1.67670943261774
30
0
0
SPLINE
5
A2
100
AcDbEntity
8
1
62
256
6
ByLayer
370
18
48
1
60
0
100
AcDbSpline
70
4
71
3
72
9
73
5
40
0
40
0
40
0
40
0
40
0.56843782812506
40
1
40
1
40
1
40
1
41
1
10
32.9346739507023
20
-0.30073121836304
30
0
41
1
10
32.9344962493413
20
-0.300482209348956
30
0
41
1
10
32.9233400723271
20
-0.294577884270609
30
0
41
1
10
32.8991846834914
20
-0.281748745597071
30
0
41
1
10
32.8858832286378
20
-0.274720556304061
30
0
0
SPLINE
5
A3
100
AcDbEntity
8
1
62
256
6
ByLayer
370
18
48
1
60
0
100
AcDbSpline
70
4
71
3
72
27
73
23
40
0
40
0
40
0
40
0
40
0.0619775480709363
40
0.112186970586697
40
0.149521004664305
40
0.190904809503371
40
0.238049679715226
40
0.281646840754341
40
0.316599165282087
40
0.361868911259844
40
0.412714392880031
40
0.473551164162175
40
0.536085361063948
40
0.588366344900727
40
0.640100988834892
40
0.703036472349043
40
0.787198316289062
40
0.843117002747359
40
0.885432516250385
40
0.927498694247149
40
0.988965893875168
40
1
40
1
40
1
40
1
41
1
10
12.6108670373162
20
-3.73185685687429
30
0
41
1
10
12.7946252504142
20
-3.73207458432015
30
0
41
1
10
13.1272504781004
20
-3.73245565291092
30
0
41
1
10
13.5711173660971
20
-3.73273464798066
30
0
41
1
10
13.9530256040798
20
-3.73325084161957
30
0
41
1
10
14.326277840567
20
-3.73418749864021
30
0
41
1
10
14.7182753371132
20
-3.73482319643205
30
0
41
1
10
15.0912117580309
20
-3.73487999302213
30
0
41
1
10
15.4585325946728
20
-3.73491001235178
30
0
41
1
10
15.8473850772357
20
-3.73488262188025
30
0
41
1
10
16.3130542160819
20
-3.73545420948091
30
0
41
1
10
16.8299137462998
20
-3.73738505869869
30
0
41
1
10
17.3510716726411
20
-3.73769506007915
30
0
41
1
10
17.8451661523811
20
-3.73826361315844
30
0
41
1
10
18.3404873478457
20
-3.73789975289429
30
0
41
1
10
18.9304070197379
20
-3.73885318704546
30
0
41
1
10
19.5327304144838
20
-3.73845372358954
30
0
41
1
10
20.0738908254112
20
-3.74228091372976
30
0
41
1
10
20.4901042664848
20
-3.74235066604169
30
0
41
1
10
20.9228022711742
20
-3.74196205078894
30
0
41
1
10
21.2627130003746
20
-3.74088527334584
30
0
41
1
10
21.4778103716347
20
-3.74131827304078
30
0
41
1
10
21.5105464251924
20
-3.74139450784264
30
0
0
SPLINE
5
A4
100
AcDbEntity
8
1
62
256
6
ByLayer
370
18
48
1
60
0
100
AcDbSpline
70
4
71
3
72
9
73
5
40
0
40
0
40
0
40
0
40
0.489262444654321
40
1
40
1
40
1
40
1
41
1
10
11.1712832433338
20
-0.294012731800905
30
0
41
1
10
11.1711217889337
20
-0.293904314971087
30
0
41
1
10
11.1667655361685
20
-0.291649844405271
30
0
41
1
10
11.1563918299649
20
-0.286097007329772
30
0
41
1
10
11.1491117019405
20
-0.282240926082608
30
0
0
SPLINE
5
A5
100
AcDbEntity
8
1
62
256
6
ByLayer
370
18
48
1
60
0
100
AcDbSpline
70
4
71
3
72
19
73
15
40
0
40
0
40
0
40
0
40
0.0365838806077361
40
0.0929602196661157
40
0.242857299023023
40
0.371390200349437
40
0.521013956520005
40
0.59026406608594
40
0.649572413566456
40
0.723022216670986
40
0.783005989641155
40
0.829104121873186
40
0.913373861516542
40
1
40
1
40
1
40
1
41
1
10
23.5402514636638
20
-0.89447242245447
30
0
41
1
10
23.5402052425814
20
-0.895192429586331
30
0
41
1
10
23.561886929988
20
-0.898919406811928
30
0
41
1
10
23.6526340268549
20
-0.913323411214094
30
0
41
1
10
23.8478843747149
20
-0.947289898226387
30
0
41
1
10
24.0031092564433
20
-0.989484831424079
30
0
41
1
10
24.2319640321451
20
-1.06088414544274
30
0
41
1
10
24.4723691105913
20
-1.15047742148204
30
0
41
1
10
24.6198221432744
20
-1.20855380350812
30
0
41
1
10
24.7430511638966
20
-1.25984598876965
30
0
41
1
10
24.8745414877291
20
-1.31886939748759
30
0
41
1
10
25.0363870828098
20
-1.39410376369105
30
0
41
1
10
25.2506936482486
20
-1.49756673343973
30
0
41
1
10
25.4180950948391
20
-1.58294862634463
30
0
41
1
10
25.5053241765102
20
-1.62844958099376
30
0
0
SPLINE
5
A6
100
AcDbEntity
8
1
62
256
6
ByLayer
370
18
48
1
60
0
100
AcDbSpline
70
4
71
3
72
30
73
26
40
0
40
0
40
0
40
0
40
0.0611155727730527
40
0.110171626016623
40
0.14186133840557
40
0.172115753561541
40
0.212462660397184
40
0.260084711452557
40
0.30070480427507
40
0.332333817545692
40
0.372750387364702
40
0.409725572399275
40
0.456267181867179
40
0.514763869000768
40
0.567616724781629
40
0.607457257295341
40
0.650053450339012
40
0.701909910396152
40
0.760783976866828
40
0.799897827001245
40
0.831473344877268
40
0.857035113497711
40
0.901830902582344
40
0.974023807723321
40
1
40
1
40
1
40
1
41
1
10
56.113849314026
20
-3.7841108386047
30
0
41
1
10
56.2944585077141
20
-3.78436852514099
30
0
41
1
10
56.6200402656146
20
-3.78480160259357
30
0
41
1
10
57.0392546023456
20
-3.78519418260035
30
0
41
1
10
57.3673013896117
20
-3.78557807606904
30
0
41
1
10
57.6695175261812
20
-3.78591958637023
30
0
41
1
10
58.0188906108407
20
-3.78616014984158
30
0
41
1
10
58.3989043637421
20
-3.78654108098723
30
0
41
1
10
58.7531362211265
20
-3.78705669749593
30
0
41
1
10
59.0860702538034
20
-3.78727283690128
30
0
41
1
10
59.4082419277698
20
-3.78776623966084
30
0
41
1
10
59.7744942290514
20
-3.7887676644342
30
0
41
1
10
60.1941685578311
20
-3.7886103370723
30
0
41
1
10
60.6607713275092
20
-3.78877492253321
30
0
41
1
10
61.107570842088
20
-3.78921851075461
30
0
41
1
10
61.5073767541718
20
-3.78933253258509
30
0
41
1
10
61.9042388032338
20
-3.79172270551644
30
0
41
1
10
62.3573528044945
20
-3.79147907676233
30
0
41
1
10
62.8001817221486
20
-3.79100256531029
30
0
41
1
10
63.1830529754003
20
-3.79081236632038
30
0
41
1
10
63.4675031695042
20
-3.79095561593007
30
0
41
1
10
63.7680470408401
20
-3.79129564317529
30
0
41
1
10
64.1895616075588
20
-3.79264975127543
30
0
41
1
10
64.6119818165739
20
-3.79403958187959
30
0
41
1
10
64.9020090908792
20
-3.79450433258816
30
0
41
1
10
64.9787453769612
20
-3.79460809864253
30
0
0
SPLINE
5
A7
100
AcDbEntity
8
1
62
256
6
ByLayer
370
18
48
1
60
0
100
AcDbSpline
70
4
71
3
72
22
73
18
40
0
40
0
40
0
40
0
40
0.0430135499804237
40
0.137055434573768
40
0.208635724888528
40
0.262291793724691
40
0.314514109962208
40
0.362028248684915
40
0.424830230211278
40
0.493548501389748
40
0.546199446282733
40
0.590623928524542
40
0.677262056032569
40
0.774280259877594
40
0.861060951359681
40
0.936012761899621
40
1
40
1
40
1
40
1
41
1
10
43.3351383859318
20
3.76773232277827
30
0
41
1
10
43.2309670785613
20
3.76749314427937
30
0
41
1
10
42.8989267013353
20
3.76679065269158
30
0
41
1
10
42.3914641061781
20
3.76668264205478
30
0
41
1
10
41.8600733207967
20
3.76569204926349
30
0
41
1
10
41.428298042646
20
3.76618559713191
30
0
41
1
10
41.0554129188256
20
3.76608552204249
30
0
41
1
10
40.6602025602144
20
3.76595641267329
30
0
41
1
10
40.2249115227054
20
3.76475786067377
30
0
41
1
10
39.7771214523608
20
3.76273569730989
30
0
41
1
10
39.3740150935233
20
3.76304807054115
30
0
41
1
10
38.9273372794204
20
3.76332849522456
30
0
41
1
10
38.3727876458697
20
3.76403938850254
30
0
41
1
10
37.7152635920644
20
3.76127414489733
30
0
41
1
10
37.086115759505
20
3.76070700571827
30
0
41
1
10
36.5373940290028
20
3.76038957850153
30
0
41
1
10
36.1993922705351
20
3.76015452627399
30
0
41
1
10
36.0438669875535
20
3.75996883812118
30
0
0
SPLINE
5
A8
100
AcDbEntity
8
1
62
256
6
ByLayer
370
18
48
1
60
0
100
AcDbSpline
70
4
71
3
72
22
73
18
40
0
40
0
40
0
40
0
40
0.0266353103723305
40
0.125445863694982
40
0.202903130463359
40
0.269617738348521
40
0.35608915583988
40
0.456901476207201
40
0.555151790586358
40
0.620038320460407
40
0.677563045496416
40
0.738089683520151
40
0.819734395740233
40
0.895508805548337
40
0.936647932713565
40
0.972763970747003
40
1
40
1
40
1
40
1
41
1
10
21.6147207210921
20
3.74088331174548
30
0
41
1
10
21.5500848622347
20
3.74059737116121
30
0
41
1
10
21.2456478283355
20
3.73946659272656
30
0
41
1
10
20.7587081682496
20
3.74278004979772
30
0
41
1
10
20.1633728234268
20
3.74204431044271
30
0
41
1
10
19.6053103572517
20
3.73904445615347
30
0
41
1
10
18.9834855708893
20
3.7388546947987
30
0
41
1
10
18.2867848647699
20
3.73780170174589
30
0
41
1
10
17.6421657955158
20
3.73829172470124
30
0
41
1
10
17.1033074122183
20
3.73733867610252
30
0
41
1
10
16.6567927944334
20
3.73706200138278
30
0
41
1
10
16.1695691802453
20
3.73473173449679
30
0
41
1
10
15.6373440856367
20
3.73489371266208
30
0
41
1
10
15.1526639418854
20
3.73492321193007
30
0
41
1
10
14.7791163840894
20
3.73480492331916
30
0
41
1
10
14.523618423106
20
3.7346097202088
30
0
41
1
10
14.370336304463
20
3.73409895410589
30
0
41
1
10
14.3042756648838
20
3.73387507840042
30
0
0
SPLINE
5
A9
100
AcDbEntity
8
1
62
256
6
ByLayer
370
18
48
1
60
0
100
AcDbSpline
70
4
71
3
72
20
73
16
40
0
40
0
40
0
40
0
40
0.0289507157870778
40
0.0693028472879217
40
0.16418345225539
40
0.2750064582926
40
0.396664523252305
40
0.499773123507171
40
0.5602011783057
40
0.64406972725593
40
0.72871611026489
40
0.777045595771114
40
0.826818748557362
40
0.910120616391913
40
1
40
1
40
1
40
1
41
1
10
67.0811406450772
20
-0.901244334412667
30
0
41
1
10
67.0812965720046
20
-0.901592919291403
30
0
41
1
10
67.0979472815116
20
-0.903892145806026
30
0
41
1
10
67.2133172507595
20
-0.92114252307735
30
0
41
1
10
67.2144263691177
20
-0.921691095905203
30
0
41
1
10
67.4065503475049
20
-0.963809422229502
30
0
41
1
10
67.6105721638736
20
-1.02274912429223
30
0
41
1
10
67.8310730639788
20
-1.09566207765036
30
0
41
1
10
67.9714484416173
20
-1.14742332867004
30
0
41
1
10
68.1131444021279
20
-1.20517757752234
30
0
41
1
10
68.2864107649614
20
-1.28060133181151
30
0
41
1
10
68.4552281344403
20
-1.3579344052624
30
0
41
1
10
68.6380915746488
20
-1.44425611515169
30
0
41
1
10
68.8600824120965
20
-1.55303387604812
30
0
41
1
10
69.0351498561885
20
-1.64209727119984
30
0
41
1
10
69.1262435445494
20
-1.6893887619608
30
0
0
SPLINE
5
AA
100
AcDbEntity
8
1
62
256
6
ByLayer
370
18
48
1
60
0
100
AcDbSpline
70
4
71
3
72
23
73
19
40
0
40
0
40
0
40
0
40
0.0937396558431209
40
0.171740955724308
40
0.243549937246578
40
0.304106910889832
40
0.374220974962413
40
0.452606390480358
40
0.522605270646696
40
0.568737711952332
40
0.630020643254355
40
0.698994593670995
40
0.748705998381831
40
0.790887458175431
40
0.833872743210175
40
0.891462912473957
40
0.966572723379379
40
1
40
1
40
1
40
1
41
1
10
34.3152708344736
20
-3.75771876949764
30
0
41
1
10
34.5968674101421
20
-3.75771898388769
30
0
41
1
10
35.1128598754378
20
-3.75795172225577
30
0
41
1
10
35.8433836877382
20
-3.75990071789428
30
0
41
1
10
36.4768836925974
20
-3.76035473258634
30
0
41
1
10
37.0861157496324
20
-3.76070648329602
30
0
41
1
10
37.7152636378532
20
-3.76127657182943
30
0
41
1
10
38.3727874620164
20
-3.76402964974426
30
0
41
1
10
38.9581529716054
20
-3.76331636532893
30
0
41
1
10
39.4920509275123
20
-3.76291455574159
30
0
41
1
10
40.0228700939343
20
-3.76312628681643
30
0
41
1
10
40.5644382337644
20
-3.76611769043882
30
0
41
1
10
41.0485674254557
20
-3.76605883433555
30
0
41
1
10
41.4543817183244
20
-3.76617542050542
30
0
41
1
10
41.8843096265841
20
-3.76568424556373
30
0
41
1
10
42.41108610074
20
-3.7667356164558
30
0
41
1
10
42.9113995327214
20
-3.76680717122056
30
0
41
1
10
43.2368157653689
20
-3.76750086486089
30
0
41
1
10
43.3370013688111
20
-3.76773164937467
30
0
0
SPLINE
5
AB
100
AcDbEntity
8
1
62
256
6
ByLayer
370
18
48
1
60
0
100
AcDbSpline
70
4
71
2
72
6
73
3
40
0
40
0
40
0
40
1
40
1
40
1
41
1
10
77.8188739862078
20
-3.81025766127036
30
0
41
1
10
78.2165970883435
20
-3.80613013881913
30
0
41
1
10
78.6145905803118
20
-3.81255987106817
30
0
0
SPLINE
5
AC
100
AcDbEntity
8
1
62
256
6
ByLayer
370
18
48
1
60
0
100
AcDbSpline
70
4
71
3
72
27
73
23
40
0
40
0
40
0
40
0
40
0.0105762387832456
40
0.0815769880241543
40
0.129673225427032
40
0.169996342989716
40
0.212932846754031
40
0.25827509635142
40
0.300185179626207
40
0.348770609692276
40
0.401202088697094
40
0.470972023665177
40
0.536613915091763
40
0.586659392694917
40
0.629037988382493
40
0.669249324613496
40
0.718770851508107
40
0.78856337187562
40
0.862441709152718
40
0.929781152114098
40
0.983436059068619
40
1
40
1
40
1
40
1
41
1
10
65.0323541099693
20
3.79486542729487
30
0
41
1
10
65.0070609780051
20
3.7948333426956
30
0
41
1
10
64.8119661298323
20
3.79456343965464
30
0
41
1
10
64.5017631602776
20
3.79383005967242
30
0
41
1
10
64.1204291913146
20
3.7924954823238
30
0
41
1
10
63.8064139563105
20
3.7914909633821
30
0
41
1
10
63.4987770818889
20
3.79095748859831
30
0
41
1
10
63.1873485303722
20
3.79081256268071
30
0
41
1
10
62.8624058486852
20
3.79099172803544
30
0
41
1
10
62.520504637449
20
3.79120691214095
30
0
41
1
10
62.1119582380928
20
3.79203215063032
30
0
41
1
10
61.6626186610018
20
3.78994307067271
30
0
41
1
10
61.2189777550277
20
3.7891811216866
30
0
41
1
10
60.840863872925
20
3.78896675556683
30
0
41
1
10
60.5235815596475
20
3.78873119713458
30
0
41
1
10
60.2075520947868
20
3.78864400707221
30
0
41
1
10
59.8259556662172
20
3.78877602750512
30
0
41
1
10
59.3638111466442
20
3.78757491791416
30
0
41
1
10
58.8590499012555
20
3.78716602455592
30
0
41
1
10
58.3928980024072
20
3.78654394950343
30
0
41
1
10
58.0638260020508
20
3.78622311580912
30
0
41
1
10
57.8958816448633
20
3.7860880151172
30
0
41
1
10
57.8562658903414
20
3.78605537266586
30
0
0
SPLINE
5
AD
100
AcDbEntity
8
1
62
256
6
ByLayer
370
13
48
1
60
0
100
AcDbSpline
70
4
71
3
72
8
73
4
40
0
40
0
40
0
40
0
40
1
40
1
40
1
40
1
41
1
10
4.12780997714236
20
-1.42058825279838
30
0
41
1
10
4.12813801962005
20
-1.41578586416116
30
0
41
1
10
4.12846730073525
20
-1.4109823179314
30
0
41
1
10
4.12879782278014
20
-1.40617759501626
30
0
0
SPLINE
5
AE
100
AcDbEntity
8
1
62
256
6
ByLayer
370
18
48
1
60
0
100
AcDbSpline
70
4
71
3
72
14
73
10
40
0
40
0
40
0
40
0
40
0.25
40
0.25
40
0.5
40
0.5
40
0.75
40
0.75
40
1
40
1
40
1
40
1
41
1
10
79.6561203016138
20
-1.41553900128576
30
0
41
1
10
79.686761771002
20
-1.32490410486489
30
0
41
1
10
79.7161199589684
20
-1.23458210791557
30
0
41
1
10
79.769822228263
20
-1.06141709470884
30
0
41
1
10
79.794198388912
20
-0.978572410223478
30
0
41
1
10
79.8378477196906
20
-0.820484364947902
30
0
41
1
10
79.8572425940581
20
-0.744710050148655
30
0
41
1
10
79.8897659132229
20
-0.604159770633373
30
0
41
1
10
79.9028086051058
20
-0.539882907711814
30
0
41
1
10
79.9125241077188
20
-0.481828514479872
30
0
0
SPLINE
5
AF
100
AcDbEntity
8
1
62
256
6
ByLayer
370
18
48
1
60
0
100
AcDbSpline
70
4
71
3
72
22
73
18
40
0
40
0
40
0
40
0
40
0.0928678959093281
40
0.0928678959093281
40
0.185735791818656
40
0.185735791818656
40
0.371471583637311
40
0.371471583637311
40
0.557207375455966
40
0.557207375455966
40
0.650075271365294
40
0.650075271365294
40
0.742943167274622
40
0.742943167274622
40
0.928678959093278
40
0.928678959093278
40
1
40
1
40
1
40
1
41
1
10
14.8389603389928
20
3.48702251211867
30
0
41
1
10
14.5152192897652
20
3.56802808701104
30
0
41
1
10
14.1881483526368
20
3.6347082022636
30
0
41
1
10
13.5271304847761
20
3.74343255286109
30
0
41
1
10
13.192767577779
20
3.78541118601493
30
0
41
1
10
12.1886690124265
20
3.87820628730634
30
0
41
1
10
11.5145069878492
20
3.8964616613095
30
0
41
1
10
10.1485321026888
20
3.87614427298354
30
0
41
1
10
9.45664040714661
20
3.8375287535589
30
0
41
1
10
8.40064286325094
20
3.76192545176457
30
0
41
1
10
8.04563899106037
20
3.73380473422154
30
0
41
1
10
7.32910968636301
20
3.67593686888949
30
0
41
1
10
6.96690861889482
20
3.64614616189991
30
0
41
1
10
5.87538631462112
20
3.56067767653008
30
0
41
1
10
5.14255076743672
20
3.50945584127527
30
0
41
1
10
4.12046893635443
20
3.4619649438126
30
0
41
1
10
3.83603015236477
20
3.45121948217098
30
0
41
1
10
3.55077129107684
20
3.44326517013886
30
0
0
SPLINE
5
B0
100
AcDbEntity
8
1
62
256
6
ByLayer
370
18
48
1
60
0
100
AcDbSpline
70
4
71
3
72
20
73
16
40
0
40
0
40
0
40
0
40
0.0115788872660585
40
0.0115788872660585
40
0.0586465593010088
40
0.0586465593010088
40
0.15278190337091
40
0.15278190337091
40
0.246917247440811
40
0.246917247440811
40
0.435187935580608
40
0.435187935580608
40
0.623458623720405
40
0.623458623720405
40
1
40
1
40
1
40
1
41
1
10
2.07353496101814
20
3.87782780717862
30
0
41
1
10
2.0771009649726
20
3.8777210925779
30
0
41
1
10
2.08077512634884
20
3.8775703045942
30
0
41
1
10
2.09989394032505
20
3.87658780264769
30
0
41
1
10
2.11691188722188
20
3.87509465779081
30
0
41
1
10
2.17229326782427
20
3.86872616280971
30
0
41
1
10
2.2149514185673
20
3.86197252155333
30
0
41
1
10
2.30917002551556
20
3.8442828364962
30
0
41
1
10
2.36097517681455
20
3.83328100261076
30
0
41
1
10
2.52395271830403
20
3.79560984425712
30
0
41
1
10
2.64329067773574
20
3.76424060473354
30
0
41
1
10
2.89531112576725
20
3.69233776528998
30
0
41
1
10
3.02866005341423
20
3.6515742788383
30
0
41
1
10
3.43937880100938
20
3.51903525623433
30
0
41
1
10
3.72510510981843
20
3.41793416489313
30
0
41
1
10
4.01730614740526
20
3.30715318384529
30
0
0
SPLINE
5
B1
100
AcDbEntity
8
1
62
256
6
ByLayer
370
18
48
1
60
0
100
AcDbSpline
70
4
71
3
72
14
73
10
40
0
40
0
40
0
40
0
40
0.25
40
0.25
40
0.5
40
0.5
40
0.75
40
0.75
40
1
40
1
40
1
40
1
41
1
10
4.01730614777756
20
3.307153183709
30
0
41
1
10
4.02648676396262
20
3.29176065476275
30
0
41
1
10
4.0398248243591
20
3.27502756715256
30
0
41
1
10
4.07321397559286
20
3.2419381424543
30
0
41
1
10
4.09367949548954
20
3.22520770818682
30
0
41
1
10
4.13722494559411
20
3.19490341764614
30
0
41
1
10
4.16038420797543
20
3.18116491667092
30
0
41
1
10
4.20621571890644
20
3.1573538675726
30
0
41
1
10
4.22855160984949
20
3.14739377122749
30
0
41
1
10
4.25026126690432
20
3.138968028904
30
0
0
SPLINE
5
B2
100
AcDbEntity
8
1
62
256
6
ByLayer
370
13
48
1
60
0
100
AcDbSpline
70
4
71
3
72
8
73
4
40
0
40
0
40
0
40
0
40
1
40
1
40
1
40
1
41
1
10
4.25039322458127
20
-1.32014407656581
30
0
41
1
10
4.20791596533363
20
-1.30731796003596
30
0
41
1
10
4.16641771897821
20
-1.29865334187335
30
0
41
1
10
4.12879782278014
20
-1.29462971109558
30
0
0
SPLINE
5
B3
100
AcDbEntity
8
1
62
256
6
ByLayer
370
18
48
1
60
0
100
AcDbSpline
70
4
71
3
72
14
73
10
40
0
40
0
40
0
40
0
40
0.25
40
0.25
40
0.5
40
0.5
40
0.75
40
0.75
40
1
40
1
40
1
40
1
41
1
10
78.6690663553804
20
-3.78526538406712
30
0
41
1
10
78.6712344726033
20
-3.78364762818276
30
0
41
1
10
78.6727445164004
20
-3.78380127011022
30
0
41
1
10
78.6740726710343
20
-3.78864863842162
30
0
41
1
10
78.6738400260409
20
-3.79345212726551
30
0
41
1
10
78.6708567478859
20
-3.80874147083404
30
0
41
1
10
78.6680850414069
20
-3.8191836025712
30
0
41
1
10
78.6605144213576
20
-3.84330056519303
30
0
41
1
10
78.6557577863817
20
-3.8568564653026
30
0
41
1
10
78.6507494030384
20
-3.87009424061222
30
0
0
SPLINE
5
B4
100
AcDbEntity
8
1
62
256
6
ByLayer
370
18
48
1
60
0
100
AcDbSpline
70
4
71
3
72
16
73
12
40
0
40
0
40
0
40
0
40
0.142528921097499
40
0.142528921097499
40
0.647071295193263
40
0.647071295193263
40
0.773206888717206
40
0.773206888717206
40
0.899342482241149
40
0.899342482241149
40
1
40
1
40
1
40
1
41
1
10
56.117919266089
20
-3.78413889593085
30
0
41
1
10
55.8999501412172
20
-3.78393950917265
30
0
41
1
10
55.6822643152486
20
-3.77812015639043
30
0
41
1
10
54.6943488122638
20
-3.72657672104876
30
0
41
1
10
53.9246116214125
20
-3.6162555698331
30
0
41
1
10
52.9511747770705
20
-3.39418574586918
30
0
41
1
10
52.7556307760139
20
-3.34550451279941
30
0
41
1
10
52.3663475999911
20
-3.24082674815432
30
0
41
1
10
52.1722551492041
20
-3.18476026574166
30
0
41
1
10
51.8239912536062
20
-3.07756004561122
30
0
41
1
10
51.6696802683922
20
-3.02770671268141
30
0
41
1
10
51.5155481157695
20
-2.97569789510328
30
0
0
SPLINE
5
B5
100
AcDbEntity
8
1
62
256
6
ByLayer
370
13
48
1
60
0
100
AcDbSpline
70
4
71
3
72
24
73
20
40
0
40
0
40
0
40
0
40
0.0643807217829356
40
0.0643807217829356
40
0.278627909115467
40
0.278627909115467
40
0.332189705948599
40
0.332189705948599
40
0.385751502781731
40
0.385751502781731
40
0.492875096447995
40
0.492875096447995
40
0.707122283780523
40
0.707122283780523
40
0.814245877446787
40
0.814245877446787
40
0.921369471113051
40
0.921369471113051
40
1
40
1
40
1
40
1
41
1
10
51.5155481159415
20
-2.97569789516129
30
0
41
1
10
51.2833891899056
20
-2.89736050074038
30
0
41
1
10
51.0516359881089
20
-2.8141328770746
30
0
41
1
10
50.0492229563348
20
-2.43453801520368
30
0
41
1
10
49.2797914787244
20
-2.09276853208647
30
0
41
1
10
48.3078255542241
20
-1.61988847272227
30
0
41
1
10
48.1125264766409
20
-1.52287510926374
30
0
41
1
10
47.7224027668255
20
-1.32576605993211
30
0
41
1
10
47.5279372840841
20
-1.22585987205889
30
0
41
1
10
46.9458577377367
20
-0.922962646539958
30
0
41
1
10
46.559643862962
20
-0.716638744677255
30
0
41
1
10
45.4026887849396
20
-0.0916881955872384
30
0
41
1
10
44.6334862001798
20
0.332668691078141
30
0
41
1
10
43.4686810423177
20
0.954294770696293
30
0
41
1
10
43.0774615800324
20
1.1593869959826
30
0
41
1
10
42.2969844489663
20
1.55519387175147
30
0
41
1
10
41.9070869413155
20
1.74632952360096
30
0
41
1
10
41.2295916599889
20
2.06276342293933
30
0
41
1
10
40.9432671102712
20
2.19148587997788
30
0
41
1
10
40.6570143504496
20
2.31406837671091
30
0
0
SPLINE
5
B6
100
AcDbEntity
8
1
62
256
6
ByLayer
370
18
48
1
60
0
100
AcDbSpline
70
4
71
3
72
16
73
12
40
0
40
0
40
0
40
0
40
0.31330230121694
40
0.31330230121694
40
0.446849793328652
40
0.446849793328652
40
0.580397285440365
40
0.580397285440365
40
0.847492269663787
40
0.847492269663787
40
1
40
1
40
1
40
1
41
1
10
12.6196152738102
20
-3.73183301891649
30
0
41
1
10
12.16581319426
20
-3.73140634313845
30
0
41
1
10
11.7108312158982
20
-3.70689959080201
30
0
41
1
10
11.0575930750852
20
-3.6373635702976
30
0
41
1
10
10.8615102892512
20
-3.61211624070808
30
0
41
1
10
10.4711440063074
20
-3.55329346425484
30
0
41
1
10
10.2765062041133
20
-3.51969455240996
30
0
41
1
10
9.69377423363579
20
-3.40676639993239
30
0
41
1
10
9.30695628082739
20
-3.31531923085538
30
0
41
1
10
8.69986148191154
20
-3.14839256345135
30
0
41
1
10
8.47930105065336
20
-3.08288814650402
30
0
41
1
10
8.25862566642127
20
-3.01278247066028
30
0
0
SPLINE
5
B7
100
AcDbEntity
8
1
62
256
6
ByLayer
370
13
48
1
60
0
100
AcDbSpline
70
4
71
3
72
12
73
8
40
0
40
0
40
0
40
0
40
0.416741806907213
40
0.416741806907213
40
0.708370903453608
40
0.708370903453608
40
1
40
1
40
1
40
1
41
1
10
8.25862566750956
20
-3.01278247100598
30
0
41
1
10
7.70633973145158
20
-2.83732847130966
30
0
41
1
10
7.1533337822984
20
-2.63305428056248
30
0
41
1
10
6.20658662403184
20
-2.24303716206421
30
0
41
1
10
5.81422327441464
20
-2.06988529485469
30
0
41
1
10
5.03245981906295
20
-1.70704653087904
30
0
41
1
10
4.64184122130808
20
-1.51701139334401
30
0
41
1
10
4.2503932245815
20
-1.32014407656592
30
0
0
SPLINE
5
B8
100
AcDbEntity
8
1
62
256
6
ByLayer
370
18
48
1
60
0
100
AcDbSpline
70
4
71
3
72
16
73
12
40
0
40
0
40
0
40
0
40
0.25
40
0.25
40
0.5
40
0.5
40
0.75
40
0.75
40
0.875
40
0.875
40
1
40
1
40
1
40
1
41
1
10
78.7671581180429
20
1.07932938814278
30
0
41
1
10
78.8484682603238
20
1.09059340365022
30
0
41
1
10
78.9293125366441
20
1.10363013810613
30
0
41
1
10
79.0893123424843
20
1.13524325650815
30
0
41
1
10
79.1685207730327
20
1.15374113267791
30
0
41
1
10
79.3241973566687
20
1.20044833076204
30
0
41
1
10
79.4005532136071
20
1.22833809936395
30
0
41
1
10
79.507723856141
20
1.28454928373
30
0
41
1
10
79.541695820935
20
1.30549525763675
30
0
41
1
10
79.6042171086476
20
1.35436665422733
30
0
41
1
10
79.6332280807591
20
1.38288737368191
30
0
41
1
10
79.6561203016138
20
1.41553900128582
30
0
0
SPLINE
5
B9
100
AcDbEntity
8
1
62
256
6
ByLayer
370
18
48
1
60
0
100
AcDbSpline
70
4
71
3
72
48
73
44
40
0
40
0
40
0
40
0
40
0.051135140190915
40
0.051135140190915
40
0.0767027102863732
40
0.0767027102863732
40
0.102270280381831
40
0.102270280381831
40
0.204540560763666
40
0.204540560763666
40
0.230108130859123
40
0.230108130859123
40
0.255675700954581
40
0.255675700954581
40
0.306810841145496
40
0.306810841145496
40
0.409081121527324
40
0.409081121527324
40
0.434648691622782
40
0.434648691622782
40
0.46021626171824
40
0.46021626171824
40
0.511351401909158
40
0.511351401909158
40
0.562486542100076
40
0.562486542100076
40
0.613621682290994
40
0.613621682290994
40
0.639189252386453
40
0.639189252386453
40
0.664756822481912
40
0.664756822481912
40
0.715891962672831
40
0.715891962672831
40
0.818162243054668
40
0.818162243054668
40
0.843729813150126
40
0.843729813150126
40
0.869297383245585
40
0.869297383245585
40
0.920432523436503
40
0.920432523436503
40
1
40
1
40
1
40
1
41
1
10
78.627671223313
20
-3.93103651321692
30
0
41
1
10
78.2389131158888
20
-3.9617479818549
30
0
41
1
10
77.8504666135801
20
-3.97371510933061
30
0
41
1
10
77.2665499883734
20
-3.96347662987148
30
0
41
1
10
77.0714551777817
20
-3.95533537896924
30
0
41
1
10
76.6826856651365
20
-3.92978300916491
30
0
41
1
10
76.4888160762543
20
-3.91237910250635
30
0
41
1
10
75.5211289330809
20
-3.80277080055163
30
0
41
1
10
74.7522848128376
20
-3.64282741178087
30
0
41
1
10
73.7848169459285
20
-3.36098965796583
30
0
41
1
10
73.5909952898073
20
-3.30053269327101
30
0
41
1
10
73.202359149799
20
-3.17166255054696
30
0
41
1
10
73.0071617666763
20
-3.10308382181884
30
0
41
1
10
72.4239881196065
20
-2.88742457114165
30
0
41
1
10
72.0375627423293
20
-2.73031071343485
30
0
41
1
10
70.8813275482863
20
-2.22506580120384
30
0
41
1
10
70.1149159717377
20
-1.842517185612
30
0
41
1
10
69.1492393531786
20
-1.32700601466172
30
0
41
1
10
68.9557116357489
20
-1.22205419681515
30
0
41
1
10
68.5675163737927
20
-1.00900114820846
30
0
41
1
10
68.372531209174
20
-0.900715408013298
30
0
41
1
10
67.7878623188616
20
-0.573330978084101
30
0
41
1
10
67.3992721802547
20
-0.352025462053888
30
0
41
1
10
66.6219869250071
20
0.0923284098469139
30
0
41
1
10
66.2325271594708
20
0.315278059060859
30
0
41
1
10
65.4527783471831
20
0.756116394848789
30
0
41
1
10
65.064095080785
20
0.973283485984325
30
0
41
1
10
64.4809194890165
20
1.29087053911871
30
0
41
1
10
64.2864863632268
20
1.39534473459213
30
0
41
1
10
63.8971906272626
20
1.60093150752192
30
0
41
1
10
63.7020129400214
20
1.70221326360846
30
0
41
1
10
63.1178043872843
20
1.99882932661612
30
0
41
1
10
62.7307820686198
20
2.18656339578141
30
0
41
1
10
61.5729915062767
20
2.71469811019503
30
0
41
1
10
60.806165224539
20
3.02088800515548
30
0
41
1
10
59.8400933175629
20
3.32893831861685
30
0
41
1
10
59.6465161853363
20
3.38683651485303
30
0
41
1
10
59.258361045042
20
3.49484599650148
30
0
41
1
10
59.0635278173527
20
3.54501353631795
30
0
41
1
10
58.4785644772328
20
3.68268495430166
30
0
41
1
10
58.0911590051912
20
3.75667478638732
30
0
41
1
10
57.1042621860329
20
3.89984445923662
30
0
41
1
10
56.5064919439603
20
3.94341839895236
30
0
41
1
10
55.9069857203284
20
3.94263973789799
30
0
0
SPLINE
5
BA
100
AcDbEntity
8
1
62
256
6
ByLayer
370
18
48
1
60
0
100
AcDbSpline
70
4
71
3
72
52
73
48
40
0
40
0
40
0
40
0
40
0.0201832466688243
40
0.0201832466688243
40
0.0694103059160599
40
0.0694103059160599
40
0.16786442441053
40
0.16786442441053
40
0.217091483657764
40
0.217091483657764
40
0.241705013281381
40
0.241705013281381
40
0.266318542904999
40
0.266318542904999
40
0.315545602152233
40
0.315545602152233
40
0.364772661399467
40
0.364772661399467
40
0.413999720646702
40
0.413999720646702
40
0.463226779893936
40
0.463226779893936
40
0.51245383914117
40
0.51245383914117
40
0.561680898388405
40
0.561680898388405
40
0.610907957635639
40
0.610907957635639
40
0.635521487259256
40
0.635521487259256
40
0.660135016882874
40
0.660135016882874
40
0.758589135377345
40
0.758589135377345
40
0.807816194624581
40
0.807816194624581
40
0.832429724248199
40
0.832429724248199
40
0.857043253871816
40
0.857043253871816
40
0.906270313119051
40
0.906270313119051
40
0.930883842742669
40
0.930883842742669
40
0.955497372366287
40
0.955497372366287
40
1
40
1
40
1
40
1
41
1
10
36.1329065603827
20
-3.76056008062491
30
0
41
1
10
35.9741728652766
20
-3.78565318842237
30
0
41
1
10
35.8151850669485
20
-3.80781778352289
30
0
41
1
10
35.2672544704108
20
-3.87373225071485
30
0
41
1
10
34.8752824883334
20
-3.90255733166555
30
0
41
1
10
33.7094660505589
20
-3.93245717406683
30
0
41
1
10
32.9401842317611
20
-3.87815095350578
30
0
41
1
10
31.7827923362389
20
-3.69137547495288
30
0
41
1
10
31.3963854724912
20
-3.61159799430752
30
0
41
1
10
30.8141559257903
20
-3.46622451499951
30
0
41
1
10
30.61958232962
20
-3.41352753392491
30
0
41
1
10
30.2291210298924
20
-3.29980522818792
30
0
41
1
10
30.0334259811651
20
-3.23882122686959
30
0
41
1
10
29.4478764282632
20
-3.04508784792188
30
0
41
1
10
29.0583512496251
20
-2.90113388566363
30
0
41
1
10
28.2784746012041
20
-2.58656180855294
30
0
41
1
10
27.887095017443
20
-2.41566404621759
30
0
41
1
10
27.1062649710354
20
-2.05347230890811
30
0
41
1
10
26.7166845407869
20
-1.86219975007725
30
0
41
1
10
25.936572666187
20
-1.46340525254703
30
0
41
1
10
25.5452132682474
20
-1.25526253680567
30
0
41
1
10
24.7642991830613
20
-0.830321177277654
30
0
41
1
10
24.3746069483245
20
-0.613570421498792
30
0
41
1
10
23.5943140325109
20
-0.17580969528359
30
0
41
1
10
23.2027578494036
20
0.0456050216629649
30
0
41
1
10
22.421689394397
20
0.48497488424016
30
0
41
1
10
22.0319768851284
20
0.702761228354603
30
0
41
1
10
21.4466855781114
20
1.02317044767372
30
0
41
1
10
21.2514721542432
20
1.12893542180217
30
0
41
1
10
20.8604612667946
20
1.33777430640441
30
0
41
1
10
20.6647094500205
20
1.44081509095855
30
0
41
1
10
19.6903587937587
20
1.94440173344566
30
0
41
1
10
18.9198414739497
20
2.31331876628681
30
0
41
1
10
17.761308249685
20
2.79303155058628
30
0
41
1
10
17.3747584419697
20
2.940795110355
30
0
41
1
10
16.7924382023882
20
3.14153814214549
30
0
41
1
10
16.5979094000782
20
3.20496135844888
30
0
41
1
10
16.2076467954324
20
3.32434379366757
30
0
41
1
10
16.0116938224381
20
3.38039416540542
30
0
41
1
10
15.4253026089968
20
3.53569534602266
30
0
41
1
10
15.0353086241498
20
3.6224500059636
30
0
41
1
10
14.4498047438411
20
3.72626231609419
30
0
41
1
10
14.2545952416267
20
3.75650180165138
30
0
41
1
10
13.8636774432406
20
3.80798546663402
30
0
41
1
10
13.6677052619523
20
3.82925640804501
30
0
41
1
10
13.119560144313
20
3.87580326319198
30
0
41
1
10
12.7684837467335
20
3.89059349803801
30
0
41
1
10
12.4183588826385
20
3.8904606683065
30
0
0
SPLINE
5
BB
100
AcDbEntity
8
1
62
256
6
ByLayer
370
18
48
1
60
0
100
AcDbSpline
70
4
71
3
72
8
73
4
40
0
40
0
40
0
40
0
40
1
40
1
40
1
40
1
41
1
10
78.7091356637926
20
3.84434673375236
30
0
41
1
10
78.6792953253897
20
3.88103536962973
30
0
41
1
10
78.6521157156192
20
3.91009704056827
30
0
41
1
10
78.627671223313
20
3.93103651321692
30
0
0
SPLINE
5
BC
100
AcDbEntity
8
1
62
256
6
ByLayer
370
18
48
1
60
0
100
AcDbSpline
70
4
71
3
72
92
73
88
40
0
40
0
40
0
40
0
40
0.0352305364200499
40
0.0352305364200499
40
0.0542535206642571
40
0.0542535206642571
40
0.0732765049084643
40
0.0732765049084643
40
0.0922994891526716
40
0.0922994891526716
40
0.111322473396879
40
0.111322473396879
40
0.130345457641086
40
0.130345457641086
40
0.149368441885293
40
0.149368441885293
40
0.187414410373708
40
0.187414410373708
40
0.225460378862122
40
0.225460378862122
40
0.244483363106329
40
0.244483363106329
40
0.263506347350536
40
0.263506347350536
40
0.301552315838948
40
0.301552315838948
40
0.33959828432736
40
0.33959828432736
40
0.358621268571565
40
0.358621268571565
40
0.377644252815771
40
0.377644252815771
40
0.396667237059976
40
0.396667237059976
40
0.415690221304182
40
0.415690221304182
40
0.434713205548387
40
0.434713205548387
40
0.453736189792593
40
0.453736189792593
40
0.472759174036798
40
0.472759174036798
40
0.491782158281004
40
0.491782158281004
40
0.529828126769414
40
0.529828126769414
40
0.567874095257825
40
0.567874095257825
40
0.586897079502032
40
0.586897079502032
40
0.605920063746237
40
0.605920063746237
40
0.624943047990444
40
0.624943047990444
40
0.64396603223465
40
0.64396603223465
40
0.662989016478856
40
0.662989016478856
40
0.682012000723062
40
0.682012000723062
40
0.720057969211475
40
0.720057969211475
40
0.758103937699888
40
0.758103937699888
40
0.777126921944096
40
0.777126921944096
40
0.796149906188303
40
0.796149906188303
40
0.81517289043251
40
0.81517289043251
40
0.834195874676717
40
0.834195874676717
40
0.853218858920925
40
0.853218858920925
40
0.872241843165132
40
0.872241843165132
40
0.910287811653547
40
0.910287811653547
40
0.929310795897756
40
0.929310795897756
40
0.948333780141964
40
0.948333780141964
40
0.967356764386172
40
0.967356764386172
40
0.98637974863038
40
0.98637974863038
40
1
40
1
40
1
40
1
41
1
10
21.6177448439921
20
3.74067518163454
30
0
41
1
10
21.9394862214844
20
3.73803873134912
30
0
41
1
10
22.2615140316858
20
3.72492736035053
30
0
41
1
10
22.7579764447012
20
3.68375464463
30
0
41
1
10
22.9320653262801
20
3.66573318162131
30
0
41
1
10
23.2813268964366
20
3.6232732451366
30
0
41
1
10
23.4564673971341
20
3.59856481171937
30
0
41
1
10
23.807853782465
20
3.54106916878291
30
0
41
1
10
23.9843087580034
20
3.50842038602758
30
0
41
1
10
24.3355723544518
20
3.43676704666888
30
0
41
1
10
24.5106948955276
20
3.39767229017866
30
0
41
1
10
24.8600329722886
20
3.31339622860998
30
0
41
1
10
25.0342144824873
20
3.26816656506679
30
0
41
1
10
25.3826958806079
20
3.17303513314869
30
0
41
1
10
25.5568604031722
20
3.12303467238408
30
0
41
1
10
26.0788428882858
20
2.9634303406784
30
0
41
1
10
26.4262411903101
20
2.84436450231456
30
0
41
1
10
27.1205607180517
20
2.5842990773599
30
0
41
1
10
27.4684702922746
20
2.44345203345554
30
0
41
1
10
27.9925162561981
20
2.22019053893126
30
0
41
1
10
28.1675204284863
20
2.14343275921809
30
0
41
1
10
28.5181661530374
20
1.98533743605088
30
0
41
1
10
28.6939869767797
20
1.90415702960434
30
0
41
1
10
29.2208914244548
20
1.65473966632692
30
0
41
1
10
29.5701855686336
20
1.48212024746559
30
0
41
1
10
30.2666109301001
20
1.12860263381791
30
0
41
1
10
30.6134985839969
20
0.94723305860137
30
0
41
1
10
31.133018098368
20
0.671156617328307
30
0
41
1
10
31.3062964747049
20
0.578855234913334
30
0
41
1
10
31.6529282735647
20
0.392870276207077
30
0
41
1
10
31.8263311935879
20
0.299470777778964
30
0
41
1
10
32.1733746237928
20
0.112061585946123
30
0
41
1
10
32.3470054514823
20
0.018028423377956
30
0
41
1
10
32.6945108006235
20
-0.170669353303595
30
0
41
1
10
32.8682909932061
20
-0.265533262212301
30
0
41
1
10
33.2168698770832
20
-0.4543550843741
30
0
41
1
10
33.3916401063511
20
-0.548288950857142
30
0
41
1
10
33.7422232356182
20
-0.735378967221209
30
0
41
1
10
33.9184361103145
20
-0.828610569873064
30
0
41
1
10
34.2694441579315
20
-1.01283336431021
30
0
41
1
10
34.4444478135913
20
-1.10395848369359
30
0
41
1
10
34.7934852866194
20
-1.28419801231044
30
0
41
1
10
34.9674389311062
20
-1.37339420922987
30
0
41
1
10
35.4892557496485
20
-1.63488668562155
30
0
41
1
10
35.8367859865518
20
-1.80296344597306
30
0
41
1
10
36.5308294315735
20
-2.12386042147656
30
0
41
1
10
36.8769936869451
20
-2.27778621249459
30
0
41
1
10
37.3983490889782
20
-2.49475647064585
30
0
41
1
10
37.5724535473669
20
-2.56469634496273
30
0
41
1
10
37.9212010059521
20
-2.70057446871829
30
0
41
1
10
38.095845429996
20
-2.76642425036161
30
0
41
1
10
38.4458831225355
20
-2.89232356868101
30
0
41
1
10
38.6214971824749
20
-2.95252113189329
30
0
41
1
10
38.9725790359799
20
-3.06731110636252
30
0
41
1
10
39.1476631026898
20
-3.12142194934879
30
0
41
1
10
39.4974360021978
20
-3.22323931196308
30
0
41
1
10
39.6720316208925
20
-3.27095820410918
30
0
41
1
10
40.0207309939976
20
-3.36077662130492
30
0
41
1
10
40.194891800102
20
-3.40347110748138
30
0
41
1
10
40.7162127700189
20
-3.52008177561981
30
0
41
1
10
41.0622155323143
20
-3.58370537058408
30
0
41
1
10
41.7562873217712
20
-3.68268392088021
30
0
41
1
10
42.1038305858219
20
-3.71869562459992
30
0
41
1
10
42.6259060302118
20
-3.75290113495998
30
0
41
1
10
42.7999780989726
20
-3.7605972612798
30
0
41
1
10
43.1490866946943
20
-3.76866629458951
30
0
41
1
10
43.324206027292
20
-3.76918919369737
30
0
41
1
10
43.6755123324524
20
-3.76295792427038
30
0
41
1
10
43.8516599759038
20
-3.7560156687874
30
0
41
1
10
44.2022399633764
20
-3.73496327474391
30
0
41
1
10
44.3770603650285
20
-3.72106265556974
30
0
41
1
10
44.7257719737174
20
-3.68659246626118
30
0
41
1
10
44.8995394088035
20
-3.66574706744075
30
0
41
1
10
45.2470133741667
20
-3.61677282302764
30
0
41
1
10
45.4206685834216
20
-3.58878291796799
30
0
41
1
10
45.941392565592
20
-3.49520837008961
30
0
41
1
10
46.2882378590169
20
-3.41998110209147
30
0
41
1
10
46.8081572191742
20
-3.28753527532214
30
0
41
1
10
46.9813871664078
20
-3.24042356185765
30
0
41
1
10
47.3287719183657
20
-3.14037562574674
30
0
41
1
10
47.5028143014335
20
-3.08689492860401
30
0
41
1
10
47.8516173558115
20
-2.97364542073836
30
0
41
1
10
48.0263908590406
20
-2.91389851787133
30
0
41
1
10
48.3766482711365
20
-2.7887986281697
30
0
41
1
10
48.552375492626
20
-2.72339962660743
30
0
41
1
10
48.853485992933
20
-2.60668340280776
30
0
41
1
10
48.9788479535901
20
-2.55675466735261
30
0
41
1
10
49.1040945080444
20
-2.50594469833081
30
0
0
SPLINE
5
BD
100
AcDbEntity
8
1
62
256
6
ByLayer
370
18
48
1
60
0
100
AcDbSpline
70
4
71
3
72
36
73
32
40
0
40
0
40
0
40
0
40
0.035865769790907
40
0.035865769790907
40
0.132279192811821
40
0.132279192811821
40
0.180485904322276
40
0.180485904322276
40
0.228692615832731
40
0.228692615832731
40
0.276899327343186
40
0.276899327343186
40
0.325106038853642
40
0.325106038853642
40
0.373312750364097
40
0.373312750364097
40
0.421519461874553
40
0.421519461874553
40
0.517932884895463
40
0.517932884895463
40
0.566139596405917
40
0.566139596405917
40
0.614346307916371
40
0.614346307916371
40
0.710759730937278
40
0.710759730937278
40
0.807173153958186
40
0.807173153958186
40
0.903586576979093
40
0.903586576979093
40
1
40
1
40
1
40
1
41
1
10
65.0376625843287
20
3.79498523675068
30
0
41
1
10
65.1665089849837
20
3.79504762055598
30
0
41
1
10
65.2953400796421
20
3.79312817022824
30
0
41
1
10
65.770309212843
20
3.77760631482289
30
0
41
1
10
66.1163271329833
20
3.75117100001353
30
0
41
1
10
66.6353534957382
20
3.69166179300984
30
0
41
1
10
66.8082490337266
20
3.6684129039102
30
0
41
1
10
67.1548574858539
20
3.6159067983497
30
0
41
1
10
67.3285275353552
20
3.58693288917121
30
0
41
1
10
67.6765741837953
20
3.52182521177585
30
0
41
1
10
67.8510608763573
20
3.48454121733519
30
0
41
1
10
68.200876357554
20
3.40335415748689
30
0
41
1
10
68.3765342445981
20
3.35918720356173
30
0
41
1
10
68.7263833455527
20
3.26464613256331
30
0
41
1
10
68.9006523087385
20
3.21419515622739
30
0
41
1
10
69.2490398500663
20
3.10841991919287
30
0
41
1
10
69.4230355126679
20
3.05297457363639
30
0
41
1
10
69.944323425288
20
2.8788512537341
30
0
41
1
10
70.290857775514
20
2.75179220785228
30
0
41
1
10
70.8094050652255
20
2.54510555899091
30
0
41
1
10
70.9821364896844
20
2.47367879947012
30
0
41
1
10
71.3282426248664
20
2.32613388125492
30
0
41
1
10
71.5014954813868
20
2.2501005066471
30
0
41
1
10
72.0218644924618
20
2.01595905159763
30
0
41
1
10
72.3695804778622
20
1.85177058360702
30
0
41
1
10
73.0667066490112
20
1.50746870658875
30
0
41
1
10
73.4185584337646
20
1.32818139181526
30
0
41
1
10
74.1167324921877
20
0.963725553881915
30
0
41
1
10
74.4639154647139
20
0.777558972064156
30
0
41
1
10
75.1558791369399
20
0.39998039102548
30
0
41
1
10
75.5018835356919
20
0.210840757481407
30
0
41
1
10
75.8478445349049
20
0.0212026153073452
30
0
0
SPLINE
5
BE
100
AcDbEntity
8
1
62
256
6
ByLayer
370
13
48
1
60
0
100
AcDbSpline
70
4
71
3
72
8
73
4
40
0
40
0
40
0
40
0
40
1
40
1
40
1
40
1
41
1
10
4.12879782278014
20
-1.40617759501626
30
0
41
1
10
4.15164955391336
20
-1.41334661296571
30
0
41
1
10
4.17655099207616
20
-1.42375328800503
30
0
41
1
10
4.2019427156861
20
-1.43674356853856
30
0
0
SPLINE
5
BF
100
AcDbEntity
8
1
62
256
6
ByLayer
370
18
48
1
60
0
100
AcDbSpline
70
4
71
3
72
10
73
6
40
0
40
0
40
0
40
0
40
0.5
40
0.5
40
1
40
1
40
1
40
1
41
1
10
79.9627637390948
20
-0.18852172539988
30
0
41
1
10
79.9670292172859
20
-0.165566494589285
30
0
41
1
10
79.9722926332928
20
-0.140679647385184
30
0
41
1
10
79.984706520976
20
-0.0872498285052643
30
0
41
1
10
79.9919214146523
20
-0.058477610270586
30
0
41
1
10
79.9999812435108
20
-0.0284477125885871
30
0
0
SPLINE
5
C0
100
AcDbEntity
8
1
62
256
6
ByLayer
370
18
48
1
60
0
100
AcDbSpline
70
4
71
3
72
92
73
88
40
0
40
0
40
0
40
0
40
0.008039743921197
40
0.008039743921197
40
0.0459659093654656
40
0.0459659093654656
40
0.0649289920875999
40
0.0649289920875999
40
0.0838920748097343
40
0.0838920748097343
40
0.102855157531869
40
0.102855157531869
40
0.121818240254003
40
0.121818240254003
40
0.140781322976137
40
0.140781322976137
40
0.159744405698272
40
0.159744405698272
40
0.197670571142539
40
0.197670571142539
40
0.216633653864673
40
0.216633653864673
40
0.235596736586806
40
0.235596736586806
40
0.273522902031074
40
0.273522902031074
40
0.292485984753208
40
0.292485984753208
40
0.311449067475342
40
0.311449067475342
40
0.330412150197475
40
0.330412150197475
40
0.349375232919609
40
0.349375232919609
40
0.387301398363876
40
0.387301398363876
40
0.406264481086009
40
0.406264481086009
40
0.425227563808143
40
0.425227563808143
40
0.444190646530276
40
0.444190646530276
40
0.463153729252409
40
0.463153729252409
40
0.501079894696674
40
0.501079894696674
40
0.520042977418807
40
0.520042977418807
40
0.539006060140939
40
0.539006060140939
40
0.576932225585206
40
0.576932225585206
40
0.595895308307338
40
0.595895308307338
40
0.614858391029471
40
0.614858391029471
40
0.633821473751603
40
0.633821473751603
40
0.652784556473736
40
0.652784556473736
40
0.690710721918001
40
0.690710721918001
40
0.709673804640133
40
0.709673804640133
40
0.728636887362265
40
0.728636887362265
40
0.766563052806529
40
0.766563052806529
40
0.785526135528661
40
0.785526135528661
40
0.804489218250793
40
0.804489218250793
40
0.842415383695058
40
0.842415383695058
40
0.861378466417191
40
0.861378466417191
40
0.880341549139324
40
0.880341549139324
40
0.91826771458359
40
0.91826771458359
40
0.937230797305724
40
0.937230797305724
40
0.956193880027857
40
0.956193880027857
40
0.994120045472124
40
0.994120045472124
40
1
40
1
40
1
40
1
41
1
10
70.867928547011
20
-2.52026861995594
30
0
41
1
10
70.7946185557864
20
-2.55043397952494
30
0
41
1
10
70.7213339840102
20
-2.58015484338921
30
0
41
1
10
70.302302662328
20
-2.74746606992503
30
0
41
1
10
69.955966619034
20
-2.87471072676487
30
0
41
1
10
69.4353269516069
20
-3.04898818071649
30
0
41
1
10
69.2616037463339
20
-3.10447185274208
30
0
41
1
10
68.9138704641715
20
-3.21030589521857
30
0
41
1
10
68.7399903954973
20
-3.26078687431467
30
0
41
1
10
68.3910705237587
20
-3.35542705477397
30
0
41
1
10
68.2160646763472
20
-3.39963437223238
30
0
41
1
10
67.8648535005267
20
-3.48151951056806
30
0
41
1
10
67.6896005385987
20
-3.51918679673358
30
0
41
1
10
67.3403872582143
20
-3.58490213598446
30
0
41
1
10
67.1662241932043
20
-3.61405694319601
30
0
41
1
10
66.8187441260986
20
-3.6669432094061
30
0
41
1
10
66.6454946601493
20
-3.69036771262839
30
0
41
1
10
66.1256353235335
20
-3.75035554086924
30
0
41
1
10
65.7793505877754
20
-3.77702922700888
30
0
41
1
10
65.260166367717
20
-3.79441295795783
30
0
41
1
10
65.0871056015057
20
-3.79606737012108
30
0
41
1
10
64.741114062297
20
-3.79258854025758
30
0
41
1
10
64.5681013419558
20
-3.78748513086765
30
0
41
1
10
64.047532487254
20
-3.76054419218295
30
0
41
1
10
63.6989006955346
20
-3.72817684298025
30
0
41
1
10
63.1738447781279
20
-3.65981885452626
30
0
41
1
10
62.9981447303782
20
-3.63353540818096
30
0
41
1
10
62.6483789687111
20
-3.57404153605367
30
0
41
1
10
62.4739120099109
20
-3.54097879212836
30
0
41
1
10
62.1254411287371
20
-3.46848494307261
30
0
41
1
10
61.9514941020053
20
-3.42888172504391
30
0
41
1
10
61.6041389891734
20
-3.34187480805539
30
0
41
1
10
61.4306651837445
20
-3.2956714940992
30
0
41
1
10
60.9109387784616
20
-3.14866739339817
30
0
41
1
10
60.5657767088743
20
-3.03792199751351
30
0
41
1
10
60.0464286263805
20
-2.85695260552103
30
0
41
1
10
59.8731668895202
20
-2.79414120122718
30
0
41
1
10
59.5262165424
20
-2.66252166612094
30
0
41
1
10
59.3524692406314
20
-2.59354677068623
30
0
41
1
10
59.0047365464245
20
-2.45131088011993
30
0
41
1
10
58.8308490021476
20
-2.37749053326794
30
0
41
1
10
58.4819750083514
20
-2.22504315863975
30
0
41
1
10
58.3069475642079
20
-2.14662756695699
30
0
41
1
10
57.7801453317887
20
-1.90552117157759
30
0
41
1
10
57.4307674318639
20
-1.73832310662115
30
0
41
1
10
56.9093064116794
20
-1.47819107320109
30
0
41
1
10
56.7360331547009
20
-1.38975965946281
30
0
41
1
10
56.3894561343477
20
-1.21136686903901
30
0
41
1
10
56.2162230388013
20
-1.12128378986915
30
0
41
1
10
55.6965137487863
20
-0.848257642534918
30
0
41
1
10
55.3501043523697
20
-0.663429895801244
30
0
41
1
10
54.8306144394899
20
-0.381065010358071
30
0
41
1
10
54.6575044422956
20
-0.286071565359492
30
0
41
1
10
54.3103135614911
20
-0.0963433592949627
30
0
41
1
10
54.1363305837646
20
-0.0014036470415988
30
0
41
1
10
53.7874010051776
20
0.188462094628903
30
0
41
1
10
53.6124069675533
20
0.283356082029656
30
0
41
1
10
53.2617973434
20
0.473208532057782
30
0
41
1
10
53.0860316803
20
0.56824712314625
30
0
41
1
10
52.5616106876007
20
0.851536188875741
30
0
41
1
10
52.2135899274882
20
1.0366382395319
30
0
41
1
10
51.6926038801808
20
1.30469126042962
30
0
41
1
10
51.5191647959028
20
1.39245000813696
30
0
41
1
10
51.172627129719
20
1.56541873514655
30
0
41
1
10
50.9995756856876
20
1.65083098553691
30
0
41
1
10
50.4809836294165
20
1.90341677300529
30
0
41
1
10
50.1347773301881
20
2.06482888520219
30
0
41
1
10
49.6140460948612
20
2.29395855697069
30
0
41
1
10
49.4402205680799
20
2.36806446738589
30
0
41
1
10
49.0919487819466
20
2.51142130495836
30
0
41
1
10
48.9177593759821
20
2.58160566020979
30
0
41
1
10
48.3939136632262
20
2.78513010647862
30
0
41
1
10
48.0417345340393
20
2.91155780527899
30
0
41
1
10
47.5179281537413
20
3.08215630240164
30
0
41
1
10
47.3437603778943
20
3.13586327320923
30
0
41
1
10
46.9962841648919
20
3.23631271415391
30
0
41
1
10
46.8230838066045
20
3.28353764810981
30
0
41
1
10
46.3034934893923
20
3.41646081481952
30
0
41
1
10
45.9571493647287
20
3.49195445327578
30
0
41
1
10
45.437583677847
20
3.58593969741978
30
0
41
1
10
45.2643827239323
20
3.61407083819807
30
0
41
1
10
44.917963844462
20
3.66337918773459
30
0
41
1
10
44.7448202447573
20
3.68442836882028
30
0
41
1
10
44.2238710966519
20
3.73672243251224
30
0
41
1
10
43.875060585354
20
3.75870797333161
30
0
41
1
10
43.4700112647826
20
3.76668543004894
30
0
41
1
10
43.4155971398921
20
3.76740532441048
30
0
41
1
10
43.3611807735383
20
3.76777834484318
30
0
0
SPLINE
5
C1
100
AcDbEntity
8
1
62
256
6
ByLayer
370
18
48
1
60
0
100
AcDbSpline
70
4
71
3
72
54
73
50
40
0
40
0
40
0
40
0
40
0.0312846645124828
40
0.0312846645124828
40
0.0882679195411612
40
0.0882679195411612
40
0.116759547055501
40
0.116759547055501
40
0.14525117456984
40
0.14525117456984
40
0.202234429598519
40
0.202234429598519
40
0.230726057112858
40
0.230726057112858
40
0.259217684627197
40
0.259217684627197
40
0.316200939655876
40
0.316200939655876
40
0.344692567170215
40
0.344692567170215
40
0.373184194684553
40
0.373184194684553
40
0.401675822198893
40
0.401675822198893
40
0.430167449713232
40
0.430167449713232
40
0.487150704741909
40
0.487150704741909
40
0.544133959770585
40
0.544133959770585
40
0.601117214799263
40
0.601117214799263
40
0.658100469827939
40
0.658100469827939
40
0.715083724856617
40
0.715083724856617
40
0.772066979885294
40
0.772066979885294
40
0.800558607399632
40
0.800558607399632
40
0.82905023491397
40
0.82905023491397
40
0.857541862428308
40
0.857541862428308
40
0.886033489942646
40
0.886033489942646
40
0.943016744971323
40
0.943016744971323
40
1
40
1
40
1
40
1
41
1
10
27.378541578629
20
-2.47763238414234
30
0
41
1
10
27.1872018826123
20
-2.55542375977691
30
0
41
1
10
26.9962771243671
20
-2.6304134199203
30
0
41
1
10
26.4585535175185
20
-2.83296210055292
30
0
41
1
10
26.11139777629
20
-2.95260903671473
30
0
41
1
10
25.5901438521196
20
-3.11323241854953
30
0
41
1
10
25.4162817975269
20
-3.16351408587971
30
0
41
1
10
25.0684745455686
20
-3.25910398455295
30
0
41
1
10
24.8946792575563
20
-3.30457587759125
30
0
41
1
10
24.3721236702362
20
-3.43189903639856
30
0
41
1
10
24.0221877660939
20
-3.50485522733547
30
0
41
1
10
23.4941892809333
20
-3.59287628635283
30
0
41
1
10
23.318087511153
20
-3.61829365381669
30
0
41
1
10
22.9668983343477
20
-3.6619148341675
30
0
41
1
10
22.7917060423441
20
-3.68046004888512
30
0
41
1
10
22.2656060941677
20
-3.72545612731196
30
0
41
1
10
21.914395643946
20
-3.73939843701049
30
0
41
1
10
21.3870211315538
20
-3.74183525001032
30
0
41
1
10
21.2109318299335
20
-3.73937073249107
30
0
41
1
10
20.8595478070526
20
-3.72708262381229
30
0
41
1
10
20.6844758671006
20
-3.71730243679022
30
0
41
1
10
20.3347111161158
20
-3.69047967701914
30
0
41
1
10
20.1601192105248
20
-3.67336946086149
30
0
41
1
10
19.8114600741855
20
-3.63074555148916
30
0
41
1
10
19.6373504784163
20
-3.6059200354913
30
0
41
1
10
19.1156279772244
20
-3.52365134698499
30
0
41
1
10
18.769213180651
20
-3.45489362624869
30
0
41
1
10
18.0746066869995
20
-3.29321075423812
30
0
41
1
10
17.7267237336887
20
-3.20052092495953
30
0
41
1
10
17.0292729062568
20
-2.98881510115905
30
0
41
1
10
16.6802494935272
20
-2.87019383116979
30
0
41
1
10
15.9758722723293
20
-2.60947709777693
30
0
41
1
10
15.6243870260038
20
-2.47130682341017
30
0
41
1
10
14.9256305797534
20
-2.17677087312904
30
0
41
1
10
14.5781562472
20
-2.02043291182309
30
0
41
1
10
13.8822312623472
20
-1.69376594183675
30
0
41
1
10
13.5342141556725
20
-1.52464824332566
30
0
41
1
10
13.0123235509754
20
-1.26199062357196
30
0
41
1
10
12.8384832436378
20
-1.17267925227304
30
0
41
1
10
12.4899005751666
20
-0.992448906580876
30
0
41
1
10
12.3152449446942
20
-0.901430202273247
30
0
41
1
10
11.9649672662956
20
-0.717491262378275
30
0
41
1
10
11.7893623069007
20
-0.624608048756755
30
0
41
1
10
11.4374017166691
20
-0.437333034483572
30
0
41
1
10
11.2609078219761
20
-0.34285418593717
30
0
41
1
10
10.7332818461945
20
-0.0583183835206569
30
0
41
1
10
10.3823974976766
20
0.132041727503918
30
0
41
1
10
9.6792545677198
20
0.508155937212734
30
0
41
1
10
9.3272502090195
20
0.694438357534722
30
0
41
1
10
8.97498273147195
20
0.879325708511146
30
0
0
SPLINE
5
C2
100
AcDbEntity
8
1
62
256
6
ByLayer
370
18
48
1
60
0
100
AcDbSpline
70
4
71
3
72
8
73
4
40
0
40
0
40
0
40
0
40
1
40
1
40
1
40
1
41
1
10
79.9291488634494
20
-0.153570506721877
30
0
41
1
10
79.8007903833118
20
-0.506232532495488
30
0
41
1
10
79.6724319031742
20
-0.858894558269128
30
0
41
1
10
79.5440734230367
20
-1.21155658404277
30
0
0
SPLINE
5
C3
100
AcDbEntity
8
1
62
256
6
ByLayer
370
18
48
1
60
0
100
AcDbSpline
70
4
71
3
72
8
73
4
40
0
40
0
40
0
40
0
40
1
40
1
40
1
40
1
41
1
10
4.050036018643
20
-1.35700302342164
30
0
41
1
10
4.0297023373171
20
-1.33160294447407
30
0
41
1
10
4.01738345687977
20
-1.30099884008226
30
0
41
1
10
4.0173831172612
20
-1.26890752134946
30
0
0
SPLINE
5
C4
100
AcDbEntity
8
1
62
256
6
ByLayer
370
18
48
1
60
0
100
AcDbSpline
70
4
71
3
72
8
73
4
40
0
40
0
40
0
40
0
40
1
40
1
40
1
40
1
41
1
10
79.9296838816871
20
-0.152439111061995
30
0
41
1
10
79.9295055398832
20
-0.152816240707153
30
0
41
1
10
79.9293272004667
20
-0.153193372602232
30
0
41
1
10
79.9291488634374
20
-0.153570506747144
30
0
0
SPLINE
5
C5
100
AcDbEntity
8
1
62
256
6
ByLayer
370
13
48
1
60
0
100
AcDbSpline
70
4
71
3
72
10
73
6
40
0
40
0
40
0
40
0
40
0.5
40
0.5
40
1
40
1
40
1
40
1
41
1
10
79.5536557786864
20
0.507547357891156
30
0
41
1
10
79.4151463550001
20
0.582561558554829
30
0
41
1
10
79.2794039389637
20
0.666795023845282
30
0
41
1
10
79.0146271507077
20
0.857354272692191
30
0
41
1
10
78.8869754927487
20
0.962740913199866
30
0
41
1
10
78.7671581180448
20
1.07932938812965
30
0
0
SPLINE
5
C6
100
AcDbEntity
8
1
62
256
6
ByLayer
370
18
48
1
60
0
100
AcDbSpline
70
4
71
3
72
14
73
10
40
0
40
0
40
0
40
0
40
0.25
40
0.25
40
0.5
40
0.5
40
0.75
40
0.75
40
1
40
1
40
1
40
1
41
1
10
79.6561203016138
20
1.41553900128579
30
0
41
1
10
79.686761933484
20
1.32490362425705
30
0
41
1
10
79.7161204916924
20
1.23458041014345
30
0
41
1
10
79.7698220733307
20
1.06141757427673
30
0
41
1
10
79.7941981682862
20
0.978573188225795
30
0
41
1
10
79.8378476884328
20
0.820484499210608
30
0
41
1
10
79.8572429885685
20
0.744708417144494
30
0
41
1
10
79.8897659590802
20
0.604159500577168
30
0
41
1
10
79.9028086056155
20
0.539882904666257
30
0
41
1
10
79.9125241077188
20
0.481828514479872
30
0
0
SPLINE
5
C7
100
AcDbEntity
8
1
62
256
6
ByLayer
370
18
48
1
60
0
100
AcDbSpline
70
4
71
3
72
58
73
54
40
0
40
0
40
0
40
0
40
0.0538068322197215
40
0.0538068322197215
40
0.107613664439443
40
0.107613664439443
40
0.161420496659164
40
0.161420496659164
40
0.215227328878886
40
0.215227328878886
40
0.242130744988746
40
0.242130744988746
40
0.269034161098607
40
0.269034161098607
40
0.322840993318327
40
0.322840993318327
40
0.376647825538048
40
0.376647825538048
40
0.430454657757769
40
0.430454657757769
40
0.457358073867629
40
0.457358073867629
40
0.484261489977489
40
0.484261489977489
40
0.538068322197209
40
0.538068322197209
40
0.56497173830707
40
0.56497173830707
40
0.59187515441693
40
0.59187515441693
40
0.645681986636651
40
0.645681986636651
40
0.672585402746512
40
0.672585402746512
40
0.699488818856373
40
0.699488818856373
40
0.753295651076094
40
0.753295651076094
40
0.780199067185954
40
0.780199067185954
40
0.807102483295814
40
0.807102483295814
40
0.860909315515533
40
0.860909315515533
40
0.887812731625394
40
0.887812731625394
40
0.914716147735254
40
0.914716147735254
40
0.968522979954975
40
0.968522979954975
40
0.995426396064835
40
0.995426396064835
40
1
40
1
40
1
40
1
41
1
10
14.838960338993
20
3.48702251211853
30
0
41
1
10
15.1741552787563
20
3.40211744228321
30
0
41
1
10
15.5093061239705
20
3.30686725531447
30
0
41
1
10
16.1773553254289
20
3.09529730868059
30
0
41
1
10
16.5101433166756
20
2.97881094245136
30
0
41
1
10
17.1721395720246
20
2.72252178809472
30
0
41
1
10
17.5042626985309
20
2.58632654691115
30
0
41
1
10
18.1697520178683
20
2.29730150698677
30
0
41
1
10
18.5028823937334
20
2.14414372899489
30
0
41
1
10
19.0023894254807
20
1.89937599063461
30
0
41
1
10
19.1694287935665
20
1.81616720337973
30
0
41
1
10
19.5050947085309
20
1.64745433558807
30
0
41
1
10
19.6738191727257
20
1.56160313603331
30
0
41
1
10
20.1778869997896
20
1.3011701054852
30
0
41
1
10
20.512114226496
20
1.12315943127876
30
0
41
1
10
21.175781658732
20
0.75627057532472
30
0
41
1
10
21.5079982839976
20
0.572337683200431
30
0
41
1
10
22.1726948489541
20
0.202716353536573
30
0
41
1
10
22.5048840518989
20
0.0165059097492133
30
0
41
1
10
23.0020077789326
20
-0.266669158686312
30
0
41
1
10
23.168020164299
20
-0.360798686948584
30
0
41
1
10
23.5014126986368
20
-0.54713030445464
30
0
41
1
10
23.668620919297
20
-0.639646380806767
30
0
41
1
10
24.1713873297585
20
-0.915970641210293
30
0
41
1
10
24.5090320376082
20
-1.09912299581038
30
0
41
1
10
25.0093514050523
20
-1.36893107564123
30
0
41
1
10
25.1758327602245
20
-1.45732270251432
30
0
41
1
10
25.5090303774184
20
-1.62976954260165
30
0
41
1
10
25.6755721278585
20
-1.7141337884737
30
0
41
1
10
26.1746414998679
20
-1.96241186285215
30
0
41
1
10
26.5066068843471
20
-2.12157047216601
30
0
41
1
10
27.0024093160831
20
-2.35191032638355
30
0
41
1
10
27.1677412612015
20
-2.42664214009798
30
0
41
1
10
27.4995353604365
20
-2.57067455602726
30
0
41
1
10
27.6657946037036
20
-2.64027392267258
30
0
41
1
10
28.1652554099653
20
-2.84241711687329
30
0
41
1
10
28.4991286224834
20
-2.96837692634793
30
0
41
1
10
29.0003448148511
20
-3.14449015041151
30
0
41
1
10
29.1681840543025
20
-3.20069549280004
30
0
41
1
10
29.5037439493194
20
-3.3060410281945
30
0
41
1
10
29.67130358111
20
-3.35547367446816
30
0
41
1
10
30.17294988073
20
-3.49471713081294
30
0
41
1
10
30.5060068163791
20
-3.57555716504635
30
0
41
1
10
31.0024570017462
20
-3.67918766578424
30
0
41
1
10
31.1677535399432
20
-3.71051778273289
30
0
41
1
10
31.4992226990176
20
-3.76619758997032
30
0
41
1
10
31.6651639571597
20
-3.79070219384656
30
0
41
1
10
32.1632009263149
20
-3.85454919898942
30
0
41
1
10
32.4955030279273
20
-3.88431655854967
30
0
41
1
10
32.9933414892429
20
-3.90904159948502
30
0
41
1
10
33.1594361429995
20
-3.91386238159529
30
0
41
1
10
33.3547924564514
20
-3.91547072216116
30
0
41
1
10
33.3831956380363
20
-3.91560610085409
30
0
41
1
10
33.4116161098895
20
-3.9156431603455
30
0
0
SPLINE
5
C8
100
AcDbEntity
8
1
62
256
6
ByLayer
370
18
48
1
60
0
100
AcDbSpline
70
4
71
3
72
96
73
92
40
0
40
0
40
0
40
0
40
0.007619475835491
40
0.007619475835491
40
0.025504709814865
40
0.025504709814865
40
0.0612751777736132
40
0.0612751777736132
40
0.0791604117529874
40
0.0791604117529874
40
0.0970456457323614
40
0.0970456457323614
40
0.132816113691111
40
0.132816113691111
40
0.150701347670486
40
0.150701347670486
40
0.168586581649861
40
0.168586581649861
40
0.204357049608609
40
0.204357049608609
40
0.222242283587983
40
0.222242283587983
40
0.240127517567356
40
0.240127517567356
40
0.275897985526104
40
0.275897985526104
40
0.293783219505477
40
0.293783219505477
40
0.311668453484852
40
0.311668453484852
40
0.329553687464226
40
0.329553687464226
40
0.3474389214436
40
0.3474389214436
40
0.365324155422974
40
0.365324155422974
40
0.383209389402348
40
0.383209389402348
40
0.418979857361098
40
0.418979857361098
40
0.436865091340473
40
0.436865091340473
40
0.454750325319847
40
0.454750325319847
40
0.472635559299222
40
0.472635559299222
40
0.490520793278597
40
0.490520793278597
40
0.508406027257972
40
0.508406027257972
40
0.526291261237347
40
0.526291261237347
40
0.562061729196097
40
0.562061729196097
40
0.579946963175471
40
0.579946963175471
40
0.597832197154846
40
0.597832197154846
40
0.633602665113594
40
0.633602665113594
40
0.651487899092968
40
0.651487899092968
40
0.669373133072342
40
0.669373133072342
40
0.705143601031092
40
0.705143601031092
40
0.723028835010466
40
0.723028835010466
40
0.740914068989841
40
0.740914068989841
40
0.77668453694859
40
0.77668453694859
40
0.794569770927966
40
0.794569770927966
40
0.812455004907341
40
0.812455004907341
40
0.848225472866093
40
0.848225472866093
40
0.866110706845469
40
0.866110706845469
40
0.883995940824845
40
0.883995940824845
40
0.919766408783597
40
0.919766408783597
40
0.937651642762973
40
0.937651642762973
40
0.955536876742348
40
0.955536876742348
40
0.991307344701099
40
0.991307344701099
40
1
40
1
40
1
40
1
41
1
10
49.0931987866164
20
2.50939472701285
30
0
41
1
10
49.1639852972831
20
2.5407421626465
30
0
41
1
10
49.2347360539341
20
2.57162584435289
30
0
41
1
10
49.4717304852897
20
2.67305229728362
30
0
41
1
10
49.6379382385642
20
2.74137703693589
30
0
41
1
10
50.1361731737216
20
2.93877128316103
30
0
41
1
10
50.4677984393419
20
3.06034670896528
30
0
41
1
10
50.9633544152521
20
3.22855407203301
30
0
41
1
10
51.1280745961863
20
3.28236220164135
30
0
41
1
10
51.4588962518986
20
3.38314034030785
30
0
41
1
10
51.6247502109469
20
3.43039269739319
30
0
41
1
10
52.1231750202033
20
3.56330153285359
30
0
41
1
10
52.4565856701708
20
3.64020475095197
30
0
41
1
10
52.9573917064267
20
3.73788694303801
30
0
41
1
10
53.12460499829
20
3.76759012793036
30
0
41
1
10
53.4593197851165
20
3.81949786356469
30
0
41
1
10
53.6265360320773
20
3.84188000422333
30
0
41
1
10
54.1273348516588
20
3.89891066625921
30
0
41
1
10
54.4600568583938
20
3.9235339633303
30
0
41
1
10
54.9563364050035
20
3.94042577722499
30
0
41
1
10
55.1210911023757
20
3.94265737550697
30
0
41
1
10
55.4515957897511
20
3.94027198959944
30
0
41
1
10
55.6171440588779
20
3.93570662325331
30
0
41
1
10
56.1142008308021
20
3.91209565361208
30
0
41
1
10
56.4461014921441
20
3.88322006296792
30
0
41
1
10
56.9436781850035
20
3.81915042075534
30
0
41
1
10
57.1092639293199
20
3.79415902177988
30
0
41
1
10
57.4421836335649
20
3.73792363470338
30
0
41
1
10
57.6093618303256
20
3.70665324320487
30
0
41
1
10
57.9448305636799
20
3.63768331778314
30
0
41
1
10
58.1129706466469
20
3.59999910569997
30
0
41
1
10
58.4475491093347
20
3.51863057856636
30
0
41
1
10
58.614310394967
20
3.47488710172863
30
0
41
1
10
58.94659843882
20
3.38107218631254
30
0
41
1
10
59.1118805907385
20
3.33073725172343
30
0
41
1
10
59.4430128792099
20
3.22544739018503
30
0
41
1
10
59.608729660097
20
3.17040087375557
30
0
41
1
10
60.1058526417
20
2.99779159906615
30
0
41
1
10
60.4372150767393
20
2.87280414886948
30
0
41
1
10
60.933071333787
20
2.66878168015182
30
0
41
1
10
61.0979024560105
20
2.59762853446728
30
0
41
1
10
61.4288541634869
20
2.45192510103865
30
0
41
1
10
61.5949059953999
20
2.3773200158272
30
0
41
1
10
61.927822535103
20
2.22420851408708
30
0
41
1
10
62.0946902434513
20
2.1457048394212
30
0
41
1
10
62.4290365175615
20
1.98441603366052
30
0
41
1
10
62.5967747815913
20
1.90151071067291
30
0
41
1
10
62.9315459384994
20
1.73159329094366
30
0
41
1
10
63.0978912468523
20
1.64434454450728
30
0
41
1
10
63.4306441803278
20
1.46889183995225
30
0
41
1
10
63.5970208830583
20
1.38064385219255
30
0
41
1
10
64.0956742052051
20
1.11358091964883
30
0
41
1
10
64.4274610366118
20
0.932437082761567
30
0
41
1
10
64.9230424410633
20
0.654088566370461
30
0
41
1
10
65.0876219202694
20
0.559725316604357
30
0
41
1
10
65.417572788363
20
0.371394176297571
30
0
41
1
10
65.5829814692863
20
0.277499871780861
30
0
41
1
10
66.0799838885129
20
-0.0042643260778448
30
0
41
1
10
66.4123314739649
20
-0.192242823479177
30
0
41
1
10
66.9112825783012
20
-0.476497462656425
30
0
41
1
10
67.0774195394271
20
-0.572101936134004
30
0
41
1
10
67.4112019227389
20
-0.761605072561821
30
0
41
1
10
67.5791184671987
20
-0.855375931497832
30
0
41
1
10
68.0809990061596
20
-1.13231856527548
30
0
41
1
10
68.4143341148099
20
-1.31190752287859
30
0
41
1
10
68.9113401452917
20
-1.57575222741025
30
0
41
1
10
69.0762586383623
20
-1.66316221715621
30
0
41
1
10
69.406338620126
20
-1.83401153886351
30
0
41
1
10
69.5716685138941
20
-1.91720365921728
30
0
41
1
10
70.0679979567577
20
-2.16109325539168
30
0
41
1
10
70.3993174899285
20
-2.31617857484551
30
0
41
1
10
70.8958015304712
20
-2.53901098446519
30
0
41
1
10
71.0609931757278
20
-2.61193493620306
30
0
41
1
10
71.3922530090191
20
-2.75293468448098
30
0
41
1
10
71.5586054316362
20
-2.82065015005136
30
0
41
1
10
72.059273066715
20
-3.01628452646679
30
0
41
1
10
72.3961301791445
20
-3.13703681077757
30
0
41
1
10
72.8959393430665
20
-3.30160717682313
30
0
41
1
10
73.0616818352653
20
-3.35398637950974
30
0
41
1
10
73.3927865044753
20
-3.45239829152763
30
0
41
1
10
73.5584844876345
20
-3.49815512936081
30
0
41
1
10
74.0554856617874
20
-3.62594558591619
30
0
41
1
10
74.3866777340377
20
-3.6985935688096
30
0
41
1
10
74.8820763277779
20
-3.78942172321575
30
0
41
1
10
75.0468134905449
20
-3.81671896958397
30
0
41
1
10
75.3765055336896
20
-3.86466775114241
30
0
41
1
10
75.5419333190165
20
-3.88513656520701
30
0
41
1
10
76.0393977644432
20
-3.93651909410193
30
0
41
1
10
76.3725813077123
20
-3.95750771028639
30
0
41
1
10
76.787712236163
20
-3.96672770137587
30
0
41
1
10
76.8689458054663
20
-3.96771669110237
30
0
41
1
10
76.9501566062531
20
-3.96787925334533
30
0
0
SPLINE
5
C9
100
AcDbEntity
8
1
62
256
6
ByLayer
370
18
48
1
60
0
100
AcDbSpline
70
4
71
3
72
10
73
6
40
0
40
0
40
0
40
0
40
0.5
40
0.5
40
1
40
1
40
1
40
1
41
1
10
79.9999812435111
20
0.0284477125877913
30
0
41
1
10
79.9902565669639
20
-0.0022990528059665
30
0
41
1
10
79.978792880227
20
-0.0349231278116804
30
0
41
1
10
79.9544937770169
20
-0.097343072058095
30
0
41
1
10
79.9418408513109
20
-0.126731433209073
30
0
41
1
10
79.9296838816871
20
-0.152439111061938
30
0
0
SPLINE
5
CA
100
AcDbEntity
8
1
62
256
6
ByLayer
370
13
48
1
60
0
100
AcDbSpline
70
4
71
3
72
10
73
6
40
0
40
0
40
0
40
0
40
0.5
40
0.5
40
1
40
1
40
1
40
1
41
1
10
4.01738311726103
20
-1.26890752134713
30
0
41
1
10
4.02751235647287
20
-1.27435530743512
30
0
41
1
10
4.04172486478797
20
-1.27928628989108
30
0
41
1
10
4.07955300411447
20
-1.2881193543634
30
0
41
1
10
4.10212256991753
20
-1.29177666312629
30
0
41
1
10
4.12879782278014
20
-1.29462971109555
30
0
0
SPLINE
5
CB
100
AcDbEntity
8
1
62
256
6
ByLayer
370
18
48
1
60
0
100
AcDbSpline
70
4
71
3
72
62
73
58
40
0
40
0
40
0
40
0
40
0.0225753493661377
40
0.0225753493661377
40
0.192154984693114
40
0.192154984693114
40
0.276944802356603
40
0.276944802356603
40
0.361734620020091
40
0.361734620020091
40
0.531314255347069
40
0.531314255347069
40
0.616104073010558
40
0.616104073010558
40
0.626702800218494
40
0.626702800218494
40
0.632002163822462
40
0.632002163822462
40
0.634651845624447
40
0.634651845624447
40
0.637301527426431
40
0.637301527426431
40
0.639951209228415
40
0.639951209228415
40
0.642600891030399
40
0.647900254634369
40
0.647900254634369
40
0.658498981842309
40
0.658498981842309
40
0.700893890674073
40
0.700893890674073
40
0.722091345089954
40
0.722091345089954
40
0.743288799505836
40
0.743288799505836
40
0.753887526713776
40
0.753887526713776
40
0.764486253921717
40
0.775084981129657
40
0.775084981129657
40
0.785683708337598
40
0.785683708337598
40
0.806881162753479
40
0.806881162753479
40
0.817479889961419
40
0.817479889961419
40
0.82807861716936
40
0.82807861716936
40
0.84927607158524
40
0.84927607158524
40
0.870473526001121
40
0.870473526001121
40
0.912868434832883
40
0.912868434832883
40
0.955263343664645
40
0.955263343664645
40
1
40
1
40
1
40
1
41
1
10
11.1038287478719
20
-3.88881356636989
30
0
41
1
10
11.0132090312511
20
-3.88850416234689
30
0
41
1
10
10.9224424918806
20
-3.88765534692607
30
0
41
1
10
10.1485321026906
20
-3.87614427298362
30
0
41
1
10
9.45664040714826
20
-3.83752875355901
30
0
41
1
10
8.4006428632525
20
-3.76192545176471
30
0
41
1
10
8.04563899106194
20
-3.73380473422168
30
0
41
1
10
7.32910968636449
20
-3.67593686888964
30
0
41
1
10
6.96690861889618
20
-3.64614616190005
30
0
41
1
10
5.8753863146224
20
-3.56067767653019
30
0
41
1
10
5.14255076743797
20
-3.50945584127535
30
0
41
1
10
4.03479664053822
20
-3.45798419188819
30
0
41
1
10
3.66408764294945
20
-3.44494872253731
30
0
41
1
10
3.2454986165952
20
-3.43581527560974
30
0
41
1
10
3.19898211573118
20
-3.43487709414887
30
0
41
1
10
3.12919740977779
20
-3.43358625547913
30
0
41
1
10
3.10572971274416
20
-3.43292525961542
30
0
41
1
10
3.07142878008762
20
-3.43480706555786
30
0
41
1
10
3.06013833297004
20
-3.43581094760273
30
0
41
1
10
3.03795316858594
20
-3.43885006038167
30
0
41
1
10
3.02695906810007
20
-3.44091268150422
30
0
41
1
10
3.00739065512624
20
-3.44640562152969
30
0
41
1
10
2.99798974224228
20
-3.44940100058588
30
0
41
1
10
2.9789081756
20
-3.45517187211149
30
0
41
1
10
2.95036441165399
20
-3.4638395914437
30
0
41
1
10
2.92206206837397
20
-3.47254077670596
30
0
41
1
10
2.86579585165995
20
-3.48998554364175
30
0
41
1
10
2.82869410783877
20
-3.5016855843617
30
0
41
1
10
2.64643609306179
20
-3.56019478362629
30
0
41
1
10
2.51040572604296
20
-3.60717798838414
30
0
41
1
10
2.32963823606701
20
-3.67610918343868
30
0
41
1
10
2.27299844936854
20
-3.69897535282053
30
0
41
1
10
2.17350342755893
20
-3.7421982084212
30
0
41
1
10
2.1302937889439
20
-3.76267217042965
30
0
41
1
10
2.07769394344038
20
-3.79089924677365
30
0
41
1
10
2.06223234402657
20
-3.79989054263245
30
0
41
1
10
2.03651325883905
20
-3.8164413078982
30
0
41
1
10
2.01574917384065
20
-3.83168709942976
30
0
41
1
10
2.00504094135221
20
-3.84415863515113
30
0
41
1
10
1.99945690107026
20
-3.85515227244702
30
0
41
1
10
1.9992536738701
20
-3.85993428487521
30
0
41
1
10
2.00630917994812
20
-3.87169594063027
30
0
41
1
10
2.02099156483769
20
-3.87614546505944
30
0
41
1
10
2.05552335976802
20
-3.87823966263807
30
0
41
1
10
2.06920576094456
20
-3.87816484586878
30
0
41
1
10
2.09989394032465
20
-3.87658780264772
30
0
41
1
10
2.11691188722142
20
-3.87509465779087
30
0
41
1
10
2.17229326782376
20
-3.86872616280979
30
0
41
1
10
2.21495141856681
20
-3.86197252155338
30
0
41
1
10
2.30917002551496
20
-3.84428283649632
30
0
41
1
10
2.36097517681389
20
-3.8332810026109
30
0
41
1
10
2.52395271830329
20
-3.79560984425726
30
0
41
1
10
2.64329067773497
20
-3.76424060473374
30
0
41
1
10
2.89531112576646
20
-3.69233776529023
30
0
41
1
10
3.02866005341332
20
-3.65157427883858
30
0
41
1
10
3.31003477746694
20
-3.5607745986928
30
0
41
1
10
3.45781983115617
20
-3.51060753320348
30
0
41
1
10
3.60812257726238
20
-3.45734312985439
30
0
0
SPLINE
5
CC
100
AcDbEntity
8
1
62
256
6
ByLayer
370
18
48
1
60
0
100
AcDbSpline
70
4
71
3
72
8
73
4
40
0
40
0
40
0
40
0
40
1
40
1
40
1
40
1
41
1
10
79.9999812435111
20
0.0284477125872797
30
0
41
1
10
80.0000062521589
20
0.0094825732336119
30
0
41
1
10
80.0000062521589
20
-0.0094825732341519
30
0
41
1
10
79.9999812435111
20
-0.0284477125878198
30
0
0
SPLINE
5
CD
100
AcDbEntity
8
1
62
256
6
ByLayer
370
18
48
1
60
0
100
AcDbSpline
70
4
71
3
72
26
73
22
40
0
40
0
40
0
40
0
40
0.0124845171536584
40
0.0124845171536584
40
0.220557908186319
40
0.220557908186319
40
0.272576255944483
40
0.272576255944483
40
0.324594603702648
40
0.324594603702648
40
0.428631299218977
40
0.428631299218977
40
0.636704690251634
40
0.636704690251634
40
0.688723038009798
40
0.688723038009798
40
0.740741385767961
40
0.740741385767961
40
0.844778081284289
40
0.844778081284289
40
1
40
1
40
1
40
1
41
1
10
18.0542876388618
20
2.63044394026414
30
0
41
1
10
18.1006418711702
20
2.61178046931266
30
0
41
1
10
18.1469935571308
20
2.59294099102391
30
0
41
1
10
18.9658605624433
20
2.2570563494134
30
0
41
1
10
19.7378978946147
20
1.8916713619175
30
0
41
1
10
20.7156649060465
20
1.39243693081926
30
0
41
1
10
20.9115527061997
20
1.29059691718609
30
0
41
1
10
21.3014099409524
20
1.08505473982257
30
0
41
1
10
21.4957906744249
20
0.981143209031671
30
0
41
1
10
22.0777953168505
20
0.666914055238379
30
0
41
1
10
22.4642548680267
20
0.454053369032465
30
0
41
1
10
23.62272688402
20
-0.187820467153159
30
0
41
1
10
24.3941389083825
20
-0.619555946843036
30
0
41
1
10
25.3693853304745
20
-1.14172912316147
30
0
41
1
10
25.5654063373048
20
-1.24550846634455
30
0
41
1
10
25.9558824595861
20
-1.44896722870917
30
0
41
1
10
26.150531148763
20
-1.54875262215594
30
0
41
1
10
26.73316755688
20
-1.84163763016787
30
0
41
1
10
27.1198521058167
20
-2.02828350492479
30
0
41
1
10
28.0822162004064
20
-2.46746502350899
30
0
41
1
10
28.6572428189507
20
-2.7072003128288
30
0
41
1
10
29.235442753318
20
-2.91755650749028
30
0
0
SPLINE
5
CE
100
AcDbEntity
8
1
62
256
6
ByLayer
370
13
48
1
60
0
100
AcDbSpline
70
4
71
3
72
18
73
14
40
0
40
0
40
0
40
0
40
0.0923985475215724
40
0.0923985475215724
40
0.274282592223483
40
0.274282592223483
40
0.456166636925393
40
0.456166636925393
40
0.819934726329209
40
0.819934726329209
40
0.910876748680162
40
0.910876748680162
40
1
40
1
40
1
40
1
41
1
10
29.2354427532446
20
-2.91755650746353
30
0
41
1
10
29.4323139044422
20
-2.98918063563016
30
0
41
1
10
29.6295529485197
20
-3.0573987492844
30
0
41
1
10
30.2166509639264
20
-3.24906872850167
30
0
41
1
10
30.6090829885492
20
-3.36240145862541
30
0
41
1
10
31.3867679553059
20
-3.55415287411248
30
0
41
1
10
31.7737752976282
20
-3.63311234550625
30
0
41
1
10
32.9325803021116
20
-3.81792988355662
30
0
41
1
10
33.7023477024784
20
-3.87198824099443
30
0
41
1
10
34.6735849222511
20
-3.84801862984924
30
0
41
1
10
34.8682884918577
20
-3.83864813378179
30
0
41
1
10
35.2550605481706
20
-3.81100386934239
30
0
41
1
10
35.4468295182413
20
-3.79291592042921
30
0
41
1
10
35.6378218763201
20
-3.77057758058297
30
0
0
SPLINE
5
CF
100
AcDbEntity
8
1
62
256
6
ByLayer
370
18
48
1
60
0
100
AcDbSpline
70
4
71
3
72
26
73
22
40
0
40
0
40
0
40
0
40
0.0846796358164319
40
0.0846796358164319
40
0.191734646410248
40
0.191734646410248
40
0.298789657004063
40
0.298789657004063
40
0.512899678191695
40
0.512899678191695
40
0.566427183488604
40
0.566427183488604
40
0.619954688785514
40
0.619954688785514
40
0.727009699379329
40
0.727009699379329
40
0.941119720566964
40
0.941119720566964
40
0.994647225863874
40
0.994647225863874
40
1
40
1
40
1
40
1
41
1
10
61.4824256368316
20
2.69556487154767
30
0
41
1
10
61.7885427887214
20
2.57182617936005
30
0
41
1
10
62.0956623501017
20
2.43978242401053
30
0
41
1
10
62.7948605842133
20
2.12362181100832
30
0
41
1
10
63.1833086057853
20
1.93676406622001
30
0
41
1
10
63.956382309722
20
1.54834866800635
30
0
41
1
10
64.3414705863564
20
1.34664195960255
30
0
41
1
10
65.496326549191
20
0.725812363814299
30
0
41
1
10
66.265869628916
20
0.291384844559701
30
0
41
1
10
67.2392936037623
20
-0.256629431629364
30
0
41
1
10
67.4346880398398
20
-0.36648694936278
30
0
41
1
10
67.8235475157801
20
-0.583709263627327
30
0
41
1
10
68.0174247353568
20
-0.691372278947483
30
0
41
1
10
68.5976770117176
20
-1.01108635653193
30
0
41
1
10
68.9827552201808
20
-1.21973176466784
30
0
41
1
10
70.1366895723526
20
-1.82562272486783
30
0
41
1
10
70.9043481894395
20
-2.20260101612419
30
0
41
1
10
71.8747712389915
20
-2.61886619565422
30
0
41
1
10
72.0696604798352
20
-2.69950046898964
30
0
41
1
10
72.2841311268854
20
-2.7846238322463
30
0
41
1
10
72.3036215658386
20
-2.79232688068817
30
0
41
1
10
72.3231052225684
20
-2.79999431519167
30
0
0
SPLINE
5
D0
100
AcDbEntity
8
1
62
256
6
ByLayer
370
13
48
1
60
0
100
AcDbSpline
70
4
71
3
72
18
73
14
40
0
40
0
40
0
40
0
40
0.0825687702543914
40
0.0825687702543914
40
0.266055016203513
40
0.266055016203513
40
0.633027508101759
40
0.633027508101759
40
0.724770631076318
40
0.724770631076318
40
0.816513754050879
40
0.816513754050879
40
1
40
1
40
1
40
1
41
1
10
72.3231052223302
20
-2.79999431509796
30
0
41
1
10
72.498457273724
20
-2.86900088751958
30
0
41
1
10
72.673259970411
20
-2.93512275920526
30
0
41
1
10
73.2351860312779
20
-3.13854929695177
30
0
41
1
10
73.6207425391359
20
-3.26404323276123
30
0
41
1
10
74.7751697959139
20
-3.59308763492424
30
0
41
1
10
75.5419211736723
20
-3.74917424069159
30
0
41
1
10
76.509380437931
20
-3.85550209602215
30
0
41
1
10
76.7033256254545
20
-3.87233302450952
30
0
41
1
10
77.0924772406494
20
-3.89689307721738
30
0
41
1
10
77.2877675852852
20
-3.90460374099055
30
0
41
1
10
77.8722278015048
20
-3.91370984853202
30
0
41
1
10
78.2612395844197
20
-3.90119580909681
30
0
41
1
10
78.6507494029792
20
-3.87009424061696
30
0
0
SPLINE
5
D1
100
AcDbEntity
8
1
62
256
6
ByLayer
370
18
48
1
60
0
100
AcDbSpline
70
4
71
3
72
10
73
6
40
0
40
0
40
0
40
0
40
0.5
40
0.5
40
1
40
1
40
1
40
1
41
1
10
79.9627637390947
20
0.188521725400534
30
0
41
1
10
79.9670295558225
20
0.165564672709905
30
0
41
1
10
79.9722934664569
20
0.140675701377773
30
0
41
1
10
79.9847086435942
20
0.0872410528048704
30
0
41
1
10
79.9919270651419
20
0.0584565572648046
30
0
41
1
10
79.9999812435111
20
0.0284477125875355
30
0
0
SPLINE
5
D2
100
AcDbEntity
8
1
62
256
6
ByLayer
370
18
48
1
60
0
100
AcDbSpline
70
4
71
3
72
8
73
4
40
0
40
0
40
0
40
0
40
1
40
1
40
1
40
1
41
1
10
79.9125241077188
20
-0.481828514479872
30
0
41
1
10
79.9247800447503
20
-0.408593910343484
30
0
41
1
10
79.9368162075281
20
-0.335362604048441
30
0
41
1
10
79.9486323362457
20
-0.262135270541876
30
0
0
SPLINE
5
D3
100
AcDbEntity
8
1
62
256
6
ByLayer
370
18
48
1
60
0
100
AcDbSpline
70
4
71
3
72
44
73
40
40
0
40
0
40
0
40
0
40
0.124999999999997
40
0.124999999999997
40
0.249999999999994
40
0.249999999999994
40
0.374999999999991
40
0.374999999999991
40
0.499999999999988
40
0.499999999999988
40
0.562499999999986
40
0.562499999999986
40
0.624999999999985
40
0.624999999999985
40
0.687499999999983
40
0.687499999999983
40
0.718749999999985
40
0.718749999999985
40
0.734374999999986
40
0.734374999999986
40
0.749999999999986
40
0.749999999999986
40
0.781249999999988
40
0.781249999999988
40
0.81249999999999
40
0.81249999999999
40
0.843749999999992
40
0.843749999999992
40
0.874999999999993
40
0.874999999999993
40
0.906249999999995
40
0.906249999999995
40
0.937499999999997
40
0.937499999999997
40
0.968749999999998
40
0.968749999999998
40
0.984374999999999
40
0.984374999999999
40
1
40
1
40
1
40
1
41
1
10
75.8478445349054
20
0.0212026153071179
30
0
41
1
10
76.0083423573674
20
-0.0767780653982015
30
0
41
1
10
76.1701140516084
20
-0.168306742220466
30
0
41
1
10
76.496983376843
20
-0.334518635279522
30
0
41
1
10
76.6624855834331
20
-0.409281115976427
30
0
41
1
10
76.9942035470643
20
-0.537746307725939
30
0
41
1
10
77.1606396222109
20
-0.591695829867746
30
0
41
1
10
77.4948109030659
20
-0.67644600959656
30
0
41
1
10
77.6619775214304
20
-0.707074135284984
30
0
41
1
10
77.9111161831507
20
-0.733209816198325
30
0
41
1
10
77.9938774570537
20
-0.738635250772887
30
0
41
1
10
78.1584837951894
20
-0.7425082165216
30
0
41
1
10
78.2396343897602
20
-0.736732689947502
30
0
41
1
10
78.3976897297789
20
-0.70746703352836
30
0
41
1
10
78.4737932607411
20
-0.683715576952466
30
0
41
1
10
78.580164858384
20
-0.630324636263509
30
0
41
1
10
78.6144157595153
20
-0.609570838090406
30
0
41
1
10
78.6633314423784
20
-0.572408671608201
30
0
41
1
10
78.6793301251944
20
-0.559049119998633
30
0
41
1
10
78.709788925482
20
-0.529523562951482
30
0
41
1
10
78.7240002127048
20
-0.513505423604812
30
0
41
1
10
78.7646469095171
20
-0.463000777444421
30
0
41
1
10
78.7887789806197
20
-0.425674191854483
30
0
41
1
10
78.8303848590712
20
-0.342811201023693
30
0
41
1
10
78.8473629762348
20
-0.297987884029283
30
0
41
1
10
78.8725529192735
20
-0.203197467189654
30
0
41
1
10
78.8809127362084
20
-0.152393925274396
30
0
41
1
10
78.8887326581952
20
-0.0475694320245736
30
0
41
1
10
78.8882735010706
20
0.0058296149775856
30
0
41
1
10
78.879736842321
20
0.114348373203882
30
0
41
1
10
78.8715176462672
20
0.169568719154029
30
0
41
1
10
78.8489387024218
20
0.277676147997568
30
0
41
1
10
78.8340279372364
20
0.330992368006207
30
0
41
1
10
78.8001825281357
20
0.43680532507446
30
0
41
1
10
78.7810650999013
20
0.489393608050023
30
0
41
1
10
78.7501265272396
20
0.567155373293161
30
0
41
1
10
78.7393022649102
20
0.592838202215631
30
0
41
1
10
78.7181507879492
20
0.644441787913792
30
0
41
1
10
78.7077617017271
20
0.670331934814897
30
0
41
1
10
78.6975515943593
20
0.696306535940181
30
0
0
SPLINE
5
D4
100
AcDbEntity
8
1
62
256
6
ByLayer
370
18
48
1
60
0
100
AcDbSpline
70
4
71
3
72
16
73
12
40
0
40
0
40
0
40
0
40
0.0863225386585595
40
0.0863225386585595
40
0.226457216338255
40
0.226457216338255
40
0.366591894017951
40
0.366591894017951
40
0.927130604736717
40
0.927130604736717
40
1
40
1
40
1
40
1
41
1
10
77.8611688090073
20
-3.81029636271316
30
0
41
1
10
77.741303986813
20
-3.81014764670542
30
0
41
1
10
77.6214136743797
20
-3.8082809484533
30
0
41
1
10
77.3067456424818
20
-3.79888074486166
30
0
41
1
10
77.1115973541247
20
-3.78850845385912
30
0
41
1
10
76.7227968266286
20
-3.75892902412212
30
0
41
1
10
76.5289894623292
20
-3.73973416162855
30
0
41
1
10
75.5620845029974
20
-3.62230938292177
30
0
41
1
10
74.7953736425862
20
-3.45966221298752
30
0
41
1
10
73.9257405388513
20
-3.20720552465295
30
0
41
1
10
73.8256440535546
20
-3.17713507811345
30
0
41
1
10
73.7254757415002
20
-3.14605701336615
30
0
0
SPLINE
5
D5
100
AcDbEntity
8
1
62
256
6
ByLayer
370
13
48
1
60
0
100
AcDbSpline
70
4
71
3
72
26
73
22
40
0
40
0
40
0
40
0
40
0.0770761623441391
40
0.0770761623441391
40
0.181232818514042
40
0.181232818514042
40
0.389546130853852
40
0.389546130853852
40
0.493702787023756
40
0.493702787023756
40
0.545781115108707
40
0.545781115108707
40
0.597859443193658
40
0.597859443193658
40
0.806172755533459
40
0.806172755533459
40
0.910329411703359
40
0.910329411703359
40
0.962407739788308
40
0.962407739788308
40
1
40
1
40
1
40
1
41
1
10
73.7254757415155
20
-3.14605701337092
30
0
41
1
10
73.4403779463671
20
-3.05760301474424
30
0
41
1
10
73.1546982982309
20
-2.96098651952613
30
0
41
1
10
72.4804675717003
20
-2.71566447960026
30
0
41
1
10
72.0894735463183
20
-2.55987481629944
30
0
41
1
10
70.9258384311923
20
-2.06253302467607
30
0
41
1
10
70.1582639845608
20
-1.68953906254399
30
0
41
1
10
69.0043761697327
20
-1.09324037352369
30
0
41
1
10
68.6193202301007
20
-0.888364770917804
30
0
41
1
10
68.039159098831
20
-0.575169794653476
30
0
41
1
10
67.8453240334994
20
-0.46981608311242
30
0
41
1
10
67.4565594658119
20
-0.257554148472366
30
0
41
1
10
67.2612491194341
20
-0.1503998780301
30
0
41
1
10
66.2886104897909
20
0.383500570126074
30
0
41
1
10
65.5192988552649
20
0.805274738459985
30
0
41
1
10
64.3645534076544
20
1.4051574935404
30
0
41
1
10
63.9794656378659
20
1.59956222951331
30
0
41
1
10
63.3997258070458
20
1.87960313364232
30
0
41
1
10
63.206121744881
20
1.97101093147071
30
0
41
1
10
62.8718624241217
20
2.12455214657294
30
0
41
1
10
62.7313174329712
20
2.18781812163562
30
0
41
1
10
62.5906256103338
20
2.24972536149451
30
0
0
SPLINE
5
D6
100
AcDbEntity
8
1
62
256
6
ByLayer
370
18
48
1
60
0
100
AcDbSpline
70
4
71
3
72
12
73
8
40
0
40
0
40
0
40
0
40
0.505591753078398
40
0.505591753078398
40
0.778736743294601
40
0.778736743294601
40
1
40
1
40
1
40
1
41
1
10
34.3409025711822
20
-3.75773027496391
30
0
41
1
10
33.6231175411453
20
-3.75558492341037
30
0
41
1
10
32.9105991938269
20
-3.6926803884148
30
0
41
1
10
31.8095946679364
20
-3.50758084026938
30
0
41
1
10
31.4226911878613
20
-3.42581252334196
30
0
41
1
10
30.7190922683689
20
-3.24847780946868
30
0
41
1
10
30.4020020835591
20
-3.15810004485067
30
0
41
1
10
30.0861071066878
20
-3.05864425900188
30
0
0
SPLINE
5
D7
100
AcDbEntity
8
1
62
256
6
ByLayer
370
13
48
1
60
0
100
AcDbSpline
70
4
71
3
72
26
73
22
40
0
40
0
40
0
40
0
40
0.0199227417543655
40
0.0199227417543655
40
0.229699737595022
40
0.229699737595022
40
0.334588235515353
40
0.334588235515353
40
0.387032484475518
40
0.387032484475518
40
0.439476733435684
40
0.439476733435684
40
0.649253729276347
40
0.649253729276347
40
0.754142227196679
40
0.754142227196679
40
0.806586476156846
40
0.806586476156846
40
0.859030725117013
40
0.859030725117013
40
1
40
1
40
1
40
1
41
1
10
30.0861071068563
20
-3.05864425905489
30
0
41
1
10
30.0120361595878
20
-3.03532390004864
30
0
41
1
10
29.9380309257023
20
-3.01150442497439
30
0
41
1
10
29.0860491890297
20
-2.73141052589102
30
0
41
1
10
28.3158541852331
20
-2.42155512178218
30
0
41
1
10
27.1575762764913
20
-1.89796232189701
30
0
41
1
10
26.770993056082
20
-1.71364140568792
30
0
41
1
10
26.1885874744696
20
-1.42520547654036
30
0
41
1
10
25.9940323915356
20
-1.32705749711627
30
0
41
1
10
25.6037700595772
20
-1.1272166086321
30
0
41
1
10
25.4079096573353
20
-1.02545330506561
30
0
41
1
10
24.4333318535675
20
-0.513856811062652
30
0
41
1
10
23.6621336834365
20
-0.0922974377620278
30
0
41
1
10
22.5039011732648
20
0.531778866172829
30
0
41
1
10
22.1175059809724
20
0.738277576514463
30
0
41
1
10
21.5357011984907
20
1.04248116661805
30
0
41
1
10
21.3414072343882
20
1.14297606604094
30
0
41
1
10
20.9517643061622
20
1.34152148536015
30
0
41
1
10
20.7560110054295
20
1.43977067701994
30
0
41
1
10
20.0354176822346
20
1.79452865778893
30
0
41
1
10
19.51457925172
20
2.03748917104198
30
0
41
1
10
18.9950411917153
20
2.26066818193965
30
0
0
SPLINE
5
D8
100
AcDbEntity
8
1
62
256
6
ByLayer
370
18
48
1
60
0
100
AcDbSpline
70
4
71
3
72
22
73
18
40
0
40
0
40
0
40
0
40
0.125
40
0.125
40
0.25
40
0.25
40
0.375
40
0.375
40
0.5
40
0.5
40
0.625
40
0.625
40
0.75
40
0.75
40
0.875
40
0.875
40
1
40
1
40
1
40
1
41
1
10
4.0173831172612
20
-1.26890752134645
30
0
41
1
10
4.01738091242271
20
-1.06056689961554
30
0
41
1
10
4.01737545793065
20
-0.845355341379815
30
0
41
1
10
4.01736077485185
20
-0.414080045292053
30
0
41
1
10
4.01735155597717
20
-0.197023433756414
30
0
41
1
10
4.0173317394399
20
0.239925508925779
30
0
41
1
10
4.01732106428989
20
0.461434087268486
30
0
41
1
10
4.01730131454087
20
0.891774535796714
30
0
41
1
10
4.0172921645518
20
1.10221311477946
30
0
41
1
10
4.01727714878032
20
1.51363004565144
30
0
41
1
10
4.01727128583843
20
1.71592373591872
30
0
41
1
10
4.01726458280018
20
2.09656017375818
30
0
41
1
10
4.01726365536226
20
2.27653227925848
30
0
41
1
10
4.01726715271425
20
2.6157815604042
30
0
41
1
10
4.01727166658617
20
2.77593058946755
30
0
41
1
10
4.0172855558925
20
3.0637340359153
30
0
41
1
10
4.01729490857471
20
3.19284387815378
30
0
41
1
10
4.01730614778131
20
3.30715318370127
30
0
0
SPLINE
5
D9
100
AcDbEntity
8
1
62
256
6
ByLayer
370
18
48
1
60
0
100
AcDbSpline
70
4
71
3
72
18
73
14
40
0
40
0
40
0
40
0
40
0.249999999999996
40
0.249999999999996
40
0.374999999999996
40
0.374999999999996
40
0.499999999999997
40
0.499999999999997
40
0.624999999999997
40
0.624999999999997
40
0.749999999999997
40
0.749999999999997
40
1
40
1
40
1
40
1
41
1
10
78.5984150622983
20
-3.80973157669158
30
0
41
1
10
78.5069450850903
20
-3.8035618949759
30
0
41
1
10
78.4224419027508
20
-3.77678438948649
30
0
41
1
10
78.3072482680062
20
-3.70242020885175
30
0
41
1
10
78.2709717928703
20
-3.67191855127831
30
0
41
1
10
78.2040570563992
20
-3.60047736640485
30
0
41
1
10
78.1732119601922
20
-3.55941773818623
30
0
41
1
10
78.116823366566
20
-3.46646292353489
30
0
41
1
10
78.091279174762
20
-3.41456915630636
30
0
41
1
10
78.0457185497321
20
-3.29948383183196
30
0
41
1
10
78.0256459310236
20
-3.23606657658755
30
0
41
1
10
77.9746901632182
20
-3.02911314959235
30
0
41
1
10
77.9536986647743
20
-2.87239756435625
30
0
41
1
10
77.9457537563624
20
-2.69683773888312
30
0
0
SPLINE
5
DA
100
AcDbEntity
8
1
62
256
6
ByLayer
370
18
48
1
60
0
100
AcDbSpline
70
4
71
3
72
22
73
18
40
0
40
0
40
0
40
0
40
0.124999999999997
40
0.124999999999997
40
0.249999999999994
40
0.249999999999994
40
0.374999999999991
40
0.374999999999991
40
0.499999999999988
40
0.499999999999988
40
0.624999999999985
40
0.624999999999985
40
0.687499999999986
40
0.687499999999986
40
0.749999999999988
40
0.749999999999988
40
1
40
1
40
1
40
1
41
1
10
78.7091356637926
20
-3.84434673375233
30
0
41
1
10
78.7493480215021
20
-3.74877773164229
30
0
41
1
10
78.7896232489221
20
-3.65290042715844
30
0
41
1
10
78.8699940476071
20
-3.45802442780666
30
0
41
1
10
78.9101200816076
20
-3.35936277180255
30
0
41
1
10
78.9903213641174
20
-3.16068596995714
30
0
41
1
10
79.0303917270655
20
-3.06062679064672
30
0
41
1
10
79.1105549616929
20
-2.85999685089519
30
0
41
1
10
79.1505304732188
20
-2.7584775791056
30
0
41
1
10
79.2302846869554
20
-2.55362099602868
30
0
41
1
10
79.2700762596642
20
-2.45036277211315
30
0
41
1
10
79.329645424078
20
-2.29459987089734
30
0
41
1
10
79.3494131747284
20
-2.24271108349436
30
0
41
1
10
79.3888468915531
20
-2.13896957493645
30
0
41
1
10
79.4085823138482
20
-2.08709401360562
30
0
41
1
10
79.5063025274297
20
-1.82803380776562
30
0
41
1
10
79.5819666103984
20
-1.62160412011286
30
0
41
1
10
79.6561203016138
20
-1.41553900128579
30
0
0
SPLINE
5
DB
100
AcDbEntity
8
1
62
256
6
ByLayer
370
18
48
1
60
0
100
AcDbSpline
70
4
71
3
72
92
73
88
40
0
40
0
40
0
40
0
40
0.0179250105343181
40
0.0179250105343181
40
0.0537750316029531
40
0.0537750316029531
40
0.0717000421372706
40
0.0717000421372706
40
0.0896250526715882
40
0.0896250526715882
40
0.125475073740223
40
0.125475073740223
40
0.143400084274541
40
0.143400084274541
40
0.161325094808858
40
0.161325094808858
40
0.197175115877494
40
0.197175115877494
40
0.215100126411812
40
0.215100126411812
40
0.233025136946131
40
0.233025136946131
40
0.250950147480449
40
0.250950147480449
40
0.268875158014767
40
0.268875158014767
40
0.286800168549085
40
0.286800168549085
40
0.304725179083403
40
0.304725179083403
40
0.340575200152041
40
0.340575200152041
40
0.35850021068636
40
0.35850021068636
40
0.376425221220679
40
0.376425221220679
40
0.412275242289317
40
0.412275242289317
40
0.430200252823636
40
0.430200252823636
40
0.448125263357955
40
0.448125263357955
40
0.483975284426593
40
0.483975284426593
40
0.501900294960913
40
0.501900294960913
40
0.519825305495233
40
0.519825305495233
40
0.555675326563873
40
0.555675326563873
40
0.573600337098194
40
0.573600337098194
40
0.591525347632515
40
0.591525347632515
40
0.627375368701158
40
0.627375368701158
40
0.64530037923548
40
0.64530037923548
40
0.663225389769801
40
0.663225389769801
40
0.699075410838443
40
0.699075410838443
40
0.717000421372765
40
0.717000421372765
40
0.734925431907086
40
0.734925431907086
40
0.770775452975729
40
0.770775452975729
40
0.788700463510051
40
0.788700463510051
40
0.806625474044372
40
0.806625474044372
40
0.842475495113017
40
0.842475495113017
40
0.860400505647339
40
0.860400505647339
40
0.878325516181662
40
0.878325516181662
40
0.914175537250308
40
0.914175537250308
40
0.932100547784632
40
0.932100547784632
40
0.950025558318956
40
0.950025558318956
40
0.985875579387602
40
0.985875579387602
40
1
40
1
40
1
40
1
41
1
10
27.3336383108189
20
2.4986583480626
30
0
41
1
10
27.4995353604364
20
2.57067455602723
30
0
41
1
10
27.6657946037036
20
2.64027392267258
30
0
41
1
10
28.1652554099652
20
2.84241711687326
30
0
41
1
10
28.4991286224834
20
2.9683769263479
30
0
41
1
10
29.0003448148511
20
3.14449015041151
30
0
41
1
10
29.1681840543025
20
3.20069549280001
30
0
41
1
10
29.5037439493194
20
3.3060410281945
30
0
41
1
10
29.67130358111
20
3.35547367446813
30
0
41
1
10
30.17294988073
20
3.49471713081294
30
0
41
1
10
30.5060068163791
20
3.57555716504632
30
0
41
1
10
31.0024570017461
20
3.67918766578427
30
0
41
1
10
31.1677535399432
20
3.71051778273289
30
0
41
1
10
31.4992226990175
20
3.76619758997032
30
0
41
1
10
31.6651639571596
20
3.79070219384656
30
0
41
1
10
32.1632009263149
20
3.85454919898942
30
0
41
1
10
32.4955030279273
20
3.88431655854967
30
0
41
1
10
32.9933414892429
20
3.90904159948502
30
0
41
1
10
33.1594361429994
20
3.91386238159527
30
0
41
1
10
33.4933783130631
20
3.91661167968181
30
0
41
1
10
33.6609706085664
20
3.91458453521497
30
0
41
1
10
33.9971277705966
20
3.90372406544529
30
0
41
1
10
34.1655044774245
20
3.89487926944787
30
0
41
1
10
34.5004574423808
20
3.87043681069048
30
0
41
1
10
34.667345900677
20
3.85483216613736
30
0
41
1
10
34.9997512269428
20
3.81667593909143
30
0
41
1
10
35.1655018119899
20
3.79417745541025
30
0
41
1
10
35.4976255820363
20
3.74321348011085
30
0
41
1
10
35.6637399024889
20
3.71465467209646
30
0
41
1
10
36.1618353623951
20
3.61972740730468
30
0
41
1
10
36.4935621632202
20
3.54418467133826
30
0
41
1
10
36.9895790752247
20
3.41099540255371
30
0
41
1
10
37.154805314579
20
3.36335378763562
30
0
41
1
10
37.4867508834478
20
3.26324136652519
30
0
41
1
10
37.6531926186233
20
3.21053989495405
30
0
41
1
10
38.1535035385784
20
3.04414429779652
30
0
41
1
10
38.4887980750759
20
2.92204565804246
30
0
41
1
10
38.9913116375877
20
2.72055268934812
30
0
41
1
10
39.1580793768703
20
2.65075296868548
30
0
41
1
10
39.491961440802
20
2.50849211477146
30
0
41
1
10
39.6587967382448
20
2.43566044726524
30
0
41
1
10
40.1585874527813
20
2.21162774883305
30
0
41
1
10
40.4908213231904
20
2.05491826728576
30
0
41
1
10
40.9866506548402
20
1.80695909251827
30
0
41
1
10
41.1515666697044
20
1.72222053464432
30
0
41
1
10
41.4826090261594
20
1.55172873621896
30
0
41
1
10
41.6484476803303
20
1.46552558150194
30
0
41
1
10
42.1464850740778
20
1.2033965027135
30
0
41
1
10
42.4791875884496
20
1.02396180491436
30
0
41
1
10
42.9782498051231
20
0.745546855508252
30
0
41
1
10
43.1446085452727
20
0.651169512326533
30
0
41
1
10
43.4793852813592
20
0.463043865346918
30
0
41
1
10
43.6477525717404
20
0.368644401988576
30
0
41
1
10
44.1508842907967
20
0.0861534227010736
30
0
41
1
10
44.4847211656545
20
-0.101852916251431
30
0
41
1
10
44.9820308591867
20
-0.385309215548887
30
0
41
1
10
45.1472009973998
20
-0.48006450243733
30
0
41
1
10
45.4784454927081
20
-0.666352338487854
30
0
41
1
10
45.6442351199002
20
-0.758406126252197
30
0
41
1
10
46.141671867545
20
-1.03212099859951
30
0
41
1
10
46.4733709647145
20
-1.21138405137739
30
0
41
1
10
46.9699733476197
20
-1.47710631391575
30
0
41
1
10
47.1352660871043
20
-1.56527547586396
30
0
41
1
10
47.4675850486725
20
-1.73707909605005
30
0
41
1
10
47.6343350588108
20
-1.82118685000827
30
0
41
1
10
48.1359066053807
20
-2.06889454793276
30
0
41
1
10
48.4731742973015
20
-2.22844016472112
30
0
41
1
10
48.9734318231674
20
-2.45646485275913
30
0
41
1
10
49.1393447504688
20
-2.53080124988631
30
0
41
1
10
49.4717304852897
20
-2.67305229728359
30
0
41
1
10
49.6379382385642
20
-2.74137703693586
30
0
41
1
10
50.1361731737216
20
-2.93877128316103
30
0
41
1
10
50.4677984393419
20
-3.06034670896526
30
0
41
1
10
50.9633544152521
20
-3.22855407203301
30
0
41
1
10
51.1280745961862
20
-3.28236220164135
30
0
41
1
10
51.4588962518985
20
-3.38314034030782
30
0
41
1
10
51.6247502109468
20
-3.43039269739319
30
0
41
1
10
52.1231750202032
20
-3.56330153285359
30
0
41
1
10
52.4565856701707
20
-3.64020475095197
30
0
41
1
10
52.9573917064267
20
-3.73788694303801
30
0
41
1
10
53.12460499829
20
-3.76759012793036
30
0
41
1
10
53.4593197851165
20
-3.81949786356469
30
0
41
1
10
53.6265360320773
20
-3.84188000422333
30
0
41
1
10
54.1273348516588
20
-3.89891066625921
30
0
41
1
10
54.4600568583938
20
-3.9235339633303
30
0
41
1
10
54.9212614829239
20
-3.93923193585033
30
0
41
1
10
55.0511959437286
20
-3.94155825225025
30
0
41
1
10
55.1812854361101
20
-3.94176175108188
30
0
0
SPLINE
5
DC
100
AcDbEntity
8
1
62
256
6
ByLayer
370
18
48
1
60
0
100
AcDbSpline
70
4
71
3
72
30
73
26
40
0
40
0
40
0
40
0
40
0.0482222419029946
40
0.0482222419029946
40
0.111674092442795
40
0.111674092442795
40
0.238577793522397
40
0.238577793522397
40
0.302029644062198
40
0.302029644062198
40
0.365481494602
40
0.365481494602
40
0.492385195681601
40
0.492385195681601
40
0.555837046221402
40
0.555837046221402
40
0.619288896761203
40
0.619288896761203
40
0.7461925978408
40
0.7461925978408
40
0.809644448380599
40
0.809644448380599
40
0.873096298920398
40
0.873096298920398
40
1
40
1
40
1
40
1
41
1
10
70.8494300095259
20
2.51796865594264
30
0
41
1
10
70.9751248318841
20
2.57387750976469
30
0
41
1
10
71.1007473954646
20
2.62885619985334
30
0
41
1
10
71.3922530090191
20
2.75293468448101
30
0
41
1
10
71.5586054316362
20
2.82065015005139
30
0
41
1
10
72.059273066715
20
3.01628452646679
30
0
41
1
10
72.3961301791445
20
3.13703681077757
30
0
41
1
10
72.8959393430666
20
3.30160717682315
30
0
41
1
10
73.0616818352653
20
3.35398637950974
30
0
41
1
10
73.3927865044753
20
3.45239829152766
30
0
41
1
10
73.5584844876346
20
3.49815512936081
30
0
41
1
10
74.0554856617874
20
3.62594558591619
30
0
41
1
10
74.3866777340378
20
3.6985935688096
30
0
41
1
10
74.8820763277779
20
3.78942172321575
30
0
41
1
10
75.0468134905449
20
3.816718969584
30
0
41
1
10
75.3765055336897
20
3.86466775114241
30
0
41
1
10
75.5419333190166
20
3.88513656520701
30
0
41
1
10
76.0393977644433
20
3.93651909410193
30
0
41
1
10
76.3725813077123
20
3.95750771028642
30
0
41
1
10
76.873538949243
20
3.96863389885624
30
0
41
1
10
77.040839799039
20
3.96889861774989
30
0
41
1
10
77.3743786964743
20
3.96231557035171
30
0
41
1
10
77.5413254782129
20
3.95554415739233
30
0
41
1
10
78.0421909142093
20
3.92517153365927
30
0
41
1
10
78.3760850426434
20
3.89159107693868
30
0
41
1
10
78.7091356637926
20
3.84434673375236
30
0
0
SPLINE
5
DD
100
AcDbEntity
8
1
62
256
6
ByLayer
370
18
48
1
60
0
100
AcDbSpline
70
4
71
3
72
8
73
4
40
0
40
0
40
0
40
0
40
1
40
1
40
1
40
1
41
1
10
78.6507494030286
20
-3.87009424063825
30
0
41
1
10
78.6430611652112
20
-3.89041520206973
30
0
41
1
10
78.6353683204846
20
-3.91072949102815
30
0
41
1
10
78.627671223313
20
-3.93103651321695
30
0
0
SPLINE
5
DE
100
AcDbEntity
8
1
62
256
6
ByLayer
370
18
48
1
60
0
100
AcDbSpline
70
4
71
3
72
8
73
4
40
0
40
0
40
0
40
0
40
1
40
1
40
1
40
1
41
1
10
78.7091356637926
20
-3.84434673375236
30
0
41
1
10
78.6792953253896
20
-3.88103536962973
30
0
41
1
10
78.6521157156192
20
-3.91009704056827
30
0
41
1
10
78.627671223313
20
-3.93103651321692
30
0
0
SPLINE
5
DF
100
AcDbEntity
8
1
62
256
6
ByLayer
370
18
48
1
60
0
100
AcDbSpline
70
4
71
3
72
20
73
16
40
0
40
0
40
0
40
0
40
0.125000000000001
40
0.125000000000001
40
0.250000000000003
40
0.250000000000003
40
0.375000000000004
40
0.375000000000004
40
0.500000000000006
40
0.500000000000006
40
0.750000000000009
40
0.750000000000009
40
0.875000000000005
40
0.875000000000005
40
1
40
1
40
1
40
1
41
1
10
79.5440734230372
20
-1.21155658404226
30
0
41
1
10
79.543727688486
20
-1.22959344623817
30
0
41
1
10
79.54061190774
20
-1.25372209327392
30
0
41
1
10
79.5285382357425
20
-1.31477042392021
30
0
41
1
10
79.519879091622
20
-1.35013820575881
30
0
41
1
10
79.4975821413137
20
-1.429808798533
30
0
41
1
10
79.4844070092154
20
-1.47244326756848
30
0
41
1
10
79.4547116850872
20
-1.56174572990136
30
0
41
1
10
79.4386665498832
20
-1.60698444230812
30
0
41
1
10
79.388064142263
20
-1.74238066585539
30
0
41
1
10
79.3519836612195
20
-1.82955954165845
30
0
41
1
10
79.3013028230012
20
-1.94140159520452
30
0
41
1
10
79.284679943638
20
-1.97618558537153
30
0
41
1
10
79.2535941338328
20
-2.03742560928657
30
0
41
1
10
79.23907070824
20
-2.06406792185137
30
0
41
1
10
79.2256205505659
20
-2.086498660318
30
0
0
SPLINE
5
E0
100
AcDbEntity
8
1
62
256
6
ByLayer
370
18
48
1
60
0
100
AcDbSpline
70
4
71
3
72
8
73
4
40
0
40
0
40
0
40
0
40
1
40
1
40
1
40
1
41
1
10
79.9125241077188
20
0.481828514479872
30
0
41
1
10
79.9247800447503
20
0.408593910343484
30
0
41
1
10
79.9368162075281
20
0.335362604048441
30
0
41
1
10
79.9486323362457
20
0.262135270541876
30
0
0
SPLINE
5
E1
100
AcDbEntity
8
1
62
256
6
ByLayer
370
13
48
1
60
0
100
AcDbSpline
70
4
71
3
72
30
73
26
40
0
40
0
40
0
40
0
40
0.125
40
0.125
40
0.1875
40
0.1875
40
0.25
40
0.25
40
0.375
40
0.375
40
0.4375
40
0.4375
40
0.5
40
0.5
40
0.5625
40
0.5625
40
0.625
40
0.625
40
0.75
40
0.75
40
0.8125
40
0.8125
40
0.875
40
0.875
40
1
40
1
40
1
40
1
41
1
10
4.25039322458127
20
-1.32014407656581
30
0
41
1
10
4.25039010584103
20
-1.12047335234337
30
0
41
1
10
4.2503800144604
20
-0.916318450568866
30
0
41
1
10
4.25035834767738
20
-0.60346546838295
30
0
41
1
10
4.25034999400157
20
-0.497640882305433
30
0
41
1
10
4.25033193719852
20
-0.286108008264336
30
0
41
1
10
4.2503222538968
20
-0.180517486275221
30
0
41
1
10
4.25029226574333
20
0.135739899809693
30
0
41
1
10
4.25027103473624
20
0.345896236467837
30
0
41
1
10
4.25024101999281
20
0.660093996948973
30
0
41
1
10
4.25023128462064
20
0.765030598486533
30
0
41
1
10
4.25021320071323
20
0.972269632364146
30
0
41
1
10
4.25020484786555
20
1.07458060107885
30
0
41
1
10
4.25018999595724
20
1.27659336559492
30
0
41
1
10
4.25018348173489
20
1.37663120404565
30
0
41
1
10
4.25017285498802
20
1.57169187707512
30
0
41
1
10
4.25016872447077
20
1.66686042636496
30
0
41
1
10
4.25016022442372
20
1.94544621696664
30
0
41
1
10
4.25015976889105
20
2.12199315576743
30
0
41
1
10
4.25016780845547
20
2.37279590411489
30
0
41
1
10
4.25017196874779
20
2.45437468108676
30
0
41
1
10
4.25018304318567
20
2.61000522219774
30
0
41
1
10
4.25018995108547
20
2.68430322413909
30
0
41
1
10
4.25021446766658
20
2.89687792145949
30
0
41
1
10
4.25023589760502
20
3.02490962986528
30
0
41
1
10
4.25026126690412
20
3.13896802788221
30
0
0
SPLINE
5
E2
100
AcDbEntity
8
1
62
256
6
ByLayer
370
18
48
1
60
0
100
AcDbSpline
70
4
71
3
72
8
73
4
40
0
40
0
40
0
40
0
40
1
40
1
40
1
40
1
41
1
10
79.2256205505661
20
-2.08649866031706
30
0
41
1
10
79.0165520544769
20
-2.66090963244179
30
0
41
1
10
78.8074835583877
20
-3.23532060456648
30
0
41
1
10
78.5984150622986
20
-3.80973157669101
30
0
0
SPLINE
5
E3
100
AcDbEntity
8
1
62
256
6
ByLayer
370
18
48
1
60
0
100
AcDbSpline
70
4
71
3
72
16
73
12
40
0
40
0
40
0
40
0
40
0.250000000000002
40
0.250000000000002
40
0.375000000000002
40
0.375000000000002
40
0.500000000000002
40
0.500000000000002
40
0.750000000000001
40
0.750000000000001
40
1
40
1
40
1
40
1
41
1
10
4.25026126953185
20
3.1389680278842
30
0
41
1
10
4.62515640699371
20
2.99346734955526
30
0
41
1
10
5.00896032222556
20
2.83286602541273
30
0
41
1
10
5.59353832702453
20
2.5730722052788
30
0
41
1
10
5.79011403801363
20
2.48322933512853
30
0
41
1
10
6.18540457268688
20
2.29821974276874
30
0
41
1
10
6.38313899671508
20
2.20349971956674
30
0
41
1
10
6.97685353860072
20
1.91340560295473
30
0
41
1
10
7.37330996934512
20
1.71238377383091
30
0
41
1
10
8.17014978737734
20
1.30091010776013
30
0
41
1
10
8.57057185443708
20
1.09021736297859
30
0
41
1
10
8.97494371556462
20
0.879467748331109
30
0
0
SPLINE
5
E4
100
AcDbEntity
8
1
62
256
6
ByLayer
370
18
48
1
60
0
100
AcDbSpline
70
4
71
3
72
22
73
18
40
0
40
0
40
0
40
0
40
0.125
40
0.125
40
0.25
40
0.25
40
0.375
40
0.375
40
0.5
40
0.5
40
0.625
40
0.625
40
0.687500000000003
40
0.687500000000003
40
0.750000000000005
40
0.750000000000005
40
1
40
1
40
1
40
1
41
1
10
78.7091356637926
20
3.84434673375233
30
0
41
1
10
78.7493478566532
20
3.74877812342345
30
0
41
1
10
78.7896229329863
20
3.65290118387182
30
0
41
1
10
78.8699935591122
20
3.45802562160523
30
0
41
1
10
78.9101195573292
20
3.35936406373443
30
0
41
1
10
78.9903208238852
20
3.16068731506044
30
0
41
1
10
79.0303912080336
20
3.06062808345999
30
0
41
1
10
79.1105545080654
20
2.85999799242254
30
0
41
1
10
79.1505301019367
20
2.75847852813089
30
0
41
1
10
79.2302845505565
20
2.55362135103243
30
0
41
1
10
79.2700765655355
20
2.45036197475798
30
0
41
1
10
79.3296455461207
20
2.29459955055501
30
0
41
1
10
79.3494132438053
20
2.24271090185039
30
0
41
1
10
79.3888468638411
20
2.13896964775825
30
0
41
1
10
79.4085822365281
20
2.08709421720923
30
0
41
1
10
79.5063022847422
20
1.82803445664032
30
0
41
1
10
79.5819664431372
20
1.62160458491385
30
0
41
1
10
79.6561203016138
20
1.41553900128579
30
0
0
SPLINE
5
E5
100
AcDbEntity
8
1
62
256
6
ByLayer
370
18
48
1
60
0
100
AcDbSpline
70
4
71
3
72
8
73
4
40
0
40
0
40
0
40
0
40
1
40
1
40
1
40
1
41
1
10
79.9486323362457
20
-0.262135270541876
30
0
41
1
10
79.9522333204222
20
-0.23981912321932
30
0
41
1
10
79.9570238528408
20
-0.215124595940893
30
0
41
1
10
79.9627637390948
20
-0.188521725399909
30
0
0
SPLINE
5
E6
100
AcDbEntity
8
1
62
256
6
ByLayer
370
18
48
1
60
0
100
AcDbSpline
70
4
71
3
72
8
73
4
40
0
40
0
40
0
40
0
40
1
40
1
40
1
40
1
41
1
10
78.5984150622992
20
-3.80973157669152
30
0
41
1
10
78.6027822671113
20
-3.81084710227293
30
0
41
1
10
78.6073941701985
20
-3.81126567425619
30
0
41
1
10
78.612251901147
20
-3.81099091158498
30
0
0
SPLINE
5
E7
100
AcDbEntity
8
1
62
256
6
ByLayer
370
18
48
1
60
0
100
AcDbSpline
70
4
71
3
72
34
73
30
40
0
40
0
40
0
40
0
40
0.0625000000000058
40
0.0625000000000058
40
0.125000000000012
40
0.125000000000012
40
0.187500000000017
40
0.187500000000017
40
0.250000000000023
40
0.250000000000023
40
0.375000000000026
40
0.375000000000026
40
0.437500000000024
40
0.437500000000024
40
0.500000000000021
40
0.500000000000021
40
0.562500000000018
40
0.562500000000018
40
0.625000000000016
40
0.625000000000016
40
0.687500000000013
40
0.687500000000013
40
0.750000000000011
40
0.750000000000011
40
0.812500000000008
40
0.812500000000008
40
0.875000000000005
40
0.875000000000005
40
1
40
1
40
1
40
1
41
1
10
79.5440734230368
20
-1.21155658404257
30
0
41
1
10
79.5322940892054
20
-1.19465481293554
30
0
41
1
10
79.5178136655772
20
-1.18363575357455
30
0
41
1
10
79.4850156977609
20
-1.17197970684816
30
0
41
1
10
79.4670171135305
20
-1.17136777772012
30
0
41
1
10
79.4282877636692
20
-1.17905321726513
30
0
41
1
10
79.4074038629622
20
-1.18751870191343
30
0
41
1
10
79.3645608889041
20
-1.21232536036001
30
0
41
1
10
79.3424373014838
20
-1.22865966189741
30
0
41
1
10
79.2739386639058
20
-1.28957627438012
30
0
41
1
10
79.2274600674979
20
-1.34393161109045
30
0
41
1
10
79.1585352197419
20
-1.44704846360474
30
0
41
1
10
79.1363303794965
20
-1.48414722034727
30
0
41
1
10
79.0937049104085
20
-1.56466150640483
30
0
41
1
10
79.073368031877
20
-1.60808776234387
30
0
41
1
10
79.0374608161825
20
-1.69737683201532
30
0
41
1
10
79.0215450352329
20
-1.74426737354813
30
0
41
1
10
78.9972508104997
20
-1.83480568547756
30
0
41
1
10
78.9884832973874
20
-1.88009780583383
30
0
41
1
10
78.979894775384
20
-1.96137339801882
30
0
41
1
10
78.9799119227221
20
-1.99848848395845
30
0
41
1
10
78.9878375043878
20
-2.06011852662775
30
0
41
1
10
78.9957475215342
20
-2.08534591983442
30
0
41
1
10
79.0172601015574
20
-2.12337984651938
30
0
41
1
10
79.0310235197832
20
-2.1365917266605
30
0
41
1
10
79.0622877587429
20
-2.15208236553937
30
0
41
1
10
79.0801074356339
20
-2.15453833803025
30
0
41
1
10
79.1370672221976
20
-2.14776369799895
30
0
41
1
10
79.1805641995723
20
-2.124571901476
30
0
41
1
10
79.2256205505662
20
-2.08649866031592
30
0
0
SPLINE
5
E8
100
AcDbEntity
8
1
62
256
6
ByLayer
370
18
48
1
60
0
100
AcDbSpline
70
4
71
3
72
8
73
4
40
0
40
0
40
0
40
0
40
1
40
1
40
1
40
1
41
1
10
78.6276712233131
20
3.93103651321692
30
0
41
1
10
78.3026689208409
20
3.95671134244628
30
0
41
1
10
77.9776446154345
20
3.96930482009805
30
0
41
1
10
77.651928696515
20
3.9687302991733
30
0
0
SPLINE
5
E9
100
AcDbEntity
8
1
62
256
6
ByLayer
370
18
48
1
60
0
100
AcDbSpline
70
4
71
3
72
52
73
48
40
0
40
0
40
0
40
0
40
0.005892642983121
40
0.005892642983121
40
0.0304457777708543
40
0.0304457777708543
40
0.0549989125585877
40
0.0549989125585877
40
0.104105182134053
40
0.104105182134053
40
0.128658316921785
40
0.128658316921785
40
0.153211451709518
40
0.153211451709518
40
0.202317721284982
40
0.202317721284982
40
0.30053026043591
40
0.30053026043591
40
0.325083395223643
40
0.325083395223643
40
0.349636530011376
40
0.349636530011376
40
0.39874279958684
40
0.39874279958684
40
0.49695533873777
40
0.49695533873777
40
0.546061608313235
40
0.546061608313235
40
0.5951678778887
40
0.5951678778887
40
0.69338041703963
40
0.69338041703963
40
0.742486686615096
40
0.742486686615096
40
0.767039821402829
40
0.767039821402829
40
0.791592956190562
40
0.791592956190562
40
0.889805495341491
40
0.889805495341491
40
0.938911764916956
40
0.938911764916956
40
0.963464899704689
40
0.963464899704689
40
0.988018034492421
40
0.988018034492421
40
1
40
1
40
1
40
1
41
1
10
57.8658927011918
20
-3.78832692290592
30
0
41
1
10
57.8191936878209
20
-3.79569738029664
30
0
41
1
10
57.7724935338122
20
-3.80280939857892
30
0
41
1
10
57.5311886340206
20
-3.83821460932262
30
0
41
1
10
57.3365039397779
20
-3.86224927874403
30
0
41
1
10
56.9466766752022
20
-3.90113776747077
30
0
41
1
10
56.7513178636974
20
-3.91599944388261
30
0
41
1
10
56.166097059735
20
-3.94645197443208
30
0
41
1
10
55.7770632950926
20
-3.94799921113051
30
0
41
1
10
55.1931735452489
20
-3.92232504251777
30
0
41
1
10
54.998458302638
20
-3.90910549366859
30
0
41
1
10
54.6085474193293
20
-3.87338044575708
30
0
41
1
10
54.4130191943948
20
-3.8508211675468
30
0
41
1
10
53.8284735357341
20
-3.76973699895163
30
0
41
1
10
53.4412648908988
20
-3.69783514968401
30
0
41
1
10
52.2827553610348
20
-3.43252512057714
30
0
41
1
10
51.514756012907
20
-3.1894104900762
30
0
41
1
10
50.5472806760589
20
-2.81502266484543
30
0
41
1
10
50.3534040282102
20
-2.7366301426822
30
0
41
1
10
49.9645457953335
20
-2.57315499084137
30
0
41
1
10
49.7691655270035
20
-2.48789474843494
30
0
41
1
10
49.1838350743977
20
-2.22389139239215
30
0
41
1
10
48.7962777621615
20
-2.03751251506736
30
0
41
1
10
47.6370738871789
20
-1.45480791258393
30
0
41
1
10
46.8689055501387
20
-1.03493761045451
30
0
41
1
10
45.7086106276967
20
-0.383579246178044
30
0
41
1
10
45.3204590175898
20
-0.162945581419876
30
0
41
1
10
44.5386321814258
20
0.280621926279878
30
0
41
1
10
44.1504003550201
20
0.500537452332651
30
0
41
1
10
42.9899371714763
20
1.14788296731445
30
0
41
1
10
42.2214815174283
20
1.5622709217281
30
0
41
1
10
41.0617714618083
20
2.13320681306217
30
0
41
1
10
40.6739475129575
20
2.31493625953453
30
0
41
1
10
40.0881840870495
20
2.57112709683639
30
0
41
1
10
39.8926168299454
20
2.65368603166348
30
0
41
1
10
39.503500867854
20
2.81164204449155
30
0
41
1
10
39.3095164451739
20
2.88718039460534
30
0
41
1
10
38.3412766884912
20
3.24647820493021
30
0
41
1
10
37.5726152869372
20
3.47576982509088
30
0
41
1
10
36.4131858479733
20
3.7189058976241
30
0
41
1
10
36.0255859845607
20
3.78312213049864
30
0
41
1
10
35.4405973861547
20
3.85254751343288
30
0
41
1
10
35.24471442548
20
3.87120740927847
30
0
41
1
10
34.8549152106599
20
3.899086884388
30
0
41
1
10
34.6606109999068
20
3.90836303850111
30
0
41
1
10
34.3720955597872
20
3.91529200648165
30
0
41
1
10
34.277571649827
20
3.91646455126872
30
0
41
1
10
34.1831261237841
20
3.9165432151176
30
0
0
SPLINE
5
EA
100
AcDbEntity
8
1
62
256
6
ByLayer
370
18
48
1
60
0
100
AcDbSpline
70
4
71
3
72
28
73
24
40
0
40
0
40
0
40
0
40
0.0253409006705901
40
0.0253409006705901
40
0.0826737888664384
40
0.0826737888664384
40
0.197339565258135
40
0.197339565258135
40
0.254672453453983
40
0.254672453453983
40
0.312005341649831
40
0.312005341649831
40
0.426671118041527
40
0.426671118041527
40
0.484004006237374
40
0.484004006237374
40
0.54133689443322
40
0.54133689443322
40
0.656002670824915
40
0.656002670824915
40
0.77066844721661
40
0.77066844721661
40
1
40
1
40
1
40
1
41
1
10
14.3553479942939
20
-3.73978236990399
30
0
41
1
10
14.2692372473085
20
-3.75312454049407
30
0
41
1
10
14.1830272477983
20
-3.76561580680578
30
0
41
1
10
13.9013899134863
20
-3.80354182725537
30
0
41
1
10
13.7053199736891
20
-3.82541994957097
30
0
41
1
10
13.118675716262
20
-3.87699534582535
30
0
41
1
10
12.7284555879083
20
-3.89284759335789
30
0
41
1
10
12.1425200138564
20
-3.88880701439334
30
0
41
1
10
11.947149137465
20
-3.88282045644001
30
0
41
1
10
11.5558984312423
20
-3.86153975615969
30
0
41
1
10
11.3598641333298
20
-3.84622005107042
30
0
41
1
10
10.7730156932095
20
-3.78660008565794
30
0
41
1
10
10.3827241321298
20
-3.72864493441551
30
0
41
1
10
9.79674795372478
20
-3.61549919571954
30
0
41
1
10
9.6013446806846
20
-3.57340838834651
30
0
41
1
10
9.2100928299914
20
-3.48061227171363
30
0
41
1
10
9.01405114561047
20
-3.42985835186579
30
0
41
1
10
8.4271728671925
20
-3.26588029943346
30
0
41
1
10
8.03691211903345
20
-3.14080680904928
30
0
41
1
10
7.25582138249581
20
-2.86205502252116
30
0
41
1
10
6.86458625937144
20
-2.70802250907002
30
0
41
1
10
5.68959489684181
20
-2.20857672335251
30
0
41
1
10
4.91141815515783
20
-1.82946488859889
30
0
41
1
10
4.12780997714256
20
-1.42058825279932
30
0
0
SPLINE
5
EB
100
AcDbEntity
8
1
62
256
6
ByLayer
370
18
48
1
60
0
100
AcDbSpline
70
4
71
3
72
12
73
8
40
0
40
0
40
0
40
0
40
0.379364165801911
40
0.379364165801911
40
0.758728331603821
40
0.758728331603821
40
1
40
1
40
1
40
1
41
1
10
4.2019427156861
20
-1.43674356853856
30
0
41
1
10
4.59379774314451
20
-1.63721466744252
30
0
41
1
10
4.98475821986668
20
-1.83025227369657
30
0
41
1
10
5.76717510773634
20
-2.1978839700667
30
0
41
1
10
6.15988512912696
20
-2.37284329938569
30
0
41
1
10
6.79792811235671
20
-2.63731223281474
30
0
41
1
10
7.04514680877915
20
-2.73486108611044
30
0
41
1
10
7.29184499657146
20
-2.8268372823517
30
0
0
SPLINE
5
EC
100
AcDbEntity
8
1
62
256
6
ByLayer
370
13
48
1
60
0
100
AcDbSpline
70
4
71
3
72
18
73
14
40
0
40
0
40
0
40
0
40
0.241289347344129
40
0.241289347344129
40
0.418186410743164
40
0.418186410743164
40
0.506634942442683
40
0.506634942442683
40
0.595083474142201
40
0.595083474142201
40
0.948877600940275
40
0.948877600940275
40
1
40
1
40
1
40
1
41
1
10
7.29184555468413
20
-2.82683749043221
30
0
41
1
10
7.82094031591788
20
-3.02409925280219
30
0
41
1
10
8.34764086432406
20
-3.19572813882954
30
0
41
1
10
9.26145356412098
20
-3.44346805665069
30
0
41
1
10
9.64837569923213
20
-3.53284900285345
30
0
41
1
10
10.2314056801131
20
-3.6417501141203
30
0
41
1
10
10.4261644375362
20
-3.67386088330537
30
0
41
1
10
10.8168206133849
20
-3.72941670486412
30
0
41
1
10
11.0130798399292
20
-3.75288129060255
30
0
41
1
10
11.9898731425149
20
-3.84716127755613
30
0
41
1
10
12.7621535402547
20
-3.8498642573652
30
0
41
1
10
13.6464734934151
20
-3.77145342702732
30
0
41
1
10
13.758135319175
20
-3.76007913201198
30
0
41
1
10
13.8698437646576
20
-3.74723944312441
30
0
0
SPLINE
5
ED
100
AcDbEntity
8
1
62
256
6
ByLayer
370
18
48
1
60
0
100
AcDbSpline
70
4
71
3
72
26
73
22
40
0
40
0
40
0
40
0
40
0.0047048664683338
40
0.0047048664683338
40
0.0581751056072448
40
0.0581751056072448
40
0.165115583885064
40
0.165115583885064
40
0.272056062162884
40
0.272056062162884
40
0.378996540440703
40
0.378996540440703
40
0.592877496996342
40
0.592877496996342
40
0.699817975274163
40
0.699817975274163
40
0.753288214413071
40
0.753288214413071
40
0.80675845355198
40
0.80675845355198
40
1
40
1
40
1
40
1
41
1
10
39.6769095293868
20
2.69944055014764
30
0
41
1
10
39.69409754056
20
2.6925924832899
30
0
41
1
10
39.7112828190209
20
2.68572090545152
30
0
41
1
10
39.9237345514974
20
2.60047047344898
30
0
41
1
10
40.1188772744343
20
2.51908884376596
30
0
41
1
10
40.7042097415576
20
2.26612291857126
30
0
41
1
10
41.0943894581099
20
2.0855062972596
30
0
41
1
10
41.8763377197383
20
1.70521697274717
30
0
41
1
10
42.2664701880686
20
1.50656680702429
30
0
41
1
10
43.0475012817545
20
1.09621233822503
30
0
41
1
10
43.4389762796071
20
0.884094127039276
30
0
41
1
10
44.6041524638702
20
0.242892605181879
30
0
41
1
10
45.373373272603
20
-0.192835324730368
30
0
41
1
10
46.5306197137329
20
-0.831941215383011
30
0
41
1
10
46.9169611662757
20
-1.04252360422413
30
0
41
1
10
47.4994131630239
20
-1.35096934525467
30
0
41
1
10
47.6940307629619
20
-1.45258890892393
30
0
41
1
10
48.084516877857
20
-1.65286423450769
30
0
41
1
10
48.2798773381872
20
-1.75125176367382
30
0
41
1
10
49.177097742212
20
-2.19327887308634
30
0
41
1
10
49.8730048419286
20
-2.50740467749586
30
0
41
1
10
50.5693786420257
20
-2.77982451785329
30
0
0
SPLINE
5
EE
100
AcDbEntity
8
1
62
256
6
ByLayer
370
13
48
1
60
0
100
AcDbSpline
70
4
71
3
72
22
73
18
40
0
40
0
40
0
40
0
40
0.0327844063732772
40
0.0327844063732772
40
0.202652638104283
40
0.202652638104283
40
0.287586753969785
40
0.287586753969785
40
0.372520869835286
40
0.372520869835286
40
0.71225733329729
40
0.71225733329729
40
0.882125565028288
40
0.882125565028288
40
0.967059680893787
40
0.967059680893787
40
1
40
1
40
1
40
1
41
1
10
50.5693786421109
20
-2.77982451788662
30
0
41
1
10
50.6437557349623
20
-2.80892066676205
30
0
41
1
10
50.718138151736
20
-2.83754105148418
30
0
41
1
10
51.1780116692459
20
-3.01144109797747
30
0
41
1
10
51.5638593853461
20
-3.1441444389491
30
0
41
1
10
52.145266531065
20
-3.32078354668545
30
0
41
1
10
52.3394933985822
20
-3.37595693697918
30
0
41
1
10
52.7291004507846
20
-3.47854252910903
30
0
41
1
10
52.9248004618129
20
-3.52601104915638
30
0
41
1
10
53.8985759109055
20
-3.74114349997839
30
0
41
1
10
54.6682706291035
20
-3.84329166364009
30
0
41
1
10
55.823918141078
20
-3.88851781219688
30
0
41
1
10
56.2094004513472
20
-3.885731585636
30
0
41
1
10
56.7898493883361
20
-3.85413834226628
30
0
41
1
10
56.9836898813629
20
-3.83904653734271
30
0
41
1
10
57.2534733405087
20
-3.81176292527661
30
0
41
1
10
57.3290042881583
20
-3.80344094872069
30
0
41
1
10
57.4046054791553
20
-3.79443157480489
30
0
0
SPLINE
5
EF
100
AcDbEntity
8
1
62
256
6
ByLayer
370
18
48
1
60
0
100
AcDbSpline
70
4
71
3
72
8
73
4
40
0
40
0
40
0
40
0
40
1
40
1
40
1
40
1
41
1
10
4.12780997714231
20
-1.42058825279918
30
0
41
1
10
4.09726924508627
20
-1.40465249290247
30
0
41
1
10
4.0708293865984
20
-1.38297732582075
30
0
41
1
10
4.05003601864402
20
-1.35700302342292
30
0
0
SPLINE
5
F0
100
AcDbEntity
8
1
62
256
6
ByLayer
370
18
48
1
60
0
100
AcDbSpline
70
4
71
3
72
18
73
14
40
0
40
0
40
0
40
0
40
0.25
40
0.25
40
0.5
40
0.5
40
0.625
40
0.625
40
0.75
40
0.75
40
0.875
40
0.875
40
1
40
1
40
1
40
1
41
1
10
78.6975515943593
20
0.696306535940181
30
0
41
1
10
78.6838477988677
20
0.731169109758156
30
0
41
1
10
78.6728429627776
20
0.766696651333746
30
0
41
1
10
78.6568626487658
20
0.839131216030665
30
0
41
1
10
78.6514961120172
20
0.876414125871548
30
0
41
1
10
78.652249937095
20
0.932407225598098
30
0
41
1
10
78.6539968407903
20
0.951184967571891
30
0
41
1
10
78.6618729257659
20
0.987391919172154
30
0
41
1
10
78.668127263107
20
1.00524212150165
30
0
41
1
10
78.6869788250621
20
1.03703171317309
30
0
41
1
10
78.6998799749143
20
1.05099872680807
30
0
41
1
10
78.730788538589
20
1.07082619209174
30
0
41
1
10
78.7486986647853
20
1.07677217250068
30
0
41
1
10
78.7671581180376
20
1.07932938814204
30
0
0
SPLINE
5
F1
100
AcDbEntity
8
1
62
256
6
ByLayer
370
18
48
1
60
0
100
AcDbSpline
70
4
71
3
72
22
73
18
40
0
40
0
40
0
40
0
40
0.0624999999999999
40
0.0624999999999999
40
0.125
40
0.125
40
0.25
40
0.25
40
0.375
40
0.375
40
0.5
40
0.5
40
0.75
40
0.75
40
0.875
40
0.875
40
1
40
1
40
1
40
1
41
1
10
75.8478445349054
20
0.0212026153071179
30
0
41
1
10
75.8712523329647
20
-0.0520796975968665
30
0
41
1
10
75.8968088443935
20
-0.124909524727826
30
0
41
1
10
75.9520783606019
20
-0.269693885833448
30
0
41
1
10
75.9818848679035
20
-0.341824797334453
30
0
41
1
10
76.0758630994127
20
-0.553687813638362
30
0
41
1
10
76.1449127119382
20
-0.689952205488453
30
0
41
1
10
76.2940020977823
20
-0.953929962859434
30
0
41
1
10
76.3740826326776
20
-1.08166920184203
30
0
41
1
10
76.5441063783575
20
-1.32924195609709
30
0
41
1
10
76.6326669496988
20
-1.44708528828767
30
0
41
1
10
76.9074730852973
20
-1.78533451434103
30
0
41
1
10
77.1027716717001
20
-1.9905792111046
30
0
41
1
10
77.4101317906928
20
-2.27430991829581
30
0
41
1
10
77.5152841224772
20
-2.36503120141026
30
0
41
1
10
77.7283843438428
20
-2.53743111264802
30
0
41
1
10
77.8363924178383
20
-2.61919375633394
30
0
41
1
10
77.9457537563611
20
-2.69683773888261
30
0
0
SPLINE
5
F2
100
AcDbEntity
8
1
62
256
6
ByLayer
370
18
48
1
60
0
100
AcDbSpline
70
4
71
3
72
8
73
4
40
0
40
0
40
0
40
0
40
1
40
1
40
1
40
1
41
1
10
79.9486323362457
20
0.262135270541847
30
0
41
1
10
79.9522333204221
20
0.239819123219462
30
0
41
1
10
79.9570238528407
20
0.215124595941262
30
0
41
1
10
79.9627637390947
20
0.188521725400506
30
0
0
SPLINE
5
F3
100
AcDbEntity
8
1
62
256
6
ByLayer
370
13
48
1
60
0
100
AcDbSpline
70
4
71
3
72
8
73
4
40
0
40
0
40
0
40
0
40
1
40
1
40
1
40
1
41
1
10
4.05003601864252
20
-1.35700302342067
30
0
41
1
10
4.07044660221001
20
-1.37653080776243
30
0
41
1
10
4.0968560492874
20
-1.39350779987626
30
0
41
1
10
4.12879782278014
20
-1.40617759501626
30
0
0
SPLINE
5
F4
100
AcDbEntity
8
1
62
256
6
ByLayer
370
18
48
1
60
0
100
AcDbSpline
70
4
71
3
72
26
73
22
40
0
40
0
40
0
40
0
40
0.007062701838354
40
0.007062701838354
40
0.177871976536094
40
0.177871976536094
40
0.348681251233834
40
0.348681251233834
40
0.519490525931573
40
0.519490525931573
40
0.604895163280444
40
0.604895163280444
40
0.690299800629313
40
0.690299800629313
40
0.861109075327053
40
0.861109075327053
40
0.946513712675923
40
0.946513712675923
40
0.989216031350358
40
0.989216031350358
40
1
40
1
40
1
40
1
41
1
10
14.8389562613438
20
3.48706581936108
30
0
41
1
10
14.8239874468772
20
3.48533372943609
30
0
41
1
10
14.8090158377193
20
3.48356975220284
30
0
41
1
10
14.4318880311307
20
3.43833504691003
30
0
41
1
10
14.0680304385906
20
3.37600694382746
30
0
41
1
10
13.332956818657
20
3.2085846231048
30
0
41
1
10
12.9671681323694
20
3.10465467229872
30
0
41
1
10
12.2345545815812
20
2.86014000615276
30
0
41
1
10
11.8677067434301
20
2.71958703504271
30
0
41
1
10
11.3120434591673
20
2.48802751174776
30
0
41
1
10
11.125783583008
20
2.40734829168264
30
0
41
1
10
10.7557578324326
20
2.24302309727167
30
0
41
1
10
10.5713535871062
20
2.15912145100378
30
0
41
1
10
10.0187513826145
20
1.90488493155277
30
0
41
1
10
9.65114944607893
20
1.7320487047202
30
0
41
1
10
9.09634128123491
20
1.47800037077053
30
0
41
1
10
8.91084152999289
20
1.39417729165749
30
0
41
1
10
8.6311934840962
20
1.27096376707866
30
0
41
1
10
8.53774448766313
20
1.23031259888805
30
0
41
1
10
8.42034668981606
20
1.18004985207884
30
0
41
1
10
8.39665404867199
20
1.16994707271775
30
0
41
1
10
8.3729507194885
20
1.15988256152107
30
0
0
SPLINE
5
F5
100
AcDbEntity
8
1
62
256
6
ByLayer
370
18
48
1
60
0
100
AcDbSpline
70
4
71
3
72
28
73
24
40
0
40
0
40
0
40
0
40
0.444776394457893
40
0.444776394457893
40
0.560528311655387
40
0.560528311655387
40
0.618404270254132
40
0.618404270254132
40
0.647342249553506
40
0.647342249553506
40
0.650959496965928
40
0.650959496965928
40
0.652768120672138
40
0.652768120672138
40
0.653672432525244
40
0.653672432525244
40
0.65457674437835
40
0.65457674437835
40
0.661811239203193
40
0.67628022885288
40
0.907784063247876
40
0.907784063247876
40
1
40
1
40
1
40
1
41
1
10
10.3302352423866
20
0.157354296732535
30
0
41
1
10
10.6554836958634
20
0.0224033109955997
30
0
41
1
10
10.9804736983791
20
-0.110286656798195
30
0
41
1
10
11.3876766079294
20
-0.274686472158606
30
0
41
1
10
11.4716282984347
20
-0.308478824834566
30
0
41
1
10
11.5967922301739
20
-0.358929381861316
30
0
41
1
10
11.6384265929549
20
-0.375706735661794
30
0
41
1
10
11.7001247198573
20
-0.40081091803367
30
0
41
1
10
11.7208457777089
20
-0.409188731015433
30
0
41
1
10
11.7427670573602
20
-0.418552382289789
30
0
41
1
10
11.7451750857075
20
-0.419590366493963
30
0
41
1
10
11.7486157190717
20
-0.421133091379062
30
0
41
1
10
11.7497512055737
20
-0.421649179109181
30
0
41
1
10
11.75123998544
20
-0.422392421503616
30
0
41
1
10
11.7517578058798
20
-0.422651050129133
30
0
41
1
10
11.7521495450228
20
-0.423022185426248
30
0
41
1
10
11.7513170149034
20
-0.422856212879111
30
0
41
1
10
11.7458367649049
20
-0.421916255194901
30
0
41
1
10
11.7312221620811
20
-0.419379461329953
30
0
41
1
10
11.5607016547311
20
-0.388730375613619
30
0
41
1
10
11.394810944695
20
-0.347265222994963
30
0
41
1
10
11.1762714187107
20
-0.279109075030021
30
0
41
1
10
11.1139501240707
20
-0.258146992269047
30
0
41
1
10
11.0514615863218
20
-0.23566697544635
30
0
0
SPLINE
5
F6
100
AcDbEntity
8
SK1
62
256
6
ByLayer
370
18
48
1
60
0
100
AcDbSpline
70
4
71
3
72
14
73
10
40
0
40
0
40
0
40
0
40
0.125000000000001
40
0.125000000000001
40
0.250000000000002
40
0.250000000000002
40
0.500000000000001
40
0.500000000000001
40
1
40
1
40
1
40
1
41
1
10
-35.15
20
-1.22998868223755
30
0
41
1
10
-35.15
20
-1.21949728167556
30
0
41
1
10
-35.1517507934569
20
-1.20821433261833
30
0
41
1
10
-35.1569069278761
20
-1.18684404755507
30
0
41
1
10
-35.160234831946
20
-1.17679619202784
30
0
41
1
10
-35.1714888412645
20
-1.14773224486683
30
0
41
1
10
-35.1802429568046
20
-1.13079705755416
30
0
41
1
10
-35.2083191353842
20
-1.08375853390856
30
0
41
1
10
-35.2286409685639
20
-1.05880709490467
30
0
41
1
10
-35.25
20
-1.03898041242652
30
0
0
SPLINE
5
F7
100
AcDbEntity
8
SK1
62
256
6
ByLayer
370
18
48
1
60
0
100
AcDbSpline
70
4
71
3
72
8
73
4
40
0
40
0
40
0
40
0
40
1
40
1
40
1
40
1
41
1
10
-35.9999999999999
20
-2.04063179433717
30
0
41
1
10
-35.7560638815586
20
-2.27898051072756
30
0
41
1
10
-35.5039465265148
20
-2.51518720969921
30
0
41
1
10
-35.25
20
-2.75091499364331
30
0
0
SPLINE
5
F8
100
AcDbEntity
8
SK1
62
256
6
ByLayer
370
18
48
1
60
0
100
AcDbSpline
70
4
71
3
72
8
73
4
40
0
40
0
40
0
40
0
40
1
40
1
40
1
40
1
41
1
10
-35.25
20
-1.03898041242652
30
0
41
1
10
-35.5038915576311
20
-0.803303653764459
30
0
41
1
10
-35.755997905176
20
-0.567110394692094
30
0
41
1
10
-35.9999999999999
20
-0.328697213120421
30
0
0
SPLINE
5
F9
100
AcDbEntity
8
SK1
62
256
6
ByLayer
370
18
48
1
60
0
100
AcDbSpline
70
4
71
3
72
14
73
10
40
0
40
0
40
0
40
0
40
0.5
40
0.5
40
0.750000000000002
40
0.750000000000002
40
0.875000000000001
40
0.875000000000001
40
1
40
1
40
1
40
1
41
1
10
-35.25
20
-2.75091499364356
30
0
41
1
10
-35.2287404812744
20
-2.77064930269546
30
0
41
1
10
-35.208362723075
20
-2.78519432116545
30
0
41
1
10
-35.1802905070704
20
-2.79582563712333
30
0
41
1
10
-35.1714466180788
20
-2.797443643257
30
0
41
1
10
-35.1602396792677
20
-2.79402584498638
30
0
41
1
10
-35.1568594217207
20
-2.79186532772456
30
0
41
1
10
-35.1517495297275
20
-2.78425051633985
30
0
41
1
10
-35.15
20
-2.7786631870631
30
0
41
1
10
-35.15
20
-2.77072980533262
30
0
0
LINE
5
76
100
AcDbEntity
8
81
62
256
6
ByLayer
370
18
48
1
60
0
100
AcDbLine
10
80
20
0
30
0
11
85
21
0
31
0
39
0
210
0
220
0
230
1
0
LINE
5
77
100
AcDbEntity
8
1
62
256
6
ByLayer
370
18
48
1
60
0
100
AcDbLine
10
2.063089
20
3.878024
30
0
11
0.8
21
3.876509
31
0
39
0
210
0
220
0
230
1
0
LINE
5
79
100
AcDbEntity
8
1
62
256
6
ByLayer
370
18
48
1
60
0
100
AcDbLine
10
12.408388
20
3.890439
30
0
11
11.124032
21
3.888897
31
0
39
0
210
0
220
0
230
1
0
LINE
5
7A
100
AcDbEntity
8
1
62
256
6
ByLayer
370
18
48
1
60
0
100
AcDbLine
10
34.158302
20
3.916539
30
0
11
33.416503
21
3.915648
31
0
39
0
210
0
220
0
230
1
0
LINE
5
7B
100
AcDbEntity
8
1
62
256
6
ByLayer
370
18
48
1
60
0
100
AcDbLine
10
55.907956
20
3.942638
30
0
11
55.185439
21
3.941771
31
0
39
0
210
0
220
0
230
1
0
LINE
5
7C
100
AcDbEntity
8
1
62
256
6
ByLayer
370
18
48
1
60
0
100
AcDbLine
10
77.658139
20
3.968738
30
0
11
76.95972
21
3.9679
31
0
39
0
210
0
220
0
230
1
0
LINE
5
7D
100
AcDbEntity
8
1
62
256
6
ByLayer
370
18
48
1
60
0
100
AcDbLine
10
76.95972
20
-3.9679
30
0
11
77.657782
21
-3.968738
31
0
39
0
210
0
220
0
230
1
0
LINE
5
7E
100
AcDbEntity
8
1
62
256
6
ByLayer
370
18
48
1
60
0
100
AcDbLine
10
55.185439
20
-3.941771
30
0
11
55.907778
21
-3.942638
31
0
39
0
210
0
220
0
230
1
0
LINE
5
7F
100
AcDbEntity
8
1
62
256
6
ByLayer
370
18
48
1
60
0
100
AcDbLine
10
33.416503
20
-3.915648
30
0
11
34.15781
21
-3.916538
31
0
39
0
210
0
220
0
230
1
0
LINE
5
80
100
AcDbEntity
8
1
62
256
6
ByLayer
370
18
48
1
60
0
100
AcDbLine
10
11.124032
20
-3.888897
30
0
11
12.408424
21
-3.890439
31
0
39
0
210
0
220
0
230
1
0
LINE
5
81
100
AcDbEntity
8
1
62
256
6
ByLayer
370
18
48
1
60
0
100
AcDbLine
10
0.8
20
-3.876509
30
0
11
2.063089
21
-3.878024
31
0
39
0
210
0
220
0
230
1
0
LINE
5
82
100
AcDbEntity
8
1
62
256
6
ByLayer
370
18
48
1
60
0
100
AcDbLine
10
0
20
-4
30
0
11
0.8
21
-3.876509
31
0
39
0
210
0
220
0
230
1
0
LINE
5
83
100
AcDbEntity
8
1
62
256
6
ByLayer
370
18
48
1
60
0
100
AcDbLine
10
0.8
20
3.876509
30
0
11
0
21
4
31
0
39
0
210
0
220
0
230
1
0
LINE
5
84
100
AcDbEntity
8
SK1
62
256
6
ByLayer
370
18
48
1
60
0
100
AcDbLine
10
0
20
4
30
0
11
-35.133975
21
4
31
0
39
0
210
0
220
0
230
1
0
LINE
5
86
100
AcDbEntity
8
SK1
62
256
6
ByLayer
370
18
48
1
60
0
100
AcDbLine
10
-35.133975
20
-4
30
0
11
0
21
-4
31
0
39
0
210
0
220
0
230
1
0
LINE
5
87
100
AcDbEntity
8
SK1
62
256
6
ByLayer
370
18
48
1
60
0
100
AcDbLine
10
-35.133975
20
4
30
0
11
-36
21
2.5
31
0
39
0
210
0
220
0
230
1
0
LINE
5
88
100
AcDbEntity
8
SK1
62
256
6
ByLayer
370
18
48
1
60
0
100
AcDbLine
10
-36
20
-2.5
30
0
11
-35.133975
21
-4
31
0
39
0
210
0
220
0
230
1
0
LINE
5
89
100
AcDbEntity
8
SK4
62
256
6
ByLayer
370
18
48
0.05
60
0
100
AcDbLine
10
85
20
0
30
0
11
-41
21
0
31
0
39
0
210
0
220
0
230
1
0
LINE
5
8B
100
AcDbEntity
8
4
62
256
6
ByLayer
370
18
48
0.05
60
0
100
AcDbLine
10
80
20
0
30
0
11
0
21
0
31
0
39
0
210
0
220
0
230
1
0
LINE
5
8D
100
AcDbEntity
8
80
62
256
6
ByLayer
370
18
48
1
60
0
100
AcDbLine
10
0
20
0
30
0
11
-5
21
0
31
0
39
0
210
0
220
0
230
1
0
LINE
5
8E
100
AcDbEntity
8
1
62
256
6
ByLayer
370
18
48
1
60
0
100
AcDbLine
10
0
20
-4
30
0
11
0
21
4
31
0
39
0
210
0
220
0
230
1
0
LINE
5
8F
100
AcDbEntity
8
1
62
256
6
ByLayer
370
18
48
1
60
0
100
AcDbLine
10
77.945754
20
-2.696838
30
0
11
79.929149
21
-0.153571
31
0
39
0
210
0
220
0
230
1
0
LINE
5
90
100
AcDbEntity
8
1
62
256
6
ByLayer
370
18
48
1
60
0
100
AcDbLine
10
0.8
20
3.876509
30
0
11
0.8
21
-3.876509
31
0
39
0
210
0
220
0
230
1
0
LINE
5
91
100
AcDbEntity
8
1
62
256
6
ByLayer
370
13
48
1
60
0
100
AcDbLine
10
79.912524
20
0.481829
30
0
11
79.553656
21
0.507547
31
0
39
0
210
0
220
0
230
1
0
LINE
5
92
100
AcDbEntity
8
1
62
256
6
ByLayer
370
13
48
1
60
0
100
AcDbLine
10
79.32903
20
0.19814
30
0
11
79.801521
21
-0.095434
31
0
39
0
210
0
220
0
230
1
0
LINE
5
93
100
AcDbEntity
8
1
62
256
6
ByLayer
370
13
48
1
60
0
100
AcDbLine
10
79.801521
20
-0.095434
30
0
11
79.929684
21
-0.152439
31
0
39
0
210
0
220
0
230
1
0
LINE
5
94
100
AcDbEntity
8
1
62
256
6
ByLayer
370
13
48
1
60
0
100
AcDbLine
10
79.948632
20
0.262135
30
0
11
79.553656
21
0.507547
31
0
39
0
210
0
220
0
230
1
0
LINE
5
95
100
AcDbEntity
8
SK1
62
256
6
ByLayer
370
18
48
1
60
0
100
AcDbLine
10
-36
20
2.5
30
0
11
-36
21
-0.328697
31
0
39
0
210
0
220
0
230
1
0
LINE
5
96
100
AcDbEntity
8
SK1
62
256
6
ByLayer
370
18
48
1
60
0
100
AcDbLine
10
0
20
-4
30
0
11
0
21
4
31
0
39
0
210
0
220
0
230
1
0
LINE
5
97
100
AcDbEntity
8
SK1
62
256
6
ByLayer
370
18
48
1
60
0
100
AcDbLine
10
-36
20
-0.328718
30
0
11
-36
21
-2.040632
31
0
39
0
210
0
220
0
230
1
0
LINE
5
98
100
AcDbEntity
8
SK1
62
256
6
ByLayer
370
18
48
1
60
0
100
AcDbLine
10
-36
20
-2.5
30
0
11
-36
21
-2.040632
31
0
39
0
210
0
220
0
230
1
0
LINE
5
99
100
AcDbEntity
8
SK1
62
256
6
ByLayer
370
13
48
1
60
0
100
AcDbLine
10
-35.25
20
-1.038948
30
0
11
-35.25
21
-2.750915
31
0
39
0
210
0
220
0
230
1
0
LINE
5
9A
100
AcDbEntity
8
SK1
62
256
6
ByLayer
370
18
48
1
60
0
100
AcDbLine
10
-35.133975
20
4
30
0
11
-35.133975
21
-4
31
0
39
0
210
0
220
0
230
1
0
LINE
5
9B
100
AcDbEntity
8
SK1
62
256
6
ByLayer
370
18
48
1
60
0
100
AcDbLine
10
-35.15
20
-2.77073
30
0
11
-35.15
21
-1.229989
31
0
39
0
210
0
220
0
230
1
0
MTEXT
5
FA
100
AcDbEntity
8
SK6
62
256
6
ByLayer
370
13
48
1
60
0
100
AcDbMText
10
24.129169
20
36.352694
30
0
210
0
220
0
230
1
1
\W0.7401;860.1-0794-064A1-MM 2214
40
3.5
41
0
44
1.084337
50
0
71
8
72
5
7
iso_b_vert
0
DIMENSION
5
107
100
AcDbEntity
8
2
62
256
6
ByLayer
370
13
48
1
60
0
100
AcDbDimension
2
DimnDraft3D1
10
78.6995
20
-14.183398
30
0
11
37.949559
21
-14.183398
31
0
70
32
71
5
72
1
41
1
210
0
220
0
230
1
3
Standard
100
AcDbAlignedDimension
13
0
23
-1.5875
33
0
14
78.6995
24
-5.5575
34
0
50
0
100
AcDbRotatedDimension
1001
ACAD
1000
DSTYLE
1002
{
1070
   279
1070
     0
1070
   172
1070
     1
1070
   173
1070
     1
1070
   340
1005
FB
1070
   271
1070
     2
1070
   272
1070
     2
1070
    77
1070
     1
1070
    73
1070
     0
1070
   171
1070
     3
1070
   274
1070
     4
1070
   177
1070
    35
1070
   176
1070
    35
1070
   178
1070
    35
1070
    48
1040
-0.005
1070
    41
1041
3.5
1070
   147
1041
1.75
1070
    42
1041
1.5875
1070
    44
1041
2.0
1070
   140
1041
3.5
1070
   343
1005
0
1070
   344
1005
0
1002
}
0
DIMENSION
5
111
100
AcDbEntity
8
SK2
62
256
6
ByLayer
370
13
48
1
60
0
100
AcDbDimension
2
DimnDraft3D2
10
80
20
-32.692985
30
0
11
22.0408
21
-32.692985
31
0
70
32
71
5
72
1
41
1
210
0
220
0
230
1
3
Standard
100
AcDbAlignedDimension
13
-36
23
-5.5875
33
0
14
80
24
-1.5875
34
0
50
0
100
AcDbRotatedDimension
1001
ACAD
1000
DSTYLE
1002
{
1070
   279
1070
     0
1070
   172
1070
     1
1070
   173
1070
     1
1070
   340
1005
FB
1070
   271
1070
     2
1070
   272
1070
     2
1070
    77
1070
     1
1070
    73
1070
     0
1070
   171
1070
     3
1070
   274
1070
     4
1070
   177
1070
    35
1070
   176
1070
    35
1070
   178
1070
    35
1070
    48
1040
-0.005
1070
    41
1041
3.5
1070
   147
1041
1.75
1070
    42
1041
1.5875
1070
    44
1041
2.0
1070
   140
1041
3.5
1070
   343
1005
0
1070
   344
1005
0
1002
}
0
DIMENSION
5
11B
100
AcDbEntity
8
SK2
62
256
6
ByLayer
370
13
48
1
60
0
100
AcDbDimension
2
DimnDraft3D3
10
80
20
15.579119
30
0
11
47.59
21
15.579119
31
0
70
32
71
5
72
1
41
1
210
0
220
0
230
1
3
Standard
100
AcDbAlignedDimension
13
15.18
23
5.5575
33
0
14
80
24
1.5875
34
0
50
0
100
AcDbRotatedDimension
1001
ACAD
1000
DSTYLE
1002
{
1070
   279
1070
     0
1070
   172
1070
     1
1070
   173
1070
     1
1070
   340
1005
FB
1070
   271
1070
     2
1070
   272
1070
     2
1070
    77
1070
     1
1070
    73
1070
     0
1070
   171
1070
     3
1070
   274
1070
     4
1070
   177
1070
    35
1070
   176
1070
    35
1070
   178
1070
    35
1070
    48
1040
-0.005
1070
    41
1041
3.5
1070
   147
1041
1.75
1070
    42
1041
1.5875
1070
    44
1041
2.0
1070
   140
1041
3.5
1070
   343
1005
0
1070
   344
1005
0
1002
}
0
DIMENSION
5
125
100
AcDbEntity
8
SK2
62
256
6
ByLayer
370
13
48
1
60
0
100
AcDbDimension
2
DimnDraft3D4
10
78.6995
20
-16.772503
30
0
11
89.981425
21
-16.772503
31
0
70
32
71
5
72
1
41
1
210
0
220
0
230
1
3
Standard
100
AcDbAlignedDimension
13
80
23
-1.5875
33
0
14
78.6995
24
-5.5575
34
0
50
0
100
AcDbRotatedDimension
1001
ACAD
1000
DSTYLE
1002
{
1070
   279
1070
     0
1070
   172
1070
     1
1070
   173
1070
     1
1070
   340
1005
FB
1070
   271
1070
     2
1070
   272
1070
     2
1070
    77
1070
     1
1070
    73
1070
     0
1070
   171
1070
     3
1070
   274
1070
     4
1070
   177
1070
    35
1070
   176
1070
    35
1070
   178
1070
    35
1070
    48
1040
-0.005
1070
    41
1041
3.5
1070
   147
1041
1.75
1070
    42
1041
1.5875
1070
    44
1041
2.0
1070
   140
1041
3.5
1070
   343
1005
0
1070
   344
1005
0
1002
}
0
DIMENSION
5
12F
100
AcDbEntity
8
SK2
62
256
6
ByLayer
370
13
48
1
60
0
100
AcDbDimension
2
DimnDraft3D5
10
78.6995
20
-22.343428
30
0
11
18.960176
21
-22.343428
31
0
70
32
71
5
72
1
41
1
210
0
220
0
230
1
3
Standard
100
AcDbAlignedDimension
13
-36
23
-5.5875
33
0
14
78.6995
24
-5.5575
34
0
50
0
100
AcDbRotatedDimension
1001
ACAD
1000
DSTYLE
1002
{
1070
   279
1070
     0
1070
   172
1070
     1
1070
   173
1070
     1
1070
   340
1005
FB
1070
   271
1070
     2
1070
   272
1070
     2
1070
    77
1070
     1
1070
    73
1070
     0
1070
   171
1070
     3
1070
   274
1070
     4
1070
   177
1070
    35
1070
   176
1070
    35
1070
   178
1070
    35
1070
    48
1040
-0.005
1070
    41
1041
3.5
1070
   147
1041
1.75
1070
    42
1041
1.5875
1070
    44
1041
2.0
1070
   140
1041
3.5
1070
   343
1005
0
1070
   344
1005
0
1002
}
0
DIMENSION
5
13A
100
AcDbEntity
8
SK2
62
256
6
ByLayer
370
13
48
1
60
0
100
AcDbDimension
2
DimnDraft3D6
10
-46.625163
20
4
30
0
11
-47.250163
21
22.47418
31
0
70
33
71
5
72
1
41
1
210
0
220
0
230
1
3
Standard
100
AcDbAlignedDimension
13
-37.5875
23
-4
33
0
14
-37.5875
24
4
34
0
1001
ACAD
1000
DSTYLE
1002
{
1070
   279
1070
     0
1070
    74
1070
     0
1070
   173
1070
     1
1070
   340
1005
FB
1070
   271
1070
     3
1070
   272
1070
     2
1070
    77
1070
     1
1070
    73
1070
     0
1070
   171
1070
     3
1070
   274
1070
     4
1070
   177
1070
    35
1070
   176
1070
    35
1070
   178
1070
    35
1070
    48
1040
-0.005
1070
    41
1041
3.5
1070
   147
1041
1.75
1070
    42
1041
1.5875
1070
    44
1041
2.0
1070
   140
1041
3.5
1070
   343
1005
0
1070
   344
1005
0
1002
}
0
DIMENSION
5
145
100
AcDbEntity
8
2
62
256
6
ByLayer
370
13
48
1
60
0
100
AcDbDimension
2
DimnDraft3D7
10
94.083343
20
3.97
30
0
11
89.458343
21
21.037266
31
0
70
33
71
5
72
1
41
1
210
0
220
0
230
1
3
Standard
100
AcDbAlignedDimension
13
80.287
23
-3.97
33
0
14
80.287
24
3.97
34
0
1001
ACAD
1000
DSTYLE
1002
{
1070
   279
1070
     0
1070
    74
1070
     0
1070
   173
1070
     1
1070
   340
1005
FB
1070
   271
1070
     3
1070
   272
1070
     2
1070
    77
1070
     1
1070
    73
1070
     0
1070
   171
1070
     3
1070
   274
1070
     4
1070
   177
1070
    35
1070
   176
1070
    35
1070
   178
1070
    35
1070
    48
1040
-0.005
1070
    41
1041
3.5
1070
   147
1041
1.75
1070
    42
1041
1.5875
1070
    44
1041
2.0
1070
   140
1041
3.5
1070
   343
1005
0
1070
   344
1005
0
1002
}
0
ENDSEC
0
SECTION
2
OBJECTS
0
DICTIONARY
5
1b0
330
0
100
AcDbDictionary
280
0
281
1
3
ACAD_GROUP
350
1b1
3
ACAD_MLINESTYLE
350
1b2
0
DICTIONARY
5
1b1
330
0
100
AcDbDictionary
280
0
281
1
0
DICTIONARY
5
1b2
330
0
100
AcDbDictionary
280
0
281
1
3
Standard
350
18
0
MLINESTYLE
5
18
330
1b2
100
AcDbMlineStyle
2
Standard
70
0
3

62
256
51
90
52
90
71
2
49
-0.5
62
256
6
ByLayer
49
0.5
62
256
6
ByLayer
0
RASTERVARIABLES
5
19e
330

100
AcDbRasterVariables
90
0
70
1
71
1
72
1
0
ENDSEC
0
EOF
