0
SECTION
2
HEADER
9
$ACADVER
1
AC1015
9
$DWGCODEPAGE
3
ANSI_1252
9
$HANDSEED
5
1b9
9
$ANGBASE
50
0
9
$ANGDIR
70
0
9
$ATTMODE
70
1
9
$AUNITS
70
0
9
$AUPREC
70
0
9
$CECOLOR
62
256
9
$CELTSCALE
40
1
9
$CELTYPE
6
ByLayer
9
$CELWEIGHT
370
18
9
$CLAYER
8
0
9
$CMLJUST
70
0
9
$CMLSCALE
40
1
9
$CMLSTYLE
2
Standard
9
$DIMSTYLE
2
Standard
9
$TEXTSIZE
40
0.2
9
$TEXTSTYLE
7
Standard
9
$LUNITS
70
2
9
$LUPREC
70
4
9
$EXTNAMES
290
1
9
$INSUNITS
70
4
9
$LTSCALE
40
1
9
$LWDISPLAY
290
1
9
$PDMODE
70
0
9
$PDSIZE
40
0
9
$PLINEGEN
70
0
0
ENDSEC
0
SECTION
2
CLASSES
0
CLASS
1
RASTERVARIABLES
2
AcDbRasterVariables
3
ISM
90
0
280
0
281
0
0
ENDSEC
0
SECTION
2
TABLES
0
TABLE
2
VPORT
5
1af
100
AcDbSymbolTable
0
VPORT
5
1
100
AcDbSymbolTableRecord
100
AcDbViewportTableRecord
2
*Active
70
0
10
0
20
0
11
1
21
1
12
-1
22
1
13
0
23
0
14
0.5
24
0.5
15
10
25
10
16
0
26
0
36
1
17
0
27
0
37
0
0
ENDTAB
0
TABLE
2
LTYPE
5
1b0
100
AcDbSymbolTable
0
LTYPE
5
14
100
AcDbSymbolTableRecord
100
AcDbLinetypeTableRecord
70
0
2
ByBlock
3

72
65
73
0
40
0
0
LTYPE
5
15
100
AcDbSymbolTableRecord
100
AcDbLinetypeTableRecord
70
0
2
ByLayer
3

72
65
73
0
40
0
0
LTYPE
5
16
100
AcDbSymbolTableRecord
100
AcDbLinetypeTableRecord
70
0
2
CONTINUOUS
3
Solid line
72
65
73
0
40
0
0
LTYPE
5
6A
100
AcDbSymbolTableRecord
100
AcDbLinetypeTableRecord
70
0
2
CENTER
3
____ _ ____ _ ____ _ ____
72
65
73
4
40
47.5
49
22
74
0
49
-8.5
74
0
49
8.5
74
0
49
-8.5
74
0
0
LTYPE
5
6B
100
AcDbSymbolTableRecord
100
AcDbLinetypeTableRecord
70
0
2
DASHED
3
__ __ __ __ __ __ __ __ __
72
65
73
2
40
25.72
49
12.86
74
0
49
-12.86
74
0
0
ENDTAB
0
TABLE
2
LAYER
5
1b1
100
AcDbSymbolTable
0
LAYER
5
10
100
AcDbSymbolTableRecord
100
AcDbLayerTableRecord
2
0
70
0
62
7
6
CONTINUOUS
290
1
370
-3
390
0
0
LAYER
5
6D
100
AcDbSymbolTableRecord
100
AcDbLayerTableRecord
2
81
70
0
62
-3
6
CONTINUOUS
290
1
370
-3
390
0
0
LAYER
5
6F
100
AcDbSymbolTableRecord
100
AcDbLayerTableRecord
2
80
70
0
62
-6
6
CONTINUOUS
290
1
370
-3
390
0
0
LAYER
5
74
100
AcDbSymbolTableRecord
100
AcDbLayerTableRecord
2
2
70
0
62
7
6
CONTINUOUS
290
1
370
-3
390
0
0
LAYER
5
78
100
AcDbSymbolTableRecord
100
AcDbLayerTableRecord
2
1
70
0
62
4
6
CONTINUOUS
290
1
370
-3
390
0
0
LAYER
5
8A
100
AcDbSymbolTableRecord
100
AcDbLayerTableRecord
2
4
70
0
62
-2
6
CENTER
290
1
370
-3
390
0
0
LAYER
5
19b
100
AcDbSymbolTableRecord
100
AcDbLayerTableRecord
2
SK2
70
0
62
7
6
CONTINUOUS
290
1
370
-3
390
0
0
LAYER
5
19c
100
AcDbSymbolTableRecord
100
AcDbLayerTableRecord
2
SK1
70
0
62
4
6
CONTINUOUS
290
1
370
-3
390
0
0
LAYER
5
19d
100
AcDbSymbolTableRecord
100
AcDbLayerTableRecord
2
SK4
70
0
62
2
6
CENTER
290
1
370
-3
390
0
0
LAYER
5
19e
100
AcDbSymbolTableRecord
100
AcDbLayerTableRecord
2
SK6
70
0
62
5
6
CONTINUOUS
290
1
370
-3
390
0
0
ENDTAB
0
TABLE
2
STYLE
5
1b2
100
AcDbSymbolTable
0
STYLE
5
11
100
AcDbSymbolTableRecord
100
AcDbTextStyleTableRecord
2
Standard
3
txt
70
0
71
0
40
0
41
1
42
0
50
0
0
STYLE
5
F7
100
AcDbSymbolTableRecord
100
AcDbTextStyleTableRecord
2
iso_b_vert
3
simplex.shx
70
0
71
0
40
0
41
1
42
0
50
0
0
STYLE
5
F8
100
AcDbSymbolTableRecord
100
AcDbTextStyleTableRecord
2
DWGDirectTextStyle
3
simplex
70
0
71
0
40
0
41
1
42
0
50
0
0
ENDTAB
0
TABLE
2
DIMSTYLE
5
1b3
100
AcDbSymbolTable
100
AcDbDimStyleTable
0
DIMSTYLE
105
27
100
AcDbSymbolTableRecord
100
AcDbDimStyleTableRecord
2
Standard
70
0
3
<>
41
0.18
42
0.0625
44
0.18
140
0.18
147
0.09
73
0
74
0
77
1
271
2
275
0
278
52
280
0
340
11
0
ENDTAB
0
TABLE
2
VIEW
5
1b4
100
AcDbSymbolTable
0
ENDTAB
0
TABLE
2
UCS
5
1b5
100
AcDbSymbolTable
0
ENDTAB
0
TABLE
2
APPID
5
1b6
100
AcDbSymbolTable
0
APPID
5
12
100
AcDbSymbolTableRecord
100
AcDbRegAppTableRecord
2
ACAD
70
0
0
ENDTAB
0
TABLE
2
BLOCK_RECORD
5
1b7
100
AcDbSymbolTable
0
BLOCK_RECORD
5
1F
100
AcDbSymbolTableRecord
100
AcDbBlockTableRecord
2
*Model_Space
340
0
70
0
0
BLOCK_RECORD
5
1B
100
AcDbSymbolTableRecord
100
AcDbBlockTableRecord
2
*Paper_Space
340
0
70
0
0
BLOCK_RECORD
5
23
100
AcDbSymbolTableRecord
100
AcDbBlockTableRecord
2
*Paper_Space0
340
0
70
0
0
BLOCK_RECORD
5
FA
100
AcDbSymbolTableRecord
100
AcDbBlockTableRecord
2
DimnDraft3D1
340
0
70
0
0
BLOCK_RECORD
5
104
100
AcDbSymbolTableRecord
100
AcDbBlockTableRecord
2
DimnDraft3D2
340
0
70
0
0
BLOCK_RECORD
5
10E
100
AcDbSymbolTableRecord
100
AcDbBlockTableRecord
2
DimnDraft3D3
340
0
70
0
0
BLOCK_RECORD
5
118
100
AcDbSymbolTableRecord
100
AcDbBlockTableRecord
2
DimnDraft3D4
340
0
70
0
0
BLOCK_RECORD
5
122
100
AcDbSymbolTableRecord
100
AcDbBlockTableRecord
2
DimnDraft3D5
340
0
70
0
0
BLOCK_RECORD
5
12C
100
AcDbSymbolTableRecord
100
AcDbBlockTableRecord
2
DimnDraft3D6
340
0
70
0
0
BLOCK_RECORD
5
137
100
AcDbSymbolTableRecord
100
AcDbBlockTableRecord
2
DimnDraft3D7
340
0
70
0
0
ENDTAB
0
ENDSEC
0
SECTION
2
BLOCKS
0
BLOCK
5
20
100
AcDbEntity
8
0
100
AcDbBlockBegin
2
*Model_Space
70
0
10
0
20
0
30
0
3
*Model_Space
0
ENDBLK
5
21
100
AcDbEntity
8
0
100
AcDbBlockEnd
0
BLOCK
5
1C
100
AcDbEntity
8
0
100
AcDbBlockBegin
2
*Paper_Space
70
0
10
0
20
0
30
0
3
*Paper_Space
0
ENDBLK
5
1D
100
AcDbEntity
8
0
100
AcDbBlockEnd
0
BLOCK
5
24
100
AcDbEntity
8
0
100
AcDbBlockBegin
2
*Paper_Space0
70
0
10
0
20
0
30
0
3
*Paper_Space0
0
ENDBLK
5
25
100
AcDbEntity
8
0
100
AcDbBlockEnd
0
BLOCK
5
101
100
AcDbEntity
8
0
100
AcDbBlockBegin
2
DimnDraft3D1
70
0
10
0
20
0
30
0
3
DimnDraft3D1
0
MTEXT
5
FB
100
AcDbEntity
8
2
62
256
6
ByLayer
370
13
48
1
60
0
100
AcDbMText
10
20.855964
20
-13.188398
30
0
210
0
220
0
230
1
1
\W0.7495;53,74
40
3.5
41
0
44
1.084337
50
0
71
7
72
5
7
iso_b_vert
0
LINE
5
FC
100
AcDbEntity
8
2
62
256
6
ByLayer
370
13
48
1
60
0
100
AcDbLine
10
0
20
-1.5875
30
0
11
0
21
-16.063398
31
0
39
0
210
0
220
0
230
1
0
LINE
5
FD
100
AcDbEntity
8
2
62
256
6
ByLayer
370
13
48
1
60
0
100
AcDbLine
10
53.7388
20
-5.4375
30
0
11
53.7388
21
-16.063398
31
0
39
0
210
0
220
0
230
1
0
LINE
5
FE
100
AcDbEntity
8
2
62
256
6
ByLayer
370
13
48
1
60
0
100
AcDbLine
10
0
20
-14.063398
30
0
11
53.7388
21
-14.063398
31
0
39
0
210
0
220
0
230
1
0
SOLID
5
FF
100
AcDbEntity
8
2
62
256
6
ByLayer
370
13
48
1
60
0
100
AcDbTrace
10
0
20
-14.063398
30
0
11
3.499998
21
-13.602615
31
0
12
3.500002
22
-14.524182
32
0
13
0
23
-14.063398
33
0
39
0
210
0
220
0
230
1
0
SOLID
5
100
100
AcDbEntity
8
2
62
256
6
ByLayer
370
13
48
1
60
0
100
AcDbTrace
10
53.7388
20
-14.063398
30
0
11
50.238802
21
-14.524182
31
0
12
50.238798
22
-13.602615
32
0
13
53.7388
23
-14.063398
33
0
39
0
210
0
220
0
230
1
0
ENDBLK
5
102
100
AcDbEntity
8
0
100
AcDbBlockEnd
0
BLOCK
5
10B
100
AcDbEntity
8
0
100
AcDbBlockBegin
2
DimnDraft3D2
70
0
10
0
20
0
30
0
3
DimnDraft3D2
0
MTEXT
5
105
100
AcDbEntity
8
SK2
62
256
6
ByLayer
370
13
48
1
60
0
100
AcDbMText
10
5.568916
20
-31.817985
30
0
210
0
220
0
230
1
1
\W0.6713;91,00
40
3.5
41
0
44
1.084337
50
0
71
7
72
5
7
iso_b_vert
0
LINE
5
106
100
AcDbEntity
8
SK2
62
256
6
ByLayer
370
13
48
1
60
0
100
AcDbLine
10
-36
20
-5.5875
30
0
11
-36
21
-34.692985
31
0
39
0
210
0
220
0
230
1
0
LINE
5
107
100
AcDbEntity
8
SK2
62
256
6
ByLayer
370
13
48
1
60
0
100
AcDbLine
10
55
20
-1.5875
30
0
11
55
21
-34.692985
31
0
39
0
210
0
220
0
230
1
0
LINE
5
108
100
AcDbEntity
8
SK2
62
256
6
ByLayer
370
13
48
1
60
0
100
AcDbLine
10
-36
20
-32.692985
30
0
11
55
21
-32.692985
31
0
39
0
210
0
220
0
230
1
0
SOLID
5
109
100
AcDbEntity
8
SK2
62
256
6
ByLayer
370
13
48
1
60
0
100
AcDbTrace
10
-36
20
-32.692985
30
0
11
-32.500002
21
-32.232202
31
0
12
-32.499998
22
-33.153769
32
0
13
-36
23
-32.692985
33
0
39
0
210
0
220
0
230
1
0
SOLID
5
10A
100
AcDbEntity
8
SK2
62
256
6
ByLayer
370
13
48
1
60
0
100
AcDbTrace
10
55
20
-32.692985
30
0
11
51.500002
21
-33.153769
31
0
12
51.499998
22
-32.232202
32
0
13
55
23
-32.692985
33
0
39
0
210
0
220
0
230
1
0
ENDBLK
5
10C
100
AcDbEntity
8
0
100
AcDbBlockEnd
0
BLOCK
5
115
100
AcDbEntity
8
0
100
AcDbBlockBegin
2
DimnDraft3D3
70
0
10
0
20
0
30
0
3
DimnDraft3D3
0
MTEXT
5
10F
100
AcDbEntity
8
SK2
62
256
6
ByLayer
370
13
48
1
60
0
100
AcDbMText
10
30.671316
20
16.334119
30
0
210
0
220
0
230
1
1
\W0.7317;39,76
40
3.5
41
0
44
1.084337
50
0
71
7
72
5
7
iso_b_vert
0
LINE
5
110
100
AcDbEntity
8
SK2
62
256
6
ByLayer
370
13
48
1
60
0
100
AcDbLine
10
15.24
20
5.4375
30
0
11
15.24
21
17.459119
31
0
39
0
210
0
220
0
230
1
0
LINE
5
111
100
AcDbEntity
8
SK2
62
256
6
ByLayer
370
13
48
1
60
0
100
AcDbLine
10
55
20
1.5875
30
0
11
55
21
17.459119
31
0
39
0
210
0
220
0
230
1
0
LINE
5
112
100
AcDbEntity
8
SK2
62
256
6
ByLayer
370
13
48
1
60
0
100
AcDbLine
10
15.24
20
15.459119
30
0
11
55
21
15.459119
31
0
39
0
210
0
220
0
230
1
0
SOLID
5
113
100
AcDbEntity
8
SK2
62
256
6
ByLayer
370
13
48
1
60
0
100
AcDbTrace
10
15.24
20
15.459119
30
0
11
18.739998
21
15.919903
31
0
12
18.740002
22
14.998335
32
0
13
15.24
23
15.459119
33
0
39
0
210
0
220
0
230
1
0
SOLID
5
114
100
AcDbEntity
8
SK2
62
256
6
ByLayer
370
13
48
1
60
0
100
AcDbTrace
10
55
20
15.459119
30
0
11
51.500002
21
14.998335
31
0
12
51.499998
22
15.919903
32
0
13
55
23
15.459119
33
0
39
0
210
0
220
0
230
1
0
ENDBLK
5
116
100
AcDbEntity
8
0
100
AcDbBlockEnd
0
BLOCK
5
11F
100
AcDbEntity
8
0
100
AcDbBlockBegin
2
DimnDraft3D4
70
0
10
0
20
0
30
0
3
DimnDraft3D4
0
MTEXT
5
119
100
AcDbEntity
8
SK2
62
256
6
ByLayer
370
13
48
1
60
0
100
AcDbMText
10
62.278136
20
-15.777503
30
0
210
0
220
0
230
1
1
\W0.6367;1,26
40
3.5
41
0
44
1.084337
50
0
71
7
72
5
7
iso_b_vert
0
LINE
5
11A
100
AcDbEntity
8
SK2
62
256
6
ByLayer
370
13
48
1
60
0
100
AcDbLine
10
55
20
-1.5875
30
0
11
55
21
-18.652503
31
0
39
0
210
0
220
0
230
1
0
LINE
5
11B
100
AcDbEntity
8
SK2
62
256
6
ByLayer
370
13
48
1
60
0
100
AcDbLine
10
53.7388
20
-5.4375
30
0
11
53.7388
21
-18.652503
31
0
39
0
210
0
220
0
230
1
0
LINE
5
11C
100
AcDbEntity
8
SK2
62
256
6
ByLayer
370
13
48
1
60
0
100
AcDbLine
10
44.9888
20
-16.652503
30
0
11
68.559715
21
-16.652503
31
0
39
0
210
0
220
0
230
1
0
SOLID
5
11D
100
AcDbEntity
8
SK2
62
256
6
ByLayer
370
13
48
1
60
0
100
AcDbTrace
10
55
20
-16.652503
30
0
11
58.499998
21
-16.191719
31
0
12
58.500002
22
-17.113287
32
0
13
55
23
-16.652503
33
0
39
0
210
0
220
0
230
1
0
SOLID
5
11E
100
AcDbEntity
8
SK2
62
256
6
ByLayer
370
13
48
1
60
0
100
AcDbTrace
10
53.7388
20
-16.652503
30
0
11
50.238802
21
-17.113287
31
0
12
50.238798
22
-16.191719
32
0
13
53.7388
23
-16.652503
33
0
39
0
210
0
220
0
230
1
0
ENDBLK
5
120
100
AcDbEntity
8
0
100
AcDbBlockEnd
0
BLOCK
5
129
100
AcDbEntity
8
0
100
AcDbBlockBegin
2
DimnDraft3D5
70
0
10
0
20
0
30
0
3
DimnDraft3D5
0
MTEXT
5
123
100
AcDbEntity
8
SK2
62
256
6
ByLayer
370
13
48
1
60
0
100
AcDbMText
10
1.866582
20
-21.468428
30
0
210
0
220
0
230
1
1
\W0.7495;89,74
40
3.5
41
0
44
1.084337
50
0
71
7
72
5
7
iso_b_vert
0
LINE
5
124
100
AcDbEntity
8
SK2
62
256
6
ByLayer
370
13
48
1
60
0
100
AcDbLine
10
-36
20
-5.5875
30
0
11
-36
21
-24.343428
31
0
39
0
210
0
220
0
230
1
0
LINE
5
125
100
AcDbEntity
8
SK2
62
256
6
ByLayer
370
13
48
1
60
0
100
AcDbLine
10
53.7388
20
-5.4375
30
0
11
53.7388
21
-24.343428
31
0
39
0
210
0
220
0
230
1
0
LINE
5
126
100
AcDbEntity
8
SK2
62
256
6
ByLayer
370
13
48
1
60
0
100
AcDbLine
10
-36
20
-22.343428
30
0
11
53.7388
21
-22.343428
31
0
39
0
210
0
220
0
230
1
0
SOLID
5
127
100
AcDbEntity
8
SK2
62
256
6
ByLayer
370
13
48
1
60
0
100
AcDbTrace
10
-36
20
-22.343428
30
0
11
-32.500002
21
-21.882645
31
0
12
-32.499998
22
-22.804212
32
0
13
-36
23
-22.343428
33
0
39
0
210
0
220
0
230
1
0
SOLID
5
128
100
AcDbEntity
8
SK2
62
256
6
ByLayer
370
13
48
1
60
0
100
AcDbTrace
10
53.7388
20
-22.343428
30
0
11
50.238802
21
-22.804212
31
0
12
50.238798
22
-21.882645
32
0
13
53.7388
23
-22.343428
33
0
39
0
210
0
220
0
230
1
0
ENDBLK
5
12A
100
AcDbEntity
8
0
100
AcDbBlockEnd
0
BLOCK
5
134
100
AcDbEntity
8
0
100
AcDbBlockBegin
2
DimnDraft3D6
70
0
10
0
20
0
30
0
3
DimnDraft3D6
0
MTEXT
5
12D
100
AcDbEntity
8
SK2
62
256
6
ByLayer
370
13
48
1
60
0
100
AcDbMText
10
-46.375163
20
23.34918
30
0
210
0
220
0
230
1
1
\W0.7317;8,000
40
3.5
41
0
44
1.084337
50
90
71
7
72
5
7
iso_b_vert
0
MTEXT
5
12E
100
AcDbEntity
8
SK2
62
256
6
ByLayer
370
13
48
1
60
0
100
AcDbMText
10
-46.375163
20
18.126524
30
0
210
0
220
0
230
1
1
%%c
40
3.5
41
0
44
1.084337
50
90
71
7
72
5
7
iso_b_vert
0
LINE
5
12F
100
AcDbEntity
8
SK2
62
256
6
ByLayer
370
13
48
1
60
0
100
AcDbLine
10
-37.5875
20
-4
30
0
11
-46.625163
21
-4
31
0
39
0
210
0
220
0
230
1
0
LINE
5
130
100
AcDbEntity
8
SK2
62
256
6
ByLayer
370
13
48
1
60
0
100
AcDbLine
10
-37.5875
20
4
30
0
11
-46.625163
21
4
31
0
39
0
210
0
220
0
230
1
0
LINE
5
131
100
AcDbEntity
8
SK2
62
256
6
ByLayer
370
13
48
1
60
0
100
AcDbLine
10
-44.625163
20
-4
30
0
11
-44.625163
21
33.121549
31
0
39
0
210
0
220
0
230
1
0
SOLID
5
132
100
AcDbEntity
8
SK2
62
256
6
ByLayer
370
13
48
1
60
0
100
AcDbTrace
10
-44.625163
20
-4
30
0
11
-45.085946
21
-0.500002
31
0
12
-44.164379
22
-0.499998
32
0
13
-44.625163
23
-4
33
0
39
0
210
0
220
0
230
1
0
SOLID
5
133
100
AcDbEntity
8
SK2
62
256
6
ByLayer
370
13
48
1
60
0
100
AcDbTrace
10
-44.625163
20
4
30
0
11
-44.164379
21
0.500002
31
0
12
-45.085946
22
0.499998
32
0
13
-44.625163
23
4
33
0
39
0
210
0
220
0
230
1
0
ENDBLK
5
135
100
AcDbEntity
8
0
100
AcDbBlockEnd
0
BLOCK
5
13F
100
AcDbEntity
8
0
100
AcDbBlockBegin
2
DimnDraft3D7
70
0
10
0
20
0
30
0
3
DimnDraft3D7
0
MTEXT
5
138
100
AcDbEntity
8
2
62
256
6
ByLayer
370
13
48
1
60
0
100
AcDbMText
10
65.333343
20
21.792266
30
0
210
0
220
0
230
1
1
\W0.7317;7,700
40
3.5
41
0
44
1.084337
50
90
71
7
72
5
7
iso_b_vert
0
MTEXT
5
139
100
AcDbEntity
8
2
62
256
6
ByLayer
370
13
48
1
60
0
100
AcDbMText
10
65.333343
20
16.56961
30
0
210
0
220
0
230
1
1
%%c
40
3.5
41
0
44
1.084337
50
90
71
7
72
5
7
iso_b_vert
0
LINE
5
13A
100
AcDbEntity
8
2
62
256
6
ByLayer
370
13
48
1
60
0
100
AcDbLine
10
55.3263
20
-3.85
30
0
11
69.083343
21
-3.85
31
0
39
0
210
0
220
0
230
1
0
LINE
5
13B
100
AcDbEntity
8
2
62
256
6
ByLayer
370
13
48
1
60
0
100
AcDbLine
10
55.3263
20
3.85
30
0
11
69.083343
21
3.85
31
0
39
0
210
0
220
0
230
1
0
LINE
5
13C
100
AcDbEntity
8
2
62
256
6
ByLayer
370
13
48
1
60
0
100
AcDbLine
10
67.083343
20
-3.85
30
0
11
67.083343
21
31.564635
31
0
39
0
210
0
220
0
230
1
0
SOLID
5
13D
100
AcDbEntity
8
2
62
256
6
ByLayer
370
13
48
1
60
0
100
AcDbTrace
10
67.083343
20
-3.85
30
0
11
66.622559
21
-0.350002
31
0
12
67.544126
22
-0.349998
32
0
13
67.083343
23
-3.85
33
0
39
0
210
0
220
0
230
1
0
SOLID
5
13E
100
AcDbEntity
8
2
62
256
6
ByLayer
370
13
48
1
60
0
100
AcDbTrace
10
67.083343
20
3.85
30
0
11
67.544126
21
0.350002
31
0
12
66.622559
22
0.349998
32
0
13
67.083343
23
3.85
33
0
39
0
210
0
220
0
230
1
0
ENDBLK
5
140
100
AcDbEntity
8
0
100
AcDbBlockEnd
0
ENDSEC
0
SECTION
2
ENTITIES
0
ARC
5
9E
100
AcDbEntity
8
1
62
256
6
ByLayer
370
18
48
1
60
0
100
AcDbCircle
39
0
10
0
20
3.8
30
0
40
0.200000000000002
210
0
220
0
230
1
100
AcDbArc
50
17.747788
51
90
0
ARC
5
9F
100
AcDbEntity
8
1
62
256
6
ByLayer
370
18
48
1
60
0
100
AcDbCircle
39
0
10
0
20
-3.8
30
0
40
0.200000000000002
210
0
220
0
230
1
100
AcDbArc
50
270
51
342.252212
0
ARC
5
A0
100
AcDbEntity
8
1
62
256
6
ByLayer
370
18
48
1
60
0
100
AcDbCircle
39
0
10
-0.380963
20
3.921931
30
0
40
0.200000000000002
210
0
220
0
230
-1
100
AcDbArc
50
269.86249
51
342.252212
0
ARC
5
A1
100
AcDbEntity
8
1
62
256
6
ByLayer
370
18
48
1
60
0
100
AcDbCircle
39
0
10
-0.380963
20
-3.921931
30
0
40
0.200000000000002
210
0
220
0
230
-1
100
AcDbArc
50
17.747788
51
90.13751
0
ELLIPSE
5
A2
100
AcDbEntity
8
1
62
256
6
ByLayer
370
18
48
1
60
0
100
AcDbEllipse
10
54.937049
20
0.078904
30
0
11
0.166900986523136
21
0.249907615948149
31
0
210
0
220
0
230
-1
40
0.487455
41
-2.11736978758511
42
-1.00035906630569
0
ELLIPSE
5
A3
100
AcDbEntity
8
1
62
256
6
ByLayer
370
18
48
1
60
0
100
AcDbEllipse
10
53.215992
20
1.403481
30
0
11
1.71557611236177
21
-1.11353631996997
31
0
210
0
220
0
230
-1
40
0.12325
41
-0.0798284015910784
42
0.0403034314869979
0
ELLIPSE
5
A4
100
AcDbEntity
8
1
62
256
6
ByLayer
370
13
48
1
60
0
100
AcDbEllipse
10
55.43385
20
2.029284
30
0
11
2.47780223609857
21
-1.22726200718914
31
0
210
0
220
0
230
-1
40
0.715108
41
1.84170957720392
42
2.00246333735073
0
ELLIPSE
5
A5
100
AcDbEntity
8
1
62
256
6
ByLayer
370
13
48
1
60
0
100
AcDbEllipse
10
4.179362
20
-2.793516
30
0
11
-0.00625190908229632
21
0.0998043768219947
31
0
210
0
220
0
230
1
40
0.595891
41
0.802000250810957
42
2.13011663270723
0
ELLIPSE
5
A6
100
AcDbEntity
8
1
62
256
6
ByLayer
370
13
48
1
60
0
100
AcDbEllipse
10
4.250497
20
-2.804461
30
0
11
0.0327055156940402
21
0.0945005250947681
31
0
210
0
220
0
230
1
40
0.356058
41
0.764138384878105
42
2.315196824907
0
ELLIPSE
5
A7
100
AcDbEntity
8
1
62
256
6
ByLayer
370
13
48
1
60
0
100
AcDbEllipse
10
54.115967
20
0.710833
30
0
11
0.182972835236731
21
0.237741333312977
31
0
210
0
220
0
230
1
40
0.455639
41
0.912984858149203
42
2.15012741233611
0
POINT
5
6C
100
AcDbEntity
8
81
62
256
6
ByLayer
370
18
48
1
60
0
100
AcDbPoint
10
55
20
0
30
0
39
0
210
0
220
0
230
1
50
360
0
POINT
5
6E
100
AcDbEntity
8
80
62
256
6
ByLayer
370
18
48
1
60
0
100
AcDbPoint
10
0
20
0
30
0
39
0
210
0
220
0
230
1
50
360
0
POINT
5
70
100
AcDbEntity
8
SK2
62
256
6
ByLayer
370
18
48
1
60
1
100
AcDbPoint
10
-36
20
-4
30
0
39
0
210
0
220
0
230
1
50
360
0
POINT
5
72
100
AcDbEntity
8
SK2
62
256
6
ByLayer
370
18
48
1
60
1
100
AcDbPoint
10
-36
20
4
30
0
39
0
210
0
220
0
230
1
50
360
0
POINT
5
73
100
AcDbEntity
8
2
62
256
6
ByLayer
370
18
48
1
60
1
100
AcDbPoint
10
53.7388
20
-3.85
30
0
39
0
210
0
220
0
230
1
50
360
0
POINT
5
75
100
AcDbEntity
8
2
62
256
6
ByLayer
370
18
48
1
60
1
100
AcDbPoint
10
53.7388
20
3.85
30
0
39
0
210
0
220
0
230
1
50
360
0
SPLINE
5
A8
100
AcDbEntity
8
1
62
256
6
ByLayer
370
18
48
1
60
0
100
AcDbSpline
70
4
71
3
72
21
73
17
40
0
40
0
40
0
40
0
40
0.07193220668954
40
0.194236664558827
40
0.298782381150946
40
0.380576196086988
40
0.427586474539823
40
0.465052685637112
40
0.515713309425405
40
0.58230989310813
40
0.671856821017442
40
0.75180594692885
40
0.81938836414491
40
0.881941872813352
40
0.955099325972138
40
1
40
1
40
1
40
1
41
1
10
40.0805791884727
20
3.66247039603749
30
0
41
1
10
39.9014535756221
20
3.66141025795193
30
0
41
1
10
39.4171404193818
20
3.65908397018103
30
0
41
1
10
38.6619149938682
20
3.65520651246308
30
0
41
1
10
37.893270058533
20
3.658730735472
30
0
41
1
10
37.3124550598079
20
3.6570103182388
30
0
41
1
10
36.8937404243401
20
3.6546531529716
30
0
41
1
10
36.5550866103298
20
3.65479743464167
30
0
41
1
10
36.1657945569695
20
3.65443507318449
30
0
41
1
10
35.6459541084184
20
3.65268199408081
30
0
41
1
10
35.0530789461948
20
3.65074522287355
30
0
41
1
10
34.4564430309661
20
3.65006661738599
30
0
41
1
10
33.929535570443
20
3.64839626532287
30
0
41
1
10
33.4188023992231
20
3.64748513670617
30
0
41
1
10
32.9652216528935
20
3.64702324552215
30
0
41
1
10
32.6748092436315
20
3.64415385033206
30
0
41
1
10
32.5641322948984
20
3.64308935567462
30
0
0
SPLINE
5
A9
100
AcDbEntity
8
1
62
256
6
ByLayer
370
18
48
1
60
0
100
AcDbSpline
70
4
71
1
72
4
73
2
40
0
40
0
40
1
40
1
41
1
10
41.5320963264927
20
0.0004192954997109
30
0
41
1
10
41.5320853846351
20
0.0004250493417999
30
0
0
SPLINE
5
AA
100
AcDbEntity
8
1
62
256
6
ByLayer
370
18
48
1
60
0
100
AcDbSpline
70
4
71
3
72
23
73
19
40
0
40
0
40
0
40
0
40
0.0016276768220315
40
0.0368638064414598
40
0.0814063835466524
40
0.169172990777974
40
0.261529494135582
40
0.335491182982527
40
0.394503896473694
40
0.475004682339642
40
0.54000851735949
40
0.603623358670155
40
0.675319134598843
40
0.761114565599624
40
0.799814773999528
40
0.850539305239575
40
0.928225168437296
40
1
40
1
40
1
40
1
41
1
10
42.0478382167629
20
-0.871615413661004
30
0
41
1
10
42.0478361357506
20
-0.871627587131428
30
0
41
1
10
42.0481184076621
20
-0.871943175661301
30
0
41
1
10
42.0658435521809
20
-0.874750799845316
30
0
41
1
10
42.1391387928855
20
-0.88629651029558
30
0
41
1
10
42.2727368028271
20
-0.910290603655056
30
0
41
1
10
42.4404624850852
20
-0.947797052806692
30
0
41
1
10
42.5601520441426
20
-0.978551124498864
30
0
41
1
10
42.6624986088322
20
-1.00895333058881
30
0
41
1
10
42.8030824219452
20
-1.05410027015566
30
0
41
1
10
42.9616895577561
20
-1.1098907795851
30
0
41
1
10
43.1148603434062
20
-1.16741762106241
30
0
41
1
10
43.2776399841406
20
-1.23118350240219
30
0
41
1
10
43.4429104233055
20
-1.30197867853221
30
0
41
1
10
43.6000437040926
20
-1.37228845481056
30
0
41
1
10
43.7612527425848
20
-1.4463988292454
30
0
41
1
10
43.9547133833487
20
-1.53834089239399
30
0
41
1
10
44.1011343286761
20
-1.6105612166358
30
0
41
1
10
44.171773633521
20
-1.64600262503748
30
0
0
SPLINE
5
AB
100
AcDbEntity
8
1
62
256
6
ByLayer
370
18
48
1
60
0
100
AcDbSpline
70
4
71
3
72
23
73
19
40
0
40
0
40
0
40
0
40
0.0997979238465297
40
0.186425146517911
40
0.262442415396634
40
0.326296502796804
40
0.385443765888967
40
0.457026055140189
40
0.540339661828475
40
0.598205803604495
40
0.644103227234684
40
0.680323564116556
40
0.729548090682334
40
0.796655090611928
40
0.85902962075468
40
0.90966985779545
40
0.973274765460652
40
1
40
1
40
1
40
1
41
1
10
9.06460849435211
20
-3.5887750847136
30
0
41
1
10
9.36359086998002
20
-3.5876344317754
30
0
41
1
10
9.92473890728567
20
-3.58693768643406
30
0
41
1
10
10.737497339707
20
-3.5888895609292
30
0
41
1
10
11.4184883867972
20
-3.59477206201376
30
0
41
1
10
12.0299224267306
20
-3.59628998712995
30
0
41
1
10
12.6265018595107
20
-3.59740328297485
30
0
41
1
10
13.2832326119255
20
-3.60021128955228
30
0
41
1
10
13.9357797649256
20
-3.60032703559756
30
0
41
1
10
14.5096431730314
20
-3.60275378915199
30
0
41
1
10
14.9390532292597
20
-3.60396487155035
30
0
41
1
10
15.3419613355225
20
-3.60435049589299
30
0
41
1
10
15.8099420969853
20
-3.60539187167527
30
0
41
1
10
16.358092572394
20
-3.60843788934184
30
0
41
1
10
16.9107959103121
20
-3.60769668850182
30
0
41
1
10
17.4519378702936
20
-3.60974326634891
30
0
41
1
10
17.8846498556782
20
-3.61145482591974
30
0
41
1
10
18.1615834134359
20
-3.6118950524239
30
0
41
1
10
18.2435147253642
20
-3.61199300779214
30
0
0
SPLINE
5
AC
100
AcDbEntity
8
1
62
256
6
ByLayer
370
18
48
1
60
0
100
AcDbSpline
70
4
71
2
72
6
73
3
40
0
40
0
40
0
40
1
40
1
40
1
41
1
10
19.7778036525437
20
0.0026288133112473
30
0
41
1
10
19.7778136556241
20
0.0026231034180171
30
0
41
1
10
19.7778236587002
20
0.0026173069044546
30
0
0
SPLINE
5
AD
100
AcDbEntity
8
1
62
256
6
ByLayer
370
18
48
1
60
0
100
AcDbSpline
70
4
71
3
72
20
73
16
40
0
40
0
40
0
40
0
40
0.0313136907173698
40
0.0877071806138552
40
0.206329836907629
40
0.287790936024376
40
0.381575254811906
40
0.472348741183993
40
0.521067162655869
40
0.595497027636182
40
0.686137991808805
40
0.746046443769585
40
0.807870262623514
40
0.910013542543383
40
1
40
1
40
1
40
1
41
1
10
20.2931988426191
20
-0.872365792667949
30
0
41
1
10
20.2945146165462
20
-0.872830212342279
30
0
41
1
10
20.318085663986
20
-0.876028134980686
30
0
41
1
10
20.4166329114985
20
-0.889972632889794
30
0
41
1
10
20.5233184548814
20
-0.908865358854229
30
0
41
1
10
20.6936686383877
20
-0.948754176742227
30
0
41
1
10
20.8649658652434
20
-0.995371937885182
30
0
41
1
10
21.0053455000543
20
-1.03788512286192
30
0
41
1
10
21.1389167192404
20
-1.08235620534739
30
0
41
1
10
21.2940705818677
20
-1.13930739675811
30
0
41
1
10
21.4689811518861
20
-1.20876785089158
30
0
41
1
10
21.6484367517775
20
-1.28408342250685
30
0
41
1
10
21.8557702615944
20
-1.37484301632202
30
0
41
1
10
22.0974111495551
20
-1.48499634605102
30
0
41
1
10
22.2756872696657
20
-1.57243953011419
30
0
41
1
10
22.3589707026581
20
-1.61446877689167
30
0
0
SPLINE
5
AE
100
AcDbEntity
8
1
62
256
6
ByLayer
370
18
48
1
60
0
100
AcDbSpline
70
4
71
2
72
6
73
3
40
0
40
0
40
0
40
1
40
1
40
1
41
1
10
52.6229771338922
20
-3.6933483202466
30
0
41
1
10
53.1365081684421
20
-3.69247636278527
30
0
41
1
10
53.6503558120364
20
-3.69744952792647
30
0
0
SPLINE
5
AF
100
AcDbEntity
8
1
62
256
6
ByLayer
370
18
48
1
60
0
100
AcDbSpline
70
4
71
3
72
23
73
19
40
0
40
0
40
0
40
0
40
0.0829968308987571
40
0.157527886855365
40
0.226166389056449
40
0.285406061889483
40
0.33605912904904
40
0.390784384129393
40
0.455523653442068
40
0.528034798697877
40
0.588314243678889
40
0.631937281353793
40
0.667415824420115
40
0.717290663108328
40
0.783193768162405
40
0.862239859380572
40
0.952837976297321
40
1
40
1
40
1
40
1
41
1
10
30.8177064531184
20
-3.64118671181478
30
0
41
1
10
31.0668119637383
20
-3.64014334303451
30
0
41
1
10
31.542833759338
20
-3.63948711200044
30
0
41
1
10
32.2545645412646
20
-3.63901039557126
30
0
41
1
10
32.8651094679053
20
-3.64692129399089
30
0
41
1
10
33.4188021738392
20
-3.6474851517124
30
0
41
1
10
33.9295363040412
20
-3.64839621647971
30
0
41
1
10
34.4564397957168
20
-3.65006683279012
30
0
41
1
10
35.0530942182793
20
-3.65074420605254
30
0
41
1
10
35.6655946364161
20
-3.65275031947368
30
0
41
1
10
36.2134734195902
20
-3.65458550557986
30
0
41
1
10
36.6460272116447
20
-3.65472061734169
30
0
41
1
10
37.0462234427841
20
-3.65504029883746
30
0
41
1
10
37.5152519913103
20
-3.65846013427034
30
0
41
1
10
38.1109178997371
20
-3.65713422354529
30
0
41
1
10
38.8408343823551
20
-3.65661925799222
30
0
41
1
10
39.515570917475
20
-3.65935972862485
30
0
41
1
10
39.939815657554
20
-3.66156786391488
30
0
41
1
10
40.0848075337469
20
-3.66243394586635
30
0
0
SPLINE
5
B0
100
AcDbEntity
8
1
62
256
6
ByLayer
370
18
48
1
60
0
100
AcDbSpline
70
4
71
3
72
23
73
19
40
0
40
0
40
0
40
0
40
0.0057289631505417
40
0.0736871385094994
40
0.122790447354913
40
0.168628376429299
40
0.222337233107027
40
0.283715077281721
40
0.34037084442017
40
0.398801180889161
40
0.442819544498733
40
0.499026492586329
40
0.569529867443031
40
0.67269298720472
40
0.761329796633373
40
0.834568928013064
40
0.913636287206826
40
1
40
1
40
1
40
1
41
1
10
18.2461581270365
20
3.61175480853694
30
0
41
1
10
18.2319737410578
20
3.61172419702567
30
0
41
1
10
18.0495273767279
20
3.61132212156321
30
0
41
1
10
17.7452697744073
20
3.61176414238724
30
0
41
1
10
17.3418048461462
20
3.60902374802683
30
0
41
1
10
16.9739012669074
20
3.60811064666549
30
0
41
1
10
16.5751950350915
20
3.60790510669534
30
0
41
1
10
16.1497295293201
20
3.60766048851505
30
0
41
1
10
15.7125670567095
20
3.60501617165451
30
0
41
1
10
15.3184026382632
20
3.60434910359518
30
0
41
1
10
14.9253510119922
20
3.60393974086716
30
0
41
1
10
14.5023987191641
20
3.60270988421567
30
0
41
1
10
13.9329326767371
20
3.60033084418521
30
0
41
1
10
13.2832326425638
20
3.60021015216714
30
0
41
1
10
12.6265018533301
20
3.59740351239117
30
0
41
1
10
12.0299224283784
20
3.59628992596336
30
0
41
1
10
11.4377535524915
20
3.59481990692879
30
0
41
1
10
11.0356764306833
20
3.59145996432378
30
0
41
1
10
10.8234813506237
20
3.59016188602638
30
0
0
SPLINE
5
B1
100
AcDbEntity
8
1
62
256
6
ByLayer
370
18
48
1
60
0
100
AcDbSpline
70
4
71
3
72
8
73
4
40
0
40
0
40
0
40
0
40
1
40
1
40
1
40
1
41
1
10
29.5041270418488
20
-0.218500674808496
30
0
41
1
10
29.4943270565382
20
-0.213346383898113
30
0
41
1
10
29.4835197049153
20
-0.207661454688804
30
0
41
1
10
29.4717833604469
20
-0.201490377553967
30
0
0
SPLINE
5
B2
100
AcDbEntity
8
1
62
256
6
ByLayer
370
13
48
1
60
0
100
AcDbSpline
70
4
71
3
72
8
73
4
40
0
40
0
40
0
40
0
40
1
40
1
40
1
40
1
41
1
10
4.13226896514843
20
-2.72680252870012
30
0
41
1
10
4.16913085213201
20
-2.71928448457757
30
0
41
1
10
4.2095070590874
20
-2.71978562370131
30
0
41
1
10
4.25082871254546
20
-2.72817626125328
30
0
0
SPLINE
5
B3
100
AcDbEntity
8
1
62
256
6
ByLayer
370
18
48
1
60
0
100
AcDbSpline
70
4
71
3
72
8
73
4
40
0
40
0
40
0
40
0
40
1
40
1
40
1
40
1
41
1
10
54.2179553214849
20
-2.08650271419077
30
0
41
1
10
54.0228882909299
20
-2.62244497592093
30
0
41
1
10
53.8278212603749
20
-3.15838723765111
30
0
41
1
10
53.63275422982
20
-3.69432949938138
30
0
0
SPLINE
5
B4
100
AcDbEntity
8
1
62
256
6
ByLayer
370
18
48
1
60
0
100
AcDbSpline
70
4
71
3
72
8
73
4
40
0
40
0
40
0
40
0
40
1
40
1
40
1
40
1
41
1
10
53.743763621179
20
-3.72718435774337
30
0
41
1
10
53.7254359861605
20
-3.74893136244114
30
0
41
1
10
53.7083421307641
20
-3.76779682887593
30
0
41
1
10
53.6924186088266
20
-3.78378719518375
30
0
0
SPLINE
5
B5
100
AcDbEntity
8
1
62
256
6
ByLayer
370
18
48
1
60
0
100
AcDbSpline
70
4
71
3
72
8
73
4
40
0
40
0
40
0
40
0
40
1
40
1
40
1
40
1
41
1
10
53.7144029771929
20
-3.72765311831046
30
0
41
1
10
53.7070796367102
20
-3.74636819012647
30
0
41
1
10
53.6997513476495
20
-3.76507969121212
30
0
41
1
10
53.6924186088266
20
-3.78378719518375
30
0
0
SPLINE
5
B6
100
AcDbEntity
8
1
62
256
6
ByLayer
370
18
48
1
60
0
100
AcDbSpline
70
4
71
3
72
14
73
10
40
0
40
0
40
0
40
0
40
0.432593236323859
40
0.432593236323859
40
0.601514297010086
40
0.601514297010086
40
0.770435357696314
40
0.770435357696314
40
1
40
1
40
1
40
1
41
1
10
52.6206657702653
20
-3.69329168493528
30
0
41
1
10
51.9639748925764
20
-3.69189472400905
30
0
41
1
10
51.3099473401305
20
-3.64064825553541
30
0
41
1
10
50.3966964098612
20
-3.50240963716777
30
0
41
1
10
50.1397938114914
20
-3.45623943747398
30
0
41
1
10
49.6243559129971
20
-3.34947294891322
30
0
41
1
10
49.365150021852
20
-3.28870687405347
30
0
41
1
10
48.7548778423589
20
-3.12974042946408
30
0
41
1
10
48.4052007915126
20
-3.02624305319253
30
0
41
1
10
48.0565372245505
20
-2.91207932669025
30
0
0
SPLINE
5
B7
100
AcDbEntity
8
1
62
256
6
ByLayer
370
13
48
1
60
0
100
AcDbSpline
70
4
71
3
72
24
73
20
40
0
40
0
40
0
40
0
40
0.0459361392521707
40
0.0459361392521707
40
0.332591552110388
40
0.332591552110388
40
0.404255405324941
40
0.404255405324941
40
0.475919258539494
40
0.475919258539494
40
0.619246964968603
40
0.619246964968603
40
0.762574671397711
40
0.762574671397711
40
0.834238524612267
40
0.834238524612267
40
0.905902377826823
40
0.905902377826823
40
1
40
1
40
1
40
1
41
1
10
48.056537224543
20
-2.91207932668775
30
0
41
1
10
47.8920850175552
20
-2.85823235625477
30
0
41
1
10
47.7278582776378
20
-2.80201247118944
30
0
41
1
10
46.5397688002494
20
-2.3787337700947
30
0
41
1
10
45.520972831246
20
-1.92582099708142
30
0
41
1
10
44.2265061276544
20
-1.29097141021134
30
0
41
1
10
43.9671917546277
20
-1.1608921080643
30
0
41
1
10
43.4515045627614
20
-0.898046646424717
30
0
41
1
10
43.1944822596375
20
-0.764969987223935
30
0
41
1
10
42.4249443641326
20
-0.362583580304204
30
0
41
1
10
41.9137340384856
20
-0.0905475872658883
30
0
41
1
10
40.889798698211
20
0.451159907915212
30
0
41
1
10
40.3768588355015
20
0.720416764676855
30
0
41
1
10
39.6023759375401
20
1.11493415776343
30
0
41
1
10
39.3425626120947
20
1.24511572466159
30
0
41
1
10
38.8249305105899
20
1.49842351100421
30
0
41
1
10
38.5670723236795
20
1.6216063409673
30
0
41
1
10
37.9721437621483
20
1.89757857965131
30
0
41
1
10
37.6354750029493
20
2.0473860539681
30
0
41
1
10
37.2990946724661
20
2.1892240357042
30
0
0
SPLINE
5
B8
100
AcDbEntity
8
1
62
256
6
ByLayer
370
18
48
1
60
0
100
AcDbSpline
70
4
71
3
72
14
73
10
40
0
40
0
40
0
40
0
40
0.0534663384236927
40
0.0534663384236927
40
0.262322062338938
40
0.262322062338938
40
0.471177786254181
40
0.471177786254181
40
1
40
1
40
1
40
1
41
1
10
9.11662633774
20
-3.58891390545165
30
0
41
1
10
9.05062380961883
20
-3.58874127401742
30
0
41
1
10
8.9845881361052
20
-3.58807972369493
30
0
41
1
10
8.66040746993107
20
-3.58242950054137
30
0
41
1
10
8.40168841601189
20
-3.5704219623961
30
0
41
1
10
7.88242556855312
20
-3.53130769472281
30
0
41
1
10
7.62138176974122
20
-3.5041093830225
30
0
41
1
10
6.7032227787403
20
-3.38241380138354
30
0
41
1
10
6.0491328175774
20
-3.24898898138505
30
0
41
1
10
5.39359030400996
20
-3.07388740276559
30
0
0
SPLINE
5
B9
100
AcDbEntity
8
1
62
256
6
ByLayer
370
13
48
1
60
0
100
AcDbSpline
70
4
71
3
72
8
73
4
40
0
40
0
40
0
40
0
40
1
40
1
40
1
40
1
41
1
10
5.3935903039569
20
-3.07388740275138
30
0
41
1
10
5.01351969336139
20
-2.97236696353409
30
0
41
1
10
4.63296081431585
20
-2.85683708392267
30
0
41
1
10
4.25082871254548
20
-2.72817626125328
30
0
0
SPLINE
5
BA
100
AcDbEntity
8
1
62
256
6
ByLayer
370
18
48
1
60
0
100
AcDbSpline
70
4
71
3
72
54
73
50
40
0
40
0
40
0
40
0
40
0.0430626112369544
40
0.0430626112369544
40
0.0861252224739089
40
0.0861252224739089
40
0.129187833710863
40
0.129187833710863
40
0.172250444947818
40
0.172250444947818
40
0.215313056184772
40
0.215313056184772
40
0.258375667421727
40
0.258375667421727
40
0.301438278658681
40
0.301438278658681
40
0.344500889895635
40
0.344500889895635
40
0.38756350113259
40
0.38756350113259
40
0.430626112369544
40
0.430626112369544
40
0.473688723606499
40
0.473688723606499
40
0.516751334843453
40
0.516751334843453
40
0.559813946080408
40
0.559813946080408
40
0.602876557317362
40
0.602876557317362
40
0.645939168554317
40
0.645939168554317
40
0.689001779791271
40
0.689001779791271
40
0.732064391028225
40
0.732064391028225
40
0.77512700226518
40
0.77512700226518
40
0.818189613502134
40
0.818189613502134
40
0.861252224739089
40
0.861252224739089
40
0.904314835976043
40
0.904314835976043
40
0.947377447212997
40
0.947377447212997
40
0.990440058449952
40
0.990440058449952
40
1
40
1
40
1
40
1
41
1
10
8.87417313839927
20
-0.793403511159369
30
0
41
1
10
9.09291969334669
20
-0.904392546076537
30
0
41
1
10
9.31144981519725
20
-1.01353589191734
30
0
41
1
10
9.74813569040083
20
-1.22851293843183
30
0
41
1
10
9.96627661549815
20
-1.33442977663569
30
0
41
1
10
10.4023237083821
20
-1.54246671889732
30
0
41
1
10
10.6201646337339
20
-1.64460433190666
30
0
41
1
10
11.0568422220851
20
-1.84288804979073
30
0
41
1
10
11.2756982069825
20
-1.93951878014897
30
0
41
1
10
11.713121868326
20
-2.12736864082623
30
0
41
1
10
11.9312929099581
20
-2.2184739962874
30
0
41
1
10
12.3672538942809
20
-2.39335790440669
30
0
41
1
10
12.585317333432
20
-2.47688027450701
30
0
41
1
10
13.021515171845
20
-2.63726633034264
30
0
41
1
10
13.2396256469645
20
-2.71374452530637
30
0
41
1
10
13.6760532760023
20
-2.8581473007801
30
0
41
1
10
13.8946936684123
20
-2.92631530525901
30
0
41
1
10
14.3317475115024
20
-3.05372832714113
30
0
41
1
10
14.5500800084357
20
-3.11356108833914
30
0
41
1
10
14.9861711358868
20
-3.22256696467053
30
0
41
1
10
15.203869590786
20
-3.27210861561031
30
0
41
1
10
15.6397078431103
20
-3.3617950597411
30
0
41
1
10
15.8579471297074
20
-3.40214531371635
30
0
41
1
10
16.2948648897392
20
-3.47284292483118
30
0
41
1
10
16.5137030116251
20
-3.50213329933979
30
0
41
1
10
16.9499895426225
20
-3.55060216431846
30
0
41
1
10
17.1679207900293
20
-3.5696851855117
30
0
41
1
10
17.6040140771709
20
-3.59871032567668
30
0
41
1
10
17.8220010598189
20
-3.60780799147335
30
0
41
1
10
18.2579998654623
20
-3.61343804200911
30
0
41
1
10
18.4759073347997
20
-3.61087280263948
30
0
41
1
10
18.9128075686851
20
-3.59613523799521
30
0
41
1
10
19.1315369192616
20
-3.58451003865335
30
0
41
1
10
19.5677856143628
20
-3.54799406634228
30
0
41
1
10
19.7855733203405
20
-3.52376557190189
30
0
41
1
10
20.2208989459594
20
-3.46604307042824
30
0
41
1
10
20.4386927587991
20
-3.43263848958801
30
0
41
1
10
20.8747869421105
20
-3.35587822575204
30
0
41
1
10
21.0931322517294
20
-3.31139329236458
30
0
41
1
10
21.5300228341279
20
-3.2125780573412
30
0
41
1
10
21.7478876189636
20
-3.15830312328975
30
0
41
1
10
22.1838783952295
20
-3.04231087923506
30
0
41
1
10
22.4018124503468
20
-2.98015749676014
30
0
41
1
10
22.8375244610429
20
-2.84514769369457
30
0
41
1
10
23.055292544065
20
-2.7728894424356
30
0
41
1
10
23.4911545499396
20
-2.62087681779866
30
0
41
1
10
23.7097950142186
20
-2.54161176139488
30
0
41
1
10
23.9765303086265
20
-2.43972189647033
30
0
41
1
10
24.0249686832339
20
-2.42100649082261
30
0
41
1
10
24.0733893307299
20
-2.40209752537262
30
0
0
SPLINE
5
BB
100
AcDbEntity
8
1
62
256
6
ByLayer
370
18
48
1
60
0
100
AcDbSpline
70
4
71
3
72
36
73
32
40
0
40
0
40
0
40
0
40
0.0163530598789374
40
0.0163530598789374
40
0.0778309936365036
40
0.0778309936365036
40
0.13930892739407
40
0.13930892739407
40
0.200786861151636
40
0.200786861151636
40
0.262264794909202
40
0.262264794909202
40
0.323742728666768
40
0.323742728666768
40
0.385220662424334
40
0.385220662424334
40
0.508176529939466
40
0.508176529939466
40
0.569654463697032
40
0.569654463697032
40
0.631132397454598
40
0.631132397454598
40
0.692610331212164
40
0.692610331212164
40
0.754088264969731
40
0.754088264969731
40
0.877044132484866
40
0.877044132484866
40
0.938522066242433
40
0.938522066242433
40
1
40
1
40
1
40
1
41
1
10
40.0806004408476
20
3.66276481002262
30
0
41
1
10
40.1384411302056
20
3.6624806510269
30
0
41
1
10
40.196288518352
20
3.66183034228158
30
0
41
1
10
40.4716375999244
20
3.65695935347006
30
0
41
1
10
40.6893604121155
20
3.64717062154423
30
0
41
1
10
41.124718898283
20
3.61614644722602
30
0
41
1
10
41.3422860784298
20
3.59511924686515
30
0
41
1
10
41.7771353346824
20
3.54375488273857
30
0
41
1
10
41.9943976879564
20
3.51326055479461
30
0
41
1
10
42.4286268011568
20
3.44039555407065
30
0
41
1
10
42.6457676478099
20
3.39847659876395
30
0
41
1
10
43.081031444697
20
3.30589812217161
30
0
41
1
10
43.2992046803124
20
3.25551221281884
30
0
41
1
10
43.7342265349399
20
3.14417944309977
30
0
41
1
10
43.9511082806383
20
3.08290704981636
30
0
41
1
10
44.602028470312
20
2.88596100945571
30
0
41
1
10
45.0363973800862
20
2.73759309168324
30
0
41
1
10
45.6886152238001
20
2.49076045051604
30
0
41
1
10
45.9062714919793
20
2.40493565275173
30
0
41
1
10
46.3409394109996
20
2.22735909671155
30
0
41
1
10
46.5580528203029
20
2.13520765768237
30
0
41
1
10
46.9919029813365
20
1.94384834615264
30
0
41
1
10
47.2085286337223
20
1.84455175601892
30
0
41
1
10
47.6426529328304
20
1.64163356847925
30
0
41
1
10
47.8601003264056
20
1.53781586204241
30
0
41
1
10
48.5132195251105
20
1.21883867656513
30
0
41
1
10
48.9464125631168
20
0.997124598993565
30
0
41
1
10
49.5974107198812
20
0.659643859390201
30
0
41
1
10
49.8144587568354
20
0.545975918612953
30
0
41
1
10
50.2487089358602
20
0.316429164970515
30
0
41
1
10
50.4660489278687
20
0.200295607198399
30
0
41
1
10
50.6834440756285
20
0.0846307687917545
30
0
0
SPLINE
5
BC
100
AcDbEntity
8
1
62
256
6
ByLayer
370
18
48
1
60
0
100
AcDbSpline
70
4
71
3
72
8
73
4
40
0
40
0
40
0
40
0
40
1
40
1
40
1
40
1
41
1
10
53.743763621179
20
3.72718435774337
30
0
41
1
10
53.7254359861605
20
3.74893136244114
30
0
41
1
10
53.708342130764
20
3.76779682887593
30
0
41
1
10
53.6924186088266
20
3.78378719518375
30
0
0
SPLINE
5
BD
100
AcDbEntity
8
1
62
256
6
ByLayer
370
18
48
1
60
0
100
AcDbSpline
70
4
71
3
72
8
73
4
40
0
40
0
40
0
40
0
40
1
40
1
40
1
40
1
41
1
10
54.8419584826673
20
-0.878862907616423
30
0
41
1
10
54.87639624764
20
-0.703258825467032
30
0
41
1
10
54.9081011221533
20
-0.527572589382459
30
0
41
1
10
54.9370489999994
20
-0.351803474701512
30
0
0
SPLINE
5
BE
100
AcDbEntity
8
1
62
256
6
ByLayer
370
13
48
1
60
0
100
AcDbSpline
70
4
71
3
72
30
73
26
40
0
40
0
40
0
40
0
40
0.0625
40
0.0625
40
0.125
40
0.125
40
0.25
40
0.25
40
0.3125
40
0.3125
40
0.375
40
0.375
40
0.5
40
0.5
40
0.5625
40
0.5625
40
0.625
40
0.625
40
0.75
40
0.75
40
0.8125
40
0.8125
40
0.875
40
0.875
40
1
40
1
40
1
40
1
41
1
10
4.25082871254546
20
-2.72817626125328
30
0
41
1
10
4.25086323382195
20
-2.66021686205212
30
0
41
1
10
4.25089639695921
20
-2.58859717345166
30
0
41
1
10
4.25095972286337
20
-2.43972928099217
30
0
41
1
10
4.25098988346247
20
-2.36253685034805
30
0
41
1
10
4.25107662810493
20
-2.12289508138704
30
0
41
1
10
4.25112949329585
20
-1.95244161641051
30
0
41
1
10
4.25120394132466
20
-1.68044690959724
30
0
41
1
10
4.25122804266482
20
-1.58660887369777
30
0
41
1
10
4.2512741949875
20
-1.3966735551717
30
0
41
1
10
4.25129632391307
20
-1.30034158899636
30
0
41
1
10
4.25136053451442
20
-1.00734446463821
30
0
41
1
10
4.251400472802
20
-0.806708379950862
30
0
41
1
10
4.25145802588136
20
-0.497609714449652
30
0
41
1
10
4.25147684708261
20
-0.392964318848442
30
0
41
1
10
4.25151320802428
20
-0.184971609244428
30
0
41
1
10
4.25153084004495
20
-0.0811440935266603
30
0
41
1
10
4.25158238917308
20
0.229841716067142
30
0
41
1
10
4.25161500567827
20
0.436507085071241
30
0
41
1
10
4.2516616283072
20
0.745487732889245
30
0
41
1
10
4.25167674323774
20
0.848140420559417
30
0
41
1
10
4.25170552921864
20
1.04902532398282
30
0
41
1
10
4.25171927909122
20
1.14777512142231
30
0
41
1
10
4.25175844104231
20
1.4390359445259
30
0
41
1
10
4.25178182158049
20
1.6265969244615
30
0
41
1
10
4.25180142045357
20
1.80732366513357
30
0
0
SPLINE
5
BF
100
AcDbEntity
8
1
62
256
6
ByLayer
370
18
48
1
60
0
100
AcDbSpline
70
4
71
3
72
16
73
12
40
0
40
0
40
0
40
0
40
0.25
40
0.25
40
0.499999999999999
40
0.499999999999999
40
0.749999999999999
40
0.749999999999999
40
0.874999999999999
40
0.874999999999999
40
1
40
1
40
1
40
1
41
1
10
53.6000539324491
20
0.933393769626093
30
0
41
1
10
53.5881263952299
20
0.966220191932422
30
0
41
1
10
53.5784354845124
20
0.999452287489021
30
0
41
1
10
53.5653106577285
20
1.06704614531418
30
0
41
1
10
53.5616874955457
20
1.10162508337231
30
0
41
1
10
53.5659202699038
20
1.17175930464862
30
0
41
1
10
53.573790630515
20
1.20678311664696
30
0
41
1
10
53.6025521968312
20
1.25061643622948
30
0
41
1
10
53.6148865882804
20
1.26319578606521
30
0
41
1
10
53.6439506911514
20
1.28199886458626
30
0
41
1
10
53.6603240330466
20
1.28807298102851
30
0
41
1
10
53.6774184962152
20
1.29130133142789
30
0
0
SPLINE
5
C0
100
AcDbEntity
8
1
62
256
6
ByLayer
370
18
48
1
60
0
100
AcDbSpline
70
4
71
3
72
16
73
12
40
0
40
0
40
0
40
0
40
0.66172175526278
40
0.66172175526278
40
0.859198832458436
40
0.859198832458436
40
0.908568101757357
40
0.908568101757357
40
0.957937371056279
40
0.957937371056279
40
1
40
1
40
1
40
1
41
1
10
4.30347988452067
20
-3.7313464452119
30
0
41
1
10
3.99979444264264
20
-3.73062592282397
30
0
41
1
10
3.69548888094514
20
-3.72958382727845
30
0
41
1
10
3.29987386181699
20
-3.72830820644654
30
0
41
1
10
3.20889305048519
20
-3.72801813807902
30
0
41
1
10
3.0951550655225
20
-3.72766679634563
30
0
41
1
10
3.07227043934222
20
-3.72759373173341
30
0
41
1
10
3.0269570480383
20
-3.72761405053456
30
0
41
1
10
3.00482404017782
20
-3.72770056808167
30
0
41
1
10
2.96909229279757
20
-3.72793598991802
30
0
41
1
10
2.95273212039262
20
-3.72799985394855
30
0
41
1
10
2.93645349543738
20
-3.72801615655567
30
0
0
SPLINE
5
C1
100
AcDbEntity
8
1
62
256
6
ByLayer
370
18
48
1
60
0
100
AcDbSpline
70
4
71
3
72
16
73
12
40
0
40
0
40
0
40
0
40
0.384900372220097
40
0.384900372220097
40
0.548621338037628
40
0.548621338037628
40
0.712342303855158
40
0.712342303855158
40
0.876063269672689
40
0.876063269672689
40
1
40
1
40
1
40
1
41
1
10
30.875325746178
20
-3.64129822791043
30
0
41
1
10
30.273522453309
20
-3.64016000224882
30
0
41
1
10
29.6696547467118
20
-3.59776528047021
30
0
41
1
10
28.7997109643429
20
-3.47755607847225
30
0
41
1
10
28.5398718861244
20
-3.43421875536842
30
0
41
1
10
28.0211241671522
20
-3.33355183806236
30
0
41
1
10
27.7618827612802
20
-3.27616405492441
30
0
41
1
10
27.242992631874
20
-3.14776345443306
30
0
41
1
10
26.982923614285
20
-3.07662388434954
30
0
41
1
10
26.5268318156357
20
-2.94084407274818
30
0
41
1
10
26.3308056009331
20
-2.87889239833152
30
0
41
1
10
26.1351090442532
20
-2.81369940653289
30
0
0
SPLINE
5
C2
100
AcDbEntity
8
1
62
256
6
ByLayer
370
13
48
1
60
0
100
AcDbSpline
70
4
71
3
72
24
73
20
40
0
40
0
40
0
40
0
40
0.0176740098908927
40
0.0176740098908927
40
0.308603915457734
40
0.308603915457734
40
0.381336391849444
40
0.381336391849444
40
0.454068868241154
40
0.454068868241154
40
0.599533821024575
40
0.599533821024575
40
0.744998773807995
40
0.744998773807995
40
0.817731250199705
40
0.817731250199705
40
0.890463726591414
40
0.890463726591414
40
1
40
1
40
1
40
1
41
1
10
26.1351090442956
20
-2.81369940654696
30
0
41
1
10
26.0722895889431
20
-2.79277216946605
30
0
41
1
10
26.0095041028138
20
-2.77151093464897
30
0
41
1
10
24.9137200305547
20
-2.39456021968968
30
0
41
1
10
23.8884189789182
20
-1.95071921063484
30
0
41
1
10
22.5893758674086
20
-1.32658278176382
30
0
41
1
10
22.3295231693864
20
-1.19874937704188
30
0
41
1
10
21.8123542609511
20
-0.94013128898834
30
0
41
1
10
21.5545781170204
20
-0.809015014546219
30
0
41
1
10
20.782643627587
20
-0.412260890280692
30
0
41
1
10
20.2697541658855
20
-0.14346074922338
30
0
41
1
10
19.2422223745243
20
0.392530642239194
30
0
41
1
10
18.7276160038716
20
0.659788866436173
30
0
41
1
10
17.9501990505194
20
1.0512587290203
30
0
41
1
10
17.6894665836239
20
1.18054179925395
30
0
41
1
10
17.1705224613002
20
1.43231446160769
30
0
41
1
10
16.9119821641092
20
1.55488849639804
30
0
41
1
10
16.2655466099681
20
1.8524211154033
30
0
41
1
10
15.8784204099976
20
2.02254658206056
30
0
41
1
10
15.4915026075882
20
2.18226571028853
30
0
0
SPLINE
5
C3
100
AcDbEntity
8
1
62
256
6
ByLayer
370
13
48
1
60
0
100
AcDbSpline
70
4
71
3
72
8
73
4
40
0
40
0
40
0
40
0
40
1
40
1
40
1
40
1
41
1
10
4.05669819688515
20
-2.83808823656983
30
0
41
1
10
4.07695349686003
20
-2.84274122330638
30
0
41
1
10
4.10221342631823
20
-2.84668053863402
30
0
41
1
10
4.13226896514843
20
-2.84963087195015
30
0
0
SPLINE
5
C4
100
AcDbEntity
8
1
62
256
6
ByLayer
370
18
48
1
60
0
100
AcDbSpline
70
4
71
3
72
8
73
4
40
0
40
0
40
0
40
0
40
1
40
1
40
1
40
1
41
1
10
54.9421103891495
20
-0.0969030175962473
30
0
41
1
10
54.8068797049793
20
-0.468446268771658
30
0
41
1
10
54.671649020809
20
-0.839989519947011
30
0
41
1
10
54.5364183366388
20
-1.21153277112236
30
0
0
SPLINE
5
C5
100
AcDbEntity
8
1
62
256
6
ByLayer
370
18
48
1
60
0
100
AcDbSpline
70
4
71
3
72
40
73
36
40
0
40
0
40
0
40
0
40
0.0671072785599677
40
0.0671072785599677
40
0.100660917839951
40
0.100660917839951
40
0.134214557119934
40
0.134214557119934
40
0.2013218356799
40
0.2013218356799
40
0.234875474959883
40
0.234875474959883
40
0.268429114239866
40
0.268429114239866
40
0.402643671359798
40
0.402643671359798
40
0.436197310639781
40
0.436197310639781
40
0.469750949919763
40
0.469750949919763
40
0.536858228479728
40
0.536858228479728
40
0.671072785599656
40
0.671072785599656
40
0.73818006415962
40
0.73818006415962
40
0.805287342719585
40
0.805287342719585
40
0.872394621279549
40
0.872394621279549
40
0.905948260559531
40
0.905948260559531
40
0.939501899839513
40
0.939501899839513
40
1
40
1
40
1
40
1
41
1
10
53.6924186088266
20
-3.78378719518375
30
0
41
1
10
53.1747514302106
20
-3.83579559089586
30
0
41
1
10
52.6579235285968
20
-3.85567796478154
30
0
41
1
10
51.879983854541
20
-3.83703379636393
30
0
41
1
10
51.6209860426067
20
-3.82272247174566
30
0
41
1
10
51.1049271285237
20
-3.7784204993217
30
0
41
1
10
50.8475347450791
20
-3.74843156666293
30
0
41
1
10
50.0763663802511
20
-3.63553268443729
30
0
41
1
10
49.5633755414718
20
-3.52976063802754
30
0
41
1
10
48.7909942356637
20
-3.32838397244794
30
0
41
1
10
48.5330595079438
20
-3.25413733697667
30
0
41
1
10
48.015530532326
20
-3.09187080110908
30
0
41
1
10
47.7555467050538
20
-3.00366566244836
30
0
41
1
10
46.4635359562932
20
-2.5351370902446
30
0
41
1
10
45.4449107348358
20
-2.06926046865689
30
0
41
1
10
44.160866019309
20
-1.41898008884931
30
0
41
1
10
43.9035157859155
20
-1.28553997746013
30
0
41
1
10
43.3870191608073
20
-1.01301839031365
30
0
41
1
10
43.1271284612418
20
-0.873506624383595
30
0
41
1
10
42.3497018738054
20
-0.451563979395559
30
0
41
1
10
41.835525378501
20
-0.166903170004247
30
0
41
1
10
40.296922609684
20
0.681768664528448
30
0
41
1
10
39.2760499482043
20
1.23975048763617
30
0
41
1
10
37.7171633939555
20
2.00122615485151
30
0
41
1
10
37.2012332644573
20
2.23795835650563
30
0
41
1
10
36.1738411259493
20
2.66886898955542
30
0
41
1
10
35.6618106854596
20
2.86306991486896
30
0
41
1
10
34.6353566446736
20
3.20193152158126
30
0
41
1
10
34.1209389525703
20
3.34659656433283
30
0
41
1
10
33.3431045430868
20
3.52113967693606
30
0
41
1
10
33.0826062501154
20
3.57223028614965
30
0
41
1
10
32.5649413976649
20
3.65848649033245
30
0
41
1
10
32.307006298767
20
3.69385058487782
30
0
41
1
10
31.5856180189665
20
3.77118631920908
30
0
41
1
10
31.123360334123
20
3.79557394880442
30
0
41
1
10
30.6607467681346
20
3.79456669649954
30
0
0
SPLINE
5
C6
100
AcDbEntity
8
1
62
256
6
ByLayer
370
18
48
1
60
0
100
AcDbSpline
70
4
71
3
72
16
73
12
40
0
40
0
40
0
40
0
40
0.0734306477948719
40
0.0734306477948719
40
0.536715323897434
40
0.536715323897434
40
0.652536492923077
40
0.652536492923077
40
0.768357661948718
40
0.768357661948718
40
1
40
1
40
1
40
1
41
1
10
10.843076156495
20
-3.6015860157884
30
0
41
1
10
10.678303205548
20
-3.62582188255143
30
0
41
1
10
10.5139235823583
20
-3.64693265247976
30
0
41
1
10
9.3145277039084
20
-3.7783272898223
30
0
41
1
10
8.29073636660752
20
-3.76700835432405
30
0
41
1
10
6.99706309178657
20
-3.59890086577099
30
0
41
1
10
6.73763412291851
20
-3.55758923309884
30
0
41
1
10
6.21664550844855
20
-3.45968117980098
30
0
41
1
10
5.95529281910865
20
-3.40310121180914
30
0
41
1
10
5.17359063296848
20
-3.21268932105301
30
0
41
1
10
4.65334462463704
20
-3.05787751614571
30
0
41
1
10
4.13134323059148
20
-2.87776426455647
30
0
0
SPLINE
5
C7
100
AcDbEntity
8
1
62
256
6
ByLayer
370
18
48
1
60
0
100
AcDbSpline
70
4
71
3
72
18
73
14
40
0
40
0
40
0
40
0
40
0.250000000000016
40
0.250000000000016
40
0.500000000000033
40
0.500000000000033
40
0.625000000000025
40
0.625000000000025
40
0.750000000000016
40
0.750000000000016
40
0.875000000000008
40
0.875000000000008
40
1
40
1
40
1
40
1
41
1
10
53.6774184962156
20
1.29130133142794
30
0
41
1
10
53.7665023469428
20
1.30812513468527
30
0
41
1
10
53.8547090060079
20
1.32749375381971
30
0
41
1
10
54.0282641095547
20
1.37481271577624
30
0
41
1
10
54.1140743525863
20
1.4027339163047
30
0
41
1
10
54.2373731129206
20
1.45658148757749
30
0
41
1
10
54.2773764655653
20
1.47648268818583
30
0
41
1
10
54.3541594781302
20
1.52215693891128
30
0
41
1
10
54.3907882445149
20
1.54789664045035
30
0
41
1
10
54.4566700488648
20
1.6064621805306
30
0
41
1
10
54.4865432811149
20
1.63993680149005
30
0
41
1
10
54.5342438264823
20
1.71593237707606
30
0
41
1
10
54.5516307050571
20
1.75809130627303
30
0
41
1
10
54.5611503569476
20
1.80266225477999
30
0
0
SPLINE
5
C8
100
AcDbEntity
8
1
62
256
6
ByLayer
370
18
48
1
60
0
100
AcDbSpline
70
4
71
3
72
10
73
6
40
0
40
0
40
0
40
0
40
0.5
40
0.5
40
1
40
1
40
1
40
1
41
1
10
54.9499597048746
20
-0.267777646151103
30
0
41
1
10
54.9549802504743
20
-0.234567576733895
30
0
41
1
10
54.9618030669811
20
-0.198681245348553
30
0
41
1
10
54.9785087847868
20
-0.122367895183203
30
0
41
1
10
54.9885168874989
20
-0.0815139503858973
30
0
41
1
10
54.9999252582917
20
-0.0393861481207978
30
0
0
SPLINE
5
C9
100
AcDbEntity
8
1
62
256
6
ByLayer
370
18
48
1
60
0
100
AcDbSpline
70
4
71
3
72
54
73
50
40
0
40
0
40
0
40
0
40
0.0624999999999964
40
0.0624999999999964
40
0.124999999999993
40
0.124999999999993
40
0.249999999999986
40
0.249999999999986
40
0.374999999999978
40
0.374999999999978
40
0.499999999999971
40
0.499999999999971
40
0.624999999999964
40
0.624999999999964
40
0.687499999999961
40
0.687499999999961
40
0.70312499999996
40
0.70312499999996
40
0.70703124999996
40
0.70703124999996
40
0.71093749999996
40
0.71093749999996
40
0.718749999999961
40
0.718749999999961
40
0.749999999999965
40
0.749999999999965
40
0.765624999999967
40
0.765624999999967
40
0.781249999999969
40
0.781249999999969
40
0.796874999999971
40
0.796874999999971
40
0.812499999999973
40
0.812499999999973
40
0.820312499999974
40
0.820312499999974
40
0.828124999999975
40
0.828124999999975
40
0.843749999999977
40
0.843749999999977
40
0.859374999999978
40
0.859374999999978
40
0.87499999999998
40
0.87499999999998
40
0.906249999999985
40
0.906249999999985
40
0.93749999999999
40
0.93749999999999
40
1
40
1
40
1
40
1
41
1
10
14.7311921208
20
2.29655923048446
30
0
41
1
10
14.4117739991436
20
2.43373981607243
30
0
41
1
10
14.0891414535074
20
2.5586301219387
30
0
41
1
10
13.4373131585467
20
2.78641864513418
30
0
41
1
10
13.1079050485543
20
2.8892682639607
30
0
41
1
10
12.1188851083206
20
3.16460327035387
30
0
41
1
10
11.4550708246849
20
3.3050525171079
30
0
41
1
10
10.1115539730498
20
3.517212507436
30
0
41
1
10
9.43178656290104
20
3.58879771085975
30
0
41
1
10
8.05075880607339
20
3.68421377503262
30
0
41
1
10
7.34922541476564
20
3.70823056938536
30
0
41
1
10
5.92285033822088
20
3.73255517994116
30
0
41
1
10
5.2043289887761
20
3.73311480122672
30
0
41
1
10
4.11767825043498
20
3.73103190431215
30
0
41
1
10
3.75451191922502
20
3.72977414112788
30
0
41
1
10
3.29987386152124
20
3.7283082064456
30
0
41
1
10
3.20889305018721
20
3.72801813807809
30
0
41
1
10
3.0951550652218
20
3.72766679634469
30
0
41
1
10
3.07227043903319
20
3.72759373173295
30
0
41
1
10
3.02695704774638
20
3.72761405053524
30
0
41
1
10
3.00482403991836
20
3.72770056808392
30
0
41
1
10
2.94694324691349
20
3.72808192090096
30
0
41
1
10
2.90878573518384
20
3.72809127428056
30
0
41
1
10
2.72037749603118
20
3.72671176481711
30
0
41
1
10
2.57775787014811
20
3.72123186602562
30
0
41
1
10
2.38656548082656
20
3.70083326285786
30
0
41
1
10
2.32647897583181
20
3.69196013592426
30
0
41
1
10
2.21654652160223
20
3.66825246574223
30
0
41
1
10
2.16803087260436
20
3.65369101549075
30
0
41
1
10
2.08693103216265
20
3.61740374035639
30
0
41
1
10
2.05423174907645
20
3.59529983313547
30
0
41
1
10
2.01106897170703
20
3.5442448817642
30
0
41
1
10
2.00005450742029
20
3.51522305695235
30
0
41
1
10
1.99997580840983
20
3.46585486885761
30
0
41
1
10
2.0027303948394
20
3.44852367706346
30
0
41
1
10
2.01327814783903
20
3.41288977034805
30
0
41
1
10
2.02106678800431
20
3.39448366965158
30
0
41
1
10
2.05129760565674
20
3.33757482786646
30
0
41
1
10
2.08090735775318
20
3.29711665298291
30
0
41
1
10
2.15249294888508
20
3.21514830074159
30
0
41
1
10
2.19459119651987
20
3.1732906016274
30
0
41
1
10
2.28836558385154
20
3.08798120734807
30
0
41
1
10
2.34035893336895
20
3.04430793825335
30
0
41
1
10
2.5046742586745
20
2.9135133040179
30
0
41
1
10
2.62557393732055
20
2.82605401137258
30
0
41
1
10
2.88120866804189
20
2.64973541416879
30
0
41
1
10
3.01671442816428
20
2.56050586299867
30
0
41
1
10
3.43342683012938
20
2.2931934129505
30
0
41
1
10
3.72340700098312
20
2.11596034292381
30
0
41
1
10
4.01997767523795
20
1.93761078405856
30
0
0
SPLINE
5
CA
100
AcDbEntity
8
1
62
256
6
ByLayer
370
18
48
1
60
0
100
AcDbSpline
70
4
71
3
72
8
73
4
40
0
40
0
40
0
40
0
40
1
40
1
40
1
40
1
41
1
10
53.6327542298227
20
-3.69432949938132
30
0
41
1
10
53.6372277293932
20
-3.69548309430508
30
0
41
1
10
53.6419466984352
20
-3.69592329106985
30
0
41
1
10
53.646917154548
20
-3.69565445743513
30
0
0
SPLINE
5
CB
100
AcDbEntity
8
1
62
256
6
ByLayer
370
18
48
1
60
0
100
AcDbSpline
70
4
71
3
72
8
73
4
40
0
40
0
40
0
40
0
40
1
40
1
40
1
40
1
41
1
10
53.7091822805328
20
-3.6665232139504
30
0
41
1
10
53.716231756452
20
-3.6611300097843
30
0
41
1
10
53.7235726179166
20
-3.65499570708175
30
0
41
1
10
53.731211510837
20
-3.64812512964997
30
0
0
SPLINE
5
CC
100
AcDbEntity
8
1
62
256
6
ByLayer
370
18
48
1
60
0
100
AcDbSpline
70
4
71
3
72
10
73
6
40
0
40
0
40
0
40
0
40
0.5
40
0.5
40
1
40
1
40
1
40
1
41
1
10
54.9499597048744
20
0.267777646151558
30
0
41
1
10
54.9549808292672
20
0.234563748114766
30
0
41
1
10
54.961804629623
20
0.198672985529413
30
0
41
1
10
54.9785130000212
20
0.122349761485936
30
0
41
1
10
54.9885306491481
20
0.0814631326101107
30
0
41
1
10
54.999925258288
20
0.0393861481339854
30
0
0
SPLINE
5
CD
100
AcDbEntity
8
1
62
256
6
ByLayer
370
13
48
1
60
0
100
AcDbSpline
70
4
71
3
72
8
73
4
40
0
40
0
40
0
40
0
40
1
40
1
40
1
40
1
41
1
10
4.13226896514843
20
-2.84963087195015
30
0
41
1
10
4.15463435474436
20
-2.84805564812137
30
0
41
1
10
4.17887064663347
20
-2.85161690217799
30
0
41
1
10
4.20359068855561
20
-2.85992319041182
30
0
0
SPLINE
5
CE
100
AcDbEntity
8
1
62
256
6
ByLayer
370
18
48
1
60
0
100
AcDbSpline
70
4
71
3
72
14
73
10
40
0
40
0
40
0
40
0
40
0.25
40
0.25
40
0.5
40
0.5
40
0.75
40
0.75
40
1
40
1
40
1
40
1
41
1
10
4.25180142045568
20
1.80732366971588
30
0
41
1
10
4.23037931727953
20
1.820283626292
30
0
41
1
10
4.20848310087999
20
1.83333671646417
30
0
41
1
10
4.16342416327186
20
1.85967413892868
30
0
41
1
10
4.14076363777133
20
1.87265530613763
30
0
41
1
10
4.0972375452975
20
1.89700230402974
30
0
41
1
10
4.07731275991807
20
1.90784150831138
30
0
41
1
10
4.04317442890144
20
1.92594024072542
30
0
41
1
10
4.0296697927775
20
1.93283137646546
30
0
41
1
10
4.01997767522644
20
1.93761078406553
30
0
0
SPLINE
5
CF
100
AcDbEntity
8
1
62
256
6
ByLayer
370
18
48
1
60
0
100
AcDbSpline
70
4
71
3
72
14
73
10
40
0
40
0
40
0
40
0
40
0.25
40
0.25
40
0.5
40
0.5
40
0.75
40
0.75
40
1
40
1
40
1
40
1
41
1
10
53.7312115107994
20
-3.64812512968379
30
0
41
1
10
53.7336846725834
20
-3.64590071710046
30
0
41
1
10
53.7354945973212
20
-3.64542502625119
30
0
41
1
10
53.7373793642889
20
-3.64900381044734
30
0
41
1
10
53.7374006969251
20
-3.6531732921998
30
0
41
1
10
53.7347695046984
20
-3.66736140953537
30
0
41
1
10
53.7320823080335
20
-3.67737413221255
30
0
41
1
10
53.7244673879114
20
-3.70095854762519
30
0
41
1
10
53.7195841111278
20
-3.71441253583214
30
0
41
1
10
53.7144029771932
20
-3.72765311830969
30
0
0
SPLINE
5
D0
100
AcDbEntity
8
1
62
256
6
ByLayer
370
18
48
1
60
0
100
AcDbSpline
70
4
71
3
72
12
73
8
40
0
40
0
40
0
40
0
40
0.249999999999998
40
0.249999999999998
40
0.499999999999995
40
0.499999999999995
40
1
40
1
40
1
40
1
41
1
10
54.5611503569475
20
1.80266225477999
30
0
41
1
10
54.592795036961
20
1.71862837750865
30
0
41
1
10
54.6228812375707
20
1.6355564949678
30
0
41
1
10
54.6795724661427
20
1.47133787317131
30
0
41
1
10
54.7063948699957
20
1.38945508089836
30
0
41
1
10
54.7786590519101
20
1.15381048543156
30
0
41
1
10
54.8163739549088
20
1.00932281167314
30
0
41
1
10
54.8419584826673
20
0.878862907616423
30
0
0
SPLINE
5
D1
100
AcDbEntity
8
1
62
256
6
ByLayer
370
18
48
1
60
0
100
AcDbSpline
70
4
71
3
72
22
73
18
40
0
40
0
40
0
40
0
40
0.125
40
0.125
40
0.25
40
0.25
40
0.375
40
0.375
40
0.5
40
0.5
40
0.625
40
0.625
40
0.75
40
0.75
40
0.875
40
0.875
40
1
40
1
40
1
40
1
41
1
10
54.5364183366399
20
-1.21153277112325
30
0
41
1
10
54.5384854565608
20
-1.22954387425364
30
0
41
1
10
54.5375746691263
20
-1.25363596758808
30
0
41
1
10
54.5292310135067
20
-1.3149725765802
30
0
41
1
10
54.5220254035337
20
-1.35050473896274
30
0
41
1
10
54.5016599482897
20
-1.43104623144237
30
0
41
1
10
54.4890260326443
20
-1.47397182519811
30
0
41
1
10
54.459503002073
20
-1.56426452604288
30
0
41
1
10
54.443302213072
20
-1.60954782930375
30
0
41
1
10
54.4085075315077
20
-1.70037562947326
30
0
41
1
10
54.3905256493449
20
-1.74430516878931
30
0
41
1
10
54.3539048247634
20
-1.82894017213411
30
0
41
1
10
54.3354660940374
20
-1.86913950237761
30
0
41
1
10
54.2995692417334
20
-1.9431837282323
30
0
41
1
10
54.28178884882
20
-1.97765937809703
30
0
41
1
10
54.2484626404118
20
-2.0380138049081
30
0
41
1
10
54.2327246037737
20
-2.06432329503173
30
0
41
1
10
54.2179553214847
20
-2.08650271419117
30
0
0
SPLINE
5
D2
100
AcDbEntity
8
1
62
256
6
ByLayer
370
18
48
1
60
0
100
AcDbSpline
70
4
71
3
72
18
73
14
40
0
40
0
40
0
40
0
40
0.249999999999997
40
0.249999999999997
40
0.374999999999996
40
0.374999999999996
40
0.499999999999995
40
0.499999999999995
40
0.749999999999996
40
0.749999999999996
40
0.874999999999998
40
0.874999999999998
40
1
40
1
40
1
40
1
41
1
10
53.6327542298199
20
-3.69432949938132
30
0
41
1
10
53.550309465291
20
-3.68847359655055
30
0
41
1
10
53.4737206569155
20
-3.66529493633013
30
0
41
1
10
53.3684639601445
20
-3.60205033291985
30
0
41
1
10
53.3349648402148
20
-3.57608705610426
30
0
41
1
10
53.2727438074672
20
-3.51536935721313
30
0
41
1
10
53.2438278723152
20
-3.48052618454187
30
0
41
1
10
53.16371537014
20
-3.36243834190478
30
0
41
1
10
53.1190920906268
20
-3.26576206796824
30
0
41
1
10
53.0665350922063
20
-3.09136836420871
30
0
41
1
10
53.0514658421434
20
-3.02824928754271
30
0
41
1
10
53.0269464867626
20
-2.89447466034807
30
0
41
1
10
53.0173952934634
20
-2.8235282317147
30
0
41
1
10
53.0105870739222
20
-2.74847099998382
30
0
0
SPLINE
5
D3
100
AcDbEntity
8
1
62
256
6
ByLayer
370
13
48
1
60
0
100
AcDbSpline
70
4
71
3
72
18
73
14
40
0
40
0
40
0
40
0
40
0.248385505266232
40
0.248385505266232
40
0.496771010532464
40
0.496771010532464
40
0.62096376316558
40
0.62096376316558
40
0.745156515798696
40
0.745156515798696
40
0.993542021064925
40
0.993542021064925
40
1
40
1
40
1
40
1
41
1
10
4.20359068855558
20
-2.85992319041182
30
0
41
1
10
4.72488383841684
20
-3.0350851569938
30
0
41
1
10
5.24318481486768
20
-3.18442538332357
30
0
41
1
10
6.27917209493063
20
-3.42820285907695
30
0
41
1
10
6.79688297119165
20
-3.52263595939638
30
0
41
1
10
7.57751934623712
20
-3.61903127216161
30
0
41
1
10
7.83885478464254
20
-3.64363792922623
30
0
41
1
10
8.35854991200617
20
-3.67709731106433
30
0
41
1
10
8.61744110132301
20
-3.68603998802317
30
0
41
1
10
9.39222532874965
20
-3.68973024212824
30
0
41
1
10
9.90628135353629
20
-3.66143333404406
30
0
41
1
10
10.4340121230256
20
-3.60157705164079
30
0
41
1
10
10.4473855696064
20
-3.60004002862198
30
0
41
1
10
10.4607593071112
20
-3.5984828162083
30
0
0
SPLINE
5
D4
100
AcDbEntity
8
1
62
256
6
ByLayer
370
18
48
1
60
0
100
AcDbSpline
70
4
71
3
72
22
73
18
40
0
40
0
40
0
40
0
40
0.211197593541948
40
0.211197593541948
40
0.282069333319474
40
0.282069333319474
40
0.352941073097
40
0.352941073097
40
0.494684552652054
40
0.494684552652054
40
0.636428032207109
40
0.636428032207109
40
0.707299771984637
40
0.707299771984637
40
0.778171511762165
40
0.778171511762165
40
1
40
1
40
1
40
1
41
1
10
35.992148153371
20
2.69282142683758
30
0
41
1
10
36.7569969088088
20
2.40539487294419
30
0
41
1
10
37.5182570202949
20
2.06957813796976
30
0
41
1
10
38.5426927390283
20
1.57458682453569
30
0
41
1
10
38.8007692529576
20
1.44636760212327
30
0
41
1
10
39.318969296268
20
1.18318321746264
30
0
41
1
10
39.5789772753489
20
1.0482133535638
30
0
41
1
10
40.3538409364494
20
0.639897596369934
30
0
41
1
10
40.8669446342126
20
0.36217719668727
30
0
41
1
10
41.8912217260693
20
-0.194873048212003
30
0
41
1
10
42.4026191351885
20
-0.473780636628817
30
0
41
1
10
43.1726116486399
20
-0.885188991840323
30
0
41
1
10
43.4298127259462
20
-1.02106510414657
30
0
41
1
10
43.9459820814562
20
-1.28899312460882
30
0
41
1
10
44.2056702190093
20
-1.4214157841908
30
0
41
1
10
45.2755248933445
20
-1.95387995908271
30
0
41
1
10
46.0757195992219
20
-2.32079893563497
30
0
41
1
10
46.8763188581457
20
-2.63536466718642
30
0
0
SPLINE
5
D5
100
AcDbEntity
8
1
62
256
6
ByLayer
370
13
48
1
60
0
100
AcDbSpline
70
4
71
3
72
20
73
16
40
0
40
0
40
0
40
0
40
0.0980836327900355
40
0.0980836327900355
40
0.323562724592527
40
0.323562724592527
40
0.436302270493772
40
0.436302270493772
40
0.549041816395018
40
0.549041816395018
40
0.774520908197509
40
0.774520908197509
40
0.887260454098755
40
0.887260454098755
40
1
40
1
40
1
40
1
41
1
10
46.8763179273054
20
-2.63536430144717
30
0
41
1
10
47.0988492860524
20
-2.72279974175626
30
0
41
1
10
47.3214119000484
20
-2.80619039533741
30
0
41
1
10
48.0564952849369
20
-3.06682550242709
30
0
41
1
10
48.570164103361
20
-3.22547570655971
30
0
41
1
10
49.3471591490552
20
-3.42299067845966
30
0
41
1
10
49.6064546146642
20
-3.48185442081976
30
0
41
1
10
50.1220802456923
20
-3.58429928295288
30
0
41
1
10
50.3790443206046
20
-3.6280365961897
30
0
41
1
10
51.1485777924124
20
-3.73643755173578
30
0
41
1
10
51.6598556194124
20
-3.77831778864561
30
0
41
1
10
52.4282050630567
20
-3.79455204823071
30
0
41
1
10
52.6845805700953
20
-3.79219397002404
30
0
41
1
10
53.1984760521513
20
-3.77173945865246
30
0
41
1
10
53.4560446943317
20
-3.75327384074464
30
0
41
1
10
53.7144029771913
20
-3.72765311830989
30
0
0
SPLINE
5
D6
100
AcDbEntity
8
1
62
256
6
ByLayer
370
13
48
1
60
0
100
AcDbSpline
70
4
71
3
72
8
73
4
40
0
40
0
40
0
40
0
40
1
40
1
40
1
40
1
41
1
10
4.1313432305914
20
-2.87776426455491
30
0
41
1
10
4.13165077194827
20
-2.86838716423895
30
0
41
1
10
4.13195934978131
20
-2.85900937004283
30
0
41
1
10
4.13226896514843
20
-2.84963087195013
30
0
0
SPLINE
5
D7
100
AcDbEntity
8
1
62
256
6
ByLayer
370
18
48
1
60
0
100
AcDbSpline
70
4
71
3
72
26
73
22
40
0
40
0
40
0
40
0
40
0.125
40
0.125
40
0.25
40
0.25
40
0.375
40
0.375
40
0.5
40
0.5
40
0.5625
40
0.5625
40
0.625
40
0.625
40
0.75
40
0.75
40
0.8125
40
0.8125
40
0.875
40
0.875
40
1
40
1
40
1
40
1
41
1
10
4.01951342335366
20
-2.77288445116977
30
0
41
1
10
4.01954612612832
20
-2.62790022520201
30
0
41
1
10
4.01957637051902
20
-2.46821390892811
30
0
41
1
10
4.01963173267052
20
-2.12976363857612
30
0
41
1
10
4.01965702840278
20
-1.95044965736864
30
0
41
1
10
4.01970444767059
20
-1.57165304560417
30
0
41
1
10
4.01972669012582
20
-1.37063186981553
30
0
41
1
10
4.01976783697364
20
-0.962728568465593
30
0
41
1
10
4.01978695230386
20
-0.754397601343896
30
0
41
1
10
4.01981436267823
20
-0.435306017446635
30
0
41
1
10
4.01982331306576
20
-0.327483847500133
30
0
41
1
10
4.01984076216178
20
-0.111145491160698
30
0
41
1
10
4.01984919770166
20
-0.003442127459266
30
0
41
1
10
4.01987379174199
20
0.318311282304677
30
0
41
1
10
4.01988925910172
20
0.53101447281054
30
0
41
1
10
4.01991126696683
20
0.847347874614627
30
0
41
1
10
4.01991842948519
20
0.952807373237505
30
0
41
1
10
4.01993215275857
20
1.16037313005
30
0
41
1
10
4.0199386937451
20
1.26215308482648
30
0
41
1
10
4.01995729938966
20
1.56164613771375
30
0
41
1
10
4.01996837152467
20
1.75355506044224
30
0
41
1
10
4.0199776752263
20
1.93761078406567
30
0
0
SPLINE
5
D8
100
AcDbEntity
8
1
62
256
6
ByLayer
370
18
48
1
60
0
100
AcDbSpline
70
4
71
3
72
20
73
16
40
0
40
0
40
0
40
0
40
0.25
40
0.25
40
0.375
40
0.375
40
0.5
40
0.5
40
0.625
40
0.625
40
0.75
40
0.75
40
0.875
40
0.875
40
1
40
1
40
1
40
1
41
1
10
53.743763621179
20
3.72718435774337
30
0
41
1
10
53.8109630584674
20
3.57650298673198
30
0
41
1
10
53.879216472416
20
3.42091369227532
30
0
41
1
10
53.9824519158578
20
3.18537240888889
30
0
41
1
10
54.0170962179487
20
3.10590739819193
30
0
41
1
10
54.0861944090134
20
2.94590419686966
30
0
41
1
10
54.120668026477
20
2.86544707792197
30
0
41
1
10
54.1895222794461
20
2.70395992006769
30
0
41
1
10
54.2239647447217
20
2.62307793223951
30
0
41
1
10
54.2925575725545
20
2.46036762570029
30
0
41
1
10
54.3267397802836
20
2.37842851637277
30
0
41
1
10
54.394569559378
20
2.21418626623051
30
0
41
1
10
54.4281674311295
20
2.13196969246945
30
0
41
1
10
54.4950394129966
20
1.96743566247429
30
0
41
1
10
54.5283164553942
20
1.88511968544273
30
0
41
1
10
54.5611503569475
20
1.80266225477996
30
0
0
SPLINE
5
D9
100
AcDbEntity
8
1
62
256
6
ByLayer
370
18
48
1
60
0
100
AcDbSpline
70
4
71
3
72
38
73
34
40
0
40
0
40
0
40
0
40
0.0625
40
0.0625
40
0.125
40
0.125
40
0.1875
40
0.1875
40
0.25
40
0.25
40
0.3125
40
0.3125
40
0.375
40
0.375
40
0.4375
40
0.4375
40
0.5
40
0.5
40
0.5625
40
0.5625
40
0.625
40
0.625
40
0.6875
40
0.6875
40
0.75
40
0.75
40
0.8125
40
0.8125
40
0.875
40
0.875
40
0.9375
40
0.9375
40
1
40
1
40
1
40
1
41
1
10
54.5364183366388
20
-1.21153277112265
30
0
41
1
10
54.5246550446903
20
-1.19466101008652
30
0
41
1
10
54.5101078402012
20
-1.18360271623538
30
0
41
1
10
54.4773943422997
20
-1.17198701280566
30
0
41
1
10
54.4594071447095
20
-1.17135593893002
30
0
41
1
10
54.4206104575512
20
-1.1790547472053
30
0
41
1
10
54.3997521588696
20
-1.18751867498273
30
0
41
1
10
54.3569375041908
20
-1.21230675667164
30
0
41
1
10
54.3347109600372
20
-1.22871857407637
30
0
41
1
10
54.2890518321881
20
-1.2693380733472
30
0
41
1
10
54.2661213065849
20
-1.2930764811195
30
0
41
1
10
54.2200559164801
20
-1.34749264467843
30
0
41
1
10
54.1966749270542
20
-1.37853375169564
30
0
41
1
10
54.15090676327
20
-1.44702362545576
30
0
41
1
10
54.1287168614932
20
-1.48407579993258
30
0
41
1
10
54.0859778530909
20
-1.56481546115836
30
0
41
1
10
54.0657534570706
20
-1.608011358505
30
0
41
1
10
54.0297988190166
20
-1.69742429368299
30
0
41
1
10
54.0139443491481
20
-1.74414143166635
30
0
41
1
10
53.9896398598066
20
-1.8346959649372
30
0
41
1
10
53.9808684222312
20
-1.87999965671577
30
0
41
1
10
53.9722756256776
20
-1.96126699793973
30
0
41
1
10
53.9722874391541
20
-1.99838430717941
30
0
41
1
10
53.9802127715192
20
-2.06005278100491
30
0
41
1
10
53.9881106519316
20
-2.08525455435077
30
0
41
1
10
54.009636101975
20
-2.12332667995946
30
0
41
1
10
54.0233786534536
20
-2.13652193970816
30
0
41
1
10
54.0546502283713
20
-2.15203097697716
30
0
41
1
10
54.0724706386339
20
-2.15448893603301
30
0
41
1
10
54.1104144512493
20
-2.14998995283114
30
0
41
1
10
54.1308049279774
20
-2.1430683429779
30
0
41
1
10
54.1734519127266
20
-2.12074682633644
30
0
41
1
10
54.195403244476
20
-2.10555386692744
30
0
41
1
10
54.2179553214842
20
-2.08650271419191
30
0
0
SPLINE
5
DA
100
AcDbEntity
8
1
62
256
6
ByLayer
370
18
48
1
60
0
100
AcDbSpline
70
4
71
3
72
50
73
46
40
0
40
0
40
0
40
0
40
0.0789827574985538
40
0.0789827574985538
40
0.118474136247831
40
0.118474136247831
40
0.157965514997109
40
0.157965514997109
40
0.197456893746386
40
0.197456893746386
40
0.236948272495663
40
0.236948272495663
40
0.276439651244941
40
0.276439651244941
40
0.315931029994218
40
0.315931029994218
40
0.394913787492773
40
0.394913787492773
40
0.434405166242051
40
0.434405166242051
40
0.473896544991329
40
0.473896544991329
40
0.513387923740607
40
0.513387923740607
40
0.552879302489885
40
0.552879302489885
40
0.592370681239163
40
0.592370681239163
40
0.631862059988441
40
0.631862059988441
40
0.710844817486997
40
0.710844817486997
40
0.750336196236275
40
0.750336196236275
40
0.789827574985554
40
0.789827574985554
40
0.829318953734833
40
0.829318953734833
40
0.868810332484112
40
0.868810332484112
40
0.908301711233391
40
0.908301711233391
40
0.94779308998267
40
0.94779308998267
40
1
40
1
40
1
40
1
41
1
10
14.7311855136966
20
2.29656208666987
30
0
41
1
10
15.1385111431878
20
2.12047929238852
30
0
41
1
10
15.5467368672196
20
1.93645614979101
30
0
41
1
10
16.1574000812292
20
1.64432328064058
30
0
41
1
10
16.3603575806678
20
1.54367149950627
30
0
41
1
10
16.7673746126615
20
1.33961790801303
30
0
41
1
10
16.9714881507759
20
1.23623606870916
30
0
41
1
10
17.3801753958894
20
1.02615938267294
30
0
41
1
10
17.5841789149009
20
0.919836235038105
30
0
41
1
10
17.9909650166515
20
0.703625885456887
30
0
41
1
10
18.1939167587582
20
0.594036257704545
30
0
41
1
10
18.6008893055834
20
0.375471850135028
30
0
41
1
10
18.8046006346101
20
0.265937111121843
30
0
41
1
10
19.212129186943
20
0.0457279157189703
30
0
41
1
10
19.4158951537264
20
-0.0652696605127687
30
0
41
1
10
20.0269803507294
20
-0.399301869085548
30
0
41
1
10
20.4346379572788
20
-0.617363423545783
30
0
41
1
10
21.044750730986
20
-0.940935730094651
30
0
41
1
10
21.2475431194435
20
-1.04881038510601
30
0
41
1
10
21.6543880103796
20
-1.26025456551946
30
0
41
1
10
21.8584901349852
20
-1.3640512728899
30
0
41
1
10
22.2667840140981
20
-1.56813460395034
30
0
41
1
10
22.4705894662058
20
-1.66816932456857
30
0
41
1
10
22.8769702006944
20
-1.86505864817246
30
0
41
1
10
23.0798286180429
20
-1.96141835940577
30
0
41
1
10
23.4865613925712
20
-2.14738403655875
30
0
41
1
10
23.6901518726677
20
-2.23745860664516
30
0
41
1
10
24.0974309384406
20
-2.41231342395733
30
0
41
1
10
24.30111655277
20
-2.49740223522488
30
0
41
1
10
24.9116170200485
20
-2.74328722363134
30
0
41
1
10
25.3190083542541
20
-2.89113691231907
30
0
41
1
10
25.9286431398109
20
-3.09186592693209
30
0
41
1
10
26.1312948386147
20
-3.15551429851266
30
0
41
1
10
26.5379899724457
20
-3.2736050090742
30
0
41
1
10
26.7420775532834
20
-3.32830885572042
30
0
41
1
10
27.1499646611774
20
-3.42911124529027
30
0
41
1
10
27.3535607329658
20
-3.47515140413975
30
0
41
1
10
27.7595372433841
20
-3.5587361976425
30
0
41
1
10
27.9622881803555
20
-3.59597743665796
30
0
41
1
10
28.3687732446384
20
-3.6606528991021
30
0
41
1
10
28.572246267534
20
-3.6882712223867
30
0
41
1
10
28.9792983768097
20
-3.73420510541027
30
0
41
1
10
29.1829042864944
20
-3.75257646765815
30
0
41
1
10
29.6549872843414
20
-3.78379217855721
30
0
41
1
10
29.9239724843648
20
-3.79291426399038
30
0
41
1
10
30.1927406140043
20
-3.79352574558857
30
0
0
SPLINE
5
DB
100
AcDbEntity
8
1
62
256
6
ByLayer
370
18
48
1
60
0
100
AcDbSpline
70
4
71
3
72
30
73
26
40
0
40
0
40
0
40
0
40
0.0757144199513607
40
0.0757144199513607
40
0.152738218288748
40
0.152738218288748
40
0.229762016626136
40
0.229762016626136
40
0.306785814963524
40
0.306785814963524
40
0.383809613300911
40
0.383809613300911
40
0.537857209975687
40
0.537857209975687
40
0.614881008313072
40
0.614881008313072
40
0.691904806650458
40
0.691904806650458
40
0.768928604987843
40
0.768928604987843
40
0.845952403325229
40
0.845952403325229
40
0.922976201662614
40
0.922976201662614
40
1
40
1
40
1
40
1
41
1
10
45.8455234036018
20
2.42584510723475
30
0
41
1
10
46.0451708511752
20
2.51148825048659
30
0
41
1
10
46.2453484908587
20
2.59386774624576
30
0
41
1
10
46.6480931600059
20
2.75328849601345
30
0
41
1
10
46.850861557517
20
2.83034099997002
30
0
41
1
10
47.2554022976914
20
2.97801378765308
30
0
41
1
10
47.4577006402164
20
3.0479841003017
30
0
41
1
10
47.8632744095571
20
3.17931022535333
30
0
41
1
10
48.0663503687524
20
3.24090456344314
30
0
41
1
10
48.4727195538927
20
3.35625322392102
30
0
41
1
10
48.6756349561012
20
3.41015628253089
30
0
41
1
10
49.2831524711654
20
3.55794718641548
30
0
41
1
10
49.6890332486222
20
3.63732811767093
30
0
41
1
10
50.2966062691655
20
3.7296076341413
30
0
41
1
10
50.4987371774714
20
3.75585851728141
30
0
41
1
10
50.9048033791265
20
3.79822620769932
30
0
41
1
10
51.1081850588953
20
3.8144820396715
30
0
41
1
10
51.5141286215955
20
3.83727035164188
30
0
41
1
10
51.7168404147959
20
3.84382405526227
30
0
41
1
10
52.1214351639208
20
3.84703989402541
30
0
41
1
10
52.3238552846427
20
3.84366227116797
30
0
41
1
10
52.729810533208
20
3.8271707882275
30
0
41
1
10
52.9333281735093
20
3.81403998543422
30
0
41
1
10
53.3392355957452
20
3.77801733263888
30
0
41
1
10
53.5414951207504
20
3.75500529881347
30
0
41
1
10
53.743763621179
20
3.72718435774334
30
0
0
SPLINE
5
DC
100
AcDbEntity
8
1
62
256
6
ByLayer
370
18
48
1
60
0
100
AcDbSpline
70
4
71
3
72
8
73
4
40
0
40
0
40
0
40
0
40
1
40
1
40
1
40
1
41
1
10
54.8419584826673
20
0.878862907616423
30
0
41
1
10
54.8763962476402
20
0.70325882546561
30
0
41
1
10
54.9081011221538
20
0.527572589379645
30
0
41
1
10
54.9370490000001
20
0.351803474697306
30
0
0
SPLINE
5
DD
100
AcDbEntity
8
1
62
256
6
ByLayer
370
18
48
1
60
0
100
AcDbSpline
70
4
71
3
72
78
73
74
40
0
40
0
40
0
40
0
40
0.0396835334747903
40
0.0396835334747903
40
0.0804720732660403
40
0.0804720732660403
40
0.162049152848541
40
0.162049152848541
40
0.243626232431041
40
0.243626232431041
40
0.284414772222291
40
0.284414772222291
40
0.325203312013541
40
0.325203312013541
40
0.406780391596041
40
0.406780391596041
40
0.447568931387291
40
0.447568931387291
40
0.467963201282916
40
0.467963201282916
40
0.478160336230728
40
0.480709619967682
40
0.481984261836158
40
0.482621582770396
40
0.482780913003956
40
0.482780913003956
40
0.482940243237516
40
0.482940243237516
40
0.483258903704635
40
0.483258903704635
40
0.485808187441589
40
0.485808187441589
40
0.488357471178542
40
0.488357471178542
40
0.508751741074172
40
0.508751741074172
40
0.529146010969802
40
0.529146010969802
40
0.569934550761061
40
0.569934550761061
40
0.65151163034358
40
0.65151163034358
40
0.733088709926099
40
0.733088709926099
40
0.753482979821728
40
0.753482979821728
40
0.763680114769543
40
0.763680114769543
40
0.766229398506497
40
0.766229398506497
40
0.766548058973616
40
0.766548058973616
40
0.766707389207176
40
0.766707389207176
40
0.766866719440735
40
0.767504040374973
40
0.76877868224345
40
0.773877249717357
40
0.81466578950861
40
0.81466578950861
40
0.835060059404237
40
0.835060059404237
40
0.855454329299863
40
0.855454329299863
40
0.896242869091116
40
0.896242869091116
40
0.93703140888237
40
0.93703140888237
40
0.957425678777996
40
0.957425678777996
40
0.977819948673623
40
0.977819948673623
40
1
40
1
40
1
40
1
41
1
10
14.7311855170022
20
2.29656208631627
30
0
41
1
10
14.5536381120052
20
2.31555287441668
30
0
41
1
10
14.3756632020421
20
2.32995293328514
30
0
41
1
10
14.0134922311968
20
2.34887998828873
30
0
41
1
10
13.8289762639587
20
2.35311490037975
30
0
41
1
10
13.2745366199506
20
2.34837058918072
30
0
41
1
10
12.9069525299568
20
2.3218800840225
30
0
41
1
10
12.1719340363637
20
2.22187795239867
30
0
41
1
10
11.8044792836255
20
2.14837855386332
30
0
41
1
10
11.2493799746517
20
2.00596673174101
30
0
41
1
10
11.0636851670888
20
1.9531694103317
30
0
41
1
10
10.6902237652929
20
1.83780005418149
30
0
41
1
10
10.5022648026049
20
1.7751386916876
30
0
41
1
10
9.94022827048948
20
1.57642084013759
30
0
41
1
10
9.56600942251063
20
1.42906747044057
30
0
41
1
10
9.00087945571707
20
1.194908952541
30
0
41
1
10
8.81236501095765
20
1.11487462548769
30
0
41
1
10
8.52946023511925
20
0.993315781732008
30
0
41
1
10
8.43508807729475
20
0.952524067573108
30
0
41
1
10
8.29343768817057
20
0.891111255587475
30
0
41
1
10
8.23441134052302
20
0.865481659848257
30
0
41
1
10
8.16946570547532
20
0.837254062264179
30
0
41
1
10
8.14880042814625
20
0.82827016926143
30
0
41
1
10
8.13920555662727
20
0.824098547626534
30
0
41
1
10
8.13551518308671
20
0.822494001387071
30
0
41
1
10
8.13403903090466
20
0.821852177022805
30
0
41
1
10
8.1338223076057
20
0.820969213678751
30
0
41
1
10
8.13480506107035
20
0.818847618375145
30
0
41
1
10
8.13593867200058
20
0.817724752171927
30
0
41
1
10
8.14570788728577
20
0.807794535409982
30
0
41
1
10
8.15619215655985
20
0.800895303383044
30
0
41
1
10
8.1764515197633
20
0.786532447362816
30
0
41
1
10
8.18671931226663
20
0.779551954494565
30
0
41
1
10
8.27957327565116
20
0.717397849406325
30
0
41
1
10
8.36442284657974
20
0.665622969047774
30
0
41
1
10
8.53384550635272
20
0.561954003831431
30
0
41
1
10
8.61889225598262
20
0.510715652235746
30
0
41
1
10
8.87445595796768
20
0.357870629256212
30
0
41
1
10
9.04538864480747
20
0.257183533644223
30
0
41
1
10
9.55883604248805
20
-0.0428771972106006
30
0
41
1
10
9.90174586477201
20
-0.240494699839559
30
0
41
1
10
10.5875320694205
20
-0.632767040764946
30
0
41
1
10
10.9302949501392
20
-0.827798097593444
30
0
41
1
10
11.3559131432359
20
-1.07240650329325
30
0
41
1
10
11.4409320334526
20
-1.12136097683484
30
0
41
1
10
11.5674689190758
20
-1.19546988147852
30
0
41
1
10
11.6096920825979
20
-1.2201140360292
30
0
41
1
10
11.6609638718645
20
-1.2521195776402
30
0
41
1
10
11.6715770639318
20
-1.25840251287187
30
0
41
1
10
11.6817034208017
20
-1.26640255484995
30
0
41
1
10
11.682982254518
20
-1.26731515603507
30
0
41
1
10
11.6837628140312
20
-1.2688123885863
30
0
41
1
10
11.6829970014604
20
-1.26895867630145
30
0
41
1
10
11.6817601813215
20
-1.26919984404515
30
0
41
1
10
11.6786681040547
20
-1.26980199473286
30
0
41
1
10
11.6706283609662
20
-1.27135758928301
30
0
41
1
10
11.6434143591794
20
-1.27654133532343
30
0
41
1
10
11.4602649875414
20
-1.30959175557828
30
0
41
1
10
11.2817252789907
20
-1.32877422821596
30
0
41
1
10
11.042846175191
20
-1.33827644233148
30
0
41
1
10
10.9630152675153
20
-1.33877639794815
30
0
41
1
10
10.8025889349243
20
-1.33436041328591
30
0
41
1
10
10.7218189613804
20
-1.32942140036638
30
0
41
1
10
10.4796981168281
20
-1.30657390326974
30
0
41
1
10
10.3182264147593
20
-1.28066622521706
30
0
41
1
10
9.99258316385453
20
-1.20880129612649
30
0
41
1
10
9.82840351779967
20
-1.16283940013903
30
0
41
1
10
9.57834918919053
20
-1.08012155605263
30
0
41
1
10
9.49436969295397
20
-1.05025665540379
30
0
41
1
10
9.324908806758
20
-0.986197081756387
30
0
41
1
10
9.23920602362173
20
-0.951902781636193
30
0
41
1
10
9.06057648599671
20
-0.876980454231756
30
0
41
1
10
8.96743217990354
20
-0.836023632199016
30
0
41
1
10
8.87413889439659
20
-0.793387861451123
30
0
0
SPLINE
5
DE
100
AcDbEntity
8
1
62
256
6
ByLayer
370
18
48
1
60
0
100
AcDbSpline
70
4
71
3
72
8
73
4
40
0
40
0
40
0
40
0
40
1
40
1
40
1
40
1
41
1
10
4.05669819688546
20
-2.83808823657645
30
0
41
1
10
4.0337412236384
20
-2.81987502503981
30
0
41
1
10
4.01950794435669
20
-2.7971749985322
30
0
41
1
10
4.01951342335366
20
-2.77288445117253
30
0
0
SPLINE
5
DF
100
AcDbEntity
8
1
62
256
6
ByLayer
370
18
48
1
60
0
100
AcDbSpline
70
4
71
3
72
16
73
12
40
0
40
0
40
0
40
0
40
0.249999999999999
40
0.249999999999999
40
0.499999999999998
40
0.499999999999998
40
0.749999999999998
40
0.749999999999998
40
0.874999999999999
40
0.874999999999999
40
1
40
1
40
1
40
1
41
1
10
8.87413584194834
20
-0.793299035720935
30
0
41
1
10
8.47597819890171
20
-0.592408978506
30
0
41
1
10
8.08255592157701
20
-0.384079962098127
30
0
41
1
10
7.30170346279735
20
0.0410315237483019
30
0
41
1
10
6.91440914823599
20
0.257893406473301
30
0
41
1
10
6.14354807787291
20
0.695835490182787
30
0
41
1
10
5.76004720124212
20
0.916943465261284
30
0
41
1
10
5.18749249345882
20
1.25100091858701
30
0
41
1
10
4.99708811195484
20
1.36279491439939
30
0
41
1
10
4.62116791314301
20
1.58535397854868
30
0
41
1
10
4.43521398924037
20
1.6963626260542
30
0
41
1
10
4.25180142906564
20
1.80732366451102
30
0
0
SPLINE
5
E0
100
AcDbEntity
8
1
62
256
6
ByLayer
370
18
48
1
60
0
100
AcDbSpline
70
4
71
3
72
8
73
4
40
0
40
0
40
0
40
0
40
1
40
1
40
1
40
1
41
1
10
54.9370489999994
20
-0.351803474701541
30
0
41
1
10
54.9414204732294
20
-0.323804289497616
30
0
41
1
10
54.945724066812
20
-0.295795683490979
30
0
41
1
10
54.9499597048744
20
-0.267777646151472
30
0
0
SPLINE
5
E1
100
AcDbEntity
8
1
62
256
6
ByLayer
370
18
48
1
60
0
100
AcDbSpline
70
4
71
3
72
12
73
8
40
0
40
0
40
0
40
0
40
0.25
40
0.25
40
0.5
40
0.5
40
1
40
1
40
1
40
1
41
1
10
54.5611503569476
20
-1.80266225477987
30
0
41
1
10
54.5927950255856
20
-1.71862840771681
30
0
41
1
10
54.6228812357236
20
-1.63555650253778
30
0
41
1
10
54.6795725140129
20
-1.47133773228535
30
0
41
1
10
54.7063949519617
20
-1.38945482146551
30
0
41
1
10
54.7786590433233
20
-1.15381049773629
30
0
41
1
10
54.8163739444981
20
-1.00932286475924
30
0
41
1
10
54.8419584826673
20
-0.878862907616423
30
0
0
SPLINE
5
E2
100
AcDbEntity
8
1
62
256
6
ByLayer
370
18
48
1
60
0
100
AcDbSpline
70
4
71
3
72
10
73
6
40
0
40
0
40
0
40
0
40
0.5
40
0.5
40
1
40
1
40
1
40
1
41
1
10
54.999925258288
20
0.0393861481340423
30
0
41
1
10
54.9918251483935
20
0.0155381325158999
30
0
41
1
10
54.9826345914566
20
-0.0086784691634421
30
0
41
1
10
54.9634679689142
20
-0.0539912301562424
30
0
41
1
10
54.9532978552963
20
-0.0755692590642525
30
0
41
1
10
54.9432473310035
20
-0.0947347323976544
30
0
0
SPLINE
5
E3
100
AcDbEntity
8
1
62
256
6
ByLayer
370
18
48
1
60
0
100
AcDbSpline
70
4
71
3
72
20
73
16
40
0
40
0
40
0
40
0
40
0.124999999999994
40
0.124999999999994
40
0.187499999999994
40
0.187499999999994
40
0.249999999999993
40
0.249999999999993
40
0.499999999999995
40
0.499999999999995
40
0.624999999999997
40
0.624999999999997
40
0.749999999999998
40
0.749999999999998
40
1
40
1
40
1
40
1
41
1
10
50.6834440756395
20
0.0846307687858712
30
0
41
1
10
50.7299780551503
20
-0.0767628561791867
30
0
41
1
10
50.7875763457592
20
-0.233699902718826
30
0
41
1
10
50.8872148572973
20
-0.461083047597214
30
0
41
1
10
50.9226930849335
20
-0.535676870565965
30
0
41
1
10
50.9978849193088
20
-0.682619949331723
30
0
41
1
10
51.0377376827443
20
-0.755201089773749
30
0
41
1
10
51.2453075230851
20
-1.10993116973924
30
0
41
1
10
51.4349625530837
20
-1.36496277373064
30
0
41
1
10
51.7444855653669
20
-1.71700167420732
30
0
41
1
10
51.8524764116053
20
-1.82960394813418
30
0
41
1
10
52.0731305114406
20
-2.04245665484979
30
0
41
1
10
52.185758743257
20
-2.1427819367895
30
0
41
1
10
52.5296302738145
20
-2.42788502236183
30
0
41
1
10
52.766793813271
20
-2.59696662595198
30
0
41
1
10
53.0105870739221
20
-2.74847099998382
30
0
0
SPLINE
5
E4
100
AcDbEntity
8
1
62
256
6
ByLayer
370
18
48
1
60
0
100
AcDbSpline
70
4
71
3
72
8
73
4
40
0
40
0
40
0
40
0
40
1
40
1
40
1
40
1
41
1
10
54.9370490000001
20
0.351803474697306
30
0
41
1
10
54.9414204732299
20
0.323804289494831
30
0
41
1
10
54.9457240668122
20
0.295795683489644
30
0
41
1
10
54.9499597048744
20
0.267777646151558
30
0
0
SPLINE
5
E5
100
AcDbEntity
8
1
62
256
6
ByLayer
370
13
48
1
60
0
100
AcDbSpline
70
4
71
3
72
10
73
6
40
0
40
0
40
0
40
0
40
0.5
40
0.5
40
1
40
1
40
1
40
1
41
1
10
54.1421134696694
20
0.922157998606593
30
0
41
1
10
54.0611175909917
20
0.976075226329385
30
0
41
1
10
53.9817091426789
20
1.03342098141221
30
0
41
1
10
53.8265748872429
20
1.15602092599107
30
0
41
1
10
53.7506395242402
20
1.22145522930216
30
0
41
1
10
53.6774184962197
20
1.29130133141638
30
0
0
SPLINE
5
E6
100
AcDbEntity
8
1
62
256
6
ByLayer
370
18
48
1
60
0
100
AcDbSpline
70
4
71
3
72
20
73
16
40
0
40
0
40
0
40
0
40
0.25
40
0.25
40
0.375
40
0.375
40
0.5
40
0.5
40
0.625
40
0.625
40
0.75
40
0.75
40
0.875
40
0.875
40
1
40
1
40
1
40
1
41
1
10
53.743763621179
20
-3.72718435774337
30
0
41
1
10
53.810963093367
20
-3.57650290847661
30
0
41
1
10
53.879216289003
20
-3.42091410769169
30
0
41
1
10
53.9824512734898
20
-3.18537387603999
30
0
41
1
10
54.0170954403501
20
-3.10590919112406
30
0
41
1
10
54.0861938751758
20
-2.94590544068833
30
0
41
1
10
54.1206675574634
20
-2.86544817471582
30
0
41
1
10
54.1895218684595
20
-2.70396088718016
30
0
41
1
10
54.2239643429925
20
-2.62307887770831
30
0
41
1
10
54.2925570829637
20
-2.46036879454769
30
0
41
1
10
54.3267390762172
20
-2.37843021256148
30
0
41
1
10
54.3945692004236
20
-2.21418714402813
30
0
41
1
10
54.4281671871363
20
-2.13197029162041
30
0
41
1
10
54.4950393475872
20
-1.96743582458785
30
0
41
1
10
54.528316453411
20
-1.88511969042344
30
0
41
1
10
54.5611503569476
20
-1.80266225477987
30
0
0
SPLINE
5
E7
100
AcDbEntity
8
1
62
256
6
ByLayer
370
18
48
1
60
0
100
AcDbSpline
70
4
71
3
72
8
73
4
40
0
40
0
40
0
40
0
40
1
40
1
40
1
40
1
41
1
10
4.13134323059134
20
-2.87776426455642
30
0
41
1
10
4.1025321212006
20
-2.86782317502397
30
0
41
1
10
4.07729872649858
20
-2.85443193308447
30
0
41
1
10
4.0566981968841
20
-2.83808823656901
30
0
0
SPLINE
5
E8
100
AcDbEntity
8
1
62
256
6
ByLayer
370
18
48
1
60
0
100
AcDbSpline
70
4
71
3
72
10
73
6
40
0
40
0
40
0
40
0
40
0.600659601671525
40
0.600659601671525
40
1
40
1
40
1
40
1
41
1
10
53.6924186088266
20
3.78378719518375
30
0
41
1
10
53.4337266539019
20
3.80977716347812
30
0
41
1
10
53.1751311176345
20
3.82774622335555
30
0
41
1
10
52.7442251355234
20
3.8442663747133
30
0
41
1
10
52.5718853697828
20
3.84730224572502
30
0
41
1
10
52.3995367384291
20
3.84676865095136
30
0
0
SPLINE
5
E9
100
AcDbEntity
8
1
62
256
6
ByLayer
370
18
48
1
60
0
100
AcDbSpline
70
4
71
3
72
46
73
42
40
0
40
0
40
0
40
0
40
0.0229451042608304
40
0.0229451042608304
40
0.0556761831376062
40
0.0556761831376062
40
0.088407262014382
40
0.088407262014382
40
0.153869419767932
40
0.153869419767932
40
0.219331577521482
40
0.219331577521482
40
0.252062656398256
40
0.252062656398256
40
0.28479373527503
40
0.28479373527503
40
0.350255893028578
40
0.350255893028578
40
0.382986971905353
40
0.382986971905353
40
0.415718050782126
40
0.415718050782126
40
0.546642366289222
40
0.546642366289222
40
0.579373445165996
40
0.579373445165996
40
0.612104524042769
40
0.612104524042769
40
0.677566681796318
40
0.677566681796318
40
0.743028839549866
40
0.743028839549866
40
0.77575991842664
40
0.77575991842664
40
0.808490997303414
40
0.808490997303414
40
0.939415312810509
40
0.939415312810509
40
0.972146391687282
40
0.972146391687282
40
1
40
1
40
1
40
1
41
1
10
32.5831567496672
20
-3.65322887713492
30
0
41
1
10
32.4029088081695
20
-3.67997345649877
30
0
41
1
10
32.2224195661169
20
-3.70302972708171
30
0
41
1
10
31.783575065111
20
-3.74979987626151
30
0
41
1
10
31.5248458737215
20
-3.76960833824066
30
0
41
1
10
31.0050878008526
20
-3.79332254350646
30
0
41
1
10
30.7451765871753
20
-3.79714706643983
30
0
41
1
10
29.9696297730593
20
-3.78478226545221
30
0
41
1
10
29.4558842420382
20
-3.74486182536327
30
0
41
1
10
28.429200572272
20
-3.60465732359259
30
0
41
1
10
27.9163065129156
20
-3.50433547879379
30
0
41
1
10
27.1431655658869
20
-3.31104103891616
30
0
41
1
10
26.8848387237049
20
-3.23946163760786
30
0
41
1
10
26.3662035527829
20
-3.08245411702146
30
0
41
1
10
26.1054561909143
20
-2.9968656203782
30
0
41
1
10
25.3256867243034
20
-2.72258646535593
30
0
41
1
10
24.8073892297404
20
-2.51583899022478
30
0
41
1
10
24.0277006170921
20
-2.17602523020955
30
0
41
1
10
23.7668594569093
20
-2.05754707513523
30
0
41
1
10
23.2475445578917
20
-1.81366128323708
30
0
41
1
10
22.9888987708959
20
-1.6881383715961
30
0
41
1
10
21.6988760370568
20
-1.04597360329515
30
0
41
1
10
20.6767094371783
20
-0.486351635462284
30
0
41
1
10
19.3824869322723
20
0.217698952620651
30
0
41
1
10
19.1225080643619
20
0.358958857854816
30
0
41
1
10
18.6015626486228
20
0.639760116820582
30
0
41
1
10
18.3421858735101
20
0.778368601210815
30
0
41
1
10
17.5662739539743
20
1.18703472555859
30
0
41
1
10
17.0520829114645
20
1.45014794209445
30
0
41
1
10
16.0236555705266
20
1.94727776237153
30
0
41
1
10
15.5096750225481
20
2.18171721038576
30
0
41
1
10
14.7342641422028
20
2.50435443427713
30
0
41
1
10
14.4751165857473
20
2.60716313631221
30
0
41
1
10
13.954757901542
20
2.80213033965416
30
0
41
1
10
13.6937330911939
20
2.89412110495331
30
0
41
1
10
12.3966719827405
20
3.31931571321758
30
0
41
1
10
11.3731211649621
20
3.55353230981254
30
0
41
1
10
10.0825110045731
20
3.69400880481456
30
0
41
1
10
9.82381312883484
20
3.71449743277071
30
0
41
1
10
9.3432607902871
20
3.73794418757439
30
0
41
1
10
9.12108984066157
20
3.74303923830448
30
0
41
1
10
8.89935061471087
20
3.74236858651966
30
0
0
SPLINE
5
EA
100
AcDbEntity
8
1
62
256
6
ByLayer
370
18
48
1
60
0
100
AcDbSpline
70
4
71
3
72
8
73
4
40
0
40
0
40
0
40
0
40
1
40
1
40
1
40
1
41
1
10
54.9432473310036
20
-0.094734732397626
30
0
41
1
10
54.9428683228409
20
-0.0954574679111033
30
0
41
1
10
54.942489342215
20
-0.0961802296588417
30
0
41
1
10
54.9421103891287
20
-0.0969030176372598
30
0
0
SPLINE
5
EB
100
AcDbEntity
8
1
62
256
6
ByLayer
370
13
48
1
60
0
100
AcDbSpline
70
4
71
3
72
10
73
6
40
0
40
0
40
0
40
0
40
0.5
40
0.5
40
1
40
1
40
1
40
1
41
1
10
4.01951342335352
20
-2.7728844511704
30
0
41
1
10
4.03011249126246
20
-2.76372509750806
30
0
41
1
10
4.04468162958415
20
-2.75507416772388
30
0
41
1
10
4.08297829397802
20
-2.7391055034243
30
0
41
1
10
4.10564755600853
20
-2.73223201006621
30
0
41
1
10
4.13226896514843
20
-2.72680252870012
30
0
0
SPLINE
5
EC
100
AcDbEntity
8
1
62
256
6
ByLayer
370
18
48
1
60
0
100
AcDbSpline
70
4
71
3
72
22
73
18
40
0
40
0
40
0
40
0
40
0.104742652632362
40
0.104742652632362
40
0.179772596597227
40
0.179772596597227
40
0.254802540562091
40
0.254802540562091
40
0.404862428491821
40
0.404862428491821
40
0.55492231642155
40
0.55492231642155
40
0.629952260386415
40
0.629952260386415
40
0.70498220435128
40
0.70498220435128
40
1
40
1
40
1
40
1
41
1
10
15.5374188589853
20
2.13079283432484
30
0
41
1
10
15.8962686398044
20
1.97433333890211
30
0
41
1
10
16.2553919237511
20
1.80908786654524
30
0
41
1
10
16.8738834144403
20
1.51285483191714
30
0
41
1
10
17.1326326840651
20
1.3854246569795
30
0
41
1
10
17.652062589845
20
1.12400660728721
30
0
41
1
10
17.9130602470369
20
0.989980894695407
30
0
41
1
10
18.691059506774
20
0.584952634299071
30
0
41
1
10
19.205879353012
20
0.309272572624081
30
0
41
1
10
20.2338729929152
20
-0.241893148297834
30
0
41
1
10
20.7469419164359
20
-0.517573683641416
30
0
41
1
10
21.5193511937919
20
-0.923265420074046
30
0
41
1
10
21.7773082865851
20
-1.05715431378749
30
0
41
1
10
22.2949023907656
20
-1.32090382168889
30
0
41
1
10
22.555071271236
20
-1.45109957182285
30
0
41
1
10
23.8375413960402
20
-2.07672335031356
30
0
41
1
10
24.8459383906447
20
-2.51746119961572
30
0
41
1
10
25.8619552829788
20
-2.86875738244225
30
0
0
SPLINE
5
ED
100
AcDbEntity
8
1
62
256
6
ByLayer
370
13
48
1
60
0
100
AcDbSpline
70
4
71
3
72
20
73
16
40
0
40
0
40
0
40
0
40
0.0083692885356218
40
0.0083692885356218
40
0.131446205284454
40
0.131446205284454
40
0.254523122033283
40
0.254523122033283
40
0.377600038782113
40
0.377600038782113
40
0.500676955530942
40
0.500676955530942
40
0.99298462252627
40
0.99298462252627
40
1
40
1
40
1
40
1
41
1
10
25.8619543380714
20
-2.86875705573277
30
0
41
1
10
25.879525450907
20
-2.87483241325569
30
0
41
1
10
25.8970988427485
20
-2.88088101999446
30
0
41
1
10
26.1731402238925
20
-2.97545641407265
30
0
41
1
10
26.4321146866182
20
-3.05820187004093
30
0
41
1
10
26.951827342565
20
-3.21107317300112
30
0
41
1
10
27.2121238760939
20
-3.2810379121016
30
0
41
1
10
27.7314771472788
20
-3.4065136255868
30
0
41
1
10
27.9909371277849
20
-3.46216263802069
30
0
41
1
10
28.510152736303
20
-3.55879700163257
30
0
41
1
10
28.7703171325228
20
-3.59983577742216
30
0
41
1
10
30.0693335912545
20
-3.76627460055323
30
0
41
1
10
31.0890836494906
20
-3.77400809364136
30
0
41
1
10
32.1267090557177
20
-3.65944489360857
30
0
41
1
10
32.141288112714
20
-3.65781085440568
30
0
41
1
10
32.1558678862871
20
-3.65615238120842
30
0
0
SPLINE
5
EE
100
AcDbEntity
8
1
62
256
6
ByLayer
370
18
48
1
60
0
100
AcDbSpline
70
4
71
3
72
8
73
4
40
0
40
0
40
0
40
0
40
1
40
1
40
1
40
1
41
1
10
54.999925258288
20
0.0393861481339286
30
0
41
1
10
55.0000249137048
20
0.0131287681214474
30
0
41
1
10
55.0000249137048
20
-0.0131287681151093
30
0
41
1
10
54.999925258288
20
-0.0393861481275621
30
0
0
SPLINE
5
EF
100
AcDbEntity
8
1
62
256
6
ByLayer
370
18
48
1
60
0
100
AcDbSpline
70
4
71
3
72
88
73
84
40
0
40
0
40
0
40
0
40
0.0155602218369256
40
0.0155602218369256
40
0.0592054594353558
40
0.0592054594353558
40
0.0810280782345711
40
0.0810280782345711
40
0.102850697033786
40
0.102850697033786
40
0.124673315833001
40
0.124673315833001
40
0.146495934632216
40
0.146495934632216
40
0.16831855343143
40
0.16831855343143
40
0.190141172230645
40
0.190141172230645
40
0.233786409829074
40
0.233786409829074
40
0.255609028628288
40
0.255609028628288
40
0.277431647427503
40
0.277431647427503
40
0.299254266226718
40
0.299254266226718
40
0.321076885025933
40
0.321076885025933
40
0.342899503825148
40
0.342899503825148
40
0.364722122624362
40
0.364722122624362
40
0.408367360222792
40
0.408367360222792
40
0.430189979022007
40
0.430189979022007
40
0.452012597821223
40
0.452012597821223
40
0.473835216620438
40
0.473835216620438
40
0.495657835419654
40
0.495657835419654
40
0.517480454218869
40
0.517480454218869
40
0.539303073018084
40
0.539303073018084
40
0.582948310616515
40
0.582948310616515
40
0.60477092941573
40
0.60477092941573
40
0.626593548214946
40
0.626593548214946
40
0.648416167014161
40
0.648416167014161
40
0.670238785813376
40
0.670238785813376
40
0.692061404612592
40
0.692061404612592
40
0.713884023411807
40
0.713884023411807
40
0.757529261010238
40
0.757529261010238
40
0.779351879809453
40
0.779351879809453
40
0.801174498608668
40
0.801174498608668
40
0.822997117407884
40
0.822997117407884
40
0.844819736207099
40
0.844819736207099
40
0.866642355006314
40
0.866642355006314
40
0.88846497380553
40
0.88846497380553
40
0.932110211403959
40
0.932110211403959
40
0.953932830203174
40
0.953932830203174
40
0.975755449002389
40
0.975755449002389
40
0.997578067801604
40
0.997578067801604
40
1
40
1
40
1
40
1
41
1
10
24.0691115100539
20
2.39955627480478
30
0
41
1
10
24.2143182414337
20
2.4608914617628
30
0
41
1
10
24.3595146198846
20
2.52092262353753
30
0
41
1
10
24.9116170200485
20
2.74328722363134
30
0
41
1
10
25.3190083542541
20
2.89113691231904
30
0
41
1
10
25.9286431398109
20
3.09186592693209
30
0
41
1
10
26.1312948386147
20
3.15551429851266
30
0
41
1
10
26.5379899724457
20
3.2736050090742
30
0
41
1
10
26.7420775532833
20
3.32830885572039
30
0
41
1
10
27.1499646611775
20
3.42911124529027
30
0
41
1
10
27.3535607329658
20
3.47515140413975
30
0
41
1
10
27.759537243384
20
3.55873619764248
30
0
41
1
10
27.9622881803555
20
3.59597743665796
30
0
41
1
10
28.3687732446384
20
3.6606528991021
30
0
41
1
10
28.572246267534
20
3.6882712223867
30
0
41
1
10
28.9792983768096
20
3.7342051054103
30
0
41
1
10
29.1829042864944
20
3.75257646765815
30
0
41
1
10
29.7928352476878
20
3.79290714815252
30
0
41
1
10
30.1999423110032
20
3.7999959643416
30
0
41
1
10
30.8091012225159
20
3.7816560989755
30
0
41
1
10
31.0116187637224
20
3.77054426973282
30
0
41
1
10
31.4181583760079
20
3.73874837592362
30
0
41
1
10
31.6222067060013
20
3.71805540527222
30
0
41
1
10
32.0296784114076
20
3.66721700290353
30
0
41
1
10
32.2330655530935
20
3.63709642086152
30
0
41
1
10
32.6386675206417
20
3.56703387900959
30
0
41
1
10
32.8413142547267
20
3.52730188778952
30
0
41
1
10
33.2475608383612
20
3.43945256956337
30
0
41
1
10
33.4509216357879
20
3.39119947775208
30
0
41
1
10
33.8577601283556
20
3.28570567991221
30
0
41
1
10
34.0612589465935
20
3.22816056427163
30
0
41
1
10
34.6705897952561
20
3.04311873596239
30
0
41
1
10
35.0773966846094
20
2.9056196152018
30
0
41
1
10
35.6861182931669
20
2.67585540717366
30
0
41
1
10
35.8885257662459
20
2.59492416088958
30
0
41
1
10
36.2949288216231
20
2.42776706517665
30
0
41
1
10
36.4989025976263
20
2.34116019181948
30
0
41
1
10
36.9059511312308
20
2.16228766286528
30
0
41
1
10
37.1091261863185
20
2.06998286470591
30
0
41
1
10
37.5143547718407
20
1.87889229922069
30
0
41
1
10
37.7168858105485
20
1.7808358146784
30
0
41
1
10
38.1228956793288
20
1.58158786478589
30
0
41
1
10
38.3261523665646
20
1.48004971518762
30
0
41
1
10
38.7328089315657
20
1.2725109706083
30
0
41
1
10
38.9361740069421
20
1.16598353817767
30
0
41
1
10
39.5449154442556
20
0.842757115184469
30
0
41
1
10
39.9514143077791
20
0.625435124787515
30
0
41
1
10
40.5597106933928
20
0.292358344760231
30
0
41
1
10
40.7620106420877
20
0.17972241987323
30
0
41
1
10
41.168279965434
20
-0.0440200092617715
30
0
41
1
10
41.3721253022356
20
-0.155692869469789
30
0
41
1
10
41.7787493546525
20
-0.37816401312142
30
0
41
1
10
41.9817201504824
20
-0.48909671658717
30
0
41
1
10
42.3866046907966
20
-0.710997986284042
30
0
41
1
10
42.589024173272
20
-0.82104754832622
30
0
41
1
10
42.9948123837446
20
-1.03760369009149
30
0
41
1
10
43.1979732598521
20
-1.14448566975696
30
0
41
1
10
43.6044675898262
20
-1.35607828013451
30
0
41
1
10
43.807638848864
20
-1.4612401707744
30
0
41
1
10
44.4157601710616
20
-1.76984763628951
30
0
41
1
10
44.8219477949494
20
-1.96426501566631
30
0
41
1
10
45.4298704328537
20
-2.2431120271479
30
0
41
1
10
45.6320848860564
20
-2.33415990157917
30
0
41
1
10
46.0382470896568
20
-2.5086379641705
30
0
41
1
10
46.2418958830518
20
-2.59250108054565
30
0
41
1
10
46.6480931600059
20
-2.75328849601345
30
0
41
1
10
46.850861557517
20
-2.83034099996999
30
0
41
1
10
47.2554022976914
20
-2.97801378765311
30
0
41
1
10
47.4577006402165
20
-3.04798410030168
30
0
41
1
10
47.8632744095571
20
-3.17931022535331
30
0
41
1
10
48.0663503687524
20
-3.24090456344314
30
0
41
1
10
48.4727195538927
20
-3.35625322392102
30
0
41
1
10
48.6756349561012
20
-3.41015628253086
30
0
41
1
10
49.2831524711654
20
-3.5579471864155
30
0
41
1
10
49.6890332486221
20
-3.63732811767093
30
0
41
1
10
50.2966062691655
20
-3.7296076341413
30
0
41
1
10
50.4987371774714
20
-3.75585851728141
30
0
41
1
10
50.9048033791265
20
-3.79822620769932
30
0
41
1
10
51.1081850588953
20
-3.81448203967147
30
0
41
1
10
51.5141286215954
20
-3.83727035164188
30
0
41
1
10
51.7168404147959
20
-3.84382405526227
30
0
41
1
10
51.9415892893186
20
-3.84561042580768
30
0
41
1
10
51.9640423011617
20
-3.8457274693001
30
0
41
1
10
51.9864974191967
20
-3.84578326563803
30
0
0
SPLINE
5
F0
100
AcDbEntity
8
1
62
256
6
ByLayer
370
18
48
1
60
0
100
AcDbSpline
70
4
71
3
72
42
73
38
40
0
40
0
40
0
40
0
40
0.124999999999988
40
0.124999999999988
40
0.249999999999976
40
0.249999999999976
40
0.374999999999964
40
0.374999999999964
40
0.499999999999952
40
0.499999999999952
40
0.531249999999954
40
0.531249999999954
40
0.562499999999955
40
0.562499999999955
40
0.624999999999957
40
0.624999999999957
40
0.68749999999996
40
0.68749999999996
40
0.718749999999963
40
0.718749999999963
40
0.749999999999967
40
0.749999999999967
40
0.78124999999997
40
0.78124999999997
40
0.812499999999974
40
0.812499999999974
40
0.843749999999978
40
0.843749999999978
40
0.874999999999981
40
0.874999999999981
40
0.906249999999985
40
0.906249999999985
40
0.921874999999988
40
0.921874999999988
40
0.937499999999991
40
0.937499999999991
40
1
40
1
40
1
40
1
41
1
10
50.6834440756396
20
0.0846307687858712
30
0
41
1
10
50.8567535749937
20
-0.0173839797655262
30
0
41
1
10
51.0315019703503
20
-0.112810879120389
30
0
41
1
10
51.3847119369024
20
-0.286664253599099
30
0
41
1
10
51.5635855346388
20
-0.364925477021558
30
0
41
1
10
51.9228549184831
20
-0.499391016779242
30
0
41
1
10
52.1039307630124
20
-0.555918191225516
30
0
41
1
10
52.4659960657862
20
-0.644019185917955
30
0
41
1
10
52.6466224661855
20
-0.67557765053337
30
0
41
1
10
52.8718446274415
20
-0.697780180164386
30
0
41
1
10
52.9168608050094
20
-0.701351867453809
30
0
41
1
10
53.0068347927384
20
-0.706700470876285
30
0
41
1
10
53.0518047321779
20
-0.708277937324993
30
0
41
1
10
53.1852402189754
20
-0.705996488384557
30
0
41
1
10
53.2726453041117
20
-0.695868455953558
30
0
41
1
10
53.4426923843149
20
-0.651746427488916
30
0
41
1
10
53.5233367348021
20
-0.619089049533756
30
0
41
1
10
53.6347987714408
20
-0.547104886539699
30
0
41
1
10
53.6707063412887
20
-0.518770000313822
30
0
41
1
10
53.7351173370543
20
-0.452672625863244
30
0
41
1
10
53.7638125526205
20
-0.415119609468746
30
0
41
1
10
53.8130392865509
20
-0.329538071827585
30
0
41
1
10
53.8330251357991
20
-0.282421030202443
30
0
41
1
10
53.8625998458113
20
-0.182055385257655
30
0
41
1
10
53.8724454916981
20
-0.127658323681913
30
0
41
1
10
53.8810334308569
20
-0.0164765654272117
30
0
41
1
10
53.8800083899806
20
0.0403643297511564
30
0
41
1
10
53.8679804296309
20
0.156391012735128
30
0
41
1
10
53.8572232654835
20
0.213933413494544
30
0
41
1
10
53.8293485786881
20
0.327360136800706
30
0
41
1
10
53.8121506239823
20
0.383442693122902
30
0
41
1
10
53.7826482708522
20
0.466849668359885
30
0
41
1
10
53.7721947673566
20
0.494460292035711
30
0
41
1
10
53.7503672627076
20
0.549203389436002
30
0
41
1
10
53.7387516023154
20
0.576243699193753
30
0
41
1
10
53.6820687428393
20
0.712106188949093
30
0
41
1
10
53.6403315087616
20
0.822543666607032
30
0
41
1
10
53.6000539324491
20
0.933393769626093
30
0
0
SPLINE
5
F1
100
AcDbEntity
8
1
62
256
6
ByLayer
370
18
48
1
60
0
100
AcDbSpline
70
4
71
3
72
92
73
88
40
0
40
0
40
0
40
0
40
0.0135120364759757
40
0.0135120364759757
40
0.0371767480507048
40
0.0371767480507048
40
0.060841459625434
40
0.060841459625434
40
0.0845061712001632
40
0.0845061712001632
40
0.108170882774892
40
0.108170882774892
40
0.131835594349621
40
0.131835594349621
40
0.155500305924351
40
0.155500305924351
40
0.17916501749908
40
0.17916501749908
40
0.202829729073809
40
0.202829729073809
40
0.226494440648538
40
0.226494440648538
40
0.250159152223267
40
0.250159152223267
40
0.273823863797997
40
0.273823863797997
40
0.297488575372726
40
0.297488575372726
40
0.321153286947455
40
0.321153286947455
40
0.344817998522184
40
0.344817998522184
40
0.368482710096913
40
0.368482710096913
40
0.392147421671642
40
0.392147421671642
40
0.415812133246372
40
0.415812133246372
40
0.439476844821101
40
0.439476844821101
40
0.46314155639583
40
0.46314155639583
40
0.486806267970559
40
0.486806267970559
40
0.510470979545288
40
0.510470979545288
40
0.534135691120017
40
0.534135691120017
40
0.557800402694747
40
0.557800402694747
40
0.581465114269476
40
0.581465114269476
40
0.605129825844205
40
0.605129825844205
40
0.628794537418934
40
0.628794537418934
40
0.652459248993663
40
0.652459248993663
40
0.676123960568392
40
0.676123960568392
40
0.699788672143122
40
0.699788672143122
40
0.723453383717851
40
0.723453383717851
40
0.747118095292581
40
0.747118095292581
40
0.770782806867311
40
0.770782806867311
40
0.79444751844204
40
0.79444751844204
40
0.81811223001677
40
0.81811223001677
40
0.8417769415915
40
0.8417769415915
40
0.865441653166229
40
0.865441653166229
40
0.889106364740959
40
0.889106364740959
40
0.912771076315689
40
0.912771076315689
40
0.936435787890418
40
0.936435787890418
40
0.960100499465148
40
0.960100499465148
40
0.983765211039878
40
0.983765211039878
40
1
40
1
40
1
40
1
41
1
10
45.8429824446578
20
-2.42916587563309
30
0
41
1
10
45.7189222623903
20
-2.4782470323064
30
0
41
1
10
45.5948154992643
20
-2.5262628028039
30
0
41
1
10
45.2531921730336
20
-2.65554027814531
30
0
41
1
10
45.0353899765124
20
-2.73397876813505
30
0
41
1
10
44.6006297740762
20
-2.88221585461963
30
0
41
1
10
44.3834354952292
20
-2.9521203678548
30
0
41
1
10
43.9495290699286
20
-3.08336406224805
30
0
41
1
10
43.7327747549477
20
-3.14457146859968
30
0
41
1
10
43.29825392272
20
-3.25573494211022
30
0
41
1
10
43.0805970687817
20
-3.30600002101335
30
0
41
1
10
42.6447955235039
20
-3.39867382488799
30
0
41
1
10
42.4274892134574
20
-3.44060666270337
30
0
41
1
10
41.9931652383591
20
-3.51344703519962
30
0
41
1
10
41.7759835018971
20
-3.54390469577183
30
0
41
1
10
41.3415031798899
20
-3.5951979027617
30
0
41
1
10
41.1242209728101
20
-3.61618350713078
30
0
41
1
10
40.6896715453801
20
-3.6471468720008
30
0
41
1
10
40.4719293957811
20
-3.65695454150861
30
0
41
1
10
40.0363137123318
20
-3.6646599835191
30
0
41
1
10
39.8187122185711
20
-3.66322262354868
30
0
41
1
10
39.3839598325596
20
-3.6505416625638
30
0
41
1
10
39.1670041480001
20
-3.63903947266877
30
0
41
1
10
38.7325781297027
20
-3.60402639157363
30
0
41
1
10
38.5150477634466
20
-3.5805579849978
30
0
41
1
10
38.0795624173136
20
-3.52534936651807
30
0
41
1
10
37.8613597656681
20
-3.49274619220776
30
0
41
1
10
37.4263569343213
20
-3.41618620450092
30
0
41
1
10
37.2090915411202
20
-3.37204258507575
30
0
41
1
10
36.7743416149276
20
-3.27514111305089
30
0
41
1
10
36.5569688992789
20
-3.22277824855533
30
0
41
1
10
36.1222224162614
20
-3.10782080562566
30
0
41
1
10
35.9050024863623
20
-3.0451011022831
30
0
41
1
10
35.4692804030128
20
-2.91023050849364
30
0
41
1
10
35.2510471852052
20
-2.83888396457982
30
0
41
1
10
34.8155560976173
20
-2.68888471156527
30
0
41
1
10
34.5981305709198
20
-2.60978815861634
30
0
41
1
10
34.1636128954977
20
-2.44301706735647
30
0
41
1
10
33.9461851500374
20
-2.35569150927611
30
0
41
1
10
33.5108234380032
20
-2.17582661132337
30
0
41
1
10
33.2928487830388
20
-2.08276173392534
30
0
41
1
10
32.8566186642149
20
-1.88956319522049
30
0
41
1
10
32.6391503033199
20
-1.78949224175301
30
0
41
1
10
32.2039637012875
20
-1.58575755940242
30
0
41
1
10
31.9863935095426
20
-1.4820802803556
30
0
41
1
10
31.5512880235149
20
-1.27024680669942
30
0
41
1
10
31.3338498577208
20
-1.161948347926
30
0
41
1
10
30.8985133582962
20
-0.941596084601343
30
0
41
1
10
30.6801636259145
20
-0.830102428387534
30
0
41
1
10
30.24400432531
20
-0.605633642651895
30
0
41
1
10
30.026195283162
20
-0.492610653485741
30
0
41
1
10
29.5911956784515
20
-0.264808370730179
30
0
41
1
10
29.3739225182662
20
-0.150175489931854
30
0
41
1
10
28.9387400802033
20
0.0783045823388875
30
0
41
1
10
28.7209753609241
20
0.19245592934044
30
0
41
1
10
28.2848509101723
20
0.420240594623692
30
0
41
1
10
28.0665606956563
20
0.534154845101654
30
0
41
1
10
27.6308609481374
20
0.759378389392424
30
0
41
1
10
27.4130636747616
20
0.870720243876548
30
0
41
1
10
26.9775659801317
20
1.09023340281445
30
0
41
1
10
26.7598198087794
20
1.1981775747067
30
0
41
1
10
26.3244350682602
20
1.41102182026947
30
0
41
1
10
26.1066176661527
20
1.51576783701219
30
0
41
1
10
25.669955864515
20
1.72043515868623
30
0
41
1
10
25.4516403490687
20
1.82003908507764
30
0
41
1
10
25.0158779180456
20
2.01276828023521
30
0
41
1
10
24.7984442110625
20
2.10647307337518
30
0
41
1
10
24.3632500997255
20
2.28771123393705
30
0
41
1
10
24.1455146557595
20
2.37517923042535
30
0
41
1
10
23.7095144373363
20
2.54171147665343
30
0
41
1
10
23.4910627847789
20
2.62091255259773
30
0
41
1
10
23.0547015337119
20
2.77309182876311
30
0
41
1
10
22.8367747504924
20
2.84539172494033
30
0
41
1
10
22.4009611916425
20
2.98040949898783
30
0
41
1
10
22.1830981559826
20
3.04252560709526
30
0
41
1
10
21.7474393352485
20
3.15841521502986
30
0
41
1
10
21.5298291367897
20
3.21261948253519
30
0
41
1
10
21.0936469449399
20
3.31127926306687
30
0
41
1
10
20.8749118292743
20
3.35585774491227
30
0
41
1
10
20.4383871304465
20
3.43269078344116
30
0
41
1
10
20.2204772973777
20
3.46610567983265
30
0
41
1
10
19.7850959031122
20
3.52382216131085
30
0
41
1
10
19.5673679978188
20
3.54803375956149
30
0
41
1
10
19.1314639143058
20
3.58451140731972
30
0
41
1
10
18.9132235618532
20
3.59611360928008
30
0
41
1
10
18.5450877126374
20
3.60854439895039
30
0
41
1
10
18.3953091216324
20
3.6113465084205
30
0
41
1
10
18.2456057171791
20
3.61169880411327
30
0
0
SPLINE
5
F2
100
AcDbEntity
8
SK1
62
256
6
ByLayer
370
18
48
1
60
0
100
AcDbSpline
70
4
71
3
72
14
73
10
40
0
40
0
40
0
40
0
40
0.499999999999998
40
0.499999999999998
40
0.749999999999999
40
0.749999999999999
40
0.875
40
0.875
40
1
40
1
40
1
40
1
41
1
10
-35.25
20
-3.63984604254114
30
0
41
1
10
-35.2287404812744
20
-3.67224773825563
30
0
41
1
10
-35.208362723075
20
-3.70147792907397
30
0
41
1
10
-35.1802905070704
20
-3.73756537677934
30
0
41
1
10
-35.1714466180788
20
-3.74816548836475
30
0
41
1
10
-35.1602396792677
20
-3.75913364477106
30
0
41
1
10
-35.1568594217207
20
-3.76193267515481
30
0
41
1
10
-35.1517495297275
20
-3.76420363226012
30
0
41
1
10
-35.15
20
-3.76363714364794
30
0
41
1
10
-35.15
20
-3.7600671193627
30
0
0
SPLINE
5
F3
100
AcDbEntity
8
SK1
62
256
6
ByLayer
370
18
48
1
60
0
100
AcDbSpline
70
4
71
3
72
8
73
4
40
0
40
0
40
0
40
0
40
1
40
1
40
1
40
1
41
1
10
-35.25
20
-2.58277048860643
30
0
41
1
10
-35.5038929211074
20
-2.19581153248109
30
0
41
1
10
-35.7559847206601
20
-1.80802984399403
30
0
41
1
10
-36
20
-1.41655889059768
30
0
0
SPLINE
5
F4
100
AcDbEntity
8
SK1
62
256
6
ByLayer
370
18
48
1
60
0
100
AcDbSpline
70
4
71
3
72
14
73
10
40
0
40
0
40
0
40
0
40
0.124999999999999
40
0.124999999999999
40
0.249999999999999
40
0.249999999999999
40
0.499999999999998
40
0.499999999999998
40
1
40
1
40
1
40
1
41
1
10
-35.15
20
-2.80869912082162
30
0
41
1
10
-35.15
20
-2.80089684715375
30
0
41
1
10
-35.1517507934569
20
-2.79103698812085
30
0
41
1
10
-35.1569069278762
20
-2.77081166635
30
0
41
1
10
-35.160234831946
20
-2.76054122783748
30
0
41
1
10
-35.1714888412644
20
-2.72946262807423
30
0
41
1
10
-35.1802429568048
20
-2.70950416293428
30
0
41
1
10
-35.208319135384
20
-2.6509287913542
30
0
41
1
10
-35.2286409685641
20
-2.6153238519386
30
0
41
1
10
-35.25
20
-2.58277048860643
30
0
0
SPLINE
5
F5
100
AcDbEntity
8
SK1
62
256
6
ByLayer
370
18
48
1
60
0
100
AcDbSpline
70
4
71
3
72
8
73
4
40
0
40
0
40
0
40
0
40
1
40
1
40
1
40
1
41
1
10
-36
20
-2.4736344445322
30
0
41
1
10
-35.7560190887346
20
-2.86505026161521
30
0
41
1
10
-35.5039161870932
20
-3.25285162665745
30
0
41
1
10
-35.25
20
-3.63984604254094
30
0
0
LINE
5
76
100
AcDbEntity
8
81
62
256
6
ByLayer
370
18
48
1
60
0
100
AcDbLine
10
55
20
0
30
0
11
60
21
0
31
0
39
0
210
0
220
0
230
1
0
LINE
5
77
100
AcDbEntity
8
1
62
256
6
ByLayer
370
18
48
1
60
0
100
AcDbLine
10
2.912455
20
3.728006
30
0
11
0.8
21
3.722936
31
0
39
0
210
0
220
0
230
1
0
LINE
5
79
100
AcDbEntity
8
1
62
256
6
ByLayer
370
18
48
1
60
0
100
AcDbLine
10
8.90804
20
3.742395
30
0
11
4.269492
21
3.731263
31
0
39
0
210
0
220
0
230
1
0
LINE
5
7A
100
AcDbEntity
8
1
62
256
6
ByLayer
370
18
48
1
60
0
100
AcDbLine
10
30.657918
20
3.794595
30
0
11
30.193426
21
3.79348
31
0
39
0
210
0
220
0
230
1
0
LINE
5
7B
100
AcDbEntity
8
1
62
256
6
ByLayer
370
18
48
1
60
0
100
AcDbLine
10
52.407735
20
3.846795
30
0
11
51.988244
21
3.845788
31
0
39
0
210
0
220
0
230
1
0
LINE
5
7C
100
AcDbEntity
8
1
62
256
6
ByLayer
370
18
48
1
60
0
100
AcDbLine
10
51.988244
20
-3.845788
30
0
11
52.406996
21
-3.846793
31
0
39
0
210
0
220
0
230
1
0
LINE
5
7D
100
AcDbEntity
8
1
62
256
6
ByLayer
370
18
48
1
60
0
100
AcDbLine
10
30.193426
20
-3.79348
30
0
11
30.657701
21
-3.794595
31
0
39
0
210
0
220
0
230
1
0
LINE
5
7E
100
AcDbEntity
8
1
62
256
6
ByLayer
370
18
48
1
60
0
100
AcDbLine
10
4.269492
20
-3.731263
30
0
11
8.907553
21
-3.742394
31
0
39
0
210
0
220
0
230
1
0
LINE
5
7F
100
AcDbEntity
8
1
62
256
6
ByLayer
370
18
48
1
60
0
100
AcDbLine
10
0.8
20
-3.722936
30
0
11
2.912455
21
-3.728006
31
0
39
0
210
0
220
0
230
1
0
LINE
5
80
100
AcDbEntity
8
1
62
256
6
ByLayer
370
18
48
1
60
0
100
AcDbLine
10
0.8
20
3.722936
30
0
11
0.381443
21
3.721932
31
0
39
0
210
0
220
0
230
1
0
LINE
5
81
100
AcDbEntity
8
1
62
256
6
ByLayer
370
18
48
1
60
0
100
AcDbLine
10
0.381443
20
-3.721932
30
0
11
0.8
21
-3.722936
31
0
39
0
210
0
220
0
230
1
0
LINE
5
82
100
AcDbEntity
8
SK1
62
256
6
ByLayer
370
18
48
1
60
0
100
AcDbLine
10
-35.133975
20
4
30
0
11
-36
21
2.5
31
0
39
0
210
0
220
0
230
1
0
LINE
5
84
100
AcDbEntity
8
SK1
62
256
6
ByLayer
370
18
48
1
60
0
100
AcDbLine
10
-36
20
-2.5
30
0
11
-35.133975
21
-4
31
0
39
0
210
0
220
0
230
1
0
LINE
5
85
100
AcDbEntity
8
SK1
62
256
6
ByLayer
370
18
48
1
60
0
100
AcDbLine
10
0
20
4
30
0
11
-35.133975
21
4
31
0
39
0
210
0
220
0
230
1
0
LINE
5
86
100
AcDbEntity
8
SK1
62
256
6
ByLayer
370
18
48
1
60
0
100
AcDbLine
10
-35.133975
20
-4
30
0
11
0
21
-4
31
0
39
0
210
0
220
0
230
1
0
LINE
5
87
100
AcDbEntity
8
SK4
62
256
6
ByLayer
370
18
48
0.05
60
0
100
AcDbLine
10
60
20
0
30
0
11
-41
21
0
31
0
39
0
210
0
220
0
230
1
0
LINE
5
89
100
AcDbEntity
8
4
62
256
6
ByLayer
370
18
48
0.05
60
0
100
AcDbLine
10
55
20
0
30
0
11
0
21
0
31
0
39
0
210
0
220
0
230
1
0
LINE
5
8B
100
AcDbEntity
8
80
62
256
6
ByLayer
370
18
48
1
60
0
100
AcDbLine
10
0
20
0
30
0
11
-5
21
0
31
0
39
0
210
0
220
0
230
1
0
LINE
5
8C
100
AcDbEntity
8
1
62
256
6
ByLayer
370
13
48
1
60
0
100
AcDbLine
10
53.925147
20
0.650444
30
0
11
54.746229
21
0.018515
31
0
39
0
210
0
220
0
230
1
0
LINE
5
8D
100
AcDbEntity
8
1
62
256
6
ByLayer
370
13
48
1
60
0
100
AcDbLine
10
54.924645
20
0.282329
30
0
11
54.94996
21
0.267778
31
0
39
0
210
0
220
0
230
1
0
LINE
5
8E
100
AcDbEntity
8
1
62
256
6
ByLayer
370
13
48
1
60
0
100
AcDbLine
10
54.937049
20
0.310352
30
0
11
54.142113
21
0.922158
31
0
39
0
210
0
220
0
230
1
0
LINE
5
8F
100
AcDbEntity
8
1
62
256
6
ByLayer
370
13
48
1
60
0
100
AcDbLine
10
54.746229
20
0.018515
30
0
11
54.943247
21
-0.094735
31
0
39
0
210
0
220
0
230
1
0
LINE
5
90
100
AcDbEntity
8
1
62
256
6
ByLayer
370
13
48
1
60
0
100
AcDbLine
10
0.381443
20
3.721932
30
0
11
0.381443
21
-3.721932
31
0
39
0
210
0
220
0
230
1
0
LINE
5
91
100
AcDbEntity
8
1
62
256
6
ByLayer
370
18
48
1
60
0
100
AcDbLine
10
0
20
-4
30
0
11
0
21
4
31
0
39
0
210
0
220
0
230
1
0
LINE
5
92
100
AcDbEntity
8
1
62
256
6
ByLayer
370
18
48
1
60
0
100
AcDbLine
10
0.8
20
3.722936
30
0
11
0.8
21
-3.722936
31
0
39
0
210
0
220
0
230
1
0
LINE
5
93
100
AcDbEntity
8
1
62
256
6
ByLayer
370
13
48
1
60
0
100
AcDbLine
10
0.190482
20
3.860966
30
0
11
0.190482
21
-3.860966
31
0
39
0
210
0
220
0
230
1
0
LINE
5
94
100
AcDbEntity
8
1
62
256
6
ByLayer
370
13
48
1
60
0
100
AcDbLine
10
54.841958
20
0.878863
30
0
11
54.142113
21
0.922158
31
0
39
0
210
0
220
0
230
1
0
LINE
5
95
100
AcDbEntity
8
1
62
256
6
ByLayer
370
18
48
1
60
0
100
AcDbLine
10
54.937049
20
0.351803
30
0
11
54.937049
21
0.310352
31
0
39
0
210
0
220
0
230
1
0
LINE
5
96
100
AcDbEntity
8
1
62
256
6
ByLayer
370
18
48
1
60
0
100
AcDbLine
10
53.010587
20
-2.748471
30
0
11
54.94211
21
-0.096903
31
0
39
0
210
0
220
0
230
1
0
LINE
5
97
100
AcDbEntity
8
SK1
62
256
6
ByLayer
370
18
48
1
60
0
100
AcDbLine
10
-35.15
20
-3.760067
30
0
11
-35.15
21
-2.808699
31
0
39
0
210
0
220
0
230
1
0
LINE
5
98
100
AcDbEntity
8
SK1
62
256
6
ByLayer
370
18
48
1
60
0
100
AcDbLine
10
0
20
-4
30
0
11
0
21
4
31
0
39
0
210
0
220
0
230
1
0
LINE
5
99
100
AcDbEntity
8
SK1
62
256
6
ByLayer
370
18
48
1
60
0
100
AcDbLine
10
-36
20
-1.416535
30
0
11
-36
21
-2.473634
31
0
39
0
210
0
220
0
230
1
0
LINE
5
9A
100
AcDbEntity
8
SK1
62
256
6
ByLayer
370
13
48
1
60
0
100
AcDbLine
10
-35.25
20
-2.582682
30
0
11
-35.25
21
-3.639846
31
0
39
0
210
0
220
0
230
1
0
LINE
5
9B
100
AcDbEntity
8
SK1
62
256
6
ByLayer
370
18
48
1
60
0
100
AcDbLine
10
-35.133975
20
4
30
0
11
-35.133975
21
-4
31
0
39
0
210
0
220
0
230
1
0
LINE
5
9C
100
AcDbEntity
8
SK1
62
256
6
ByLayer
370
18
48
1
60
0
100
AcDbLine
10
-36
20
-2.5
30
0
11
-36
21
-2.473634
31
0
39
0
210
0
220
0
230
1
0
LINE
5
9D
100
AcDbEntity
8
SK1
62
256
6
ByLayer
370
18
48
1
60
0
100
AcDbLine
10
-36
20
2.5
30
0
11
-36
21
-1.416559
31
0
39
0
210
0
220
0
230
1
0
MTEXT
5
F6
100
AcDbEntity
8
SK6
62
256
6
ByLayer
370
13
48
1
60
0
100
AcDbMText
10
11.629169
20
36.232694
30
0
210
0
220
0
230
1
1
\W0.7315;860.1-0770-039A1-MM 2214
40
3.5
41
0
44
1.084337
50
0
71
8
72
5
7
iso_b_vert
0
DIMENSION
5
103
100
AcDbEntity
8
2
62
256
6
ByLayer
370
13
48
1
60
0
100
AcDbDimension
2
DimnDraft3D1
10
53.7388
20
-14.063398
30
0
11
25.488859
21
-14.063398
31
0
70
32
71
5
72
1
41
1
210
0
220
0
230
1
3
Standard
100
AcDbAlignedDimension
13
0
23
-1.5875
33
0
14
53.7388
24
-5.4375
34
0
50
0
100
AcDbRotatedDimension
1001
ACAD
1000
DSTYLE
1002
{
1070
   279
1070
     0
1070
   172
1070
     1
1070
   173
1070
     1
1070
   340
1005
F7
1070
   271
1070
     2
1070
   272
1070
     2
1070
    77
1070
     1
1070
    73
1070
     0
1070
   171
1070
     3
1070
   274
1070
     4
1070
   177
1070
    35
1070
   176
1070
    35
1070
   178
1070
    35
1070
    48
1040
-0.005
1070
    41
1041
3.5
1070
   147
1041
1.75
1070
    42
1041
1.5875
1070
    44
1041
2.0
1070
   140
1041
3.5
1070
   343
1005
0
1070
   344
1005
0
1002
}
0
DIMENSION
5
10D
100
AcDbEntity
8
SK2
62
256
6
ByLayer
370
13
48
1
60
0
100
AcDbDimension
2
DimnDraft3D2
10
55
20
-32.692985
30
0
11
9.5801
21
-32.692985
31
0
70
32
71
5
72
1
41
1
210
0
220
0
230
1
3
Standard
100
AcDbAlignedDimension
13
-36
23
-5.5875
33
0
14
55
24
-1.5875
34
0
50
0
100
AcDbRotatedDimension
1001
ACAD
1000
DSTYLE
1002
{
1070
   279
1070
     0
1070
   172
1070
     1
1070
   173
1070
     1
1070
   340
1005
F7
1070
   271
1070
     2
1070
   272
1070
     2
1070
    77
1070
     1
1070
    73
1070
     0
1070
   171
1070
     3
1070
   274
1070
     4
1070
   177
1070
    35
1070
   176
1070
    35
1070
   178
1070
    35
1070
    48
1040
-0.005
1070
    41
1041
3.5
1070
   147
1041
1.75
1070
    42
1041
1.5875
1070
    44
1041
2.0
1070
   140
1041
3.5
1070
   343
1005
0
1070
   344
1005
0
1002
}
0
DIMENSION
5
117
100
AcDbEntity
8
SK2
62
256
6
ByLayer
370
13
48
1
60
0
100
AcDbDimension
2
DimnDraft3D3
10
55
20
15.459119
30
0
11
35.12
21
15.459119
31
0
70
32
71
5
72
1
41
1
210
0
220
0
230
1
3
Standard
100
AcDbAlignedDimension
13
15.24
23
5.4375
33
0
14
55
24
1.5875
34
0
50
0
100
AcDbRotatedDimension
1001
ACAD
1000
DSTYLE
1002
{
1070
   279
1070
     0
1070
   172
1070
     1
1070
   173
1070
     1
1070
   340
1005
F7
1070
   271
1070
     2
1070
   272
1070
     2
1070
    77
1070
     1
1070
    73
1070
     0
1070
   171
1070
     3
1070
   274
1070
     4
1070
   177
1070
    35
1070
   176
1070
    35
1070
   178
1070
    35
1070
    48
1040
-0.005
1070
    41
1041
3.5
1070
   147
1041
1.75
1070
    42
1041
1.5875
1070
    44
1041
2.0
1070
   140
1041
3.5
1070
   343
1005
0
1070
   344
1005
0
1002
}
0
DIMENSION
5
121
100
AcDbEntity
8
SK2
62
256
6
ByLayer
370
13
48
1
60
0
100
AcDbDimension
2
DimnDraft3D4
10
53.7388
20
-16.652503
30
0
11
64.981425
21
-16.652503
31
0
70
32
71
5
72
1
41
1
210
0
220
0
230
1
3
Standard
100
AcDbAlignedDimension
13
55
23
-1.5875
33
0
14
53.7388
24
-5.4375
34
0
50
0
100
AcDbRotatedDimension
1001
ACAD
1000
DSTYLE
1002
{
1070
   279
1070
     0
1070
   172
1070
     1
1070
   173
1070
     1
1070
   340
1005
F7
1070
   271
1070
     2
1070
   272
1070
     2
1070
    77
1070
     1
1070
    73
1070
     0
1070
   171
1070
     3
1070
   274
1070
     4
1070
   177
1070
    35
1070
   176
1070
    35
1070
   178
1070
    35
1070
    48
1040
-0.005
1070
    41
1041
3.5
1070
   147
1041
1.75
1070
    42
1041
1.5875
1070
    44
1041
2.0
1070
   140
1041
3.5
1070
   343
1005
0
1070
   344
1005
0
1002
}
0
DIMENSION
5
12B
100
AcDbEntity
8
SK2
62
256
6
ByLayer
370
13
48
1
60
0
100
AcDbDimension
2
DimnDraft3D5
10
53.7388
20
-22.343428
30
0
11
6.499476
21
-22.343428
31
0
70
32
71
5
72
1
41
1
210
0
220
0
230
1
3
Standard
100
AcDbAlignedDimension
13
-36
23
-5.5875
33
0
14
53.7388
24
-5.4375
34
0
50
0
100
AcDbRotatedDimension
1001
ACAD
1000
DSTYLE
1002
{
1070
   279
1070
     0
1070
   172
1070
     1
1070
   173
1070
     1
1070
   340
1005
F7
1070
   271
1070
     2
1070
   272
1070
     2
1070
    77
1070
     1
1070
    73
1070
     0
1070
   171
1070
     3
1070
   274
1070
     4
1070
   177
1070
    35
1070
   176
1070
    35
1070
   178
1070
    35
1070
    48
1040
-0.005
1070
    41
1041
3.5
1070
   147
1041
1.75
1070
    42
1041
1.5875
1070
    44
1041
2.0
1070
   140
1041
3.5
1070
   343
1005
0
1070
   344
1005
0
1002
}
0
DIMENSION
5
136
100
AcDbEntity
8
SK2
62
256
6
ByLayer
370
13
48
1
60
0
100
AcDbDimension
2
DimnDraft3D6
10
-46.625163
20
4
30
0
11
-47.250163
21
22.47418
31
0
70
33
71
5
72
1
41
1
210
0
220
0
230
1
3
Standard
100
AcDbAlignedDimension
13
-37.5875
23
-4
33
0
14
-37.5875
24
4
34
0
1001
ACAD
1000
DSTYLE
1002
{
1070
   279
1070
     0
1070
    74
1070
     0
1070
   173
1070
     1
1070
   340
1005
F7
1070
   271
1070
     3
1070
   272
1070
     2
1070
    77
1070
     1
1070
    73
1070
     0
1070
   171
1070
     3
1070
   274
1070
     4
1070
   177
1070
    35
1070
   176
1070
    35
1070
   178
1070
    35
1070
    48
1040
-0.005
1070
    41
1041
3.5
1070
   147
1041
1.75
1070
    42
1041
1.5875
1070
    44
1041
2.0
1070
   140
1041
3.5
1070
   343
1005
0
1070
   344
1005
0
1002
}
0
DIMENSION
5
141
100
AcDbEntity
8
2
62
256
6
ByLayer
370
13
48
1
60
0
100
AcDbDimension
2
DimnDraft3D7
10
69.083343
20
3.85
30
0
11
64.458343
21
20.917266
31
0
70
33
71
5
72
1
41
1
210
0
220
0
230
1
3
Standard
100
AcDbAlignedDimension
13
55.3263
23
-3.85
33
0
14
55.3263
24
3.85
34
0
1001
ACAD
1000
DSTYLE
1002
{
1070
   279
1070
     0
1070
    74
1070
     0
1070
   173
1070
     1
1070
   340
1005
F7
1070
   271
1070
     3
1070
   272
1070
     2
1070
    77
1070
     1
1070
    73
1070
     0
1070
   171
1070
     3
1070
   274
1070
     4
1070
   177
1070
    35
1070
   176
1070
    35
1070
   178
1070
    35
1070
    48
1040
-0.005
1070
    41
1041
3.5
1070
   147
1041
1.75
1070
    42
1041
1.5875
1070
    44
1041
2.0
1070
   140
1041
3.5
1070
   343
1005
0
1070
   344
1005
0
1002
}
0
ENDSEC
0
SECTION
2
OBJECTS
0
DICTIONARY
5
1ac
330
0
100
AcDbDictionary
280
0
281
1
3
ACAD_GROUP
350
1ad
3
ACAD_MLINESTYLE
350
1ae
0
DICTIONARY
5
1ad
330
0
100
AcDbDictionary
280
0
281
1
0
DICTIONARY
5
1ae
330
0
100
AcDbDictionary
280
0
281
1
3
Standard
350
18
0
MLINESTYLE
5
18
330
1ae
100
AcDbMlineStyle
2
Standard
70
0
3

62
256
51
90
52
90
71
2
49
-0.5
62
256
6
ByLayer
49
0.5
62
256
6
ByLayer
0
RASTERVARIABLES
5
19a
330

100
AcDbRasterVariables
90
0
70
1
71
1
72
1
0
ENDSEC
0
EOF
