0
SECTION
2
HEADER
9
$ACADVER
1
AC1015
9
$DWGCODEPAGE
3
ANSI_1252
9
$HANDSEED
5
1c1
9
$ANGBASE
50
0
9
$ANGDIR
70
0
9
$ATTMODE
70
1
9
$AUNITS
70
0
9
$AUPREC
70
0
9
$CECOLOR
62
256
9
$CELTSCALE
40
1
9
$CELTYPE
6
ByLayer
9
$CELWEIGHT
370
18
9
$CLAYER
8
0
9
$CMLJUST
70
0
9
$CMLSCALE
40
1
9
$CMLSTYLE
2
Standard
9
$DIMSTYLE
2
Standard
9
$TEXTSIZE
40
0.2
9
$TEXTSTYLE
7
Standard
9
$LUNITS
70
2
9
$LUPREC
70
4
9
$EXTNAMES
290
1
9
$INSUNITS
70
4
9
$LTSCALE
40
1
9
$LWDISPLAY
290
1
9
$PDMODE
70
0
9
$PDSIZE
40
0
9
$PLINEGEN
70
0
0
ENDSEC
0
SECTION
2
CLASSES
0
CLASS
1
RASTERVARIABLES
2
AcDbRasterVariables
3
ISM
90
0
280
0
281
0
0
ENDSEC
0
SECTION
2
TABLES
0
TABLE
2
VPORT
5
1b7
100
AcDbSymbolTable
0
VPORT
5
1
100
AcDbSymbolTableRecord
100
AcDbViewportTableRecord
2
*Active
70
0
10
0
20
0
11
1
21
1
12
-1
22
1
13
0
23
0
14
0.5
24
0.5
15
10
25
10
16
0
26
0
36
1
17
0
27
0
37
0
0
ENDTAB
0
TABLE
2
LTYPE
5
1b8
100
AcDbSymbolTable
0
LTYPE
5
14
100
AcDbSymbolTableRecord
100
AcDbLinetypeTableRecord
70
0
2
ByBlock
3

72
65
73
0
40
0
0
LTYPE
5
15
100
AcDbSymbolTableRecord
100
AcDbLinetypeTableRecord
70
0
2
ByLayer
3

72
65
73
0
40
0
0
LTYPE
5
16
100
AcDbSymbolTableRecord
100
AcDbLinetypeTableRecord
70
0
2
CONTINUOUS
3
Solid line
72
65
73
0
40
0
0
LTYPE
5
6A
100
AcDbSymbolTableRecord
100
AcDbLinetypeTableRecord
70
0
2
CENTER
3
____ _ ____ _ ____ _ ____
72
65
73
4
40
47.5
49
22
74
0
49
-8.5
74
0
49
8.5
74
0
49
-8.5
74
0
0
LTYPE
5
6B
100
AcDbSymbolTableRecord
100
AcDbLinetypeTableRecord
70
0
2
DASHED
3
__ __ __ __ __ __ __ __ __
72
65
73
2
40
25.72
49
12.86
74
0
49
-12.86
74
0
0
ENDTAB
0
TABLE
2
LAYER
5
1b9
100
AcDbSymbolTable
0
LAYER
5
10
100
AcDbSymbolTableRecord
100
AcDbLayerTableRecord
2
0
70
0
62
7
6
CONTINUOUS
290
1
370
-3
390
0
0
LAYER
5
6D
100
AcDbSymbolTableRecord
100
AcDbLayerTableRecord
2
81
70
0
62
-3
6
CONTINUOUS
290
1
370
-3
390
0
0
LAYER
5
6F
100
AcDbSymbolTableRecord
100
AcDbLayerTableRecord
2
80
70
0
62
-6
6
CONTINUOUS
290
1
370
-3
390
0
0
LAYER
5
74
100
AcDbSymbolTableRecord
100
AcDbLayerTableRecord
2
2
70
0
62
7
6
CONTINUOUS
290
1
370
-3
390
0
0
LAYER
5
78
100
AcDbSymbolTableRecord
100
AcDbLayerTableRecord
2
1
70
0
62
4
6
CONTINUOUS
290
1
370
-3
390
0
0
LAYER
5
8A
100
AcDbSymbolTableRecord
100
AcDbLayerTableRecord
2
4
70
0
62
-2
6
CENTER
290
1
370
-3
390
0
0
LAYER
5
1a3
100
AcDbSymbolTableRecord
100
AcDbLayerTableRecord
2
SK2
70
0
62
7
6
CONTINUOUS
290
1
370
-3
390
0
0
LAYER
5
1a4
100
AcDbSymbolTableRecord
100
AcDbLayerTableRecord
2
SK1
70
0
62
4
6
CONTINUOUS
290
1
370
-3
390
0
0
LAYER
5
1a5
100
AcDbSymbolTableRecord
100
AcDbLayerTableRecord
2
SK4
70
0
62
2
6
CENTER
290
1
370
-3
390
0
0
LAYER
5
1a6
100
AcDbSymbolTableRecord
100
AcDbLayerTableRecord
2
SK6
70
0
62
5
6
CONTINUOUS
290
1
370
-3
390
0
0
ENDTAB
0
TABLE
2
STYLE
5
1ba
100
AcDbSymbolTable
0
STYLE
5
11
100
AcDbSymbolTableRecord
100
AcDbTextStyleTableRecord
2
Standard
3
txt
70
0
71
0
40
0
41
1
42
0
50
0
0
STYLE
5
FF
100
AcDbSymbolTableRecord
100
AcDbTextStyleTableRecord
2
iso_b_vert
3
simplex.shx
70
0
71
0
40
0
41
1
42
0
50
0
0
STYLE
5
100
100
AcDbSymbolTableRecord
100
AcDbTextStyleTableRecord
2
DWGDirectTextStyle
3
simplex
70
0
71
0
40
0
41
1
42
0
50
0
0
ENDTAB
0
TABLE
2
DIMSTYLE
5
1bb
100
AcDbSymbolTable
100
AcDbDimStyleTable
0
DIMSTYLE
105
27
100
AcDbSymbolTableRecord
100
AcDbDimStyleTableRecord
2
Standard
70
0
3
<>
41
0.18
42
0.0625
44
0.18
140
0.18
147
0.09
73
0
74
0
77
1
271
2
275
0
278
52
280
0
340
11
0
ENDTAB
0
TABLE
2
VIEW
5
1bc
100
AcDbSymbolTable
0
ENDTAB
0
TABLE
2
UCS
5
1bd
100
AcDbSymbolTable
0
ENDTAB
0
TABLE
2
APPID
5
1be
100
AcDbSymbolTable
0
APPID
5
12
100
AcDbSymbolTableRecord
100
AcDbRegAppTableRecord
2
ACAD
70
0
0
ENDTAB
0
TABLE
2
BLOCK_RECORD
5
1bf
100
AcDbSymbolTable
0
BLOCK_RECORD
5
1F
100
AcDbSymbolTableRecord
100
AcDbBlockTableRecord
2
*Model_Space
340
0
70
0
0
BLOCK_RECORD
5
1B
100
AcDbSymbolTableRecord
100
AcDbBlockTableRecord
2
*Paper_Space
340
0
70
0
0
BLOCK_RECORD
5
23
100
AcDbSymbolTableRecord
100
AcDbBlockTableRecord
2
*Paper_Space0
340
0
70
0
0
BLOCK_RECORD
5
102
100
AcDbSymbolTableRecord
100
AcDbBlockTableRecord
2
DimnDraft3D1
340
0
70
0
0
BLOCK_RECORD
5
10C
100
AcDbSymbolTableRecord
100
AcDbBlockTableRecord
2
DimnDraft3D2
340
0
70
0
0
BLOCK_RECORD
5
116
100
AcDbSymbolTableRecord
100
AcDbBlockTableRecord
2
DimnDraft3D3
340
0
70
0
0
BLOCK_RECORD
5
120
100
AcDbSymbolTableRecord
100
AcDbBlockTableRecord
2
DimnDraft3D4
340
0
70
0
0
BLOCK_RECORD
5
12A
100
AcDbSymbolTableRecord
100
AcDbBlockTableRecord
2
DimnDraft3D5
340
0
70
0
0
BLOCK_RECORD
5
134
100
AcDbSymbolTableRecord
100
AcDbBlockTableRecord
2
DimnDraft3D6
340
0
70
0
0
BLOCK_RECORD
5
13F
100
AcDbSymbolTableRecord
100
AcDbBlockTableRecord
2
DimnDraft3D7
340
0
70
0
0
ENDTAB
0
ENDSEC
0
SECTION
2
BLOCKS
0
BLOCK
5
20
100
AcDbEntity
8
0
100
AcDbBlockBegin
2
*Model_Space
70
0
10
0
20
0
30
0
3
*Model_Space
0
ENDBLK
5
21
100
AcDbEntity
8
0
100
AcDbBlockEnd
0
BLOCK
5
1C
100
AcDbEntity
8
0
100
AcDbBlockBegin
2
*Paper_Space
70
0
10
0
20
0
30
0
3
*Paper_Space
0
ENDBLK
5
1D
100
AcDbEntity
8
0
100
AcDbBlockEnd
0
BLOCK
5
24
100
AcDbEntity
8
0
100
AcDbBlockBegin
2
*Paper_Space0
70
0
10
0
20
0
30
0
3
*Paper_Space0
0
ENDBLK
5
25
100
AcDbEntity
8
0
100
AcDbBlockEnd
0
BLOCK
5
109
100
AcDbEntity
8
0
100
AcDbBlockBegin
2
DimnDraft3D1
70
0
10
0
20
0
30
0
3
DimnDraft3D1
0
MTEXT
5
103
100
AcDbEntity
8
2
62
256
6
ByLayer
370
13
48
1
60
0
100
AcDbMText
10
33.454264
20
-12.888398
30
0
210
0
220
0
230
1
1
\W0.7495;78,84
40
3.5
41
0
44
1.084337
50
0
71
7
72
5
7
iso_b_vert
0
LINE
5
104
100
AcDbEntity
8
2
62
256
6
ByLayer
370
13
48
1
60
0
100
AcDbLine
10
0
20
-1.5875
30
0
11
0
21
-15.763398
31
0
39
0
210
0
220
0
230
1
0
LINE
5
105
100
AcDbEntity
8
2
62
256
6
ByLayer
370
13
48
1
60
0
100
AcDbLine
10
78.8371
20
-5.1375
30
0
11
78.8371
21
-15.763398
31
0
39
0
210
0
220
0
230
1
0
LINE
5
106
100
AcDbEntity
8
2
62
256
6
ByLayer
370
13
48
1
60
0
100
AcDbLine
10
0
20
-13.763398
30
0
11
78.8371
21
-13.763398
31
0
39
0
210
0
220
0
230
1
0
SOLID
5
107
100
AcDbEntity
8
2
62
256
6
ByLayer
370
13
48
1
60
0
100
AcDbTrace
10
0
20
-13.763398
30
0
11
3.499998
21
-13.302615
31
0
12
3.500002
22
-14.224182
32
0
13
0
23
-13.763398
33
0
39
0
210
0
220
0
230
1
0
SOLID
5
108
100
AcDbEntity
8
2
62
256
6
ByLayer
370
13
48
1
60
0
100
AcDbTrace
10
78.8371
20
-13.763398
30
0
11
75.337102
21
-14.224182
31
0
12
75.337098
22
-13.302615
32
0
13
78.8371
23
-13.763398
33
0
39
0
210
0
220
0
230
1
0
ENDBLK
5
10A
100
AcDbEntity
8
0
100
AcDbBlockEnd
0
BLOCK
5
113
100
AcDbEntity
8
0
100
AcDbBlockBegin
2
DimnDraft3D2
70
0
10
0
20
0
30
0
3
DimnDraft3D2
0
MTEXT
5
10D
100
AcDbEntity
8
SK2
62
256
6
ByLayer
370
13
48
1
60
0
100
AcDbMText
10
17.296821
20
-31.817985
30
0
210
0
220
0
230
1
1
\W0.6440;116,00
40
3.5
41
0
44
1.084337
50
0
71
7
72
5
7
iso_b_vert
0
LINE
5
10E
100
AcDbEntity
8
SK2
62
256
6
ByLayer
370
13
48
1
60
0
100
AcDbLine
10
-36
20
-5.5875
30
0
11
-36
21
-34.692985
31
0
39
0
210
0
220
0
230
1
0
LINE
5
10F
100
AcDbEntity
8
SK2
62
256
6
ByLayer
370
13
48
1
60
0
100
AcDbLine
10
80
20
-1.5875
30
0
11
80
21
-34.692985
31
0
39
0
210
0
220
0
230
1
0
LINE
5
110
100
AcDbEntity
8
SK2
62
256
6
ByLayer
370
13
48
1
60
0
100
AcDbLine
10
-36
20
-32.692985
30
0
11
80
21
-32.692985
31
0
39
0
210
0
220
0
230
1
0
SOLID
5
111
100
AcDbEntity
8
SK2
62
256
6
ByLayer
370
13
48
1
60
0
100
AcDbTrace
10
-36
20
-32.692985
30
0
11
-32.500002
21
-32.232202
31
0
12
-32.499998
22
-33.153769
32
0
13
-36
23
-32.692985
33
0
39
0
210
0
220
0
230
1
0
SOLID
5
112
100
AcDbEntity
8
SK2
62
256
6
ByLayer
370
13
48
1
60
0
100
AcDbTrace
10
80
20
-32.692985
30
0
11
76.500002
21
-33.153769
31
0
12
76.499998
22
-32.232202
32
0
13
80
23
-32.692985
33
0
39
0
210
0
220
0
230
1
0
ENDBLK
5
114
100
AcDbEntity
8
0
100
AcDbBlockEnd
0
BLOCK
5
11D
100
AcDbEntity
8
0
100
AcDbBlockBegin
2
DimnDraft3D3
70
0
10
0
20
0
30
0
3
DimnDraft3D3
0
MTEXT
5
117
100
AcDbEntity
8
SK2
62
256
6
ByLayer
370
13
48
1
60
0
100
AcDbMText
10
46.571316
20
16.034119
30
0
210
0
220
0
230
1
1
\W0.7317;57,96
40
3.5
41
0
44
1.084337
50
0
71
7
72
5
7
iso_b_vert
0
LINE
5
118
100
AcDbEntity
8
SK2
62
256
6
ByLayer
370
13
48
1
60
0
100
AcDbLine
10
22.04
20
5.1375
30
0
11
22.04
21
17.159119
31
0
39
0
210
0
220
0
230
1
0
LINE
5
119
100
AcDbEntity
8
SK2
62
256
6
ByLayer
370
13
48
1
60
0
100
AcDbLine
10
80
20
1.5875
30
0
11
80
21
17.159119
31
0
39
0
210
0
220
0
230
1
0
LINE
5
11A
100
AcDbEntity
8
SK2
62
256
6
ByLayer
370
13
48
1
60
0
100
AcDbLine
10
22.04
20
15.159119
30
0
11
80
21
15.159119
31
0
39
0
210
0
220
0
230
1
0
SOLID
5
11B
100
AcDbEntity
8
SK2
62
256
6
ByLayer
370
13
48
1
60
0
100
AcDbTrace
10
22.04
20
15.159119
30
0
11
25.539998
21
15.619903
31
0
12
25.540002
22
14.698335
32
0
13
22.04
23
15.159119
33
0
39
0
210
0
220
0
230
1
0
SOLID
5
11C
100
AcDbEntity
8
SK2
62
256
6
ByLayer
370
13
48
1
60
0
100
AcDbTrace
10
80
20
15.159119
30
0
11
76.500002
21
14.698335
31
0
12
76.499998
22
15.619903
32
0
13
80
23
15.159119
33
0
39
0
210
0
220
0
230
1
0
ENDBLK
5
11E
100
AcDbEntity
8
0
100
AcDbBlockEnd
0
BLOCK
5
127
100
AcDbEntity
8
0
100
AcDbBlockBegin
2
DimnDraft3D4
70
0
10
0
20
0
30
0
3
DimnDraft3D4
0
MTEXT
5
121
100
AcDbEntity
8
SK2
62
256
6
ByLayer
370
13
48
1
60
0
100
AcDbMText
10
87.715636
20
-15.477503
30
0
210
0
220
0
230
1
1
\W0.5583;1,16
40
3.5
41
0
44
1.084337
50
0
71
7
72
5
7
iso_b_vert
0
LINE
5
122
100
AcDbEntity
8
SK2
62
256
6
ByLayer
370
13
48
1
60
0
100
AcDbLine
10
80
20
-1.5875
30
0
11
80
21
-18.352503
31
0
39
0
210
0
220
0
230
1
0
LINE
5
123
100
AcDbEntity
8
SK2
62
256
6
ByLayer
370
13
48
1
60
0
100
AcDbLine
10
78.8371
20
-5.1375
30
0
11
78.8371
21
-18.352503
31
0
39
0
210
0
220
0
230
1
0
LINE
5
124
100
AcDbEntity
8
SK2
62
256
6
ByLayer
370
13
48
1
60
0
100
AcDbLine
10
70.0871
20
-16.352503
30
0
11
93.122215
21
-16.352503
31
0
39
0
210
0
220
0
230
1
0
SOLID
5
125
100
AcDbEntity
8
SK2
62
256
6
ByLayer
370
13
48
1
60
0
100
AcDbTrace
10
80
20
-16.352503
30
0
11
83.499998
21
-15.891719
31
0
12
83.500002
22
-16.813287
32
0
13
80
23
-16.352503
33
0
39
0
210
0
220
0
230
1
0
SOLID
5
126
100
AcDbEntity
8
SK2
62
256
6
ByLayer
370
13
48
1
60
0
100
AcDbTrace
10
78.8371
20
-16.352503
30
0
11
75.337102
21
-16.813287
31
0
12
75.337098
22
-15.891719
32
0
13
78.8371
23
-16.352503
33
0
39
0
210
0
220
0
230
1
0
ENDBLK
5
128
100
AcDbEntity
8
0
100
AcDbBlockEnd
0
BLOCK
5
131
100
AcDbEntity
8
0
100
AcDbBlockBegin
2
DimnDraft3D5
70
0
10
0
20
0
30
0
3
DimnDraft3D5
0
MTEXT
5
12B
100
AcDbEntity
8
SK2
62
256
6
ByLayer
370
13
48
1
60
0
100
AcDbMText
10
13.847776
20
-21.468428
30
0
210
0
220
0
230
1
1
\W0.6775;114,84
40
3.5
41
0
44
1.084337
50
0
71
7
72
5
7
iso_b_vert
0
LINE
5
12C
100
AcDbEntity
8
SK2
62
256
6
ByLayer
370
13
48
1
60
0
100
AcDbLine
10
-36
20
-5.5875
30
0
11
-36
21
-24.343428
31
0
39
0
210
0
220
0
230
1
0
LINE
5
12D
100
AcDbEntity
8
SK2
62
256
6
ByLayer
370
13
48
1
60
0
100
AcDbLine
10
78.8371
20
-5.1375
30
0
11
78.8371
21
-24.343428
31
0
39
0
210
0
220
0
230
1
0
LINE
5
12E
100
AcDbEntity
8
SK2
62
256
6
ByLayer
370
13
48
1
60
0
100
AcDbLine
10
-36
20
-22.343428
30
0
11
78.8371
21
-22.343428
31
0
39
0
210
0
220
0
230
1
0
SOLID
5
12F
100
AcDbEntity
8
SK2
62
256
6
ByLayer
370
13
48
1
60
0
100
AcDbTrace
10
-36
20
-22.343428
30
0
11
-32.500002
21
-21.882645
31
0
12
-32.499998
22
-22.804212
32
0
13
-36
23
-22.343428
33
0
39
0
210
0
220
0
230
1
0
SOLID
5
130
100
AcDbEntity
8
SK2
62
256
6
ByLayer
370
13
48
1
60
0
100
AcDbTrace
10
78.8371
20
-22.343428
30
0
11
75.337102
21
-22.804212
31
0
12
75.337098
22
-21.882645
32
0
13
78.8371
23
-22.343428
33
0
39
0
210
0
220
0
230
1
0
ENDBLK
5
132
100
AcDbEntity
8
0
100
AcDbBlockEnd
0
BLOCK
5
13C
100
AcDbEntity
8
0
100
AcDbBlockBegin
2
DimnDraft3D6
70
0
10
0
20
0
30
0
3
DimnDraft3D6
0
MTEXT
5
135
100
AcDbEntity
8
SK2
62
256
6
ByLayer
370
13
48
1
60
0
100
AcDbMText
10
-46.375163
20
23.34918
30
0
210
0
220
0
230
1
1
\W0.7317;8,000
40
3.5
41
0
44
1.084337
50
90
71
7
72
5
7
iso_b_vert
0
MTEXT
5
136
100
AcDbEntity
8
SK2
62
256
6
ByLayer
370
13
48
1
60
0
100
AcDbMText
10
-46.375163
20
18.126524
30
0
210
0
220
0
230
1
1
%%c
40
3.5
41
0
44
1.084337
50
90
71
7
72
5
7
iso_b_vert
0
LINE
5
137
100
AcDbEntity
8
SK2
62
256
6
ByLayer
370
13
48
1
60
0
100
AcDbLine
10
-37.5875
20
-4
30
0
11
-46.625163
21
-4
31
0
39
0
210
0
220
0
230
1
0
LINE
5
138
100
AcDbEntity
8
SK2
62
256
6
ByLayer
370
13
48
1
60
0
100
AcDbLine
10
-37.5875
20
4
30
0
11
-46.625163
21
4
31
0
39
0
210
0
220
0
230
1
0
LINE
5
139
100
AcDbEntity
8
SK2
62
256
6
ByLayer
370
13
48
1
60
0
100
AcDbLine
10
-44.625163
20
-4
30
0
11
-44.625163
21
33.121549
31
0
39
0
210
0
220
0
230
1
0
SOLID
5
13A
100
AcDbEntity
8
SK2
62
256
6
ByLayer
370
13
48
1
60
0
100
AcDbTrace
10
-44.625163
20
-4
30
0
11
-45.085946
21
-0.500002
31
0
12
-44.164379
22
-0.499998
32
0
13
-44.625163
23
-4
33
0
39
0
210
0
220
0
230
1
0
SOLID
5
13B
100
AcDbEntity
8
SK2
62
256
6
ByLayer
370
13
48
1
60
0
100
AcDbTrace
10
-44.625163
20
4
30
0
11
-44.164379
21
0.500002
31
0
12
-45.085946
22
0.499998
32
0
13
-44.625163
23
4
33
0
39
0
210
0
220
0
230
1
0
ENDBLK
5
13D
100
AcDbEntity
8
0
100
AcDbBlockEnd
0
BLOCK
5
147
100
AcDbEntity
8
0
100
AcDbBlockBegin
2
DimnDraft3D7
70
0
10
0
20
0
30
0
3
DimnDraft3D7
0
MTEXT
5
140
100
AcDbEntity
8
2
62
256
6
ByLayer
370
13
48
1
60
0
100
AcDbMText
10
90.333343
20
21.492266
30
0
210
0
220
0
230
1
1
\W0.6713;7,100
40
3.5
41
0
44
1.084337
50
90
71
7
72
5
7
iso_b_vert
0
MTEXT
5
141
100
AcDbEntity
8
2
62
256
6
ByLayer
370
13
48
1
60
0
100
AcDbMText
10
90.333343
20
16.26961
30
0
210
0
220
0
230
1
1
%%c
40
3.5
41
0
44
1.084337
50
90
71
7
72
5
7
iso_b_vert
0
LINE
5
142
100
AcDbEntity
8
2
62
256
6
ByLayer
370
13
48
1
60
0
100
AcDbLine
10
80.4246
20
-3.55
30
0
11
94.083343
21
-3.55
31
0
39
0
210
0
220
0
230
1
0
LINE
5
143
100
AcDbEntity
8
2
62
256
6
ByLayer
370
13
48
1
60
0
100
AcDbLine
10
80.4246
20
3.55
30
0
11
94.083343
21
3.55
31
0
39
0
210
0
220
0
230
1
0
LINE
5
144
100
AcDbEntity
8
2
62
256
6
ByLayer
370
13
48
1
60
0
100
AcDbLine
10
92.083343
20
-3.55
30
0
11
92.083343
21
30.389635
31
0
39
0
210
0
220
0
230
1
0
SOLID
5
145
100
AcDbEntity
8
2
62
256
6
ByLayer
370
13
48
1
60
0
100
AcDbTrace
10
92.083343
20
-3.55
30
0
11
91.622559
21
-0.050002
31
0
12
92.544126
22
-0.049998
32
0
13
92.083343
23
-3.55
33
0
39
0
210
0
220
0
230
1
0
SOLID
5
146
100
AcDbEntity
8
2
62
256
6
ByLayer
370
13
48
1
60
0
100
AcDbTrace
10
92.083343
20
3.55
30
0
11
92.544126
21
0.050002
31
0
12
91.622559
22
0.049998
32
0
13
92.083343
23
3.55
33
0
39
0
210
0
220
0
230
1
0
ENDBLK
5
148
100
AcDbEntity
8
0
100
AcDbBlockEnd
0
ENDSEC
0
SECTION
2
ENTITIES
0
ARC
5
9B
100
AcDbEntity
8
1
62
256
6
ByLayer
370
18
48
1
60
0
100
AcDbCircle
39
0
10
0
20
3.2
30
0
40
0.799999999999999
210
0
220
0
230
1
100
AcDbArc
50
41.339324
51
90
0
ARC
5
9C
100
AcDbEntity
8
1
62
256
6
ByLayer
370
18
48
1
60
0
100
AcDbCircle
39
0
10
-1.201298
20
4.256827
30
0
40
0.799999999999999
210
0
220
0
230
-1
100
AcDbArc
50
269.931245
51
318.660676
0
ARC
5
9D
100
AcDbEntity
8
1
62
256
6
ByLayer
370
18
48
1
60
0
100
AcDbCircle
39
0
10
-1.201298
20
-4.256827
30
0
40
0.799999999999999
210
0
220
0
230
-1
100
AcDbArc
50
41.339324
51
90.068755
0
ARC
5
9E
100
AcDbEntity
8
1
62
256
6
ByLayer
370
18
48
1
60
0
100
AcDbCircle
39
0
10
0
20
-3.2
30
0
40
0.799999999999999
210
0
220
0
230
1
100
AcDbArc
50
270
51
318.660676
0
ELLIPSE
5
9F
100
AcDbEntity
8
1
62
256
6
ByLayer
370
13
48
1
60
0
100
AcDbEllipse
10
80.457601
20
1.742722
30
0
11
2.21686629764062
21
-1.43193707602581
31
0
210
0
220
0
230
-1
40
0.722703
41
1.54651556369293
42
1.88127268917308
0
ELLIPSE
5
A0
100
AcDbEntity
8
1
62
256
6
ByLayer
370
18
48
1
60
0
100
AcDbEllipse
10
80
20
-0.03083
30
0
11
0.14068363978321
21
0.265521377516045
31
0
210
0
220
0
230
-1
40
0.557436
41
-2.09347258844214
42
-0.943676853561896
0
ELLIPSE
5
A1
100
AcDbEntity
8
1
62
256
6
ByLayer
370
13
48
1
60
0
100
AcDbEllipse
10
5.183363
20
-1.57807
30
0
11
-0.0197271543583464
21
-0.0980348885903482
31
0
210
0
220
0
230
1
40
0.544601
41
-1.89219426581373
42
-0.541532273702807
0
ELLIPSE
5
A2
100
AcDbEntity
8
1
62
256
6
ByLayer
370
13
48
1
60
0
100
AcDbEllipse
10
79.675342
20
0.17089
30
0
11
0.158327240012456
21
0.254818533607817
31
0
210
0
220
0
230
1
40
0.529484
41
0.739013819333976
42
2.131824077292
0
ELLIPSE
5
A3
100
AcDbEntity
8
1
62
256
6
ByLayer
370
13
48
1
60
0
100
AcDbEllipse
10
5.25024
20
-1.59979
30
0
11
0.040053135495321
21
0.0916283053264299
31
0
210
0
220
0
230
1
40
0.205882
41
1.12700494093171
42
2.67483739374131
0
POINT
5
6C
100
AcDbEntity
8
81
62
256
6
ByLayer
370
18
48
1
60
0
100
AcDbPoint
10
80
20
0
30
0
39
0
210
0
220
0
230
1
50
360
0
POINT
5
6E
100
AcDbEntity
8
80
62
256
6
ByLayer
370
18
48
1
60
0
100
AcDbPoint
10
0
20
0
30
0
39
0
210
0
220
0
230
1
50
360
0
POINT
5
70
100
AcDbEntity
8
SK2
62
256
6
ByLayer
370
18
48
1
60
1
100
AcDbPoint
10
-36
20
-4
30
0
39
0
210
0
220
0
230
1
50
360
0
POINT
5
72
100
AcDbEntity
8
SK2
62
256
6
ByLayer
370
18
48
1
60
1
100
AcDbPoint
10
-36
20
4
30
0
39
0
210
0
220
0
230
1
50
360
0
POINT
5
73
100
AcDbEntity
8
2
62
256
6
ByLayer
370
18
48
1
60
1
100
AcDbPoint
10
78.8371
20
-3.55
30
0
39
0
210
0
220
0
230
1
50
360
0
POINT
5
75
100
AcDbEntity
8
2
62
256
6
ByLayer
370
18
48
1
60
1
100
AcDbPoint
10
78.8371
20
3.55
30
0
39
0
210
0
220
0
230
1
50
360
0
SPLINE
5
A4
100
AcDbEntity
8
1
62
256
6
ByLayer
370
18
48
1
60
0
100
AcDbSpline
70
4
71
3
72
11
73
7
40
0
40
0
40
0
40
0
40
0.420367672305653
40
0.634738897726656
40
0.821649337947234
40
1
40
1
40
1
40
1
41
1
10
76.1427632636897
20
-0.188252519942267
30
0
41
1
10
76.1413440911369
20
-0.187585122321138
30
0
41
1
10
76.1238295895432
20
-0.180494712341158
30
0
41
1
10
76.1072641733342
20
-0.17276752860343
30
0
41
1
10
76.0197271901719
20
-0.132315788485471
30
0
41
1
10
75.9612604640251
20
-0.104134875148077
30
0
41
1
10
75.9303388551056
20
-0.0890476538279188
30
0
0
SPLINE
5
A5
100
AcDbEntity
8
1
62
256
6
ByLayer
370
18
48
1
60
0
100
AcDbSpline
70
4
71
1
72
4
73
2
40
0
40
0
40
1
40
1
41
1
10
75.8636187078703
20
-0.0562877180773
30
0
41
1
10
75.8059947025782
20
-0.0283174834739555
30
0
0
SPLINE
5
A6
100
AcDbEntity
8
1
62
256
6
ByLayer
370
18
48
1
60
0
100
AcDbSpline
70
4
71
3
72
12
73
8
40
0
40
0
40
0
40
0
40
0.113144442512492
40
0.369680428186968
40
0.472367522415516
40
0.640458351929979
40
1
40
1
40
1
40
1
41
1
10
32.6431645362011
20
-0.188349141503267
30
0
41
1
10
32.6431812146273
20
-0.188340909874171
30
0
41
1
10
32.6414815366091
20
-0.187675592618604
30
0
41
1
10
32.6335318670106
20
-0.184622577888945
30
0
41
1
10
32.6123766341888
20
-0.17517474808156
30
0
41
1
10
32.5378955938018
20
-0.141401027123038
30
0
41
1
10
32.4631731176158
20
-0.105075762807417
30
0
41
1
10
32.3988954120552
20
-0.0733729873190043
30
0
0
SPLINE
5
A7
100
AcDbEntity
8
1
62
256
6
ByLayer
370
18
48
1
60
0
100
AcDbSpline
70
4
71
3
72
28
73
24
40
0
40
0
40
0
40
0
40
0.0723905740768859
40
0.127355614142764
40
0.159341080852761
40
0.185198637245206
40
0.214821767565426
40
0.280161403848851
40
0.341959998379656
40
0.391579998371188
40
0.434419898811368
40
0.484515751917535
40
0.544546727478397
40
0.600891739173157
40
0.65071522132331
40
0.694268491971361
40
0.746393941586317
40
0.815513945385773
40
0.859698431475119
40
0.890168865077637
40
0.929275624715592
40
0.989948918842509
40
1
40
1
40
1
40
1
41
1
10
34.5078535678809
20
-3.35446773012367
30
0
41
1
10
34.7154703856409
20
-3.35466416338727
30
0
41
1
10
35.0807326379188
20
-3.35507248761189
30
0
41
1
10
35.5379621561294
20
-3.35598310757624
30
0
41
1
10
35.8614243628329
20
-3.35640152439734
30
0
41
1
10
36.1122694559922
20
-3.35666618843268
30
0
41
1
10
36.4589207309532
20
-3.35699721130746
30
0
41
1
10
36.9085905697674
20
-3.35741482548627
30
0
41
1
10
37.4157054802894
20
-3.35760847810869
30
0
41
1
10
37.8582496176056
20
-3.35814036956987
30
0
41
1
10
38.2671593842353
20
-3.35847068038029
30
0
41
1
10
38.7060241727401
20
-3.36074909842091
30
0
41
1
10
39.1835723078271
20
-3.36136465220793
30
0
41
1
10
39.66038322727
20
-3.36080805504119
30
0
41
1
10
40.0899177709806
20
-3.36051107625082
30
0
41
1
10
40.5073286790831
20
-3.360396413758
30
0
41
1
10
40.9801159065168
20
-3.3624503631855
30
0
41
1
10
41.4547097531694
20
-3.3630703143532
30
0
41
1
10
41.8671817564988
20
-3.36421587822659
30
0
41
1
10
42.1935460192053
20
-3.36545897349197
30
0
41
1
10
42.5672164309401
20
-3.36559193512323
30
0
41
1
10
42.882310854461
20
-3.36484047804333
30
0
41
1
10
43.0852078207717
20
-3.36467366526293
30
0
41
1
10
43.1140427449181
20
-3.36464972949599
30
0
0
SPLINE
5
A8
100
AcDbEntity
8
1
62
256
6
ByLayer
370
18
48
1
60
0
100
AcDbSpline
70
4
71
3
72
13
73
9
40
0
40
0
40
0
40
0
40
0.0205407288609615
40
0.41947601432447
40
0.498604993863497
40
0.61428028335936
40
0.825757018233121
40
1
40
1
40
1
40
1
41
1
10
54.3881198937921
20
-0.186509209252961
30
0
41
1
10
54.388389164384
20
-0.186610049204887
30
0
41
1
10
54.3934942459883
20
-0.188532124794932
30
0
41
1
10
54.3901573532133
20
-0.187498881967713
30
0
41
1
10
54.3725378844032
20
-0.179677563000155
30
0
41
1
10
54.3224308308875
20
-0.157092540106675
30
0
41
1
10
54.2376870220862
20
-0.117388250593677
30
0
41
1
10
54.1647407080826
20
-0.0817227158016749
30
0
41
1
10
54.1292650582699
20
-0.0641608602613815
30
0
0
SPLINE
5
A9
100
AcDbEntity
8
1
62
256
6
ByLayer
370
18
48
1
60
0
100
AcDbSpline
70
4
71
2
72
6
73
3
40
0
40
0
40
0
40
1
40
1
40
1
41
1
10
77.9595865224884
20
-3.40702909169892
30
0
41
1
10
78.3601421480445
20
-3.40352399578478
30
0
41
1
10
78.7609098833894
20
-3.40931774554119
30
0
0
SPLINE
5
AA
100
AcDbEntity
8
1
62
256
6
ByLayer
370
18
48
1
60
0
100
AcDbSpline
70
4
71
3
72
29
73
25
40
0
40
0
40
0
40
0
40
0.0761279952469593
40
0.12839692216967
40
0.161296051035255
40
0.201917669629738
40
0.252440362729536
40
0.297381069293653
40
0.334018531231477
40
0.367637029715119
40
0.400503537745324
40
0.437193681871203
40
0.486283059965255
40
0.540978177750702
40
0.59416856214743
40
0.632981752745162
40
0.671230646847015
40
0.716357786739983
40
0.780136194304338
40
0.831212619464826
40
0.867558000281613
40
0.906240449081215
40
0.974806150867044
40
1
40
1
40
1
40
1
41
1
10
12.7541723107914
20
-3.32858365849364
30
0
41
1
10
12.9723104116517
20
-3.32890233988729
30
0
41
1
10
13.3402145224369
20
-3.32939198688152
30
0
41
1
10
13.8023761451549
20
-3.32995385804131
30
0
41
1
10
14.1627918907741
20
-3.33027846291716
30
0
41
1
10
14.5182000074178
20
-3.33056593309041
30
0
41
1
10
14.9081361565411
20
-3.33105032618352
30
0
41
1
10
15.2866524962531
20
-3.33224598576601
30
0
41
1
10
15.6167251665131
20
-3.33262941195548
30
0
41
1
10
15.9122158168711
20
-3.33274002856203
30
0
41
1
10
16.2077378227348
20
-3.33271991409336
30
0
41
1
10
16.5476505530955
20
-3.3326918487081
30
0
41
1
10
16.9501843353291
20
-3.33276635349117
30
0
41
1
10
17.3998797552508
20
-3.33460923985012
30
0
41
1
10
17.8202294420895
20
-3.33548593855335
30
0
41
1
10
18.1934495451172
20
-3.33572733929321
30
0
41
1
10
18.5435670636887
20
-3.33604657053476
30
0
41
1
10
18.9652209524445
20
-3.3360228335365
30
0
41
1
10
19.4236183643475
20
-3.33637898302442
30
0
41
1
10
19.8568932490421
20
-3.33682230298189
30
0
41
1
10
20.2181133838933
20
-3.33706343524764
30
0
41
1
10
20.6294778204102
20
-3.33817135626217
30
0
41
1
10
21.0090148090233
20
-3.3404816328374
30
0
41
1
10
21.2776351570913
20
-3.34015498776316
30
0
41
1
10
21.349814872111
20
-3.34000970321321
30
0
0
SPLINE
5
AB
100
AcDbEntity
8
1
62
256
6
ByLayer
370
18
48
1
60
0
100
AcDbSpline
70
4
71
3
72
19
73
15
40
0
40
0
40
0
40
0
40
0.0485153253024603
40
0.163207908133063
40
0.244609392562112
40
0.335017052048073
40
0.449224260951131
40
0.568837322057864
40
0.655429898843953
40
0.728767479306137
40
0.819740491105582
40
0.916462848975921
40
0.971090052370427
40
1
40
1
40
1
40
1
41
1
10
64.9610034963725
20
3.39041425518809
30
0
41
1
10
64.8484517064068
20
3.38997350990925
30
0
41
1
10
64.4698370077766
20
3.38868322356777
30
0
41
1
10
63.9066410161682
20
3.38808282061134
30
0
41
1
10
63.2387248819047
20
3.38801711148781
30
0
41
1
10
62.57389291468
20
3.38909369289922
30
0
41
1
10
61.8194319900371
20
3.38574398825688
30
0
41
1
10
61.0740940127654
20
3.38615693212074
30
0
41
1
10
60.4237389401024
20
3.38624566474005
30
0
41
1
10
59.8401229749472
20
3.38466583841975
30
0
41
1
10
59.2328393017746
20
3.38283447939963
30
0
41
1
10
58.6691289742355
20
3.38334717075085
30
0
41
1
10
58.2497872863475
20
3.38322411772893
30
0
41
1
10
58.0554405864475
20
3.38312297593348
30
0
41
1
10
57.9881958839373
20
3.38306176968689
30
0
0
SPLINE
5
AC
100
AcDbEntity
8
1
62
256
6
ByLayer
370
18
48
1
60
0
100
AcDbSpline
70
4
71
3
72
19
73
15
40
0
40
0
40
0
40
0
40
0.0062601280744084
40
0.0695216326607105
40
0.173697775906187
40
0.282490693979523
40
0.380147528151475
40
0.487209306824441
40
0.586860158269103
40
0.66925413359939
40
0.721260832415227
40
0.786415648897395
40
0.890959086753408
40
1
40
1
40
1
40
1
41
1
10
45.2409247523987
20
-0.80674015232546
30
0
41
1
10
45.2408474041157
20
-0.806817144678178
30
0
41
1
10
45.2535240743748
20
-0.808801671963295
30
0
41
1
10
45.3779380035083
20
-0.821786273581267
30
0
41
1
10
45.5015100769974
20
-0.842406549768697
30
0
41
1
10
45.7093386247425
20
-0.883006888320324
30
0
41
1
10
45.99374648344
20
-0.953365740840923
30
0
41
1
10
46.2432195093944
20
-1.02404283304506
30
0
41
1
10
46.4761361228642
20
-1.10023636232674
30
0
41
1
10
46.6787520934371
20
-1.17380965440452
30
0
41
1
10
46.8834816545875
20
-1.25226212642991
30
0
41
1
10
47.1135053769105
20
-1.34449216888305
30
0
41
1
10
47.4171779228921
20
-1.4722140816549
30
0
41
1
10
47.6504331097319
20
-1.5763253908292
30
0
41
1
10
47.7708111705722
20
-1.63154171132177
30
0
0
SPLINE
5
AD
100
AcDbEntity
8
1
62
256
6
ByLayer
370
18
48
1
60
0
100
AcDbSpline
70
4
71
3
72
23
73
19
40
0
40
0
40
0
40
0
40
0.0389351046242622
40
0.128437046160745
40
0.201159314326749
40
0.262400932792921
40
0.314411694577155
40
0.385553809899749
40
0.484211639089035
40
0.566845791655536
40
0.609662812522149
40
0.655932994466809
40
0.711354769636931
40
0.782767961770834
40
0.856663638814449
40
0.922739870207871
40
0.976788911905791
40
1
40
1
40
1
40
1
41
1
10
21.4379171959826
20
3.33971729180587
30
0
41
1
10
21.3471482746269
20
3.33985079593941
30
0
41
1
10
21.0476619009853
20
3.34008341822798
30
0
41
1
10
20.5772390315429
20
3.33773920536783
30
0
41
1
10
20.0562917204825
20
3.33692107860864
30
0
41
1
10
19.6215067671753
20
3.33661586854271
30
0
41
1
10
19.1906780928871
20
3.3361278925677
30
0
41
1
10
18.6723509526212
20
3.33607543388874
30
0
41
1
10
18.0824900220632
20
3.33564627940521
30
0
41
1
10
17.5588093861748
20
3.33520522862852
30
0
41
1
10
17.1575483630544
20
3.3334640319047
30
0
41
1
10
16.8198774680167
20
3.33278554302123
30
0
41
1
10
16.4153844181489
20
3.33270032506002
30
0
41
1
10
15.9463270452726
20
3.33274532278466
30
0
41
1
10
15.4524010564763
20
3.33266140355207
30
0
41
1
10
14.9990244344679
20
3.33130872938844
30
0
41
1
10
14.6640909429795
20
3.3307277825925
30
0
41
1
10
14.4835710353907
20
3.33055347125847
30
0
41
1
10
14.4293386249466
20
3.33050451096756
30
0
0
SPLINE
5
AE
100
AcDbEntity
8
1
62
256
6
ByLayer
370
18
48
1
60
0
100
AcDbSpline
70
4
71
3
72
21
73
17
40
0
40
0
40
0
40
0
40
0.004133351271115
40
0.0366442584181275
40
0.117346254486396
40
0.197700728538065
40
0.262838796748678
40
0.35766792845284
40
0.477185737159535
40
0.549727533174598
40
0.620203576745276
40
0.709702189187144
40
0.766848044242339
40
0.814672539207977
40
0.908201801023184
40
1
40
1
40
1
40
1
41
1
10
23.4913623055306
20
-0.806897537739047
30
0
41
1
10
23.4915428152493
20
-0.806958031576045
30
0
41
1
10
23.4954176889858
20
-0.807667694774636
30
0
41
1
10
23.5327686226219
20
-0.811293549722961
30
0
41
1
10
23.65030058886
20
-0.825029148728333
30
0
41
1
10
23.7820137259255
20
-0.848495199906893
30
0
41
1
10
23.9459840354716
20
-0.881156780265457
30
0
41
1
10
24.1856747554445
20
-0.9376050526744
30
0
41
1
10
24.4366284679368
20
-1.00790561695709
30
0
41
1
10
24.6278991915975
20
-1.06738456842137
30
0
41
1
10
24.8198089199341
20
-1.13374202990397
30
0
41
1
10
25.0303239043047
20
-1.21199405540452
30
0
41
1
10
25.2210316342549
20
-1.28719378106092
30
0
41
1
10
25.4270626747619
20
-1.3711171632205
30
0
41
1
10
25.679850494766
20
-1.47790386711947
30
0
41
1
10
25.8802614374074
20
-1.56758366682382
30
0
41
1
10
25.9803707139757
20
-1.61349132018461
30
0
0
SPLINE
5
AF
100
AcDbEntity
8
1
62
256
6
ByLayer
370
18
48
1
60
0
100
AcDbSpline
70
4
71
3
72
22
73
18
40
0
40
0
40
0
40
0
40
0.0024462357647573
40
0.0447268930882882
40
0.0898677196172187
40
0.191160188709327
40
0.316753285401804
40
0.407733393707546
40
0.517425944503317
40
0.581075509914325
40
0.635217123428529
40
0.701898144622857
40
0.75605592738605
40
0.808714367772681
40
0.857299711460323
40
0.921635047911713
40
1
40
1
40
1
40
1
41
1
10
66.9979264010918
20
-0.807500654827606
30
0
41
1
10
66.9979453357574
20
-0.807536901979148
30
0
41
1
10
67.0005104731013
20
-0.808386258864005
30
0
41
1
10
67.0632962373622
20
-0.815304616768373
30
0
41
1
10
67.1253282473588
20
-0.821895923220865
30
0
41
1
10
67.3012629692315
20
-0.850572087282984
30
0
41
1
10
67.5365489078075
20
-0.900488976124421
30
0
41
1
10
67.832819527783
20
-0.977949111652833
30
0
41
1
10
68.0606108786296
20
-1.04524815143515
30
0
41
1
10
68.2366580129561
20
-1.10469518766567
30
0
41
1
10
68.3823982242776
20
-1.15680396350254
30
0
41
1
10
68.5583574578906
20
-1.22289551109466
30
0
41
1
10
68.7388366484013
20
-1.29420590824603
30
0
41
1
10
68.9033758163114
20
-1.36149469390966
30
0
41
1
10
69.0811460113875
20
-1.43634232232358
30
0
41
1
10
69.2900021909408
20
-1.52674559568254
30
0
41
1
10
69.4463287764995
20
-1.59683976502956
30
0
41
1
10
69.5325925488931
20
-1.63623159907016
30
0
0
SPLINE
5
B0
100
AcDbEntity
8
1
62
256
6
ByLayer
370
18
48
1
60
0
100
AcDbSpline
70
4
71
3
72
24
73
20
40
0
40
0
40
0
40
0
40
0.0959903603911213
40
0.170666099322552
40
0.247184789398346
40
0.311671730845689
40
0.377207695140878
40
0.459807331428893
40
0.550466644329944
40
0.608041895183494
40
0.654427341246254
40
0.695172660743589
40
0.735640392401206
40
0.798094034209623
40
0.848557764006327
40
0.886558440806383
40
0.925875162578254
40
0.987019631891717
40
1
40
1
40
1
40
1
41
1
10
56.2075028954877
20
-3.38070043681242
30
0
41
1
10
56.484692408887
20
-3.38070387106077
30
0
41
1
10
56.9774197312429
20
-3.38092707730885
30
0
41
1
10
57.6902399207163
20
-3.3829262433469
30
0
41
1
10
58.3129996371354
20
-3.38312973594117
30
0
41
1
10
58.910126598763
20
-3.38325181282943
30
0
41
1
10
59.5243388635923
20
-3.38302529832819
30
0
41
1
10
60.2146968180464
20
-3.38646530791175
30
0
41
1
10
60.8818982855809
20
-3.38611536651777
30
0
41
1
10
61.4444304497459
20
-3.38604936135874
30
0
41
1
10
61.8627406083663
20
-3.3862480305784
30
0
41
1
10
62.2313731731825
20
-3.38807472177456
30
0
41
1
10
62.6462830785415
20
-3.38846208671663
30
0
41
1
10
63.0897460361936
20
-3.38828025245149
30
0
41
1
10
63.5257311635842
20
-3.38799000854033
30
0
41
1
10
63.8950266897465
20
-3.38818679863286
30
0
41
1
10
64.2952624291229
20
-3.3889819173902
30
0
41
1
10
64.6231571000774
20
-3.39010783418559
30
0
41
1
10
64.8374135572404
20
-3.3906111883415
30
0
41
1
10
64.8749330163026
20
-3.39069859980268
30
0
0
SPLINE
5
B1
100
AcDbEntity
8
1
62
256
6
ByLayer
370
18
48
1
60
0
100
AcDbSpline
70
4
71
3
72
21
73
17
40
0
40
0
40
0
40
0
40
0.0329162763835191
40
0.133140956231691
40
0.212475093511615
40
0.275036553360547
40
0.349439179250052
40
0.448163761332317
40
0.540448553866373
40
0.602901162567937
40
0.676624587469586
40
0.75798205021566
40
0.838975665687343
40
0.90248908792977
40
0.964440691779227
40
1
40
1
40
1
40
1
41
1
10
43.2071867619745
20
3.36421141863354
30
0
41
1
10
43.1303798875323
20
3.36420178639125
30
0
41
1
10
42.8197045757248
20
3.36412011912887
30
0
41
1
10
42.3254786561047
20
3.36666193512778
30
0
41
1
10
41.7589974175982
20
3.36311669370619
30
0
41
1
10
41.2548438883527
20
3.36329514508128
30
0
41
1
10
40.7025665199619
20
3.36092757737649
30
0
41
1
10
40.0819701147681
20
3.36025120573251
30
0
41
1
10
39.4884087696365
20
3.36094219015587
30
0
41
1
10
38.954400087709
20
3.36148152279355
30
0
41
1
10
38.4451196893158
20
3.35907921182758
30
0
41
1
10
37.8927527151168
20
3.35807593011455
30
0
41
1
10
37.3642902801129
20
3.35748095260254
30
0
41
1
10
36.8813781406875
20
3.35739284679221
30
0
41
1
10
36.5046692382448
20
3.35704046427833
30
0
41
1
10
36.2764530572971
20
3.35681746120426
30
0
41
1
10
36.1932323577997
20
3.3567353835966
30
0
0
SPLINE
5
B2
100
AcDbEntity
8
1
62
256
6
ByLayer
370
18
48
1
60
0
100
AcDbSpline
70
4
71
3
72
10
73
6
40
0
40
0
40
0
40
0
40
0.389616355926355
40
0.82801010325888
40
1
40
1
40
1
40
1
41
1
10
10.8977672299667
20
-0.19044796537176
30
0
41
1
10
10.8894552546419
20
-0.187059813031624
30
0
41
1
10
10.8641669083416
20
-0.176065674799844
30
0
41
1
10
10.810585678587
20
-0.151534034082488
30
0
41
1
10
10.7720273471024
20
-0.133468315915224
30
0
41
1
10
10.7606136507261
20
-0.128074738822619
30
0
0
SPLINE
5
B3
100
AcDbEntity
8
1
62
256
6
ByLayer
370
18
48
1
60
0
100
AcDbSpline
70
4
71
3
72
8
73
4
40
0
40
0
40
0
40
0
40
1
40
1
40
1
40
1
41
1
10
79.9999790280834
20
0.0284408584468565
30
0
41
1
10
80.0000069906336
20
0.0094802891126449
30
0
41
1
10
80.0000069906336
20
-0.0094802891128438
30
0
41
1
10
79.9999790280834
20
-0.0284408584470555
30
0
0
SPLINE
5
B4
100
AcDbEntity
8
1
62
256
6
ByLayer
370
18
48
1
60
0
100
AcDbSpline
70
4
71
3
72
8
73
4
40
0
40
0
40
0
40
0
40
1
40
1
40
1
40
1
41
1
10
5.13822470189433
20
-1.66941081121104
30
0
41
1
10
5.11440169734095
20
-1.65896560745062
30
0
41
1
10
5.09306638831691
20
-1.64551911973155
30
0
41
1
10
5.07419441556416
20
-1.62903679457256
30
0
0
SPLINE
5
B5
100
AcDbEntity
8
1
62
256
6
ByLayer
370
18
48
1
60
0
100
AcDbSpline
70
4
71
3
72
8
73
4
40
0
40
0
40
0
40
0
40
1
40
1
40
1
40
1
41
1
10
78.7452233504632
20
-3.40637911997081
30
0
41
1
10
78.749425676673
20
-3.40759252718939
30
0
41
1
10
78.7538871386244
20
-3.40806806937812
30
0
41
1
10
78.758609087079
20
-3.40780977536048
30
0
0
SPLINE
5
B6
100
AcDbEntity
8
1
62
256
6
ByLayer
370
13
48
1
60
0
100
AcDbSpline
70
4
71
3
72
22
73
18
40
0
40
0
40
0
40
0
40
0.0650872224688217
40
0.0650872224688217
40
0.130174444937643
40
0.130174444937643
40
0.260348889875285
40
0.260348889875285
40
0.520697779750568
40
0.520697779750568
40
0.585785002219389
40
0.585785002219389
40
0.650872224688209
40
0.650872224688209
40
0.781046669625853
40
0.781046669625853
40
1
40
1
40
1
40
1
41
1
10
5.20598233359408
20
-1.67790600559238
30
0
41
1
10
5.39964353077772
20
-1.76131897084588
30
0
41
1
10
5.5934709689796
20
-1.84280825542552
30
0
41
1
10
5.97972533844575
20
-2.00076090689612
30
0
41
1
10
6.17230922795645
20
-2.07729603479049
30
0
41
1
10
6.74881305621898
20
-2.29908574311921
30
0
41
1
10
7.13152212409076
20
-2.43649082570693
30
0
41
1
10
8.27786837426396
20
-2.81308872895701
30
0
41
1
10
9.04005099793596
20
-3.01635677582857
30
0
41
1
10
9.99945293627792
20
-3.19921942606777
30
0
41
1
10
10.191669545748
20
-3.23223515166941
30
0
41
1
10
10.5771316117066
20
-3.2908608920269
30
0
41
1
10
10.7707453796327
20
-3.31650505764583
30
0
41
1
10
11.3507838873091
20
-3.38151656193793
30
0
41
1
10
11.7351583192752
20
-3.40892378243444
30
0
41
1
10
12.7627216926965
20
-3.44029920310405
30
0
41
1
10
13.4037127672407
20
-3.41537702540222
30
0
41
1
10
14.0459857869352
20
-3.34699234581907
30
0
0
SPLINE
5
B7
100
AcDbEntity
8
1
62
256
6
ByLayer
370
18
48
1
60
0
100
AcDbSpline
70
4
71
3
72
24
73
20
40
0
40
0
40
0
40
0
40
0.0066497147471173
40
0.0066497147471173
40
0.0611635098098823
40
0.0611635098098823
40
0.170191099935408
40
0.170191099935408
40
0.279218690060935
40
0.279218690060935
40
0.388246280186461
40
0.388246280186461
40
0.606301460437512
40
0.606301460437512
40
0.824356640688562
40
0.824356640688562
40
0.933384230814085
40
0.933384230814085
40
1
40
1
40
1
40
1
41
1
10
40.2273230165449
20
2.25987190998964
30
0
41
1
10
40.2508693313918
20
2.25097931305885
30
0
41
1
10
40.2744112143073
20
2.24204963545063
30
0
41
1
10
40.490891119182
20
2.15958491242085
30
0
41
1
10
40.6837000054024
20
2.08357208414429
30
0
41
1
10
41.2620123868287
20
1.84837469601817
30
0
41
1
10
41.6475963672524
20
1.68206309042063
30
0
41
1
10
42.4201615621976
20
1.33459779328274
30
0
41
1
10
42.8054820476914
20
1.15433253405703
30
0
41
1
10
43.5760670714704
20
0.784376513819922
30
0
41
1
10
43.9618594003596
20
0.59471269873481
30
0
41
1
10
45.119853466006
20
0.0191312760985909
30
0
41
1
10
45.8826860684811
20
-0.367452715718855
30
0
41
1
10
47.4062961740006
20
-1.11385209054268
30
0
41
1
10
48.1673505768268
20
-1.47305932413857
30
0
41
1
10
49.3195886590489
20
-1.96769291386508
30
0
41
1
10
49.7064155910881
20
-2.12534369091839
30
0
41
1
10
50.3270242553848
20
-2.36109929014887
30
0
41
1
10
50.562140484149
20
-2.44650500519504
30
0
41
1
10
50.7972339926684
20
-2.52758441490164
30
0
0
SPLINE
5
B8
100
AcDbEntity
8
1
62
256
6
ByLayer
370
13
48
1
60
0
100
AcDbSpline
70
4
71
3
72
22
73
18
40
0
40
0
40
0
40
0
40
0.0655986539140165
40
0.0655986539140165
40
0.149915691536705
40
0.149915691536705
40
0.234232729159393
40
0.234232729159393
40
0.402866804404766
40
0.402866804404766
40
0.74013495489551
40
0.74013495489551
40
0.908769030140883
40
0.908769030140883
40
0.993086067763565
40
0.993086067763565
40
1
40
1
40
1
40
1
41
1
10
50.7972349376663
20
-2.52758474081395
30
0
41
1
10
50.9469100509725
20
-2.57920491603252
30
0
41
1
10
51.0965759550165
20
-2.6290714727171
30
0
41
1
10
51.4387335579402
20
-2.73883889675358
30
0
41
1
10
51.6312632095385
20
-2.79753749360646
30
0
41
1
10
52.0168178624488
20
-2.90841607089848
30
0
41
1
10
52.2100499205278
20
-2.9606247239856
30
0
41
1
10
52.787402875749
20
-3.1060955811503
30
0
41
1
10
53.1701761605671
20
-3.18860749393369
30
0
41
1
10
54.3152917938013
20
-3.39142534028997
30
0
41
1
10
55.0743016802945
20
-3.46630577755022
30
0
41
1
10
56.2188936216771
20
-3.4835705535306
30
0
41
1
10
56.6013683161834
20
-3.47355866838788
30
0
41
1
10
57.1781048235584
20
-3.43436092911068
30
0
41
1
10
57.3712530617268
20
-3.41720201205109
30
0
41
1
10
57.5795928805384
20
-3.39439004624856
30
0
41
1
10
57.5953784917921
20
-3.39263536413907
30
0
41
1
10
57.6111607416797
20
-3.39085484927071
30
0
0
SPLINE
5
B9
100
AcDbEntity
8
1
62
256
6
ByLayer
370
13
48
1
60
0
100
AcDbSpline
70
4
71
3
72
8
73
4
40
0
40
0
40
0
40
0
40
1
40
1
40
1
40
1
41
1
10
5.13893863430459
20
-1.65654070208103
30
0
41
1
10
5.16012021968561
20
-1.66069534664928
30
0
41
1
10
5.18280694142962
20
-1.66792399469159
30
0
41
1
10
5.20598233359408
20
-1.67790600559238
30
0
0
SPLINE
5
BA
100
AcDbEntity
8
1
62
256
6
ByLayer
370
18
48
1
60
0
100
AcDbSpline
70
4
71
3
72
16
73
12
40
0
40
0
40
0
40
0
40
0.250000000000009
40
0.250000000000009
40
0.500000000000018
40
0.500000000000018
40
0.750000000000028
40
0.750000000000028
40
0.875000000000014
40
0.875000000000014
40
1
40
1
40
1
40
1
41
1
10
78.7949353583793
20
0.654661920233593
30
0
41
1
10
78.7802501687511
20
0.690437079479324
30
0
41
1
10
78.7680814891079
20
0.726909159097374
30
0
41
1
10
78.7489971064496
20
0.801185258884317
30
0
41
1
10
78.7420401160898
20
0.839374819759001
30
0
41
1
10
78.738528570392
20
0.916458762043817
30
0
41
1
10
78.7415421673746
20
0.95612885639278
30
0
41
1
10
78.765152296551
20
1.0085268831117
30
0
41
1
10
78.7766372598196
20
1.02452578070458
30
0
41
1
10
78.8065225334677
20
1.04786402873992
30
0
41
1
10
78.824909362413
20
1.05507704118742
30
0
41
1
10
78.843980413396
20
1.05800584531116
30
0
0
SPLINE
5
BB
100
AcDbEntity
8
1
62
256
6
ByLayer
370
18
48
1
60
0
100
AcDbSpline
70
4
71
3
72
10
73
6
40
0
40
0
40
0
40
0
40
0.5
40
0.5
40
1
40
1
40
1
40
1
41
1
10
79.9999790280835
20
0.0284408584473113
30
0
41
1
10
79.9902533914351
20
-0.0023053884449666
30
0
41
1
10
79.9787734719204
20
-0.034964017246125
30
0
41
1
10
79.9545027024362
20
-0.0973045393151892
30
0
41
1
10
79.9418390005275
20
-0.126722531364607
30
0
41
1
10
79.9296848168426
20
-0.152432191615958
30
0
0
SPLINE
5
BC
100
AcDbEntity
8
1
62
256
6
ByLayer
370
13
48
1
60
0
100
AcDbSpline
70
4
71
3
72
8
73
4
40
0
40
0
40
0
40
0
40
1
40
1
40
1
40
1
41
1
10
5.13822470189436
20
-1.66941081121018
30
0
41
1
10
5.1384621154659
20
-1.66512135427675
30
0
41
1
10
5.13870009296562
20
-1.66083131984672
30
0
41
1
10
5.13893863430459
20
-1.656540702081
30
0
0
SPLINE
5
BD
100
AcDbEntity
8
1
62
256
6
ByLayer
370
18
48
1
60
0
100
AcDbSpline
70
4
71
3
72
14
73
10
40
0
40
0
40
0
40
0
40
0.25
40
0.25
40
0.5
40
0.5
40
0.75
40
0.75
40
1
40
1
40
1
40
1
41
1
10
5.02480269277902
20
2.60602598770112
30
0
41
1
10
5.0349244028136
20
2.59530976169026
30
0
41
1
10
5.04862819618495
20
2.58330328684724
30
0
41
1
10
5.08143174896423
20
2.55862566793439
30
0
41
1
10
5.10107133065861
20
2.54556160541054
30
0
41
1
10
5.14253167393622
20
2.52060248807166
30
0
41
1
10
5.16463016893525
20
2.50849768888807
30
0
41
1
10
5.20820499108351
20
2.48636813961252
30
0
41
1
10
5.22975794908714
20
2.47627839124144
30
0
41
1
10
5.25056571926518
20
2.4672071570219
30
0
0
SPLINE
5
BE
100
AcDbEntity
8
1
62
256
6
ByLayer
370
18
48
1
60
0
100
AcDbSpline
70
4
71
3
72
8
73
4
40
0
40
0
40
0
40
0
40
1
40
1
40
1
40
1
41
1
10
78.8455416062538
20
3.43736053258368
30
0
41
1
10
78.8196455376544
20
3.46921682062322
30
0
41
1
10
78.7959864777666
20
3.49465977190641
30
0
41
1
10
78.774624747341
20
3.51328723691631
30
0
0
SPLINE
5
BF
100
AcDbEntity
8
1
62
256
6
ByLayer
370
18
48
1
60
0
100
AcDbSpline
70
4
71
3
72
8
73
4
40
0
40
0
40
0
40
0
40
1
40
1
40
1
40
1
41
1
10
79.9291581546931
20
-0.153544979239854
30
0
41
1
10
79.8007965774743
20
-0.506215514174215
30
0
41
1
10
79.6724350002556
20
-0.858886049108605
30
0
41
1
10
79.5440734230368
20
-1.21155658404299
30
0
0
SPLINE
5
C0
100
AcDbEntity
8
1
62
256
6
ByLayer
370
18
48
1
60
0
100
AcDbSpline
70
4
71
3
72
16
73
12
40
0
40
0
40
0
40
0
40
0.38171716670779
40
0.38171716670779
40
0.528647525428938
40
0.528647525428938
40
0.675577884150087
40
0.675577884150087
40
0.969438601592383
40
0.969438601592383
40
1
40
1
40
1
40
1
41
1
10
78.0018476543451
20
-3.40706300886404
30
0
41
1
10
77.5033329380525
20
-3.40649599703914
30
0
41
1
10
77.0051717423374
20
-3.37937820438952
30
0
41
1
10
76.3127938398301
20
-3.30557373298777
30
0
41
1
10
76.1201128691645
20
-3.28116279664485
30
0
41
1
10
75.7364307741385
20
-3.22506938338913
30
0
41
1
10
75.5451229024487
20
-3.19336043639655
30
0
41
1
10
74.9723907040124
20
-3.08768446915073
30
0
41
1
10
74.5921442187171
20
-3.00315138679738
30
0
41
1
10
74.1730505535634
20
-2.89553879378869
30
0
41
1
10
74.133577515071
20
-2.88526131890484
30
0
41
1
10
74.094110016643
20
-2.87484521983888
30
0
0
SPLINE
5
C1
100
AcDbEntity
8
1
62
256
6
ByLayer
370
13
48
1
60
0
100
AcDbSpline
70
4
71
3
72
24
73
20
40
0
40
0
40
0
40
0
40
0.186173147935319
40
0.186173147935319
40
0.284365760012885
40
0.284365760012885
40
0.333462066051669
40
0.333462066051669
40
0.382558372090452
40
0.382558372090452
40
0.480750984168015
40
0.480750984168015
40
0.578943596245579
40
0.578943596245579
40
0.775328820400706
40
0.775328820400706
40
0.971714044555833
40
0.971714044555833
40
1
40
1
40
1
40
1
41
1
10
74.0941090497381
20
-2.87484496465729
30
0
41
1
10
73.3745836317537
20
-2.68495074843017
30
0
41
1
10
72.6568995248606
20
-2.44898294346538
30
0
41
1
10
71.5531044453835
20
-2.03176672325131
30
0
41
1
10
71.1706011547587
20
-1.87734698232927
30
0
41
1
10
70.5933727395983
20
-1.63225164348796
30
0
41
1
10
70.4005971665217
20
-1.54842071567646
30
0
41
1
10
70.0160090720158
20
-1.37783822320256
30
0
41
1
10
69.8239123006496
20
-1.29097978977839
30
0
41
1
10
69.2479103442236
20
-1.0263388647773
30
0
41
1
10
68.8642614841281
20
-0.844543028004779
30
0
41
1
10
68.0953966278988
20
-0.474538865661572
30
0
41
1
10
67.7092313438883
20
-0.285794351881236
30
0
41
1
10
66.5585946076541
20
0.278391196138045
30
0
41
1
10
65.7983902763499
20
0.652056297736721
30
0
41
1
10
64.2765705309703
20
1.36353005519521
30
0
41
1
10
63.5149385977579
20
1.70133579037884
30
0
41
1
10
62.6332478754978
20
2.04839635689424
30
0
41
1
10
62.5222418416709
20
2.09128815176391
30
0
41
1
10
62.4113772394606
20
2.13330732637067
30
0
0
SPLINE
5
C2
100
AcDbEntity
8
1
62
256
6
ByLayer
370
18
48
1
60
0
100
AcDbSpline
70
4
71
3
72
12
73
8
40
0
40
0
40
0
40
0
40
0.145170829897099
40
0.145170829897099
40
0.439634844552162
40
0.439634844552162
40
1
40
1
40
1
40
1
41
1
10
34.5676771960829
20
-3.35439836856491
30
0
41
1
10
34.3774125712414
20
-3.35500327080831
30
0
41
1
10
34.1876694614939
20
-3.35182492903729
30
0
41
1
10
33.6142959147987
20
-3.33092374238035
30
0
41
1
10
33.2318381819109
20
-3.30159638747497
30
0
41
1
10
32.123703450339
20
-3.17338845870134
30
0
41
1
10
31.3997791982164
20
-3.03550293584203
30
0
41
1
10
30.6715018942848
20
-2.8496199524734
30
0
0
SPLINE
5
C3
100
AcDbEntity
8
1
62
256
6
ByLayer
370
13
48
1
60
0
100
AcDbSpline
70
4
71
3
72
28
73
24
40
0
40
0
40
0
40
0
40
0.0098356866589345
40
0.0098356866589345
40
0.111234998576989
40
0.111234998576989
40
0.212634310495043
40
0.212634310495043
40
0.41543293433115
40
0.41543293433115
40
0.516832246249202
40
0.516832246249202
40
0.567531902208228
40
0.567531902208228
40
0.618231558167254
40
0.618231558167254
40
0.719630870085306
40
0.719630870085306
40
0.770330526044332
40
0.770330526044332
40
0.821030182003358
40
0.821030182003358
40
1
40
1
40
1
40
1
41
1
10
30.6715018952247
20
-2.84961995271328
30
0
41
1
10
30.6343802206484
20
-2.84014514472582
30
0
41
1
10
30.5972472362598
20
-2.83054563289838
30
0
41
1
10
30.1771600109117
20
-2.72058004898733
30
0
41
1
10
29.7929523673953
20
-2.60703874121526
30
0
41
1
10
29.0200737979994
20
-2.35522737651109
30
0
41
1
10
28.6356562004046
20
-2.21845749781039
30
0
41
1
10
27.4865648524303
20
-1.78137561820876
30
0
41
1
10
26.7255912772932
20
-1.45401051665991
30
0
41
1
10
25.57995678379
20
-0.931402002764543
30
0
41
1
10
25.1974310497683
20
-0.751873988713442
30
0
41
1
10
24.6211862405636
20
-0.477522469507619
30
0
41
1
10
24.4286927646459
20
-0.385231821065872
30
0
41
1
10
24.0425992145191
20
-0.199544762834762
30
0
41
1
10
23.8491413793953
20
-0.106214666827554
30
0
41
1
10
23.2702308831863
20
0.173260318939924
30
0
41
1
10
22.8850321108481
20
0.359152295170531
30
0
41
1
10
22.3068320998171
20
0.63425490370571
30
0
41
1
10
22.1140435964259
20
0.725357588101332
30
0
41
1
10
21.7280925780942
20
0.905821497985755
30
0
41
1
10
21.5346809054724
20
0.995297565818419
30
0
41
1
10
20.6599046958699
20
1.39418947561106
30
0
41
1
10
19.9847955885008
20
1.68568358897304
30
0
41
1
10
19.310879509588
20
1.9488444524888
30
0
0
SPLINE
5
C4
100
AcDbEntity
8
1
62
256
6
ByLayer
370
18
48
1
60
0
100
AcDbSpline
70
4
71
3
72
8
73
4
40
0
40
0
40
0
40
0
40
1
40
1
40
1
40
1
41
1
10
79.9259174084381
20
0.399616972437826
30
0
41
1
10
79.9335399625366
20
0.353818744865379
30
0
41
1
10
79.9410663785327
20
0.308022004466523
30
0
41
1
10
79.9484965769668
20
0.262226957690615
30
0
0
SPLINE
5
C5
100
AcDbEntity
8
1
62
256
6
ByLayer
370
18
48
1
60
0
100
AcDbSpline
70
4
71
3
72
8
73
4
40
0
40
0
40
0
40
0
40
1
40
1
40
1
40
1
41
1
10
78.7910944251433
20
-3.46946588281571
30
0
41
1
10
78.7856072845591
20
-3.48407572792652
30
0
41
1
10
78.7801173467477
20
-3.49868291957404
30
0
41
1
10
78.774624747341
20
-3.51328723691631
30
0
0
SPLINE
5
C6
100
AcDbEntity
8
1
62
256
6
ByLayer
370
18
48
1
60
0
100
AcDbSpline
70
4
71
3
72
16
73
12
40
0
40
0
40
0
40
0
40
0.25
40
0.25
40
0.5
40
0.5
40
0.75
40
0.75
40
0.875
40
0.875
40
1
40
1
40
1
40
1
41
1
10
78.8439804133961
20
1.05800584531116
30
0
41
1
10
78.9182595869339
20
1.0694131426836
30
0
41
1
10
78.9920506473388
20
1.08250042001492
30
0
41
1
10
79.1379698586488
20
1.11390408799139
30
0
41
1
10
79.2101404469678
20
1.13214675815718
30
0
41
1
10
79.3517382631546
20
1.17778280744241
30
0
41
1
10
79.4214313400269
20
1.2051161692911
30
0
41
1
10
79.5176791364394
20
1.25872671472754
30
0
41
1
10
79.5484996530665
20
1.27878023663675
30
0
41
1
10
79.6058657609533
20
1.32599405122113
30
0
41
1
10
79.6314864976263
20
1.35240037720271
30
0
41
1
10
79.6525062866633
20
1.38310724281337
30
0
0
SPLINE
5
C7
100
AcDbEntity
8
1
62
256
6
ByLayer
370
18
48
1
60
0
100
AcDbSpline
70
4
71
3
72
56
73
52
40
0
40
0
40
0
40
0
40
0.0557227237092444
40
0.0557227237092444
40
0.111445447418489
40
0.111445447418489
40
0.167168171127733
40
0.167168171127733
40
0.222890894836977
40
0.222890894836977
40
0.2507522566916
40
0.2507522566916
40
0.278613618546222
40
0.278613618546222
40
0.334336342255467
40
0.334336342255467
40
0.36219770411009
40
0.36219770411009
40
0.390059065964713
40
0.390059065964713
40
0.445781789673957
40
0.445781789673957
40
0.473643151528579
40
0.473643151528579
40
0.501504513383201
40
0.501504513383201
40
0.557227237092445
40
0.557227237092445
40
0.585088598947066
40
0.585088598947066
40
0.612949960801688
40
0.612949960801688
40
0.668672684510934
40
0.668672684510934
40
0.696534046365557
40
0.696534046365557
40
0.724395408220181
40
0.724395408220181
40
0.780118131929426
40
0.780118131929426
40
0.807979493784049
40
0.807979493784049
40
0.835840855638672
40
0.835840855638672
40
0.891563579347917
40
0.891563579347917
40
0.919424941202538
40
0.919424941202538
40
0.94728630305716
40
0.94728630305716
40
1
40
1
40
1
40
1
41
1
10
15.8492818013078
20
2.88804262252245
30
0
41
1
10
16.1779672702216
20
2.79501596231509
30
0
41
1
10
16.5067320356778
20
2.69440698570949
30
0
41
1
10
17.1626270224921
20
2.47699489520036
30
0
41
1
10
17.4896267623169
20
2.35997822334025
30
0
41
1
10
18.1406239442421
20
2.10713447482658
30
0
41
1
10
18.466935697844
20
1.97489340330387
30
0
41
1
10
19.1208129714168
20
1.69879403045297
30
0
41
1
10
19.4481155646941
20
1.55450530176671
30
0
41
1
10
19.9388069110913
20
1.32658049473181
30
0
41
1
10
20.1027162249815
20
1.24940693838283
30
0
41
1
10
20.4319144815328
20
1.09408535382855
30
0
41
1
10
20.5971578574317
20
1.01559887553975
30
0
41
1
10
21.091954566214
20
0.778255610322617
30
0
41
1
10
21.4212383472059
20
0.617171019911495
30
0
41
1
10
21.9133311333727
20
0.369259702870693
30
0
41
1
10
22.0774294242477
20
0.286308717322157
30
0
41
1
10
22.4065686045013
20
0.121416340685272
30
0
41
1
10
22.5714433567907
20
0.0391451747957205
30
0
41
1
10
23.0666435967038
20
-0.207815098821982
30
0
41
1
10
23.396246747788
20
-0.372047137928519
30
0
41
1
10
23.8882978540243
20
-0.619395455429128
30
0
41
1
10
24.0523016113191
20
-0.701328193274747
30
0
41
1
10
24.3811775021987
20
-0.8624336033497
30
0
41
1
10
24.5458732274036
20
-0.941955242300708
30
0
41
1
10
25.0403918426128
20
-1.17810968736393
30
0
41
1
10
25.3707745463497
20
-1.33242080905271
30
0
41
1
10
25.8616118338634
20
-1.55863834822685
30
0
41
1
10
26.0249264194064
20
-1.63266171630724
30
0
41
1
10
26.3519285366896
20
-1.77630271435376
30
0
41
1
10
26.5154368860694
20
-1.84625930832917
30
0
41
1
10
27.0056618524813
20
-2.05122099765208
30
0
41
1
10
27.332088637315
20
-2.18135638678533
30
0
41
1
10
27.8200793188502
20
-2.36805621452393
30
0
41
1
10
27.9826986966944
20
-2.42848617998197
30
0
41
1
10
28.3090356516171
20
-2.54406951076029
30
0
41
1
10
28.4725487446939
20
-2.59953636952702
30
0
41
1
10
28.9637797262107
20
-2.75950240433159
30
0
41
1
10
29.2921959151053
20
-2.85762011082642
30
0
41
1
10
29.7852312910591
20
-2.99249846491259
30
0
41
1
10
29.9495460323948
20
-3.03509498922037
30
0
41
1
10
30.2784685379711
20
-3.1140221707025
30
0
41
1
10
30.4430106451653
20
-3.15064268254346
30
0
41
1
10
30.9365294565898
20
-3.25247135612969
30
0
41
1
10
31.2654133495387
20
-3.30972054989917
30
0
41
1
10
31.7574298368608
20
-3.37970256608546
30
0
41
1
10
31.9213484364423
20
-3.40024794498731
30
0
41
1
10
32.2504930804644
20
-3.43513654614156
30
0
41
1
10
32.4155407525284
20
-3.44961340721474
30
0
41
1
10
32.8920667190926
20
-3.48303544799074
30
0
41
1
10
33.2033578298098
20
-3.49458788527545
30
0
41
1
10
33.5135522679105
20
-3.49557495980827
30
0
0
SPLINE
5
C8
100
AcDbEntity
8
1
62
256
6
ByLayer
370
18
48
1
60
0
100
AcDbSpline
70
4
71
3
72
94
73
90
40
0
40
0
40
0
40
0
40
0.0092346694448966
40
0.0092346694448966
40
0.0267908292138696
40
0.0267908292138696
40
0.0443469889828423
40
0.0443469889828423
40
0.0794593085207882
40
0.0794593085207882
40
0.0970154682897608
40
0.0970154682897608
40
0.114571628058734
40
0.114571628058734
40
0.149683947596678
40
0.149683947596678
40
0.167240107365651
40
0.167240107365651
40
0.184796267134623
40
0.184796267134623
40
0.219908586672567
40
0.219908586672567
40
0.23746474644154
40
0.23746474644154
40
0.255020906210512
40
0.255020906210512
40
0.290133225748456
40
0.290133225748456
40
0.307689385517427
40
0.307689385517427
40
0.325245545286399
40
0.325245545286399
40
0.360357864824344
40
0.360357864824344
40
0.377914024593317
40
0.377914024593317
40
0.395470184362289
40
0.395470184362289
40
0.430582503900235
40
0.430582503900235
40
0.448138663669208
40
0.448138663669208
40
0.46569482343818
40
0.46569482343818
40
0.500807142976124
40
0.500807142976124
40
0.518363302745097
40
0.518363302745097
40
0.535919462514069
40
0.535919462514069
40
0.571031782052014
40
0.571031782052014
40
0.588587941820986
40
0.588587941820986
40
0.606144101589958
40
0.606144101589958
40
0.641256421127902
40
0.641256421127902
40
0.658812580896873
40
0.658812580896873
40
0.676368740665845
40
0.676368740665845
40
0.711481060203789
40
0.711481060203789
40
0.729037219972761
40
0.729037219972761
40
0.746593379741733
40
0.746593379741733
40
0.781705699279678
40
0.781705699279678
40
0.799261859048649
40
0.799261859048649
40
0.816818018817621
40
0.816818018817621
40
0.851930338355565
40
0.851930338355565
40
0.869486498124537
40
0.869486498124537
40
0.887042657893509
40
0.887042657893509
40
0.922154977431454
40
0.922154977431454
40
0.939711137200425
40
0.939711137200425
40
0.957267296969397
40
0.957267296969397
40
0.992379616507341
40
0.992379616507341
40
1
40
1
40
1
40
1
41
1
10
49.0796384885542
20
2.18447012164762
30
0
41
1
10
49.1659459802207
20
2.21875483305664
30
0
41
1
10
49.2522098463574
20
2.25261735069745
30
0
41
1
10
49.5023062525727
20
2.3496817081826
30
0
41
1
10
49.6658375708517
20
2.41201021940123
30
0
41
1
10
49.9941495123264
20
2.53122352298232
30
0
41
1
10
50.1588994599802
20
2.5884340843381
30
0
41
1
10
50.6528692329211
20
2.75302363897219
30
0
41
1
10
50.9817102293774
20
2.85340047993745
30
0
41
1
10
51.4731713374037
20
2.99093617872566
30
0
41
1
10
51.6365175046751
20
3.03473529107762
30
0
41
1
10
51.9642360081958
20
3.11621685316254
30
0
41
1
10
52.1284570630736
20
3.15409026834576
30
0
41
1
10
52.6217767817054
20
3.2596708822191
30
0
41
1
10
52.9518403103664
20
3.31941759523599
30
0
41
1
10
53.4437951298008
20
3.39272326049039
30
0
41
1
10
53.6071970350886
20
3.41450988442026
30
0
41
1
10
53.9347872285388
20
3.45180354815307
30
0
41
1
10
54.0988517684347
20
3.46741648435162
30
0
41
1
10
54.5914216056793
20
3.50554952626283
30
0
41
1
10
54.9203114578319
20
3.51944547535456
30
0
41
1
10
55.4133534253215
20
3.5225417159904
30
0
41
1
10
55.5770578001224
20
3.52054183455627
30
0
41
1
10
55.9049593207367
20
3.51059267928474
30
0
41
1
10
56.0690895972931
20
3.50268468065892
30
0
41
1
10
56.5615842867368
20
3.47035696520223
30
0
41
1
10
56.8900635349348
20
3.43741852291174
30
0
41
1
10
57.3819251806484
20
3.37003161367733
30
0
41
1
10
57.545524021019
20
3.34438681249955
30
0
41
1
10
57.8738879444464
20
3.28779878470991
30
0
41
1
10
58.0384404906778
20
3.25689078576275
30
0
41
1
10
58.5315604281507
20
3.15649039217922
30
0
41
1
10
58.8600815712334
20
3.07932218670976
30
0
41
1
10
59.3514380246536
20
2.94692450134545
30
0
41
1
10
59.5147651139545
20
2.89972534011389
30
0
41
1
10
59.8423245477765
20
2.80115658095232
30
0
41
1
10
60.0065418675351
20
2.74981251937206
30
0
41
1
10
60.5000409197102
20
2.58922165218496
30
0
41
1
10
60.8295014084511
20
2.4736831223139
30
0
41
1
10
61.3210540500347
20
2.28675538865596
30
0
41
1
10
61.4843533121022
20
2.22176743398759
30
0
41
1
10
61.8115827292287
20
2.08903779657342
30
0
41
1
10
61.975543553328
20
2.02137386715282
30
0
41
1
10
62.4679947605761
20
1.81388981988402
30
0
41
1
10
62.7976073266778
20
1.66938418401065
30
0
41
1
10
63.2900023646459
20
1.44252740395925
30
0
41
1
10
63.4534880820097
20
1.36484692440391
30
0
41
1
10
63.7808125304909
20
1.20834114857948
30
0
41
1
10
63.9447330729611
20
1.12968021802459
30
0
41
1
10
64.436796249245
20
0.891681262708715
30
0
41
1
10
64.7652493769404
20
0.73036794048997
30
0
41
1
10
65.2574659582071
20
0.482224017843322
30
0
41
1
10
65.4213976968306
20
0.397970583680888
30
0
41
1
10
65.7492944001981
20
0.229973935067164
30
0
41
1
10
65.9134075394307
20
0.146506443392269
30
0
41
1
10
66.4057698727548
20
-0.103260552648237
30
0
41
1
10
66.7340521143218
20
-0.2689099172201
30
0
41
1
10
67.2254446645541
20
-0.518219540039127
30
0
41
1
10
67.3888679979112
20
-0.601854123703561
30
0
41
1
10
67.7163471786378
20
-0.767480199462028
30
0
41
1
10
67.8807273799821
20
-0.849136050135883
30
0
41
1
10
68.3740510193503
20
-1.09102610447042
30
0
41
1
10
68.7026164914912
20
-1.24792567949675
30
0
41
1
10
69.1938945706569
20
-1.47873006652543
30
0
41
1
10
69.3572059190398
20
-1.5552212715869
30
0
41
1
10
69.6841421981243
20
-1.70510521558165
30
0
41
1
10
69.8480393675734
20
-1.77803610389591
30
0
41
1
10
70.3405105078981
20
-1.99178908915442
30
0
41
1
10
70.6702620177102
20
-2.12774378781725
30
0
41
1
10
71.1620526217068
20
-2.32186888118594
30
0
41
1
10
71.3254588047237
20
-2.38521964539385
30
0
41
1
10
71.6522725006108
20
-2.50756698582421
30
0
41
1
10
71.816016592174
20
-2.56610744745731
30
0
41
1
10
72.3077738449271
20
-2.7347306968181
30
0
41
1
10
72.6363032250058
20
-2.83788577057928
30
0
41
1
10
73.1290473689442
20
-2.97978677928012
30
0
41
1
10
73.2928626643073
20
-3.02499152513758
30
0
41
1
10
73.6200295529419
20
-3.11003841951563
30
0
41
1
10
73.783845063663
20
-3.14954327311543
30
0
41
1
10
74.2755631005584
20
-3.25972701722512
30
0
41
1
10
74.6037016860207
20
-3.32218290175121
30
0
41
1
10
75.0952937524072
20
-3.39996634529254
30
0
41
1
10
75.2589280104232
20
-3.42327965636008
30
0
41
1
10
75.5864651773499
20
-3.46409120552281
30
0
41
1
10
75.7506597285234
20
-3.48138052160621
30
0
41
1
10
76.2421835489107
20
-3.52422915770853
30
0
41
1
10
76.5691519833276
20
-3.54098669462042
30
0
41
1
10
76.9653539073506
20
-3.54730985358108
30
0
41
1
10
77.035921809567
20
-3.54788645270111
30
0
41
1
10
77.1064242344336
20
-3.5479058655568
30
0
0
SPLINE
5
C9
100
AcDbEntity
8
1
62
256
6
ByLayer
370
13
48
1
60
0
100
AcDbSpline
70
4
71
3
72
10
73
6
40
0
40
0
40
0
40
0
40
0.5
40
0.5
40
1
40
1
40
1
40
1
41
1
10
79.7014890278937
20
0.415700972917421
30
0
41
1
10
79.5492089793452
20
0.498248876045352
30
0
41
1
10
79.4002405206381
20
0.591848147913197
30
0
41
1
10
79.1105401118796
20
0.806181326272394
30
0
41
1
10
78.9725555677485
20
0.924799518815519
30
0
41
1
10
78.8439804133962
20
1.05800584531056
30
0
0
SPLINE
5
CA
100
AcDbEntity
8
1
62
256
6
ByLayer
370
13
48
1
60
0
100
AcDbSpline
70
4
71
3
72
8
73
4
40
0
40
0
40
0
40
0
40
1
40
1
40
1
40
1
41
1
10
5.02472084863032
20
-1.53043155442168
30
0
41
1
10
5.04770860643657
20
-1.53357302871206
30
0
41
1
10
5.08661630039998
20
-1.5357107457875
30
0
41
1
10
5.13893863430459
20
-1.53690848536408
30
0
0
SPLINE
5
CB
100
AcDbEntity
8
1
62
256
6
ByLayer
370
18
48
1
60
0
100
AcDbSpline
70
4
71
3
72
86
73
82
40
0
40
0
40
0
40
0
40
0.006260228969625
40
0.006260228969625
40
0.0251160706662248
40
0.0251160706662248
40
0.0628277540594256
40
0.0628277540594256
40
0.100539437452626
40
0.100539437452626
40
0.119395279149226
40
0.119395279149226
40
0.138251120845826
40
0.138251120845826
40
0.175962804239025
40
0.175962804239025
40
0.213674487632225
40
0.213674487632225
40
0.232530329328825
40
0.232530329328825
40
0.251386171025425
40
0.251386171025425
40
0.289097854418624
40
0.289097854418624
40
0.307953696115223
40
0.307953696115223
40
0.326809537811823
40
0.326809537811823
40
0.364521221205021
40
0.364521221205021
40
0.38337706290162
40
0.38337706290162
40
0.402232904598219
40
0.402232904598219
40
0.439944587991417
40
0.439944587991417
40
0.458800429688017
40
0.458800429688017
40
0.477656271384617
40
0.477656271384617
40
0.496512113081217
40
0.496512113081217
40
0.515367954777816
40
0.515367954777816
40
0.553079638171016
40
0.553079638171016
40
0.571935479867615
40
0.571935479867615
40
0.590791321564214
40
0.590791321564214
40
0.609647163260813
40
0.609647163260813
40
0.628503004957412
40
0.628503004957412
40
0.666214688350611
40
0.666214688350611
40
0.703926371743809
40
0.703926371743809
40
0.741638055137007
40
0.741638055137007
40
0.779349738530205
40
0.779349738530205
40
0.798205580226805
40
0.798205580226805
40
0.817061421923404
40
0.817061421923404
40
0.835917263620003
40
0.835917263620003
40
0.854773105316602
40
0.854773105316602
40
0.873628947013201
40
0.873628947013201
40
0.8924847887098
40
0.8924847887098
40
0.930196472102998
40
0.930196472102998
40
0.967908155496194
40
0.967908155496194
40
0.986763997192792
40
0.986763997192792
40
1
40
1
40
1
40
1
41
1
10
70.8507605342424
20
-2.20740902080871
30
0
41
1
10
70.7930953222318
20
-2.22885247719856
30
0
41
1
10
70.7354523958498
20
-2.25009196021702
30
0
41
1
10
70.5042822805298
20
-2.33455864038876
30
0
41
1
10
70.3308645166881
20
-2.39610023409003
30
0
41
1
10
69.8098002079217
20
-2.5720942336049
30
0
41
1
10
69.4615563415427
20
-2.67919574349241
30
0
41
1
10
68.7643377189455
20
-2.87543363277504
30
0
41
1
10
68.4173873868226
20
-2.96401001264832
30
0
41
1
10
67.8962629569589
20
-3.07761077737666
30
0
41
1
10
67.7224932456347
20
-3.11170912774108
30
0
41
1
10
67.374796053275
20
-3.17421632564705
30
0
41
1
10
67.2008832995876
20
-3.20285485014574
30
0
41
1
10
66.6790416545096
20
-3.28063876008599
30
0
41
1
10
66.3308191328003
20
-3.32133464350594
30
0
41
1
10
65.6351092023968
20
-3.37631552810802
30
0
41
1
10
65.2875339603517
20
-3.38955119635295
30
0
41
1
10
64.7665364114636
20
-3.39117119159351
30
0
41
1
10
64.5930445994836
20
-3.38828536525611
30
0
41
1
10
64.2453698472335
20
-3.3760847963066
30
0
41
1
10
64.0711642826217
20
-3.36686281625208
30
0
41
1
10
63.5481402366348
20
-3.33032513249148
30
0
41
1
10
63.2000893990935
20
-3.29445958025437
30
0
41
1
10
62.679251018347
20
-3.22118877544483
30
0
41
1
10
62.5058328464386
20
-3.19356532122444
30
0
41
1
10
62.1584146954067
20
-3.13168800538594
30
0
41
1
10
61.9844850825183
20
-3.09723544801636
30
0
41
1
10
61.4621800066002
20
-2.98696245568158
30
0
41
1
10
61.1130085704028
20
-2.903369113873
30
0
41
1
10
60.5919016446111
20
-2.76027479547105
30
0
41
1
10
60.418305119697
20
-2.70995087436884
30
0
41
1
10
60.0708726111411
20
-2.60445351484862
30
0
41
1
10
59.8970773358226
20
-2.54849572261333
30
0
41
1
10
59.3753907257884
20
-2.37418497812746
30
0
41
1
10
59.0272868799518
20
-2.25031803952172
30
0
41
1
10
58.5051587622768
20
-2.05074809711132
30
0
41
1
10
58.3312075607238
20
-1.98253849657433
30
0
41
1
10
57.9834140535185
20
-1.84281603752683
30
0
41
1
10
57.8095853425574
20
-1.77136730244533
30
0
41
1
10
57.4620133072434
20
-1.62401574325355
30
0
41
1
10
57.2882408153783
20
-1.54878834287385
30
0
41
1
10
56.940829813846
20
-1.39567646105189
30
0
41
1
10
56.767300047844
20
-1.31730638270764
30
0
41
1
10
56.2457857481148
20
-1.0792535111573
30
0
41
1
10
55.896670665092
20
-0.917008020432661
30
0
41
1
10
55.3749097884115
20
-0.669330560204855
30
0
41
1
10
55.2011453609814
20
-0.586054260486122
30
0
41
1
10
54.8539867886969
20
-0.418004124501522
30
0
41
1
10
54.6806321078868
20
-0.333129467641982
30
0
41
1
10
54.3333210825365
20
-0.163724823771332
30
0
41
1
10
54.1594436282695
20
-0.0790517104173318
30
0
41
1
10
53.8113157440074
20
0.0901867980781503
30
0
41
1
10
53.6369649508116
20
0.174845320396628
30
0
41
1
10
53.1142305699576
20
0.428473957089864
30
0
41
1
10
52.7673439592936
20
0.597814382858246
30
0
41
1
10
52.0727767452349
20
0.927792938475875
30
0
41
1
10
51.7250823912699
20
1.0882458310916
30
0
41
1
10
51.0291135646096
20
1.40260844450572
30
0
41
1
10
50.6810140085847
20
1.55717782409957
30
0
41
1
10
49.9856467895917
20
1.84929930761515
30
0
41
1
10
49.6380910887572
20
1.98715820121836
30
0
41
1
10
49.1169664185206
20
2.18433140903988
30
0
41
1
10
48.9434141223658
20
2.24842007186828
30
0
41
1
10
48.5958238551659
20
2.37223819614275
30
0
41
1
10
48.4215984090332
20
2.43197820601929
30
0
41
1
10
48.0732003881278
20
2.54622650600234
30
0
41
1
10
47.8991684683209
20
2.60069761803743
30
0
41
1
10
47.551408210367
20
2.70375658657656
30
0
41
1
10
47.3776541805938
20
2.75245341454917
30
0
41
1
10
47.0304554594827
20
2.84603746701365
30
0
41
1
10
46.8570875927419
20
2.89042169717086
30
0
41
1
10
46.5098079441003
20
2.97345395282602
30
0
41
1
10
46.3359789686107
20
3.01230099802007
30
0
41
1
10
45.8139209058241
20
3.12044216729908
30
0
41
1
10
45.4649091677291
20
3.18097282008412
30
0
41
1
10
44.7704275242548
20
3.27589574754202
30
0
41
1
10
44.4235027808362
20
3.31113873237379
30
0
41
1
10
43.9020461680439
20
3.34407799892929
30
0
41
1
10
43.7281260417361
20
3.35202061638466
30
0
41
1
10
43.432022580864
20
3.36108914696939
30
0
41
1
10
43.3098111867363
20
3.36345290734417
30
0
41
1
10
43.1876666052189
20
3.36426564575424
30
0
0
SPLINE
5
CC
100
AcDbEntity
8
1
62
256
6
ByLayer
370
18
48
1
60
0
100
AcDbSpline
70
4
71
3
72
54
73
50
40
0
40
0
40
0
40
0
40
0.0554902218507274
40
0.0554902218507274
40
0.114522082985058
40
0.114522082985058
40
0.173553944119388
40
0.173553944119388
40
0.203069874686553
40
0.203069874686553
40
0.232585805253718
40
0.232585805253718
40
0.291617666388047
40
0.291617666388047
40
0.321133596955212
40
0.321133596955212
40
0.350649527522377
40
0.350649527522377
40
0.380165458089542
40
0.380165458089542
40
0.409681388656707
40
0.409681388656707
40
0.439197319223872
40
0.439197319223872
40
0.468713249791037
40
0.468713249791037
40
0.527745110925366
40
0.527745110925366
40
0.557261041492532
40
0.557261041492532
40
0.586776972059697
40
0.586776972059697
40
0.645808833194027
40
0.645808833194027
40
0.675324763761192
40
0.675324763761192
40
0.704840694328357
40
0.704840694328357
40
0.763872555462686
40
0.763872555462686
40
0.79338848602985
40
0.79338848602985
40
0.822904416597014
40
0.822904416597014
40
0.881936277731343
40
0.881936277731343
40
0.940968138865671
40
0.940968138865671
40
1
40
1
40
1
40
1
41
1
10
27.3136330301815
20
-2.18722171063675
30
0
41
1
10
26.9865043994044
20
-2.30699810214699
30
0
41
1
10
26.6596805750764
20
-2.41898080709393
30
0
41
1
10
25.9844968726983
20
-2.63024455118722
30
0
41
1
10
25.636405330422
20
-2.73021095218536
30
0
41
1
10
24.9399085279022
20
-2.91233392555276
30
0
41
1
10
24.5911572452923
20
-2.99259543706774
30
0
41
1
10
24.0691836067588
20
-3.09321701056157
30
0
41
1
10
23.8952659943363
20
-3.12340367690103
30
0
41
1
10
23.5475840322359
20
-3.17839822076607
30
0
41
1
10
23.373948796231
20
-3.20339582805053
30
0
41
1
10
22.8523862386984
20
-3.26851096207918
30
0
41
1
10
22.5029780418612
20
-3.29860341010416
30
0
41
1
10
21.9801771187108
20
-3.32744772157989
30
0
41
1
10
21.806097372725
20
-3.33405722352887
30
0
41
1
10
21.4583803683112
20
-3.34085540636281
30
0
41
1
10
21.2848071541064
20
-3.34110638300805
30
0
41
1
10
20.9372130392389
20
-3.33464789130787
30
0
41
1
10
20.7632491529183
20
-3.32757225233655
30
0
41
1
10
20.4149108380798
20
-3.30673882553762
30
0
41
1
10
20.2406060698649
20
-3.29397669457506
30
0
41
1
10
19.8916935817245
20
-3.26222505705235
30
0
41
1
10
19.7172111084729
20
-3.2432961010625
30
0
41
1
10
19.3691732950796
20
-3.19909242572143
30
0
41
1
10
19.1953651510418
20
-3.17388869603767
30
0
41
1
10
18.6735689904559
20
-3.09004487889652
30
0
41
1
10
18.3255315529625
20
-3.02261969988413
30
0
41
1
10
17.8031679343773
20
-2.90409487485894
30
0
41
1
10
17.629045181908
20
-2.86170984545188
30
0
41
1
10
17.2804884741362
20
-2.77003048460401
30
0
41
1
10
17.1060887401283
20
-2.72138572492298
30
0
41
1
10
16.5832086310359
20
-2.57007003796068
30
0
41
1
10
16.2348206097841
20
-2.46080640295918
30
0
41
1
10
15.7126989977568
20
-2.28237689512093
30
0
41
1
10
15.5388441460516
20
-2.22041001937737
30
0
41
1
10
15.1907341866355
20
-2.09165980547238
30
0
41
1
10
15.0163490086521
20
-2.02488314025319
30
0
41
1
10
14.4923349982345
20
-1.82010395346268
30
0
41
1
10
14.1432642114256
20
-1.67791294414573
30
0
41
1
10
13.6209859957065
20
-1.45437485407811
30
0
41
1
10
13.4471701226186
20
-1.37798402322116
30
0
41
1
10
13.0990514379018
20
-1.22314545239365
30
0
41
1
10
12.9247974956061
20
-1.144647306005
30
0
41
1
10
12.4014894669771
20
-0.906627392559415
30
0
41
1
10
12.0514788434482
20
-0.744241865648576
30
0
41
1
10
11.3547877191524
20
-0.413189061944024
30
0
41
1
10
11.0069836618743
20
-0.245768803124434
30
0
41
1
10
10.3100755592448
20
0.0880117026799212
30
0
41
1
10
9.96125931722429
20
0.254852868402821
30
0
41
1
10
9.61224999343062
20
0.422020434579394
30
0
0
SPLINE
5
CD
100
AcDbEntity
8
1
62
256
6
ByLayer
370
13
48
1
60
0
100
AcDbSpline
70
4
71
3
72
8
73
4
40
0
40
0
40
0
40
0
40
1
40
1
40
1
40
1
41
1
10
5.07419441556416
20
-1.62903679457256
30
0
41
1
10
5.09283818008313
20
-1.64002789235241
30
0
41
1
10
5.1142684551001
20
-1.64927748490464
30
0
41
1
10
5.13893863430459
20
-1.65654070208103
30
0
0
SPLINE
5
CE
100
AcDbEntity
8
1
62
256
6
ByLayer
370
18
48
1
60
0
100
AcDbSpline
70
4
71
3
72
24
73
20
40
0
40
0
40
0
40
0
40
0.125000000000001
40
0.125000000000001
40
0.250000000000001
40
0.250000000000001
40
0.375000000000002
40
0.375000000000002
40
0.437500000000003
40
0.437500000000003
40
0.500000000000003
40
0.500000000000003
40
0.749999999999992
40
0.749999999999992
40
0.812499999999992
40
0.812499999999992
40
0.874999999999992
40
0.874999999999992
40
1
40
1
40
1
40
1
41
1
10
78.8455416062538
20
3.43736053258368
30
0
41
1
10
78.8795911264681
20
3.35677928455644
30
0
41
1
10
78.9137009980556
20
3.27594344407191
30
0
41
1
10
78.9818812661762
20
3.11191792332173
30
0
41
1
10
79.0159535408735
20
3.02880135820004
30
0
41
1
10
79.0840801052781
20
2.86117260458931
30
0
41
1
10
79.1181319863507
20
2.77662956614392
30
0
41
1
10
79.1692173854749
20
2.64926328515111
30
0
41
1
10
79.1862537381007
20
2.60678458717143
30
0
41
1
10
79.2202969274251
20
2.52131847615266
30
0
41
1
10
79.2373030413719
20
2.47832712989407
30
0
41
1
10
79.3222551949831
20
2.26223273028828
30
0
41
1
10
79.390107687944
20
2.08528764444875
30
0
41
1
10
79.4736081317162
20
1.86548115527927
30
0
41
1
10
79.4902954877919
20
1.82152406706854
30
0
41
1
10
79.5233582000343
20
1.73369079932794
30
0
41
1
10
79.5397650107276
20
1.68980618130419
30
0
41
1
10
79.5886291976389
20
1.55823822930236
30
0
41
1
10
79.6207453281686
20
1.47063661178731
30
0
41
1
10
79.6525062866632
20
1.38310724281334
30
0
0
SPLINE
5
CF
100
AcDbEntity
8
1
62
256
6
ByLayer
370
18
48
1
60
0
100
AcDbSpline
70
4
71
3
72
8
73
4
40
0
40
0
40
0
40
0
40
1
40
1
40
1
40
1
41
1
10
78.8455416062538
20
-3.43736053258368
30
0
41
1
10
78.8196455376544
20
-3.46921682062322
30
0
41
1
10
78.7959864777667
20
-3.49465977190641
30
0
41
1
10
78.774624747341
20
-3.51328723691631
30
0
0
SPLINE
5
D0
100
AcDbEntity
8
1
62
256
6
ByLayer
370
18
48
1
60
0
100
AcDbSpline
70
4
71
3
72
8
73
4
40
0
40
0
40
0
40
0
40
1
40
1
40
1
40
1
41
1
10
78.7746247473411
20
3.51328723691631
30
0
41
1
10
78.4413159033423
20
3.53742182909807
30
0
41
1
10
78.1080259010926
20
3.54925510384331
30
0
41
1
10
77.7741338618374
20
3.54871347201634
30
0
0
SPLINE
5
D1
100
AcDbEntity
8
1
62
256
6
ByLayer
370
18
48
1
60
0
100
AcDbSpline
70
4
71
3
72
46
73
42
40
0
40
0
40
0
40
0
40
0.0156810934983338
40
0.0156810934983338
40
0.0400309587129423
40
0.0400309587129423
40
0.088730689142159
40
0.088730689142159
40
0.186130150000594
40
0.186130150000594
40
0.234829880429812
40
0.234829880429812
40
0.259179745644421
40
0.259179745644421
40
0.28352961085903
40
0.28352961085903
40
0.380929071717463
40
0.380929071717463
40
0.429628802146679
40
0.429628802146679
40
0.453978667361287
40
0.453978667361287
40
0.478328532575895
40
0.478328532575895
40
0.575727993434326
40
0.575727993434326
40
0.624427723863541
40
0.624427723863541
40
0.673127454292756
40
0.673127454292756
40
0.770526915151187
40
0.770526915151187
40
0.794876780365794
40
0.794876780365794
40
0.819226645580401
40
0.819226645580401
40
0.867926376009615
40
0.867926376009615
40
0.965325836868045
40
0.965325836868045
40
1
40
1
40
1
40
1
41
1
10
57.8495077241092
20
-3.40366652630254
30
0
41
1
10
57.7257044624048
20
-3.41990050074702
30
0
41
1
10
57.6018521318202
20
-3.43451403148313
30
0
41
1
10
57.28546494522
20
-3.46761856870759
30
0
41
1
10
57.0925009923938
20
-3.48377938911142
30
0
41
1
10
56.5157093635938
20
-3.51992747887493
30
0
41
1
10
56.1333007121657
20
-3.52768747089345
30
0
41
1
10
54.9891815627512
20
-3.50300534097494
30
0
41
1
10
54.2308358629312
20
-3.42243989431537
30
0
41
1
10
53.0869626778908
20
-3.21094480782921
30
0
41
1
10
52.7046332448519
20
-3.12536182064841
30
0
41
1
10
52.128010769827
20
-2.97521719699574
30
0
41
1
10
51.9349236565301
20
-2.92141573207084
30
0
41
1
10
51.5502680653507
20
-2.80755981099469
30
0
41
1
10
51.3584881305088
20
-2.74747575663156
30
0
41
1
10
50.4015565941214
20
-2.4324655983271
30
0
41
1
10
49.6422283240869
20
-2.13390084753038
30
0
41
1
10
48.5007794795037
20
-1.63550682510902
30
0
41
1
10
48.1197820086259
20
-1.46113092055313
30
0
41
1
10
47.5459686601914
20
-1.1898589501713
30
0
41
1
10
47.3543168569156
20
-1.09780748051344
30
0
41
1
10
46.9700254359861
20
-0.910827035422699
30
0
41
1
10
46.7770702192456
20
-0.81577031724612
30
0
41
1
10
45.8135083357496
20
-0.337037290393795
30
0
41
1
10
45.0466117178139
20
0.0567520334561209
30
0
41
1
10
43.8893872387881
20
0.638243088762891
30
0
41
1
10
43.5051823761864
20
0.829106950979167
30
0
41
1
10
42.7403964419545
20
1.1997002904005
30
0
41
1
10
42.3593097150504
20
1.37949690236175
30
0
41
1
10
41.2172237250149
20
1.89750897669063
30
0
41
1
10
40.4571155072589
20
2.21376518878554
30
0
41
1
10
39.4982058419883
20
2.55478195421904
30
0
41
1
10
39.3059723996309
20
2.62025372114607
30
0
41
1
10
38.9203274698725
20
2.74528006509675
30
0
41
1
10
38.7273909888437
20
2.80464498785165
30
0
41
1
10
38.1510164350385
20
2.97216234597499
30
0
41
1
10
37.7688106484317
20
3.07011973755323
30
0
41
1
10
36.6246800815669
20
3.32000511928132
30
0
41
1
10
35.8653103269992
20
3.42805794531421
30
0
41
1
10
34.8293567773914
20
3.48883697097818
30
0
41
1
10
34.5567568860386
20
3.49677600817807
30
0
41
1
10
34.283170809366
20
3.49652469113258
30
0
0
SPLINE
5
D2
100
AcDbEntity
8
1
62
256
6
ByLayer
370
18
48
1
60
0
100
AcDbSpline
70
4
71
3
72
24
73
20
40
0
40
0
40
0
40
0
40
0.0119797681366176
40
0.0119797681366176
40
0.135482297119541
40
0.135482297119541
40
0.197233561611003
40
0.197233561611003
40
0.258984826102464
40
0.258984826102464
40
0.505989884068309
40
0.505989884068309
40
0.629492413051232
40
0.629492413051232
40
0.691243677542694
40
0.691243677542694
40
0.752994942034155
40
0.752994942034155
40
1
40
1
40
1
40
1
41
1
10
14.4739080423031
20
-3.33664706543945
30
0
41
1
10
14.4365338962006
20
-3.3418035028991
30
0
41
1
10
14.3991608149214
20
-3.3468133864865
30
0
41
1
10
13.9764983163663
20
-3.40180648715159
30
0
41
1
10
13.5911882676795
20
-3.43630649819457
30
0
41
1
10
13.0116809244778
20
-3.46392271056175
30
0
41
1
10
12.8182688689917
20
-3.46908743641265
30
0
41
1
10
12.4330416047521
20
-3.47131262793025
30
0
41
1
10
12.2409283296549
20
-3.46839183814564
30
0
41
1
10
11.2821946055306
20
-3.43394270282226
30
0
41
1
10
10.5209924871961
20
-3.34284379935548
30
0
41
1
10
9.37588760527817
20
-3.11787915614965
30
0
41
1
10
8.9935036759793
20
-3.02829188993778
30
0
41
1
10
8.4174389053768
20
-2.87313872258895
30
0
41
1
10
8.22500606874397
20
-2.81795651523132
30
0
41
1
10
7.83911532743508
20
-2.70078284687816
30
0
41
1
10
7.64551283238308
20
-2.63873691554377
30
0
41
1
10
6.68010301601316
20
-2.31439910326233
30
0
41
1
10
5.91151767623367
20
-2.00846135646802
30
0
41
1
10
5.1382247018945
20
-1.66941081121112
30
0
0
SPLINE
5
D3
100
AcDbEntity
8
1
62
256
6
ByLayer
370
18
48
1
60
0
100
AcDbSpline
70
4
71
3
72
8
73
4
40
0
40
0
40
0
40
0
40
1
40
1
40
1
40
1
41
1
10
79.9296848168426
20
-0.152432191616072
30
0
41
1
10
79.9295095138415
20
-0.152803008835463
30
0
41
1
10
79.929334213421
20
-0.153173828486388
30
0
41
1
10
79.9291589155811
20
-0.153544650568847
30
0
0
SPLINE
5
D4
100
AcDbEntity
8
1
62
256
6
ByLayer
370
18
48
1
60
0
100
AcDbSpline
70
4
71
3
72
8
73
4
40
0
40
0
40
0
40
0
40
1
40
1
40
1
40
1
41
1
10
5.07419441556416
20
-1.62903679457258
30
0
41
1
10
5.04445976414155
20
-1.60306726824601
30
0
41
1
10
5.02471894520605
20
-1.56807488497915
30
0
41
1
10
5.02472084863058
20
-1.53043155442836
30
0
0
SPLINE
5
D5
100
AcDbEntity
8
1
62
256
6
ByLayer
370
18
48
1
60
0
100
AcDbSpline
70
4
71
3
72
36
73
32
40
0
40
0
40
0
40
0
40
0.118084525946687
40
0.118084525946687
40
0.373744092070677
40
0.373744092070677
40
0.501573875132671
40
0.501573875132671
40
0.629403658194665
40
0.629403658194665
40
0.757233441256659
40
0.757233441256659
40
0.789190887022157
40
0.789190887022157
40
0.805169609904907
40
0.805169609904907
40
0.813158971346283
40
0.813158971346283
40
0.821148332787659
40
0.821148332787659
40
0.885063224318672
40
0.885063224318672
40
0.917020670084178
40
0.917020670084178
40
0.932999392966931
40
0.932999392966931
40
0.948978115849684
40
0.948978115849684
40
0.98093556161519
40
0.98093556161519
40
1
40
1
40
1
40
1
41
1
10
10.7703652287433
20
-3.46829353910655
30
0
41
1
10
10.4546656489836
20
-3.46774601335036
30
0
41
1
10
10.1373003752642
20
-3.4630114825959
30
0
41
1
10
9.12690297356173
20
-3.43889234049459
30
0
41
1
10
8.42697381142361
20
-3.40903354128079
30
0
41
1
10
7.36231551303774
20
-3.36343571963349
30
0
41
1
10
7.00481483748069
20
-3.34807490610066
30
0
41
1
10
6.28835350120923
20
-3.3198468496243
30
0
41
1
10
5.92878262104563
20
-3.30695877345616
30
0
41
1
10
5.2082155018675
20
-3.28567857176952
30
0
41
1
10
4.84727839837845
20
-3.27728675590268
30
0
41
1
10
4.39526196807574
20
-3.27039925470962
30
0
41
1
10
4.30483177118148
20
-3.26920038786102
30
0
41
1
10
4.16916338501352
20
-3.26767956699709
30
0
41
1
10
4.12393409200987
20
-3.26721882166035
30
0
41
1
10
4.05608834095924
20
-3.26659803198413
30
0
41
1
10
4.03343913631585
20
-3.26627947239098
30
0
41
1
10
3.98891855267729
20
-3.26821712529224
30
0
41
1
10
3.96610319476076
20
-3.27035700438225
30
0
41
1
10
3.79422349096617
20
-3.3056302305117
30
0
41
1
10
3.64709769216233
20
-3.33651915509014
30
0
41
1
10
3.44750016360075
20
-3.37844762623678
30
0
41
1
10
3.384378337512
20
-3.39170385979486
30
0
41
1
10
3.29651152943424
20
-3.40988614606988
30
0
41
1
10
3.26836662047171
20
-3.41566030268973
30
0
41
1
10
3.21479781912609
20
-3.4264764604585
30
0
41
1
10
3.1893771875246
20
-3.43151615919194
30
0
41
1
10
3.11955088529936
20
-3.44493853765431
30
0
41
1
10
3.08093372081532
20
-3.45176971149667
30
0
41
1
10
3.03547791477922
20
-3.45790176485775
30
0
41
1
10
3.02254876330855
20
-3.45905724871651
30
0
41
1
10
3.01377696017187
20
-3.45899744166272
30
0
0
SPLINE
5
D6
100
AcDbEntity
8
1
62
256
6
ByLayer
370
18
48
1
60
0
100
AcDbSpline
70
4
71
3
72
18
73
14
40
0
40
0
40
0
40
0
40
0.250000000000002
40
0.250000000000002
40
0.375000000000003
40
0.375000000000003
40
0.500000000000004
40
0.500000000000004
40
0.749999999999997
40
0.749999999999997
40
0.874999999999999
40
0.874999999999999
40
1
40
1
40
1
40
1
41
1
10
76.4163110690275
20
-0.328524629203287
30
0
41
1
10
76.5136072648019
20
-0.554689154857186
30
0
41
1
10
76.6292880941512
20
-0.76709135930588
30
0
41
1
10
76.8247104027051
20
-1.06930002403158
30
0
41
1
10
76.8933105747685
20
-1.16680929084731
30
0
41
1
10
77.0345842724326
20
-1.35331304656003
30
0
41
1
10
77.1075576238403
20
-1.4427756716299
30
0
41
1
10
77.3326555446304
20
-1.70114451311446
30
0
41
1
10
77.4909041413054
20
-1.86011901033291
30
0
41
1
10
77.7385907540005
20
-2.08185435325564
30
0
41
1
10
77.8227735866119
20
-2.15282228425426
30
0
41
1
10
77.9928371516224
20
-2.28820730163687
30
0
41
1
10
78.0789070100394
20
-2.35279519399674
30
0
41
1
10
78.1659492829298
20
-2.41447484638979
30
0
0
SPLINE
5
D7
100
AcDbEntity
8
1
62
256
6
ByLayer
370
18
48
1
60
0
100
AcDbSpline
70
4
71
3
72
73
73
69
40
0
40
0
40
0
40
0
40
0.0008693676817097
40
0.0008693676817097
40
0.0898392905783213
40
0.0898392905783213
40
0.178809213474933
40
0.178809213474933
40
0.267779136371544
40
0.267779136371544
40
0.356749059268156
40
0.356749059268156
40
0.401234020716462
40
0.401234020716462
40
0.445718982164768
40
0.490203943613074
40
0.490203943613074
40
0.512446424337226
40
0.512446424337226
40
0.523567664699303
40
0.529128284880341
40
0.529823362402971
40
0.530170901164286
40
0.530344670544943
40
0.530344670544943
40
0.5305184399256
40
0.5305184399256
40
0.53121351744823
40
0.53121351744823
40
0.53190859497086
40
0.53190859497086
40
0.53468890506138
40
0.53468890506138
40
0.545810145423458
40
0.545810145423458
40
0.556931385785536
40
0.556931385785536
40
0.579173866509692
40
0.579173866509692
40
0.623658827958003
40
0.623658827958003
40
0.712628750854627
40
0.712628750854627
40
0.801598673751251
40
0.801598673751251
40
0.823841154475407
40
0.823841154475407
40
0.834962394837484
40
0.834962394837484
40
0.837742704928004
40
0.837742704928004
40
0.839132859973264
40
0.839132859973264
40
0.839480398734579
40
0.839480398734579
40
0.839654168115236
40
0.839654168115236
40
0.839827937495893
40
0.839827937495893
40
0.840523015018523
40
0.846083635199563
40
0.890568596647881
40
0.890568596647881
40
0.935053558096199
40
0.935053558096199
40
0.979538519544517
40
0.979538519544517
40
1
40
1
40
1
40
1
41
1
10
15.8492818050761
20
2.8880426227758
30
0
41
1
10
15.8456616903345
20
2.88779923628187
30
0
41
1
10
15.8420414252768
20
2.88755430000319
30
0
41
1
10
15.4679124678826
20
2.86208249155536
30
0
41
1
10
15.0954339831748
20
2.82048194783656
30
0
41
1
10
14.3459310001271
20
2.70092246481792
30
0
41
1
10
13.9729314308345
20
2.62358441952583
30
0
41
1
10
13.2275223434498
20
2.43614016738957
30
0
41
1
10
12.8550998759411
20
2.32604684760366
30
0
41
1
10
12.1068130771956
20
2.07936343111646
30
0
41
1
10
11.7309350189739
20
1.94280032487839
30
0
41
1
10
11.1610061394165
20
1.72524390516676
30
0
41
1
10
10.9706671775072
20
1.65088071222527
30
0
41
1
10
10.5908502759355
20
1.50082433601057
30
0
41
1
10
10.2112273645422
20
1.34918548917466
30
0
41
1
10
9.83078548585706
20
1.19742048295927
30
0
41
1
10
9.544699040659
20
1.08468392049932
30
0
41
1
10
9.44920609856723
20
1.04728468732205
30
0
41
1
10
9.30599478178823
20
0.991704024217142
30
0
41
1
10
9.23438142828093
20
0.964037369549487
30
0
41
1
10
9.15977626981706
20
0.935443474037896
30
0
41
1
10
9.13142518887517
20
0.924612093681674
30
0
41
1
10
9.12620259198769
20
0.922617902697255
30
0
41
1
10
9.12396432887698
20
0.921763477771151
30
0
41
1
10
9.12247215185693
20
0.92119391199958
30
0
41
1
10
9.12214442886591
20
0.920457614932786
30
0
41
1
10
9.12391227712442
20
0.917432863623361
30
0
41
1
10
9.12663157106141
20
0.915920621580966
30
0
41
1
10
9.13143759182134
20
0.91260963762889
30
0
41
1
10
9.13391545413322
20
0.911043406871215
30
0
41
1
10
9.14642154441771
20
0.903374658391499
30
0
41
1
10
9.15679907995144
20
0.897708276150723
30
0
41
1
10
9.20885856144906
20
0.86969652951683
30
0
41
1
10
9.2514905281173
20
0.848729842808211
30
0
41
1
10
9.33681290005379
20
0.806971755562842
30
0
41
1
10
9.37965556860752
20
0.786403571084747
30
0
41
1
10
9.50842004531631
20
0.725155496662012
30
0
41
1
10
9.59458649604201
20
0.68494471810223
30
0
41
1
10
9.85347577141036
20
0.56527888653585
30
0
41
1
10
10.0265913468441
20
0.486839096000864
30
0
41
1
10
10.5465203854763
20
0.254037578576487
30
0
41
1
10
10.8938126023383
20
0.102214179877563
30
0
41
1
10
11.5882170925244
20
-0.196580997120662
30
0
41
1
10
11.9353053617046
20
-0.343919551501386
30
0
41
1
10
12.3667704720958
20
-0.526157539330939
30
0
41
1
10
12.4529683984077
20
-0.56251160717585
30
0
41
1
10
12.5814983750207
20
-0.617062380040267
30
0
41
1
10
12.6242964988399
20
-0.635223700901719
30
0
41
1
10
12.6769287466301
20
-0.658123087901203
30
0
41
1
10
12.6874171299251
20
-0.662711400260747
30
0
41
1
10
12.7028616414495
20
-0.669670937935337
30
0
41
1
10
12.7080202593132
20
-0.67199772981354
30
0
41
1
10
12.7140557821079
20
-0.674993337132776
30
0
41
1
10
12.7152565457068
20
-0.675597173412569
30
0
41
1
10
12.7168000851899
20
-0.676511085825467
30
0
41
1
10
12.7175316526864
20
-0.676913285265982
30
0
41
1
10
12.7169943072865
20
-0.677192384699481
30
0
41
1
10
12.7160524320333
20
-0.676996320737942
30
0
41
1
10
12.7127965601124
20
-0.676723909398987
30
0
41
1
10
12.6893528907343
20
-0.674741577812597
30
0
41
1
10
12.4990914737106
20
-0.657137620089117
30
0
41
1
10
12.3106470965562
20
-0.627680361649595
30
0
41
1
10
11.9745399711499
20
-0.557361230700849
30
0
41
1
10
11.8056800023436
20
-0.513210120124455
30
0
41
1
10
11.4641088203248
20
-0.408123414795114
30
0
41
1
10
11.2933157907946
20
-0.347781784775975
30
0
41
1
10
11.0431000282917
20
-0.250367055036577
30
0
41
1
10
10.9641073039111
20
-0.218323313295599
30
0
41
1
10
10.8848905655853
20
-0.185049317754277
30
0
0
SPLINE
5
D8
100
AcDbEntity
8
1
62
256
6
ByLayer
370
18
48
1
60
0
100
AcDbSpline
70
4
71
3
72
10
73
6
40
0
40
0
40
0
40
0
40
0.5
40
0.5
40
1
40
1
40
1
40
1
41
1
10
79.962707515709
20
-0.1884817498416
30
0
41
1
10
79.9669876370862
20
-0.165528582645891
30
0
41
1
10
79.9722624586476
20
-0.140646604135156
30
0
41
1
10
79.9846935179308
20
-0.0872305094228523
30
0
41
1
10
79.991913668903
20
-0.0584688305840473
30
0
41
1
10
79.9999790280832
20
-0.0284408584479365
30
0
0
SPLINE
5
D9
100
AcDbEntity
8
1
62
256
6
ByLayer
370
18
48
1
60
0
100
AcDbSpline
70
4
71
3
72
22
73
18
40
0
40
0
40
0
40
0
40
0.125
40
0.125
40
0.25
40
0.25
40
0.375
40
0.375
40
0.5
40
0.5
40
0.624999999999999
40
0.624999999999999
40
0.749999999999999
40
0.749999999999999
40
0.875
40
0.875
40
1
40
1
40
1
40
1
41
1
10
79.5440734230369
20
-1.21155658404277
30
0
41
1
10
79.5436662015866
20
-1.22954759878635
30
0
41
1
10
79.5404808860641
20
-1.25376803256091
30
0
41
1
10
79.5282886565465
20
-1.31479858370557
30
0
41
1
10
79.5195878339049
20
-1.35011785648058
30
0
41
1
10
79.4971397520036
20
-1.42995568692379
30
0
41
1
10
79.4839800429904
20
-1.47239750596935
30
0
41
1
10
79.4541354167928
20
-1.5619370641638
30
0
41
1
10
79.4381442422823
20
-1.6069533667621
30
0
41
1
10
79.4043130105925
20
-1.69741391617401
30
0
41
1
10
79.3869757691103
20
-1.74148876445204
30
0
41
1
10
79.3520874849789
20
-1.8262988997277
30
0
41
1
10
79.3345801660879
20
-1.86689239881781
30
0
41
1
10
79.3008533282061
20
-1.94151783885385
30
0
41
1
10
79.2842525898805
20
-1.97637482751813
30
0
41
1
10
79.2533721328894
20
-2.03749080461299
30
0
41
1
10
79.2389565594847
20
-2.06409226598115
30
0
41
1
10
79.2256205505669
20
-2.08649866031544
30
0
0
SPLINE
5
DA
100
AcDbEntity
8
1
62
256
6
ByLayer
370
18
48
1
60
0
100
AcDbSpline
70
4
71
3
72
24
73
20
40
0
40
0
40
0
40
0
40
0.124999999999999
40
0.124999999999999
40
0.249999999999997
40
0.249999999999997
40
0.374999999999995
40
0.374999999999995
40
0.437499999999998
40
0.437499999999998
40
0.5
40
0.5
40
0.75000000000001
40
0.75000000000001
40
0.812500000000009
40
0.812500000000009
40
0.875000000000008
40
0.875000000000008
40
1
40
1
40
1
40
1
41
1
10
78.8455416062538
20
-3.43736053258368
30
0
41
1
10
78.8795912476465
20
-3.35677899777687
30
0
41
1
10
78.913701230205
20
-3.27594289238016
30
0
41
1
10
78.9818816301963
20
-3.11191704077117
30
0
41
1
10
79.0159539288947
20
-3.02880040901979
30
0
41
1
10
79.084080488364
20
-2.86117165642261
30
0
41
1
10
79.1181323393421
20
-2.77662868800368
30
0
41
1
10
79.1692176723099
20
-2.64926256904352
30
0
41
1
10
79.1862540018644
20
-2.60678392768375
30
0
41
1
10
79.220297125786
20
-2.52131797546693
30
0
41
1
10
79.2373031974605
20
-2.47832673395141
30
0
41
1
10
79.3222550979904
20
-2.26223297259912
30
0
41
1
10
79.3901074598723
20
-2.08528824395717
30
0
41
1
10
79.4736080791769
20
-1.86548129379994
30
0
41
1
10
79.4902954693896
20
-1.82152411600819
30
0
41
1
10
79.523358227236
20
-1.73369072701215
30
0
41
1
10
79.5397650517567
20
-1.68980607138087
30
0
41
1
10
79.5886292562247
20
-1.55823807046136
30
0
41
1
10
79.6207453677721
20
-1.47063650264465
30
0
41
1
10
79.6525062866633
20
-1.38310724281337
30
0
0
SPLINE
5
DB
100
AcDbEntity
8
1
62
256
6
ByLayer
370
18
48
1
60
0
100
AcDbSpline
70
4
71
3
72
8
73
4
40
0
40
0
40
0
40
0
40
1
40
1
40
1
40
1
41
1
10
79.9484965769668
20
-0.262226957690643
30
0
41
1
10
79.952123386792
20
-0.239873594309728
30
0
41
1
10
79.9569404644129
20
-0.215135182314356
30
0
41
1
10
79.9627075157089
20
-0.188481749841628
30
0
0
SPLINE
5
DC
100
AcDbEntity
8
1
62
256
6
ByLayer
370
18
48
1
60
0
100
AcDbSpline
70
4
71
3
72
14
73
10
40
0
40
0
40
0
40
0
40
0.25
40
0.25
40
0.5
40
0.5
40
0.75
40
0.75
40
1
40
1
40
1
40
1
41
1
10
78.8096037786785
20
-3.38472284352642
30
0
41
1
10
78.8117412313678
20
-3.38312612864141
30
0
41
1
10
78.813204546569
20
-3.38336088375655
30
0
41
1
10
78.8143655577618
20
-3.38861044945085
30
0
41
1
10
78.8139915213729
20
-3.39366552304554
30
0
41
1
10
78.8108846107989
20
-3.40898247700346
30
0
41
1
10
78.8080870678668
20
-3.41940445125061
30
0
41
1
10
78.8006292689103
20
-3.44314556569864
30
0
41
1
10
78.7959943352169
20
-3.45641957460975
30
0
41
1
10
78.7910944251435
20
-3.46946588281557
30
0
0
SPLINE
5
DD
100
AcDbEntity
8
1
62
256
6
ByLayer
370
18
48
1
60
0
100
AcDbSpline
70
4
71
3
72
24
73
20
40
0
40
0
40
0
40
0
40
0.113297257330594
40
0.113297257330594
40
0.332859746816145
40
0.332859746816145
40
0.44264099155892
40
0.44264099155892
40
0.552422236301696
40
0.552422236301696
40
0.607312858673084
40
0.607312858673084
40
0.662203481044472
40
0.662203481044472
40
0.771984725787251
40
0.771984725787251
40
0.991547215272806
40
0.991547215272806
40
1
40
1
40
1
40
1
41
1
10
17.8321179196173
20
2.47459376372413
30
0
41
1
10
18.2267143770908
20
2.33928925184597
30
0
41
1
10
18.6203993677301
20
2.19220784621723
30
0
41
1
10
19.7775965974258
20
1.73054686639278
30
0
41
1
10
20.5415643082342
20
1.38823208013585
30
0
41
1
10
21.7009643105989
20
0.838854779199096
30
0
41
1
10
22.0873719305371
20
0.650948207924216
30
0
41
1
10
22.8585591005578
20
0.271534195778798
30
0
41
1
10
23.2438745829035
20
0.0796806291248515
30
0
41
1
10
23.8230601611429
20
-0.208056174395807
30
0
41
1
10
24.0166427676059
20
-0.304057996783626
30
0
41
1
10
24.4028300034873
20
-0.494723350654681
30
0
41
1
10
24.5953544764626
20
-0.589348918004362
30
0
41
1
10
25.1716547853898
20
-0.870263788480457
30
0
41
1
10
25.5541617223452
20
-1.05359594290343
30
0
41
1
10
26.699603137671
20
-1.58599287035139
30
0
41
1
10
27.460379379767
20
-1.91751550528588
30
0
41
1
10
28.2561013420157
20
-2.2219162504208
30
0
41
1
10
28.2856092188958
20
-2.23314469655816
30
0
41
1
10
28.3151267459841
20
-2.24431613365607
30
0
0
SPLINE
5
DE
100
AcDbEntity
8
1
62
256
6
ByLayer
370
13
48
1
60
0
100
AcDbSpline
70
4
71
3
72
20
73
16
40
0
40
0
40
0
40
0
40
0.139595101904947
40
0.139595101904947
40
0.290835178487194
40
0.290835178487194
40
0.593315331651682
40
0.593315331651682
40
0.744555408233929
40
0.744555408233929
40
0.820175446525052
40
0.820175446525052
40
0.895795484816176
40
0.895795484816176
40
1
40
1
40
1
40
1
41
1
10
28.3151267463719
20
-2.24431613380273
30
0
41
1
10
28.6689705574678
20
-2.37823466519333
30
0
41
1
10
29.0242011242285
20
-2.50396087502341
30
0
41
1
10
29.7675027091835
20
-2.74533603488973
30
0
41
1
10
30.151727648787
20
-2.85775002786915
30
0
41
1
10
31.3005538868481
20
-3.15332220821475
30
0
41
1
10
32.0610164983684
20
-3.29524637570068
30
0
41
1
10
33.2061347005838
20
-3.41561915050232
30
0
41
1
10
33.5886498528736
20
-3.44035963519866
30
0
41
1
10
34.1649411470244
20
-3.45377076873851
30
0
41
1
10
34.3574837002161
20
-3.45428750332374
30
0
41
1
10
34.7437018542656
20
-3.44726634125073
30
0
41
1
10
34.9368354324982
20
-3.43972199988516
30
0
41
1
10
35.3942552704564
20
-3.41233734628037
30
0
41
1
10
35.6584187733385
20
-3.38896182090667
30
0
41
1
10
35.9220048894678
20
-3.35834243891384
30
0
0
SPLINE
5
DF
100
AcDbEntity
8
1
62
256
6
ByLayer
370
18
48
1
60
0
100
AcDbSpline
70
4
71
3
72
28
73
24
40
0
40
0
40
0
40
0
40
0.0043775405020352
40
0.0043775405020352
40
0.0577621047337682
40
0.0577621047337682
40
0.111146668965501
40
0.111146668965501
40
0.324684925892431
40
0.324684925892431
40
0.538223182819361
40
0.538223182819361
40
0.644992311282824
40
0.644992311282824
40
0.751761439746288
40
0.751761439746288
40
0.80514600397802
40
0.80514600397802
40
0.858530568209751
40
0.858530568209751
40
0.965299696673211
40
0.965299696673211
40
1
40
1
40
1
40
1
41
1
10
61.5240221579233
20
2.44447792888744
30
0
41
1
10
61.5396931356122
20
2.43886276909709
30
0
41
1
10
61.5553663609469
20
2.43322786927419
30
0
41
1
10
61.7622068119427
20
2.35861547916613
30
0
41
1
10
61.9537221512638
20
2.28675298531613
30
0
41
1
10
62.3377678981213
20
2.13760356946614
30
0
41
1
10
62.5306394034851
20
2.06021457206015
30
0
41
1
10
63.4942357138407
20
1.66165699797054
30
0
41
1
10
64.2557036477399
20
1.30913792209324
30
0
41
1
10
65.7772979279873
20
0.570650685044257
30
0
41
1
10
66.5374874756025
20
0.184819906718275
30
0
41
1
10
67.6886457105374
20
-0.395414899366244
30
0
41
1
10
68.0750397114659
20
-0.589080103877393
30
0
41
1
10
68.8441686377209
20
-0.967589102592143
30
0
41
1
10
69.2279408062528
20
-1.15307945983719
30
0
41
1
10
69.8041577271885
20
-1.42243344615335
30
0
41
1
10
69.9963332583527
20
-1.51071937356548
30
0
41
1
10
70.3811210929929
20
-1.68383927871912
30
0
41
1
10
70.5740527382395
20
-1.76879605294846
30
0
41
1
10
71.1513733172191
20
-2.01665226556415
30
0
41
1
10
71.5338624676122
20
-2.1721957220085
30
0
41
1
10
72.0388135458343
20
-2.36371987310253
30
0
41
1
10
72.1625187727614
20
-2.40953831272469
30
0
41
1
10
72.2861086487223
20
-2.45415287214175
30
0
0
SPLINE
5
E0
100
AcDbEntity
8
1
62
256
6
ByLayer
370
13
48
1
60
0
100
AcDbSpline
70
4
71
3
72
16
73
12
40
0
40
0
40
0
40
0
40
0.295153793576701
40
0.295153793576701
40
0.471365345182532
40
0.471365345182532
40
0.559471120985446
40
0.559471120985446
40
0.64757689678836
40
0.64757689678836
40
1
40
1
40
1
40
1
41
1
10
72.2861086479355
20
-2.45415287185764
30
0
41
1
10
72.923064478079
20
-2.68408678442262
30
0
41
1
10
73.5569564118094
20
-2.88204381493219
30
0
41
1
10
74.5723246562511
20
-3.13742014230624
30
0
41
1
10
74.9525924078827
20
-3.21934324248824
30
0
41
1
10
75.5254860709562
20
-3.3202300681296
30
0
41
1
10
75.716873830208
20
-3.35019322805007
30
0
41
1
10
76.1007848664216
20
-3.40249176751001
30
0
41
1
10
76.2936272310634
20
-3.42485200025851
30
0
41
1
10
77.2561261045203
20
-3.51644059683878
30
0
41
1
10
78.0217692975649
20
-3.52553444328359
30
0
41
1
10
78.7910944251426
20
-3.46946588281565
30
0
0
SPLINE
5
E1
100
AcDbEntity
8
1
62
256
6
ByLayer
370
13
48
1
60
0
100
AcDbSpline
70
4
71
3
72
24
73
20
40
0
40
0
40
0
40
0
40
0.125
40
0.125
40
0.1875
40
0.1875
40
0.25
40
0.25
40
0.375
40
0.375
40
0.5
40
0.5
40
0.625
40
0.625
40
0.75
40
0.75
40
0.875
40
0.875
40
1
40
1
40
1
40
1
41
1
10
5.25040027747309
20
-1.55300006608047
30
0
41
1
10
5.25041736298766
20
-1.38970385484004
30
0
41
1
10
5.25042932707757
20
-1.22081050339912
30
0
41
1
10
5.25044201695883
20
-0.959211280907482
30
0
41
1
10
5.25044537604276
20
-0.870312009127218
30
0
41
1
10
5.25045067440402
20
-0.691251569637814
30
0
41
1
10
5.25045261274167
20
-0.601385261240438
30
0
41
1
10
5.25045696744576
20
-0.330805227141411
30
0
41
1
10
5.2504579349735
20
-0.149116899875963
30
0
41
1
10
5.25045914260667
20
0.216881753301948
30
0
41
1
10
5.25045938945829
20
0.401853059500184
30
0
41
1
10
5.25046191088802
20
0.764413491452871
30
0
41
1
10
5.25046422375752
20
0.943740642398808
30
0
41
1
10
5.25047271996058
20
1.28778667948231
30
0
41
1
10
5.25047889432892
20
1.45373432676885
30
0
41
1
10
5.25049611332179
20
1.77342885307837
30
0
41
1
10
5.25050728491317
20
1.92798482329115
30
0
41
1
10
5.25053368364877
20
2.21324945793401
30
0
41
1
10
5.25054895280706
20
2.34541916164625
30
0
41
1
10
5.25056571926515
20
2.46720715670841
30
0
0
SPLINE
5
E2
100
AcDbEntity
8
1
62
256
6
ByLayer
370
18
48
1
60
0
100
AcDbSpline
70
4
71
3
72
42
73
38
40
0
40
0
40
0
40
0
40
0.124999999999999
40
0.124999999999999
40
0.249999999999998
40
0.249999999999998
40
0.374999999999997
40
0.374999999999997
40
0.499999999999996
40
0.499999999999996
40
0.562499999999996
40
0.562499999999996
40
0.624999999999995
40
0.624999999999995
40
0.687499999999995
40
0.687499999999995
40
0.718749999999995
40
0.718749999999995
40
0.749999999999995
40
0.749999999999995
40
0.781249999999995
40
0.781249999999995
40
0.812499999999994
40
0.812499999999994
40
0.843749999999994
40
0.843749999999994
40
0.874999999999994
40
0.874999999999994
40
0.906249999999994
40
0.906249999999994
40
0.937499999999994
40
0.937499999999994
40
0.953124999999995
40
0.953124999999995
40
0.968749999999997
40
0.968749999999997
40
1
40
1
40
1
40
1
41
1
10
76.4163110690274
20
-0.328524629203258
30
0
41
1
10
76.562768734495
20
-0.389945445190136
30
0
41
1
10
76.7093350580321
20
-0.449660047375232
30
0
41
1
10
77.0033248568724
20
-0.555629743619988
30
0
41
1
10
77.1507288140298
20
-0.602191323241527
30
0
41
1
10
77.4465418041032
20
-0.67953218360833
30
0
41
1
10
77.5951498488998
20
-0.710297667780395
30
0
41
1
10
77.8902127181481
20
-0.753143463002232
30
0
41
1
10
78.0371479533241
20
-0.765340855108121
30
0
41
1
10
78.2559768892957
20
-0.768336611842528
30
0
41
1
10
78.3288506284202
20
-0.767892830027307
30
0
41
1
10
78.471401679977
20
-0.751602561135002
30
0
41
1
10
78.5412186548227
20
-0.736617415369381
30
0
41
1
10
78.6734356519553
20
-0.689620571492128
30
0
41
1
10
78.7364085438322
20
-0.658057553714741
30
0
41
1
10
78.8231055523545
20
-0.590748773010603
30
0
41
1
10
78.8503147724105
20
-0.564319003509127
30
0
41
1
10
78.8991275723707
20
-0.505405555460584
30
0
41
1
10
78.9211088261175
20
-0.472791738458028
30
0
41
1
10
78.959550651341
20
-0.400377194652606
30
0
41
1
10
78.9754351806949
20
-0.361466482959486
30
0
41
1
10
78.9999183436175
20
-0.278663088079185
30
0
41
1
10
79.0086046981838
20
-0.234181100427321
30
0
41
1
10
79.0180972757893
20
-0.141998662013009
30
0
41
1
10
79.0189601222024
20
-0.0949101330238875
30
0
41
1
10
79.0135638993618
20
0.0010959095119745
30
0
41
1
10
79.0072262497057
20
0.0502814734065282
30
0
41
1
10
78.9883978192606
20
0.146564162021718
30
0
41
1
10
78.9757839412168
20
0.194108751157415
30
0
41
1
10
78.9467080442246
20
0.288480229435066
30
0
41
1
10
78.9300148885428
20
0.335415354330109
30
0
41
1
10
78.902725527343
20
0.404609494740498
30
0
41
1
10
78.8932504964411
20
0.427490069554722
30
0
41
1
10
78.8736442442951
20
0.472932050417739
30
0
41
1
10
78.8633658226942
20
0.495414336604995
30
0
41
1
10
78.833208112893
20
0.563225733910315
30
0
41
1
10
78.8137656238578
20
0.608788781160712
30
0
41
1
10
78.7949353583793
20
0.654661920233593
30
0
0
SPLINE
5
E3
100
AcDbEntity
8
1
62
256
6
ByLayer
370
18
48
1
60
0
100
AcDbSpline
70
4
71
3
72
34
73
30
40
0
40
0
40
0
40
0
40
0.0624999999999962
40
0.0624999999999962
40
0.124999999999993
40
0.124999999999993
40
0.187499999999989
40
0.187499999999989
40
0.249999999999985
40
0.249999999999985
40
0.374999999999986
40
0.374999999999986
40
0.437499999999987
40
0.437499999999987
40
0.499999999999987
40
0.499999999999987
40
0.562499999999988
40
0.562499999999988
40
0.624999999999988
40
0.624999999999988
40
0.687499999999989
40
0.687499999999989
40
0.74999999999999
40
0.74999999999999
40
0.812499999999991
40
0.812499999999991
40
0.874999999999991
40
0.874999999999991
40
1
40
1
40
1
40
1
41
1
10
79.5440734230369
20
-1.21155658404277
30
0
41
1
10
79.5322875637581
20
-1.1946454497901
30
0
41
1
10
79.5178322851431
20
-1.18364328796477
30
0
41
1
10
79.4850047310311
20
-1.17197489240778
30
0
41
1
10
79.4670011799867
20
-1.17136995647948
30
0
41
1
10
79.4282902854193
20
-1.17905370027867
30
0
41
1
10
79.4074059659136
20
-1.18751703607191
30
0
41
1
10
79.3645507246118
20
-1.2123316939107
30
0
41
1
10
79.3424344310857
20
-1.2286642602966
30
0
41
1
10
79.2740065190254
20
-1.28951184139584
30
0
41
1
10
79.2275625590142
20
-1.3437865498278
30
0
41
1
10
79.1585379958121
20
-1.44704017829682
30
0
41
1
10
79.1363250832253
20
-1.48415874582304
30
0
41
1
10
79.0937299354832
20
-1.56461271634069
30
0
41
1
10
79.0733664872267
20
-1.60809250697761
30
0
41
1
10
79.0374692632442
20
-1.69735492359914
30
0
41
1
10
79.0215406115615
20
-1.7442808337116
30
0
41
1
10
78.9972460650456
20
-1.83482639742275
30
0
41
1
10
78.9884824035399
20
-1.88010111722409
30
0
41
1
10
78.979893826327
20
-1.96138752765495
30
0
41
1
10
78.9799124732292
20
-1.99849508208453
30
0
41
1
10
78.9878377278325
20
-2.06011794659389
30
0
41
1
10
78.9957498828885
20
-2.08535022052126
30
0
41
1
10
79.0172581096586
20
-2.12337619902232
30
0
41
1
10
79.0310251639115
20
-2.13659265690109
30
0
41
1
10
79.0622869750421
20
-2.15208186161573
30
0
41
1
10
79.0801016476323
20
-2.15453890580974
30
0
41
1
10
79.137076516536
20
-2.14776283380772
30
0
41
1
10
79.1805776595322
20
-2.12456052762349
30
0
41
1
10
79.2256205505668
20
-2.08649866031544
30
0
0
SPLINE
5
E4
100
AcDbEntity
8
1
62
256
6
ByLayer
370
18
48
1
60
0
100
AcDbSpline
70
4
71
3
72
8
73
4
40
0
40
0
40
0
40
0
40
1
40
1
40
1
40
1
41
1
10
79.925917408438
20
-0.399616972437826
30
0
41
1
10
79.9335399625365
20
-0.353818744865379
30
0
41
1
10
79.9410663785327
20
-0.308022004466523
30
0
41
1
10
79.9484965769668
20
-0.262226957690643
30
0
0
SPLINE
5
E5
100
AcDbEntity
8
1
62
256
6
ByLayer
370
18
48
1
60
0
100
AcDbSpline
70
4
71
3
72
24
73
20
40
0
40
0
40
0
40
0
40
0.125
40
0.125
40
0.25
40
0.25
40
0.3125
40
0.3125
40
0.375
40
0.375
40
0.5
40
0.5
40
0.625
40
0.625
40
0.75
40
0.75
40
0.875
40
0.875
40
1
40
1
40
1
40
1
41
1
10
5.02472084863058
20
-1.53043155442069
30
0
41
1
10
5.02472947609451
20
-1.35980960791457
30
0
41
1
10
5.02473530821163
20
-1.18162303520259
30
0
41
1
10
5.02474292229647
20
-0.819218580306227
30
0
41
1
10
5.02474474901061
20
-0.634822832293395
30
0
41
1
10
5.02474593783668
20
-0.353447338968721
30
0
41
1
10
5.0247460735896
20
-0.258538104920916
30
0
41
1
10
5.02474604930643
20
-0.0685520042875964
30
0
41
1
10
5.02474589160124
20
0.0260165930456822
30
0
41
1
10
5.02474532353784
20
0.30848430965608
30
0
41
1
10
5.02474482637172
20
0.495153366454929
30
0
41
1
10
5.02474513790506
20
0.865191686194748
30
0
41
1
10
5.02474597379705
20
1.04964222655522
30
0
41
1
10
5.02475005099865
20
1.40233927459775
30
0
41
1
10
5.02475327964692
20
1.57207902136585
30
0
41
1
10
5.02476268856594
20
1.89834875044795
30
0
41
1
10
5.02476894732774
20
2.05596202266651
30
0
41
1
10
5.02478404165944
20
2.34724599088165
30
0
41
1
10
5.0247928821438
20
2.48203340760386
30
0
41
1
10
5.02480269277899
20
2.60602598770112
30
0
0
SPLINE
5
E6
100
AcDbEntity
8
1
62
256
6
ByLayer
370
18
48
1
60
0
100
AcDbSpline
70
4
71
3
72
10
73
6
40
0
40
0
40
0
40
0
40
0.5
40
0.5
40
1
40
1
40
1
40
1
41
1
10
79.9627075157089
20
0.188481749842253
30
0
41
1
10
79.9669879719329
20
0.165526786951205
30
0
41
1
10
79.972263281699
20
0.140642715240716
30
0
41
1
10
79.9846956124715
20
0.0872218615451175
30
0
41
1
10
79.9919192809395
20
0.0584479365267612
30
0
41
1
10
79.9999790280834
20
0.0284408584469134
30
0
0
SPLINE
5
E7
100
AcDbEntity
8
1
62
256
6
ByLayer
370
18
48
1
60
0
100
AcDbSpline
70
4
71
3
72
44
73
40
40
0
40
0
40
0
40
0
40
0.0504923100300196
40
0.0504923100300196
40
0.0757384650450293
40
0.0757384650450293
40
0.100984620060039
40
0.100984620060039
40
0.201969240120077
40
0.201969240120077
40
0.252461550150096
40
0.252461550150096
40
0.277707705165106
40
0.277707705165106
40
0.302953860180116
40
0.302953860180116
40
0.403938480240156
40
0.403938480240156
40
0.454430790270177
40
0.454430790270177
40
0.504923100300197
40
0.504923100300197
40
0.605907720360236
40
0.605907720360236
40
0.656400030390256
40
0.656400030390256
40
0.706892340420275
40
0.706892340420275
40
0.732138495435284
40
0.732138495435284
40
0.757384650450294
40
0.757384650450294
40
0.807876960480313
40
0.807876960480313
40
0.858369270510333
40
0.858369270510333
40
0.908861580540352
40
0.908861580540352
40
1
40
1
40
1
40
1
41
1
10
78.774624747341
20
-3.51328723691631
30
0
41
1
10
78.3902988726318
20
-3.54111592618756
30
0
41
1
10
78.0062665021169
20
-3.55256988520915
30
0
41
1
10
77.429232339744
20
-3.54512281410652
30
0
41
1
10
77.2364440685269
20
-3.53851240122316
30
0
41
1
10
76.852133896028
20
-3.51717995938711
30
0
41
1
10
76.6605294632096
20
-3.50247011667983
30
0
41
1
10
75.704549005835
20
-3.40921981030564
30
0
41
1
10
74.9463103766006
20
-3.27150151363503
30
0
41
1
10
73.8061531567544
20
-2.98073417975118
30
0
41
1
10
73.4256215141064
20
-2.86981287466446
30
0
41
1
10
72.8525607746501
20
-2.68386148728428
30
0
41
1
10
72.6611489299496
20
-2.61863448123927
30
0
41
1
10
72.2772539796764
20
-2.48199799069553
30
0
41
1
10
72.0844746498611
20
-2.41046336091478
30
0
41
1
10
71.1220751936569
20
-2.03991949073287
30
0
41
1
10
70.3562542944479
20
-1.70179039125657
30
0
41
1
10
69.2004441085611
20
-1.15401797032601
30
0
41
1
10
68.8171077849032
20
-0.96619944999685
30
0
41
1
10
68.0534617905328
20
-0.585458579367696
30
0
41
1
10
67.6729651825149
20
-0.39231077137444
30
0
41
1
10
66.5325631770316
20
0.189672711831719
30
0
41
1
10
65.7731623438448
20
0.579880293369314
30
0
41
1
10
64.6234208820653
20
1.14458700562329
30
0
41
1
10
64.2373564977701
20
1.32973394775323
30
0
41
1
10
63.4681576427685
20
1.68437191346595
30
0
41
1
10
63.0841961876213
20
1.85424012071803
30
0
41
1
10
62.5075616021594
20
2.09512600572666
30
0
41
1
10
62.3152329932327
20
2.17310164589711
30
0
41
1
10
61.9301876273888
20
2.32414158884907
30
0
41
1
10
61.7372984071003
20
2.39721739553414
30
0
41
1
10
61.1597722800302
20
2.60734529541148
30
0
41
1
10
60.7756264150581
20
2.73551661755192
30
0
41
1
10
60.0069111692213
20
2.96546335312453
30
0
41
1
10
59.6221105021262
20
3.06743297496593
30
0
41
1
10
58.8513997038426
20
3.24217246188147
30
0
41
1
10
58.468254582956
20
3.31418381302535
30
0
41
1
10
57.3970080773409
20
3.47252200539052
30
0
41
1
10
56.7119469074012
20
3.52364618700855
30
0
41
1
10
56.0246218974931
20
3.52260865342169
30
0
0
SPLINE
5
E8
100
AcDbEntity
8
1
62
256
6
ByLayer
370
18
48
1
60
0
100
AcDbSpline
70
4
71
3
72
48
73
44
40
0
40
0
40
0
40
0
40
0.022717316935007
40
0.022717316935007
40
0.0470399267671348
40
0.0470399267671348
40
0.144330366095643
40
0.144330366095643
40
0.192975585759897
40
0.192975585759897
40
0.217298195592025
40
0.217298195592025
40
0.241620805424153
40
0.241620805424153
40
0.290266025088408
40
0.290266025088408
40
0.338911244752663
40
0.338911244752663
40
0.436201684081176
40
0.436201684081176
40
0.484846903745432
40
0.484846903745432
40
0.533492123409688
40
0.533492123409688
40
0.557814733241816
40
0.557814733241816
40
0.582137343073944
40
0.582137343073944
40
0.6307825627382
40
0.6307825627382
40
0.728073002066711
40
0.728073002066711
40
0.776718221730966
40
0.776718221730966
40
0.825363441395222
40
0.825363441395222
40
0.874008661059478
40
0.874008661059478
40
0.898331270891605
40
0.898331270891605
40
0.922653880723733
40
0.922653880723733
40
1
40
1
40
1
40
1
41
1
10
36.2050874904147
20
-3.36433530281232
30
0
41
1
10
36.0248602441379
20
-3.38913659174827
30
0
41
1
10
35.8444361686038
20
-3.4105342659258
30
0
41
1
10
35.4722670700277
20
-3.44746975487078
30
0
41
1
10
35.2803494412677
20
-3.46254577655441
30
0
41
1
10
34.3226658484564
20
-3.51786236427969
30
0
41
1
10
33.562298913589
20
-3.49781194783
30
0
41
1
10
32.4184326372406
20
-3.37398592438487
30
0
41
1
10
32.0365269853232
20
-3.31712353206399
30
0
41
1
10
31.4612530649379
20
-3.20894473698903
30
0
41
1
10
31.2690770124586
20
-3.16908237862665
30
0
41
1
10
30.8836158259076
20
-3.08187668290193
30
0
41
1
10
30.6902082970158
20
-3.03448998297941
30
0
41
1
10
30.111453360946
20
-2.88234296330288
30
0
41
1
10
29.7265543120413
20
-2.76722928339635
30
0
41
1
10
28.9564255591668
20
-2.51231195267437
30
0
41
1
10
28.5708249426908
20
-2.37256403272624
30
0
41
1
10
27.4118114201275
20
-1.92135967378064
30
0
41
1
10
26.643723253921
20
-1.58083068523635
30
0
41
1
10
25.4851455272976
20
-1.03367876864979
30
0
41
1
10
25.0989470136722
20
-0.845700513646506
30
0
41
1
10
24.3283171515339
20
-0.464549237157087
30
0
41
1
10
23.9432474642792
20
-0.271202677534262
30
0
41
1
10
23.3645202682669
20
0.0200226627299571
30
0
41
1
10
23.1711442471416
20
0.117433502237333
30
0
41
1
10
22.7850862872647
20
0.311225011221382
30
0
41
1
10
22.592610052064
20
0.407554843840984
30
0
41
1
10
22.0164694610301
20
0.69414068463422
30
0
41
1
10
21.6340747713943
20
0.881952354744925
30
0
41
1
10
20.4889201592951
20
1.42981598838435
30
0
41
1
10
19.7280820415197
20
1.77404028456101
30
0
41
1
10
18.5782460760868
20
2.23587904476594
30
0
41
1
10
18.1929704880018
20
2.38093169276257
30
0
41
1
10
17.4198963890531
20
2.64834827612884
30
0
41
1
10
17.0345164069671
20
2.76992826745811
30
0
41
1
10
16.2637226494688
20
2.98611183143052
30
0
41
1
10
15.878287192856
20
3.08070311594523
30
0
41
1
10
15.2985150065571
20
3.20071125512953
30
0
41
1
10
15.1050748435266
20
3.23707415749647
30
0
41
1
10
14.7198003318303
20
3.3018946584387
30
0
41
1
10
14.5276680245815
20
3.3304180249107
30
0
41
1
10
13.726058781062
20
3.43326012232279
30
0
41
1
10
13.1198491999221
20
3.47180787294286
30
0
41
1
10
12.5131818854544
20
3.47038407300107
30
0
0
SPLINE
5
E9
100
AcDbEntity
8
1
62
256
6
ByLayer
370
18
48
1
60
0
100
AcDbSpline
70
4
71
3
72
42
73
38
40
0
40
0
40
0
40
0
40
0.0775245571745472
40
0.0775245571745472
40
0.155049114349094
40
0.155049114349094
40
0.310098228698189
40
0.310098228698189
40
0.465147343047283
40
0.465147343047283
40
0.620196457396377
40
0.620196457396377
40
0.697721014570924
40
0.697721014570924
40
0.775245571745471
40
0.775245571745471
40
0.852770128920019
40
0.852770128920019
40
0.872151268213656
40
0.872151268213656
40
0.881841837860475
40
0.881841837860475
40
0.886687122683884
40
0.886687122683884
40
0.891532407507294
40
0.891532407507294
40
0.930294686094566
40
0.930294686094566
40
0.949675825388202
40
0.949675825388202
40
0.95936639503502
40
0.95936639503502
40
0.969056964681837
40
0.969056964681837
40
0.988438103975473
40
0.988438103975473
40
1
40
1
40
1
40
1
41
1
10
15.8492872107281
20
2.88804109151309
30
0
41
1
10
15.5263813931533
20
2.97825476979696
30
0
41
1
10
15.2003363297185
20
3.05537538837515
30
0
41
1
10
14.5420681568785
20
3.1874523343341
30
0
41
1
10
14.209718507351
20
3.24232304799446
30
0
41
1
10
13.2120948091169
20
3.37692999235702
30
0
41
1
10
12.543032643998
20
3.42733911647954
30
0
41
1
10
11.1916237827332
20
3.47486078347259
30
0
41
1
10
10.5092272259493
20
3.47188972847042
30
0
41
1
10
9.12690297353396
20
3.43889234049362
30
0
41
1
10
8.42697381139303
20
3.40903354127948
30
0
41
1
10
7.36231551300273
20
3.36343571963198
30
0
41
1
10
7.00481483744423
20
3.34807490609913
30
0
41
1
10
6.28835350116992
20
3.31984684962282
30
0
41
1
10
5.9287826210049
20
3.3069587734548
30
0
41
1
10
5.20821550182399
20
3.28567857176842
30
0
41
1
10
4.84727839833346
20
3.27728675590174
30
0
41
1
10
4.39526196802899
20
3.27039925470899
30
0
41
1
10
4.30483177113442
20
3.26920038786042
30
0
41
1
10
4.16916338496594
20
3.26767956699661
30
0
41
1
10
4.12393409196207
20
3.26721882165987
30
0
41
1
10
4.05608834091123
20
3.26659803198371
30
0
41
1
10
4.03343913626804
20
3.26627947239154
30
0
41
1
10
3.98891855263008
20
3.26821712529585
30
0
41
1
10
3.96610319471964
20
3.27035700439063
30
0
41
1
10
3.79422349092693
20
3.30563023051985
30
0
41
1
10
3.64709769212561
20
3.33651915509785
30
0
41
1
10
3.4475001635671
20
3.37844762624383
30
0
41
1
10
3.38437833747912
20
3.39170385980177
30
0
41
1
10
3.29651152940241
20
3.40988614607644
30
0
41
1
10
3.26836662044028
20
3.41566030269613
30
0
41
1
10
3.2147978190954
20
3.42647646046459
30
0
41
1
10
3.18937718749638
20
3.43151615919749
30
0
41
1
10
3.11955088527768
20
3.44493853765826
30
0
41
1
10
3.08093372079665
20
3.45176971149979
30
0
41
1
10
3.03547800075913
20
3.45790175325857
30
0
41
1
10
3.02254889421909
20
3.45905723701674
30
0
41
1
10
3.01377709339994
20
3.45899744257105
30
0
0
SPLINE
5
EA
100
AcDbEntity
8
1
62
256
6
ByLayer
370
18
48
1
60
0
100
AcDbSpline
70
4
71
3
72
20
73
16
40
0
40
0
40
0
40
0
40
0.0605013606006363
40
0.0605013606006363
40
0.145910327818761
40
0.145910327818761
40
0.231319295036885
40
0.231319295036885
40
0.31672826225501
40
0.31672826225501
40
0.487546196691258
40
0.487546196691258
40
0.658364131127507
40
0.658364131127507
40
1
40
1
40
1
40
1
41
1
10
3.00024505328034
20
3.45369581963925
30
0
41
1
10
3.00151057922139
20
3.45012470446667
30
0
41
1
10
3.00865531173812
20
3.44476740054756
30
0
41
1
10
3.03852388851064
20
3.42802824180171
30
0
41
1
10
3.0666300795547
20
3.41490232069106
30
0
41
1
10
3.13711200303629
20
3.38411772965645
30
0
41
1
10
3.17930537231047
20
3.36651022455632
30
0
41
1
10
3.27387282808445
20
3.32774769867842
30
0
41
1
10
3.32661020526484
20
3.30645312280495
30
0
41
1
10
3.49357860393229
20
3.23932774896881
30
0
41
1
10
3.61657683277656
20
3.19020371280359
30
0
41
1
10
3.87632274096723
20
3.0855886220327
30
0
41
1
10
4.01397492959558
20
3.02975700860097
30
0
41
1
10
4.43512707606374
20
2.85687966728668
30
0
41
1
10
4.7270108800555
20
2.73437161832751
30
0
41
1
10
5.02480269277635
20
2.60602598770225
30
0
0
SPLINE
5
EB
100
AcDbEntity
8
1
62
256
6
ByLayer
370
18
48
1
60
0
100
AcDbSpline
70
4
71
3
72
8
73
4
40
0
40
0
40
0
40
0
40
1
40
1
40
1
40
1
41
1
10
79.2256205505666
20
-2.08649866031655
30
0
41
1
10
79.0654881505321
20
-2.5264588135345
30
0
41
1
10
78.9053557504977
20
-2.9664189667524
30
0
41
1
10
78.7452233504634
20
-3.40637911997015
30
0
0
SPLINE
5
EC
100
AcDbEntity
8
1
62
256
6
ByLayer
370
18
48
1
60
0
100
AcDbSpline
70
4
71
3
72
18
73
14
40
0
40
0
40
0
40
0
40
0.25
40
0.25
40
0.375
40
0.375
40
0.5
40
0.5
40
0.625
40
0.625
40
0.75
40
0.75
40
1
40
1
40
1
40
1
41
1
10
78.7452233504631
20
-3.40637911997078
30
0
41
1
10
78.6641204632525
20
-3.40024812623827
30
0
41
1
10
78.5892051525791
20
-3.37588564276044
30
0
41
1
10
78.487088222322
20
-3.30912284719446
30
0
41
1
10
78.4549139158984
20
-3.28180841940707
30
0
41
1
10
78.3955651690455
20
-3.2179647956599
30
0
41
1
10
78.3682045238295
20
-3.18132678621643
30
0
41
1
10
78.3181766713786
20
-3.0984838783987
30
0
41
1
10
78.2955088741395
20
-3.05228018266243
30
0
41
1
10
78.2550630252151
20
-2.94990575789839
30
0
41
1
10
78.2372445119569
20
-2.89357529039023
30
0
41
1
10
78.19190671678
20
-2.70958915114824
30
0
41
1
10
78.1731614341625
20
-2.57035751841877
30
0
41
1
10
78.1659492829298
20
-2.41447484638979
30
0
0
SPLINE
5
ED
100
AcDbEntity
8
1
62
256
6
ByLayer
370
13
48
1
60
0
100
AcDbSpline
70
4
71
3
72
8
73
4
40
0
40
0
40
0
40
0
40
1
40
1
40
1
40
1
41
1
10
5.25040027747309
20
-1.55300006608047
30
0
41
1
10
5.21169812690161
20
-1.5431342494708
30
0
41
1
10
5.17392366165257
20
-1.53770934703601
30
0
41
1
10
5.13893863430459
20
-1.53690848536408
30
0
0
SPLINE
5
EE
100
AcDbEntity
8
1
62
256
6
ByLayer
370
18
48
1
60
0
100
AcDbSpline
70
4
71
3
72
14
73
10
40
0
40
0
40
0
40
0
40
0.25
40
0.25
40
0.5
40
0.5
40
0.75
40
0.75
40
1
40
1
40
1
40
1
41
1
10
79.6525062866632
20
1.38310724281337
30
0
41
1
10
79.6851691645241
20
1.2879207652698
30
0
41
1
10
79.7161268814208
20
1.19412972930275
30
0
41
1
10
79.7740732572697
20
1.00999554118027
30
0
41
1
10
79.8002292273819
20
0.922298029917471
30
0
41
1
10
79.8468551191074
20
0.755576435268523
30
0
41
1
10
79.8673289604984
20
0.676545918783802
30
0
41
1
10
79.9020372183052
20
0.527944734728521
30
0
41
1
10
79.9158110627856
20
0.460338446123899
30
0
41
1
10
79.925917408438
20
0.399616972437826
30
0
0
SPLINE
5
EF
100
AcDbEntity
8
1
62
256
6
ByLayer
370
18
48
1
60
0
100
AcDbSpline
70
4
71
3
72
94
73
90
40
0
40
0
40
0
40
0
40
0.0128391622131814
40
0.0128391622131814
40
0.0304268248165481
40
0.0304268248165481
40
0.0480144874199149
40
0.0480144874199149
40
0.0831898126266496
40
0.0831898126266496
40
0.100777475230017
40
0.100777475230017
40
0.118365137833384
40
0.118365137833384
40
0.15354046304012
40
0.15354046304012
40
0.171128125643489
40
0.171128125643489
40
0.188715788246857
40
0.188715788246857
40
0.223891113453595
40
0.223891113453595
40
0.241478776056964
40
0.241478776056964
40
0.259066438660334
40
0.259066438660334
40
0.294241763867071
40
0.294241763867071
40
0.31182942647044
40
0.31182942647044
40
0.329417089073809
40
0.329417089073809
40
0.364592414280547
40
0.364592414280547
40
0.382180076883917
40
0.382180076883917
40
0.399767739487287
40
0.399767739487287
40
0.434943064694026
40
0.434943064694026
40
0.452530727297396
40
0.452530727297396
40
0.470118389900765
40
0.470118389900765
40
0.505293715107506
40
0.505293715107506
40
0.522881377710876
40
0.522881377710876
40
0.540469040314246
40
0.540469040314246
40
0.575644365520987
40
0.575644365520987
40
0.593232028124357
40
0.593232028124357
40
0.610819690727728
40
0.610819690727728
40
0.645995015934471
40
0.645995015934471
40
0.663582678537843
40
0.663582678537843
40
0.681170341141215
40
0.681170341141215
40
0.716345666347958
40
0.716345666347958
40
0.73393332895133
40
0.73393332895133
40
0.751520991554702
40
0.751520991554702
40
0.786696316761448
40
0.786696316761448
40
0.80428397936482
40
0.80428397936482
40
0.821871641968192
40
0.821871641968192
40
0.857046967174936
40
0.857046967174936
40
0.874634629778307
40
0.874634629778307
40
0.892222292381679
40
0.892222292381679
40
0.92739761758842
40
0.92739761758842
40
0.944985280191791
40
0.944985280191791
40
0.962572942795162
40
0.962572942795162
40
0.997748268001905
40
0.997748268001905
40
1
40
1
40
1
40
1
41
1
10
27.3007728826654
20
2.16722382587585
30
0
41
1
10
27.4197773363767
20
2.21420591255117
30
0
41
1
10
27.5386698006359
20
2.26039205091877
30
0
41
1
10
27.82007931885
20
2.36805621452387
30
0
41
1
10
27.9826986966942
20
2.42848617998194
30
0
41
1
10
28.309035651617
20
2.54406951076024
30
0
41
1
10
28.4725487446938
20
2.59953636952696
30
0
41
1
10
28.9637797262105
20
2.7595024043315
30
0
41
1
10
29.292195915105
20
2.8576201108263
30
0
41
1
10
29.7852312910587
20
2.9924984649125
30
0
41
1
10
29.9495460323944
20
3.03509498922028
30
0
41
1
10
30.2784685379708
20
3.11402217070244
30
0
41
1
10
30.443010645165
20
3.15064268254338
30
0
41
1
10
30.9365294565895
20
3.25247135612963
30
0
41
1
10
31.2654133495383
20
3.30972054989908
30
0
41
1
10
31.7574298368604
20
3.37970256608543
30
0
41
1
10
31.921348436442
20
3.40024794498729
30
0
41
1
10
32.2504930804641
20
3.43513654614151
30
0
41
1
10
32.4155407525281
20
3.44961340721471
30
0
41
1
10
32.9098622926814
20
3.48428357385973
30
0
41
1
10
33.2388948437754
20
3.4958731644829
30
0
41
1
10
33.730544680182
20
3.49552441978941
30
0
41
1
10
33.8942033545287
20
3.49238735756333
30
0
41
1
10
34.2226351697106
20
3.48029579020874
30
0
41
1
10
34.3871745034862
20
3.4713487606918
30
0
41
1
10
34.8813948606978
20
3.43586005958741
30
0
41
1
10
35.211631340874
20
3.4007152879858
30
0
41
1
10
35.703625888724
20
3.33003750046237
30
0
41
1
10
35.8672637382588
20
3.30344548468636
30
0
41
1
10
36.1954722823417
20
3.24535295818083
30
0
41
1
10
36.3598061958787
20
3.21372776407517
30
0
41
1
10
36.8531256535252
20
3.11099458009048
30
0
41
1
10
37.182698484211
20
3.03205034792754
30
0
41
1
10
37.675799928639
20
2.89645179317125
30
0
41
1
10
37.8396731166765
20
2.84844092573871
30
0
41
1
10
38.1681554914638
20
2.74886511673844
30
0
41
1
10
38.3325296100837
20
2.69705268564837
30
0
41
1
10
38.8256794845882
20
2.53523375225754
30
0
41
1
10
39.1544937780194
20
2.41892608346959
30
0
41
1
10
39.6466933577992
20
2.22975797719406
30
0
41
1
10
39.8105762630516
20
2.16417747780815
30
0
41
1
10
40.1397668522921
20
2.03080147384267
30
0
41
1
10
40.3044206769408
20
1.96283027037668
30
0
41
1
10
40.7981022388414
20
1.75460701377486
30
0
41
1
10
41.1269017749883
20
1.61009124049329
30
0
41
1
10
41.6185137232701
20
1.3825879611031
30
0
41
1
10
41.7820728552667
20
1.30484812054866
30
0
41
1
10
42.1104115746861
20
1.1489760674832
30
0
41
1
10
42.2749629792608
20
1.07043822575989
30
0
41
1
10
42.7693715807254
20
0.832339847915165
30
0
41
1
10
43.0988831896038
20
0.670861093260527
30
0
41
1
10
43.5905666828067
20
0.422962356193125
30
0
41
1
10
43.7540234905711
20
0.339189443626083
30
0
41
1
10
44.0819614326306
20
0.173127012912602
30
0
41
1
10
44.2462221925481
20
0.0904047678666302
30
0
41
1
10
44.7394829721176
20
-0.157607910463582
30
0
41
1
10
45.0695548871405
20
-0.323019602473949
30
0
41
1
10
45.5620382859114
20
-0.571685088285136
30
0
41
1
10
45.7256397109776
20
-0.654847720905991
30
0
41
1
10
46.0536530168037
20
-0.817953135940002
30
0
41
1
10
46.2178575973164
20
-0.898312801987089
30
0
41
1
10
46.7106662305315
20
-1.13664147752422
30
0
41
1
10
47.0394742946494
20
-1.29186667400384
30
0
41
1
10
47.5320171090003
20
-1.52103062969283
30
0
41
1
10
47.6960823731389
20
-1.59707073629698
30
0
41
1
10
48.0246192737066
20
-1.74434283646232
30
0
41
1
10
48.1889938989763
20
-1.81598745082829
30
0
41
1
10
48.6820375664139
20
-2.02579434821288
30
0
41
1
10
49.0106381041051
20
-2.15886148149832
30
0
41
1
10
49.5023062525723
20
-2.34968170818246
30
0
41
1
10
49.6658375708514
20
-2.41201021940108
30
0
41
1
10
49.994149512326
20
-2.53122352298223
30
0
41
1
10
50.1588994599798
20
-2.58843408433796
30
0
41
1
10
50.6528692329206
20
-2.75302363897205
30
0
41
1
10
50.981710229377
20
-2.85340047993736
30
0
41
1
10
51.4731713374034
20
-2.99093617872555
30
0
41
1
10
51.6365175046747
20
-3.03473529107751
30
0
41
1
10
51.9642360081955
20
-3.11621685316246
30
0
41
1
10
52.1284570630732
20
-3.15409026834567
30
0
41
1
10
52.621776781705
20
-3.25967088221901
30
0
41
1
10
52.951840310366
20
-3.31941759523593
30
0
41
1
10
53.4437951298005
20
-3.39272326049033
30
0
41
1
10
53.6071970350883
20
-3.41450988442023
30
0
41
1
10
53.9347872285385
20
-3.45180354815304
30
0
41
1
10
54.0988517684343
20
-3.46741648435159
30
0
41
1
10
54.5914216056789
20
-3.50554952626283
30
0
41
1
10
54.9203114578315
20
-3.51944547535456
30
0
41
1
10
55.2700473368539
20
-3.52164177204296
30
0
41
1
10
55.2910780320437
20
-3.52172421008558
30
0
41
1
10
55.3121000547317
20
-3.52175707008249
30
0
0
SPLINE
5
F0
100
AcDbEntity
8
1
62
256
6
ByLayer
370
18
48
1
60
0
100
AcDbSpline
70
4
71
3
72
32
73
28
40
0
40
0
40
0
40
0
40
0.014776385408144
40
0.014776385408144
40
0.0763528613201367
40
0.0763528613201367
40
0.137929337232129
40
0.137929337232129
40
0.261082289056112
40
0.261082289056112
40
0.322658764968102
40
0.322658764968102
40
0.384235240880091
40
0.384235240880091
40
0.507388192704066
40
0.507388192704066
40
0.568964668616055
40
0.568964668616055
40
0.630541144528044
40
0.630541144528044
40
0.753694096352027
40
0.753694096352027
40
0.81527057226402
40
0.81527057226402
40
0.876847048176013
40
0.876847048176013
40
1
40
1
40
1
40
1
41
1
10
70.8800324749714
20
2.21029432001996
30
0
41
1
10
70.9194191818666
20
2.22601051800532
30
0
41
1
10
70.9587844134642
20
2.241632578208
30
0
41
1
10
71.1620526217064
20
2.32186888118579
30
0
41
1
10
71.3254588047232
20
2.38521964539373
30
0
41
1
10
71.6522725006103
20
2.50756698582401
30
0
41
1
10
71.8160165921736
20
2.56610744745717
30
0
41
1
10
72.3077738449267
20
2.73473069681796
30
0
41
1
10
72.6363032250053
20
2.83788577057916
30
0
41
1
10
73.1290473689436
20
2.97978677928
30
0
41
1
10
73.2928626643069
20
3.02499152513747
30
0
41
1
10
73.6200295529414
20
3.11003841951552
30
0
41
1
10
73.7838450636625
20
3.14954327311531
30
0
41
1
10
74.275563100558
20
3.25972701722503
30
0
41
1
10
74.6037016860203
20
3.32218290175115
30
0
41
1
10
75.0952937524067
20
3.39996634529246
30
0
41
1
10
75.2589280104227
20
3.42327965636002
30
0
41
1
10
75.5864651773494
20
3.46409120552272
30
0
41
1
10
75.7506597285229
20
3.48138052160615
30
0
41
1
10
76.2421835489103
20
3.52422915770853
30
0
41
1
10
76.5691519833273
20
3.54098669462042
30
0
41
1
10
77.057474774933
20
3.54878005060436
30
0
41
1
10
77.2197952629469
20
3.54845335719625
30
0
41
1
10
77.5440182191642
20
3.54179945619811
30
0
41
1
10
77.7063770912664
20
3.53552468165668
30
0
41
1
10
78.1940686498251
20
3.5081711178423
30
0
41
1
10
78.5198423532742
20
3.47862508972341
30
0
41
1
10
78.8455416062538
20
3.43736053258368
30
0
0
SPLINE
5
F1
100
AcDbEntity
8
1
62
256
6
ByLayer
370
18
48
1
60
0
100
AcDbSpline
70
4
71
3
72
94
73
90
40
0
40
0
40
0
40
0
40
0.0072127289032443
40
0.0072127289032443
40
0.0260941636332232
40
0.0260941636332232
40
0.044975598363202
40
0.044975598363202
40
0.0638570330931808
40
0.0638570330931808
40
0.0827384678231597
40
0.0827384678231597
40
0.101619902553139
40
0.101619902553139
40
0.139382772013096
40
0.139382772013096
40
0.158264206743075
40
0.158264206743075
40
0.177145641473054
40
0.177145641473054
40
0.214908510933012
40
0.214908510933012
40
0.25267138039297
40
0.25267138039297
40
0.271552815122949
40
0.271552815122949
40
0.290434249852928
40
0.290434249852928
40
0.309315684582908
40
0.309315684582908
40
0.328197119312887
40
0.328197119312887
40
0.347078554042867
40
0.347078554042867
40
0.365959988772846
40
0.365959988772846
40
0.384841423502826
40
0.384841423502826
40
0.403722858232805
40
0.403722858232805
40
0.422604292962785
40
0.422604292962785
40
0.441485727692764
40
0.441485727692764
40
0.479248597152724
40
0.479248597152724
40
0.498130031882704
40
0.498130031882704
40
0.517011466612683
40
0.517011466612683
40
0.554774336072642
40
0.554774336072642
40
0.573655770802621
40
0.573655770802621
40
0.592537205532601
40
0.592537205532601
40
0.61141864026258
40
0.61141864026258
40
0.63030007499256
40
0.63030007499256
40
0.649181509722539
40
0.649181509722539
40
0.668062944452519
40
0.668062944452519
40
0.686944379182498
40
0.686944379182498
40
0.705825813912477
40
0.705825813912477
40
0.724707248642457
40
0.724707248642457
40
0.743588683372436
40
0.743588683372436
40
0.781351552832395
40
0.781351552832395
40
0.819114422292354
40
0.819114422292354
40
0.856877291752313
40
0.856877291752313
40
0.894640161212272
40
0.894640161212272
40
0.913521595942251
40
0.913521595942251
40
0.932403030672231
40
0.932403030672231
40
0.95128446540221
40
0.95128446540221
40
0.970165900132189
40
0.970165900132189
40
1
40
1
40
1
40
1
41
1
10
21.4362868112367
20
3.33993734637218
30
0
41
1
10
21.5026598342337
20
3.33956087464173
30
0
41
1
10
21.5690390418111
20
3.33870658091968
30
0
41
1
10
21.8093115244012
20
3.33395471343792
30
0
41
1
10
21.9833410045743
20
3.3273076789105
30
0
41
1
10
22.3316806682486
20
3.30801920932626
30
0
41
1
10
22.5059980160065
20
3.29545831873105
30
0
41
1
10
22.8548675589932
20
3.26473373791959
30
0
41
1
10
23.0293852862064
20
3.24645561565956
30
0
41
1
10
23.3774508430378
20
3.20291547198832
30
0
41
1
10
23.5512110134276
20
3.17786215142135
30
0
41
1
10
23.8990424578495
20
3.12276789818014
30
0
41
1
10
24.0729827285334
20
3.09253151478893
30
0
41
1
10
24.5948340390316
20
2.99179138854498
30
0
41
1
10
24.942813043103
20
2.91163366999396
30
0
41
1
10
25.4652446376307
20
2.77493679277026
30
0
41
1
10
25.639612308957
20
2.72683507594095
30
0
41
1
10
25.9880686807119
20
2.62670013985476
30
0
41
1
10
26.16223801215
20
2.57466577131592
30
0
41
1
10
26.6844265760005
20
2.41116444851636
30
0
41
1
10
27.031924940938
20
2.29134672787569
30
0
41
1
10
27.7272825039399
20
2.03458010511079
30
0
41
1
10
28.0767562137698
20
1.89751148335381
30
0
41
1
10
28.5996482112815
20
1.68253624065338
30
0
41
1
10
28.7737699916121
20
1.60930803930225
30
0
41
1
10
29.1216511806431
20
1.45983902024756
30
0
41
1
10
29.2953161262777
20
1.38343619641492
30
0
41
1
10
29.6430076085532
20
1.22905215551972
30
0
41
1
10
29.8170047857727
20
1.15087884065264
30
0
41
1
10
30.1653000030828
20
0.991890834777564
30
0
41
1
10
30.339614665666
20
0.911177025376816
30
0
41
1
10
30.6886107234449
20
0.747726597730718
30
0
41
1
10
30.8631456063871
20
0.665040719894762
30
0
41
1
10
31.2114098835411
20
0.498412572626393
30
0
41
1
10
31.3852721021495
20
0.414390618104193
30
0
41
1
10
31.7333517133677
20
0.246822410424102
30
0
41
1
10
31.9074439501706
20
0.163028137086428
30
0
41
1
10
32.2556572210286
20
-0.0049140175141247
30
0
41
1
10
32.4298106467
20
-0.0889616288495461
30
0
41
1
10
32.7781750563384
20
-0.257216637446049
30
0
41
1
10
32.9523383484014
20
-0.341503306330139
30
0
41
1
10
33.3008774308348
20
-0.510038786541969
30
0
41
1
10
33.475249738182
20
-0.593732128714777
30
0
41
1
10
33.9979711491179
20
-0.841427545060981
30
0
41
1
10
34.3462168399568
20
-1.00282791077058
30
0
41
1
10
34.8682157515108
20
-1.24013184414534
30
0
41
1
10
35.0420872780331
20
-1.31862239888096
30
0
41
1
10
35.3899240791474
20
-1.47369177599899
30
0
41
1
10
35.5641476264585
20
-1.54932835056718
30
0
41
1
10
36.0877519051529
20
-1.77115321439905
30
0
41
1
10
36.4366135207395
20
-1.91236889414196
30
0
41
1
10
36.9584489357906
20
-2.11335413091751
30
0
41
1
10
37.1321227437873
20
-2.17864976064325
30
0
41
1
10
37.4798506394909
20
-2.30461263923422
30
0
41
1
10
37.6539151297959
20
-2.36530774379335
30
0
41
1
10
38.0023565143083
20
-2.48223645171919
30
0
41
1
10
38.1767539799523
20
-2.53834358792517
30
0
41
1
10
38.5257864174273
20
-2.64692941753788
30
0
41
1
10
38.700183026191
20
-2.69940655239688
30
0
41
1
10
39.0480790201705
20
-2.79754684095812
30
0
41
1
10
39.2216901021821
20
-2.84369240213371
30
0
41
1
10
39.5692909960203
20
-2.92980760696219
30
0
41
1
10
39.7431689214329
20
-2.96989713799553
30
0
41
1
10
40.0910510956866
20
-3.04463792133456
30
0
41
1
10
40.2650643219893
20
-3.07922581702962
30
0
41
1
10
40.6131839573556
20
-3.14331533404541
30
0
41
1
10
40.7872642873451
20
-3.17309648640006
30
0
41
1
10
41.135553063919
20
-3.22653218469051
30
0
41
1
10
41.3095693908136
20
-3.2497681036609
30
0
41
1
10
41.6575367977351
20
-3.28986703769539
30
0
41
1
10
41.8314779734358
20
-3.30712637095613
30
0
41
1
10
42.3530723600776
20
-3.34942343934796
30
0
41
1
10
42.7003777696029
20
-3.36337457184268
30
0
41
1
10
43.3953175589058
20
-3.36564310398256
30
0
41
1
10
43.7445073261547
20
-3.35442334645788
30
0
41
1
10
44.4408229543449
20
-3.30963123371083
30
0
41
1
10
44.7879155303508
20
-3.27389998617133
30
0
41
1
10
45.4822951317648
20
-3.17818162667061
30
0
41
1
10
45.8303099893208
20
-3.117414717895
30
0
41
1
10
46.3534956059422
20
-3.00847491733293
30
0
41
1
10
46.5276531856506
20
-2.96937086025463
30
0
41
1
10
46.8754249578126
20
-2.88583363134234
30
0
41
1
10
47.0489777573206
20
-2.84119757005371
30
0
41
1
10
47.3964260854879
20
-2.74722366177784
30
0
41
1
10
47.5702429939369
20
-2.69837259644632
30
0
41
1
10
47.917964328233
20
-2.59490710669729
30
0
41
1
10
48.0918913869414
20
-2.54027139754925
30
0
41
1
10
48.5408611413571
20
-2.39256862759586
30
0
41
1
10
48.8160210995894
20
-2.2952838437941
30
0
41
1
10
49.0910060886784
20
-2.19338734657538
30
0
0
SPLINE
5
F2
100
AcDbEntity
8
1
62
256
6
ByLayer
370
18
48
1
60
0
100
AcDbSpline
70
4
71
3
72
36
73
32
40
0
40
0
40
0
40
0
40
0.0904956933548569
40
0.0904956933548569
40
0.181446124019376
40
0.181446124019376
40
0.226921339351635
40
0.226921339351635
40
0.272396554683893
40
0.272396554683893
40
0.363346985348409
40
0.363346985348409
40
0.454297416012926
40
0.454297416012926
40
0.499772631345184
40
0.499772631345184
40
0.545247846677443
40
0.545247846677443
40
0.636198277341956
40
0.636198277341956
40
0.681673492674214
40
0.681673492674214
40
0.727148708006471
40
0.727148708006471
40
0.818099138670981
40
0.818099138670981
40
0.863574354003237
40
0.863574354003237
40
0.909049569335493
40
0.909049569335493
40
1
40
1
40
1
40
1
41
1
10
64.9603353681516
20
3.39055415466328
30
0
41
1
10
65.3058042998431
20
3.38899037016429
30
0
41
1
10
65.6512641617913
20
3.37536620664906
30
0
41
1
10
66.343903773829
20
3.31995822809392
30
0
41
1
10
66.6911056454215
20
3.27909450218692
30
0
41
1
10
67.2130087142562
20
3.20091375331859
30
0
41
1
10
67.3868850778883
20
3.17216683444624
30
0
41
1
10
67.7343996514028
20
3.10943599840292
30
0
41
1
10
67.9080175620715
20
3.0751911897228
30
0
41
1
10
68.4284604985927
20
2.96129578426596
30
0
41
1
10
68.7747200668935
20
2.87268386424617
30
0
41
1
10
69.4700937072473
20
2.67661564688387
30
0
41
1
10
69.8187773256865
20
2.56924623701059
30
0
41
1
10
70.3394075543127
20
2.39311919925603
30
0
41
1
10
70.5126151427484
20
2.3315647134321
30
0
41
1
10
70.8592159747005
20
2.20481706619503
30
0
41
1
10
71.0326735800361
20
2.13977644734254
30
0
41
1
10
71.5534022898914
20
1.93819388113337
30
0
41
1
10
71.9016147223201
20
1.7949653613733
30
0
41
1
10
72.4230221467644
20
1.5703981106912
30
0
41
1
10
72.5964343581945
20
1.49376780496331
30
0
41
1
10
72.9435017926571
20
1.33895936365619
30
0
41
1
10
73.1170738169877
20
1.26063290204195
30
0
41
1
10
73.6377718514909
20
1.02208124649749
30
0
41
1
10
73.9849412258045
20
0.858412924883112
30
0
41
1
10
74.5058581738049
20
0.606767441774792
30
0
41
1
10
74.6797491584829
20
0.521880428322191
30
0
41
1
10
75.0275016326169
20
0.352436841543692
30
0
41
1
10
75.2013116332445
20
0.267626647521155
30
0
41
1
10
75.7224742456709
20
0.0127910688952397
30
0
41
1
10
76.0694891989381
20
-0.157765269809175
30
0
41
1
10
76.4163110690274
20
-0.328524629203258
30
0
0
SPLINE
5
F3
100
AcDbEntity
8
1
62
256
6
ByLayer
370
18
48
1
60
0
100
AcDbSpline
70
4
71
3
72
14
73
10
40
0
40
0
40
0
40
0
40
0.25
40
0.25
40
0.5
40
0.5
40
0.75
40
0.75
40
1
40
1
40
1
40
1
41
1
10
79.6525062866632
20
-1.38310724281337
30
0
41
1
10
79.6851691783692
20
-1.28792072492252
30
0
41
1
10
79.7161262402768
20
-1.19413173147953
30
0
41
1
10
79.7740732356014
20
-1.00999564519933
30
0
41
1
10
79.8002293222107
20
-0.922297707375463
30
0
41
1
10
79.8468552214833
20
-0.755576052660075
30
0
41
1
10
79.8673287362431
20
-0.676546828007105
30
0
41
1
10
79.9020371376585
20
-0.527945130923626
30
0
41
1
10
79.9158110591043
20
-0.460338468242611
30
0
41
1
10
79.925917408438
20
-0.399616972437826
30
0
0
SPLINE
5
F4
100
AcDbEntity
8
1
62
256
6
ByLayer
370
18
48
1
60
0
100
AcDbSpline
70
4
71
3
72
14
73
10
40
0
40
0
40
0
40
0
40
0.0883980946697072
40
0.0883980946697072
40
0.61457495166836
40
0.61457495166836
40
0.877663380167687
40
0.877663380167687
40
1
40
1
40
1
40
1
41
1
10
56.2441289382334
20
-3.38073662281315
30
0
41
1
10
56.1157063187592
20
-3.38050981554409
30
0
41
1
10
55.9874226106927
20
-3.37854275289206
30
0
41
1
10
55.0962483493336
20
-3.3528613593987
30
0
41
1
10
54.3369921035197
20
-3.26932958651591
30
0
41
1
10
53.1917595567801
20
-3.05714255748998
30
0
41
1
10
52.8089926068168
20
-2.97209539407152
30
0
41
1
10
52.2452003976581
20
-2.8271747448174
30
0
41
1
10
52.065620228763
20
-2.77810107936631
30
0
41
1
10
51.8863677142449
20
-2.72636587018778
30
0
0
SPLINE
5
F5
100
AcDbEntity
8
1
62
256
6
ByLayer
370
13
48
1
60
0
100
AcDbSpline
70
4
71
3
72
26
73
22
40
0
40
0
40
0
40
0
40
0.0035762594733476
40
0.0035762594733476
40
0.0546696715432721
40
0.0546696715432721
40
0.156856495683124
40
0.156856495683124
40
0.259043319822976
40
0.259043319822976
40
0.463416968102679
40
0.463416968102679
40
0.667790616382383
40
0.667790616382383
40
0.769977440522236
40
0.769977440522236
40
0.87216426466209
40
0.87216426466209
40
0.974351088801943
40
0.974351088801943
40
1
40
1
40
1
40
1
41
1
10
51.8863667529668
20
-2.72636559274713
30
0
41
1
10
51.8728757374098
20
-2.72247186413372
30
0
41
1
10
51.8593865778487
20
-2.71856305930734
30
0
41
1
10
51.6532146893026
20
-2.65858204934145
30
0
41
1
10
51.4607623037701
20
-2.59944029183836
30
0
41
1
10
50.8836625560892
20
-2.41337362315363
30
0
41
1
10
50.4992548301463
20
-2.27781961325377
30
0
41
1
10
49.7290421074296
20
-1.98651276693866
30
0
41
1
10
49.3424445943471
20
-1.83027788183281
30
0
41
1
10
48.1906582422603
20
-1.34173850928596
30
0
41
1
10
47.4295072261518
20
-0.988831600727366
30
0
41
1
10
45.9056327312322
20
-0.25932635149951
30
0
41
1
10
45.1426583754278
20
0.116779051037184
30
0
41
1
10
43.9849082862524
20
0.673627598132896
30
0
41
1
10
43.5993921633087
20
0.856557990802116
30
0
41
1
10
42.8291087721529
20
1.21270030600738
30
0
41
1
10
42.4439309787974
20
1.3857882086466
30
0
41
1
10
41.6716464815374
20
1.7183064106818
30
0
41
1
10
41.2862871730933
20
1.87691716192262
30
0
41
1
10
40.8041392187136
20
2.06336915262634
30
0
41
1
10
40.7073909837776
20
2.1001724757995
30
0
41
1
10
40.6106216817847
20
2.13635665794629
30
0
0
SPLINE
5
F6
100
AcDbEntity
8
1
62
256
6
ByLayer
370
18
48
1
60
0
100
AcDbSpline
70
4
71
3
72
16
73
12
40
0
40
0
40
0
40
0
40
0.145856984610714
40
0.145856984610714
40
0.429626857923125
40
0.429626857923125
40
0.571511794579331
40
0.571511794579331
40
0.713396731235536
40
0.713396731235536
40
1
40
1
40
1
40
1
41
1
10
12.7360907498246
20
-3.32851042452333
30
0
41
1
10
12.5396480799202
20
-3.32802862948134
30
0
41
1
10
12.3430246816424
20
-3.32352927651036
30
0
41
1
10
11.7629546000624
20
-3.29837294542401
30
0
41
1
10
11.3786246254607
20
-3.2665323190266
30
0
41
1
10
10.7987725653746
20
-3.19564247628151
30
0
41
1
10
10.6053281937021
20
-3.16819703165166
30
0
41
1
10
10.2202017953061
20
-3.1063132901688
30
0
41
1
10
10.028180265844
20
-3.07183358394948
30
0
41
1
10
9.449415224853
20
-2.95745566508046
30
0
41
1
10
9.06380410001796
20
-2.8670833629601
30
0
41
1
10
8.67880223151954
20
-2.76409468268435
30
0
0
SPLINE
5
F7
100
AcDbEntity
8
1
62
256
6
ByLayer
370
13
48
1
60
0
100
AcDbSpline
70
4
71
3
72
10
73
6
40
0
40
0
40
0
40
0
40
0.331107071277563
40
0.331107071277563
40
1
40
1
40
1
40
1
41
1
10
8.67880223078194
20
-2.76409468248707
30
0
41
1
10
8.30141271494983
20
-2.66314231998766
30
0
41
1
10
7.92460860090199
20
-2.55006755539509
30
0
41
1
10
6.78580738829734
20
-2.17551168770677
30
0
41
1
10
6.02270247633828
20
-1.8807302225967
30
0
41
1
10
5.25040027747332
20
-1.55300006608056
30
0
0
SPLINE
5
F8
100
AcDbEntity
8
1
62
256
6
ByLayer
370
18
48
1
60
0
100
AcDbSpline
70
4
71
3
72
14
73
10
40
0
40
0
40
0
40
0
40
0.25
40
0.25
40
0.5
40
0.5
40
0.75
40
0.75
40
1
40
1
40
1
40
1
41
1
10
5.25056571998172
20
2.46720715670952
30
0
41
1
10
5.59829945307442
20
2.3156111850133
30
0
41
1
10
5.95310265595586
20
2.1567960315613
30
0
41
1
10
6.67233662452972
20
1.82703819315205
30
0
41
1
10
7.03802114432295
20
1.65563695465377
30
0
41
1
10
7.76937344072721
20
1.30801367932776
30
0
41
1
10
8.13575129368618
20
1.13145351231933
30
0
41
1
10
8.87130470087527
20
0.776876654358119
30
0
41
1
10
9.24050350288627
20
0.598569099795043
30
0
41
1
10
9.61218258764259
20
0.422052720407265
30
0
0
SPLINE
5
F9
100
AcDbEntity
8
1
62
256
6
ByLayer
370
18
48
1
60
0
100
AcDbSpline
70
4
71
3
72
8
73
4
40
0
40
0
40
0
40
0
40
1
40
1
40
1
40
1
41
1
10
79.9484965769669
20
0.262226957690615
30
0
41
1
10
79.952123386792
20
0.239873594309898
30
0
41
1
10
79.9569404644129
20
0.215135182314725
30
0
41
1
10
79.9627075157089
20
0.188481749842282
30
0
0
SPLINE
5
FA
100
AcDbEntity
8
SK1
62
256
6
ByLayer
370
18
48
1
60
0
100
AcDbSpline
70
4
71
3
72
8
73
4
40
0
40
0
40
0
40
0
40
1
40
1
40
1
40
1
41
1
10
-35.9999999999999
20
-2.04063179433788
30
0
41
1
10
-35.7560638815586
20
-2.27898051072845
30
0
41
1
10
-35.5039465265148
20
-2.51518720970026
30
0
41
1
10
-35.25
20
-2.75091499364456
30
0
0
SPLINE
5
FB
100
AcDbEntity
8
SK1
62
256
6
ByLayer
370
18
48
1
60
0
100
AcDbSpline
70
4
71
3
72
14
73
10
40
0
40
0
40
0
40
0
40
0.499999999999997
40
0.499999999999997
40
0.749999999999996
40
0.749999999999996
40
0.874999999999998
40
0.874999999999998
40
1
40
1
40
1
40
1
41
1
10
-35.25
20
-2.75091499364481
30
0
41
1
10
-35.2287404812744
20
-2.77064930269674
30
0
41
1
10
-35.208362723075
20
-2.78519432116673
30
0
41
1
10
-35.1802905070704
20
-2.79582563712464
30
0
41
1
10
-35.1714466180788
20
-2.79744364325831
30
0
41
1
10
-35.1602396792677
20
-2.79402584498771
30
0
41
1
10
-35.1568594217207
20
-2.7918653277259
30
0
41
1
10
-35.1517495297275
20
-2.78425051634119
30
0
41
1
10
-35.15
20
-2.77866318706447
30
0
41
1
10
-35.15
20
-2.77072980533399
30
0
0
SPLINE
5
FC
100
AcDbEntity
8
SK1
62
256
6
ByLayer
370
18
48
1
60
0
100
AcDbSpline
70
4
71
3
72
14
73
10
40
0
40
0
40
0
40
0
40
0.125
40
0.125
40
0.25
40
0.25
40
0.499999999999999
40
0.499999999999999
40
1
40
1
40
1
40
1
41
1
10
-35.15
20
-1.22998868223934
30
0
41
1
10
-35.15
20
-1.21949728167738
30
0
41
1
10
-35.1517507934569
20
-1.20821433262012
30
0
41
1
10
-35.1569069278761
20
-1.18684404755689
30
0
41
1
10
-35.160234831946
20
-1.17679619202963
30
0
41
1
10
-35.1714888412645
20
-1.14773224486862
30
0
41
1
10
-35.1802429568046
20
-1.13079705755598
30
0
41
1
10
-35.2083191353842
20
-1.08375853391036
30
0
41
1
10
-35.2286409685639
20
-1.05880709490643
30
0
41
1
10
-35.25
20
-1.03898041242829
30
0
0
SPLINE
5
FD
100
AcDbEntity
8
SK1
62
256
6
ByLayer
370
18
48
1
60
0
100
AcDbSpline
70
4
71
3
72
8
73
4
40
0
40
0
40
0
40
0
40
1
40
1
40
1
40
1
41
1
10
-35.25
20
-1.03898041242829
30
0
41
1
10
-35.5038915576311
20
-0.803303653766022
30
0
41
1
10
-35.755997905176
20
-0.567110394693486
30
0
41
1
10
-35.9999999999999
20
-0.328697213121615
30
0
0
LINE
5
76
100
AcDbEntity
8
81
62
256
6
ByLayer
370
18
48
1
60
0
100
AcDbLine
10
80
20
0
30
0
11
85
21
0
31
0
39
0
210
0
220
0
230
1
0
LINE
5
77
100
AcDbEntity
8
1
62
256
6
ByLayer
370
18
48
1
60
0
100
AcDbLine
10
3.030588
20
3.459022
30
0
11
1.202258
21
3.456828
31
0
39
0
210
0
220
0
230
1
0
LINE
5
79
100
AcDbEntity
8
1
62
256
6
ByLayer
370
18
48
1
60
0
100
AcDbLine
10
12.529572
20
3.470421
30
0
11
10.765384
21
3.468304
31
0
39
0
210
0
220
0
230
1
0
LINE
5
7A
100
AcDbEntity
8
1
62
256
6
ByLayer
370
18
48
1
60
0
100
AcDbLine
10
34.278902
20
3.49652
30
0
11
33.540602
21
3.495634
31
0
39
0
210
0
220
0
230
1
0
LINE
5
7B
100
AcDbEntity
8
1
62
256
6
ByLayer
370
18
48
1
60
0
100
AcDbLine
10
56.02907
20
3.52262
30
0
11
55.317676
21
3.521766
31
0
39
0
210
0
220
0
230
1
0
LINE
5
7C
100
AcDbEntity
8
1
62
256
6
ByLayer
370
18
48
1
60
0
100
AcDbLine
10
77.779237
20
3.54872
30
0
11
77.093701
21
3.547898
31
0
39
0
210
0
220
0
230
1
0
LINE
5
7D
100
AcDbEntity
8
1
62
256
6
ByLayer
370
18
48
1
60
0
100
AcDbLine
10
77.093701
20
-3.547898
30
0
11
77.77889
21
-3.54872
31
0
39
0
210
0
220
0
230
1
0
LINE
5
7E
100
AcDbEntity
8
1
62
256
6
ByLayer
370
18
48
1
60
0
100
AcDbLine
10
55.317676
20
-3.521766
30
0
11
56.029059
21
-3.52262
31
0
39
0
210
0
220
0
230
1
0
LINE
5
7F
100
AcDbEntity
8
1
62
256
6
ByLayer
370
18
48
1
60
0
100
AcDbLine
10
33.540602
20
-3.495634
30
0
11
34.279395
21
-3.496521
31
0
39
0
210
0
220
0
230
1
0
LINE
5
80
100
AcDbEntity
8
1
62
256
6
ByLayer
370
18
48
1
60
0
100
AcDbLine
10
10.765384
20
-3.468304
30
0
11
12.529363
21
-3.470421
31
0
39
0
210
0
220
0
230
1
0
LINE
5
81
100
AcDbEntity
8
1
62
256
6
ByLayer
370
18
48
1
60
0
100
AcDbLine
10
1.202258
20
-3.456828
30
0
11
3.030588
21
-3.459022
31
0
39
0
210
0
220
0
230
1
0
LINE
5
82
100
AcDbEntity
8
SK1
62
256
6
ByLayer
370
18
48
1
60
0
100
AcDbLine
10
-35.133975
20
4
30
0
11
-36
21
2.5
31
0
39
0
210
0
220
0
230
1
0
LINE
5
84
100
AcDbEntity
8
SK1
62
256
6
ByLayer
370
18
48
1
60
0
100
AcDbLine
10
-36
20
-2.5
30
0
11
-35.133975
21
-4
31
0
39
0
210
0
220
0
230
1
0
LINE
5
85
100
AcDbEntity
8
SK1
62
256
6
ByLayer
370
18
48
1
60
0
100
AcDbLine
10
0
20
4
30
0
11
-35.133975
21
4
31
0
39
0
210
0
220
0
230
1
0
LINE
5
86
100
AcDbEntity
8
SK1
62
256
6
ByLayer
370
18
48
1
60
0
100
AcDbLine
10
-35.133975
20
-4
30
0
11
0
21
-4
31
0
39
0
210
0
220
0
230
1
0
LINE
5
87
100
AcDbEntity
8
SK4
62
256
6
ByLayer
370
18
48
0.05
60
0
100
AcDbLine
10
85
20
0
30
0
11
-41
21
0
31
0
39
0
210
0
220
0
230
1
0
LINE
5
89
100
AcDbEntity
8
4
62
256
6
ByLayer
370
18
48
0.05
60
0
100
AcDbLine
10
80
20
0
30
0
11
0
21
0
31
0
39
0
210
0
220
0
230
1
0
LINE
5
8B
100
AcDbEntity
8
80
62
256
6
ByLayer
370
18
48
1
60
0
100
AcDbLine
10
0
20
0
30
0
11
-5
21
0
31
0
39
0
210
0
220
0
230
1
0
LINE
5
8C
100
AcDbEntity
8
1
62
256
6
ByLayer
370
13
48
1
60
0
100
AcDbLine
10
79.925917
20
0.399617
30
0
11
79.701489
21
0.415701
31
0
39
0
210
0
220
0
230
1
0
LINE
5
8D
100
AcDbEntity
8
1
62
256
6
ByLayer
370
13
48
1
60
0
100
AcDbLine
10
1.202258
20
3.456828
30
0
11
1.202258
21
-3.456828
31
0
39
0
210
0
220
0
230
1
0
LINE
5
8E
100
AcDbEntity
8
1
62
256
6
ByLayer
370
18
48
1
60
0
100
AcDbLine
10
78.165949
20
-2.414475
30
0
11
79.92916
21
-0.153546
31
0
39
0
210
0
220
0
230
1
0
LINE
5
8F
100
AcDbEntity
8
1
62
256
6
ByLayer
370
13
48
1
60
0
100
AcDbLine
10
0.600649
20
3.728414
30
0
11
0.600649
21
-3.728414
31
0
39
0
210
0
220
0
230
1
0
LINE
5
90
100
AcDbEntity
8
1
62
256
6
ByLayer
370
13
48
1
60
0
100
AcDbLine
10
79.801521
20
-0.095427
30
0
11
79.929685
21
-0.152432
31
0
39
0
210
0
220
0
230
1
0
LINE
5
91
100
AcDbEntity
8
1
62
256
6
ByLayer
370
18
48
1
60
0
100
AcDbLine
10
0
20
-4
30
0
11
0
21
4
31
0
39
0
210
0
220
0
230
1
0
LINE
5
92
100
AcDbEntity
8
1
62
256
6
ByLayer
370
13
48
1
60
0
100
AcDbLine
10
79.948497
20
0.262227
30
0
11
79.701489
21
0.415701
31
0
39
0
210
0
220
0
230
1
0
LINE
5
93
100
AcDbEntity
8
1
62
256
6
ByLayer
370
13
48
1
60
0
100
AcDbLine
10
79.476863
20
0.106294
30
0
11
79.801521
21
-0.095427
31
0
39
0
210
0
220
0
230
1
0
LINE
5
94
100
AcDbEntity
8
SK1
62
256
6
ByLayer
370
18
48
1
60
0
100
AcDbLine
10
-36
20
-2.5
30
0
11
-36
21
-2.040632
31
0
39
0
210
0
220
0
230
1
0
LINE
5
95
100
AcDbEntity
8
SK1
62
256
6
ByLayer
370
18
48
1
60
0
100
AcDbLine
10
0
20
-4
30
0
11
0
21
4
31
0
39
0
210
0
220
0
230
1
0
LINE
5
96
100
AcDbEntity
8
SK1
62
256
6
ByLayer
370
13
48
1
60
0
100
AcDbLine
10
-35.25
20
-1.038948
30
0
11
-35.25
21
-2.750915
31
0
39
0
210
0
220
0
230
1
0
LINE
5
97
100
AcDbEntity
8
SK1
62
256
6
ByLayer
370
18
48
1
60
0
100
AcDbLine
10
-36
20
-0.328718
30
0
11
-36
21
-2.040632
31
0
39
0
210
0
220
0
230
1
0
LINE
5
98
100
AcDbEntity
8
SK1
62
256
6
ByLayer
370
18
48
1
60
0
100
AcDbLine
10
-35.15
20
-2.77073
30
0
11
-35.15
21
-1.229989
31
0
39
0
210
0
220
0
230
1
0
LINE
5
99
100
AcDbEntity
8
SK1
62
256
6
ByLayer
370
18
48
1
60
0
100
AcDbLine
10
-36
20
2.5
30
0
11
-36
21
-0.328697
31
0
39
0
210
0
220
0
230
1
0
LINE
5
9A
100
AcDbEntity
8
SK1
62
256
6
ByLayer
370
18
48
1
60
0
100
AcDbLine
10
-35.133975
20
4
30
0
11
-35.133975
21
-4
31
0
39
0
210
0
220
0
230
1
0
MTEXT
5
FE
100
AcDbEntity
8
SK6
62
256
6
ByLayer
370
13
48
1
60
0
100
AcDbMText
10
24.129169
20
35.932694
30
0
210
0
220
0
230
1
1
\W0.7208;860.1-0710-057A1-MM 2214
40
3.5
41
0
44
1.084337
50
0
71
8
72
5
7
iso_b_vert
0
DIMENSION
5
10B
100
AcDbEntity
8
2
62
256
6
ByLayer
370
13
48
1
60
0
100
AcDbDimension
2
DimnDraft3D1
10
78.8371
20
-13.763398
30
0
11
38.087159
21
-13.763398
31
0
70
32
71
5
72
1
41
1
210
0
220
0
230
1
3
Standard
100
AcDbAlignedDimension
13
0
23
-1.5875
33
0
14
78.8371
24
-5.1375
34
0
50
0
100
AcDbRotatedDimension
1001
ACAD
1000
DSTYLE
1002
{
1070
   279
1070
     0
1070
   172
1070
     1
1070
   173
1070
     1
1070
   340
1005
FF
1070
   271
1070
     2
1070
   272
1070
     2
1070
    77
1070
     1
1070
    73
1070
     0
1070
   171
1070
     3
1070
   274
1070
     4
1070
   177
1070
    35
1070
   176
1070
    35
1070
   178
1070
    35
1070
    48
1040
-0.005
1070
    41
1041
3.5
1070
   147
1041
1.75
1070
    42
1041
1.5875
1070
    44
1041
2.0
1070
   140
1041
3.5
1070
   343
1005
0
1070
   344
1005
0
1002
}
0
DIMENSION
5
115
100
AcDbEntity
8
SK2
62
256
6
ByLayer
370
13
48
1
60
0
100
AcDbDimension
2
DimnDraft3D2
10
80
20
-32.692985
30
0
11
22.1784
21
-32.692985
31
0
70
32
71
5
72
1
41
1
210
0
220
0
230
1
3
Standard
100
AcDbAlignedDimension
13
-36
23
-5.5875
33
0
14
80
24
-1.5875
34
0
50
0
100
AcDbRotatedDimension
1001
ACAD
1000
DSTYLE
1002
{
1070
   279
1070
     0
1070
   172
1070
     1
1070
   173
1070
     1
1070
   340
1005
FF
1070
   271
1070
     2
1070
   272
1070
     2
1070
    77
1070
     1
1070
    73
1070
     0
1070
   171
1070
     3
1070
   274
1070
     4
1070
   177
1070
    35
1070
   176
1070
    35
1070
   178
1070
    35
1070
    48
1040
-0.005
1070
    41
1041
3.5
1070
   147
1041
1.75
1070
    42
1041
1.5875
1070
    44
1041
2.0
1070
   140
1041
3.5
1070
   343
1005
0
1070
   344
1005
0
1002
}
0
DIMENSION
5
11F
100
AcDbEntity
8
SK2
62
256
6
ByLayer
370
13
48
1
60
0
100
AcDbDimension
2
DimnDraft3D3
10
80
20
15.159119
30
0
11
51.02
21
15.159119
31
0
70
32
71
5
72
1
41
1
210
0
220
0
230
1
3
Standard
100
AcDbAlignedDimension
13
22.04
23
5.1375
33
0
14
80
24
1.5875
34
0
50
0
100
AcDbRotatedDimension
1001
ACAD
1000
DSTYLE
1002
{
1070
   279
1070
     0
1070
   172
1070
     1
1070
   173
1070
     1
1070
   340
1005
FF
1070
   271
1070
     2
1070
   272
1070
     2
1070
    77
1070
     1
1070
    73
1070
     0
1070
   171
1070
     3
1070
   274
1070
     4
1070
   177
1070
    35
1070
   176
1070
    35
1070
   178
1070
    35
1070
    48
1040
-0.005
1070
    41
1041
3.5
1070
   147
1041
1.75
1070
    42
1041
1.5875
1070
    44
1041
2.0
1070
   140
1041
3.5
1070
   343
1005
0
1070
   344
1005
0
1002
}
0
DIMENSION
5
129
100
AcDbEntity
8
SK2
62
256
6
ByLayer
370
13
48
1
60
0
100
AcDbDimension
2
DimnDraft3D4
10
78.8371
20
-16.352503
30
0
11
89.981425
21
-16.352503
31
0
70
32
71
5
72
1
41
1
210
0
220
0
230
1
3
Standard
100
AcDbAlignedDimension
13
80
23
-1.5875
33
0
14
78.8371
24
-5.1375
34
0
50
0
100
AcDbRotatedDimension
1001
ACAD
1000
DSTYLE
1002
{
1070
   279
1070
     0
1070
   172
1070
     1
1070
   173
1070
     1
1070
   340
1005
FF
1070
   271
1070
     2
1070
   272
1070
     2
1070
    77
1070
     1
1070
    73
1070
     0
1070
   171
1070
     3
1070
   274
1070
     4
1070
   177
1070
    35
1070
   176
1070
    35
1070
   178
1070
    35
1070
    48
1040
-0.005
1070
    41
1041
3.5
1070
   147
1041
1.75
1070
    42
1041
1.5875
1070
    44
1041
2.0
1070
   140
1041
3.5
1070
   343
1005
0
1070
   344
1005
0
1002
}
0
DIMENSION
5
133
100
AcDbEntity
8
SK2
62
256
6
ByLayer
370
13
48
1
60
0
100
AcDbDimension
2
DimnDraft3D5
10
78.8371
20
-22.343428
30
0
11
19.097776
21
-22.343428
31
0
70
32
71
5
72
1
41
1
210
0
220
0
230
1
3
Standard
100
AcDbAlignedDimension
13
-36
23
-5.5875
33
0
14
78.8371
24
-5.1375
34
0
50
0
100
AcDbRotatedDimension
1001
ACAD
1000
DSTYLE
1002
{
1070
   279
1070
     0
1070
   172
1070
     1
1070
   173
1070
     1
1070
   340
1005
FF
1070
   271
1070
     2
1070
   272
1070
     2
1070
    77
1070
     1
1070
    73
1070
     0
1070
   171
1070
     3
1070
   274
1070
     4
1070
   177
1070
    35
1070
   176
1070
    35
1070
   178
1070
    35
1070
    48
1040
-0.005
1070
    41
1041
3.5
1070
   147
1041
1.75
1070
    42
1041
1.5875
1070
    44
1041
2.0
1070
   140
1041
3.5
1070
   343
1005
0
1070
   344
1005
0
1002
}
0
DIMENSION
5
13E
100
AcDbEntity
8
SK2
62
256
6
ByLayer
370
13
48
1
60
0
100
AcDbDimension
2
DimnDraft3D6
10
-46.625163
20
4
30
0
11
-47.250163
21
22.47418
31
0
70
33
71
5
72
1
41
1
210
0
220
0
230
1
3
Standard
100
AcDbAlignedDimension
13
-37.5875
23
-4
33
0
14
-37.5875
24
4
34
0
1001
ACAD
1000
DSTYLE
1002
{
1070
   279
1070
     0
1070
    74
1070
     0
1070
   173
1070
     1
1070
   340
1005
FF
1070
   271
1070
     3
1070
   272
1070
     2
1070
    77
1070
     1
1070
    73
1070
     0
1070
   171
1070
     3
1070
   274
1070
     4
1070
   177
1070
    35
1070
   176
1070
    35
1070
   178
1070
    35
1070
    48
1040
-0.005
1070
    41
1041
3.5
1070
   147
1041
1.75
1070
    42
1041
1.5875
1070
    44
1041
2.0
1070
   140
1041
3.5
1070
   343
1005
0
1070
   344
1005
0
1002
}
0
DIMENSION
5
149
100
AcDbEntity
8
2
62
256
6
ByLayer
370
13
48
1
60
0
100
AcDbDimension
2
DimnDraft3D7
10
94.083343
20
3.55
30
0
11
89.458343
21
20.617266
31
0
70
33
71
5
72
1
41
1
210
0
220
0
230
1
3
Standard
100
AcDbAlignedDimension
13
80.4246
23
-3.55
33
0
14
80.4246
24
3.55
34
0
1001
ACAD
1000
DSTYLE
1002
{
1070
   279
1070
     0
1070
    74
1070
     0
1070
   173
1070
     1
1070
   340
1005
FF
1070
   271
1070
     3
1070
   272
1070
     2
1070
    77
1070
     1
1070
    73
1070
     0
1070
   171
1070
     3
1070
   274
1070
     4
1070
   177
1070
    35
1070
   176
1070
    35
1070
   178
1070
    35
1070
    48
1040
-0.005
1070
    41
1041
3.5
1070
   147
1041
1.75
1070
    42
1041
1.5875
1070
    44
1041
2.0
1070
   140
1041
3.5
1070
   343
1005
0
1070
   344
1005
0
1002
}
0
ENDSEC
0
SECTION
2
OBJECTS
0
DICTIONARY
5
1b4
330
0
100
AcDbDictionary
280
0
281
1
3
ACAD_GROUP
350
1b5
3
ACAD_MLINESTYLE
350
1b6
0
DICTIONARY
5
1b5
330
0
100
AcDbDictionary
280
0
281
1
0
DICTIONARY
5
1b6
330
0
100
AcDbDictionary
280
0
281
1
3
Standard
350
18
0
MLINESTYLE
5
18
330
1b6
100
AcDbMlineStyle
2
Standard
70
0
3

62
256
51
90
52
90
71
2
49
-0.5
62
256
6
ByLayer
49
0.5
62
256
6
ByLayer
0
RASTERVARIABLES
5
1a2
330

100
AcDbRasterVariables
90
0
70
1
71
1
72
1
0
ENDSEC
0
EOF
