0
SECTION
2
HEADER
9
$ACADVER
1
AC1015
9
$DWGCODEPAGE
3
ANSI_1252
9
$HANDSEED
5
198
9
$ANGBASE
50
0
9
$ANGDIR
70
0
9
$ATTMODE
70
1
9
$AUNITS
70
0
9
$AUPREC
70
0
9
$CECOLOR
62
256
9
$CELTSCALE
40
1
9
$CELTYPE
6
ByLayer
9
$CELWEIGHT
370
18
9
$CLAYER
8
0
9
$CMLJUST
70
0
9
$CMLSCALE
40
1
9
$CMLSTYLE
2
Standard
9
$DIMSTYLE
2
Standard
9
$TEXTSIZE
40
0.2
9
$TEXTSTYLE
7
Standard
9
$LUNITS
70
2
9
$LUPREC
70
4
9
$EXTNAMES
290
1
9
$INSUNITS
70
4
9
$LTSCALE
40
1
9
$LWDISPLAY
290
1
9
$PDMODE
70
0
9
$PDSIZE
40
0
9
$PLINEGEN
70
0
0
ENDSEC
0
SECTION
2
CLASSES
0
CLASS
1
RASTERVARIABLES
2
AcDbRasterVariables
3
ISM
90
0
280
0
281
0
0
ENDSEC
0
SECTION
2
TABLES
0
TABLE
2
VPORT
5
18e
100
AcDbSymbolTable
0
VPORT
5
1
100
AcDbSymbolTableRecord
100
AcDbViewportTableRecord
2
*Active
70
0
10
0
20
0
11
1
21
1
12
-1
22
1
13
0
23
0
14
0.5
24
0.5
15
10
25
10
16
0
26
0
36
1
17
0
27
0
37
0
0
ENDTAB
0
TABLE
2
LTYPE
5
18f
100
AcDbSymbolTable
0
LTYPE
5
14
100
AcDbSymbolTableRecord
100
AcDbLinetypeTableRecord
70
0
2
ByBlock
3

72
65
73
0
40
0
0
LTYPE
5
15
100
AcDbSymbolTableRecord
100
AcDbLinetypeTableRecord
70
0
2
ByLayer
3

72
65
73
0
40
0
0
LTYPE
5
16
100
AcDbSymbolTableRecord
100
AcDbLinetypeTableRecord
70
0
2
CONTINUOUS
3
Solid line
72
65
73
0
40
0
0
LTYPE
5
6A
100
AcDbSymbolTableRecord
100
AcDbLinetypeTableRecord
70
0
2
CENTER
3
____ _ ____ _ ____ _ ____
72
65
73
4
40
47.5
49
22
74
0
49
-8.5
74
0
49
8.5
74
0
49
-8.5
74
0
0
LTYPE
5
6B
100
AcDbSymbolTableRecord
100
AcDbLinetypeTableRecord
70
0
2
DASHED
3
__ __ __ __ __ __ __ __ __
72
65
73
2
40
25.72
49
12.86
74
0
49
-12.86
74
0
0
ENDTAB
0
TABLE
2
LAYER
5
190
100
AcDbSymbolTable
0
LAYER
5
10
100
AcDbSymbolTableRecord
100
AcDbLayerTableRecord
2
0
70
0
62
7
6
CONTINUOUS
290
1
370
-3
390
0
0
LAYER
5
6D
100
AcDbSymbolTableRecord
100
AcDbLayerTableRecord
2
81
70
0
62
-3
6
CONTINUOUS
290
1
370
-3
390
0
0
LAYER
5
6F
100
AcDbSymbolTableRecord
100
AcDbLayerTableRecord
2
80
70
0
62
-6
6
CONTINUOUS
290
1
370
-3
390
0
0
LAYER
5
74
100
AcDbSymbolTableRecord
100
AcDbLayerTableRecord
2
2
70
0
62
7
6
CONTINUOUS
290
1
370
-3
390
0
0
LAYER
5
78
100
AcDbSymbolTableRecord
100
AcDbLayerTableRecord
2
1
70
0
62
4
6
CONTINUOUS
290
1
370
-3
390
0
0
LAYER
5
86
100
AcDbSymbolTableRecord
100
AcDbLayerTableRecord
2
4
70
0
62
-2
6
CENTER
290
1
370
-3
390
0
0
LAYER
5
17a
100
AcDbSymbolTableRecord
100
AcDbLayerTableRecord
2
SK2
70
0
62
7
6
CONTINUOUS
290
1
370
-3
390
0
0
LAYER
5
17b
100
AcDbSymbolTableRecord
100
AcDbLayerTableRecord
2
SK1
70
0
62
4
6
CONTINUOUS
290
1
370
-3
390
0
0
LAYER
5
17c
100
AcDbSymbolTableRecord
100
AcDbLayerTableRecord
2
SK4
70
0
62
2
6
CENTER
290
1
370
-3
390
0
0
LAYER
5
17d
100
AcDbSymbolTableRecord
100
AcDbLayerTableRecord
2
SK6
70
0
62
5
6
CONTINUOUS
290
1
370
-3
390
0
0
ENDTAB
0
TABLE
2
STYLE
5
191
100
AcDbSymbolTable
0
STYLE
5
11
100
AcDbSymbolTableRecord
100
AcDbTextStyleTableRecord
2
Standard
3
txt
70
0
71
0
40
0
41
1
42
0
50
0
0
STYLE
5
D6
100
AcDbSymbolTableRecord
100
AcDbTextStyleTableRecord
2
iso_b_vert
3
simplex.shx
70
0
71
0
40
0
41
1
42
0
50
0
0
STYLE
5
D7
100
AcDbSymbolTableRecord
100
AcDbTextStyleTableRecord
2
DWGDirectTextStyle
3
simplex
70
0
71
0
40
0
41
1
42
0
50
0
0
ENDTAB
0
TABLE
2
DIMSTYLE
5
192
100
AcDbSymbolTable
100
AcDbDimStyleTable
0
DIMSTYLE
105
27
100
AcDbSymbolTableRecord
100
AcDbDimStyleTableRecord
2
Standard
70
0
3
<>
41
0.18
42
0.0625
44
0.18
140
0.18
147
0.09
73
0
74
0
77
1
271
2
275
0
278
52
280
0
340
11
0
ENDTAB
0
TABLE
2
VIEW
5
193
100
AcDbSymbolTable
0
ENDTAB
0
TABLE
2
UCS
5
194
100
AcDbSymbolTable
0
ENDTAB
0
TABLE
2
APPID
5
195
100
AcDbSymbolTable
0
APPID
5
12
100
AcDbSymbolTableRecord
100
AcDbRegAppTableRecord
2
ACAD
70
0
0
ENDTAB
0
TABLE
2
BLOCK_RECORD
5
196
100
AcDbSymbolTable
0
BLOCK_RECORD
5
1F
100
AcDbSymbolTableRecord
100
AcDbBlockTableRecord
2
*Model_Space
340
0
70
0
0
BLOCK_RECORD
5
1B
100
AcDbSymbolTableRecord
100
AcDbBlockTableRecord
2
*Paper_Space
340
0
70
0
0
BLOCK_RECORD
5
23
100
AcDbSymbolTableRecord
100
AcDbBlockTableRecord
2
*Paper_Space0
340
0
70
0
0
BLOCK_RECORD
5
D9
100
AcDbSymbolTableRecord
100
AcDbBlockTableRecord
2
DimnDraft3D1
340
0
70
0
0
BLOCK_RECORD
5
E3
100
AcDbSymbolTableRecord
100
AcDbBlockTableRecord
2
DimnDraft3D2
340
0
70
0
0
BLOCK_RECORD
5
ED
100
AcDbSymbolTableRecord
100
AcDbBlockTableRecord
2
DimnDraft3D3
340
0
70
0
0
BLOCK_RECORD
5
F7
100
AcDbSymbolTableRecord
100
AcDbBlockTableRecord
2
DimnDraft3D4
340
0
70
0
0
BLOCK_RECORD
5
101
100
AcDbSymbolTableRecord
100
AcDbBlockTableRecord
2
DimnDraft3D5
340
0
70
0
0
BLOCK_RECORD
5
10B
100
AcDbSymbolTableRecord
100
AcDbBlockTableRecord
2
DimnDraft3D6
340
0
70
0
0
BLOCK_RECORD
5
116
100
AcDbSymbolTableRecord
100
AcDbBlockTableRecord
2
DimnDraft3D7
340
0
70
0
0
ENDTAB
0
ENDSEC
0
SECTION
2
BLOCKS
0
BLOCK
5
20
100
AcDbEntity
8
0
100
AcDbBlockBegin
2
*Model_Space
70
0
10
0
20
0
30
0
3
*Model_Space
0
ENDBLK
5
21
100
AcDbEntity
8
0
100
AcDbBlockEnd
0
BLOCK
5
1C
100
AcDbEntity
8
0
100
AcDbBlockBegin
2
*Paper_Space
70
0
10
0
20
0
30
0
3
*Paper_Space
0
ENDBLK
5
1D
100
AcDbEntity
8
0
100
AcDbBlockEnd
0
BLOCK
5
24
100
AcDbEntity
8
0
100
AcDbBlockBegin
2
*Paper_Space0
70
0
10
0
20
0
30
0
3
*Paper_Space0
0
ENDBLK
5
25
100
AcDbEntity
8
0
100
AcDbBlockEnd
0
BLOCK
5
E0
100
AcDbEntity
8
0
100
AcDbBlockBegin
2
DimnDraft3D1
70
0
10
0
20
0
30
0
3
DimnDraft3D1
0
MTEXT
5
DA
100
AcDbEntity
8
2
62
256
6
ByLayer
370
13
48
1
60
0
100
AcDbMText
10
21.281475
20
-12.438398
30
0
210
0
220
0
230
1
1
\W0.7317;53,98
40
3.5
41
0
44
1.084337
50
0
71
7
72
5
7
iso_b_vert
0
LINE
5
DB
100
AcDbEntity
8
2
62
256
6
ByLayer
370
13
48
1
60
0
100
AcDbLine
10
0
20
-1.5875
30
0
11
0
21
-15.313398
31
0
39
0
210
0
220
0
230
1
0
LINE
5
DC
100
AcDbEntity
8
2
62
256
6
ByLayer
370
13
48
1
60
0
100
AcDbLine
10
53.9801
20
-4.6875
30
0
11
53.9801
21
-15.313398
31
0
39
0
210
0
220
0
230
1
0
LINE
5
DD
100
AcDbEntity
8
2
62
256
6
ByLayer
370
13
48
1
60
0
100
AcDbLine
10
0
20
-13.313398
30
0
11
53.9801
21
-13.313398
31
0
39
0
210
0
220
0
230
1
0
SOLID
5
DE
100
AcDbEntity
8
2
62
256
6
ByLayer
370
13
48
1
60
0
100
AcDbTrace
10
0
20
-13.313398
30
0
11
3.499998
21
-12.852615
31
0
12
3.500002
22
-13.774182
32
0
13
0
23
-13.313398
33
0
39
0
210
0
220
0
230
1
0
SOLID
5
DF
100
AcDbEntity
8
2
62
256
6
ByLayer
370
13
48
1
60
0
100
AcDbTrace
10
53.9801
20
-13.313398
30
0
11
50.480102
21
-13.774182
31
0
12
50.480098
22
-12.852615
32
0
13
53.9801
23
-13.313398
33
0
39
0
210
0
220
0
230
1
0
ENDBLK
5
E1
100
AcDbEntity
8
0
100
AcDbBlockEnd
0
BLOCK
5
EA
100
AcDbEntity
8
0
100
AcDbBlockBegin
2
DimnDraft3D2
70
0
10
0
20
0
30
0
3
DimnDraft3D2
0
MTEXT
5
E4
100
AcDbEntity
8
SK2
62
256
6
ByLayer
370
13
48
1
60
0
100
AcDbMText
10
5.810216
20
-31.817985
30
0
210
0
220
0
230
1
1
\W0.6713;91,00
40
3.5
41
0
44
1.084337
50
0
71
7
72
5
7
iso_b_vert
0
LINE
5
E5
100
AcDbEntity
8
SK2
62
256
6
ByLayer
370
13
48
1
60
0
100
AcDbLine
10
-36
20
-5.5875
30
0
11
-36
21
-34.692985
31
0
39
0
210
0
220
0
230
1
0
LINE
5
E6
100
AcDbEntity
8
SK2
62
256
6
ByLayer
370
13
48
1
60
0
100
AcDbLine
10
55
20
-1.5875
30
0
11
55
21
-34.692985
31
0
39
0
210
0
220
0
230
1
0
LINE
5
E7
100
AcDbEntity
8
SK2
62
256
6
ByLayer
370
13
48
1
60
0
100
AcDbLine
10
-36
20
-32.692985
30
0
11
55
21
-32.692985
31
0
39
0
210
0
220
0
230
1
0
SOLID
5
E8
100
AcDbEntity
8
SK2
62
256
6
ByLayer
370
13
48
1
60
0
100
AcDbTrace
10
-36
20
-32.692985
30
0
11
-32.500002
21
-32.232202
31
0
12
-32.499998
22
-33.153769
32
0
13
-36
23
-32.692985
33
0
39
0
210
0
220
0
230
1
0
SOLID
5
E9
100
AcDbEntity
8
SK2
62
256
6
ByLayer
370
13
48
1
60
0
100
AcDbTrace
10
55
20
-32.692985
30
0
11
51.500002
21
-33.153769
31
0
12
51.499998
22
-32.232202
32
0
13
55
23
-32.692985
33
0
39
0
210
0
220
0
230
1
0
ENDBLK
5
EB
100
AcDbEntity
8
0
100
AcDbBlockEnd
0
BLOCK
5
F4
100
AcDbEntity
8
0
100
AcDbBlockBegin
2
DimnDraft3D3
70
0
10
0
20
0
30
0
3
DimnDraft3D3
0
MTEXT
5
EE
100
AcDbEntity
8
SK2
62
256
6
ByLayer
370
13
48
1
60
0
100
AcDbMText
10
34.541316
20
15.584119
30
0
210
0
220
0
230
1
1
\W0.7317;32,02
40
3.5
41
0
44
1.084337
50
0
71
7
72
5
7
iso_b_vert
0
LINE
5
EF
100
AcDbEntity
8
SK2
62
256
6
ByLayer
370
13
48
1
60
0
100
AcDbLine
10
22.98
20
4.6875
30
0
11
22.98
21
16.709119
31
0
39
0
210
0
220
0
230
1
0
LINE
5
F0
100
AcDbEntity
8
SK2
62
256
6
ByLayer
370
13
48
1
60
0
100
AcDbLine
10
55
20
1.5875
30
0
11
55
21
16.709119
31
0
39
0
210
0
220
0
230
1
0
LINE
5
F1
100
AcDbEntity
8
SK2
62
256
6
ByLayer
370
13
48
1
60
0
100
AcDbLine
10
22.98
20
14.709119
30
0
11
55
21
14.709119
31
0
39
0
210
0
220
0
230
1
0
SOLID
5
F2
100
AcDbEntity
8
SK2
62
256
6
ByLayer
370
13
48
1
60
0
100
AcDbTrace
10
22.98
20
14.709119
30
0
11
26.479998
21
15.169903
31
0
12
26.480002
22
14.248335
32
0
13
22.98
23
14.709119
33
0
39
0
210
0
220
0
230
1
0
SOLID
5
F3
100
AcDbEntity
8
SK2
62
256
6
ByLayer
370
13
48
1
60
0
100
AcDbTrace
10
55
20
14.709119
30
0
11
51.500002
21
14.248335
31
0
12
51.499998
22
15.169903
32
0
13
55
23
14.709119
33
0
39
0
210
0
220
0
230
1
0
ENDBLK
5
F5
100
AcDbEntity
8
0
100
AcDbBlockEnd
0
BLOCK
5
FE
100
AcDbEntity
8
0
100
AcDbBlockBegin
2
DimnDraft3D4
70
0
10
0
20
0
30
0
3
DimnDraft3D4
0
MTEXT
5
F8
100
AcDbEntity
8
SK2
62
256
6
ByLayer
370
13
48
1
60
0
100
AcDbMText
10
62.278136
20
-15.027503
30
0
210
0
220
0
230
1
1
\W0.6367;1,02
40
3.5
41
0
44
1.084337
50
0
71
7
72
5
7
iso_b_vert
0
LINE
5
F9
100
AcDbEntity
8
SK2
62
256
6
ByLayer
370
13
48
1
60
0
100
AcDbLine
10
55
20
-1.5875
30
0
11
55
21
-17.902503
31
0
39
0
210
0
220
0
230
1
0
LINE
5
FA
100
AcDbEntity
8
SK2
62
256
6
ByLayer
370
13
48
1
60
0
100
AcDbLine
10
53.9801
20
-4.6875
30
0
11
53.9801
21
-17.902503
31
0
39
0
210
0
220
0
230
1
0
LINE
5
FB
100
AcDbEntity
8
SK2
62
256
6
ByLayer
370
13
48
1
60
0
100
AcDbLine
10
45.2301
20
-15.902503
30
0
11
68.559715
21
-15.902503
31
0
39
0
210
0
220
0
230
1
0
SOLID
5
FC
100
AcDbEntity
8
SK2
62
256
6
ByLayer
370
13
48
1
60
0
100
AcDbTrace
10
55
20
-15.902503
30
0
11
58.499998
21
-15.441719
31
0
12
58.500002
22
-16.363287
32
0
13
55
23
-15.902503
33
0
39
0
210
0
220
0
230
1
0
SOLID
5
FD
100
AcDbEntity
8
SK2
62
256
6
ByLayer
370
13
48
1
60
0
100
AcDbTrace
10
53.9801
20
-15.902503
30
0
11
50.480102
21
-16.363287
31
0
12
50.480098
22
-15.441719
32
0
13
53.9801
23
-15.902503
33
0
39
0
210
0
220
0
230
1
0
ENDBLK
5
FF
100
AcDbEntity
8
0
100
AcDbBlockEnd
0
BLOCK
5
108
100
AcDbEntity
8
0
100
AcDbBlockBegin
2
DimnDraft3D5
70
0
10
0
20
0
30
0
3
DimnDraft3D5
0
MTEXT
5
102
100
AcDbEntity
8
SK2
62
256
6
ByLayer
370
13
48
1
60
0
100
AcDbMText
10
2.292092
20
-21.468428
30
0
210
0
220
0
230
1
1
\W0.7317;89,98
40
3.5
41
0
44
1.084337
50
0
71
7
72
5
7
iso_b_vert
0
LINE
5
103
100
AcDbEntity
8
SK2
62
256
6
ByLayer
370
13
48
1
60
0
100
AcDbLine
10
-36
20
-5.5875
30
0
11
-36
21
-24.343428
31
0
39
0
210
0
220
0
230
1
0
LINE
5
104
100
AcDbEntity
8
SK2
62
256
6
ByLayer
370
13
48
1
60
0
100
AcDbLine
10
53.9801
20
-4.6875
30
0
11
53.9801
21
-24.343428
31
0
39
0
210
0
220
0
230
1
0
LINE
5
105
100
AcDbEntity
8
SK2
62
256
6
ByLayer
370
13
48
1
60
0
100
AcDbLine
10
-36
20
-22.343428
30
0
11
53.9801
21
-22.343428
31
0
39
0
210
0
220
0
230
1
0
SOLID
5
106
100
AcDbEntity
8
SK2
62
256
6
ByLayer
370
13
48
1
60
0
100
AcDbTrace
10
-36
20
-22.343428
30
0
11
-32.500002
21
-21.882645
31
0
12
-32.499998
22
-22.804212
32
0
13
-36
23
-22.343428
33
0
39
0
210
0
220
0
230
1
0
SOLID
5
107
100
AcDbEntity
8
SK2
62
256
6
ByLayer
370
13
48
1
60
0
100
AcDbTrace
10
53.9801
20
-22.343428
30
0
11
50.480102
21
-22.804212
31
0
12
50.480098
22
-21.882645
32
0
13
53.9801
23
-22.343428
33
0
39
0
210
0
220
0
230
1
0
ENDBLK
5
109
100
AcDbEntity
8
0
100
AcDbBlockEnd
0
BLOCK
5
113
100
AcDbEntity
8
0
100
AcDbBlockBegin
2
DimnDraft3D6
70
0
10
0
20
0
30
0
3
DimnDraft3D6
0
MTEXT
5
10C
100
AcDbEntity
8
SK2
62
256
6
ByLayer
370
13
48
1
60
0
100
AcDbMText
10
-46.375163
20
23.34918
30
0
210
0
220
0
230
1
1
\W0.7317;8,000
40
3.5
41
0
44
1.084337
50
90
71
7
72
5
7
iso_b_vert
0
MTEXT
5
10D
100
AcDbEntity
8
SK2
62
256
6
ByLayer
370
13
48
1
60
0
100
AcDbMText
10
-46.375163
20
18.126524
30
0
210
0
220
0
230
1
1
%%c
40
3.5
41
0
44
1.084337
50
90
71
7
72
5
7
iso_b_vert
0
LINE
5
10E
100
AcDbEntity
8
SK2
62
256
6
ByLayer
370
13
48
1
60
0
100
AcDbLine
10
-37.5875
20
-4
30
0
11
-46.625163
21
-4
31
0
39
0
210
0
220
0
230
1
0
LINE
5
10F
100
AcDbEntity
8
SK2
62
256
6
ByLayer
370
13
48
1
60
0
100
AcDbLine
10
-37.5875
20
4
30
0
11
-46.625163
21
4
31
0
39
0
210
0
220
0
230
1
0
LINE
5
110
100
AcDbEntity
8
SK2
62
256
6
ByLayer
370
13
48
1
60
0
100
AcDbLine
10
-44.625163
20
-4
30
0
11
-44.625163
21
33.121549
31
0
39
0
210
0
220
0
230
1
0
SOLID
5
111
100
AcDbEntity
8
SK2
62
256
6
ByLayer
370
13
48
1
60
0
100
AcDbTrace
10
-44.625163
20
-4
30
0
11
-45.085946
21
-0.500002
31
0
12
-44.164379
22
-0.499998
32
0
13
-44.625163
23
-4
33
0
39
0
210
0
220
0
230
1
0
SOLID
5
112
100
AcDbEntity
8
SK2
62
256
6
ByLayer
370
13
48
1
60
0
100
AcDbTrace
10
-44.625163
20
4
30
0
11
-44.164379
21
0.500002
31
0
12
-45.085946
22
0.499998
32
0
13
-44.625163
23
4
33
0
39
0
210
0
220
0
230
1
0
ENDBLK
5
114
100
AcDbEntity
8
0
100
AcDbBlockEnd
0
BLOCK
5
11E
100
AcDbEntity
8
0
100
AcDbBlockBegin
2
DimnDraft3D7
70
0
10
0
20
0
30
0
3
DimnDraft3D7
0
MTEXT
5
117
100
AcDbEntity
8
2
62
256
6
ByLayer
370
13
48
1
60
0
100
AcDbMText
10
65.333343
20
21.042266
30
0
210
0
220
0
230
1
1
\W0.7317;6,200
40
3.5
41
0
44
1.084337
50
90
71
7
72
5
7
iso_b_vert
0
MTEXT
5
118
100
AcDbEntity
8
2
62
256
6
ByLayer
370
13
48
1
60
0
100
AcDbMText
10
65.333343
20
15.81961
30
0
210
0
220
0
230
1
1
%%c
40
3.5
41
0
44
1.084337
50
90
71
7
72
5
7
iso_b_vert
0
LINE
5
119
100
AcDbEntity
8
2
62
256
6
ByLayer
370
13
48
1
60
0
100
AcDbLine
10
55.5676
20
-3.1
30
0
11
69.083343
21
-3.1
31
0
39
0
210
0
220
0
230
1
0
LINE
5
11A
100
AcDbEntity
8
2
62
256
6
ByLayer
370
13
48
1
60
0
100
AcDbLine
10
55.5676
20
3.1
30
0
11
69.083343
21
3.1
31
0
39
0
210
0
220
0
230
1
0
LINE
5
11B
100
AcDbEntity
8
2
62
256
6
ByLayer
370
13
48
1
60
0
100
AcDbLine
10
67.083343
20
30.814635
30
0
11
67.083343
21
-11.85
31
0
39
0
210
0
220
0
230
1
0
SOLID
5
11C
100
AcDbEntity
8
2
62
256
6
ByLayer
370
13
48
1
60
0
100
AcDbTrace
10
67.083343
20
-3.1
30
0
11
67.544126
21
-6.599998
31
0
12
66.622559
22
-6.600002
32
0
13
67.083343
23
-3.1
33
0
39
0
210
0
220
0
230
1
0
SOLID
5
11D
100
AcDbEntity
8
2
62
256
6
ByLayer
370
13
48
1
60
0
100
AcDbTrace
10
67.083343
20
3.1
30
0
11
66.622559
21
6.599998
31
0
12
67.544126
22
6.600002
32
0
13
67.083343
23
3.1
33
0
39
0
210
0
220
0
230
1
0
ENDBLK
5
11F
100
AcDbEntity
8
0
100
AcDbBlockEnd
0
ENDSEC
0
SECTION
2
ENTITIES
0
ARC
5
8F
100
AcDbEntity
8
1
62
256
6
ByLayer
370
18
48
1
60
0
100
AcDbCircle
39
0
10
0
20
3.15
30
0
40
0.850000000000002
210
0
220
0
230
1
100
AcDbArc
50
24.523804
51
90
0
ARC
5
90
100
AcDbEntity
8
1
62
256
6
ByLayer
370
18
48
1
60
0
100
AcDbCircle
39
0
10
0
20
-3.15
30
0
40
0.850000000000002
210
0
220
0
230
1
100
AcDbArc
50
270
51
335.476196
0
ARC
5
91
100
AcDbEntity
8
1
62
256
6
ByLayer
370
18
48
1
60
0
100
AcDbCircle
39
0
10
-1.546641
20
3.855621
30
0
40
0.850000000000001
210
0
220
0
230
-1
100
AcDbArc
50
269.896868
51
335.476196
0
ARC
5
92
100
AcDbEntity
8
1
62
256
6
ByLayer
370
18
48
1
60
0
100
AcDbCircle
39
0
10
-1.546641
20
-3.855621
30
0
40
0.850000000000001
210
0
220
0
230
-1
100
AcDbArc
50
24.523804
51
90.103132
0
ELLIPSE
5
93
100
AcDbEntity
8
1
62
256
6
ByLayer
370
13
48
1
60
0
100
AcDbEllipse
10
10.555578
20
-55.633567
30
0
11
59.2919311376353
21
45.0449257447213
31
0
210
0
220
0
230
1
40
0.664352
41
1.20694787453244
42
1.20971930421903
0
ELLIPSE
5
94
100
AcDbEntity
8
1
62
256
6
ByLayer
370
13
48
1
60
0
100
AcDbEllipse
10
99.194174
20
42.489532
30
0
11
-61.2499999999999
21
7.50071391716205E-15
31
0
210
0
220
0
230
1
40
0.99863
41
0.748621674831668
42
0.764057204111948
0
ELLIPSE
5
95
100
AcDbEntity
8
1
62
256
6
ByLayer
370
13
48
1
60
0
100
AcDbEllipse
10
6.278922
20
-1.837967
30
0
11
0.107600039359203
21
0.280039696346604
31
0
210
0
220
0
230
1
40
0.23938
41
1.00856771701015
42
1.76121248517141
0
ELLIPSE
5
96
100
AcDbEntity
8
1
62
256
6
ByLayer
370
13
48
1
60
0
100
AcDbEllipse
10
11.553201
20
56.946721
30
0
11
-59.2919311376354
21
45.0449257447212
31
0
210
0
220
0
230
1
40
0.664352
41
1.98539942537327
42
2.03821125869298
0
POINT
5
6C
100
AcDbEntity
8
81
62
256
6
ByLayer
370
18
48
1
60
0
100
AcDbPoint
10
55
20
0
30
0
39
0
210
0
220
0
230
1
50
360
0
POINT
5
6E
100
AcDbEntity
8
80
62
256
6
ByLayer
370
18
48
1
60
0
100
AcDbPoint
10
0
20
0
30
0
39
0
210
0
220
0
230
1
50
360
0
POINT
5
70
100
AcDbEntity
8
SK2
62
256
6
ByLayer
370
18
48
1
60
1
100
AcDbPoint
10
-36
20
-4
30
0
39
0
210
0
220
0
230
1
50
360
0
POINT
5
72
100
AcDbEntity
8
SK2
62
256
6
ByLayer
370
18
48
1
60
1
100
AcDbPoint
10
-36
20
4
30
0
39
0
210
0
220
0
230
1
50
360
0
POINT
5
73
100
AcDbEntity
8
2
62
256
6
ByLayer
370
18
48
1
60
1
100
AcDbPoint
10
53.9801
20
-3.1
30
0
39
0
210
0
220
0
230
1
50
360
0
POINT
5
75
100
AcDbEntity
8
2
62
256
6
ByLayer
370
18
48
1
60
1
100
AcDbPoint
10
53.9801
20
3.1
30
0
39
0
210
0
220
0
230
1
50
360
0
SPLINE
5
97
100
AcDbEntity
8
1
62
256
6
ByLayer
370
18
48
1
60
0
100
AcDbSpline
70
4
71
2
72
6
73
3
40
0
40
0
40
0
40
1
40
1
40
1
41
1
10
22.0135711161313
20
0.0803739592576278
30
0
41
1
10
22.4662041570702
20
-0.0157791508300136
30
0
41
1
10
22.9132890281206
20
-0.215363907118075
30
0
0
SPLINE
5
98
100
AcDbEntity
8
1
62
256
6
ByLayer
370
18
48
1
60
0
100
AcDbSpline
70
4
71
3
72
20
73
16
40
0
40
0
40
0
40
0
40
0.0736842982079383
40
0.153115531807559
40
0.230785966386857
40
0.295288579793613
40
0.347162274522716
40
0.412180341616151
40
0.489374942711212
40
0.557347933877356
40
0.6360913504678
40
0.710800831293805
40
0.794970116599696
40
0.895083201494075
40
1
40
1
40
1
40
1
41
1
10
22.2568280687231
20
2.95575368457497
30
0
41
1
10
22.0631157364624
20
2.95361286446291
30
0
41
1
10
21.6554434022123
20
2.95054766746944
30
0
41
1
10
21.0031937929323
20
2.94272954955355
30
0
41
1
10
20.4022121295249
20
2.95379390054961
30
0
41
1
10
19.868809080431
20
2.95194181276605
30
0
41
1
10
19.363730160687
20
2.95085187479293
30
0
41
1
10
18.8241828561195
20
2.95124650592436
30
0
41
1
10
18.2395546531597
20
2.94852241026928
30
0
41
1
10
17.6169911379632
20
2.94819635864869
30
0
41
1
10
17.0006948988462
20
2.94711599317142
30
0
41
1
10
16.3422442425852
20
2.94476165876833
30
0
41
1
10
15.6196676885894
20
2.94381460851912
30
0
41
1
10
14.8242129674435
20
2.94228010874906
30
0
41
1
10
14.2525484683465
20
2.94019953106837
30
0
41
1
10
13.9609122900626
20
2.93954431846206
30
0
0
SPLINE
5
99
100
AcDbEntity
8
1
62
256
6
ByLayer
370
18
48
1
60
0
100
AcDbSpline
70
4
71
3
72
20
73
16
40
0
40
0
40
0
40
0
40
0.128335263533439
40
0.243936102201905
40
0.341836617053929
40
0.422795090533005
40
0.506022573562623
40
0.566264519877183
40
0.63467923776971
40
0.692302344243655
40
0.738276079978924
40
0.795442358927867
40
0.864278790426342
40
0.934675752927396
40
1
40
1
40
1
40
1
41
1
10
12.8935458310032
20
-2.93884917092115
30
0
41
1
10
13.2950820584219
20
-2.93862570332462
30
0
41
1
10
14.0583114644566
20
-2.93878145106498
30
0
41
1
10
15.1273657929305
20
-2.94359809459715
30
0
41
1
10
16.0490327389754
20
-2.9440572621838
30
0
41
1
10
16.8704973877744
20
-2.9466020769616
30
0
41
1
10
17.5747206192208
20
-2.94822081017111
30
0
41
1
10
18.2395830032808
20
-2.94850995073793
30
0
41
1
10
18.8241761910424
20
-2.95124943583701
30
0
41
1
10
19.3637314302746
20
-2.95085131476245
30
0
41
1
10
19.8688087024825
20
-2.95194198551261
30
0
41
1
10
20.4022121983308
20
-2.95379383560379
30
0
41
1
10
21.0031940804753
20
-2.94272958282175
30
0
41
1
10
21.6555078296617
20
-2.9505483944242
30
0
41
1
10
22.0632418090564
20
-2.95361390327895
30
0
41
1
10
22.2570146045356
20
-2.95575544387069
30
0
0
SPLINE
5
9A
100
AcDbEntity
8
1
62
256
6
ByLayer
370
18
48
1
60
0
100
AcDbSpline
70
4
71
2
72
6
73
3
40
0
40
0
40
0
40
1
40
1
40
1
41
1
10
11.7298850972926
20
-0.0795402613440501
30
0
41
1
10
11.2803398110618
20
0.0176830794121088
30
0
41
1
10
10.8769800781628
20
0.196147742471396
30
0
0
SPLINE
5
9B
100
AcDbEntity
8
1
62
256
6
ByLayer
370
18
48
1
60
0
100
AcDbSpline
70
4
71
2
72
6
73
3
40
0
40
0
40
0
40
1
40
1
40
1
41
1
10
33.4803425803516
20
-0.0796611487620851
30
0
41
1
10
33.0335097599374
20
0.0162589175572236
30
0
41
1
10
32.588682071997
20
0.209837990094343
30
0
0
SPLINE
5
9C
100
AcDbEntity
8
1
62
256
6
ByLayer
370
18
48
1
60
0
100
AcDbSpline
70
4
71
3
72
21
73
17
40
0
40
0
40
0
40
0
40
0.0954659396011095
40
0.19486443054181
40
0.285592181215041
40
0.358445791454162
40
0.400436134805711
40
0.434272247409253
40
0.480369239004246
40
0.540804726288994
40
0.631201001234373
40
0.708660755921029
40
0.772311469290319
40
0.840513339648839
40
0.921557005892771
40
1
40
1
40
1
40
1
41
1
10
43.9834758896357
20
2.99471856185966
30
0
41
1
10
43.7235838478974
20
2.99245498867393
30
0
41
1
10
43.1914077808352
20
2.98897719726332
30
0
41
1
10
42.4008671893314
20
2.98566103946507
30
0
41
1
10
41.6781486290934
20
2.9885622043231
30
0
41
1
10
41.1146758761495
20
2.98994682121574
30
0
41
1
10
40.7050242703752
20
2.98816301388439
30
0
41
1
10
40.3683555035776
20
2.98754017121112
30
0
41
1
10
39.9809392877371
20
2.98743798931304
30
0
41
1
10
39.4373404212991
20
2.98652695732628
30
0
41
1
10
38.8073225807701
20
2.98474065656939
30
0
41
1
10
38.1679252712991
20
2.98486589151292
30
0
41
1
10
37.5915227310252
20
2.98253751137807
30
0
41
1
10
37.0019873289949
20
2.98289767946642
30
0
41
1
10
36.3843097645801
20
2.97932604161747
30
0
41
1
10
35.9422136009271
20
2.97797917376198
30
0
41
1
10
35.7255049395344
20
2.97760308024323
30
0
0
SPLINE
5
9D
100
AcDbEntity
8
1
62
256
6
ByLayer
370
18
48
1
60
0
100
AcDbSpline
70
4
71
2
72
6
73
3
40
0
40
0
40
0
40
1
40
1
40
1
41
1
10
43.7640363906598
20
0.0803193150821357
30
0
41
1
10
44.2371866303084
20
-0.0213548572791069
30
0
41
1
10
44.7080595114714
20
-0.232501610641549
30
0
0
SPLINE
5
9E
100
AcDbEntity
8
1
62
256
6
ByLayer
370
18
48
1
60
0
100
AcDbSpline
70
4
71
3
72
22
73
18
40
0
40
0
40
0
40
0
40
0.100593509443082
40
0.185066822184445
40
0.256725421855995
40
0.317029338884654
40
0.373309134697571
40
0.441798849057746
40
0.521727001106223
40
0.581468583129958
40
0.624837748829486
40
0.659595483785609
40
0.708213423948282
40
0.77216132766199
40
0.845794909450272
40
0.925404456007121
40
1
40
1
40
1
40
1
41
1
10
34.6494551969827
20
-2.97811717280388
30
0
41
1
10
34.9596464017089
20
-2.97727566764573
30
0
41
1
10
35.531251505992
20
-2.97683125506813
30
0
41
1
10
36.3379376133732
20
-2.97905789560119
30
0
41
1
10
37.0019873448124
20
-2.98289769483648
30
0
41
1
10
37.591522683419
20
-2.98253746511892
30
0
41
1
10
38.1679254518391
20
-2.98486606694493
30
0
41
1
10
38.8073216792536
20
-2.98473978055961
30
0
41
1
10
39.4570217766766
20
-2.98658618752677
30
0
41
1
10
40.0284471144651
20
-2.98750092659975
30
0
41
1
10
40.4588223747705
20
-2.9875279802142
30
0
41
1
10
40.8545822035254
20
-2.98883756058586
30
0
41
1
10
41.3129301913269
20
-2.98999908376584
30
0
41
1
10
41.8887622548763
20
-2.98718646150289
30
0
41
1
10
42.5669216405971
20
-2.98620212120764
30
0
41
1
10
43.2784173381628
20
-2.98958768536969
30
0
41
1
10
43.7546619673881
20
-2.99278698012864
30
0
41
1
10
43.9842274254287
20
-2.9947144771146
30
0
0
SPLINE
5
9F
100
AcDbEntity
8
1
62
256
6
ByLayer
370
18
48
1
60
0
100
AcDbSpline
70
4
71
3
72
30
73
26
40
0
40
0
40
0
40
0
40
0.0625000000000001
40
0.0625000000000001
40
0.125
40
0.125
40
0.25
40
0.25
40
0.3125
40
0.3125
40
0.375
40
0.375
40
0.5
40
0.5
40
0.5625
40
0.5625
40
0.625
40
0.625
40
0.75
40
0.75
40
0.8125
40
0.8125
40
0.875
40
0.875
40
1
40
1
40
1
40
1
41
1
10
5.87821341718666
20
2.14140164126326
30
0
41
1
10
5.87812253613973
20
2.08116823841127
30
0
41
1
10
5.87802624584432
20
2.01790466957206
30
0
41
1
10
5.87782900609855
20
1.88787611382702
30
0
41
1
10
5.87772763881813
20
1.82083484093644
30
0
41
1
10
5.8774179804372
20
1.61374207513617
30
0
41
1
10
5.87720444142616
20
1.467764797379
30
0
41
1
10
5.87687828043616
20
1.23659475332957
30
0
41
1
10
5.87676844285104
20
1.15743074793283
30
0
41
1
10
5.87655077185139
20
0.998024772185914
30
0
41
1
10
5.8764424080448
20
0.91741244196254
30
0
41
1
10
5.87611768473499
20
0.672896362771525
30
0
41
1
10
5.87590199985746
20
0.506332941582286
30
0
41
1
10
5.87557028186294
20
0.251004800473083
30
0
41
1
10
5.87545825830429
20
0.164981025965005
30
0
41
1
10
5.87523325748847
20
-0.0056180920593079
30
0
41
1
10
5.87511974371819
20
-0.0906083557673014
30
0
41
1
10
5.87477216135602
20
-0.344667450283623
30
0
41
1
10
5.87453131634271
20
-0.512831207473255
30
0
41
1
10
5.87413645154601
20
-0.763209118340995
30
0
41
1
10
5.87399919439031
20
-0.846274213489295
30
0
41
1
10
5.87371528932442
20
-1.00848261695967
30
0
41
1
10
5.87356799258066
20
-1.08805038812346
30
0
41
1
10
5.87310521189929
20
-1.32223830119921
30
0
41
1
10
5.87276899382653
20
-1.47237524293965
30
0
41
1
10
5.87239086895806
20
-1.61638310343241
30
0
0
SPLINE
5
A0
100
AcDbEntity
8
1
62
256
6
ByLayer
370
18
48
1
60
0
100
AcDbSpline
70
4
71
1
72
4
73
2
40
0
40
0
40
1
40
1
41
1
10
53.986797008207
20
-2.94278207670416
30
0
41
1
10
54.4850470427004
20
-0.944410338226362
30
0
0
SPLINE
5
A1
100
AcDbEntity
8
1
62
256
6
ByLayer
370
18
48
1
60
0
100
AcDbSpline
70
4
71
3
72
38
73
34
40
0
40
0
40
0
40
0
40
0.0617111937567991
40
0.0617111937567991
40
0.123422387513598
40
0.123422387513598
40
0.246844775027196
40
0.246844775027196
40
0.277700371905596
40
0.277700371905596
40
0.308555968783996
40
0.308555968783996
40
0.370267162540796
40
0.370267162540796
40
0.493689550054396
40
0.493689550054396
40
0.524545146932796
40
0.524545146932796
40
0.555400743811196
40
0.555400743811196
40
0.617111937567997
40
0.617111937567997
40
0.740534325081599
40
0.740534325081599
40
0.8022455188384
40
0.8022455188384
40
0.8331011157168
40
0.8331011157168
40
0.8639567125952
40
0.8639567125952
40
0.987379100108798
40
0.987379100108798
40
1
40
1
40
1
40
1
41
1
10
12.000884652661
20
3.01806560204346
30
0
41
1
10
12.4433408197144
20
3.00628264432805
30
0
41
1
10
12.8834495985034
20
2.9760753954584
30
0
41
1
10
13.7605760456487
20
2.88063136075706
30
0
41
1
10
14.1976231160186
20
2.81531152361182
30
0
41
1
10
15.5086698264716
20
2.5707521726211
30
0
41
1
10
16.3816138789162
20
2.34177062204498
30
0
41
1
10
17.4842159627216
20
1.9881035613372
30
0
41
1
10
17.7057396583923
20
1.9139548944392
30
0
41
1
10
18.1470292875244
20
1.76048545531026
30
0
41
1
10
18.3670554885368
20
1.68110124833109
30
0
41
1
10
19.0259041269813
20
1.43633012994258
30
0
41
1
10
19.4632457611646
20
1.26379661826746
30
0
41
1
10
20.7740717142971
20
0.727892879362912
30
0
41
1
10
21.6455348405533
20
0.344358931414234
30
0
41
1
10
22.7446725545756
20
-0.13879008933182
30
0
41
1
10
22.9649909847569
20
-0.235598614875158
30
0
41
1
10
23.4069520997893
20
-0.428762302451361
30
0
41
1
10
23.627684010507
20
-0.524901611170179
30
0
41
1
10
24.2876784607295
20
-0.809045635933956
30
0
41
1
10
24.7253068936446
20
-0.994149030065927
30
0
41
1
10
26.0352754416303
20
-1.52734318907989
30
0
41
1
10
26.9045096355246
20
-1.85364506705565
30
0
41
1
10
28.2171654690226
20
-2.26961581137527
30
0
41
1
10
28.6561019071233
20
-2.39618247220881
30
0
41
1
10
29.3188123415519
20
-2.56391887189537
30
0
41
1
10
29.5393699743513
20
-2.61607509915458
30
0
41
1
10
29.9790515041248
20
-2.7118391583455
30
0
41
1
10
30.1983159352746
20
-2.75560874820641
30
0
41
1
10
31.2924211406544
20
-2.95337306765075
30
0
41
1
10
32.161345890832
20
-3.04312042504287
30
0
41
1
10
33.1229277307617
20
-3.06162642188295
30
0
41
1
10
33.2121655039312
20
-3.06258128962054
30
0
41
1
10
33.3014469429909
20
-3.06277257767584
30
0
0
SPLINE
5
A2
100
AcDbEntity
8
1
62
256
6
ByLayer
370
18
48
1
60
0
100
AcDbSpline
70
4
71
3
72
16
73
12
40
0
40
0
40
0
40
0
40
0.149543130958778
40
0.149543130958778
40
0.433028753972521
40
0.433028753972521
40
0.574771565479392
40
0.574771565479392
40
0.716514376986264
40
0.716514376986264
40
1
40
1
40
1
40
1
41
1
10
49.4016150887399
20
2.11457033752305
30
0
41
1
10
49.6310620981233
20
2.18957728998308
30
0
41
1
10
49.8604000669808
20
2.26114129720648
30
0
41
1
10
50.5247162071371
20
2.45746824971516
30
0
41
1
10
50.9601024013992
20
2.5721882951816
30
0
41
1
10
51.6154059819658
20
2.72122659734856
30
0
41
1
10
51.8342826472617
20
2.76697866262458
30
0
41
1
10
52.2731188201441
20
2.85031744489982
30
0
41
1
10
52.4933013681334
20
2.88792372200607
30
0
41
1
10
53.1546485340336
20
2.98745502467773
30
0
41
1
10
53.5943643953864
20
3.03599382918225
30
0
41
1
10
54.0344942360671
20
3.06592548494581
30
0
0
SPLINE
5
A3
100
AcDbEntity
8
1
62
256
6
ByLayer
370
13
48
1
60
0
100
AcDbSpline
70
4
71
3
72
79
73
75
40
0
40
0
40
0
40
0
40
0.0045942084322126
40
0.0150792407827653
40
0.0360493054838693
40
0.0465343378344216
40
0.0570193701849743
40
0.0779894348860787
40
0.0884744672366304
40
0.0989594995871834
40
0.119929564288287
40
0.13041459663884
40
0.140899628989392
40
0.161869693690497
40
0.172354726041049
40
0.182839758391601
40
0.203809823092706
40
0.214294855443258
40
0.224779887793811
40
0.245749952494915
40
0.256234984845467
40
0.266720017196019
40
0.287690081897124
40
0.298175114247677
40
0.308660146598228
40
0.329630211299333
40
0.340115243649885
40
0.350600276000437
40
0.371570340701542
40
0.382055373052094
40
0.392540405402647
40
0.413510470103751
40
0.423995502454305
40
0.434480534804856
40
0.455450599505961
40
0.465935631856513
40
0.476420664207066
40
0.497390728908169
40
0.507875761258722
40
0.518360793609275
40
0.539330858310379
40
0.549815890660931
40
0.560300923011483
40
0.581270987712588
40
0.59175602006314
40
0.602241052413692
40
0.623211117114797
40
0.633696149465349
40
0.644181181815902
40
0.665151246517006
40
0.675636278867558
40
0.686121311218111
40
0.707091375919215
40
0.717576408269767
40
0.72806144062032
40
0.749031505321424
40
0.759516537671977
40
0.770001570022529
40
0.790971634723634
40
0.801456667074186
40
0.811941699424738
40
0.832911764125843
40
0.843396796476395
40
0.853881828826947
40
0.874851893528052
40
0.885336925878604
40
0.895821958229156
40
0.916792022930261
40
0.927277055280813
40
0.937762087631365
40
0.95873215233247
40
0.969217184683022
40
0.979702217033575
40
1
40
1
40
1
40
1
41
1
10
25.5056427861821
20
-1.32143901953293
30
0
41
1
10
25.484532238515
20
-1.32350089158936
30
0
41
1
10
25.4152435123925
20
-1.33020645631146
30
0
41
1
10
25.2496145847434
20
-1.34573039500924
30
0
41
1
10
25.0569056891674
20
-1.36264767421693
30
0
41
1
10
24.8641843053076
20
-1.37840768949533
30
0
41
1
10
24.6714899232403
20
-1.39330289541005
30
0
41
1
10
24.4787809696478
20
-1.4070160321298
30
0
41
1
10
24.2860594551799
20
-1.41953558596549
30
0
41
1
10
24.0933649188866
20
-1.43115136759181
30
0
41
1
10
23.9006558099352
20
-1.44155778085849
30
0
41
1
10
23.707934214944
20
-1.45075218626246
30
0
41
1
10
23.5152396482181
20
-1.45901443232933
30
0
41
1
10
23.3225305699603
20
-1.46605168338994
30
0
41
1
10
23.1298090468358
20
-1.47186385459523
30
0
41
1
10
22.9371145778049
20
-1.47671993579223
30
0
41
1
10
22.7444056243679
20
-1.48034090989438
30
0
41
1
10
22.5516842245999
20
-1.48272931534322
30
0
41
1
10
22.3589898546524
20
-1.48414245076737
30
0
41
1
10
22.1662809459721
20
-1.48431619069893
30
0
41
1
10
21.9735594848437
20
-1.48325584749128
30
0
41
1
10
21.7808649996263
20
-1.48120783908922
30
0
41
1
10
21.5881559450619
20
-1.47792738169781
30
0
41
1
10
21.3954344046022
20
-1.47342776549846
30
0
41
1
10
21.2027398797302
20
-1.46793850501194
30
0
41
1
10
21.0100308315572
20
-1.46123507586378
30
0
41
1
10
20.8173093265749
20
-1.45333353581378
30
0
41
1
10
20.6246148542869
20
-1.44444574911236
30
0
41
1
10
20.4319058625208
20
-1.43436833669557
30
0
41
1
10
20.2391843782785
20
-1.42312018045055
30
0
41
1
10
20.0464898975505
20
-1.41089469431276
30
0
41
1
10
19.8537808462106
20
-1.39751039794481
30
0
41
1
10
19.6610592368292
20
-1.38298889201397
30
0
41
1
10
19.4683646148472
20
-1.36750558988379
30
0
41
1
10
19.2756554383788
20
-1.35090378288928
30
0
41
1
10
19.0829338084266
20
-1.33321104631307
30
0
41
1
10
18.8902392319696
20
-1.31458095178993
30
0
41
1
10
18.6975301785962
20
-1.29488221990602
30
0
41
1
10
18.5048087004253
20
-1.27414513585839
30
0
41
1
10
18.312114275682
20
-1.25250080360124
30
0
41
1
10
18.1194053676869
20
-1.22984389121035
30
0
41
1
10
17.9266840012904
20
-1.20620724947588
30
0
41
1
10
17.7339896452389
20
-1.18169905708081
30
0
41
1
10
17.5412807294158
20
-1.15624038496662
30
0
41
1
10
17.3485592573801
20
-1.12986660380653
30
0
41
1
10
17.155864765701
20
-1.10266290750167
30
0
41
1
10
16.9631557044288
20
-1.07457786193046
30
0
41
1
10
16.7704341537444
20
-1.04565033236196
30
0
41
1
10
16.5777396239348
20
-1.01594106100023
30
0
41
1
10
16.3850305764895
20
-0.985426354164616
30
0
41
1
10
16.1923090751996
20
-0.954147315869676
30
0
41
1
10
15.9996146065417
20
-0.922139991683707
30
0
41
1
10
15.806905619241
20
-0.889408608555442
30
0
41
1
10
15.6141841494034
20
-0.855996426418216
30
0
41
1
10
15.421489697546
20
-0.821914574995503
30
0
41
1
10
15.2287806898316
20
-0.787195280196755
30
0
41
1
10
15.0360591314971
20
-0.751883780603663
30
0
41
1
10
14.8433645690921
20
-0.715965725190898
30
0
41
1
10
14.6506554669132
20
-0.67950047066563
30
0
41
1
10
14.4579339165956
20
-0.642533791474875
30
0
41
1
10
14.2652394053203
20
-0.605027069079682
30
0
41
1
10
14.0725304005988
20
-0.567066668678194
30
0
41
1
10
13.8798089522738
20
-0.528700003354402
30
0
41
1
10
13.6871145382296
20
-0.489864205904269
30
0
41
1
10
13.4944056114991
20
-0.450672423376346
30
0
41
1
10
13.3016842002198
20
-0.411173492147981
30
0
41
1
10
13.1089897939576
20
-0.371280408374503
30
0
41
1
10
12.9162808222292
20
-0.331132779088762
30
0
41
1
10
12.7235593017563
20
-0.29078066009933
30
0
41
1
10
12.530864769713
20
-0.250112145329695
30
0
41
1
10
12.3381556757996
20
-0.209290984262253
30
0
41
1
10
12.1454340993144
20
-0.168365385084968
30
0
41
1
10
11.9558283590384
20
-0.1278614883324
30
0
41
1
10
11.8143858295494
20
-0.0976120758806189
30
0
41
1
10
11.7211165794016
20
-0.0776649766214348
30
0
0
SPLINE
5
A4
100
AcDbEntity
8
1
62
256
6
ByLayer
370
18
48
1
60
0
100
AcDbSpline
70
4
71
3
72
10
73
6
40
0
40
0
40
0
40
0
40
0.5
40
0.5
40
1
40
1
40
1
40
1
41
1
10
53.986797008207
20
-2.94278207670416
30
0
41
1
10
53.9839254355841
20
-2.91330123723864
30
0
41
1
10
53.9776126271775
20
-2.88803995487592
30
0
41
1
10
53.961156065747
20
-2.84687420973484
30
0
41
1
10
53.9508673139429
20
-2.83036077188521
30
0
41
1
10
53.9392200337497
20
-2.81746055557483
30
0
0
SPLINE
5
A5
100
AcDbEntity
8
1
62
256
6
ByLayer
370
18
48
1
60
0
100
AcDbSpline
70
4
71
3
72
8
73
4
40
0
40
0
40
0
40
0
40
1
40
1
40
1
40
1
41
1
10
54.0344942360671
20
-3.06592548494581
30
0
41
1
10
54.0149556784383
20
-3.04543828291307
30
0
41
1
10
53.9976732644609
20
-3.01579793083508
30
0
41
1
10
53.9822952447841
20
-2.97658406863798
30
0
0
SPLINE
5
A6
100
AcDbEntity
8
1
62
256
6
ByLayer
370
18
48
1
60
0
100
AcDbSpline
70
4
71
3
72
16
73
12
40
0
40
0
40
0
40
0
40
0.0324389860436306
40
0.0324389860436306
40
0.354959324029087
40
0.354959324029087
40
0.516219493021816
40
0.516219493021816
40
0.677479662014544
40
0.677479662014544
40
1
40
1
40
1
40
1
41
1
10
53.6477710509387
20
0.493401506077191
30
0
41
1
10
53.6535154526143
20
0.497492258905424
30
0
41
1
10
53.6592998206124
20
0.501615883215635
30
0
41
1
10
53.72298061358
20
0.547030719542079
30
0
41
1
10
53.7846736466122
20
0.591306662908039
30
0
41
1
10
53.8858147627242
20
0.65827248584722
30
0
41
1
10
53.9212419346404
20
0.680820190343155
30
0
41
1
10
53.9942988693856
20
0.724190112828978
30
0
41
1
10
54.0319047741745
20
0.7450132478954
30
0
41
1
10
54.1487248003937
20
0.803203846283992
30
0
41
1
10
54.2330135896387
20
0.836373929833798
30
0
41
1
10
54.3207276027316
20
0.858101286597758
30
0
0
SPLINE
5
A7
100
AcDbEntity
8
1
62
256
6
ByLayer
370
13
48
1
60
0
100
AcDbSpline
70
4
71
3
72
23
73
19
40
0
40
0
40
0
40
0
40
0.075484580709774
40
0.126308278512704
40
0.177131976315674
40
0.278779371921572
40
0.329603069724507
40
0.380426767527462
40
0.482074163133371
40
0.532897860936309
40
0.583721558739254
40
0.685368954345167
40
0.736192652148106
40
0.787016349951067
40
0.888663745556966
40
0.939487443359916
40
0.990311141162854
40
1
40
1
40
1
40
1
41
1
10
54.5490884665045
20
1.48144477779163
30
0
41
1
10
54.477533190513
20
1.48040902443253
30
0
41
1
10
54.3578041102094
20
1.47829528435107
30
0
41
1
10
54.1899076399644
20
1.47443614099518
30
0
41
1
10
53.9971853852313
20
1.46905637023226
30
0
41
1
10
53.8044776398466
20
1.4624447686775
30
0
41
1
10
53.6117823766818
20
1.45460055714198
30
0
41
1
10
53.4190600789847
20
1.44582831168426
30
0
41
1
10
53.2263523638709
20
1.43583464046926
30
0
41
1
10
53.0336572224611
20
1.42462117909423
30
0
41
1
10
52.8409350727024
20
1.41250882517011
30
0
41
1
10
52.6482275101835
20
1.39919716044142
30
0
41
1
10
52.455532450199
20
1.38469636027093
30
0
41
1
10
52.2628103380779
20
1.36933618130848
30
0
41
1
10
52.0701027566235
20
1.35281016023703
30
0
41
1
10
51.8774076376801
20
1.33513060982668
30
0
41
1
10
51.7718615668992
20
1.32500130188526
30
0
41
1
10
51.7144977586971
20
1.31936270142515
30
0
41
1
10
51.7053130994348
20
1.3184564764183
30
0
0
SPLINE
5
A8
100
AcDbEntity
8
1
62
256
6
ByLayer
370
13
48
1
60
0
100
AcDbSpline
70
4
71
3
72
63
73
59
40
0
40
0
40
0
40
0
40
0.0066154849585545
40
0.0204124921119076
40
0.0342094992652602
40
0.0618035135719683
40
0.0756005207253205
40
0.0893975278786745
40
0.116991542185382
40
0.130788549338736
40
0.144585556492089
40
0.172179570798795
40
0.185976577952149
40
0.199773585105503
40
0.227367599412209
40
0.241164606565562
40
0.254961613718917
40
0.282555628025623
40
0.296352635178976
40
0.310149642332329
40
0.337743656639036
40
0.35154066379239
40
0.365337670945742
40
0.39293168525245
40
0.406728692405803
40
0.420525699559157
40
0.448119713865864
40
0.461916721019217
40
0.475713728172571
40
0.503307742479277
40
0.51710474963263
40
0.530901756785984
40
0.558495771092691
40
0.572292778246045
40
0.586089785399398
40
0.613683799706104
40
0.627480806859458
40
0.641277814012811
40
0.668871828319518
40
0.682668835472871
40
0.696465842626225
40
0.724059856932932
40
0.737856864086285
40
0.751653871239639
40
0.779247885546345
40
0.793044892699699
40
0.806841899853052
40
0.834435914159759
40
0.848232921313112
40
0.862029928466466
40
0.889623942773173
40
0.903420949926526
40
0.917217957079879
40
0.934464216021571
40
0.944811971386586
40
0.955159726751601
40
0.972405985693293
40
1
40
1
40
1
40
1
41
1
10
22.0287280391318
20
0.0771254840669256
30
0
41
1
10
22.0056283511134
20
0.0820762559619651
30
0
41
1
10
21.9343535872129
20
0.0973523312614757
30
0
41
1
10
21.8149073112029
20
0.122951037993289
30
0
41
1
10
21.6221851016524
20
0.164032682163451
30
0
41
1
10
21.4294774274974
20
0.205049104352241
30
0
41
1
10
21.2367822594822
20
0.245954057427582
30
0
41
1
10
21.0440600583449
20
0.28656535003742
30
0
41
1
10
20.8513524437566
20
0.327010211366086
30
0
41
1
10
20.6586574009323
20
0.367243352223624
30
0
41
1
10
20.4659353411238
20
0.407106491176449
30
0
41
1
10
20.2732278517505
20
0.446701695285582
30
0
41
1
10
20.0805328295429
20
0.485981626036135
30
0
41
1
10
19.8878107242181
20
0.52481564508244
30
0
41
1
10
19.6951031117017
20
0.56328041162456
30
0
41
1
10
19.5024079376109
20
0.601329944086699
30
0
41
1
10
19.3096856804594
20
0.63886162877074
30
0
41
1
10
19.1169779224492
20
0.675926540116363
30
0
41
1
10
18.9242826365099
20
0.712480221516272
30
0
41
1
10
18.7315603106335
20
0.7484484027145
30
0
41
1
10
18.5388525604809
20
0.783856495947616
30
0
41
1
10
18.3461573802726
20
0.81866176740243
30
0
41
1
10
18.153435190126
20
0.852818141916116
30
0
41
1
10
17.9607275855138
20
0.886324685320174
30
0
41
1
10
17.7680324839739
20
0.919139496177733
30
0
41
1
10
17.5753103319435
20
0.951245808513958
30
0
41
1
10
17.3826027134612
20
0.982616420358395
30
0
41
1
10
17.1899075625005
20
1.01321142088889
30
0
41
1
10
16.9971853493032
20
1.04304336482548
30
0
41
1
10
16.8044776706774
20
1.07205897471203
30
0
41
1
10
16.6117824882701
20
1.10022051607814
30
0
41
1
10
16.4190602582726
20
1.12756972223963
30
0
41
1
10
16.2263526000633
20
1.15402750918287
30
0
41
1
10
16.033657506178
20
1.17955840922263
30
0
41
1
10
15.8409353867653
20
1.20423351027085
30
0
41
1
10
15.6482278230578
20
1.22794910721296
30
0
41
1
10
15.4555327211709
20
1.25067335088116
30
0
41
1
10
15.262810550638
20
1.27250510367506
30
0
41
1
10
15.0701028894645
20
1.29331649131009
30
0
41
1
10
14.8774076855457
20
1.31307816681504
30
0
41
1
10
14.6846854177289
20
1.33191628883105
30
0
41
1
10
14.4919776785036
20
1.34967931590819
30
0
41
1
10
14.2992824374912
20
1.36634041948659
30
0
41
1
10
14.1065601618605
20
1.38205251533304
30
0
41
1
10
13.9138524676442
20
1.39664095676372
30
0
41
1
10
13.7211573359105
20
1.41008146243806
30
0
41
1
10
13.5284351861666
20
1.422554076002
30
0
41
1
10
13.3357276142392
20
1.43386365227769
30
0
41
1
10
13.1430325385492
20
1.443991450736
30
0
41
1
10
12.9503104054639
20
1.45314097014773
30
0
41
1
10
12.7576028039862
20
1.4610972670973
30
0
41
1
10
12.5649076672988
20
1.46784419998582
30
0
41
1
10
12.4083299599112
20
1.47256685639217
30
0
41
1
10
12.2638023891958
20
1.47622894415355
30
0
41
1
10
12.1313196066713
20
1.47900419964074
30
0
41
1
10
11.9988264649569
20
1.48129266597601
30
0
41
1
10
11.8061006319191
20
1.48371876289832
30
0
41
1
10
11.6495411840464
20
1.48467158376422
30
0
41
1
10
11.5532007322038
20
1.48484277558333
30
0
0
SPLINE
5
A9
100
AcDbEntity
8
1
62
256
6
ByLayer
370
18
48
1
60
0
100
AcDbSpline
70
4
71
3
72
12
73
8
40
0
40
0
40
0
40
0
40
0.250000000000001
40
0.250000000000001
40
0.500000000000002
40
0.500000000000002
40
1
40
1
40
1
40
1
41
1
10
53.9392200337497
20
-2.81746055557483
30
0
41
1
10
53.8909049887162
20
-2.7639481027409
30
0
41
1
10
53.8470984171109
20
-2.70004608606809
30
0
41
1
10
53.7686566897187
20
-2.55110695862658
30
0
41
1
10
53.7339668563809
20
-2.46592241480886
30
0
41
1
10
53.6452012746691
20
-2.17678060353629
30
0
41
1
10
53.6089816005053
20
-1.94985837569391
30
0
41
1
10
53.5968549152027
20
-1.68708532031326
30
0
0
SPLINE
5
AA
100
AcDbEntity
8
1
62
256
6
ByLayer
370
18
48
1
60
0
100
AcDbSpline
70
4
71
3
72
30
73
26
40
0
40
0
40
0
40
0
40
0.03125
40
0.03125
40
0.0624999999999999
40
0.0624999999999999
40
0.125
40
0.125
40
0.1875
40
0.1875
40
0.25
40
0.25
40
0.375
40
0.375
40
0.5
40
0.5
40
0.625
40
0.625
40
0.75
40
0.75
40
0.875
40
0.875
40
0.9375
40
0.9375
40
1
40
1
40
1
40
1
41
1
10
3.50634567993734
20
-2.86930087720802
30
0
41
1
10
3.52703334794285
20
-2.85524124211011
30
0
41
1
10
3.55435825431502
20
-2.84148149904056
30
0
41
1
10
3.618304474636
20
-2.81461457737794
30
0
41
1
10
3.65462670056931
20
-2.8016743487712
30
0
41
1
10
3.76967492735892
20
-2.76508994307915
30
0
41
1
10
3.85637530038829
20
-2.74297429388261
30
0
41
1
10
4.03488150586963
20
-2.70351036718958
30
0
41
1
10
4.12720737953126
20
-2.6860291615688
30
0
41
1
10
4.31583329271606
20
-2.65454889102082
30
0
41
1
10
4.41249077693635
20
-2.64053204798841
30
0
41
1
10
4.70482373288897
20
-2.6034275107896
30
0
41
1
10
4.90145719766781
20
-2.58532444672491
30
0
41
1
10
5.29713123651743
20
-2.56005217966518
30
0
41
1
10
5.49620101241072
20
-2.55295453943685
30
0
41
1
10
5.89650376601529
20
-2.5491794012047
30
0
41
1
10
6.0982880130021
20
-2.55258663851799
30
0
41
1
10
6.49725830305286
20
-2.56918611738328
30
0
41
1
10
6.69521560975306
20
-2.58236042464932
30
0
41
1
10
7.08806664702055
20
-2.61729754407551
30
0
41
1
10
7.2829567994203
20
-2.63907761407739
30
0
41
1
10
7.57290031263369
20
-2.67686669304274
30
0
41
1
10
7.66940382507698
20
-2.69034846220495
30
0
41
1
10
7.86009064774657
20
-2.71845120526371
30
0
41
1
10
7.95426348662016
20
-2.73306443157122
30
0
41
1
10
8.04728181984544
20
-2.74801143095593
30
0
0
SPLINE
5
AB
100
AcDbEntity
8
1
62
256
6
ByLayer
370
18
48
1
60
0
100
AcDbSpline
70
4
71
3
72
8
73
4
40
0
40
0
40
0
40
0
40
1
40
1
40
1
40
1
41
1
10
54.9695326607899
20
-0.17139196794372
30
0
41
1
10
54.8857458828851
20
-0.444987170094692
30
0
41
1
10
54.8024228941027
20
-0.718721210399679
30
0
41
1
10
54.7195651101587
20
-0.992594512662151
30
0
0
SPLINE
5
AC
100
AcDbEntity
8
1
62
256
6
ByLayer
370
18
48
1
60
0
100
AcDbSpline
70
4
71
3
72
8
73
4
40
0
40
0
40
0
40
0
40
1
40
1
40
1
40
1
41
1
10
54.5490884665045
20
-1.48144477779164
30
0
41
1
10
54.6011532130185
20
-1.3094699087959
30
0
41
1
10
54.6578580546973
20
-1.14701570333059
30
0
41
1
10
54.7195651101587
20
-0.992594512662151
30
0
0
SPLINE
5
AD
100
AcDbEntity
8
1
62
256
6
ByLayer
370
18
48
1
60
0
100
AcDbSpline
70
4
71
3
72
22
73
18
40
0
40
0
40
0
40
0
40
0.192604016732161
40
0.192604016732161
40
0.288906025098241
40
0.288906025098241
40
0.385208033464322
40
0.385208033464322
40
0.577812050196483
40
0.577812050196483
40
0.674114058562563
40
0.674114058562563
40
0.770416066928644
40
0.770416066928644
40
0.963020083660802
40
0.963020083660802
40
1
40
1
40
1
40
1
41
1
10
6.19273261124658
20
-1.86567796115125
30
0
41
1
10
6.69277336683507
20
-2.0372312885151
30
0
41
1
10
7.19242536265801
20
-2.19435790665858
30
0
41
1
10
7.9408715846796
20
-2.40223014406536
30
0
41
1
10
8.19034147620243
20
-2.46692729703082
30
0
41
1
10
8.6895532971225
20
-2.58670844590429
30
0
41
1
10
8.93956880114294
20
-2.64182020741097
30
0
41
1
10
9.68860407881886
20
-2.79109751325299
30
0
41
1
10
10.1865200387042
20
-2.86927544545708
30
0
41
1
10
10.9337668127215
20
-2.95264288111204
30
0
41
1
10
11.1829324541844
20
-2.9747724769592
30
0
41
1
10
11.6818197518542
20
-3.00744598408525
30
0
41
1
10
11.9318102041615
20
-3.01797777650972
30
0
41
1
10
12.680358624798
20
-3.03176734166706
30
0
41
1
10
13.1780694305039
20
-3.01734744886824
30
0
41
1
10
13.7717793832731
20
-2.97244975161829
30
0
41
1
10
13.8674282635617
20
-2.96436315764095
30
0
41
1
10
13.9631058909251
20
-2.95542501332736
30
0
0
SPLINE
5
AE
100
AcDbEntity
8
1
62
256
6
ByLayer
370
18
48
1
60
0
100
AcDbSpline
70
4
71
3
72
44
73
40
40
0
40
0
40
0
40
0
40
0.0202357004746774
40
0.0202357004746774
40
0.0579189427641136
40
0.0579189427641136
40
0.0956021850535496
40
0.0956021850535496
40
0.170968669632421
40
0.170968669632421
40
0.246335154211293
40
0.246335154211293
40
0.321701638790165
40
0.321701638790165
40
0.397068123369037
40
0.397068123369037
40
0.434751365658473
40
0.434751365658473
40
0.472434607947908
40
0.472434607947908
40
0.54780109252678
40
0.54780109252678
40
0.585484334816215
40
0.585484334816215
40
0.62316757710565
40
0.62316757710565
40
0.69853406168452
40
0.69853406168452
40
0.736217303973955
40
0.736217303973955
40
0.77390054626339
40
0.77390054626339
40
0.84926703084226
40
0.84926703084226
40
0.92463351542113
40
0.92463351542113
40
0.962316757710565
40
0.962316757710565
40
1
40
1
40
1
40
1
41
1
10
34.1932810813695
20
3.0643770344762
30
0
41
1
10
34.326870847494
20
3.06462385155521
30
0
41
1
10
34.460533971939
20
3.06315981603774
30
0
41
1
10
34.8434296473413
20
3.05404801997892
30
0
41
1
10
35.0928410867186
20
3.04214983019023
30
0
41
1
10
35.5904507593881
20
3.00664452898391
30
0
41
1
10
35.8389632371603
20
2.98303797877702
30
0
41
1
10
36.5844171730808
20
2.89513422952547
30
0
41
1
10
37.0810348800407
20
2.81355599321088
30
0
41
1
10
38.0777858790283
20
2.60750427467704
30
0
41
1
10
38.5749785483118
20
2.4834386351414
30
0
41
1
10
39.5685543416612
20
2.19916641396259
30
0
41
1
10
40.0654534423069
20
2.0386722387058
30
0
41
1
10
41.0620905282066
20
1.68747319408035
30
0
41
1
10
41.558620157269
20
1.49784525477693
30
0
41
1
10
42.3035752402515
20
1.19800853265863
30
0
41
1
10
42.551911237285
20
1.09548065375034
30
0
41
1
10
43.0491165416945
20
0.886282514071667
30
0
41
1
10
43.2982656495079
20
0.779483374047771
30
0
41
1
10
44.0450777363966
20
0.455454521801357
30
0
41
1
10
44.5413417060307
20
0.234720803699275
30
0
41
1
10
45.2861676299959
20
-0.0970338755367663
30
0
41
1
10
45.5345156395721
20
-0.207725138429652
30
0
41
1
10
46.0318228264157
20
-0.428267065313975
30
0
41
1
10
46.2810421653975
20
-0.538258260092562
30
0
41
1
10
47.0271355172573
20
-0.863938645604208
30
0
41
1
10
47.5231694143226
20
-1.07546682139096
30
0
41
1
10
48.2678686928564
20
-1.378646275579
30
0
41
1
10
48.5162184693853
20
-1.47733649851958
30
0
41
1
10
49.0136498785052
20
-1.66894532778522
30
0
41
1
10
49.2627847732421
20
-1.76186761254314
30
0
41
1
10
50.0084845950545
20
-2.02939087055455
30
0
41
1
10
50.5044347190475
20
-2.19328838536529
30
0
41
1
10
51.49803174828
20
-2.48543803107938
30
0
41
1
10
51.9962669495824
20
-2.61379770074697
30
0
41
1
10
52.7411011433011
20
-2.77419193121233
30
0
41
1
10
52.989226999454
20
-2.82237784464979
30
0
41
1
10
53.4855771562939
20
-2.90780125464224
30
0
41
1
10
53.733598018543
20
-2.94516687138196
30
0
41
1
10
53.9822952447835
20
-2.97658406863872
30
0
0
SPLINE
5
AF
100
AcDbEntity
8
1
62
256
6
ByLayer
370
18
48
1
60
0
100
AcDbSpline
70
4
71
3
72
8
73
4
40
0
40
0
40
0
40
0
40
1
40
1
40
1
40
1
41
1
10
53.9822952447852
20
-2.97658406863397
30
0
41
1
10
53.9840761090784
20
-2.96488344734121
30
0
41
1
10
53.9855745470987
20
-2.95362102143227
30
0
41
1
10
53.9867970082069
20
-2.94278207670382
30
0
0
SPLINE
5
B0
100
AcDbEntity
8
1
62
256
6
ByLayer
370
18
48
1
60
0
100
AcDbSpline
70
4
71
3
72
22
73
18
40
0
40
0
40
0
40
0
40
0.317366369509159
40
0.317366369509159
40
0.476049554263738
40
0.476049554263738
40
0.555391146641028
40
0.555391146641028
40
0.634732739018318
40
0.634732739018318
40
0.793415923772897
40
0.793415923772897
40
0.872757516150186
40
0.872757516150186
40
0.952099108527475
40
0.952099108527475
40
1
40
1
40
1
40
1
41
1
10
5.87821341719311
20
2.14140164126164
30
0
41
1
10
5.55530627896255
20
2.26540468943216
30
0
41
1
10
5.24058668225126
20
2.38585010115901
30
0
41
1
10
4.78665262943872
20
2.55693206426832
30
0
41
1
10
4.63839991546126
20
2.6123370031068
30
0
41
1
10
4.42217977301018
20
2.69188431183164
30
0
41
1
10
4.35114107216282
20
2.71780091958456
30
0
41
1
10
4.2115636867874
20
2.76812862453357
30
0
41
1
10
4.14280882933394
20
2.79261380718776
30
0
41
1
10
3.94464485058359
20
2.86196040395416
30
0
41
1
10
3.82213716316951
20
2.90321380047141
30
0
41
1
10
3.66045516983886
20
2.95310121215448
30
0
41
1
10
3.61050810378202
20
2.96761416727154
30
0
41
1
10
3.52287128839245
20
2.99061935205091
30
0
41
1
10
3.48481286736177
20
2.99923197641772
30
0
41
1
10
3.43527338011646
20
3.00720288630069
30
0
41
1
10
3.41945877858129
20
3.00881977791116
30
0
41
1
10
3.40679872273987
20
3.0089478505592
30
0
0
SPLINE
5
B1
100
AcDbEntity
8
1
62
256
6
ByLayer
370
13
48
1
60
0
100
AcDbSpline
70
4
71
3
72
81
73
77
40
0
40
0
40
0
40
0
40
2.45943392163E-05
40
0.0104362839834057
40
0.031259663271786
40
0.041671352915976
40
0.052083042560168
40
0.072906421848547
40
0.083318111492738
40
0.0937298011369267
40
0.114553180425308
40
0.124964870069501
40
0.135376559713687
40
0.156199939002069
40
0.166611628646259
40
0.177023318290449
40
0.19784669757883
40
0.208258387223018
40
0.21867007686721
40
0.23949345615559
40
0.249905145799779
40
0.260316835443968
40
0.281140214732351
40
0.29155190437654
40
0.301963594020732
40
0.322786973309112
40
0.333198662953303
40
0.343610352597492
40
0.364433731885873
40
0.374845421530065
40
0.385257111174253
40
0.406080490462634
40
0.416492180106824
40
0.426903869751015
40
0.447727249039395
40
0.458138938683585
40
0.468550628327777
40
0.489374007616156
40
0.499785697260344
40
0.510197386904537
40
0.531020766192916
40
0.541432455837107
40
0.551844145481296
40
0.572667524769678
40
0.583079214413868
40
0.593490904058057
40
0.614314283346438
40
0.62472597299063
40
0.635137662634819
40
0.655961041923199
40
0.66637273156739
40
0.67678442121158
40
0.69760780049996
40
0.70801949014415
40
0.718431179788339
40
0.739254559076721
40
0.749666248720911
40
0.760077938365102
40
0.780901317653482
40
0.791313007297673
40
0.80172469694186
40
0.822548076230243
40
0.832959765874432
40
0.843371455518622
40
0.864194834807004
40
0.874606524451193
40
0.885018214095384
40
0.905841593383764
40
0.916253283027955
40
0.926664972672143
40
0.947488351960525
40
0.957900041604716
40
0.968311731248906
40
0.989135110537286
40
0.999546800181475
40
1
40
1
40
1
40
1
41
1
10
43.78399541635
20
0.0760458871500303
30
0
41
1
10
43.7838816130356
20
0.0760702609468068
30
0
41
1
10
43.7355906671511
20
0.0864129067948055
30
0
41
1
10
43.5909352723069
20
0.117323464390921
30
0
41
1
10
43.3982277301271
20
0.158481439564923
30
0
41
1
10
43.2055326553303
20
0.199567734179197
30
0
41
1
10
43.0128104999878
20
0.240389998002314
30
0
41
1
10
42.8201028419564
20
0.28108350450654
30
0
41
1
10
42.6274076307586
20
0.321601126713602
30
0
41
1
10
42.4346853451181
20
0.361776238811955
30
0
41
1
10
42.2419775718183
20
0.401720244327208
30
0
41
1
10
42.0492822854861
20
0.441387099918983
30
0
41
1
10
41.856559969181
20
0.480636456493044
30
0
41
1
10
41.6638522432831
20
0.519555564901338
30
0
41
1
10
41.4711570988964
20
0.558099673687393
30
0
41
1
10
41.2784349482013
20
0.596154321862172
30
0
41
1
10
41.0857273878922
20
0.633780734910345
30
0
41
1
10
40.8930323324573
20
0.670933118851365
30
0
41
1
10
40.7003102267785
20
0.707525742625335
30
0
41
1
10
40.5076026539005
20
0.743593684679381
30
0
41
1
10
40.3149075448527
20
0.779092781646396
30
0
41
1
10
40.1221853694117
20
0.813966288521981
30
0
41
1
10
39.9294777207594
20
0.848223117249289
30
0
41
1
10
39.7367825565164
20
0.881820931760158
30
0
41
1
10
39.5440603357195
20
0.914732094896918
30
0
41
1
10
39.3513526729045
20
0.946939416003742
30
0
41
1
10
39.1586575598875
20
0.978402520426327
30
0
41
1
10
38.9659354133082
20
1.00912282552926
30
0
41
1
10
38.7732278121766
20
1.03905705908954
30
0
41
1
10
38.580532667975
20
1.06816675171205
30
0
41
1
10
38.3878104545273
20
1.09648249190624
30
0
41
1
10
38.1951027503203
20
1.12393517464576
30
0
41
1
10
38.0024075048101
20
1.150488590246
30
0
41
1
10
37.8096851963765
20
1.17620228285389
30
0
41
1
10
37.6169774205358
20
1.20098163042598
30
0
41
1
10
37.4242821510767
20
1.22479275700024
30
0
41
1
10
37.2315598526709
20
1.24772385619991
30
0
41
1
10
37.0388521457317
20
1.26965517042254
30
0
41
1
10
36.8461570207182
20
1.29055521931738
30
0
41
1
10
36.6534348957329
20
1.31054121937777
30
0
41
1
10
36.4607273689667
20
1.32947025294771
30
0
41
1
10
36.2680323484918
20
1.34731559263986
30
0
41
1
10
36.075310272993
20
1.36422072480889
30
0
41
1
10
35.8826027284664
20
1.3800201142914
30
0
41
1
10
35.689907644036
20
1.39468957241917
30
0
41
1
10
35.4971854760486
20
1.40839825877475
30
0
41
1
10
35.304477807265
20
1.42095862634363
30
0
41
1
10
35.1117825953666
20
1.43234904976586
30
0
41
1
10
34.9190603222225
20
1.44276371452804
30
0
41
1
10
34.7263525996522
20
1.45199380063278
30
0
41
1
10
34.5336574367371
20
1.46002037802364
30
0
41
1
10
34.3409352642004
20
1.46706319598831
30
0
41
1
10
34.1482276712479
20
1.4728956825229
30
0
41
1
10
33.9555325723972
20
1.47750567372313
30
0
41
1
10
33.762810423976
20
1.48113346656589
30
0
41
1
10
33.5701028085743
20
1.4835355270572
30
0
41
1
10
33.3774076575742
20
1.48470227599662
30
0
41
1
10
33.1846854401359
20
1.48489365592559
30
0
41
1
10
32.991977752234
20
1.48385007087904
30
0
41
1
10
32.7992825648369
20
1.48156457221151
30
0
41
1
10
32.6065603404407
20
1.47831567455458
30
0
41
1
10
32.4138526974143
20
1.47382861024917
30
0
41
1
10
32.2211576201337
20
1.46809891902347
30
0
41
1
10
32.0284355201372
20
1.4614245171484
30
0
41
1
10
31.8357279837054
20
1.45352014259217
30
0
41
1
10
31.6430329103852
20
1.44438938287905
30
0
41
1
10
31.4503107528793
20
1.43434283454508
30
0
41
1
10
31.2576030878996
20
1.42308575304687
30
0
41
1
10
31.0649078649184
20
1.41062414526681
30
0
41
1
10
30.8721855633618
20
1.39728005393601
30
0
41
1
10
30.679477768842
20
1.38275024123385
30
0
41
1
10
30.486782457164
20
1.36704294821169
30
0
41
1
10
30.2940601131808
20
1.35049048553875
30
0
41
1
10
30.1013523569956
20
1.33278215400807
30
0
41
1
10
29.9547340687645
20
1.31843664412872
30
0
41
1
10
29.9044596917448
20
1.31340888230127
30
0
41
1
10
29.9023626244907
20
1.31319897335748
30
0
0
SPLINE
5
B2
100
AcDbEntity
8
1
62
256
6
ByLayer
370
18
48
1
60
0
100
AcDbSpline
70
4
71
3
72
8
73
4
40
0
40
0
40
0
40
0
40
1
40
1
40
1
40
1
41
1
10
53.5983090560617
20
0.529273457803299
30
0
41
1
10
53.7000679673574
20
0.461486755794567
30
0
41
1
10
53.8024676657391
20
0.396891069862676
30
0
41
1
10
53.9055479455438
20
0.33568456937229
30
0
0
SPLINE
5
B3
100
AcDbEntity
8
1
62
256
6
ByLayer
370
18
48
1
60
0
100
AcDbSpline
70
4
71
3
72
80
73
76
40
0
40
0
40
0
40
0
40
0.0043276400272388
40
0.0043276400272388
40
0.0293401380266002
40
0.0293401380266002
40
0.0543526360259616
40
0.0543526360259616
40
0.0793651340253229
40
0.0793651340253229
40
0.104377632024684
40
0.104377632024684
40
0.129390130024046
40
0.129390130024046
40
0.154402628023407
40
0.154402628023407
40
0.179415126022769
40
0.179415126022769
40
0.204427624022131
40
0.204427624022131
40
0.229440122021493
40
0.229440122021493
40
0.254452620020855
40
0.254452620020855
40
0.279465118020217
40
0.279465118020217
40
0.304477616019579
40
0.304477616019579
40
0.329490114018941
40
0.329490114018941
40
0.354502612018303
40
0.354502612018303
40
0.379515110017665
40
0.379515110017665
40
0.404527608017027
40
0.404527608017027
40
0.429540106016389
40
0.429540106016389
40
0.454552604015752
40
0.454552604015752
40
0.479565102015113
40
0.479565102015113
40
0.504577600014476
40
0.504577600014476
40
0.529590098013838
40
0.529590098013838
40
0.5546025960132
40
0.5546025960132
40
0.579615094012562
40
0.579615094012562
40
0.604627592011924
40
0.604627592011924
40
0.654652588010649
40
0.654652588010649
40
0.679665086010012
40
0.679665086010012
40
0.704677584009375
40
0.704677584009375
40
0.7547025800081
40
0.7547025800081
40
0.779715078007462
40
0.779715078007462
40
0.804727576006825
40
0.804727576006825
40
0.854752572005549
40
0.854752572005549
40
0.879765070004911
40
0.879765070004911
40
0.904777568004273
40
0.904777568004273
40
0.929790066003636
40
0.929790066003636
40
0.954802564002997
40
0.954802564002997
40
1
40
1
40
1
40
1
41
1
10
22.2622646923953
20
2.95642342202285
30
0
41
1
10
22.3013380470144
20
2.95627195762447
30
0
41
1
10
22.3404023310782
20
2.95598922774153
30
0
41
1
10
22.6051996802516
20
2.95324903208686
30
0
41
1
10
22.8306425225195
20
2.94681945589952
30
0
41
1
10
23.2811009295419
20
2.9252995220165
30
0
41
1
10
23.5062021773365
20
2.90863174963778
30
0
41
1
10
23.9562877003288
20
2.86630458594411
30
0
41
1
10
24.1814196854904
20
2.84084604844156
30
0
41
1
10
24.6317621426409
20
2.78224807788621
30
0
41
1
10
24.8570670589929
20
2.7484105634006
30
0
41
1
10
25.3085840003821
20
2.67043826375445
30
0
41
1
10
25.5345875334798
20
2.6271066382416
30
0
41
1
10
25.987567337484
20
2.53300291202328
30
0
41
1
10
26.2144374414677
20
2.48182184435467
30
0
41
1
10
26.669729096413
20
2.37018618019056
30
0
41
1
10
26.8971315637623
20
2.31011465130121
30
0
41
1
10
27.3513598318799
20
2.1838218213345
30
0
41
1
10
27.5783258674349
20
2.1175756961166
30
0
41
1
10
28.0319929602329
20
1.97727998161585
30
0
41
1
10
28.2588721189349
20
1.90357150348456
30
0
41
1
10
28.7128245299194
20
1.75064965233454
30
0
41
1
10
28.9398245082163
20
1.67157721218933
30
0
41
1
10
29.3946412996919
20
1.50749091958121
30
0
41
1
10
29.6223852371001
20
1.42218306106221
30
0
41
1
10
30.0769926983121
20
1.24816697363013
30
0
41
1
10
30.3040229992323
20
1.15933933686543
30
0
41
1
10
30.7578506038338
20
0.977890828409414
30
0
41
1
10
30.9847068119749
20
0.885407782234836
30
0
41
1
10
31.4384528871204
20
0.697528374109169
30
0
41
1
10
31.6654637891241
20
0.602529929983319
30
0
41
1
10
32.1197637422379
20
0.410243441371961
30
0
41
1
10
32.3475896949334
20
0.312970570862461
30
0
41
1
10
32.8020447569464
20
0.118404488065892
30
0
41
1
10
33.0285376678953
20
0.0208941386775905
30
0
41
1
10
33.480767758208
20
-0.173353026630394
30
0
41
1
10
33.7062754101919
20
-0.270348450529781
30
0
41
1
10
34.1566586933523
20
-0.462565423845916
30
0
41
1
10
34.3815057099408
20
-0.557869339296531
30
0
41
1
10
34.8308302278715
20
-0.746838630812874
30
0
41
1
10
35.0553528605146
20
-0.84028492054037
30
0
41
1
10
35.5042137145261
20
-1.02415890998296
30
0
41
1
10
35.7287280596472
20
-1.11429217397867
30
0
41
1
10
36.1778830990002
20
-1.29154529645095
30
0
41
1
10
36.4025499179947
20
-1.37877257897259
30
0
41
1
10
36.8526674252252
20
-1.54802142669166
30
0
41
1
10
37.0780035348181
20
-1.63037127271895
30
0
41
1
10
37.5297737876628
20
-1.78976074634318
30
0
41
1
10
37.7559674813975
20
-1.86751545767686
30
0
41
1
10
38.2097036096749
20
-2.01697520048023
30
0
41
1
10
38.4375340546278
20
-2.08846853798849
30
0
41
1
10
39.1190864715099
20
-2.29188077445534
30
0
41
1
10
39.5723976947871
20
-2.41474052436374
30
0
41
1
10
40.2526619179886
20
-2.57276504683179
30
0
41
1
10
40.4794762364977
20
-2.62132233262196
30
0
41
1
10
40.9335593944226
20
-2.71123547422712
30
0
41
1
10
41.160936196182
20
-2.75204442958096
30
0
41
1
10
41.843169952865
20
-2.85870801887722
30
0
41
1
10
42.2966428490962
20
-2.91223072708877
30
0
41
1
10
42.9767548625949
20
-2.96363035583397
30
0
41
1
10
43.2035495002647
20
-2.97596727297963
30
0
41
1
10
43.6572303736218
20
-2.99220502183695
30
0
41
1
10
43.8842017359637
20
-2.99636966835226
30
0
41
1
10
44.566385806069
20
-2.99132828546291
30
0
41
1
10
45.0201567980222
20
-2.96611768097424
30
0
41
1
10
45.7002709484293
20
-2.90167007033534
30
0
41
1
10
45.9269288560405
20
-2.87566256277518
30
0
41
1
10
46.3803969468755
20
-2.81538549165197
30
0
41
1
10
46.6072447171362
20
-2.78134400177612
30
0
41
1
10
47.0613731540741
20
-2.70331508638566
30
0
41
1
10
47.2889579986977
20
-2.65930344484471
30
0
41
1
10
47.7419744040349
20
-2.56293109328919
30
0
41
1
10
47.9678669398786
20
-2.51067718113057
30
0
41
1
10
48.6007924993932
20
-2.35350291598027
30
0
41
1
10
49.0066426624827
20
-2.23927667354562
30
0
41
1
10
49.4120245937141
20
-2.11496876923837
30
0
0
SPLINE
5
B4
100
AcDbEntity
8
1
62
256
6
ByLayer
370
18
48
1
60
0
100
AcDbSpline
70
4
71
3
72
16
73
12
40
0
40
0
40
0
40
0
40
0.12499999999999
40
0.12499999999999
40
0.249999999999979
40
0.249999999999979
40
0.499999999999986
40
0.499999999999986
40
0.749999999999993
40
0.749999999999993
40
1
40
1
40
1
40
1
41
1
10
5.87239086897986
20
-1.61638310343491
30
0
41
1
10
5.87234734843702
20
-1.63295778757453
30
0
41
1
10
5.87687515329134
20
-1.64881095534199
30
0
41
1
10
5.89148001494385
20
-1.67892957989946
30
0
41
1
10
5.90128759193772
20
-1.6926800255832
30
0
41
1
10
5.93536361865671
20
-1.73149098488355
30
0
41
1
10
5.96346811453293
20
-1.75333050700371
30
0
41
1
10
6.02361693996897
20
-1.79221404287509
30
0
41
1
10
6.05609946757625
20
-1.80933384662956
30
0
41
1
10
6.12282346603243
20
-1.83993503572233
30
0
41
1
10
6.15729962943979
20
-1.85352166017117
30
0
41
1
10
6.19273261124644
20
-1.86567796115145
30
0
0
SPLINE
5
B5
100
AcDbEntity
8
1
62
256
6
ByLayer
370
18
48
1
60
0
100
AcDbSpline
70
4
71
3
72
48
73
44
40
0
40
0
40
0
40
0
40
0.0527310155589418
40
0.0527310155589418
40
0.084825512258237
40
0.084825512258237
40
0.116920008957532
40
0.116920008957532
40
0.181109002356122
40
0.181109002356122
40
0.213203499055417
40
0.213203499055417
40
0.245297995754711
40
0.245297995754711
40
0.309486989153302
40
0.309486989153302
40
0.373675982551892
40
0.373675982551892
40
0.437864975950482
40
0.437864975950482
40
0.502053969349073
40
0.502053969349073
40
0.566242962747663
40
0.566242962747663
40
0.630431956146253
40
0.630431956146253
40
0.694620949544844
40
0.694620949544844
40
0.726715446244138
40
0.726715446244138
40
0.758809942943432
40
0.758809942943432
40
0.822998936342023
40
0.822998936342023
40
0.855093433041318
40
0.855093433041318
40
0.887187929740613
40
0.887187929740613
40
0.951376923139203
40
0.951376923139203
40
0.983471419838498
40
0.983471419838498
40
1
40
1
40
1
40
1
41
1
10
12.4485823361849
20
3.02524239384348
30
0
41
1
10
12.8582008441892
20
3.02587535275865
30
0
41
1
10
13.267131141315
20
3.01061651665251
30
0
41
1
10
13.9253549546136
20
2.96083351046838
30
0
41
1
10
14.1745210762787
20
2.93620070281858
30
0
41
1
10
14.6734800924636
20
2.87545450368754
30
0
41
1
10
14.9233945789715
20
2.8392915003119
30
0
41
1
10
15.671447944252
20
2.71471669359858
30
0
41
1
10
16.1689821690725
20
2.61010718626633
30
0
41
1
10
16.9160031248987
20
2.42365697261468
30
0
41
1
10
17.1651513178365
20
2.35660862648407
30
0
41
1
10
17.6642409251839
20
2.21337944698607
30
0
41
1
10
17.9140336516377
20
2.13720064953432
30
0
41
1
10
18.6616800624724
20
1.89705153472448
30
0
41
1
10
19.1589619812687
20
1.72115200486519
30
0
41
1
10
20.1549704027418
20
1.34466343488006
30
0
41
1
10
20.6547497632905
20
1.14356872493815
30
0
41
1
10
21.6510188566298
20
0.727756618849526
30
0
41
1
10
22.1481268632456
20
0.512756144744912
30
0
41
1
10
23.144135549843
20
0.0771835243351404
30
0
41
1
10
23.6437692174466
20
-0.143948808364343
30
0
41
1
10
24.6394099828476
20
-0.57932958660075
30
0
41
1
10
25.13646710432
20
-0.793816874221562
30
0
41
1
10
26.1324822349409
20
-1.2087190194793
30
0
41
1
10
26.6319528080737
20
-1.40905593482111
30
0
41
1
10
27.6271674041535
20
-1.78378122963429
30
0
41
1
10
28.1240367100277
20
-1.9587123906652
30
0
41
1
10
28.8711582200621
20
-2.19707584600866
30
0
41
1
10
29.1208040849896
20
-2.2726047170346
30
0
41
1
10
29.6191943612647
20
-2.41442775992897
30
0
41
1
10
29.8679932213824
20
-2.48074113983154
30
0
41
1
10
30.6140443415214
20
-2.66480240991206
30
0
41
1
10
31.1108214193037
20
-2.76781820524692
30
0
41
1
10
31.8580195968242
20
-2.88949990304351
30
0
41
1
10
32.1076159368767
20
-2.9246099485708
30
0
41
1
10
32.6055980585511
20
-2.98323485340424
30
0
41
1
10
32.8542490924078
20
-3.00678605753637
30
0
41
1
10
33.5999877039787
20
-3.05986248214867
30
0
41
1
10
34.0966730261064
20
-3.07183816850304
30
0
41
1
10
34.844050238934
20
-3.05402347001953
30
0
41
1
10
35.093466143671
20
-3.04211513007405
30
0
41
1
10
35.4704122092765
20
-3.01520436798938
30
0
41
1
10
35.598471078369
20
-3.00450390042499
30
0
41
1
10
35.726488593396
20
-2.99227256108867
30
0
0
SPLINE
5
B6
100
AcDbEntity
8
1
62
256
6
ByLayer
370
18
48
1
60
0
100
AcDbSpline
70
4
71
3
72
12
73
8
40
0
40
0
40
0
40
0
40
0.282044534632664
40
0.282044534632664
40
0.641022267316332
40
0.641022267316332
40
1
40
1
40
1
40
1
41
1
10
10.8334624348245
20
0.202313873711887
30
0
41
1
10
10.9039735061598
20
0.251962159563135
30
0
41
1
10
10.9791608587368
20
0.328466554103301
30
0
41
1
10
11.150138405366
20
0.553521624196463
30
0
41
1
10
11.2458202276843
20
0.715855759503683
30
0
41
1
10
11.4179371841741
20
1.08070029464574
30
0
41
1
10
11.4942518663332
20
1.28295536659516
30
0
41
1
10
11.5532007322038
20
1.48484277558333
30
0
0
SPLINE
5
B7
100
AcDbEntity
8
1
62
256
6
ByLayer
370
18
48
1
60
0
100
AcDbSpline
70
4
71
3
72
8
73
4
40
0
40
0
40
0
40
0
40
1
40
1
40
1
40
1
41
1
10
54.9695326607936
20
0.171391967931925
30
0
41
1
10
54.8857461458875
20
0.444986311293491
30
0
41
1
10
54.8024231544538
20
0.718720349850287
30
0
41
1
10
54.7195651101587
20
0.992594512662123
30
0
0
SPLINE
5
B8
100
AcDbEntity
8
1
62
256
6
ByLayer
370
18
48
1
60
0
100
AcDbSpline
70
4
71
4
72
10
73
5
40
0
40
0
40
0
40
0
40
0
40
1
40
1
40
1
40
1
40
1
41
1
10
12.0008846526608
20
3.01806560204341
30
0
41
1
10
11.8889636725466
20
2.63475989542837
30
0
41
1
10
11.7770426924323
20
2.25145418881337
30
0
41
1
10
11.6651217123181
20
1.86814848219834
30
0
41
1
10
11.5532007322038
20
1.48484277558333
30
0
0
SPLINE
5
B9
100
AcDbEntity
8
1
62
256
6
ByLayer
370
18
48
1
60
0
100
AcDbSpline
70
4
71
3
72
8
73
4
40
0
40
0
40
0
40
0
40
1
40
1
40
1
40
1
41
1
10
54.0344942360671
20
-3.06592548494581
30
0
41
1
10
54.2068247480527
20
-2.55533639504432
30
0
41
1
10
54.3832093673374
20
-2.02935940829258
30
0
41
1
10
54.5490884665045
20
-1.48144477779164
30
0
0
SPLINE
5
BA
100
AcDbEntity
8
1
62
256
6
ByLayer
370
18
48
1
60
0
100
AcDbSpline
70
4
71
3
72
8
73
4
40
0
40
0
40
0
40
0
40
1
40
1
40
1
40
1
41
1
10
54.0344942360671
20
3.06592548494581
30
0
41
1
10
54.2068137059137
20
2.55536911122235
30
0
41
1
10
54.3831983119177
20
2.02939592540787
30
0
41
1
10
54.5490884665044
20
1.48144477779164
30
0
0
SPLINE
5
BB
100
AcDbEntity
8
1
62
256
6
ByLayer
370
18
48
1
60
0
100
AcDbSpline
70
4
71
3
72
8
73
4
40
0
40
0
40
0
40
0
40
1
40
1
40
1
40
1
41
1
10
54.9997877543937
20
-0.0735337573030677
30
0
41
1
10
54.9896209505494
20
-0.106106358025471
30
0
41
1
10
54.9795364697646
20
-0.138725785914147
30
0
41
1
10
54.9695326607862
20
-0.171391967955799
30
0
0
SPLINE
5
BC
100
AcDbEntity
8
1
62
256
6
ByLayer
370
18
48
1
60
0
100
AcDbSpline
70
4
71
3
72
10
73
6
40
0
40
0
40
0
40
0
40
0.576368453146733
40
0.576368453146733
40
1
40
1
40
1
40
1
41
1
10
8.04728181984547
20
-2.74801143095593
30
0
41
1
10
8.70634323220918
20
-2.85391518329718
30
0
41
1
10
9.36561261853146
20
-2.92735682556065
30
0
41
1
10
10.5090132617022
20
-3.00516938732679
30
0
41
1
10
10.9932649147991
20
-3.02262268768936
30
0
41
1
10
11.4773510168053
20
-3.02355192524033
30
0
0
SPLINE
5
BD
100
AcDbEntity
8
1
62
256
6
ByLayer
370
13
48
1
60
0
100
AcDbSpline
70
4
71
3
72
30
73
26
40
0
40
0
40
0
40
0
40
0.125
40
0.125
40
0.1875
40
0.1875
40
0.25
40
0.25
40
0.375
40
0.375
40
0.4375
40
0.4375
40
0.5
40
0.5
40
0.625
40
0.625
40
0.6875
40
0.6875
40
0.75
40
0.75
40
0.8125
40
0.8125
40
0.875
40
0.875
40
1
40
1
40
1
40
1
41
1
10
6.27956374208398
20
-1.66689320318505
30
0
41
1
10
6.27958326629408
20
-1.53089535428342
30
0
41
1
10
6.27959875069337
20
-1.38852480506989
30
0
41
1
10
6.27961956199255
20
-1.16566887795781
30
0
41
1
10
6.27962608689302
20
-1.08982516460023
30
0
41
1
10
6.27963883138091
20
-0.934963201261525
30
0
41
1
10
6.27964503810873
20
-0.856096011983851
30
0
41
1
10
6.27966359503964
20
-0.618774112739004
30
0
41
1
10
6.27967602529134
20
-0.458322898372757
30
0
41
1
10
6.27969686915327
20
-0.214330491678481
30
0
41
1
10
6.27970417391106
20
-0.132444220545636
30
0
41
1
10
6.2797197458199
20
0.0324684777074253
30
0
41
1
10
6.27972800521172
20
0.115350154548878
30
0
41
1
10
6.27975395876655
20
0.361030015897057
30
0
41
1
10
6.27977300936794
20
0.522424531007459
30
0
41
1
10
6.27980407029992
20
0.760971973051085
30
0
41
1
10
6.27981482840113
20
0.839893994662475
30
0
41
1
10
6.27983700795983
20
0.996519532485678
30
0
41
1
10
6.27984842058217
20
1.07413767769876
30
0
41
1
10
6.27987130478371
20
1.2257713886624
30
0
41
1
10
6.27988281848533
20
1.30008834624135
30
0
41
1
10
6.27990564298972
20
1.44572347577019
30
0
41
1
10
6.27991699410944
20
1.51729496113478
30
0
41
1
10
6.27994977523758
20
1.72540206025025
30
0
41
1
10
6.27996988880599
20
1.85493594337044
30
0
41
1
10
6.2799863338748
20
1.97555087526848
30
0
0
SPLINE
5
BE
100
AcDbEntity
8
1
62
256
6
ByLayer
370
18
48
1
60
0
100
AcDbSpline
70
4
71
3
72
8
73
4
40
0
40
0
40
0
40
0
40
1
40
1
40
1
40
1
41
1
10
54.9997877543952
20
0.073533757298037
30
0
41
1
10
54.9896277945948
20
0.106084430942047
30
0
41
1
10
54.9795432510348
20
0.138703642528043
30
0
41
1
10
54.9695326607862
20
0.171391967955856
30
0
0
SPLINE
5
BF
100
AcDbEntity
8
1
62
256
6
ByLayer
370
18
48
1
60
0
100
AcDbSpline
70
4
71
3
72
20
73
16
40
0
40
0
40
0
40
0
40
0.140135631674283
40
0.140135631674283
40
0.312108505339427
40
0.312108505339427
40
0.48408137900457
40
0.48408137900457
40
0.656054252669713
40
0.656054252669713
40
0.828027126334857
40
0.828027126334857
40
0.914013563167428
40
0.914013563167428
40
1
40
1
40
1
40
1
41
1
10
4.61834993571478
20
2.61510021083473
30
0
41
1
10
4.77767026909223
20
2.59691205814164
30
0
41
1
10
4.93808265450843
20
2.58298512638652
30
0
41
1
10
5.29713123651743
20
2.56005217966518
30
0
41
1
10
5.49620101241072
20
2.55295453943685
30
0
41
1
10
5.89650376601529
20
2.5491794012047
30
0
41
1
10
6.0982880130021
20
2.55258663851799
30
0
41
1
10
6.49725830305283
20
2.56918611738331
30
0
41
1
10
6.69521560975306
20
2.58236042464932
30
0
41
1
10
7.08806664702053
20
2.61729754407551
30
0
41
1
10
7.2829567994203
20
2.63907761407739
30
0
41
1
10
7.57290031263369
20
2.67686669304274
30
0
41
1
10
7.66940382507698
20
2.69034846220495
30
0
41
1
10
7.86009064774657
20
2.71845120526371
30
0
41
1
10
7.95426348662016
20
2.73306443157122
30
0
41
1
10
8.04728181984547
20
2.74801143095595
30
0
0
SPLINE
5
C0
100
AcDbEntity
8
1
62
256
6
ByLayer
370
18
48
1
60
0
100
AcDbSpline
70
4
71
3
72
16
73
12
40
0
40
0
40
0
40
0
40
0.25
40
0.25
40
0.5
40
0.5
40
0.75
40
0.75
40
0.875
40
0.875
40
1
40
1
40
1
40
1
41
1
10
53.5983090560616
20
0.529273457803299
30
0
41
1
10
53.5610572693279
20
0.339928226855164
30
0
41
1
10
53.532751162395
20
0.148755654846468
30
0
41
1
10
53.4942372272907
20
-0.237286438831632
30
0
41
1
10
53.484187686762
20
-0.43401425899674
30
0
41
1
10
53.4838674686484
20
-0.813546649439189
30
0
41
1
10
53.493241534001
20
-0.998186403758979
30
0
41
1
10
53.5218218353655
20
-1.26733918855877
30
0
41
1
10
53.5337480052796
20
-1.35518733300236
30
0
41
1
10
53.5619782955788
20
-1.52500361009334
30
0
41
1
10
53.578317980144
20
-1.60732297398843
30
0
41
1
10
53.5968549151997
20
-1.68708532031351
30
0
0
SPLINE
5
C1
100
AcDbEntity
8
1
62
256
6
ByLayer
370
18
48
1
60
0
100
AcDbSpline
70
4
71
3
72
10
73
6
40
0
40
0
40
0
40
0
40
0.5
40
0.5
40
1
40
1
40
1
40
1
41
1
10
54.3207276027319
20
0.858101286594007
30
0
41
1
10
54.389090532174
20
0.875035248512091
30
0
41
1
10
54.4571729534488
20
0.893946452089409
30
0
41
1
10
54.5907072535039
20
0.937695433293754
30
0
41
1
10
54.6562697766354
20
0.962442129759438
30
0
41
1
10
54.7195651101587
20
0.992594512662123
30
0
0
SPLINE
5
C2
100
AcDbEntity
8
1
62
256
6
ByLayer
370
18
48
1
60
0
100
AcDbSpline
70
4
71
3
72
30
73
26
40
0
40
0
40
0
40
0
40
0.0567851621823799
40
0.0567851621823799
40
0.15110664596414
40
0.15110664596414
40
0.245428129745899
40
0.245428129745899
40
0.434071097309423
40
0.434071097309423
40
0.528392581091185
40
0.528392581091185
40
0.622714064872947
40
0.622714064872947
40
0.717035548654709
40
0.717035548654709
40
0.764196290545591
40
0.764196290545591
40
0.811357032436472
40
0.811357032436472
40
0.905678516218235
40
0.905678516218235
40
0.952839258109118
40
0.952839258109118
40
1
40
1
40
1
40
1
41
1
10
4.62551358458961
20
-2.61685330712024
30
0
41
1
10
4.58140710120165
20
-2.63322645547078
30
0
41
1
10
4.53764410204283
20
-2.64940502880026
30
0
41
1
10
4.42217977300686
20
-2.69188431183284
30
0
41
1
10
4.35114107215966
20
-2.7178009195857
30
0
41
1
10
4.21156368678453
20
-2.7681286245346
30
0
41
1
10
4.14280882933124
20
-2.79261380718873
30
0
41
1
10
3.9446448505814
20
-2.86196040395492
30
0
41
1
10
3.82213716316761
20
-2.90321380047203
30
0
41
1
10
3.66045516983743
20
-2.95310121215488
30
0
41
1
10
3.61050810378083
20
-2.96761416727188
30
0
41
1
10
3.52287128839157
20
-2.99061935205111
30
0
41
1
10
3.48481286736103
20
-2.99923197641789
30
0
41
1
10
3.42303252977786
20
-3.00917244069788
30
0
41
1
10
3.39991957998754
20
-3.01034617106623
30
0
41
1
10
3.37909610553226
20
-3.00569605475891
30
0
41
1
10
3.37440538020868
20
-3.00308642340894
30
0
41
1
10
3.36975252636424
20
-2.99563423172683
30
0
41
1
10
3.36982872641465
20
-2.99075782973406
30
0
41
1
10
3.37720595103937
20
-2.97310742140957
30
0
41
1
10
3.39150518070306
20
-2.9572651162398
30
0
41
1
10
3.42581362280188
20
-2.92790883210529
30
0
41
1
10
3.43948804640698
20
-2.9171267500524
30
0
41
1
10
3.47035632236356
20
-2.89421548963642
30
0
41
1
10
3.48756268490919
20
-2.88206606930564
30
0
41
1
10
3.50634567993737
20
-2.86930087720802
30
0
0
SPLINE
5
C3
100
AcDbEntity
8
1
62
256
6
ByLayer
370
13
48
1
60
0
100
AcDbSpline
70
4
71
3
72
79
73
75
40
0
40
0
40
0
40
0
40
0.0193719415080568
40
0.029858999951795
40
0.0403460583955342
40
0.0613201752830133
40
0.0718072337267502
40
0.0822942921704904
40
0.10326840905797
40
0.113755467501707
40
0.124242525945447
40
0.145216642832927
40
0.155703701276667
40
0.166190759720403
40
0.187164876607883
40
0.197651935051622
40
0.208138993495361
40
0.22911311038284
40
0.239600168826578
40
0.250087227270319
40
0.271061344157797
40
0.281548402601535
40
0.292035461045274
40
0.313009577932753
40
0.323496636376493
40
0.333983694820231
40
0.35495781170771
40
0.365444870151449
40
0.375931928595189
40
0.396906045482666
40
0.407393103926406
40
0.417880162370144
40
0.438854279257623
40
0.449341337701365
40
0.4598283961451
40
0.480802513032579
40
0.491289571476319
40
0.501776629920058
40
0.522750746807536
40
0.533237805251274
40
0.543724863695015
40
0.564698980582493
40
0.57518603902623
40
0.585673097469968
40
0.606647214357449
40
0.617134272801187
40
0.627621331244928
40
0.648595448132406
40
0.659082506576146
40
0.669569565019883
40
0.690543681907362
40
0.701030740351103
40
0.71151779879484
40
0.732491915682319
40
0.742978974126058
40
0.753466032569798
40
0.774440149457276
40
0.784927207901015
40
0.795414266344756
40
0.816388383232232
40
0.826875441675969
40
0.837362500119711
40
0.858336617007189
40
0.868823675450928
40
0.879310733894666
40
0.900284850782146
40
0.910771909225885
40
0.921258967669623
40
0.942233084557102
40
0.952720143000842
40
0.96320720144458
40
0.984181318332059
40
0.994668376775798
40
1
40
1
40
1
40
1
41
1
10
47.2444572596008
20
-1.32251492946901
30
0
41
1
10
47.1554668381277
20
-1.33116292643808
30
0
41
1
10
47.0182948659145
20
-1.34399616470253
30
0
41
1
10
46.8329340436227
20
-1.36029285088654
30
0
41
1
10
46.6402394187358
20
-1.37638855361593
30
0
41
1
10
46.4475302843543
20
-1.39131782425426
30
0
41
1
10
46.2548087096857
20
-1.40507107539412
30
0
41
1
10
46.0621141933323
20
-1.41793736975413
30
0
41
1
10
45.8694052004929
20
-1.429607256173
30
0
41
1
10
45.6766837710638
20
-1.44007355260519
30
0
41
1
10
45.483989376857
20
-1.44961812921119
30
0
41
1
10
45.2912804539367
20
-1.4579415436078
30
0
41
1
10
45.0985589924694
20
-1.46503921401367
30
0
41
1
10
44.9058645159832
20
-1.47118674526078
30
0
41
1
10
44.7131554814778
20
-1.47609961876063
30
0
41
1
10
44.5204339697974
20
-1.47978163364749
30
0
41
1
10
44.3277394805014
20
-1.4824954956099
30
0
41
1
10
44.1350304764344
20
-1.48397265278439
30
0
41
1
10
43.9423090213995
20
-1.4842195820267
30
0
41
1
10
43.7496146017668
20
-1.48348526072573
30
0
41
1
10
43.5569056652931
20
-1.4815181353899
30
0
41
1
10
43.3641842366733
20
-1.47832747193763
30
0
41
1
10
43.1714898114487
20
-1.47414761407435
30
0
41
1
10
42.9787808133459
20
-1.46874491686614
30
0
41
1
10
42.7860592540099
20
-1.46213137284403
30
0
41
1
10
42.5933646835586
20
-1.45452743369157
30
0
41
1
10
42.4006555598819
20
-1.44572122245117
30
0
41
1
10
42.2079339825072
20
-1.43573197881858
30
0
41
1
10
42.01523945606
20
-1.42476107876689
30
0
41
1
10
41.8225304481974
20
-1.41261926382006
30
0
41
1
10
41.6298090071339
20
-1.39932859512351
30
0
41
1
10
41.437114610885
20
-1.38507059727715
30
0
41
1
10
41.244405718191
20
-1.36967934008234
30
0
41
1
10
41.0516843522042
20
-1.35317959137066
30
0
41
1
10
40.8589899866025
20
-1.3357324225729
30
0
41
1
10
40.6662810465543
20
-1.31719589096878
30
0
41
1
10
40.4735595387357
20
-1.297597467201
30
0
41
1
10
40.2808650076457
20
-1.27707805098785
30
0
41
1
10
40.0881559021133
20
-1.25552198055055
30
0
41
1
10
39.8954343053661
20
-1.2329619311902
30
0
41
1
10
39.7027397292451
20
-1.20951551545664
30
0
41
1
10
39.5100306362328
20
-1.18509381494792
30
0
41
1
10
39.3173090930609
20
-1.15973200961818
30
0
41
1
10
39.1246145866734
20
-1.13352401874309
30
0
41
1
10
38.9319055694205
20
-1.10640807584508
30
0
41
1
10
38.739184081435
20
-1.07842182802554
30
0
41
1
10
38.5464896203888
20
-1.04963510410889
30
0
41
1
10
38.3537806172836
20
-1.02001359966047
30
0
41
1
10
38.1610590780738
20
-0.989597290301901
30
0
41
1
10
37.9683645428218
20
-0.958431644651625
30
0
41
1
10
37.7756554780432
20
-0.926510147200219
30
0
41
1
10
37.5829339700078
20
-0.893875135373065
30
0
41
1
10
37.3902395016121
20
-0.860547309483565
30
0
41
1
10
37.197530539887
20
-0.826548059861125
30
0
41
1
10
37.0048091331178
20
-0.791921783621746
30
0
41
1
10
36.8121147596545
20
-0.756664240412846
30
0
41
1
10
36.6194058695038
20
-0.720824732910444
30
0
41
1
10
36.4266844866355
20
-0.684449525800517
30
0
41
1
10
36.2339901031127
20
-0.647509356814396
30
0
41
1
10
36.0412811440725
20
-0.610081344367273
30
0
41
1
10
35.8485596168537
20
-0.572213429450358
30
0
41
1
10
35.6558650600388
20
-0.533850615340896
30
0
41
1
10
35.4631559209669
20
-0.495096205549714
30
0
41
1
10
35.27043428928
20
-0.455997482634899
30
0
41
1
10
35.0777396829992
20
-0.416475958859365
30
0
41
1
10
34.8850305616509
20
-0.376660839685798
30
0
41
1
10
34.692308993852
20
-0.336600705740011
30
0
41
1
10
34.4996144799792
20
-0.29619372833568
30
0
41
1
10
34.3069054828048
20
-0.255594636696031
30
0
41
1
10
34.1141840424297
20
-0.214853096935769
30
0
41
1
10
33.9214896336991
20
-0.173844164862715
30
0
41
1
10
33.7287806903268
20
-0.132747626094044
30
0
41
1
10
33.5597446595809
20
-0.096669346936352
30
0
41
1
10
33.4870770468603
20
-0.0811049109889836
30
0
41
1
10
33.4625849884302
20
-0.0758561908215825
30
0
0
SPLINE
5
C4
100
AcDbEntity
8
1
62
256
6
ByLayer
370
18
48
1
60
0
100
AcDbSpline
70
4
71
3
72
10
73
6
40
0
40
0
40
0
40
0
40
0.5
40
0.5
40
1
40
1
40
1
40
1
41
1
10
8.04728181984547
20
2.74801143095593
30
0
41
1
10
8.70634323220918
20
2.85391518329718
30
0
41
1
10
9.36561261853146
20
2.92735682556065
30
0
41
1
10
10.6836527385941
20
3.01705423728171
30
0
41
1
10
11.3424341395557
20
3.03319175463733
30
0
41
1
10
12.000884652661
20
3.01806560204341
30
0
0
SPLINE
5
C5
100
AcDbEntity
8
1
62
256
6
ByLayer
370
18
48
1
60
0
100
AcDbSpline
70
4
71
3
72
8
73
4
40
0
40
0
40
0
40
0
40
1
40
1
40
1
40
1
41
1
10
34.7019619011402
20
-2.97806620561426
30
0
41
1
10
34.22864087471
20
-2.97723170754455
30
0
41
1
10
33.7551907133838
20
-2.95557465436812
30
0
41
1
10
33.2800337253475
20
-2.91308967308004
30
0
0
SPLINE
5
C6
100
AcDbEntity
8
1
62
256
6
ByLayer
370
13
48
1
60
0
100
AcDbSpline
70
4
71
3
72
38
73
34
40
0
40
0
40
0
40
0
40
0.0082171340884427
40
0.0082171340884427
40
0.0493017628111481
40
0.0493017628111481
40
0.0903863915338535
40
0.0903863915338535
40
0.172555648979266
40
0.172555648979266
40
0.213640277701973
40
0.213640277701973
40
0.254724906424679
40
0.254724906424679
40
0.295809535147385
40
0.295809535147385
40
0.336894163870092
40
0.336894163870092
40
0.501232678760921
40
0.501232678760921
40
0.583401936206336
40
0.583401936206336
40
0.624486564929043
40
0.624486564929043
40
0.665571193651751
40
0.665571193651751
40
0.829909708542578
40
0.829909708542578
40
0.912078965987992
40
0.912078965987992
40
0.994248223433406
40
0.994248223433406
40
1
40
1
40
1
40
1
41
1
10
33.2800337253335
20
-2.91308967307879
30
0
41
1
10
33.2304338567718
20
-2.90865482409032
30
0
41
1
10
33.1808153897821
20
-2.90399302369471
30
0
41
1
10
32.882988522974
20
-2.87466109597688
30
0
41
1
10
32.6343511142484
20
-2.84461411692971
30
0
41
1
10
32.1356076942949
20
-2.7733631721494
30
0
41
1
10
31.8852425581621
20
-2.73211002527253
30
0
41
1
10
31.1357410878194
20
-2.59290751808999
30
0
41
1
10
30.6369664846555
20
-2.47930661833845
30
0
41
1
10
29.8872469949956
20
-2.28111298729803
30
0
41
1
10
29.6370172229077
20
-2.21036021950101
30
0
41
1
10
29.1372586299292
20
-2.06074789214875
30
0
41
1
10
28.8875248304213
20
-1.98185149748457
30
0
41
1
10
28.3879789068354
20
-1.81670770699719
30
0
41
1
10
28.1381843635018
20
-1.73043627549745
30
0
41
1
10
27.6380052450236
20
-1.5513443038059
30
0
41
1
10
27.3880278682536
20
-1.45869684532607
30
0
41
1
10
26.142727145404
20
-0.984172292547726
30
0
41
1
10
25.1563575522526
20
-0.566588848754691
30
0
41
1
10
23.6708910266983
20
0.0678885556044122
30
0
41
1
10
23.1747936382122
20
0.280829709802902
30
0
41
1
10
22.4264449972136
20
0.595678382676113
30
0
41
1
10
22.1758137899323
20
0.700167252949598
30
0
41
1
10
21.6763813204934
20
0.905213716551714
30
0
41
1
10
21.4273561260621
20
1.00575400911518
30
0
41
1
10
20.1846734111157
20
1.49661403646547
30
0
41
1
10
19.1985382122038
20
1.85118022848485
30
0
41
1
10
17.7103753768536
20
2.2850096732661
30
0
41
1
10
17.2129191466805
20
2.41347820861338
30
0
41
1
10
16.211541465069
20
2.63193398177447
30
0
41
1
10
15.7131687322888
20
2.72057034517408
30
0
41
1
10
15.1820641953836
20
2.79213607526236
30
0
41
1
10
15.1473267528764
20
2.796710409567
30
0
41
1
10
15.112596042576
20
2.80117711198065
30
0
0
SPLINE
5
C7
100
AcDbEntity
8
1
62
256
6
ByLayer
370
18
48
1
60
0
100
AcDbSpline
70
4
71
3
72
8
73
4
40
0
40
0
40
0
40
0
40
1
40
1
40
1
40
1
41
1
10
54.5490884665045
20
1.48144477779164
30
0
41
1
10
54.6011532130185
20
1.30946990879596
30
0
41
1
10
54.6578580546972
20
1.14701570333059
30
0
41
1
10
54.7195651101587
20
0.992594512662123
30
0
0
SPLINE
5
C8
100
AcDbEntity
8
1
62
256
6
ByLayer
370
18
48
1
60
0
100
AcDbSpline
70
4
71
3
72
8
73
4
40
0
40
0
40
0
40
0
40
1
40
1
40
1
40
1
41
1
10
54.9997877543952
20
0.0735337572979802
30
0
41
1
10
55.0000707485355
20
0.0245112524306705
30
0
41
1
10
55.0000707485355
20
-0.0245112524366107
30
0
41
1
10
54.9997877543952
20
-0.0735337573039203
30
0
0
SPLINE
5
C9
100
AcDbEntity
8
1
62
256
6
ByLayer
370
13
48
1
60
0
100
AcDbSpline
70
4
71
3
72
10
73
6
40
0
40
0
40
0
40
0
40
0.5
40
0.5
40
1
40
1
40
1
40
1
41
1
10
6.27956374208401
20
-1.66689320318505
30
0
41
1
10
6.20935190874153
20
-1.64973491286216
30
0
41
1
10
6.14023610981985
20
-1.63721737946486
30
0
41
1
10
6.00436319889135
20
-1.62050948923405
30
0
41
1
10
5.93722068985727
20
-1.61632420376995
30
0
41
1
10
5.87239086898001
20
-1.61638310343491
30
0
0
SPLINE
5
CA
100
AcDbEntity
8
1
62
256
6
ByLayer
370
13
48
1
60
0
100
AcDbSpline
70
4
71
3
72
28
73
24
40
0
40
0
40
0
40
0
40
0.175452880475704
40
0.175452880475704
40
0.263179320713556
40
0.263179320713556
40
0.307042540832482
40
0.307042540832482
40
0.350905760951408
40
0.350905760951408
40
0.526358641427114
40
0.526358641427114
40
0.614085081664968
40
0.614085081664968
40
0.657948301783897
40
0.657948301783897
40
0.701811521902825
40
0.701811521902825
40
0.877264402378541
40
0.877264402378541
40
0.9649908426164
40
0.9649908426164
40
1
40
1
40
1
40
1
41
1
10
53.9392200337497
20
-2.81746055557483
30
0
41
1
10
52.9436324892375
20
-2.6619121921959
30
0
41
1
10
51.959110704022
20
-2.42123596627584
30
0
41
1
10
50.4782634849462
20
-1.96195734865429
30
0
41
1
10
49.9840026214667
20
-1.79257411672873
30
0
41
1
10
49.2388190067063
20
-1.51881772777244
30
0
41
1
10
48.9896172387879
20
-1.42417626653523
30
0
41
1
10
48.4904125089612
20
-1.22944883274789
30
0
41
1
10
48.24161915749
20
-1.12986144161584
30
0
41
1
10
47.0005635532616
20
-0.62346714825901
30
0
41
1
10
46.0171429740919
20
-0.190974322102221
30
0
41
1
10
44.5349241586548
20
0.448516507469265
30
0
41
1
10
44.0397516041645
20
0.660350075705963
30
0
41
1
10
43.2924886102541
20
0.969285889432967
30
0
41
1
10
43.0422909208091
20
1.07102529946292
30
0
41
1
10
42.5441698963294
20
1.26896527484644
30
0
41
1
10
42.2958247026887
20
1.36533760364509
30
0
41
1
10
41.0564447054129
20
1.83188795215324
30
0
41
1
10
40.0727489921232
20
2.15635878843531
30
0
41
1
10
38.5878598465746
20
2.53303895325334
30
0
41
1
10
38.0913995336081
20
2.64056695791035
30
0
41
1
10
37.3921178953995
20
2.7615681429358
30
0
41
1
10
37.1930955490317
20
2.7926172955996
30
0
41
1
10
36.9944432377595
20
2.82013116671234
30
0
0
SPLINE
5
CB
100
AcDbEntity
8
1
62
256
6
ByLayer
370
18
48
1
60
0
100
AcDbSpline
70
4
71
3
72
10
73
6
40
0
40
0
40
0
40
0
40
0.491584700873845
40
0.491584700873845
40
1
40
1
40
1
40
1
41
1
10
12.9377906183791
20
-2.93882052591101
30
0
41
1
10
12.7065093980502
20
-2.93815708645056
30
0
41
1
10
12.4749899725791
20
-2.93257309956249
30
0
41
1
10
12.0031915349021
20
-2.91111383238851
30
0
41
1
10
11.7629143480988
20
-2.89496618106233
30
0
41
1
10
11.5219779175002
20
-2.87349797681699
30
0
0
SPLINE
5
CC
100
AcDbEntity
8
1
62
256
6
ByLayer
370
13
48
1
60
0
100
AcDbSpline
70
4
71
3
72
14
73
10
40
0
40
0
40
0
40
0
40
0.0049751630849989
40
0.0049751630849989
40
0.14712156835857
40
0.14712156835857
40
0.431414378905714
40
0.431414378905714
40
1
40
1
40
1
40
1
41
1
10
11.5219789133082
20
-2.87349806554661
30
0
41
1
10
11.5132402275913
20
-2.87271942130988
30
0
41
1
10
11.5045006746469
20
-2.87193377794313
30
0
41
1
10
11.2460355614457
20
-2.84849426676473
30
0
41
1
10
10.9951010431887
20
-2.82006429691572
30
0
41
1
10
10.245414806132
20
-2.71889124628393
30
0
41
1
10
9.74850213844664
20
-2.63007198957001
30
0
41
1
10
8.26151022006309
20
-2.30629174431067
30
0
41
1
10
7.27494817982517
20
-2.01392333760103
30
0
41
1
10
6.27956374208401
20
-1.66689320318505
30
0
0
SPLINE
5
CD
100
AcDbEntity
8
1
62
256
6
ByLayer
370
18
48
1
60
0
100
AcDbSpline
70
4
71
3
72
10
73
6
40
0
40
0
40
0
40
0
40
0.5
40
0.5
40
1
40
1
40
1
40
1
41
1
10
6.27998633387486
20
1.97555087526848
30
0
41
1
10
6.21442527095877
20
2.00070228307109
30
0
41
1
10
6.14803437071123
20
2.02702551767465
30
0
41
1
10
6.01316629958694
20
2.08255180367286
30
0
41
1
10
5.94443401895234
20
2.11190051183976
30
0
41
1
10
5.87821341719368
20
2.1414016412611
30
0
0
SPLINE
5
CE
100
AcDbEntity
8
1
62
256
6
ByLayer
370
18
48
1
60
0
100
AcDbSpline
70
4
71
3
72
46
73
42
40
0
40
0
40
0
40
0
40
0.0051729249130741
40
0.0051729249130741
40
0.0549142786674221
40
0.0549142786674221
40
0.0797849555445954
40
0.0797849555445954
40
0.104655632421769
40
0.104655632421769
40
0.204138339930463
40
0.204138339930463
40
0.25387969368481
40
0.25387969368481
40
0.278750370561984
40
0.278750370561984
40
0.303621047439158
40
0.303621047439158
40
0.403103754947849
40
0.403103754947849
40
0.502586462456541
40
0.502586462456541
40
0.552327816210887
40
0.552327816210887
40
0.602069169965233
40
0.602069169965233
40
0.651810523719579
40
0.651810523719579
40
0.701551877473925
40
0.701551877473925
40
0.751293231228271
40
0.751293231228271
40
0.801034584982617
40
0.801034584982617
40
0.850775938736963
40
0.850775938736963
40
0.900517292491308
40
0.900517292491308
40
0.950258646245654
40
0.950258646245654
40
1
40
1
40
1
40
1
41
1
10
27.642862279197
20
2.08721243434545
30
0
41
1
10
27.6883348822433
20
2.10189468664501
30
0
41
1
10
27.7338219540159
20
2.11644728102758
30
0
41
1
10
28.2168680306844
20
2.26952741840031
30
0
41
1
10
28.6557955900751
20
2.39609767928678
30
0
41
1
10
29.3184919134169
20
2.56384139654591
30
0
41
1
10
29.5390469725442
20
2.61600104038138
30
0
41
1
10
29.9787219230768
20
2.71177107696315
30
0
41
1
10
30.1979825820121
20
2.75554436158922
30
0
41
1
10
31.2920705206517
20
2.95332620186485
30
0
41
1
10
32.16097963217
20
3.04309200302859
30
0
41
1
10
33.4695156567288
20
3.06830731379912
30
0
41
1
10
33.9064272517864
20
3.05849607486772
30
0
41
1
10
34.5651736801383
20
3.01617028539812
30
0
41
1
10
34.7852246741535
20
2.99743356700151
30
0
41
1
10
35.226730764757
20
2.95072781725022
30
0
41
1
10
35.4471895586424
20
2.92289664676329
30
0
41
1
10
36.5453760942797
20
2.76204220043758
30
0
41
1
10
37.4151339447146
20
2.56450884418317
30
0
41
1
10
39.1568913984516
20
2.0584963158461
30
0
41
1
10
40.0286618439512
20
1.74967038971519
30
0
41
1
10
41.3526571788514
20
1.22648339245032
30
0
41
1
10
41.7915499267942
20
1.04473100294712
30
0
41
1
10
42.665774697333
20
0.671941946201429
30
0
41
1
10
43.1012334262226
20
0.480797045743572
30
0
41
1
10
43.9717756344118
20
0.0957648446384098
30
0
41
1
10
44.4065919773297
20
-0.0987383350160087
30
0
41
1
10
45.2780983306921
20
-0.485283797933761
30
0
41
1
10
45.7148398684976
20
-0.677203423475333
30
0
41
1
10
46.5924424627163
20
-1.05336781475239
30
0
41
1
10
47.0348020881087
20
-1.23754718090439
30
0
41
1
10
47.912066966511
20
-1.58608911560586
30
0
41
1
10
48.3484093189303
20
-1.7513313870777
30
0
41
1
10
49.2196217179899
20
-2.05813362306918
30
0
41
1
10
49.6542313058201
20
-2.20019814729054
30
0
41
1
10
50.5240151133505
20
-2.45727463036584
30
0
41
1
10
50.9593921020463
20
-2.57200872106762
30
0
41
1
10
51.833109906291
20
-2.77075786575986
30
0
41
1
10
52.2720801064737
20
-2.85461001206556
30
0
41
1
10
53.1539246094056
20
-2.98736643471423
30
0
41
1
10
53.5938888164063
20
-3.03596148675734
30
0
41
1
10
54.034494236067
20
-3.06592548494581
30
0
0
SPLINE
5
CF
100
AcDbEntity
8
1
62
256
6
ByLayer
370
18
48
1
60
0
100
AcDbSpline
70
4
71
3
72
12
73
8
40
0
40
0
40
0
40
0
40
0.250000000000001
40
0.250000000000001
40
0.500000000000002
40
0.500000000000002
40
1
40
1
40
1
40
1
41
1
10
10.1332630109193
20
0.506254830764618
30
0
41
1
10
9.80474092351471
20
0.629767407016317
30
0
41
1
10
9.47794491856124
20
0.753087708542381
30
0
41
1
10
8.82758864684732
20
0.999744959743026
30
0
41
1
10
8.50419751692749
20
1.12286700904124
30
0
41
1
10
7.54004269496647
20
1.49098172111056
30
0
41
1
10
6.90418945876382
20
1.73608576218677
30
0
41
1
10
6.27998633387455
20
1.9755508752805
30
0
0
SPLINE
5
D0
100
AcDbEntity
8
1
62
256
6
ByLayer
370
18
48
1
60
0
100
AcDbSpline
70
4
71
3
72
18
73
14
40
0
40
0
40
0
40
0
40
0.125
40
0.125
40
0.25
40
0.25
40
0.375
40
0.375
40
0.5
40
0.5
40
0.75
40
0.75
40
1
40
1
40
1
40
1
41
1
10
54.4774230766204
20
-0.945544520113344
30
0
41
1
10
54.4374805198592
20
-0.946019261133614
30
0
41
1
10
54.3994275360135
20
-0.934826763876856
30
0
41
1
10
54.3263700901525
20
-0.893618557889994
30
0
41
1
10
54.2911577839082
20
-0.863102117297302
30
0
41
1
10
54.2262488120138
20
-0.78854358182187
30
0
41
1
10
54.1961467653665
20
-0.744369177822392
30
0
41
1
10
54.1399122758708
20
-0.64438523045979
30
0
41
1
10
54.1137632996736
20
-0.588324508172747
30
0
41
1
10
54.0428147441022
20
-0.409776226256469
30
0
41
1
10
54.0044045114148
20
-0.275667952247687
30
0
41
1
10
53.9425801811471
20
0.0179831777842878
30
0
41
1
10
53.9201408333444
20
0.173267163571637
30
0
41
1
10
53.9055479455438
20
0.335684569372205
30
0
0
SPLINE
5
D1
100
AcDbEntity
8
1
62
256
6
ByLayer
370
18
48
1
60
0
100
AcDbSpline
70
4
71
3
72
8
73
4
40
0
40
0
40
0
40
0
40
1
40
1
40
1
40
1
41
1
10
54.4774230766204
20
-0.945544520113373
30
0
41
1
10
54.479952817103
20
-0.945218589701199
30
0
41
1
10
54.4824940956051
20
-0.944840724983436
30
0
41
1
10
54.4850470427002
20
-0.944410338228948
30
0
0
SPLINE
5
D2
100
AcDbEntity
8
1
62
256
6
ByLayer
370
18
48
1
60
0
100
AcDbSpline
70
4
71
3
72
30
73
26
40
0
40
0
40
0
40
0
40
0.141044182850724
40
0.141044182850724
40
0.211566274276087
40
0.211566274276087
40
0.282088365701451
40
0.282088365701451
40
0.352610457126814
40
0.352610457126814
40
0.423132548552178
40
0.423132548552178
40
0.493654639977542
40
0.493654639977542
40
0.564176731402905
40
0.564176731402905
40
0.705220914253629
40
0.705220914253629
40
0.775743005678993
40
0.775743005678993
40
0.846265097104356
40
0.846265097104356
40
0.987309279955084
40
0.987309279955084
40
1
40
1
40
1
40
1
41
1
10
53.5983090560617
20
0.529273457803299
30
0
41
1
10
53.1472576260862
20
0.722063582266088
30
0
41
1
10
52.6977334612495
20
0.910794552970998
30
0
41
1
10
52.0239140942568
20
1.18317928445725
30
0
41
1
10
51.7994729883043
20
1.27236743865743
30
0
41
1
10
51.3504789938271
20
1.44640956784332
30
0
41
1
10
51.1258836413371
20
1.5309202870252
30
0
41
1
10
50.6763466117101
20
1.69504794696374
30
0
41
1
10
50.4512661582171
20
1.77466681619217
30
0
41
1
10
50.0004428912185
20
1.92837080264903
30
0
41
1
10
49.7745816795483
20
2.00215084704317
30
0
41
1
10
49.3217452776924
20
2.14353449767421
30
0
41
1
10
49.0945039188696
20
2.21139776897132
30
0
41
1
10
48.6406386632621
20
2.33953963715274
30
0
41
1
10
48.4140706852235
20
2.39993629280232
30
0
41
1
10
47.7344415381877
20
2.56851154845606
30
0
41
1
10
47.2818647521318
20
2.66560099627529
30
0
41
1
10
46.6014954833049
20
2.78224460209549
30
0
41
1
10
46.3741547336134
20
2.81629409366332
30
0
41
1
10
45.9201831217021
20
2.87647809017105
30
0
41
1
10
45.6934011957375
20
2.90241198496486
30
0
41
1
10
45.0132985325328
20
2.96658150207293
30
0
41
1
10
44.5604045521904
20
2.99153914094953
30
0
41
1
10
44.0655403930513
20
2.9950135221917
30
0
41
1
10
44.0246743325668
20
2.9951115321409
30
0
41
1
10
43.9837978916876
20
2.9950316264719
30
0
0
SPLINE
5
D3
100
AcDbEntity
8
1
62
256
6
ByLayer
370
18
48
1
60
0
100
AcDbSpline
70
4
71
3
72
52
73
48
40
0
40
0
40
0
40
0
40
0.0290509310279816
40
0.0290509310279816
40
0.0678888937868623
40
0.0678888937868623
40
0.106726856545743
40
0.106726856545743
40
0.145564819304624
40
0.145564819304624
40
0.184402782063505
40
0.184402782063505
40
0.223240744822386
40
0.223240744822386
40
0.262078707581267
40
0.262078707581267
40
0.300916670340148
40
0.300916670340148
40
0.339754633099029
40
0.339754633099029
40
0.378592595857909
40
0.378592595857909
40
0.41743055861679
40
0.41743055861679
40
0.456268521375671
40
0.456268521375671
40
0.495106484134552
40
0.495106484134552
40
0.533944446893433
40
0.533944446893433
40
0.572782409652314
40
0.572782409652314
40
0.611620372411195
40
0.611620372411195
40
0.689296297928955
40
0.689296297928955
40
0.766972223446716
40
0.766972223446716
40
0.844648148964477
40
0.844648148964477
40
0.883486111723358
40
0.883486111723358
40
0.922324074482239
40
0.922324074482239
40
0.961162037241119
40
0.961162037241119
40
1
40
1
40
1
40
1
41
1
10
27.6276066737506
20
-2.1015474954398
30
0
41
1
10
27.4595004688104
20
-2.15205125354456
30
0
41
1
10
27.2914949176065
20
-2.20047165274744
30
0
41
1
10
26.8990382605711
20
-2.30957767963216
30
0
41
1
10
26.6745521735807
20
-2.36890050601309
30
0
41
1
10
26.2255189254972
20
-2.47920419609824
30
0
41
1
10
26.0009556955325
20
-2.53003752925019
30
0
41
1
10
25.5512518894714
20
-2.62381686231592
30
0
41
1
10
25.3262493453265
20
-2.66715001042266
30
0
41
1
10
24.8753482808311
20
-2.74547298828847
30
0
41
1
10
24.6495267543348
20
-2.77974549625819
30
0
41
1
10
24.1966661797397
20
-2.83903985114634
30
0
41
1
10
23.9696985270912
20
-2.86489789160728
30
0
41
1
10
23.5145668024991
20
-2.90798382115443
30
0
41
1
10
23.2872762628624
20
-2.92493685045466
30
0
41
1
10
22.8333947770018
20
-2.94675430952646
30
0
41
1
10
22.6065731628438
20
-2.95323088634782
30
0
41
1
10
22.1529544318843
20
-2.95793291734964
30
0
41
1
10
21.9262219029036
20
-2.95618047402468
30
0
41
1
10
21.4723536365238
20
-2.94074733878256
30
0
41
1
10
21.2453230573543
20
-2.92761819313975
30
0
41
1
10
20.7905382978342
20
-2.89394879417546
30
0
41
1
10
20.5628096940472
20
-2.87291423049325
30
0
41
1
10
20.1084730049896
20
-2.82072313208792
30
0
41
1
10
19.8815557684309
20
-2.78899167198611
30
0
41
1
10
19.4279083051601
20
-2.71837690885462
30
0
41
1
10
19.2010842928214
20
-2.67920516735023
30
0
41
1
10
18.7473848366311
20
-2.59200569267244
30
0
41
1
10
18.5204560767041
20
-2.54330494324697
30
0
41
1
10
18.0660127751843
20
-2.43847797342414
30
0
41
1
10
17.8383804859087
20
-2.38242738273183
30
0
41
1
10
17.3834765692317
20
-2.26307613014654
30
0
41
1
10
17.1564417406813
20
-2.19936667353079
30
0
41
1
10
16.4756558210048
20
-1.99748307839329
30
0
41
1
10
16.0222740510741
20
-1.85043218184569
30
0
41
1
10
15.1140781151665
20
-1.5325890289856
30
0
41
1
10
14.6581999090851
20
-1.36296803555402
30
0
41
1
10
13.7515290342572
20
-1.00960621983958
30
0
41
1
10
13.2997740976886
20
-0.826298976827587
30
0
41
1
10
12.6227572076637
20
-0.544971020465965
30
0
41
1
10
12.3970923603807
20
-0.450388460462023
30
0
41
1
10
11.9457377228142
20
-0.259868245316653
30
0
41
1
10
11.7199033118992
20
-0.164249402710681
30
0
41
1
10
11.2678436155379
20
0.0277240954129638
30
0
41
1
10
11.0414976996838
20
0.123776043368196
30
0
41
1
10
10.5880421612567
20
0.315480991576322
30
0
41
1
10
10.3610537433802
20
0.411424756450089
30
0
41
1
10
10.1332630109193
20
0.506254830764618
30
0
0
SPLINE
5
D4
100
AcDbEntity
8
1
62
256
6
ByLayer
370
18
48
1
60
0
100
AcDbSpline
70
4
71
3
72
14
73
10
40
0
40
0
40
0
40
0
40
0.25
40
0.25
40
0.5
40
0.5
40
0.75
40
0.75
40
1
40
1
40
1
40
1
41
1
10
54.4850470425953
20
-0.944410338293494
30
0
41
1
10
54.5233299708383
20
-0.920092524140813
30
0
41
1
10
54.5645208885878
20
-0.875550322253645
30
0
41
1
10
54.6534379548447
20
-0.748510487076288
30
0
41
1
10
54.6987851058587
20
-0.669394180822763
30
0
41
1
10
54.790909622705
20
-0.484027791932476
30
0
41
1
10
54.8356598687339
20
-0.381837533860931
30
0
41
1
10
54.9223254762857
20
-0.160565392909206
30
0
41
1
10
54.9626926671521
20
-0.04532618993386
30
0
41
1
10
54.9997877543952
20
0.073533757298037
30
0
0
LINE
5
76
100
AcDbEntity
8
81
62
256
6
ByLayer
370
18
48
1
60
0
100
AcDbLine
10
55
20
0
30
0
11
60
21
0
31
0
39
0
210
0
220
0
230
1
0
LINE
5
77
100
AcDbEntity
8
1
62
256
6
ByLayer
370
18
48
1
60
0
100
AcDbLine
10
3.419188
20
3.00899
30
0
11
1.548171
21
3.005623
31
0
39
0
210
0
220
0
230
1
0
LINE
5
79
100
AcDbEntity
8
1
62
256
6
ByLayer
370
18
48
1
60
0
100
AcDbLine
10
12.444309
20
3.025236
30
0
11
11.476915
21
3.023494
31
0
39
0
210
0
220
0
230
1
0
LINE
5
7A
100
AcDbEntity
8
1
62
256
6
ByLayer
370
18
48
1
60
0
100
AcDbLine
10
11.476915
20
-3.023494
30
0
11
12.444309
21
-3.025236
31
0
39
0
210
0
220
0
230
1
0
LINE
5
7B
100
AcDbEntity
8
1
62
256
6
ByLayer
370
18
48
1
60
0
100
AcDbLine
10
1.548171
20
-3.005623
30
0
11
3.419188
21
-3.00899
31
0
39
0
210
0
220
0
230
1
0
LINE
5
7C
100
AcDbEntity
8
SK1
62
256
6
ByLayer
370
18
48
1
60
0
100
AcDbLine
10
0
20
4
30
0
11
-34.845299
21
4
31
0
39
0
210
0
220
0
230
1
0
LINE
5
7E
100
AcDbEntity
8
SK1
62
256
6
ByLayer
370
18
48
1
60
0
100
AcDbLine
10
-34.845299
20
-4
30
0
11
0
21
-4
31
0
39
0
210
0
220
0
230
1
0
LINE
5
7F
100
AcDbEntity
8
SK1
62
256
6
ByLayer
370
18
48
1
60
0
100
AcDbLine
10
-34.845299
20
4
30
0
11
-36
21
2
31
0
39
0
210
0
220
0
230
1
0
LINE
5
80
100
AcDbEntity
8
SK1
62
256
6
ByLayer
370
18
48
1
60
0
100
AcDbLine
10
-36
20
-2
30
0
11
-34.845299
21
-4
31
0
39
0
210
0
220
0
230
1
0
LINE
5
81
100
AcDbEntity
8
1
62
256
6
ByLayer
370
18
48
1
60
0
100
AcDbLine
10
34.193667
20
3.064384
30
0
11
33.307531
21
3.062789
31
0
39
0
210
0
220
0
230
1
0
LINE
5
82
100
AcDbEntity
8
1
62
256
6
ByLayer
370
18
48
1
60
0
100
AcDbLine
10
33.307531
20
-3.062789
30
0
11
34.193667
21
-3.064384
31
0
39
0
210
0
220
0
230
1
0
LINE
5
83
100
AcDbEntity
8
SK4
62
256
6
ByLayer
370
18
48
0.05
60
0
100
AcDbLine
10
60
20
0
30
0
11
-41
21
0
31
0
39
0
210
0
220
0
230
1
0
LINE
5
85
100
AcDbEntity
8
4
62
256
6
ByLayer
370
18
48
0.05
60
0
100
AcDbLine
10
55
20
0
30
0
11
0
21
0
31
0
39
0
210
0
220
0
230
1
0
LINE
5
87
100
AcDbEntity
8
80
62
256
6
ByLayer
370
18
48
1
60
0
100
AcDbLine
10
0
20
0
30
0
11
-5
21
0
31
0
39
0
210
0
220
0
230
1
0
LINE
5
88
100
AcDbEntity
8
1
62
256
6
ByLayer
370
18
48
1
60
0
100
AcDbLine
10
53.596855
20
-1.687085
30
0
11
54.477423
21
-0.945545
31
0
39
0
210
0
220
0
230
1
0
LINE
5
89
100
AcDbEntity
8
1
62
256
6
ByLayer
370
18
48
1
60
0
100
AcDbLine
10
0
20
-4
30
0
11
0
21
4
31
0
39
0
210
0
220
0
230
1
0
LINE
5
8A
100
AcDbEntity
8
1
62
256
6
ByLayer
370
13
48
1
60
0
100
AcDbLine
10
1.548171
20
3.005623
30
0
11
1.548171
21
-3.005623
31
0
39
0
210
0
220
0
230
1
0
LINE
5
8B
100
AcDbEntity
8
1
62
256
6
ByLayer
370
13
48
1
60
0
100
AcDbLine
10
0.773321
20
3.502811
30
0
11
0.773321
21
-3.502811
31
0
39
0
210
0
220
0
230
1
0
LINE
5
8C
100
AcDbEntity
8
SK1
62
256
6
ByLayer
370
18
48
1
60
0
100
AcDbLine
10
-36
20
2
30
0
11
-36
21
-2
31
0
39
0
210
0
220
0
230
1
0
LINE
5
8D
100
AcDbEntity
8
SK1
62
256
6
ByLayer
370
18
48
1
60
0
100
AcDbLine
10
0
20
-4
30
0
11
0
21
4
31
0
39
0
210
0
220
0
230
1
0
LINE
5
8E
100
AcDbEntity
8
SK1
62
256
6
ByLayer
370
18
48
1
60
0
100
AcDbLine
10
-34.845299
20
4
30
0
11
-34.845299
21
-4
31
0
39
0
210
0
220
0
230
1
0
MTEXT
5
D5
100
AcDbEntity
8
SK6
62
256
6
ByLayer
370
13
48
1
60
0
100
AcDbMText
10
11.629169
20
35.482694
30
0
210
0
220
0
230
1
1
\W0.7614;860.1-0620-040A0-PM 4234
40
3.5
41
0
44
1.084337
50
0
71
8
72
5
7
iso_b_vert
0
DIMENSION
5
E2
100
AcDbEntity
8
2
62
256
6
ByLayer
370
13
48
1
60
0
100
AcDbDimension
2
DimnDraft3D1
10
53.9801
20
-13.313398
30
0
11
25.730159
21
-13.313398
31
0
70
32
71
5
72
1
41
1
210
0
220
0
230
1
3
Standard
100
AcDbAlignedDimension
13
0
23
-1.5875
33
0
14
53.9801
24
-4.6875
34
0
50
0
100
AcDbRotatedDimension
1001
ACAD
1000
DSTYLE
1002
{
1070
   279
1070
     0
1070
   172
1070
     1
1070
   173
1070
     1
1070
   340
1005
D6
1070
   271
1070
     2
1070
   272
1070
     2
1070
    77
1070
     1
1070
    73
1070
     0
1070
   171
1070
     3
1070
   274
1070
     4
1070
   177
1070
    35
1070
   176
1070
    35
1070
   178
1070
    35
1070
    48
1040
-0.005
1070
    41
1041
3.5
1070
   147
1041
1.75
1070
    42
1041
1.5875
1070
    44
1041
2.0
1070
   140
1041
3.5
1070
   343
1005
0
1070
   344
1005
0
1002
}
0
DIMENSION
5
EC
100
AcDbEntity
8
SK2
62
256
6
ByLayer
370
13
48
1
60
0
100
AcDbDimension
2
DimnDraft3D2
10
55
20
-32.692985
30
0
11
9.8214
21
-32.692985
31
0
70
32
71
5
72
1
41
1
210
0
220
0
230
1
3
Standard
100
AcDbAlignedDimension
13
-36
23
-5.5875
33
0
14
55
24
-1.5875
34
0
50
0
100
AcDbRotatedDimension
1001
ACAD
1000
DSTYLE
1002
{
1070
   279
1070
     0
1070
   172
1070
     1
1070
   173
1070
     1
1070
   340
1005
D6
1070
   271
1070
     2
1070
   272
1070
     2
1070
    77
1070
     1
1070
    73
1070
     0
1070
   171
1070
     3
1070
   274
1070
     4
1070
   177
1070
    35
1070
   176
1070
    35
1070
   178
1070
    35
1070
    48
1040
-0.005
1070
    41
1041
3.5
1070
   147
1041
1.75
1070
    42
1041
1.5875
1070
    44
1041
2.0
1070
   140
1041
3.5
1070
   343
1005
0
1070
   344
1005
0
1002
}
0
DIMENSION
5
F6
100
AcDbEntity
8
SK2
62
256
6
ByLayer
370
13
48
1
60
0
100
AcDbDimension
2
DimnDraft3D3
10
55
20
14.709119
30
0
11
38.99
21
14.709119
31
0
70
32
71
5
72
1
41
1
210
0
220
0
230
1
3
Standard
100
AcDbAlignedDimension
13
22.98
23
4.6875
33
0
14
55
24
1.5875
34
0
50
0
100
AcDbRotatedDimension
1001
ACAD
1000
DSTYLE
1002
{
1070
   279
1070
     0
1070
   172
1070
     1
1070
   173
1070
     1
1070
   340
1005
D6
1070
   271
1070
     2
1070
   272
1070
     2
1070
    77
1070
     1
1070
    73
1070
     0
1070
   171
1070
     3
1070
   274
1070
     4
1070
   177
1070
    35
1070
   176
1070
    35
1070
   178
1070
    35
1070
    48
1040
-0.005
1070
    41
1041
3.5
1070
   147
1041
1.75
1070
    42
1041
1.5875
1070
    44
1041
2.0
1070
   140
1041
3.5
1070
   343
1005
0
1070
   344
1005
0
1002
}
0
DIMENSION
5
100
100
AcDbEntity
8
SK2
62
256
6
ByLayer
370
13
48
1
60
0
100
AcDbDimension
2
DimnDraft3D4
10
53.9801
20
-15.902503
30
0
11
64.981425
21
-15.902503
31
0
70
32
71
5
72
1
41
1
210
0
220
0
230
1
3
Standard
100
AcDbAlignedDimension
13
55
23
-1.5875
33
0
14
53.9801
24
-4.6875
34
0
50
0
100
AcDbRotatedDimension
1001
ACAD
1000
DSTYLE
1002
{
1070
   279
1070
     0
1070
   172
1070
     1
1070
   173
1070
     1
1070
   340
1005
D6
1070
   271
1070
     2
1070
   272
1070
     2
1070
    77
1070
     1
1070
    73
1070
     0
1070
   171
1070
     3
1070
   274
1070
     4
1070
   177
1070
    35
1070
   176
1070
    35
1070
   178
1070
    35
1070
    48
1040
-0.005
1070
    41
1041
3.5
1070
   147
1041
1.75
1070
    42
1041
1.5875
1070
    44
1041
2.0
1070
   140
1041
3.5
1070
   343
1005
0
1070
   344
1005
0
1002
}
0
DIMENSION
5
10A
100
AcDbEntity
8
SK2
62
256
6
ByLayer
370
13
48
1
60
0
100
AcDbDimension
2
DimnDraft3D5
10
53.9801
20
-22.343428
30
0
11
6.740776
21
-22.343428
31
0
70
32
71
5
72
1
41
1
210
0
220
0
230
1
3
Standard
100
AcDbAlignedDimension
13
-36
23
-5.5875
33
0
14
53.9801
24
-4.6875
34
0
50
0
100
AcDbRotatedDimension
1001
ACAD
1000
DSTYLE
1002
{
1070
   279
1070
     0
1070
   172
1070
     1
1070
   173
1070
     1
1070
   340
1005
D6
1070
   271
1070
     2
1070
   272
1070
     2
1070
    77
1070
     1
1070
    73
1070
     0
1070
   171
1070
     3
1070
   274
1070
     4
1070
   177
1070
    35
1070
   176
1070
    35
1070
   178
1070
    35
1070
    48
1040
-0.005
1070
    41
1041
3.5
1070
   147
1041
1.75
1070
    42
1041
1.5875
1070
    44
1041
2.0
1070
   140
1041
3.5
1070
   343
1005
0
1070
   344
1005
0
1002
}
0
DIMENSION
5
115
100
AcDbEntity
8
SK2
62
256
6
ByLayer
370
13
48
1
60
0
100
AcDbDimension
2
DimnDraft3D6
10
-46.625163
20
4
30
0
11
-47.250163
21
22.47418
31
0
70
33
71
5
72
1
41
1
210
0
220
0
230
1
3
Standard
100
AcDbAlignedDimension
13
-37.5875
23
-4
33
0
14
-37.5875
24
4
34
0
1001
ACAD
1000
DSTYLE
1002
{
1070
   279
1070
     0
1070
    74
1070
     0
1070
   173
1070
     1
1070
   340
1005
D6
1070
   271
1070
     3
1070
   272
1070
     2
1070
    77
1070
     1
1070
    73
1070
     0
1070
   171
1070
     3
1070
   274
1070
     4
1070
   177
1070
    35
1070
   176
1070
    35
1070
   178
1070
    35
1070
    48
1040
-0.005
1070
    41
1041
3.5
1070
   147
1041
1.75
1070
    42
1041
1.5875
1070
    44
1041
2.0
1070
   140
1041
3.5
1070
   343
1005
0
1070
   344
1005
0
1002
}
0
DIMENSION
5
120
100
AcDbEntity
8
2
62
256
6
ByLayer
370
13
48
1
60
0
100
AcDbDimension
2
DimnDraft3D7
10
69.083343
20
3.1
30
0
11
64.458343
21
20.167266
31
0
70
33
71
5
72
1
41
1
210
0
220
0
230
1
3
Standard
100
AcDbAlignedDimension
13
55.5676
23
-3.1
33
0
14
55.5676
24
3.1
34
0
1001
ACAD
1000
DSTYLE
1002
{
1070
   279
1070
     0
1070
    74
1070
     0
1070
   173
1070
     1
1070
   340
1005
D6
1070
   271
1070
     3
1070
   272
1070
     2
1070
    77
1070
     1
1070
    73
1070
     0
1070
   171
1070
     3
1070
   274
1070
     4
1070
   177
1070
    35
1070
   176
1070
    35
1070
   178
1070
    35
1070
    48
1040
-0.005
1070
    41
1041
3.5
1070
   147
1041
1.75
1070
    42
1041
1.5875
1070
    44
1041
2.0
1070
   140
1041
3.5
1070
   343
1005
0
1070
   344
1005
0
1002
}
0
ENDSEC
0
SECTION
2
OBJECTS
0
DICTIONARY
5
18b
330
0
100
AcDbDictionary
280
0
281
1
3
ACAD_GROUP
350
18c
3
ACAD_MLINESTYLE
350
18d
0
DICTIONARY
5
18c
330
0
100
AcDbDictionary
280
0
281
1
0
DICTIONARY
5
18d
330
0
100
AcDbDictionary
280
0
281
1
3
Standard
350
18
0
MLINESTYLE
5
18
330
18d
100
AcDbMlineStyle
2
Standard
70
0
3

62
256
51
90
52
90
71
2
49
-0.5
62
256
6
ByLayer
49
0.5
62
256
6
ByLayer
0
RASTERVARIABLES
5
179
330

100
AcDbRasterVariables
90
0
70
1
71
1
72
1
0
ENDSEC
0
EOF
