0
SECTION
2
HEADER
9
$ACADVER
1
AC1015
9
$DWGCODEPAGE
3
ANSI_1252
9
$HANDSEED
5
1b9
9
$ANGBASE
50
0
9
$ANGDIR
70
0
9
$ATTMODE
70
1
9
$AUNITS
70
0
9
$AUPREC
70
0
9
$CECOLOR
62
256
9
$CELTSCALE
40
1
9
$CELTYPE
6
ByLayer
9
$CELWEIGHT
370
18
9
$CLAYER
8
0
9
$CMLJUST
70
0
9
$CMLSCALE
40
1
9
$CMLSTYLE
2
Standard
9
$DIMSTYLE
2
Standard
9
$TEXTSIZE
40
0.2
9
$TEXTSTYLE
7
Standard
9
$LUNITS
70
2
9
$LUPREC
70
4
9
$EXTNAMES
290
1
9
$INSUNITS
70
4
9
$LTSCALE
40
1
9
$LWDISPLAY
290
1
9
$PDMODE
70
0
9
$PDSIZE
40
0
9
$PLINEGEN
70
0
0
ENDSEC
0
SECTION
2
CLASSES
0
CLASS
1
RASTERVARIABLES
2
AcDbRasterVariables
3
ISM
90
0
280
0
281
0
0
ENDSEC
0
SECTION
2
TABLES
0
TABLE
2
VPORT
5
1af
100
AcDbSymbolTable
0
VPORT
5
1
100
AcDbSymbolTableRecord
100
AcDbViewportTableRecord
2
*Active
70
0
10
0
20
0
11
1
21
1
12
-1
22
1
13
0
23
0
14
0.5
24
0.5
15
10
25
10
16
0
26
0
36
1
17
0
27
0
37
0
0
ENDTAB
0
TABLE
2
LTYPE
5
1b0
100
AcDbSymbolTable
0
LTYPE
5
14
100
AcDbSymbolTableRecord
100
AcDbLinetypeTableRecord
70
0
2
ByBlock
3

72
65
73
0
40
0
0
LTYPE
5
15
100
AcDbSymbolTableRecord
100
AcDbLinetypeTableRecord
70
0
2
ByLayer
3

72
65
73
0
40
0
0
LTYPE
5
16
100
AcDbSymbolTableRecord
100
AcDbLinetypeTableRecord
70
0
2
CONTINUOUS
3
Solid line
72
65
73
0
40
0
0
LTYPE
5
6A
100
AcDbSymbolTableRecord
100
AcDbLinetypeTableRecord
70
0
2
CENTER
3
____ _ ____ _ ____ _ ____
72
65
73
4
40
47.5
49
22
74
0
49
-8.5
74
0
49
8.5
74
0
49
-8.5
74
0
0
LTYPE
5
6B
100
AcDbSymbolTableRecord
100
AcDbLinetypeTableRecord
70
0
2
DASHED
3
__ __ __ __ __ __ __ __ __
72
65
73
2
40
25.72
49
12.86
74
0
49
-12.86
74
0
0
ENDTAB
0
TABLE
2
LAYER
5
1b1
100
AcDbSymbolTable
0
LAYER
5
10
100
AcDbSymbolTableRecord
100
AcDbLayerTableRecord
2
0
70
0
62
7
6
CONTINUOUS
290
1
370
-3
390
0
0
LAYER
5
6D
100
AcDbSymbolTableRecord
100
AcDbLayerTableRecord
2
81
70
0
62
-3
6
CONTINUOUS
290
1
370
-3
390
0
0
LAYER
5
6F
100
AcDbSymbolTableRecord
100
AcDbLayerTableRecord
2
80
70
0
62
-6
6
CONTINUOUS
290
1
370
-3
390
0
0
LAYER
5
74
100
AcDbSymbolTableRecord
100
AcDbLayerTableRecord
2
2
70
0
62
7
6
CONTINUOUS
290
1
370
-3
390
0
0
LAYER
5
78
100
AcDbSymbolTableRecord
100
AcDbLayerTableRecord
2
1
70
0
62
4
6
CONTINUOUS
290
1
370
-3
390
0
0
LAYER
5
88
100
AcDbSymbolTableRecord
100
AcDbLayerTableRecord
2
4
70
0
62
-2
6
CENTER
290
1
370
-3
390
0
0
LAYER
5
19b
100
AcDbSymbolTableRecord
100
AcDbLayerTableRecord
2
SK2
70
0
62
7
6
CONTINUOUS
290
1
370
-3
390
0
0
LAYER
5
19c
100
AcDbSymbolTableRecord
100
AcDbLayerTableRecord
2
SK1
70
0
62
4
6
CONTINUOUS
290
1
370
-3
390
0
0
LAYER
5
19d
100
AcDbSymbolTableRecord
100
AcDbLayerTableRecord
2
SK4
70
0
62
2
6
CENTER
290
1
370
-3
390
0
0
LAYER
5
19e
100
AcDbSymbolTableRecord
100
AcDbLayerTableRecord
2
SK6
70
0
62
5
6
CONTINUOUS
290
1
370
-3
390
0
0
ENDTAB
0
TABLE
2
STYLE
5
1b2
100
AcDbSymbolTable
0
STYLE
5
11
100
AcDbSymbolTableRecord
100
AcDbTextStyleTableRecord
2
Standard
3
txt
70
0
71
0
40
0
41
1
42
0
50
0
0
STYLE
5
F7
100
AcDbSymbolTableRecord
100
AcDbTextStyleTableRecord
2
iso_b_vert
3
simplex.shx
70
0
71
0
40
0
41
1
42
0
50
0
0
STYLE
5
F8
100
AcDbSymbolTableRecord
100
AcDbTextStyleTableRecord
2
DWGDirectTextStyle
3
simplex
70
0
71
0
40
0
41
1
42
0
50
0
0
ENDTAB
0
TABLE
2
DIMSTYLE
5
1b3
100
AcDbSymbolTable
100
AcDbDimStyleTable
0
DIMSTYLE
105
27
100
AcDbSymbolTableRecord
100
AcDbDimStyleTableRecord
2
Standard
70
0
3
<>
41
0.18
42
0.0625
44
0.18
140
0.18
147
0.09
73
0
74
0
77
1
271
2
275
0
278
52
280
0
340
11
0
ENDTAB
0
TABLE
2
VIEW
5
1b4
100
AcDbSymbolTable
0
ENDTAB
0
TABLE
2
UCS
5
1b5
100
AcDbSymbolTable
0
ENDTAB
0
TABLE
2
APPID
5
1b6
100
AcDbSymbolTable
0
APPID
5
12
100
AcDbSymbolTableRecord
100
AcDbRegAppTableRecord
2
ACAD
70
0
0
ENDTAB
0
TABLE
2
BLOCK_RECORD
5
1b7
100
AcDbSymbolTable
0
BLOCK_RECORD
5
1F
100
AcDbSymbolTableRecord
100
AcDbBlockTableRecord
2
*Model_Space
340
0
70
0
0
BLOCK_RECORD
5
1B
100
AcDbSymbolTableRecord
100
AcDbBlockTableRecord
2
*Paper_Space
340
0
70
0
0
BLOCK_RECORD
5
23
100
AcDbSymbolTableRecord
100
AcDbBlockTableRecord
2
*Paper_Space0
340
0
70
0
0
BLOCK_RECORD
5
FA
100
AcDbSymbolTableRecord
100
AcDbBlockTableRecord
2
DimnDraft3D1
340
0
70
0
0
BLOCK_RECORD
5
104
100
AcDbSymbolTableRecord
100
AcDbBlockTableRecord
2
DimnDraft3D2
340
0
70
0
0
BLOCK_RECORD
5
10E
100
AcDbSymbolTableRecord
100
AcDbBlockTableRecord
2
DimnDraft3D3
340
0
70
0
0
BLOCK_RECORD
5
118
100
AcDbSymbolTableRecord
100
AcDbBlockTableRecord
2
DimnDraft3D4
340
0
70
0
0
BLOCK_RECORD
5
122
100
AcDbSymbolTableRecord
100
AcDbBlockTableRecord
2
DimnDraft3D5
340
0
70
0
0
BLOCK_RECORD
5
12C
100
AcDbSymbolTableRecord
100
AcDbBlockTableRecord
2
DimnDraft3D6
340
0
70
0
0
BLOCK_RECORD
5
137
100
AcDbSymbolTableRecord
100
AcDbBlockTableRecord
2
DimnDraft3D7
340
0
70
0
0
ENDTAB
0
ENDSEC
0
SECTION
2
BLOCKS
0
BLOCK
5
20
100
AcDbEntity
8
0
100
AcDbBlockBegin
2
*Model_Space
70
0
10
0
20
0
30
0
3
*Model_Space
0
ENDBLK
5
21
100
AcDbEntity
8
0
100
AcDbBlockEnd
0
BLOCK
5
1C
100
AcDbEntity
8
0
100
AcDbBlockBegin
2
*Paper_Space
70
0
10
0
20
0
30
0
3
*Paper_Space
0
ENDBLK
5
1D
100
AcDbEntity
8
0
100
AcDbBlockEnd
0
BLOCK
5
24
100
AcDbEntity
8
0
100
AcDbBlockBegin
2
*Paper_Space0
70
0
10
0
20
0
30
0
3
*Paper_Space0
0
ENDBLK
5
25
100
AcDbEntity
8
0
100
AcDbBlockEnd
0
BLOCK
5
101
100
AcDbEntity
8
0
100
AcDbBlockBegin
2
DimnDraft3D1
70
0
10
0
20
0
30
0
3
DimnDraft3D1
0
MTEXT
5
FB
100
AcDbEntity
8
2
62
256
6
ByLayer
370
13
48
1
60
0
100
AcDbMText
10
16.667164
20
-12.238398
30
0
210
0
220
0
230
1
1
\W0.7581;45,05
40
3.5
41
0
44
1.084337
50
0
71
7
72
5
7
iso_b_vert
0
LINE
5
FC
100
AcDbEntity
8
2
62
256
6
ByLayer
370
13
48
1
60
0
100
AcDbLine
10
0
20
-1.5875
30
0
11
0
21
-15.113398
31
0
39
0
210
0
220
0
230
1
0
LINE
5
FD
100
AcDbEntity
8
2
62
256
6
ByLayer
370
13
48
1
60
0
100
AcDbLine
10
45.05
20
-4.4875
30
0
11
45.05
21
-15.113398
31
0
39
0
210
0
220
0
230
1
0
LINE
5
FE
100
AcDbEntity
8
2
62
256
6
ByLayer
370
13
48
1
60
0
100
AcDbLine
10
0
20
-13.113398
30
0
11
45.05
21
-13.113398
31
0
39
0
210
0
220
0
230
1
0
SOLID
5
FF
100
AcDbEntity
8
2
62
256
6
ByLayer
370
13
48
1
60
0
100
AcDbTrace
10
0
20
-13.113398
30
0
11
3.499998
21
-12.652615
31
0
12
3.500002
22
-13.574182
32
0
13
0
23
-13.113398
33
0
39
0
210
0
220
0
230
1
0
SOLID
5
100
100
AcDbEntity
8
2
62
256
6
ByLayer
370
13
48
1
60
0
100
AcDbTrace
10
45.05
20
-13.113398
30
0
11
41.550002
21
-13.574182
31
0
12
41.549998
22
-12.652615
32
0
13
45.05
23
-13.113398
33
0
39
0
210
0
220
0
230
1
0
ENDBLK
5
102
100
AcDbEntity
8
0
100
AcDbBlockEnd
0
BLOCK
5
10B
100
AcDbEntity
8
0
100
AcDbBlockBegin
2
DimnDraft3D2
70
0
10
0
20
0
30
0
3
DimnDraft3D2
0
MTEXT
5
105
100
AcDbEntity
8
SK2
62
256
6
ByLayer
370
13
48
1
60
0
100
AcDbMText
10
0.942616
20
-30.817985
30
0
210
0
220
0
230
1
1
\W0.7317;82,00
40
3.5
41
0
44
1.084337
50
0
71
7
72
5
7
iso_b_vert
0
LINE
5
106
100
AcDbEntity
8
SK2
62
256
6
ByLayer
370
13
48
1
60
0
100
AcDbLine
10
-36
20
-4.5875
30
0
11
-36
21
-33.692985
31
0
39
0
210
0
220
0
230
1
0
LINE
5
107
100
AcDbEntity
8
SK2
62
256
6
ByLayer
370
13
48
1
60
0
100
AcDbLine
10
46
20
-1.5875
30
0
11
46
21
-33.692985
31
0
39
0
210
0
220
0
230
1
0
LINE
5
108
100
AcDbEntity
8
SK2
62
256
6
ByLayer
370
13
48
1
60
0
100
AcDbLine
10
-36
20
-31.692985
30
0
11
46
21
-31.692985
31
0
39
0
210
0
220
0
230
1
0
SOLID
5
109
100
AcDbEntity
8
SK2
62
256
6
ByLayer
370
13
48
1
60
0
100
AcDbTrace
10
-36
20
-31.692985
30
0
11
-32.500002
21
-31.232202
31
0
12
-32.499998
22
-32.153769
32
0
13
-36
23
-31.692985
33
0
39
0
210
0
220
0
230
1
0
SOLID
5
10A
100
AcDbEntity
8
SK2
62
256
6
ByLayer
370
13
48
1
60
0
100
AcDbTrace
10
46
20
-31.692985
30
0
11
42.500002
21
-32.153769
31
0
12
42.499998
22
-31.232202
32
0
13
46
23
-31.692985
33
0
39
0
210
0
220
0
230
1
0
ENDBLK
5
10C
100
AcDbEntity
8
0
100
AcDbBlockEnd
0
BLOCK
5
115
100
AcDbEntity
8
0
100
AcDbBlockBegin
2
DimnDraft3D3
70
0
10
0
20
0
30
0
3
DimnDraft3D3
0
MTEXT
5
10F
100
AcDbEntity
8
SK2
62
256
6
ByLayer
370
13
48
1
60
0
100
AcDbMText
10
26.576316
20
15.384119
30
0
210
0
220
0
230
1
1
\W0.7317;29,95
40
3.5
41
0
44
1.084337
50
0
71
7
72
5
7
iso_b_vert
0
LINE
5
110
100
AcDbEntity
8
SK2
62
256
6
ByLayer
370
13
48
1
60
0
100
AcDbLine
10
16.05
20
4.4875
30
0
11
16.05
21
16.509119
31
0
39
0
210
0
220
0
230
1
0
LINE
5
111
100
AcDbEntity
8
SK2
62
256
6
ByLayer
370
13
48
1
60
0
100
AcDbLine
10
46
20
1.5875
30
0
11
46
21
16.509119
31
0
39
0
210
0
220
0
230
1
0
LINE
5
112
100
AcDbEntity
8
SK2
62
256
6
ByLayer
370
13
48
1
60
0
100
AcDbLine
10
16.05
20
14.509119
30
0
11
46
21
14.509119
31
0
39
0
210
0
220
0
230
1
0
SOLID
5
113
100
AcDbEntity
8
SK2
62
256
6
ByLayer
370
13
48
1
60
0
100
AcDbTrace
10
16.05
20
14.509119
30
0
11
19.549998
21
14.969903
31
0
12
19.550002
22
14.048335
32
0
13
16.05
23
14.509119
33
0
39
0
210
0
220
0
230
1
0
SOLID
5
114
100
AcDbEntity
8
SK2
62
256
6
ByLayer
370
13
48
1
60
0
100
AcDbTrace
10
46
20
14.509119
30
0
11
42.500002
21
14.048335
31
0
12
42.499998
22
14.969903
32
0
13
46
23
14.509119
33
0
39
0
210
0
220
0
230
1
0
ENDBLK
5
116
100
AcDbEntity
8
0
100
AcDbBlockEnd
0
BLOCK
5
11F
100
AcDbEntity
8
0
100
AcDbBlockBegin
2
DimnDraft3D4
70
0
10
0
20
0
30
0
3
DimnDraft3D4
0
MTEXT
5
119
100
AcDbEntity
8
SK2
62
256
6
ByLayer
370
13
48
1
60
0
100
AcDbMText
10
52.840636
20
-14.827503
30
0
210
0
220
0
230
1
1
\W0.7150;0,95
40
3.5
41
0
44
1.084337
50
0
71
7
72
5
7
iso_b_vert
0
LINE
5
11A
100
AcDbEntity
8
SK2
62
256
6
ByLayer
370
13
48
1
60
0
100
AcDbLine
10
46
20
-1.5875
30
0
11
46
21
-17.702503
31
0
39
0
210
0
220
0
230
1
0
LINE
5
11B
100
AcDbEntity
8
SK2
62
256
6
ByLayer
370
13
48
1
60
0
100
AcDbLine
10
45.05
20
-4.4875
30
0
11
45.05
21
-17.702503
31
0
39
0
210
0
220
0
230
1
0
LINE
5
11C
100
AcDbEntity
8
SK2
62
256
6
ByLayer
370
13
48
1
60
0
100
AcDbLine
10
36.3
20
-15.702503
30
0
11
59.997215
21
-15.702503
31
0
39
0
210
0
220
0
230
1
0
SOLID
5
11D
100
AcDbEntity
8
SK2
62
256
6
ByLayer
370
13
48
1
60
0
100
AcDbTrace
10
46
20
-15.702503
30
0
11
49.499998
21
-15.241719
31
0
12
49.500002
22
-16.163287
32
0
13
46
23
-15.702503
33
0
39
0
210
0
220
0
230
1
0
SOLID
5
11E
100
AcDbEntity
8
SK2
62
256
6
ByLayer
370
13
48
1
60
0
100
AcDbTrace
10
45.05
20
-15.702503
30
0
11
41.550002
21
-16.163287
31
0
12
41.549998
22
-15.241719
32
0
13
45.05
23
-15.702503
33
0
39
0
210
0
220
0
230
1
0
ENDBLK
5
120
100
AcDbEntity
8
0
100
AcDbBlockEnd
0
BLOCK
5
129
100
AcDbEntity
8
0
100
AcDbBlockBegin
2
DimnDraft3D5
70
0
10
0
20
0
30
0
3
DimnDraft3D5
0
MTEXT
5
123
100
AcDbEntity
8
SK2
62
256
6
ByLayer
370
13
48
1
60
0
100
AcDbMText
10
-1.700508
20
-20.468428
30
0
210
0
220
0
230
1
1
\W0.6713;81,05
40
3.5
41
0
44
1.084337
50
0
71
7
72
5
7
iso_b_vert
0
LINE
5
124
100
AcDbEntity
8
SK2
62
256
6
ByLayer
370
13
48
1
60
0
100
AcDbLine
10
-36
20
-4.5875
30
0
11
-36
21
-23.343428
31
0
39
0
210
0
220
0
230
1
0
LINE
5
125
100
AcDbEntity
8
SK2
62
256
6
ByLayer
370
13
48
1
60
0
100
AcDbLine
10
45.05
20
-4.4875
30
0
11
45.05
21
-23.343428
31
0
39
0
210
0
220
0
230
1
0
LINE
5
126
100
AcDbEntity
8
SK2
62
256
6
ByLayer
370
13
48
1
60
0
100
AcDbLine
10
-36
20
-21.343428
30
0
11
45.05
21
-21.343428
31
0
39
0
210
0
220
0
230
1
0
SOLID
5
127
100
AcDbEntity
8
SK2
62
256
6
ByLayer
370
13
48
1
60
0
100
AcDbTrace
10
-36
20
-21.343428
30
0
11
-32.500002
21
-20.882645
31
0
12
-32.499998
22
-21.804212
32
0
13
-36
23
-21.343428
33
0
39
0
210
0
220
0
230
1
0
SOLID
5
128
100
AcDbEntity
8
SK2
62
256
6
ByLayer
370
13
48
1
60
0
100
AcDbTrace
10
45.05
20
-21.343428
30
0
11
41.550002
21
-21.804212
31
0
12
41.549998
22
-20.882645
32
0
13
45.05
23
-21.343428
33
0
39
0
210
0
220
0
230
1
0
ENDBLK
5
12A
100
AcDbEntity
8
0
100
AcDbBlockEnd
0
BLOCK
5
134
100
AcDbEntity
8
0
100
AcDbBlockBegin
2
DimnDraft3D6
70
0
10
0
20
0
30
0
3
DimnDraft3D6
0
MTEXT
5
12D
100
AcDbEntity
8
SK2
62
256
6
ByLayer
370
13
48
1
60
0
100
AcDbMText
10
-46.375163
20
22.34918
30
0
210
0
220
0
230
1
1
\W0.7317;6,000
40
3.5
41
0
44
1.084337
50
90
71
7
72
5
7
iso_b_vert
0
MTEXT
5
12E
100
AcDbEntity
8
SK2
62
256
6
ByLayer
370
13
48
1
60
0
100
AcDbMText
10
-46.375163
20
17.126524
30
0
210
0
220
0
230
1
1
%%c
40
3.5
41
0
44
1.084337
50
90
71
7
72
5
7
iso_b_vert
0
LINE
5
12F
100
AcDbEntity
8
SK2
62
256
6
ByLayer
370
13
48
1
60
0
100
AcDbLine
10
-37.5875
20
-3
30
0
11
-46.625163
21
-3
31
0
39
0
210
0
220
0
230
1
0
LINE
5
130
100
AcDbEntity
8
SK2
62
256
6
ByLayer
370
13
48
1
60
0
100
AcDbLine
10
-37.5875
20
3
30
0
11
-46.625163
21
3
31
0
39
0
210
0
220
0
230
1
0
LINE
5
131
100
AcDbEntity
8
SK2
62
256
6
ByLayer
370
13
48
1
60
0
100
AcDbLine
10
-44.625163
20
32.121549
30
0
11
-44.625163
21
-11.75
31
0
39
0
210
0
220
0
230
1
0
SOLID
5
132
100
AcDbEntity
8
SK2
62
256
6
ByLayer
370
13
48
1
60
0
100
AcDbTrace
10
-44.625163
20
-3
30
0
11
-44.164379
21
-6.499998
31
0
12
-45.085946
22
-6.500002
32
0
13
-44.625163
23
-3
33
0
39
0
210
0
220
0
230
1
0
SOLID
5
133
100
AcDbEntity
8
SK2
62
256
6
ByLayer
370
13
48
1
60
0
100
AcDbTrace
10
-44.625163
20
3
30
0
11
-45.085946
21
6.499998
31
0
12
-44.164379
22
6.500002
32
0
13
-44.625163
23
3
33
0
39
0
210
0
220
0
230
1
0
ENDBLK
5
135
100
AcDbEntity
8
0
100
AcDbBlockEnd
0
BLOCK
5
13F
100
AcDbEntity
8
0
100
AcDbBlockBegin
2
DimnDraft3D7
70
0
10
0
20
0
30
0
3
DimnDraft3D7
0
MTEXT
5
138
100
AcDbEntity
8
2
62
256
6
ByLayer
370
13
48
1
60
0
100
AcDbMText
10
56.333343
20
20.842266
30
0
210
0
220
0
230
1
1
\W0.7317;5,800
40
3.5
41
0
44
1.084337
50
90
71
7
72
5
7
iso_b_vert
0
MTEXT
5
139
100
AcDbEntity
8
2
62
256
6
ByLayer
370
13
48
1
60
0
100
AcDbMText
10
56.333343
20
15.61961
30
0
210
0
220
0
230
1
1
%%c
40
3.5
41
0
44
1.084337
50
90
71
7
72
5
7
iso_b_vert
0
LINE
5
13A
100
AcDbEntity
8
2
62
256
6
ByLayer
370
13
48
1
60
0
100
AcDbLine
10
46.6375
20
-2.9
30
0
11
60.083343
21
-2.9
31
0
39
0
210
0
220
0
230
1
0
LINE
5
13B
100
AcDbEntity
8
2
62
256
6
ByLayer
370
13
48
1
60
0
100
AcDbLine
10
46.6375
20
2.9
30
0
11
60.083343
21
2.9
31
0
39
0
210
0
220
0
230
1
0
LINE
5
13C
100
AcDbEntity
8
2
62
256
6
ByLayer
370
13
48
1
60
0
100
AcDbLine
10
58.083343
20
30.614635
30
0
11
58.083343
21
-11.65
31
0
39
0
210
0
220
0
230
1
0
SOLID
5
13D
100
AcDbEntity
8
2
62
256
6
ByLayer
370
13
48
1
60
0
100
AcDbTrace
10
58.083343
20
-2.9
30
0
11
58.544126
21
-6.399998
31
0
12
57.622559
22
-6.400002
32
0
13
58.083343
23
-2.9
33
0
39
0
210
0
220
0
230
1
0
SOLID
5
13E
100
AcDbEntity
8
2
62
256
6
ByLayer
370
13
48
1
60
0
100
AcDbTrace
10
58.083343
20
2.9
30
0
11
57.622559
21
6.399998
31
0
12
58.544126
22
6.400002
32
0
13
58.083343
23
2.9
33
0
39
0
210
0
220
0
230
1
0
ENDBLK
5
140
100
AcDbEntity
8
0
100
AcDbBlockEnd
0
ENDSEC
0
SECTION
2
ENTITIES
0
ARC
5
9A
100
AcDbEntity
8
1
62
256
6
ByLayer
370
18
48
1
60
0
100
AcDbCircle
39
0
10
0
20
2.8
30
0
40
0.200000000000001
210
0
220
0
230
1
100
AcDbArc
50
28.802636
51
90
0
ARC
5
9B
100
AcDbEntity
8
1
62
256
6
ByLayer
370
18
48
1
60
0
100
AcDbCircle
39
0
10
0
20
-2.8
30
0
40
0.200000000000001
210
0
220
0
230
1
100
AcDbArc
50
270
51
331.197364
0
ARC
5
9C
100
AcDbEntity
8
1
62
256
6
ByLayer
370
18
48
1
60
0
100
AcDbCircle
39
0
10
-0.350514
20
2.992718
30
0
40
0.200000000000001
210
0
220
0
230
-1
100
AcDbArc
50
269.86249
51
331.197364
0
ARC
5
9D
100
AcDbEntity
8
1
62
256
6
ByLayer
370
18
48
1
60
0
100
AcDbCircle
39
0
10
-0.350514
20
-2.992718
30
0
40
0.200000000000001
210
0
220
0
230
-1
100
AcDbArc
50
28.802636
51
90.13751
0
ELLIPSE
5
9E
100
AcDbEntity
8
1
62
256
6
ByLayer
370
18
48
1
60
0
100
AcDbEllipse
10
45.943496
20
0.089449
30
0
11
0.11126732435002
21
0.166605077301332
31
0
210
0
220
0
230
-1
40
0.487455
41
-2.11736978757285
42
-1.00035906631109
0
ELLIPSE
5
9F
100
AcDbEntity
8
1
62
256
6
ByLayer
370
18
48
1
60
0
100
AcDbEllipse
10
44.796124
20
0.972501
30
0
11
1.14371743434592
21
-0.742357563496866
31
0
210
0
220
0
230
-1
40
0.12325
41
-0.0798284006737666
42
0.0403034310346981
0
ELLIPSE
5
A0
100
AcDbEntity
8
1
62
256
6
ByLayer
370
13
48
1
60
0
100
AcDbEllipse
10
46.030326
20
1.51904
30
0
11
1.59456870884592
21
-0.789794088153021
31
0
210
0
220
0
230
-1
40
0.715108
41
1.84170958547083
42
1.9385266324174
0
ELLIPSE
5
A1
100
AcDbEntity
8
1
62
256
6
ByLayer
370
13
48
1
60
0
100
AcDbEllipse
10
4.178844
20
-0.430056
30
0
11
0.0397445546139276
21
0.0917625761328687
31
0
210
0
220
0
230
1
40
0.490145
41
1.6350959668319
42
2.94153407696888
0
ELLIPSE
5
A2
100
AcDbEntity
8
1
62
256
6
ByLayer
370
13
48
1
60
0
100
AcDbEllipse
10
45.186626
20
0.671959
30
0
11
0.121981890157828
21
0.158494222208646
31
0
210
0
220
0
230
1
40
0.455639
41
0.912984858149026
42
2.15012741233617
0
ELLIPSE
5
A3
100
AcDbEntity
8
1
62
256
6
ByLayer
370
13
48
1
60
0
100
AcDbEllipse
10
4.250527
20
-0.46463
30
0
11
0.0467336082004345
21
0.088407973987465
31
0
210
0
220
0
230
1
40
0.075918
41
1.42072409984251
42
2.96515541378599
0
POINT
5
6C
100
AcDbEntity
8
81
62
256
6
ByLayer
370
18
48
1
60
0
100
AcDbPoint
10
46
20
0
30
0
39
0
210
0
220
0
230
1
50
360
0
POINT
5
6E
100
AcDbEntity
8
80
62
256
6
ByLayer
370
18
48
1
60
0
100
AcDbPoint
10
0
20
0
30
0
39
0
210
0
220
0
230
1
50
360
0
POINT
5
70
100
AcDbEntity
8
SK2
62
256
6
ByLayer
370
18
48
1
60
1
100
AcDbPoint
10
-36
20
-3
30
0
39
0
210
0
220
0
230
1
50
360
0
POINT
5
72
100
AcDbEntity
8
SK2
62
256
6
ByLayer
370
18
48
1
60
1
100
AcDbPoint
10
-36
20
3
30
0
39
0
210
0
220
0
230
1
50
360
0
POINT
5
73
100
AcDbEntity
8
2
62
256
6
ByLayer
370
18
48
1
60
1
100
AcDbPoint
10
45.05
20
-2.9
30
0
39
0
210
0
220
0
230
1
50
360
0
POINT
5
75
100
AcDbEntity
8
2
62
256
6
ByLayer
370
18
48
1
60
1
100
AcDbPoint
10
45.05
20
2.9
30
0
39
0
210
0
220
0
230
1
50
360
0
SPLINE
5
A4
100
AcDbEntity
8
1
62
256
6
ByLayer
370
18
48
1
60
0
100
AcDbSpline
70
4
71
3
72
20
73
16
40
0
40
0
40
0
40
0
40
0.0584242637127152
40
0.148445598952762
40
0.24761400835801
40
0.331254976163178
40
0.393441366229792
40
0.444937876026794
40
0.515368068586517
40
0.618059881156889
40
0.723576460224136
40
0.811793930940874
40
0.867875399495718
40
0.948608074240938
40
1
40
1
40
1
40
1
41
1
10
34.5287855998873
20
2.75829966484426
30
0
41
1
10
34.4258595803141
20
2.75792784556305
30
0
41
1
10
34.1628076262521
20
2.75702340347397
30
0
41
1
10
33.7113776065477
20
2.75086112217861
30
0
41
1
10
33.2190553153868
20
2.7554825018052
30
0
41
1
10
32.7841929195342
20
2.75556401221343
30
0
41
1
10
32.4259306933711
20
2.75304543830384
30
0
41
1
10
32.092462556392
20
2.75336468872916
30
0
41
1
10
31.685047689414
20
2.75312210108322
30
0
41
1
10
31.1795161368596
20
2.75031002445957
30
0
41
1
10
30.6416800926536
20
2.75033458353039
30
0
41
1
10
30.1884284682925
20
2.74881887419156
30
0
41
1
10
29.7801275242656
20
2.74751716189496
30
0
41
1
10
29.4386951402683
20
2.74711628786713
30
0
41
1
10
29.1989668867524
20
2.74651697362378
30
0
41
1
10
29.1057209076735
20
2.74626382883614
30
0
0
SPLINE
5
A5
100
AcDbEntity
8
1
62
256
6
ByLayer
370
18
48
1
60
0
100
AcDbSpline
70
4
71
3
72
17
73
13
40
0
40
0
40
0
40
0
40
0.0128092592877252
40
0.0348401433556292
40
0.0963925296235397
40
0.194012996959213
40
0.33251208425465
40
0.495101885197142
40
0.627382261677384
40
0.726061782740087
40
0.847331336256117
40
1
40
1
40
1
40
1
41
1
10
36.0521133776938
20
-0.650130875883605
30
0
41
1
10
36.0523244616389
20
-0.650195012238385
30
0
41
1
10
36.0566892646353
20
-0.650808482500167
30
0
41
1
10
36.0941873277013
20
-0.655896904120397
30
0
41
1
10
36.207975927363
20
-0.673297115435162
30
0
41
1
10
36.3824990026753
20
-0.706821461887159
30
0
41
1
10
36.620637934947
20
-0.761895581258642
30
0
41
1
10
36.8988907528104
20
-0.84934760149801
30
0
41
1
10
37.1869157955405
20
-0.954744736788086
30
0
41
1
10
37.457178022976
20
-1.06292425248773
30
0
41
1
10
37.7603307563635
20
-1.19673276249139
30
0
41
1
10
37.9845134616331
20
-1.30313511342862
30
0
41
1
10
38.1112406175992
20
-1.36585312729127
30
0
0
SPLINE
5
A6
100
AcDbEntity
8
1
62
256
6
ByLayer
370
18
48
1
60
0
100
AcDbSpline
70
4
71
3
72
19
73
15
40
0
40
0
40
0
40
0
40
0.129395432525707
40
0.234305452925892
40
0.321695658819338
40
0.397744216575337
40
0.462747751788025
40
0.519337256019381
40
0.568341783976394
40
0.615270947645582
40
0.680672746594249
40
0.769065603099541
40
0.889589620540409
40
1
40
1
40
1
40
1
41
1
10
27.8636293931891
20
-2.74313527784238
30
0
41
1
10
28.1471274293536
20
-2.74335054219392
30
0
41
1
10
28.660875815409
20
-2.74405071496238
30
0
41
1
10
29.3704797307282
20
-2.74634401872356
30
0
41
1
10
29.9581197402755
20
-2.74792853332028
30
0
41
1
10
30.4608640533692
20
-2.74991442083385
30
0
41
1
10
30.895910305139
20
-2.75036292617551
30
0
41
1
10
31.2713779646905
20
-2.75097405995135
30
0
41
1
10
31.6070865259975
20
-2.75273536601912
30
0
41
1
10
31.962218500077
20
-2.75335787038537
30
0
41
1
10
32.4035591548855
20
-2.75281408750649
30
0
41
1
10
33.0069404047909
20
-2.7561984024307
30
0
41
1
10
33.7100121923928
20
-2.75598470885706
30
0
41
1
10
34.2179417158812
20
-2.75770466529434
30
0
41
1
10
34.4607486714112
20
-2.75854826589395
30
0
0
SPLINE
5
A7
100
AcDbEntity
8
1
62
256
6
ByLayer
370
18
48
1
60
0
100
AcDbSpline
70
4
71
3
72
9
73
5
40
0
40
0
40
0
40
0
40
0.243363209615467
40
1
40
1
40
1
40
1
41
1
10
10.1550227287166
20
-0.121900208628404
30
0
41
1
10
10.1551537379183
20
-0.121850992634677
30
0
41
1
10
10.1519109114201
20
-0.119994810116708
30
0
41
1
10
10.129151185314
20
-0.109354900785547
30
0
41
1
10
10.1045017432208
20
-0.0970679065088973
30
0
0
SPLINE
5
A8
100
AcDbEntity
8
1
62
256
6
ByLayer
370
18
48
1
60
0
100
AcDbSpline
70
4
71
3
72
8
73
4
40
0
40
0
40
0
40
0
40
1
40
1
40
1
40
1
41
1
10
10.060541311527
20
-0.0746196626448352
30
0
41
1
10
10.0354235679292
20
-0.0615481349501579
30
0
41
1
10
10.0058937203828
20
-0.0458852758554826
30
0
41
1
10
9.97125893719607
20
-0.0274845142238007
30
0
0
SPLINE
5
A9
100
AcDbEntity
8
1
62
256
6
ByLayer
370
18
48
1
60
0
100
AcDbSpline
70
4
71
3
72
16
73
12
40
0
40
0
40
0
40
0
40
0.122068243997439
40
0.249315570927066
40
0.365649206848415
40
0.462059643049712
40
0.663865240353668
40
0.718938219679381
40
0.798140750445855
40
0.90674747345485
40
1
40
1
40
1
40
1
41
1
10
11.5111428051161
20
-2.70302052444157
30
0
41
1
10
11.7766384882723
20
-2.70262944918741
30
0
41
1
10
12.3199954723742
20
-2.70262104832113
30
0
41
1
10
13.1248710911183
20
-2.7073023575482
30
0
41
1
10
13.8679293493177
20
-2.70966542227924
30
0
41
1
10
14.7803317930349
20
-2.71147295511889
30
0
41
1
10
15.5565284382374
20
-2.71373148206624
30
0
41
1
10
16.2952548222144
20
-2.71510223451372
30
0
41
1
10
16.8291709941315
20
-2.71813792343221
30
0
41
1
10
17.4469566098132
20
-2.71778853934913
30
0
41
1
10
17.8906762477686
20
-2.71926264337822
30
0
41
1
10
18.0956605631105
20
-2.71996041421872
30
0
0
SPLINE
5
AA
100
AcDbEntity
8
1
62
256
6
ByLayer
370
18
48
1
60
0
100
AcDbSpline
70
4
71
3
72
16
73
12
40
0
40
0
40
0
40
0
40
0.0283577371105629
40
0.0890632758778618
40
0.198013694618536
40
0.330694774703459
40
0.496419928290843
40
0.629915135962437
40
0.741155924944582
40
0.872364592685391
40
1
40
1
40
1
40
1
41
1
10
19.7295615265255
20
-0.653544243585401
30
0
41
1
10
19.7296746105839
20
-0.653857455099427
30
0
41
1
10
19.7418319036253
20
-0.655685090914034
30
0
41
1
10
19.8437862873927
20
-0.669534573190816
30
0
41
1
10
20.0078134942805
20
-0.701534080237025
30
0
41
1
10
20.2538855996959
20
-0.759055324731861
30
0
41
1
10
20.5208006240462
20
-0.838530223061866
30
0
41
1
10
20.8093948918317
20
-0.94411286517618
30
0
41
1
10
21.0971773751065
20
-1.05981230241869
30
0
41
1
10
21.3922063372373
20
-1.18770180254211
30
0
41
1
10
21.5979770084992
20
-1.2857032544627
30
0
41
1
10
21.7000653220754
20
-1.33626228076824
30
0
0
SPLINE
5
AB
100
AcDbEntity
8
1
62
256
6
ByLayer
370
18
48
1
60
0
100
AcDbSpline
70
4
71
2
72
6
73
3
40
0
40
0
40
0
40
1
40
1
40
1
41
1
10
44.2165131790736
20
-2.78205735376054
30
0
41
1
10
44.5952959266894
20
-2.78132992118421
30
0
41
1
10
44.9725660716346
20
-2.78451372004955
30
0
0
SPLINE
5
AC
100
AcDbEntity
8
1
62
256
6
ByLayer
370
18
48
1
60
0
100
AcDbSpline
70
4
71
3
72
8
73
4
40
0
40
0
40
0
40
0
40
1
40
1
40
1
40
1
41
1
10
42.7156993784877
20
-0.0512401281274322
30
0
41
1
10
42.6844145650269
20
-0.0349524581082505
30
0
41
1
10
42.6488215222422
20
-0.016253620117169
30
0
41
1
10
42.6081221139295
20
0.0051868918106095
30
0
0
SPLINE
5
AD
100
AcDbEntity
8
1
62
256
6
ByLayer
370
18
48
1
60
0
100
AcDbSpline
70
4
71
3
72
15
73
11
40
0
40
0
40
0
40
0
40
0.115385642610969
40
0.249969466101588
40
0.348116055238962
40
0.416361665854728
40
0.666436137623227
40
0.785906505284827
40
0.930065403455548
40
1
40
1
40
1
40
1
41
1
10
18.0947479597417
20
2.71995790382371
30
0
41
1
10
17.8900678495217
20
2.71926127532984
30
0
41
1
10
17.4466524178709
20
2.71778835186981
30
0
41
1
10
16.8291709951542
20
2.71813799655254
30
0
41
1
10
16.295254822061
20
2.71510222378609
30
0
41
1
10
15.5565284383804
20
2.71373149241401
30
0
41
1
10
14.7803317930084
20
2.71147295332051
30
0
41
1
10
13.8679293493235
20
2.70966542268692
30
0
41
1
10
13.279630801793
20
2.70779452245739
30
0
41
1
10
12.9001149918676
20
2.70587653926299
30
0
41
1
10
12.776153877084
20
2.70528016677446
30
0
0
SPLINE
5
AE
100
AcDbEntity
8
1
62
256
6
ByLayer
370
18
48
1
60
0
100
AcDbSpline
70
4
71
3
72
10
73
6
40
0
40
0
40
0
40
0
40
0.234730060873395
40
0.598915183303509
40
1
40
1
40
1
40
1
41
1
10
26.5143130994606
20
-0.126152338849096
30
0
41
1
10
26.5144634772559
20
-0.126055502155111
30
0
41
1
10
26.5062257985374
20
-0.121850208591638
30
0
41
1
10
26.4352126540392
20
-0.0877320865162403
30
0
41
1
10
26.3523888072892
20
-0.0441506176425719
30
0
41
1
10
26.2987204148371
20
-0.0157105470489114
30
0
0
SPLINE
5
AF
100
AcDbEntity
8
1
62
256
6
ByLayer
370
18
48
1
60
0
100
AcDbSpline
70
4
71
3
72
8
73
4
40
0
40
0
40
0
40
0
40
1
40
1
40
1
40
1
41
1
10
45.9603613302094
20
-0.0529737072586158
30
0
41
1
10
45.8509221741376
20
-0.353655317370141
30
0
41
1
10
45.7414830180658
20
-0.654336927481666
30
0
41
1
10
45.632043861994
20
-0.95501853759319
30
0
0
SPLINE
5
B0
100
AcDbEntity
8
1
62
256
6
ByLayer
370
18
48
1
60
0
100
AcDbSpline
70
4
71
3
72
14
73
10
40
0
40
0
40
0
40
0
40
0.25
40
0.25
40
0.5
40
0.5
40
0.75
40
0.75
40
1
40
1
40
1
40
1
41
1
10
44.9300516447547
20
0.738914477584274
30
0
41
1
10
44.9216520647989
20
0.760759195282958
30
0
41
1
10
44.9149672432793
20
0.783007099140946
30
0
41
1
10
44.9065105511192
20
0.828635297549511
30
0
41
1
10
44.9046729306003
20
0.852266993356352
30
0
41
1
10
44.9101265353725
20
0.898640567640371
30
0
41
1
10
44.9177727495683
20
0.921588495315405
30
0
41
1
10
44.947349207717
20
0.956767362604893
30
0
41
1
10
44.9691908913873
20
0.967573827406881
30
0
41
1
10
44.9920695648454
20
0.971170910107475
30
0
0
SPLINE
5
B1
100
AcDbEntity
8
1
62
256
6
ByLayer
370
18
48
1
60
0
100
AcDbSpline
70
4
71
3
72
62
73
58
40
0
40
0
40
0
40
0
40
0.0674556584007679
40
0.0674556584007679
40
0.101183487601152
40
0.101183487601152
40
0.134911316801537
40
0.134911316801537
40
0.168639146001921
40
0.168639146001921
40
0.202366975202306
40
0.202366975202306
40
0.23609480440269
40
0.23609480440269
40
0.269822633603075
40
0.269822633603075
40
0.303550462803459
40
0.303550462803459
40
0.337278292003844
40
0.337278292003844
40
0.371006121204228
40
0.371006121204228
40
0.404733950404612
40
0.404733950404612
40
0.438461779604997
40
0.438461779604997
40
0.472189608805381
40
0.472189608805381
40
0.505917438005766
40
0.505917438005766
40
0.53964526720615
40
0.53964526720615
40
0.573373096406535
40
0.573373096406535
40
0.607100925606919
40
0.607100925606919
40
0.640828754807304
40
0.640828754807304
40
0.674556584007688
40
0.674556584007688
40
0.742012242408457
40
0.742012242408457
40
0.775740071608842
40
0.775740071608842
40
0.809467900809226
40
0.809467900809226
40
0.843195730009611
40
0.843195730009611
40
0.876923559209996
40
0.876923559209996
40
0.910651388410381
40
0.910651388410381
40
0.944379217610766
40
0.944379217610766
40
0.978107046811151
40
0.978107046811151
40
1
40
1
40
1
40
1
41
1
10
12.0145120454977
20
2.76299900214997
30
0
41
1
10
12.3593471849281
20
2.72571099453859
30
0
41
1
10
12.7054036920846
20
2.67135586579028
30
0
41
1
10
13.2225167544173
20
2.5632111385319
30
0
41
1
10
13.3943729106515
20
2.52241143148663
30
0
41
1
10
13.7396890260993
20
2.43340905821663
30
0
41
1
10
13.9130296961548
20
2.3849641810327
30
0
41
1
10
14.258719397842
20
2.28049050508696
30
0
41
1
10
14.4310502908822
20
2.22422335893171
30
0
41
1
10
14.7750969321589
20
2.1039105116746
30
0
41
1
10
14.947417656072
20
2.04059933723801
30
0
41
1
10
15.2926119734055
20
1.90780577817327
30
0
41
1
10
15.4654601148038
20
1.83830219832055
30
0
41
1
10
15.8110813798747
20
1.69210619052362
30
0
41
1
10
15.9831140549427
20
1.61540512902005
30
0
41
1
10
16.3279387792326
20
1.45881755742278
30
0
41
1
10
16.5004536009092
20
1.37846440324483
30
0
41
1
10
16.8453419134029
20
1.21313050893482
30
0
41
1
10
17.0175073105426
20
1.12779300206049
30
0
41
1
10
17.361930248721
20
0.952718525578092
30
0
41
1
10
17.5349540514487
20
0.863881054574421
30
0
41
1
10
17.8804376189955
20
0.684416942368472
30
0
41
1
10
18.0530318034604
20
0.593720306972216
30
0
41
1
10
18.3973080173853
20
0.409264571503798
30
0
41
1
10
18.5689292073892
20
0.315380428088588
30
0
41
1
10
18.9135755846901
20
0.128784781811674
30
0
41
1
10
19.0862722291554
20
0.0354781720054689
30
0
41
1
10
19.4320600217909
20
-0.151811529081925
30
0
41
1
10
19.6043975915542
20
-0.24595437321139
30
0
41
1
10
19.9483619972474
20
-0.433345958263629
30
0
41
1
10
20.1205951781761
20
-0.525666096315859
30
0
41
1
10
20.4652767281406
20
-0.708131499272923
30
0
41
1
10
20.6377416149017
20
-0.798249104199698
30
0
41
1
10
20.9822845722056
20
-0.977342056371896
30
0
41
1
10
21.1545962402687
20
-1.0663524840916
30
0
41
1
10
21.4995911454179
20
-1.23832697356076
30
0
41
1
10
21.6720642174705
20
-1.32194127104509
30
0
41
1
10
22.0165965699987
20
-1.48507715833011
30
0
41
1
10
22.1883963290954
20
-1.56499216360282
30
0
41
1
10
22.7040108049711
20
-1.79706132606057
30
0
41
1
10
23.0508558975592
20
-1.93899277615526
30
0
41
1
10
23.5669142537062
20
-2.13422614961337
30
0
41
1
10
23.7384380281613
20
-2.19623746933246
30
0
41
1
10
24.0826235220567
20
-2.31168377104797
30
0
41
1
10
24.2549695502346
20
-2.36553298712892
30
0
41
1
10
24.5997886381429
20
-2.46587753628484
30
0
41
1
10
24.7722008542545
20
-2.51265380479842
30
0
41
1
10
25.1163225840916
20
-2.59751210114811
30
0
41
1
10
25.2885579468511
20
-2.63532540086453
30
0
41
1
10
25.632946660348
20
-2.70232372903013
30
0
41
1
10
25.8051424332222
20
-2.73148806324696
30
0
41
1
10
26.148852869069
20
-2.7813154706825
30
0
41
1
10
26.3205672848917
20
-2.8018073229791
30
0
41
1
10
26.6656653382274
20
-2.8332472294243
30
0
41
1
10
26.8383000667666
20
-2.84430827979557
30
0
41
1
10
27.122262829303
20
-2.85496709892533
30
0
41
1
10
27.2337669948707
20
-2.85722044940545
30
0
41
1
10
27.3452027981043
20
-2.8574991704269
30
0
0
SPLINE
5
B2
100
AcDbEntity
8
1
62
256
6
ByLayer
370
18
48
1
60
0
100
AcDbSpline
70
4
71
3
72
28
73
24
40
0
40
0
40
0
40
0
40
0.0643119601653585
40
0.0643119601653585
40
0.149374509241234
40
0.149374509241234
40
0.234437058317109
40
0.234437058317109
40
0.319499607392984
40
0.319499607392984
40
0.40456215646886
40
0.40456215646886
40
0.489624705544734
40
0.489624705544734
40
0.57468725462061
40
0.57468725462061
40
0.659749803696485
40
0.659749803696485
40
0.82987490184824
40
0.82987490184824
40
0.91493745092412
40
0.91493745092412
40
1
40
1
40
1
40
1
41
1
10
38.9974390836104
20
1.77556334784063
30
0
41
1
10
39.1272616107196
20
1.83271025285796
30
0
41
1
10
39.2572595059895
20
1.88818973726259
30
0
41
1
10
39.5592090583164
20
2.01191352650807
30
0
41
1
10
39.7310877340954
20
2.07891588211885
30
0
41
1
10
40.0742780165401
20
2.20658099221132
30
0
41
1
10
40.2452509259236
20
2.26759863174365
30
0
41
1
10
40.5880508827174
20
2.38146738815013
30
0
41
1
10
40.7600050007502
20
2.43424064958828
30
0
41
1
10
41.1045006518851
20
2.53208443015376
30
0
41
1
10
41.2764243633616
20
2.57695294940876
30
0
41
1
10
41.6189593639685
20
2.65885079860672
30
0
41
1
10
41.7900847377334
20
2.69545488977562
30
0
41
1
10
42.1332101505189
20
2.75939196297932
30
0
41
1
10
42.3049941762881
20
2.78689899047549
30
0
41
1
10
42.648574106354
20
2.83313714855339
30
0
41
1
10
42.8201890367498
20
2.85194505444528
30
0
41
1
10
43.3348489845393
20
2.89377216109389
30
0
41
1
10
43.6787340653576
20
2.90286183646543
30
0
41
1
10
44.1927861013589
20
2.88829563869015
30
0
41
1
10
44.3645581582844
20
2.87864529754242
30
0
41
1
10
44.7082635280827
20
2.85026314408589
30
0
41
1
10
44.8800468975264
20
2.8315287120906
30
0
41
1
10
45.051542365841
20
2.80817318214869
30
0
0
SPLINE
5
B3
100
AcDbEntity
8
1
62
256
6
ByLayer
370
18
48
1
60
0
100
AcDbSpline
70
4
71
3
72
10
73
6
40
0
40
0
40
0
40
0
40
0.5
40
0.5
40
1
40
1
40
1
40
1
41
1
10
45.9594848363029
20
0.211121740317623
30
0
41
1
10
45.9633505387575
20
0.185731480337694
30
0
41
1
10
45.9687916954077
20
0.158017312559338
30
0
41
1
10
45.9823481255569
20
0.0986539401266953
30
0
41
1
10
45.9905646598705
20
0.0667214165987389
30
0
41
1
10
45.9999255025083
20
0.0341003852685731
30
0
0
SPLINE
5
B4
100
AcDbEntity
8
1
62
256
6
ByLayer
370
18
48
1
60
0
100
AcDbSpline
70
4
71
3
72
8
73
4
40
0
40
0
40
0
40
0
40
1
40
1
40
1
40
1
41
1
10
45.051542365841
20
2.80817318214872
30
0
41
1
10
45.0382607635851
20
2.82389319835954
30
0
41
1
10
45.0257769886324
20
2.83767672244289
30
0
41
1
10
45.0140715629311
20
2.84946952719426
30
0
0
SPLINE
5
B5
100
AcDbEntity
8
1
62
256
6
ByLayer
370
18
48
1
60
0
100
AcDbSpline
70
4
71
3
72
8
73
4
40
0
40
0
40
0
40
0
40
1
40
1
40
1
40
1
41
1
10
45.0209768434157
20
-2.83187764825155
30
0
41
1
10
45.0186756859458
20
-2.8377421064759
30
0
41
1
10
45.0163739167668
20
-2.84360607382385
30
0
41
1
10
45.0140715629311
20
-2.84946952719426
30
0
0
SPLINE
5
B6
100
AcDbEntity
8
1
62
256
6
ByLayer
370
18
48
1
60
0
100
AcDbSpline
70
4
71
3
72
58
73
54
40
0
40
0
40
0
40
0
40
0.0719062225527819
40
0.0719062225527819
40
0.107859333829173
40
0.107859333829173
40
0.143812445105564
40
0.143812445105564
40
0.179765556381955
40
0.179765556381955
40
0.215718667658346
40
0.215718667658346
40
0.251671778934737
40
0.251671778934737
40
0.287624890211128
40
0.287624890211128
40
0.323578001487518
40
0.323578001487518
40
0.359531112763909
40
0.359531112763909
40
0.431437335316692
40
0.431437335316692
40
0.467390446593084
40
0.467390446593084
40
0.503343557869475
40
0.503343557869475
40
0.539296669145867
40
0.539296669145867
40
0.575249780422258
40
0.575249780422258
40
0.61120289169865
40
0.61120289169865
40
0.647156002975041
40
0.647156002975041
40
0.683109114251433
40
0.683109114251433
40
0.719062225527824
40
0.719062225527824
40
0.755015336804216
40
0.755015336804216
40
0.790968448080607
40
0.790968448080607
40
0.826921559356999
40
0.826921559356999
40
0.86287467063339
40
0.86287467063339
40
0.898827781909781
40
0.898827781909781
40
0.934780893186173
40
0.934780893186173
40
0.970734004462564
40
0.970734004462564
40
1
40
1
40
1
40
1
41
1
10
7.05062522750387
20
1.41009428296388
30
0
41
1
10
7.42518644755381
20
1.24447485946621
30
0
41
1
10
7.79906285217643
20
1.0702591627882
30
0
41
1
10
8.359125879045
20
0.795854543716985
30
0
41
1
10
8.54584927185664
20
0.702478559542755
30
0
41
1
10
8.92024943281766
20
0.513954458111499
30
0
41
1
10
9.10784090003887
20
0.418469167686311
30
0
41
1
10
9.48172537388288
20
0.226020495688886
30
0
41
1
10
9.66817594872359
20
0.128773976479778
30
0
41
1
10
10.041591839028
20
-0.0648490171602418
30
0
41
1
10
10.2284051525364
20
-0.161517362460415
30
0
41
1
10
10.6022476849147
20
-0.354567881035081
30
0
41
1
10
10.7894311785452
20
-0.451258423755974
30
0
41
1
10
11.1634553564841
20
-0.64203599305344
30
0
41
1
10
11.3503958222566
20
-0.736001279325507
30
0
41
1
10
11.723904106392
20
-0.920823028309428
30
0
41
1
10
11.9104684681446
20
-1.01154079993762
30
0
41
1
10
12.2836574489229
20
-1.18953063002596
30
0
41
1
10
12.4705516691736
20
-1.27634664944213
30
0
41
1
10
13.0323641351353
20
-1.52984045705861
30
0
41
1
10
13.4048499334841
20
-1.68683816351407
30
0
41
1
10
13.9646798647376
20
-1.90316864706085
30
0
41
1
10
14.1513845831943
20
-1.97176356529118
30
0
41
1
10
14.5252200147201
20
-2.10039886230146
30
0
41
1
10
14.7121759911746
20
-2.16110928959824
30
0
41
1
10
15.0857182365878
20
-2.27411029893224
30
0
41
1
10
15.2723958319896
20
-2.32703637520291
30
0
41
1
10
15.6455134910926
20
-2.42157153898066
30
0
41
1
10
15.8319015141338
20
-2.46402873628492
30
0
41
1
10
16.2052571918202
20
-2.54036664526188
30
0
41
1
10
16.3926010642886
20
-2.57459670322135
30
0
41
1
10
16.7662540548125
20
-2.63179908474908
30
0
41
1
10
16.9526599367844
20
-2.65413312107037
30
0
41
1
10
17.3251932673639
20
-2.68996268355753
30
0
41
1
10
17.5115758540226
20
-2.70325775272946
30
0
41
1
10
17.8847306618211
20
-2.72044110043302
30
0
41
1
10
18.0717121119034
20
-2.7225279826547
30
0
41
1
10
18.445305122092
20
-2.7161757186586
30
0
41
1
10
18.6317290969809
20
-2.70798757449828
30
0
41
1
10
19.0048034586217
20
-2.68274872502298
30
0
41
1
10
19.1912607101374
20
-2.66531279121418
30
0
41
1
10
19.5641928050254
20
-2.61745757371676
30
0
41
1
10
19.7505673111306
20
-2.58822706864751
30
0
41
1
10
20.1244530034456
20
-2.52131828937095
30
0
41
1
10
20.3113101540442
20
-2.48387300083343
30
0
41
1
10
20.684269391849
20
-2.39766823651061
30
0
41
1
10
20.8703886526273
20
-2.349009933345
30
0
41
1
10
21.242888216837
20
-2.24407868901264
30
0
41
1
10
21.4294147104376
20
-2.18806123517405
30
0
41
1
10
21.8029605994757
20
-2.06669789355845
30
0
41
1
10
21.9899050782054
20
-2.00106278051291
30
0
41
1
10
22.3279243832733
20
-1.87547097111232
30
0
41
1
10
22.4795756753124
20
-1.81717430777346
30
0
41
1
10
22.6312561187196
20
-1.75676680996284
30
0
0
SPLINE
5
B7
100
AcDbEntity
8
1
62
256
6
ByLayer
370
18
48
1
60
0
100
AcDbSpline
70
4
71
3
72
34
73
30
40
0
40
0
40
0
40
0
40
0.0600237833267873
40
0.0600237833267873
40
0.127164941660588
40
0.127164941660588
40
0.194306099994389
40
0.194306099994389
40
0.26144725832819
40
0.26144725832819
40
0.328588416661991
40
0.328588416661991
40
0.395729574995791
40
0.395729574995791
40
0.462870733329593
40
0.462870733329593
40
0.530011891663393
40
0.530011891663393
40
0.597153049997194
40
0.597153049997194
40
0.664294208330995
40
0.664294208330995
40
0.731435366664796
40
0.731435366664796
40
0.798576524998597
40
0.798576524998597
40
0.865717683332398
40
0.865717683332398
40
1
40
1
40
1
40
1
41
1
10
34.5298507679484
20
2.75895707077635
30
0
41
1
10
34.6964036980824
20
2.7574976865607
30
0
41
1
10
34.8625195441554
20
2.75166152966705
30
0
41
1
10
35.2146160366909
20
2.73178128369187
30
0
41
1
10
35.4005409494797
20
2.71638143761894
30
0
41
1
10
35.7724436250155
20
2.67383981370418
30
0
41
1
10
35.9583685706156
20
2.64707737464141
30
0
41
1
10
36.3306946090992
20
2.58452911805634
30
0
41
1
10
36.517088283331
20
2.54935383242366
30
0
41
1
10
36.8889948467381
20
2.46770456506252
30
0
41
1
10
37.0747042265929
20
2.42151046017119
30
0
41
1
10
37.4458633668055
20
2.31966458803319
30
0
41
1
10
37.631558768901
20
2.26419856971822
30
0
41
1
10
38.0038211350751
20
2.14512738148417
30
0
41
1
10
38.1903753584206
20
2.08137861267269
30
0
41
1
10
38.5622192560751
20
1.9465382427048
30
0
41
1
10
38.7476916016926
20
1.87536299996933
30
0
41
1
10
39.1191240294892
20
1.72650056036082
30
0
41
1
10
39.3049196310128
20
1.64845836505549
30
0
41
1
10
39.6767641134759
20
1.48560987850684
30
0
41
1
10
39.8629086553017
20
1.40054944466561
30
0
41
1
10
40.2348554712638
20
1.22625080106431
30
0
41
1
10
40.4207152717846
20
1.13697272623384
30
0
41
1
10
40.7921819473129
20
0.954153175881487
30
0
41
1
10
40.9777372862225
20
0.860571941196781
30
0
41
1
10
41.3489619003345
20
0.670049454338965
30
0
41
1
10
41.5350999933922
20
0.573531671796729
30
0
41
1
10
42.0936890878382
20
0.281012573434396
30
0
41
1
10
42.4639315875663
20
0.0818048373740226
30
0
41
1
10
42.8350985719536
20
-0.11580335855939
30
0
0
SPLINE
5
B8
100
AcDbEntity
8
1
62
256
6
ByLayer
370
18
48
1
60
0
100
AcDbSpline
70
4
71
3
72
82
73
78
40
0
40
0
40
0
40
0
40
0.0363617746485477
40
0.0363617746485477
40
0.0607954102694186
40
0.0607954102694186
40
0.0852290458902896
40
0.0852290458902896
40
0.109662681511161
40
0.109662681511161
40
0.134096317132031
40
0.134096317132031
40
0.158529952752902
40
0.158529952752902
40
0.182963588373773
40
0.182963588373773
40
0.207397223994644
40
0.207397223994644
40
0.231830859615515
40
0.231830859615515
40
0.256264495236386
40
0.256264495236386
40
0.280698130857257
40
0.280698130857257
40
0.305131766478128
40
0.305131766478128
40
0.329565402098999
40
0.329565402098999
40
0.35399903771987
40
0.35399903771987
40
0.378432673340741
40
0.378432673340741
40
0.402866308961612
40
0.402866308961612
40
0.427299944582482
40
0.427299944582482
40
0.451733580203353
40
0.451733580203353
40
0.476167215824224
40
0.476167215824224
40
0.525034487065966
40
0.525034487065966
40
0.549468122686837
40
0.549468122686837
40
0.573901758307708
40
0.573901758307708
40
0.598335393928578
40
0.598335393928578
40
0.622769029549449
40
0.622769029549449
40
0.64720266517032
40
0.64720266517032
40
0.671636300791191
40
0.671636300791191
40
0.696069936412062
40
0.696069936412062
40
0.720503572032933
40
0.720503572032933
40
0.769370843274675
40
0.769370843274675
40
0.793804478895545
40
0.793804478895545
40
0.818238114516415
40
0.818238114516415
40
0.842671750137285
40
0.842671750137285
40
0.867105385758155
40
0.867105385758155
40
0.891539021379026
40
0.891539021379026
40
0.915972656999896
40
0.915972656999896
40
0.940406292620766
40
0.940406292620766
40
0.964839928241636
40
0.964839928241636
40
1
40
1
40
1
40
1
41
1
10
22.6246773874904
20
1.75863074282157
30
0
41
1
10
22.8813474870642
20
1.86893275924407
30
0
41
1
10
23.1388980008674
20
1.97230055352279
30
0
41
1
10
23.5669142537048
20
2.13422614961286
30
0
41
1
10
23.7384380281599
20
2.19623746933198
30
0
41
1
10
24.0826235220554
20
2.31168377104754
30
0
41
1
10
24.2549695502333
20
2.36553298712852
30
0
41
1
10
24.5997886381415
20
2.46587753628447
30
0
41
1
10
24.7722008542532
20
2.51265380479808
30
0
41
1
10
25.1163225840903
20
2.5975121011478
30
0
41
1
10
25.2885579468499
20
2.63532540086428
30
0
41
1
10
25.6329466603468
20
2.7023237290299
30
0
41
1
10
25.805142433221
20
2.73148806324679
30
0
41
1
10
26.1488528690678
20
2.78131547068233
30
0
41
1
10
26.3205672848905
20
2.80180732297899
30
0
41
1
10
26.6656653382262
20
2.83324722942422
30
0
41
1
10
26.8383000667654
20
2.84430827979551
30
0
41
1
10
27.182683843573
20
2.85723506060097
30
0
41
1
10
27.3542427300302
20
2.85908915279489
30
0
41
1
10
27.6975449601053
20
2.85334070112796
30
0
41
1
10
27.8696664939848
20
2.84582179292076
30
0
41
1
10
28.2143658168881
20
2.82162005204267
30
0
41
1
10
28.3872087930482
20
2.80492282683514
30
0
41
1
10
28.7312234340204
20
2.76204685365704
30
0
41
1
10
28.9027633899528
20
2.73592304354924
30
0
41
1
10
29.2466886492518
20
2.67541214192019
30
0
41
1
10
29.4187909159356
20
2.64091698542117
30
0
41
1
10
29.7628718930002
20
2.56317118854597
30
0
41
1
10
29.9345426795719
20
2.51962759078458
30
0
41
1
10
30.2787667888339
20
2.42431529962229
30
0
41
1
10
30.4511817259684
20
2.37303099413808
30
0
41
1
10
30.7954651415056
20
2.26313021128661
30
0
41
1
10
30.9674862008336
20
2.20454088508069
30
0
41
1
10
31.3106032728361
20
2.07912736029345
30
0
41
1
10
31.4820429886381
20
2.0126690327202
30
0
41
1
10
31.8263012079482
20
1.87442858696491
30
0
41
1
10
31.999063648681
20
1.80223256525679
30
0
41
1
10
32.3434735316538
20
1.65192127782456
30
0
41
1
10
32.5148992670084
20
1.57326768999135
30
0
41
1
10
33.0294818897863
20
1.33071833434298
30
0
41
1
10
33.3740380151943
20
1.16224071805547
30
0
41
1
10
33.8900159922369
20
0.894050007594473
30
0
41
1
10
34.0617456296925
20
0.802909109908484
30
0
41
1
10
34.4055845270437
20
0.620100828858227
30
0
41
1
10
34.5775358056583
20
0.527950351900131
30
0
41
1
10
34.9210827896666
20
0.341409338037181
30
0
41
1
10
35.0923509868242
20
0.246416817530104
30
0
41
1
10
35.4357696220004
20
0.0563890187570735
30
0
41
1
10
35.6083418294825
20
-0.0383459864303575
30
0
41
1
10
35.9526820749123
20
-0.22712497389756
30
0
41
1
10
36.1246094178452
20
-0.32116803591714
30
0
41
1
10
36.4673485079992
20
-0.509671436196157
30
0
41
1
10
36.6385983388004
20
-0.603331306226153
30
0
41
1
10
36.9822105109494
20
-0.787080200024889
30
0
41
1
10
37.1543342259525
20
-0.877601495568655
30
0
41
1
10
37.4987974731541
20
-1.0566587931784
30
0
41
1
10
37.670253153396
20
-1.14545882456019
30
0
41
1
10
38.1847187586871
20
-1.40422616246204
30
0
41
1
10
38.5287615427204
20
-1.56587670177024
30
0
41
1
10
39.0433730299596
20
-1.79667856052481
30
0
41
1
10
39.2153137211033
20
-1.87100245743721
30
0
41
1
10
39.559209058316
20
-2.0119135265079
30
0
41
1
10
39.731087734095
20
-2.07891588211871
30
0
41
1
10
40.0742780165398
20
-2.20658099221117
30
0
41
1
10
40.2452509259234
20
-2.26759863174354
30
0
41
1
10
40.588050882717
20
-2.38146738815004
30
0
41
1
10
40.7600050007499
20
-2.43424064958819
30
0
41
1
10
41.1045006518847
20
-2.53208443015367
30
0
41
1
10
41.2764243633613
20
-2.57695294940868
30
0
41
1
10
41.6189593639682
20
-2.65885079860667
30
0
41
1
10
41.790084737733
20
-2.69545488977556
30
0
41
1
10
42.1332101505186
20
-2.75939196297927
30
0
41
1
10
42.3049941762879
20
-2.78689899047546
30
0
41
1
10
42.6485741063538
20
-2.83313714855336
30
0
41
1
10
42.8201890367496
20
-2.85194505444525
30
0
41
1
10
43.2386080664878
20
-2.88595053215116
30
0
41
1
10
43.4858767695545
20
-2.89628376957762
30
0
41
1
10
43.7328176052944
20
-2.8968851199711
30
0
0
SPLINE
5
B9
100
AcDbEntity
8
1
62
256
6
ByLayer
370
18
48
1
60
0
100
AcDbSpline
70
4
71
3
72
10
73
6
40
0
40
0
40
0
40
0
40
0.778197105445817
40
0.778197105445817
40
1
40
1
40
1
40
1
41
1
10
4.2518186354996
20
-2.44006898227261
30
0
41
1
10
4.47843808509671
20
-2.38091448474367
30
0
41
1
10
4.70748823584265
20
-2.3130196809723
30
0
41
1
10
5.00448213984095
20
-2.21630104806988
30
0
41
1
10
5.07056149636446
20
-2.19424148356975
30
0
41
1
10
5.13681252516534
20
-2.1716185425451
30
0
0
SPLINE
5
BA
100
AcDbEntity
8
1
62
256
6
ByLayer
370
18
48
1
60
0
100
AcDbSpline
70
4
71
3
72
84
73
80
40
0
40
0
40
0
40
0
40
0.0028876437846633
40
0.0028876437846633
40
0.0296256420185378
40
0.0296256420185378
40
0.0563636402524123
40
0.0563636402524123
40
0.0831016384862867
40
0.0831016384862867
40
0.109839636720161
40
0.109839636720161
40
0.136577634954036
40
0.136577634954036
40
0.16331563318791
40
0.16331563318791
40
0.190053631421784
40
0.190053631421784
40
0.216791629655659
40
0.216791629655659
40
0.243529627889533
40
0.243529627889533
40
0.270267626123408
40
0.270267626123408
40
0.297005624357282
40
0.297005624357282
40
0.323743622591157
40
0.323743622591157
40
0.350481620825031
40
0.350481620825031
40
0.377219619058906
40
0.377219619058906
40
0.40395761729278
40
0.40395761729278
40
0.430695615526654
40
0.430695615526654
40
0.457433613760529
40
0.457433613760529
40
0.484171611994403
40
0.484171611994403
40
0.510909610228278
40
0.510909610228278
40
0.537647608462152
40
0.537647608462152
40
0.564385606696027
40
0.564385606696027
40
0.591123604929901
40
0.591123604929901
40
0.617861603163776
40
0.617861603163776
40
0.64459960139765
40
0.64459960139765
40
0.671337599631525
40
0.671337599631525
40
0.698075597865399
40
0.698075597865399
40
0.724813596099273
40
0.724813596099273
40
0.751551594333148
40
0.751551594333148
40
0.778289592567022
40
0.778289592567022
40
0.805027590800897
40
0.805027590800897
40
0.831765589034771
40
0.831765589034771
40
0.858503587268646
40
0.858503587268646
40
0.88524158550252
40
0.88524158550252
40
0.911979583736395
40
0.911979583736395
40
0.938717581970269
40
0.938717581970269
40
0.965455580204143
40
0.965455580204143
40
0.992193578438018
40
0.992193578438018
40
1
40
1
40
1
40
1
41
1
10
38.9920169144043
20
-1.77732375889747
30
0
41
1
10
38.9719427589718
20
-1.78545020041435
30
0
41
1
10
38.9518713404388
20
-1.79353404659818
30
0
41
1
10
38.7459771256114
20
-1.87603011777972
30
0
41
1
10
38.5605404866536
20
-1.94716820310282
30
0
41
1
10
38.1890174519357
20
-2.08184965682045
30
0
41
1
10
38.0029889557865
20
-2.14540805351194
30
0
41
1
10
37.6304014362045
20
-2.26455418191546
30
0
41
1
10
37.4441205874327
20
-2.32017546923802
30
0
41
1
10
37.0725626363794
20
-2.42206510471502
30
0
41
1
10
36.8868107710778
20
-2.46822366212763
30
0
41
1
10
36.515174283059
20
-2.54973399781261
30
0
41
1
10
36.3292660957266
20
-2.58478764014066
30
0
41
1
10
35.9574035249096
20
-2.64722083458298
30
0
41
1
10
35.7709590935529
20
-2.67404247431625
30
0
41
1
10
35.398644560431
20
-2.716565217957
30
0
41
1
10
35.2127008179646
20
-2.73191810357858
30
0
41
1
10
34.8411724112066
20
-2.75283788427623
30
0
41
1
10
34.6556453938499
20
-2.75885324212942
30
0
41
1
10
34.2836947639291
20
-2.75973159563611
30
0
41
1
10
34.0971515033562
20
-2.75442991845676
30
0
41
1
10
33.7244254725634
20
-2.73210977740303
30
0
41
1
10
33.5385800202696
20
-2.71642464459544
30
0
41
1
10
33.1667627497589
20
-2.67528184828134
30
0
41
1
10
32.9807923078627
20
-2.64960078515978
30
0
41
1
10
32.608575192259
20
-2.58678549619194
30
0
41
1
10
32.4224033134417
20
-2.55003409368874
30
0
41
1
10
32.0496151452386
20
-2.4685668703757
30
0
41
1
10
31.8633919043199
20
-2.4233311183321
30
0
41
1
10
31.4912230400047
20
-2.32299492387477
30
0
41
1
10
31.30524322856
20
-2.26755874745166
30
0
41
1
10
30.9335431517591
20
-2.14949935047812
30
0
41
1
10
30.7476080037163
20
-2.08668176913571
30
0
41
1
10
30.3747222307609
20
-1.95273259574648
30
0
41
1
10
30.1880078668638
20
-1.88146546710701
30
0
41
1
10
29.8157293469913
20
-1.73228809517624
30
0
41
1
10
29.6299863326989
20
-1.65463160980303
30
0
41
1
10
29.2579648864987
20
-1.49357407564466
30
0
41
1
10
29.0718029786087
20
-1.41005738626944
30
0
41
1
10
28.6990186381459
20
-1.23708043458967
30
0
41
1
10
28.5124327569069
20
-1.14774887340801
30
0
41
1
10
28.1398893133251
20
-0.96611910886773
30
0
41
1
10
27.9537113951238
20
-0.873688956897894
30
0
41
1
10
27.5814370866202
20
-0.685568829995901
30
0
41
1
10
27.395388294309
20
-0.589820813806739
30
0
41
1
10
27.0231525867393
20
-0.39622876083979
30
0
41
1
10
26.8364185136874
20
-0.298582205249147
30
0
41
1
10
26.4632614423677
20
-0.102954983894193
30
0
41
1
10
26.2769684324877
20
-0.0050588226097545
30
0
41
1
10
25.9049314163779
20
0.191101971903606
30
0
41
1
10
25.7190105831857
20
0.289003683327138
30
0
41
1
10
25.3464945088992
20
0.482655662190467
30
0
41
1
10
25.1599304818578
20
0.578547014490169
30
0
41
1
10
24.7864435722673
20
0.768486109529874
30
0
41
1
10
24.6002428534526
20
0.862715880577383
30
0
41
1
10
24.2276809838137
20
1.04619802492144
30
0
41
1
10
24.041416486402
20
1.13549948459081
30
0
41
1
10
23.6687636493026
20
1.30952813955466
30
0
41
1
10
23.4825605352357
20
1.39479825556097
30
0
41
1
10
23.1093652327469
20
1.55993337148473
30
0
41
1
10
22.9225027549172
20
1.63924173070805
30
0
41
1
10
22.5496326942898
20
1.79013660625225
30
0
41
1
10
22.3634319980379
20
1.86226416499542
30
0
41
1
10
21.9912376919498
20
2.00058143832305
30
0
41
1
10
21.8049775887782
20
2.06600742126042
30
0
41
1
10
21.4316747413205
20
2.18736172278017
30
0
41
1
10
21.2445238309568
20
2.24359977094855
30
0
41
1
10
20.8715318684401
20
2.34870593412833
30
0
41
1
10
20.6853142840609
20
2.39740395632856
30
0
41
1
10
20.3125426714458
20
2.48361074818939
30
0
41
1
10
20.1260428373001
20
2.52100363396082
30
0
41
1
10
19.7528807466802
20
2.58784290011789
30
0
41
1
10
19.5661159262369
20
2.61717770216717
30
0
41
1
10
19.1926756567381
20
2.66516402221956
30
0
41
1
10
19.0061786159445
20
2.68263212270824
30
0
41
1
10
18.6333395723419
20
2.70790200779265
30
0
41
1
10
18.4471775797549
20
2.71610308192845
30
0
41
1
10
18.2063978565795
20
2.72024948681883
30
0
41
1
10
18.1519489619109
20
2.72074294974692
30
0
41
1
10
18.0974676752357
20
2.72075879689899
30
0
0
SPLINE
5
BB
100
AcDbEntity
8
1
62
256
6
ByLayer
370
18
48
1
60
0
100
AcDbSpline
70
4
71
3
72
38
73
34
40
0
40
0
40
0
40
0
40
0.0625000000000001
40
0.0625000000000001
40
0.125
40
0.125
40
0.1875
40
0.1875
40
0.25
40
0.25
40
0.3125
40
0.3125
40
0.375
40
0.375
40
0.4375
40
0.4375
40
0.5
40
0.5
40
0.5625
40
0.5625
40
0.625
40
0.625
40
0.6875
40
0.6875
40
0.75
40
0.75
40
0.8125
40
0.8125
40
0.875
40
0.875
40
0.9375
40
0.9375
40
1
40
1
40
1
40
1
41
1
10
45.632043861994
20
-0.955018537593276
30
0
41
1
10
45.6221807500308
20
-0.942808747878388
30
0
41
1
10
45.6103273365529
20
-0.935116658540238
30
0
41
1
10
45.5837212552466
20
-0.927625946040138
30
0
41
1
10
45.5692485242151
20
-0.92785518867521
30
0
41
1
10
45.5383059138628
20
-0.935099968411635
30
0
41
1
10
45.5216768133534
20
-0.942254327902759
30
0
41
1
10
45.4875922489798
20
-0.962621671460425
30
0
41
1
10
45.4700585414992
20
-0.975805389227645
30
0
41
1
10
45.4340059714766
20
-1.00818698505864
30
0
41
1
10
45.4155891484268
20
-1.0273485624343
30
0
41
1
10
45.3791473692614
20
-1.07052920585815
30
0
41
1
10
45.3609577067858
20
-1.09467749128484
30
0
41
1
10
45.3246509689267
20
-1.14892002278458
30
0
41
1
10
45.3068582168079
20
-1.1785830039702
30
0
41
1
10
45.2731643718292
20
-1.2420511354008
30
0
41
1
10
45.2569594764491
20
-1.27652387246494
30
0
41
1
10
45.2284550564526
20
-1.34711420889783
30
0
41
1
10
45.2157692391379
20
-1.38429179692992
30
0
41
1
10
45.1963776727687
20
-1.45610616585455
30
0
41
1
10
45.1893836856976
20
-1.49187917512009
30
0
41
1
10
45.1823929748539
20
-1.5564956425726
30
0
41
1
10
45.1823063302521
20
-1.5859442683568
30
0
41
1
10
45.1883358976184
20
-1.63510454699778
30
0
41
1
10
45.1944598792055
20
-1.65532649204755
30
0
41
1
10
45.211173104301
20
-1.68604255308736
30
0
41
1
10
45.2219206059765
20
-1.6968944072388
30
0
41
1
10
45.2462488275114
20
-1.71001393605314
30
0
41
1
10
45.2598926749654
20
-1.71248889141788
30
0
41
1
10
45.2898390718468
20
-1.71009946268077
30
0
41
1
10
45.3056967609598
20
-1.70526459668824
30
0
41
1
10
45.3389608846327
20
-1.68910392309283
30
0
41
1
10
45.356507482691
20
-1.67762724601161
30
0
41
1
10
45.3742429621093
20
-1.66332068874192
30
0
0
SPLINE
5
BC
100
AcDbEntity
8
1
62
256
6
ByLayer
370
18
48
1
60
0
100
AcDbSpline
70
4
71
3
72
12
73
8
40
0
40
0
40
0
40
0
40
0.25
40
0.25
40
0.5
40
0.5
40
1
40
1
40
1
40
1
41
1
10
45.7111240233746
20
1.26723987790058
30
0
41
1
10
45.7273466547255
20
1.22220328007626
30
0
41
1
10
45.7427558439159
20
1.17778818255101
30
0
41
1
10
45.7718060665368
20
1.09023181243234
30
0
41
1
10
45.7855330051945
20
1.04679644730089
30
0
41
1
10
45.8230140677192
20
0.920949000858485
30
0
41
1
10
45.843060206662
20
0.843293986188087
30
0
41
1
10
45.8576089617827
20
0.772410634658513
30
0
0
SPLINE
5
BD
100
AcDbEntity
8
1
62
256
6
ByLayer
370
18
48
1
60
0
100
AcDbSpline
70
4
71
3
72
18
73
14
40
0
40
0
40
0
40
0
40
0.125
40
0.125
40
0.25
40
0.25
40
0.5
40
0.5
40
0.75
40
0.75
40
0.875
40
0.875
40
1
40
1
40
1
40
1
41
1
10
45.6320438619946
20
-0.955018537593503
30
0
41
1
10
45.63421056519
20
-0.968542573755116
30
0
41
1
10
45.6339064015637
20
-0.987260836422337
30
0
41
1
10
45.62781139416
20
-1.03585641905667
30
0
41
1
10
45.622172003015
20
-1.06446335303227
30
0
41
1
10
45.5976613434118
20
-1.16241690768439
30
0
41
1
10
45.572273343731
20
-1.23883896860502
30
0
41
1
10
45.5151699450238
20
-1.38738994033682
30
0
41
1
10
45.4842902855306
20
-1.45782907905644
30
0
41
1
10
45.4402390507908
20
-1.54831256528658
30
0
41
1
10
45.4258536823864
20
-1.57606726665233
30
0
41
1
10
45.3988881118418
20
-1.62460461088997
30
0
41
1
10
45.3860355217029
20
-1.64589385977257
30
0
41
1
10
45.3742429621096
20
-1.66332068874155
30
0
0
SPLINE
5
BE
100
AcDbEntity
8
1
62
256
6
ByLayer
370
18
48
1
60
0
100
AcDbSpline
70
4
71
3
72
22
73
18
40
0
40
0
40
0
40
0
40
0.125
40
0.125
40
0.25
40
0.25
40
0.375
40
0.375
40
0.5
40
0.5
40
0.625
40
0.625
40
0.75
40
0.75
40
0.875
40
0.875
40
1
40
1
40
1
40
1
41
1
10
45.0515423658409
20
-2.80817318214884
30
0
41
1
10
45.0785966541549
20
-2.74819469094263
30
0
41
1
10
45.1058661307537
20
-2.68792380213398
30
0
41
1
10
45.1609479370441
20
-2.56500829389444
30
0
41
1
10
45.1887452735901
20
-2.50246760444787
30
0
41
1
10
45.2447150904407
20
-2.37585667722289
30
0
41
1
10
45.2727811709069
20
-2.31220150477384
30
0
41
1
10
45.3287987604051
20
-2.18458955902369
30
0
41
1
10
45.3566941953203
20
-2.1203829387849
30
0
41
1
10
45.4122353384394
20
-1.99127813900981
30
0
41
1
10
45.4398648318918
20
-1.92635249292186
30
0
41
1
10
45.4950493808397
20
-1.79623965208449
30
0
41
1
10
45.5225835112742
20
-1.73100481327324
30
0
41
1
10
45.5771611177271
20
-1.59962588991792
30
0
41
1
10
45.6042333305145
20
-1.5335370444796
30
0
41
1
10
45.6579466654989
20
-1.40067779471124
30
0
41
1
10
45.6847161213012
20
-1.33388215140576
30
0
41
1
10
45.7111240233746
20
-1.26723987790058
30
0
0
SPLINE
5
BF
100
AcDbEntity
8
1
62
256
6
ByLayer
370
13
48
1
60
0
100
AcDbSpline
70
4
71
3
72
8
73
4
40
0
40
0
40
0
40
0
40
1
40
1
40
1
40
1
41
1
10
45.20405710851
20
0.812841853612298
30
0
41
1
10
45.1312508731205
20
0.861035450253695
30
0
41
1
10
45.0604223960219
20
0.913470803082902
30
0
41
1
10
44.9920695648504
20
0.971170910096873
30
0
0
SPLINE
5
C0
100
AcDbEntity
8
1
62
256
6
ByLayer
370
18
48
1
60
0
100
AcDbSpline
70
4
71
3
72
18
73
14
40
0
40
0
40
0
40
0
40
0.124999999999999
40
0.124999999999999
40
0.249999999999999
40
0.249999999999999
40
0.500000000000006
40
0.500000000000006
40
0.625000000000004
40
0.625000000000004
40
0.750000000000003
40
0.750000000000003
40
1
40
1
40
1
40
1
41
1
10
42.8350985719536
20
-0.115803358559503
30
0
41
1
10
42.8748514047603
20
-0.224829625112989
30
0
41
1
10
42.9209340581933
20
-0.33071663661886
30
0
41
1
10
43.0242151683822
20
-0.536977811202348
30
0
41
1
10
43.0815465450622
20
-0.637362203160421
30
0
41
1
10
43.2633992361965
20
-0.923384945428467
30
0
41
1
10
43.3990766698811
20
-1.09726545511737
30
0
41
1
10
43.6190237268151
20
-1.33897148225202
30
0
41
1
10
43.6950508410645
20
-1.41615345831806
30
0
41
1
10
43.8493846124202
20
-1.56213720717915
30
0
41
1
10
43.9280378222286
20
-1.63132425899926
30
0
41
1
10
44.1679309762055
20
-1.82881603400347
30
0
41
1
10
44.3330583170152
20
-1.94716945899373
30
0
41
1
10
44.5026461209193
20
-2.05410460012209
30
0
0
SPLINE
5
C1
100
AcDbEntity
8
1
62
256
6
ByLayer
370
18
48
1
60
0
100
AcDbSpline
70
4
71
3
72
8
73
4
40
0
40
0
40
0
40
0
40
1
40
1
40
1
40
1
41
1
10
45.8576089617827
20
-0.772410634658542
30
0
41
1
10
45.8889905064563
20
-0.619515830658202
30
0
41
1
10
45.917629019844
20
-0.466529072460787
30
0
41
1
10
45.9434955000001
20
-0.313449387838659
30
0
0
SPLINE
5
C2
100
AcDbEntity
8
1
62
256
6
ByLayer
370
18
48
1
60
0
100
AcDbSpline
70
4
71
3
72
16
73
12
40
0
40
0
40
0
40
0
40
0.25
40
0.25
40
0.5
40
0.5
40
0.75
40
0.75
40
0.875
40
0.875
40
1
40
1
40
1
40
1
41
1
10
44.9920695648478
20
0.971170910107105
30
0
41
1
10
45.0578475062562
20
0.981512798837286
30
0
41
1
10
45.1232293014468
20
0.993367808619325
30
0
41
1
10
45.2527888269263
20
1.02186078395331
30
0
41
1
10
45.3169824235138
20
1.03842261798206
30
0
41
1
10
45.4433259111662
20
1.08006630049954
30
0
41
1
10
45.505777011435
20
1.10519565535017
30
0
41
1
10
45.5912390749492
20
1.15400982996894
30
0
41
1
10
45.6184860872046
20
1.1722029110764
30
0
41
1
10
45.66908880112
20
1.21478852397664
30
0
41
1
10
45.6924754055594
20
1.23942776659177
30
0
41
1
10
45.7111240233746
20
1.26723987790058
30
0
0
SPLINE
5
C3
100
AcDbEntity
8
1
62
256
6
ByLayer
370
13
48
1
60
0
100
AcDbSpline
70
4
71
3
72
8
73
4
40
0
40
0
40
0
40
0
40
1
40
1
40
1
40
1
41
1
10
4.13353580272911
20
-0.517494106923948
30
0
41
1
10
4.15549681325965
20
-0.52702298095042
30
0
41
1
10
4.179180144615
20
-0.53835339032841
30
0
41
1
10
4.20334037325665
20
-0.55104231255882
30
0
0
SPLINE
5
C4
100
AcDbEntity
8
1
62
256
6
ByLayer
370
18
48
1
60
0
100
AcDbSpline
70
4
71
3
72
8
73
4
40
0
40
0
40
0
40
0
40
1
40
1
40
1
40
1
41
1
10
45.9434955
20
-0.313449387838631
30
0
41
1
10
45.9489587567384
20
-0.279360086770453
30
0
41
1
10
45.9542886265517
20
-0.245250884514036
30
0
41
1
10
45.9594848363029
20
-0.211121740317623
30
0
0
SPLINE
5
C5
100
AcDbEntity
8
1
62
256
6
ByLayer
370
18
48
1
60
0
100
AcDbSpline
70
4
71
3
72
8
73
4
40
0
40
0
40
0
40
0
40
1
40
1
40
1
40
1
41
1
10
45.051542365841
20
-2.80817318214872
30
0
41
1
10
45.0382607635851
20
-2.82389319835957
30
0
41
1
10
45.0257769886324
20
-2.83767672244289
30
0
41
1
10
45.0140715629312
20
-2.84946952719426
30
0
0
SPLINE
5
C6
100
AcDbEntity
8
1
62
256
6
ByLayer
370
18
48
1
60
0
100
AcDbSpline
70
4
71
3
72
20
73
16
40
0
40
0
40
0
40
0
40
0.0642896521768842
40
0.0642896521768842
40
0.168728883886799
40
0.168728883886799
40
0.377607347306628
40
0.377607347306628
40
0.586485810726457
40
0.586485810726457
40
0.690925042436372
40
0.690925042436372
40
0.795364274146286
40
0.795364274146286
40
1
40
1
40
1
40
1
41
1
10
12.0145031892425
20
2.76310349523538
30
0
41
1
10
11.9211947852788
20
2.74090639010214
30
0
41
1
10
11.8276935596869
20
2.7175899622157
30
0
41
1
10
11.5816878263814
20
2.6533668929365
30
0
41
1
10
11.4284695189418
20
2.61046112815845
30
0
41
1
10
10.9698498818279
20
2.47350275107544
30
0
41
1
10
10.6650525937228
20
2.37101621462207
30
0
41
1
10
10.0544639874555
20
2.14776525886992
30
0
41
1
10
9.7486607553773
20
2.02701574795179
30
0
41
1
10
9.28620060842687
20
1.83805984405484
30
0
41
1
10
9.1314139555671
20
1.77379687843938
30
0
41
1
10
8.8200050235408
20
1.64398524574722
30
0
41
1
10
8.66311029452444
20
1.57832727013351
30
0
41
1
10
8.20009590230327
20
1.38625372917835
30
0
41
1
10
7.89382378485203
20
1.26141977440932
30
0
41
1
10
7.58566166589503
20
1.1441369188951
30
0
0
SPLINE
5
C7
100
AcDbEntity
8
1
62
256
6
ByLayer
370
13
48
1
60
0
100
AcDbSpline
70
4
71
3
72
22
73
18
40
0
40
0
40
0
40
0
40
0.125
40
0.125
40
0.25
40
0.25
40
0.375
40
0.375
40
0.5
40
0.5
40
0.625
40
0.625
40
0.75
40
0.75
40
0.875
40
0.875
40
1
40
1
40
1
40
1
41
1
10
4.25087732403244
20
-0.447903707474836
30
0
41
1
10
4.25094307810446
20
-0.302522292703486
30
0
41
1
10
4.25100361954088
20
-0.155152126506323
30
0
41
1
10
4.25111463290796
20
0.136377595427945
30
0
41
1
10
4.2511654744728
20
0.281312051650445
30
0
41
1
10
4.25126084110536
20
0.569514674334329
30
0
41
1
10
4.25130560726646
20
0.713699192913168
30
0
41
1
10
4.25138851024059
20
0.990461265368282
30
0
41
1
10
4.25142703609626
20
1.1241429509777
30
0
41
1
10
4.25150060984168
20
1.38212768294437
30
0
41
1
10
4.25153592030986
20
1.50735641035089
30
0
41
1
10
4.25160235375438
20
1.7401376367674
30
0
41
1
10
4.2516336964367
20
1.84846958276387
30
0
41
1
10
4.25169337360862
20
2.04913698936943
30
0
41
1
10
4.25172185043542
20
2.14190199126219
30
0
41
1
10
4.251774358886
20
2.30737277100633
30
0
41
1
10
4.25179806565734
20
2.3791197457563
30
0
41
1
10
4.25181863495249
20
2.44006898239095
30
0
0
SPLINE
5
C8
100
AcDbEntity
8
1
62
256
6
ByLayer
370
18
48
1
60
0
100
AcDbSpline
70
4
71
3
72
8
73
4
40
0
40
0
40
0
40
0
40
1
40
1
40
1
40
1
41
1
10
45.9434955
20
0.31344938783883
30
0
41
1
10
45.9489587567397
20
0.279360086762466
30
0
41
1
10
45.954288626553
20
0.245250884505992
30
0
41
1
10
45.9594848363029
20
0.211121740317623
30
0
0
SPLINE
5
C9
100
AcDbEntity
8
1
62
256
6
ByLayer
370
18
48
1
60
0
100
AcDbSpline
70
4
71
3
72
10
73
6
40
0
40
0
40
0
40
0
40
0.5
40
0.5
40
1
40
1
40
1
40
1
41
1
10
4.04017087646554
20
-2.5758921552339
30
0
41
1
10
4.06436144066694
20
-2.5428436880772
30
0
41
1
10
4.09899887570785
20
-2.51243855852843
30
0
41
1
10
4.17430724144288
20
-2.46602618495055
30
0
41
1
10
4.21409129563418
20
-2.44991695355847
30
0
41
1
10
4.25181863495246
20
-2.44006898241543
30
0
0
SPLINE
5
CA
100
AcDbEntity
8
1
62
256
6
ByLayer
370
18
48
1
60
0
100
AcDbSpline
70
4
71
3
72
16
73
12
40
0
40
0
40
0
40
0
40
0.195306042133532
40
0.195306042133532
40
0.38326748976622
40
0.38326748976622
40
0.571228937398908
40
0.571228937398908
40
0.947151832664278
40
0.947151832664278
40
1
40
1
40
1
40
1
41
1
10
27.9128543566229
20
-2.74320280755109
30
0
41
1
10
27.6932392269109
20
-2.74295734131951
30
0
41
1
10
27.4734603631009
20
-2.73538716018143
30
0
41
1
10
27.0411087377699
20
-2.70608139450323
30
0
41
1
10
26.8285916764778
20
-2.68489392388437
30
0
41
1
10
26.401796625737
20
-2.62894076872965
30
0
41
1
10
26.1872426714815
20
-2.59409340971439
30
0
41
1
10
25.5458252611471
20
-2.47044487949927
30
0
41
1
10
25.1191963383353
20
-2.36245206362381
30
0
41
1
10
24.6306167742949
20
-2.2128483585978
30
0
41
1
10
24.5704244242109
20
-2.19397196695928
30
0
41
1
10
24.5102555078574
20
-2.17467046756346
30
0
0
SPLINE
5
CB
100
AcDbEntity
8
1
62
256
6
ByLayer
370
13
48
1
60
0
100
AcDbSpline
70
4
71
3
72
22
73
18
40
0
40
0
40
0
40
0
40
0.129373512949556
40
0.129373512949556
40
0.204641649630804
40
0.204641649630804
40
0.279909786312052
40
0.279909786312052
40
0.580982333037042
40
0.580982333037042
40
0.656250469718289
40
0.656250469718289
40
0.731518606399536
40
0.731518606399536
40
0.88205487976203
40
0.88205487976203
40
1
40
1
40
1
40
1
41
1
10
24.5102555078237
20
-2.17467046755266
30
0
41
1
10
24.1424271183045
20
-2.05667533205067
30
0
41
1
10
23.7754744936973
20
-1.92279307780481
30
0
41
1
10
23.1949439304997
20
-1.69018368083223
30
0
41
1
10
22.9813052514051
20
-1.60011803995042
30
0
41
1
10
22.553064689778
20
-1.41208325289409
30
0
41
1
10
22.3387655280462
20
-1.31421466162345
30
0
41
1
10
21.2732384100578
20
-0.812518378099611
30
0
41
1
10
20.4319638768832
20
-0.368916062019878
30
0
41
1
10
19.3679118503981
20
0.18786968200186
30
0
41
1
10
19.1544495451098
20
0.29928053802513
30
0
41
1
10
18.7254589058429
20
0.520730408919235
30
0
41
1
10
18.5117369174171
20
0.629978885867871
30
0
41
1
10
17.8729095186579
20
0.951043776757672
30
0
41
1
10
17.4495424835616
20
1.15610003455194
30
0
41
1
10
16.6941932598539
20
1.4974439218739
30
0
41
1
10
16.3623330454015
20
1.63917512187979
30
0
41
1
10
16.0290860671236
20
1.77038316281741
30
0
0
SPLINE
5
CC
100
AcDbEntity
8
1
62
256
6
ByLayer
370
18
48
1
60
0
100
AcDbSpline
70
4
71
3
72
8
73
4
40
0
40
0
40
0
40
0
40
1
40
1
40
1
40
1
41
1
10
45.8576089617827
20
0.772410634658513
30
0
41
1
10
45.8889905064563
20
0.619515830658258
30
0
41
1
10
45.917629019844
20
0.466529072460901
30
0
41
1
10
45.9434955
20
0.31344938783883
30
0
0
SPLINE
5
CD
100
AcDbEntity
8
1
62
256
6
ByLayer
370
18
48
1
60
0
100
AcDbSpline
70
4
71
3
72
24
73
20
40
0
40
0
40
0
40
0
40
0.0505601520049205
40
0.0505601520049205
40
0.203596867216355
40
0.203596867216355
40
0.35663358242779
40
0.35663358242779
40
0.433151940033507
40
0.433151940033507
40
0.509670297639223
40
0.509670297639223
40
0.81574372806209
40
0.81574372806209
40
0.892262085667807
40
0.892262085667807
40
0.968780443273525
40
0.968780443273525
40
1
40
1
40
1
40
1
41
1
10
15.2908940281992
20
2.03967489464077
30
0
41
1
10
15.4326043206491
20
1.98725423361145
30
0
41
1
10
15.5741035862701
20
1.93265027426278
30
0
41
1
10
16.1418887780901
20
1.70518568389201
30
0
41
1
10
16.5656183602198
20
1.51608762938542
30
0
41
1
10
17.4131092279732
20
1.11185107824397
30
0
41
1
10
17.8366691454846
20
0.896304791268676
30
0
41
1
10
18.4761196454028
20
0.560354376733244
30
0
41
1
10
18.6901728096343
20
0.446213719700808
30
0
41
1
10
19.1195953487348
20
0.215394950121407
30
0
41
1
10
19.3332349891142
20
0.099577021806283
30
0
41
1
10
20.3980523023805
20
-0.477914867218118
30
0
41
1
10
21.2393861164716
20
-0.934092105010336
30
0
41
1
10
22.3061004154377
20
-1.44530585233355
30
0
41
1
10
22.5207193438213
20
-1.54482479830054
30
0
41
1
10
22.9494028932406
20
-1.73536752180712
30
0
41
1
10
23.1632587254368
20
-1.82630457340909
30
0
41
1
10
23.4642088522345
20
-1.94749243315692
30
0
41
1
10
23.5513954319878
20
-1.98180259644397
30
0
41
1
10
23.6385856047917
20
-2.01527483303394
30
0
0
SPLINE
5
CE
100
AcDbEntity
8
1
62
256
6
ByLayer
370
13
48
1
60
0
100
AcDbSpline
70
4
71
3
72
18
73
14
40
0
40
0
40
0
40
0
40
0.0695652165574483
40
0.0695652165574483
40
0.187074201636551
40
0.187074201636551
40
0.422092171794754
40
0.422092171794754
40
0.539601156873855
40
0.539601156873855
40
0.657110141952953
40
0.657110141952953
40
1
40
1
40
1
40
1
41
1
10
23.6385856047316
20
-2.01527483301086
30
0
41
1
10
23.7650963784655
20
-2.06384221639215
30
0
41
1
10
23.8916147167525
20
-2.11064548850291
30
0
41
1
10
24.2320666196917
20
-2.23150894236923
30
0
41
1
10
24.4464059928827
20
-2.30219190495333
30
0
41
1
10
25.0896757043579
20
-2.49620791714233
30
0
41
1
10
25.5166896390766
20
-2.60098734738091
30
0
41
1
10
26.1588932712341
20
-2.71779310584972
30
0
41
1
10
26.3737121697734
20
-2.7500169973587
30
0
41
1
10
26.8008254200424
20
-2.80010011407981
30
0
41
1
10
27.0134733286475
20
-2.81805184540963
30
0
41
1
10
27.8446510850202
20
-2.86062863750431
30
0
41
1
10
28.459258248986
20
-2.83201595083446
30
0
41
1
10
29.0782879039993
20
-2.74443185926805
30
0
0
SPLINE
5
CF
100
AcDbEntity
8
1
62
256
6
ByLayer
370
18
48
1
60
0
100
AcDbSpline
70
4
71
3
72
14
73
10
40
0
40
0
40
0
40
0
40
0.25
40
0.25
40
0.5
40
0.5
40
0.75
40
0.75
40
1
40
1
40
1
40
1
41
1
10
45.0380977541951
20
-2.75199725040051
30
0
41
1
10
45.0405112296669
20
-2.74990981312465
30
0
41
1
10
45.0422691047078
20
-2.749549509791
30
0
41
1
10
45.0440619998338
20
-2.75330952966743
30
0
41
1
10
45.0440457810155
20
-2.75753913019014
30
0
41
1
10
45.041357916226
20
-2.77179079626163
30
0
41
1
10
45.0386543814138
20
-2.781792516423
30
0
41
1
10
45.031025861939
20
-2.80530929402565
30
0
41
1
10
45.0261467839453
20
-2.81870214824602
30
0
41
1
10
45.0209768434166
20
-2.83187764824942
30
0
0
SPLINE
5
D0
100
AcDbEntity
8
1
62
256
6
ByLayer
370
18
48
1
60
0
100
AcDbSpline
70
4
71
3
72
12
73
8
40
0
40
0
40
0
40
0
40
0.25
40
0.25
40
0.5
40
0.5
40
1
40
1
40
1
40
1
41
1
10
45.7111240233746
20
-1.26723987790058
30
0
41
1
10
45.7273466444914
20
-1.22220330848756
30
0
41
1
10
45.7427558436789
20
-1.17778818556059
30
0
41
1
10
45.7718061159175
20
-1.09023166130532
30
0
41
1
10
45.7855331067527
20
-1.04679611589074
30
0
41
1
10
45.8230140701983
20
-0.920948973365142
30
0
41
1
10
45.8430601995576
20
-0.84329402080138
30
0
41
1
10
45.8576089617827
20
-0.772410634658513
30
0
0
SPLINE
5
D1
100
AcDbEntity
8
1
62
256
6
ByLayer
370
18
48
1
60
0
100
AcDbSpline
70
4
71
3
72
22
73
18
40
0
40
0
40
0
40
0
40
0.125
40
0.125
40
0.25
40
0.25
40
0.375
40
0.375
40
0.5
40
0.5
40
0.625
40
0.625
40
0.75
40
0.75
40
0.875
40
0.875
40
1
40
1
40
1
40
1
41
1
10
45.051542365841
20
2.80817318214886
30
0
41
1
10
45.0785965232461
20
2.74819498116335
30
0
41
1
10
45.1058658871215
20
2.68792434200088
30
0
41
1
10
45.1609476082702
20
2.56500903135631
30
0
41
1
10
45.188744967443
20
2.50246829520915
30
0
41
1
10
45.2447149264112
20
2.3758570500614
30
0
41
1
10
45.2727804629723
20
2.31220310551896
30
0
41
1
10
45.328797620929
20
2.18459216680736
30
0
41
1
10
45.3566929213715
20
2.12038587947359
30
0
41
1
10
45.4122339251726
20
1.99128144472422
30
0
41
1
10
45.4398634185484
20
1.92635582052367
30
0
41
1
10
45.4950480098574
20
1.79624288930043
30
0
41
1
10
45.5225822025457
20
1.73100793854516
30
0
41
1
10
45.5771600805975
20
1.59962841158216
30
0
41
1
10
45.6042324948784
20
1.53353909986444
30
0
41
1
10
45.6579463300483
20
1.40067863599418
30
0
41
1
10
45.6847160266504
20
1.33388239026394
30
0
41
1
10
45.7111240233746
20
1.26723987790058
30
0
0
SPLINE
5
D2
100
AcDbEntity
8
1
62
256
6
ByLayer
370
18
48
1
60
0
100
AcDbSpline
70
4
71
3
72
10
73
6
40
0
40
0
40
0
40
0
40
0.5
40
0.5
40
1
40
1
40
1
40
1
41
1
10
45.959484836303
20
-0.211121740317537
30
0
41
1
10
45.9633518093807
20
-0.185723134776879
30
0
41
1
10
45.968795239442
20
-0.157999139129146
30
0
41
1
10
45.982357950069
20
-0.0986135755420605
30
0
41
1
10
45.9905837251002
20
-0.0666549773378335
30
0
41
1
10
45.9999255025131
20
-0.0341003852520885
30
0
0
SPLINE
5
D3
100
AcDbEntity
8
1
62
256
6
ByLayer
370
18
48
1
60
0
100
AcDbSpline
70
4
71
3
72
8
73
4
40
0
40
0
40
0
40
0
40
1
40
1
40
1
40
1
41
1
10
44.9669604164409
20
-2.78232028630876
30
0
41
1
10
44.9849591791792
20
-2.7879428148274
30
0
41
1
10
45.0084272417072
20
-2.77765955129897
30
0
41
1
10
45.0380977542087
20
-2.75199725038874
30
0
0
SPLINE
5
D4
100
AcDbEntity
8
1
62
256
6
ByLayer
370
18
48
1
60
0
100
AcDbSpline
70
4
71
3
72
25
73
21
40
0
40
0
40
0
40
0
40
0.0625
40
0.0625
40
0.125
40
0.125
40
0.25
40
0.25
40
0.3125
40
0.3125
40
0.375
40
0.375
40
0.5
40
0.5
40
0.625
40
0.625
40
0.75
40
0.875
40
0.875
40
1
40
1
40
1
40
1
41
1
10
4.03948048040746
20
-0.381489268789494
30
0
41
1
10
4.03950485864019
20
-0.305689051962702
30
0
41
1
10
4.03952824215008
20
-0.229605729728178
30
0
41
1
10
4.03957327333509
20
-0.0768735921643895
30
0
41
1
10
4.03959499266264
20
4.7491466745E-05
30
0
41
1
10
4.03965724142788
20
0.229177849333667
30
0
41
1
10
4.03969493549522
20
0.379835404798911
30
0
41
1
10
4.0397475617427
20
0.602767714058558
30
0
41
1
10
4.03976444647378
20
0.676566905540511
30
0
41
1
10
4.03979715357309
20
0.823126418010958
30
0
41
1
10
4.0398130349603
20
0.896165891174576
30
0
41
1
10
4.03985900067119
20
1.11164168520421
30
0
41
1
10
4.03988717790483
20
1.24918950222414
30
0
41
1
10
4.03994055247529
20
1.51249787232581
30
0
41
1
10
4.03996577792913
20
1.63842792843027
30
0
41
1
10
4.04001429463676
20
1.8772715159694
30
0
41
1
10
4.04005969449156
20
2.09718824938113
30
0
41
1
10
4.0401003546385
20
2.28076031929729
30
0
41
1
10
4.04013844634122
20
2.44543526704484
30
0
41
1
10
4.04015576101023
20
2.51639209577416
30
0
41
1
10
4.0401708764611
20
2.5758921552339
30
0
0
SPLINE
5
D5
100
AcDbEntity
8
1
62
256
6
ByLayer
370
18
48
1
60
0
100
AcDbSpline
70
4
71
3
72
14
73
10
40
0
40
0
40
0
40
0
40
0.25
40
0.25
40
0.5
40
0.5
40
0.75
40
0.75
40
1
40
1
40
1
40
1
41
1
10
7.05047443178489
20
1.41016095956496
30
0
41
1
10
6.81119880149427
20
1.51527394169148
30
0
41
1
10
6.5741398445015
20
1.61663793146806
30
0
41
1
10
6.10299564136409
20
1.81128672187424
30
0
41
1
10
5.86892499734435
20
1.9045950406117
30
0
41
1
10
5.40315825156543
20
2.07979910369383
30
0
41
1
10
5.17143211624762
20
2.16189168477598
30
0
41
1
10
4.71000953716768
20
2.31223888657155
30
0
41
1
10
4.48030738189948
20
2.38042654200496
30
0
41
1
10
4.25181863582984
20
2.44006898218643
30
0
0
SPLINE
5
D6
100
AcDbEntity
8
1
62
256
6
ByLayer
370
18
48
1
60
0
100
AcDbSpline
70
4
71
3
72
8
73
4
40
0
40
0
40
0
40
0
40
1
40
1
40
1
40
1
41
1
10
45.9681687093144
20
-0.0381170871618792
30
0
41
1
10
45.9655645313683
20
-0.0430676540130719
30
0
41
1
10
45.9629620711887
20
-0.0480198614087612
30
0
41
1
10
45.960361330187
20
-0.0529737073018168
30
0
0
SPLINE
5
D7
100
AcDbEntity
8
1
62
256
6
ByLayer
370
18
48
1
60
0
100
AcDbSpline
70
4
71
3
72
38
73
34
40
0
40
0
40
0
40
0
40
0.125000000000003
40
0.125000000000003
40
0.250000000000007
40
0.250000000000007
40
0.37500000000001
40
0.37500000000001
40
0.500000000000014
40
0.500000000000014
40
0.562500000000016
40
0.562500000000016
40
0.625000000000017
40
0.625000000000017
40
0.687500000000019
40
0.687500000000019
40
0.718750000000017
40
0.718750000000017
40
0.750000000000015
40
0.750000000000015
40
0.781250000000013
40
0.781250000000013
40
0.812500000000011
40
0.812500000000011
40
0.843750000000009
40
0.843750000000009
40
0.875000000000007
40
0.875000000000007
40
0.906250000000006
40
0.906250000000006
40
0.937500000000004
40
0.937500000000004
40
1
40
1
40
1
40
1
41
1
10
42.8350985719537
20
-0.115803358559418
30
0
41
1
10
42.969350402882
20
-0.183696248914856
30
0
41
1
10
43.1043563742464
20
-0.2477643134375
30
0
41
1
10
43.3762049738477
20
-0.363243391616436
30
0
41
1
10
43.5126704907342
20
-0.414477188863316
30
0
41
1
10
43.7859307312636
20
-0.500549239277404
30
0
41
1
10
43.9228567017987
20
-0.53553421431937
30
0
41
1
10
44.1973907138346
20
-0.586942790271479
30
0
41
1
10
44.3354766970634
20
-0.603421064148307
30
0
41
1
10
44.5399018013322
20
-0.611986647766656
30
0
41
1
10
44.6077727143756
20
-0.612816506875276
30
0
41
1
10
44.7414676645329
20
-0.599166815039609
30
0
41
1
10
44.8077085375935
20
-0.585017827897104
30
0
41
1
10
44.932171167144
20
-0.536445254108884
30
0
41
1
10
44.9914966574888
20
-0.501768250743851
30
0
41
1
10
45.0679108129315
20
-0.43163899231439
30
0
41
1
10
45.0914807794021
20
-0.405111816568109
30
0
41
1
10
45.1328244494017
20
-0.343194547272617
30
0
41
1
10
45.1496652952777
20
-0.308992916674924
30
0
41
1
10
45.1757029720984
20
-0.234118869825011
30
0
41
1
10
45.1846393061403
20
-0.193223522166392
30
0
41
1
10
45.1940751726169
20
-0.109439265842894
30
0
41
1
10
45.1947193385666
20
-0.065511288812786
30
0
41
1
10
45.1890132597604
20
0.0223377767648572
30
0
41
1
10
45.182723377509
20
0.0661584494781096
30
0
41
1
10
45.1643676213679
20
0.153625246647806
30
0
41
1
10
45.1521727704427
20
0.197450634611329
30
0
41
1
10
45.1235083145152
20
0.282937687489351
30
0
41
1
10
45.1070873801453
20
0.324916947723125
30
0
41
1
10
45.0713632628347
20
0.407607495721294
30
0
41
1
10
45.0520235729142
20
0.448145426700677
30
0
41
1
10
44.9975867397516
20
0.571722398743361
30
0
41
1
10
44.9623731280008
20
0.654856265051052
30
0
41
1
10
44.9300516447547
20
0.738914477584274
30
0
0
SPLINE
5
D8
100
AcDbEntity
8
1
62
256
6
ByLayer
370
18
48
1
60
0
100
AcDbSpline
70
4
71
3
72
12
73
8
40
0
40
0
40
0
40
0
40
0.249999999999999
40
0.249999999999999
40
0.499999999999999
40
0.499999999999999
40
1
40
1
40
1
40
1
41
1
10
4.25181863495246
20
2.44006898241545
30
0
41
1
10
4.23293026665189
20
2.44499941507559
30
0
41
1
10
4.21385462958497
20
2.45139086946534
30
0
41
1
10
4.1752677519344
20
2.4676091949361
30
0
41
1
10
4.15561761146699
20
2.47756069675083
30
0
41
1
10
4.09936782132786
20
2.51217918255227
30
0
41
1
10
4.06429892867482
20
2.54292909019932
30
0
41
1
10
4.04017087646551
20
2.5758921552339
30
0
0
SPLINE
5
D9
100
AcDbEntity
8
1
62
256
6
ByLayer
370
13
48
1
60
0
100
AcDbSpline
70
4
71
3
72
8
73
4
40
0
40
0
40
0
40
0
40
1
40
1
40
1
40
1
41
1
10
4.25087732403244
20
-0.447903707474836
30
0
41
1
10
4.20922137068837
20
-0.435155869351718
30
0
41
1
10
4.16850466951215
20
-0.424562102290253
30
0
41
1
10
4.13140577332976
20
-0.416512113807613
30
0
0
SPLINE
5
DA
100
AcDbEntity
8
1
62
256
6
ByLayer
370
18
48
1
60
0
100
AcDbSpline
70
4
71
3
72
59
73
55
40
0
40
0
40
0
40
0
40
0.0390600353340917
40
0.0390600353340917
40
0.176337173143513
40
0.176337173143513
40
0.313614310952934
40
0.313614310952934
40
0.382252879857645
40
0.382252879857645
40
0.450891448762357
40
0.450891448762357
40
0.588168586571781
40
0.588168586571781
40
0.622487871024136
40
0.622487871024136
40
0.631067692137226
40
0.635357602693771
40
0.635357602693771
40
0.639647513250317
40
0.639647513250317
40
0.641792468528589
40
0.641792468528589
40
0.643937423806861
40
0.643937423806861
40
0.648227334363405
40
0.648227334363405
40
0.656807155476493
40
0.656807155476493
40
0.691126439928844
40
0.691126439928844
40
0.70828608215502
40
0.70828608215502
40
0.725445724381196
40
0.725445724381196
40
0.742605366607371
40
0.742605366607371
40
0.759765008833547
40
0.759765008833547
40
0.776924651059722
40
0.776924651059722
40
0.794084293285898
40
0.794084293285898
40
0.811243935512073
40
0.811243935512073
40
0.828403577738249
40
0.828403577738249
40
0.862722862190599
40
0.862722862190599
40
0.897042146642949
40
0.897042146642949
40
0.931361431095299
40
0.931361431095299
40
1
40
1
40
1
40
1
41
1
10
10.86702701602
20
-2.81793291978371
30
0
41
1
10
10.7130977506827
20
-2.81725281232158
30
0
41
1
10
10.5587938146769
20
-2.81371211855696
30
0
41
1
10
9.86118415234071
20
-2.7865192728633
30
0
41
1
10
9.31383628857554
20
-2.7346669120505
30
0
41
1
10
8.20465228904737
20
-2.59897331286686
30
0
41
1
10
7.64275311802862
20
-2.51512474529719
30
0
41
1
10
6.78560458839073
20
-2.38763585694525
30
0
41
1
10
6.49752376518751
20
-2.34485607005695
30
0
41
1
10
5.91631573708747
20
-2.26224401102388
30
0
41
1
10
5.62367023358706
20
-2.22249881352406
30
0
41
1
10
4.74368689574362
20
-2.11301699957289
30
0
41
1
10
4.15259004557049
20
-2.053097508181
30
0
41
1
10
3.40762391457255
20
-2.00463831510214
30
0
41
1
10
3.25825948900965
20
-1.99624218755491
30
0
41
1
10
3.07138443596463
20
-1.98748361059881
30
0
41
1
10
3.01531344395804
20
-1.98498623300225
30
0
41
1
10
2.95922968859532
20
-1.98268632264512
30
0
41
1
10
2.92183767642402
20
-1.98119715916056
30
0
41
1
10
2.90314082593542
20
-1.98046642077125
30
0
41
1
10
2.87483552013589
20
-1.9834718792527
30
0
41
1
10
2.86544582125924
20
-1.98505731968652
30
0
41
1
10
2.84812456707417
20
-1.98961958455888
30
0
41
1
10
2.84033036314707
20
-1.99296866818585
30
0
41
1
10
2.81682166824211
20
-2.00282963821528
30
0
41
1
10
2.80121935652102
20
-2.00945576876111
30
0
41
1
10
2.75463429546454
20
-2.0294962077223
30
0
41
1
10
2.72383202818492
20
-2.04309106341586
30
0
41
1
10
2.57199501988694
20
-2.11199458846213
30
0
41
1
10
2.45771124715642
20
-2.16980100866593
30
0
41
1
10
2.3035615044704
20
-2.26161019811076
30
0
41
1
10
2.2550957834672
20
-2.29307005301658
30
0
41
1
10
2.16628629698386
20
-2.35807887620476
30
0
41
1
10
2.12648431477788
20
-2.39134785193619
30
0
41
1
10
2.06172981238012
20
-2.45690380148579
30
0
41
1
10
2.03620809350417
20
-2.48995092969426
30
0
41
1
10
2.00446406834123
20
-2.55184076651395
30
0
41
1
10
1.99782461366829
20
-2.58090599747001
30
0
41
1
10
2.00342280982372
20
-2.63459128218179
30
0
41
1
10
2.01546914718341
20
-2.65803795082775
30
0
41
1
10
2.05445160136668
20
-2.69904689534207
30
0
41
1
10
2.08138418925176
20
-2.71641301474196
30
0
41
1
10
2.14460093571464
20
-2.74510431726588
30
0
41
1
10
2.18111142373977
20
-2.75664499542216
30
0
41
1
10
2.26155400114502
20
-2.77521364270325
30
0
41
1
10
2.30537726439553
20
-2.78217743607434
30
0
41
1
10
2.44261423047806
20
-2.7972073809683
30
0
41
1
10
2.54260351776091
20
-2.79973947878233
30
0
41
1
10
2.75305840547148
20
-2.79438198026295
30
0
41
1
10
2.86401121619778
20
-2.78634404259208
30
0
41
1
10
3.08959739565518
20
-2.76234116201184
30
0
41
1
10
3.20472429087928
20
-2.74636161062997
30
0
41
1
10
3.55516893079627
20
-2.68869135895437
30
0
41
1
10
3.79544619641948
20
-2.63737260707458
30
0
41
1
10
4.04017087646446
20
-2.57589215523419
30
0
0
SPLINE
5
DB
100
AcDbEntity
8
1
62
256
6
ByLayer
370
18
48
1
60
0
100
AcDbSpline
70
4
71
3
72
38
73
34
40
0
40
0
40
0
40
0
40
0.0735809332287254
40
0.0735809332287254
40
0.110371399843088
40
0.110371399843088
40
0.147161866457451
40
0.147161866457451
40
0.294323732914903
40
0.294323732914903
40
0.331114199529266
40
0.331114199529266
40
0.367904666143628
40
0.367904666143628
40
0.441485599372352
40
0.441485599372352
40
0.515066532601077
40
0.515066532601077
40
0.588647465829801
40
0.588647465829801
40
0.662228399058526
40
0.662228399058526
40
0.699018865672888
40
0.699018865672888
40
0.73580933228725
40
0.73580933228725
40
0.882971198744696
40
0.882971198744696
40
0.919761665359057
40
0.919761665359057
40
0.956552131973418
40
0.956552131973418
40
1
40
1
40
1
40
1
41
1
10
45.0140715629312
20
-2.84946952719426
30
0
41
1
10
44.5873468856522
20
-2.89275522245046
30
0
41
1
10
44.1617419160972
20
-2.9068412928751
30
0
41
1
10
43.5212378232696
20
-2.88423800255941
30
0
41
1
10
43.3068704178447
20
-2.86932136137068
30
0
41
1
10
42.8803384311043
20
-2.82527912067761
30
0
41
1
10
42.6679470455319
20
-2.79619459462822
30
0
41
1
10
41.6085771411895
20
-2.61698890662029
30
0
41
1
10
40.7693010243166
20
-2.36539813256695
30
0
41
1
10
39.7012218301401
20
-1.9412901880365
30
0
41
1
10
39.4868238309563
20
-1.85108411189867
30
0
41
1
10
39.0609698376368
20
-1.663200709156
30
0
41
1
10
38.8488221863331
20
-1.56524719138798
30
0
41
1
10
38.213735197239
20
-1.26101823691505
30
0
41
1
10
37.7919699449586
20
-1.04465475594159
30
0
41
1
10
36.9457574652835
20
-0.595023999527115
30
0
41
1
10
36.5213225862201
20
-0.361750624166547
30
0
41
1
10
35.6642298038019
20
0.112181694834959
30
0
41
1
10
35.2393272010901
20
0.347819214120449
30
0
41
1
10
34.3926628329227
20
0.805816562228841
30
0
41
1
10
33.9704826748695
20
1.02798089403194
30
0
41
1
10
33.3349150486833
20
1.34392194642936
30
0
41
1
10
33.122640865441
20
1.44628975968553
30
0
41
1
10
32.6965018593301
20
1.64382816416875
30
0
41
1
10
32.4820143409393
20
1.7392741994816
30
0
41
1
10
31.4117682490135
20
2.1922493138936
30
0
41
1
10
30.5707172509963
20
2.47246800456932
30
0
41
1
10
29.5095623472291
20
2.69212679188186
30
0
41
1
10
29.2968288858369
20
2.72952517346175
30
0
41
1
10
28.8695846800586
20
2.79057212269626
30
0
41
1
10
28.6544736347631
20
2.81424376584567
30
0
41
1
10
28.1882870848253
20
2.84988106029527
30
0
41
1
10
27.9370491625
20
2.8590722649144
30
0
41
1
10
27.6864191714837
20
2.85832191568096
30
0
0
SPLINE
5
DC
100
AcDbEntity
8
1
62
256
6
ByLayer
370
18
48
1
60
0
100
AcDbSpline
70
4
71
3
72
22
73
18
40
0
40
0
40
0
40
0
40
0.111768699053641
40
0.111768699053641
40
0.259807249211368
40
0.259807249211368
40
0.333826524290231
40
0.333826524290231
40
0.407845799369094
40
0.407845799369094
40
0.703922899684548
40
0.703922899684548
40
0.777942174763411
40
0.777942174763411
40
0.851961449842274
40
0.851961449842274
40
1
40
1
40
1
40
1
41
1
10
12.793682584967
20
-2.71345685012119
30
0
41
1
10
12.4725133931563
20
-2.76067418483291
30
0
41
1
10
12.152236546382
20
-2.79224473685338
30
0
41
1
10
11.4067465577265
20
-2.82840045751905
30
0
41
1
10
10.9814518895104
20
-2.82095308502034
30
0
41
1
10
10.3381187934709
20
-2.76677946857842
30
0
41
1
10
10.122280411354
20
-2.74144921626586
30
0
41
1
10
9.69339525841619
20
-2.67731209273089
30
0
41
1
10
9.4797968373891
20
-2.63849262523234
30
0
41
1
10
8.41426763985899
20
-2.4123904956414
30
0
41
1
10
7.56961865037184
20
-2.12892098570342
30
0
41
1
10
6.49482874149439
20
-1.67683796975834
30
0
41
1
10
6.27904186812535
20
-1.58151076093284
30
0
41
1
10
5.84956869621672
20
-1.3842292213715
30
0
41
1
10
5.63526841570137
20
-1.28207553190006
30
0
41
1
10
4.99254302270578
20
-0.967041264452405
30
0
41
1
10
4.56424212477253
20
-0.745691884107572
30
0
41
1
10
4.13353580272818
20
-0.517494106921447
30
0
0
SPLINE
5
DD
100
AcDbEntity
8
1
62
256
6
ByLayer
370
18
48
1
60
0
100
AcDbSpline
70
4
71
3
72
10
73
6
40
0
40
0
40
0
40
0
40
0.5
40
0.5
40
1
40
1
40
1
40
1
41
1
10
4.130953622069
20
-0.516117266612213
30
0
41
1
10
4.10556976941163
20
-0.502493481190697
30
0
41
1
10
4.08326213974885
20
-0.483885210146212
30
0
41
1
10
4.05018885464676
20
-0.437751942133048
30
0
41
1
10
4.03947120308533
20
-0.410335609223409
30
0
41
1
10
4.03948048040718
20
-0.381489268778779
30
0
0
SPLINE
5
DE
100
AcDbEntity
8
1
62
256
6
ByLayer
370
18
48
1
60
0
100
AcDbSpline
70
4
71
3
72
14
73
10
40
0
40
0
40
0
40
0
40
0.368386405719835
40
0.368386405719835
40
0.73677281143967
40
0.73677281143967
40
0.920966014299587
40
0.920966014299587
40
1
40
1
40
1
40
1
41
1
10
4.20334037325662
20
-0.55104231255882
30
0
41
1
10
4.63288654849043
20
-0.776639433047961
30
0
41
1
10
5.05883457048179
20
-0.994459127324603
30
0
41
1
10
5.9088925324242
20
-1.40621531360352
30
0
41
1
10
6.33299344330368
20
-1.60015571855635
30
0
41
1
10
6.97230336025564
20
-1.86539426725093
30
0
41
1
10
7.18590646313811
20
-1.94957341168581
30
0
41
1
10
7.4923650311824
20
-2.06302752313832
30
0
41
1
10
7.58459813542714
20
-2.09622433424102
30
0
41
1
10
7.6768395134998
20
-2.12843418959477
30
0
0
SPLINE
5
DF
100
AcDbEntity
8
1
62
256
6
ByLayer
370
13
48
1
60
0
100
AcDbSpline
70
4
71
3
72
18
73
14
40
0
40
0
40
0
40
0
40
0.0732616191581274
40
0.0732616191581274
40
0.329906740106268
40
0.329906740106268
40
0.586551861054409
40
0.586551861054409
40
0.714874421528478
40
0.714874421528478
40
0.843196982002547
40
0.843196982002547
40
1
40
1
40
1
40
1
41
1
10
7.6768397242499
20
-2.12843426318682
30
0
41
1
10
7.79957205858759
20
-2.17129128282161
30
0
41
1
10
7.92231904045843
20
-2.21240101586326
30
0
41
1
10
8.47289670831498
20
-2.38839131109086
30
0
41
1
10
8.89782264552042
20
-2.50147979101223
30
0
41
1
10
9.74660078363587
20
-2.67587899038719
30
0
41
1
10
10.1704504759309
20
-2.7372226425812
30
0
41
1
10
10.8095746194192
20
-2.78773997855581
30
0
41
1
10
11.0231784150664
20
-2.79767254546488
30
0
41
1
10
11.4522280749281
20
-2.80328878652878
30
0
41
1
10
11.667460787981
20
-2.79894082042426
30
0
41
1
10
12.1424612966492
20
-2.77363851337887
30
0
41
1
10
12.4024842351917
20
-2.74920738718885
30
0
41
1
10
12.6619632848192
20
-2.71470058904239
30
0
0
SPLINE
5
E0
100
AcDbEntity
8
1
62
256
6
ByLayer
370
18
48
1
60
0
100
AcDbSpline
70
4
71
3
72
24
73
20
40
0
40
0
40
0
40
0
40
0.0931822213776759
40
0.0931822213776759
40
0.235662917395758
40
0.235662917395758
40
0.306903265404802
40
0.306903265404802
40
0.378143613413845
40
0.378143613413845
40
0.663105005450013
40
0.663105005450013
40
0.734345353459055
40
0.734345353459055
40
0.805585701468097
40
0.805585701468097
40
0.948066397486179
40
0.948066397486179
40
1
40
1
40
1
40
1
41
1
10
31.4867292027147
20
2.12585419839505
30
0
41
1
10
31.7631716688301
20
2.02547991358841
30
0
41
1
10
32.0392795442922
20
1.91616661319327
30
0
41
1
10
32.7386402805878
20
1.61970065650797
30
0
41
1
10
33.1625895570809
20
1.42203144960257
30
0
41
1
10
33.8043748034606
20
1.1036144411776
30
0
41
1
10
34.0180649118717
20
0.994545965601532
30
0
41
1
10
34.4430346383651
20
0.77302834140994
30
0
41
1
10
34.6547176019006
20
0.660382237281681
30
0
41
1
10
35.7110068997365
20
0.0912173774453038
30
0
41
1
10
36.5493073119044
20
-0.383013700193402
30
0
41
1
10
37.6174452095016
20
-0.946116995497874
30
0
41
1
10
37.8313018828727
20
-1.05682946367574
30
0
41
1
10
38.2561709419721
20
-1.2711504803323
30
0
41
1
10
38.4677732886182
20
-1.37508244630047
30
0
41
1
10
39.1012635776963
20
-1.67539602517428
30
0
41
1
10
39.5219288847253
20
-1.86009280965649
30
0
41
1
10
40.0972013854078
20
-2.08589018447177
30
0
41
1
10
40.2510158362152
20
-2.1436391899183
30
0
41
1
10
40.4051132950384
20
-2.19861743682426
30
0
0
SPLINE
5
E1
100
AcDbEntity
8
1
62
256
6
ByLayer
370
13
48
1
60
0
100
AcDbSpline
70
4
71
3
72
18
73
14
40
0
40
0
40
0
40
0
40
0.174804989677189
40
0.174804989677189
40
0.312337491397661
40
0.312337491397661
40
0.449869993118134
40
0.449869993118134
40
0.72493499655907
40
0.72493499655907
40
0.862467498279535
40
0.862467498279535
40
1
40
1
40
1
40
1
41
1
10
40.4051132947044
20
-2.19861743670512
30
0
41
1
10
40.6737847587119
20
-2.29447291802654
30
0
41
1
10
40.9433165245874
20
-2.38190570947054
30
0
41
1
10
41.427774900359
20
-2.52115816782344
30
0
41
1
10
41.6417487440946
20
-2.57645155928981
30
0
41
1
10
42.0665370039027
20
-2.67317033349102
30
0
41
1
10
42.2780748274519
20
-2.71480185258287
30
0
41
1
10
42.9112406365891
20
-2.81909839028026
30
0
41
1
10
43.3313440412015
20
-2.86121271679514
30
0
41
1
10
43.9629636249239
20
-2.8822144557891
30
0
41
1
10
44.1737473357315
20
-2.88217419389329
30
0
41
1
10
44.5963972520763
20
-2.86777636873347
30
0
41
1
10
44.8083163941364
20
-2.85304654427648
30
0
41
1
10
45.020976843411
20
-2.83187764824993
30
0
0
SPLINE
5
E2
100
AcDbEntity
8
1
62
256
6
ByLayer
370
18
48
1
60
0
100
AcDbSpline
70
4
71
3
72
8
73
4
40
0
40
0
40
0
40
0
40
1
40
1
40
1
40
1
41
1
10
45.9999255025083
20
0.0341003852686015
30
0
41
1
10
45.9903009048484
20
0.0079887009822528
30
0
41
1
10
45.9791851937383
20
-0.0171746463095133
30
0
41
1
10
45.9681687093144
20
-0.0381170871618508
30
0
0
SPLINE
5
E3
100
AcDbEntity
8
1
62
256
6
ByLayer
370
18
48
1
60
0
100
AcDbSpline
70
4
71
3
72
18
73
14
40
0
40
0
40
0
40
0
40
0.25
40
0.25
40
0.375
40
0.375
40
0.5
40
0.5
40
0.75
40
0.75
40
0.875
40
0.875
40
1
40
1
40
1
40
1
41
1
10
44.9669604164392
20
-2.78232028630873
30
0
41
1
10
44.9048583046782
20
-2.77707935602979
30
0
41
1
10
44.847231456881
20
-2.75866327426624
30
0
41
1
10
44.7681620592916
20
-2.70933934045505
30
0
41
1
10
44.7430400043842
20
-2.68919041643861
30
0
41
1
10
44.6964401860271
20
-2.64222832747532
30
0
41
1
10
44.6748139324471
20
-2.61534126655718
30
0
41
1
10
44.614998641309
20
-2.52437553804887
30
0
41
1
10
44.5818250643764
20
-2.45009002662386
30
0
41
1
10
44.5430562931383
20
-2.31629302937844
30
0
41
1
10
44.5320258756774
20
-2.26797366770097
30
0
41
1
10
44.5142316485718
20
-2.16565487852321
30
0
41
1
10
44.5073953826509
20
-2.11143128460492
30
0
41
1
10
44.5026461209203
20
-2.05410460012246
30
0
0
SPLINE
5
E4
100
AcDbEntity
8
1
62
256
6
ByLayer
370
18
48
1
60
0
100
AcDbSpline
70
4
71
3
72
8
73
4
40
0
40
0
40
0
40
0
40
1
40
1
40
1
40
1
41
1
10
45.0140715629313
20
2.84946952719426
30
0
41
1
10
44.6883433894449
20
2.8825104343754
30
0
41
1
10
44.3630042556741
20
2.89856463968951
30
0
41
1
10
44.0369318439197
20
2.89756934665817
30
0
0
SPLINE
5
E5
100
AcDbEntity
8
1
62
256
6
ByLayer
370
18
48
1
60
0
100
AcDbSpline
70
4
71
3
72
42
73
38
40
0
40
0
40
0
40
0
40
0.0026593599893492
40
0.0026593599893492
40
0.0385969659949296
40
0.0385969659949296
40
0.110472178006092
40
0.110472178006092
40
0.182347390017254
40
0.182347390017254
40
0.218284996022835
40
0.218284996022835
40
0.254222602028417
40
0.254222602028417
40
0.39797302605074
40
0.39797302605074
40
0.433910632056321
40
0.433910632056321
40
0.469848238061902
40
0.469848238061902
40
0.541723450073065
40
0.541723450073065
40
0.613598662084227
40
0.613598662084227
40
0.649536268089809
40
0.649536268089809
40
0.68547387409539
40
0.68547387409539
40
0.829224298117718
40
0.829224298117718
40
0.8651619041233
40
0.8651619041233
40
0.901099510128882
40
0.901099510128882
40
0.972974722140046
40
0.972974722140046
40
1
40
1
40
1
40
1
41
1
10
29.1401402726806
20
-2.75174807379767
30
0
41
1
10
29.1243140368148
20
-2.75410144455833
30
0
41
1
10
29.1084825055736
20
-2.75641728133886
30
0
41
1
10
28.8786303718186
20
-2.78948157914286
30
0
41
1
10
28.6639955608044
20
-2.81328495379972
30
0
41
1
10
28.0245199168805
20
-2.86284589463301
30
0
41
1
10
27.6012063590734
20
-2.86709834685124
30
0
41
1
10
26.7549168587275
20
-2.81926257732431
30
0
41
1
10
26.3318869482025
20
-2.76718495453861
30
0
41
1
10
25.6933035776875
20
-2.64789983087985
30
0
41
1
10
25.4797642436757
20
-2.60127618257891
30
0
41
1
10
25.0505183657346
20
-2.4945892743213
30
0
41
1
10
24.8366983734292
20
-2.43499884399125
30
0
41
1
10
23.7716712498019
20
-2.10854966346656
30
0
41
1
10
22.9305845251012
20
-1.75584221218725
30
0
41
1
10
21.8638669515825
20
-1.24077403981352
30
0
41
1
10
21.6491863936321
20
-1.13375867099253
30
0
41
1
10
21.2203043544831
20
-0.914784157552589
30
0
41
1
10
21.0068404398399
20
-0.803242357360062
30
0
41
1
10
20.3682607845355
20
-0.464545427010393
30
0
41
1
10
19.9448239877937
20
-0.233567158438575
30
0
41
1
10
19.0972773065252
20
0.228945979854274
30
0
41
1
10
18.672921199824
20
0.460019801886574
30
0
41
1
10
18.0315039117254
20
0.798849776836335
30
0
41
1
10
17.8161690899798
20
0.910774513314948
30
0
41
1
10
17.3877844312639
20
1.1281594004088
30
0
41
1
10
17.1744598835438
20
1.23369349634226
30
0
41
1
10
16.110410802008
20
1.74300143223644
30
0
41
1
10
15.2678255228179
20
2.09214229178045
30
0
41
1
10
14.1961353985684
20
2.41350176030963
30
0
41
1
10
13.9806297293721
20
2.47209489184155
30
0
41
1
10
13.5526208420123
20
2.57558289678264
30
0
41
1
10
13.3394078011479
20
2.62066764472715
30
0
41
1
10
12.7011067790718
20
2.7356150454755
30
0
41
1
10
12.2774990317117
20
2.78521161854064
30
0
41
1
10
11.6930496534044
20
2.81484303258702
30
0
41
1
10
11.5332176594583
20
2.81897975793208
30
0
41
1
10
11.3730944709648
20
2.81911378140529
30
0
0
SPLINE
5
E6
100
AcDbEntity
8
1
62
256
6
ByLayer
370
18
48
1
60
0
100
AcDbSpline
70
4
71
3
72
8
73
4
40
0
40
0
40
0
40
0
40
1
40
1
40
1
40
1
41
1
10
45.3742429621094
20
-1.66332068874189
30
0
41
1
10
45.2384821135528
20
-2.03632055459738
30
0
41
1
10
45.1027212649961
20
-2.40932042045281
30
0
41
1
10
44.9669604164396
20
-2.78232028630816
30
0
0
SPLINE
5
E7
100
AcDbEntity
8
1
62
256
6
ByLayer
370
18
48
1
60
0
100
AcDbSpline
70
4
71
3
72
8
73
4
40
0
40
0
40
0
40
0
40
1
40
1
40
1
40
1
41
1
10
4.13353580274998
20
-0.517494106932986
30
0
41
1
10
4.13267384360933
20
-0.517037421832612
30
0
41
1
10
4.13181307161955
20
-0.516578542385247
30
0
41
1
10
4.13095362206906
20
-0.516117266612241
30
0
0
SPLINE
5
E8
100
AcDbEntity
8
1
62
256
6
ByLayer
370
18
48
1
60
0
100
AcDbSpline
70
4
71
3
72
8
73
4
40
0
40
0
40
0
40
0
40
1
40
1
40
1
40
1
41
1
10
45.9999255025083
20
0.0341003852685731
30
0
41
1
10
46.0000248322363
20
0.0113668547096495
30
0
41
1
10
46.0000248322364
20
-0.0113668547024588
30
0
41
1
10
45.9999255025083
20
-0.0341003852614108
30
0
0
SPLINE
5
E9
100
AcDbEntity
8
1
62
256
6
ByLayer
370
18
48
1
60
0
100
AcDbSpline
70
4
71
3
72
16
73
12
40
0
40
0
40
0
40
0
40
0.150640186482099
40
0.150640186482099
40
0.551281550404383
40
0.551281550404383
40
0.75160223236553
40
0.75160223236553
40
0.951922914326678
40
0.951922914326678
40
1
40
1
40
1
40
1
41
1
10
44.2453393727714
20
-2.78209899199101
30
0
41
1
10
44.0866396582008
20
-2.78165987123632
30
0
41
1
10
43.9281917633296
20
-2.77733747726686
30
0
41
1
10
43.3488203591282
20
-2.7474694758655
30
0
41
1
10
42.9286707712503
20
-2.69871768128104
30
0
41
1
10
42.2955468275245
20
-2.58627157879391
30
0
41
1
10
42.0840461933964
20
-2.54223323017675
30
0
41
1
10
41.6594102248134
20
-2.44138023913448
30
0
41
1
10
41.4455655199848
20
-2.38435595511436
30
0
41
1
10
41.1814266609125
20
-2.30669935296558
30
0
41
1
10
41.1303562762935
20
-2.29135032378039
30
0
41
1
10
41.0793344767092
20
-2.27568983216739
30
0
0
SPLINE
5
EA
100
AcDbEntity
8
1
62
256
6
ByLayer
370
13
48
1
60
0
100
AcDbSpline
70
4
71
3
72
24
73
20
40
0
40
0
40
0
40
0
40
0.120837648987973
40
0.120837648987973
40
0.258153206719166
40
0.258153206719166
40
0.326810985584761
40
0.326810985584761
40
0.395468764450356
40
0.395468764450356
40
0.670099879912736
40
0.670099879912736
40
0.738757658778331
40
0.738757658778331
40
0.807415437643925
40
0.807415437643925
40
0.94473099537511
40
0.94473099537511
40
1
40
1
40
1
40
1
41
1
10
41.0793344767058
20
-2.27568983216634
30
0
41
1
10
40.7051756920492
20
-2.16084655817798
30
0
41
1
10
40.3336296875181
20
-2.02925362356467
30
0
41
1
10
39.5414225048216
20
-1.71842774600799
30
0
41
1
10
39.1208752905616
20
-1.53517086520398
30
0
41
1
10
38.4875441900979
20
-1.23922951868619
30
0
41
1
10
38.2760069215953
20
-1.1371084597146
30
0
41
1
10
37.8513443804064
20
-0.927095362428702
30
0
41
1
10
37.6375885084046
20
-0.818875279644175
30
0
41
1
10
36.5710741598181
20
-0.270359660691184
30
0
41
1
10
35.7329106560131
20
0.187857216245419
30
0
41
1
10
34.6769976704692
20
0.73299950248159
30
0
41
1
10
34.4654077035032
20
0.84065741079138
30
0
41
1
10
34.0406669554565
20
1.05179504217639
30
0
41
1
10
33.827024082227
20
1.15546679494716
30
0
41
1
10
33.186203169044
20
1.45707199690509
30
0
41
1
10
32.7626131289807
20
1.64334719393557
30
0
41
1
10
32.1699592239589
20
1.87871561013159
30
0
41
1
10
32.000017474629
20
1.94326272539718
30
0
41
1
10
31.8300513035734
20
2.00458200163092
30
0
0
SPLINE
5
EB
100
AcDbEntity
8
1
62
256
6
ByLayer
370
18
48
1
60
0
100
AcDbSpline
70
4
71
3
72
14
73
10
40
0
40
0
40
0
40
0
40
0.0777515366030016
40
0.0777515366030016
40
0.269606796693586
40
0.269606796693586
40
0.653317316874755
40
0.653317316874755
40
1
40
1
40
1
40
1
41
1
10
11.5394352939508
20
-2.70309552391586
30
0
41
1
10
11.4525067690553
20
-2.70276714679815
30
0
41
1
10
11.3655546843079
20
-2.70131528424474
30
0
41
1
10
11.0644489769602
20
-2.69238440751127
30
0
41
1
10
10.851054683606
20
-2.67920542141525
30
0
41
1
10
10.2124480635744
20
-2.61978576538689
30
0
41
1
10
9.78879537449669
20
-2.55368721074783
30
0
41
1
10
8.98140044321258
20
-2.38105641457585
30
0
41
1
10
8.59773184067191
20
-2.27903582850274
30
0
41
1
10
8.2116691192862
20
-2.15855377495788
30
0
0
SPLINE
5
EC
100
AcDbEntity
8
1
62
256
6
ByLayer
370
13
48
1
60
0
100
AcDbSpline
70
4
71
3
72
14
73
10
40
0
40
0
40
0
40
0
40
0.0311640314115751
40
0.0311640314115751
40
0.19263669284298
40
0.19263669284298
40
0.354109354274384
40
0.354109354274384
40
1
40
1
40
1
40
1
41
1
10
8.21166911836494
20
-2.15855377467037
30
0
41
1
10
8.1704352519784
20
-2.14568555242613
30
0
41
1
10
8.12917407456129
20
-2.13260673006761
30
0
41
1
10
7.87393953382073
20
-2.05047196896297
30
0
41
1
10
7.65859396645629
20
-1.9757797030631
30
0
41
1
10
7.23021140175337
20
-1.81763798863059
30
0
41
1
10
7.01683172343863
20
-1.73410018687596
30
0
41
1
10
5.95231021554767
20
-1.2968996250539
30
0
41
1
10
5.10848963498165
20
-0.884904765549919
30
0
41
1
10
4.25087732403247
20
-0.447903707474865
30
0
0
SPLINE
5
ED
100
AcDbEntity
8
1
62
256
6
ByLayer
370
13
48
1
60
0
100
AcDbSpline
70
4
71
3
72
10
73
6
40
0
40
0
40
0
40
0
40
0.5
40
0.5
40
1
40
1
40
1
40
1
41
1
10
4.13140577332976
20
-0.416512113807613
30
0
41
1
10
4.11195297224785
20
-0.412291103459154
30
0
41
1
10
4.09466983326536
20
-0.407194602293941
30
0
41
1
10
4.06386795264513
20
-0.395390623886072
30
0
41
1
10
4.0504262919232
20
-0.388648432264716
30
0
41
1
10
4.03948048039126
20
-0.381489268839147
30
0
0
SPLINE
5
EE
100
AcDbEntity
8
1
62
256
6
ByLayer
370
18
48
1
60
0
100
AcDbSpline
70
4
71
3
72
20
73
16
40
0
40
0
40
0
40
0
40
0.120904352675785
40
0.120904352675785
40
0.24180870535157
40
0.24180870535157
40
0.483617410703137
40
0.483617410703137
40
0.725426116054704
40
0.725426116054704
40
0.846330468730486
40
0.846330468730486
40
0.967234821406268
40
0.967234821406268
40
1
40
1
40
1
40
1
41
1
10
12.0145120454961
20
2.76299900215019
30
0
41
1
10
11.7515333787902
20
2.79116958882861
30
0
41
1
10
11.4853511877318
20
2.80759397616512
30
0
41
1
10
10.9466663288875
20
2.82119155459805
30
0
41
1
10
10.675809815612
20
2.81827340580517
30
0
41
1
10
9.86118415234796
20
2.78651927286381
30
0
41
1
10
9.31383628858441
20
2.73466691205141
30
0
41
1
10
8.2046522890596
20
2.59897331286857
30
0
41
1
10
7.64275311804252
20
2.51512474529926
30
0
41
1
10
6.78560458840741
20
2.38763585694773
30
0
41
1
10
6.49752376520513
20
2.34485607005954
30
0
41
1
10
5.91631573710697
20
2.26224401102655
30
0
41
1
10
5.62367023360744
20
2.22249881352673
30
0
41
1
10
5.25085038591178
20
2.17611498846145
30
0
41
1
10
5.17127677377925
20
2.16646504163808
30
0
41
1
10
5.09162053631027
20
2.15707514612643
30
0
0
SPLINE
5
EF
100
AcDbEntity
8
1
62
256
6
ByLayer
370
18
48
1
60
0
100
AcDbSpline
70
4
71
3
72
14
73
10
40
0
40
0
40
0
40
0
40
0.0436235978075522
40
0.0436235978075522
40
0.282717698355662
40
0.282717698355662
40
0.521811798903771
40
0.521811798903771
40
1
40
1
40
1
40
1
41
1
10
2.59077648319911
20
2.79799274536259
30
0
41
1
10
2.60960706828789
20
2.79786475914526
30
0
41
1
10
2.62863182754907
20
2.79754947717515
30
0
41
1
10
2.75305840546301
20
2.79438198026344
30
0
41
1
10
2.86401121619005
20
2.78634404259276
30
0
41
1
10
3.08959739565057
20
2.76234116201246
30
0
41
1
10
3.20472429087599
20
2.74636161063046
30
0
41
1
10
3.55516893079619
20
2.68869135895446
30
0
41
1
10
3.7954461964205
20
2.63737260707433
30
0
41
1
10
4.04017087646579
20
2.57589215523385
30
0
0
SPLINE
5
F0
100
AcDbEntity
8
SK1
62
256
6
ByLayer
370
18
48
1
60
0
100
AcDbSpline
70
4
71
3
72
14
73
10
40
0
40
0
40
0
40
0
40
0.499999999999998
40
0.499999999999998
40
0.75
40
0.75
40
0.875
40
0.875
40
1
40
1
40
1
40
1
41
1
10
-35.3999999999999
20
-2.69478632692253
30
0
41
1
10
-35.3787640420199
20
-2.73297211217616
30
0
41
1
10
-35.3584446617106
20
-2.77110339896092
30
0
41
1
10
-35.3303352939728
20
-2.82671046657208
30
0
41
1
10
-35.3214252370352
20
-2.84487835598338
30
0
41
1
10
-35.3103316972355
20
-2.86904024556915
30
0
41
1
10
-35.3069617448148
20
-2.87668955568449
30
0
41
1
10
-35.3017577402302
20
-2.88978324581745
30
0
41
1
10
-35.2999999999999
20
-2.89508365645963
30
0
41
1
10
-35.2999999999999
20
-2.89738829210893
30
0
0
SPLINE
5
F1
100
AcDbEntity
8
SK1
62
256
6
ByLayer
370
18
48
1
60
0
100
AcDbSpline
70
4
71
3
72
14
73
10
40
0
40
0
40
0
40
0
40
0.125
40
0.125
40
0.25
40
0.25
40
0.5
40
0.5
40
1
40
1
40
1
40
1
41
1
10
-35.3
20
-2.88273748547823
30
0
41
1
10
-35.3
20
-2.88019003524747
30
0
41
1
10
-35.301771938971
20
-2.87463427637843
30
0
41
1
10
-35.3069080081445
20
-2.86132279671963
30
0
41
1
10
-35.3102955277052
20
-2.85345888654768
30
0
41
1
10
-35.3214827917301
20
-2.82866748889859
30
0
41
1
10
-35.3303438015786
20
-2.81040668948802
30
0
41
1
10
-35.3582567484642
20
-2.75470503072481
30
0
41
1
10
-35.3787013333983
20
-2.71618009582844
30
0
41
1
10
-35.4
20
-2.67788155004101
30
0
0
SPLINE
5
F2
100
AcDbEntity
8
SK1
62
256
6
ByLayer
370
18
48
1
60
0
100
AcDbSpline
70
4
71
3
72
8
73
4
40
0
40
0
40
0
40
0
40
1
40
1
40
1
40
1
41
1
10
-35.4
20
-2.67788155004101
30
0
41
1
10
-35.6037660320127
20
-2.31147632604663
30
0
41
1
10
-35.8061189543146
20
-1.94423800234969
30
0
41
1
10
-35.9999999999999
20
-1.5725860285917
30
0
0
SPLINE
5
F3
100
AcDbEntity
8
SK1
62
256
6
ByLayer
370
18
48
1
60
0
100
AcDbSpline
70
4
71
3
72
8
73
4
40
0
40
0
40
0
40
0
40
1
40
1
40
1
40
1
41
1
10
-36
20
-1.58949080547293
30
0
41
1
10
-35.8060530924688
20
-1.96126903027786
30
0
41
1
10
-35.6037424709857
20
-2.32842346957406
30
0
41
1
10
-35.4
20
-2.69478632692244
30
0
0
SPLINE
5
F4
100
AcDbEntity
8
SK1
62
256
6
ByLayer
370
18
48
1
60
0
100
AcDbSpline
70
4
71
3
72
14
73
10
40
0
40
0
40
0
40
0
40
0.500000000000001
40
0.500000000000001
40
0.749999999999999
40
0.749999999999999
40
0.875
40
0.875
40
1
40
1
40
1
40
1
41
1
10
-35.3999999999999
20
2.6947863269225
30
0
41
1
10
-35.3787640420199
20
2.73297211217616
30
0
41
1
10
-35.3584446617106
20
2.77110339896092
30
0
41
1
10
-35.3303352939728
20
2.82671046657205
30
0
41
1
10
-35.3214252370352
20
2.84487835598338
30
0
41
1
10
-35.3103316972355
20
2.86904024556915
30
0
41
1
10
-35.3069617448148
20
2.87668955568449
30
0
41
1
10
-35.3017577402302
20
2.88978324581745
30
0
41
1
10
-35.2999999999999
20
2.89508365645963
30
0
41
1
10
-35.2999999999999
20
2.89738829210893
30
0
0
SPLINE
5
F5
100
AcDbEntity
8
SK1
62
256
6
ByLayer
370
18
48
1
60
0
100
AcDbSpline
70
4
71
3
72
8
73
4
40
0
40
0
40
0
40
0
40
1
40
1
40
1
40
1
41
1
10
-36
20
1.58949080547293
30
0
41
1
10
-35.8060530924688
20
1.96126903027786
30
0
41
1
10
-35.6037424709858
20
2.32842346957406
30
0
41
1
10
-35.4
20
2.69478632692241
30
0
0
LINE
5
76
100
AcDbEntity
8
81
62
256
6
ByLayer
370
18
48
1
60
0
100
AcDbLine
10
46
20
0
30
0
11
51
21
0
31
0
39
0
210
0
220
0
230
1
0
LINE
5
77
100
AcDbEntity
8
1
62
256
6
ByLayer
370
18
48
1
60
0
100
AcDbLine
10
2.570683
20
2.798045
30
0
11
0.350994
21
2.792718
31
0
39
0
210
0
220
0
230
1
0
LINE
5
79
100
AcDbEntity
8
1
62
256
6
ByLayer
370
18
48
1
60
0
100
AcDbLine
10
11.341953
20
2.819096
30
0
11
10.879304
21
2.817986
31
0
39
0
210
0
220
0
230
1
0
LINE
5
7A
100
AcDbEntity
8
1
62
256
6
ByLayer
370
18
48
1
60
0
100
AcDbLine
10
27.692272
20
2.858337
30
0
11
27.345372
21
2.857505
31
0
39
0
210
0
220
0
230
1
0
LINE
5
7B
100
AcDbEntity
8
1
62
256
6
ByLayer
370
18
48
1
60
0
100
AcDbLine
10
44.041182
20
2.897575
30
0
11
43.733653
21
2.896837
31
0
39
0
210
0
220
0
230
1
0
LINE
5
7C
100
AcDbEntity
8
1
62
256
6
ByLayer
370
18
48
1
60
0
100
AcDbLine
10
43.733653
20
-2.896837
30
0
11
44.04284
21
-2.897579
31
0
39
0
210
0
220
0
230
1
0
LINE
5
7D
100
AcDbEntity
8
1
62
256
6
ByLayer
370
18
48
1
60
0
100
AcDbLine
10
10.879304
20
-2.817986
30
0
11
11.341628
21
-2.819096
31
0
39
0
210
0
220
0
230
1
0
LINE
5
7E
100
AcDbEntity
8
1
62
256
6
ByLayer
370
18
48
1
60
0
100
AcDbLine
10
0.350994
20
-2.792718
30
0
11
2.570683
21
-2.798045
31
0
39
0
210
0
220
0
230
1
0
LINE
5
7F
100
AcDbEntity
8
SK1
62
256
6
ByLayer
370
18
48
1
60
0
100
AcDbLine
10
-35.278312
20
3
30
0
11
-35.3
21
2.962436
31
0
39
0
210
0
220
0
230
1
0
LINE
5
81
100
AcDbEntity
8
SK1
62
256
6
ByLayer
370
18
48
1
60
0
100
AcDbLine
10
-35.3
20
-2.962436
30
0
11
-35.278312
21
-3
31
0
39
0
210
0
220
0
230
1
0
LINE
5
82
100
AcDbEntity
8
SK1
62
256
6
ByLayer
370
18
48
1
60
0
100
AcDbLine
10
0
20
3
30
0
11
-35.278312
21
3
31
0
39
0
210
0
220
0
230
1
0
LINE
5
83
100
AcDbEntity
8
SK1
62
256
6
ByLayer
370
18
48
1
60
0
100
AcDbLine
10
-35.278312
20
-3
30
0
11
0
21
-3
31
0
39
0
210
0
220
0
230
1
0
LINE
5
84
100
AcDbEntity
8
1
62
256
6
ByLayer
370
18
48
1
60
0
100
AcDbLine
10
27.345372
20
-2.857505
30
0
11
27.692066
21
-2.858337
31
0
39
0
210
0
220
0
230
1
0
LINE
5
85
100
AcDbEntity
8
SK4
62
256
6
ByLayer
370
18
48
0.05
60
0
100
AcDbLine
10
51
20
0
30
0
11
-41
21
0
31
0
39
0
210
0
220
0
230
1
0
LINE
5
87
100
AcDbEntity
8
4
62
256
6
ByLayer
370
18
48
0.05
60
0
100
AcDbLine
10
46
20
0
30
0
11
0
21
0
31
0
39
0
210
0
220
0
230
1
0
LINE
5
89
100
AcDbEntity
8
80
62
256
6
ByLayer
370
18
48
1
60
0
100
AcDbLine
10
0
20
0
30
0
11
-5
21
0
31
0
39
0
210
0
220
0
230
1
0
LINE
5
8A
100
AcDbEntity
8
1
62
256
6
ByLayer
370
18
48
1
60
0
100
AcDbLine
10
0
20
-3
30
0
11
0
21
3
31
0
39
0
210
0
220
0
230
1
0
LINE
5
8B
100
AcDbEntity
8
1
62
256
6
ByLayer
370
13
48
1
60
0
100
AcDbLine
10
45.059413
20
0.631699
30
0
11
45.816282
21
0.04919
31
0
39
0
210
0
220
0
230
1
0
LINE
5
8C
100
AcDbEntity
8
1
62
256
6
ByLayer
370
13
48
1
60
0
100
AcDbLine
10
45.857609
20
0.772411
30
0
11
45.204057
21
0.812842
31
0
39
0
210
0
220
0
230
1
0
LINE
5
8D
100
AcDbEntity
8
1
62
256
6
ByLayer
370
13
48
1
60
0
100
AcDbLine
10
45.943496
20
0.243748
30
0
11
45.204057
21
0.812842
31
0
39
0
210
0
220
0
230
1
0
LINE
5
8E
100
AcDbEntity
8
1
62
256
6
ByLayer
370
13
48
1
60
0
100
AcDbLine
10
0.350994
20
2.792718
30
0
11
0.350994
21
-2.792718
31
0
39
0
210
0
220
0
230
1
0
LINE
5
8F
100
AcDbEntity
8
1
62
256
6
ByLayer
370
13
48
1
60
0
100
AcDbLine
10
45.935226
20
0.225066
30
0
11
45.959485
21
0.211122
31
0
39
0
210
0
220
0
230
1
0
LINE
5
90
100
AcDbEntity
8
1
62
256
6
ByLayer
370
18
48
1
60
0
100
AcDbLine
10
44.502646
20
-2.054105
30
0
11
45.960361
21
-0.052974
31
0
39
0
210
0
220
0
230
1
0
LINE
5
91
100
AcDbEntity
8
1
62
256
6
ByLayer
370
13
48
1
60
0
100
AcDbLine
10
0.175257
20
2.896359
30
0
11
0.175257
21
-2.896359
31
0
39
0
210
0
220
0
230
1
0
LINE
5
92
100
AcDbEntity
8
1
62
256
6
ByLayer
370
18
48
1
60
0
100
AcDbLine
10
45.943496
20
0.313449
30
0
11
45.943496
21
0.243748
31
0
39
0
210
0
220
0
230
1
0
LINE
5
93
100
AcDbEntity
8
1
62
256
6
ByLayer
370
13
48
1
60
0
100
AcDbLine
10
45.816282
20
0.04919
30
0
11
45.968169
21
-0.038117
31
0
39
0
210
0
220
0
230
1
0
LINE
5
94
100
AcDbEntity
8
SK1
62
256
6
ByLayer
370
18
48
1
60
0
100
AcDbLine
10
-35.3
20
-2.962436
30
0
11
-35.3
21
-2.882737
31
0
39
0
210
0
220
0
230
1
0
LINE
5
95
100
AcDbEntity
8
SK1
62
256
6
ByLayer
370
18
48
1
60
0
100
AcDbLine
10
-35.3
20
2.962436
30
0
11
-35.3
21
2.897388
31
0
39
0
210
0
220
0
230
1
0
LINE
5
96
100
AcDbEntity
8
SK1
62
256
6
ByLayer
370
18
48
1
60
0
100
AcDbLine
10
0
20
-3
30
0
11
0
21
3
31
0
39
0
210
0
220
0
230
1
0
LINE
5
97
100
AcDbEntity
8
SK1
62
256
6
ByLayer
370
18
48
1
60
0
100
AcDbLine
10
-36
20
1.589491
30
0
11
-36
21
-1.572586
31
0
39
0
210
0
220
0
230
1
0
LINE
5
98
100
AcDbEntity
8
SK1
62
256
6
ByLayer
370
18
48
1
60
0
100
AcDbLine
10
-36
20
-1.572544
30
0
11
-36
21
-1.589491
31
0
39
0
210
0
220
0
230
1
0
LINE
5
99
100
AcDbEntity
8
SK1
62
256
6
ByLayer
370
18
48
1
60
0
100
AcDbLine
10
-35.278312
20
3
30
0
11
-35.278312
21
-3
31
0
39
0
210
0
220
0
230
1
0
MTEXT
5
F6
100
AcDbEntity
8
SK6
62
256
6
ByLayer
370
13
48
1
60
0
100
AcDbMText
10
7.129169
20
35.282694
30
0
210
0
220
0
230
1
1
\W0.7315;860.1-0580-029A1-MM 2214
40
3.5
41
0
44
1.084337
50
0
71
8
72
5
7
iso_b_vert
0
DIMENSION
5
103
100
AcDbEntity
8
2
62
256
6
ByLayer
370
13
48
1
60
0
100
AcDbDimension
2
DimnDraft3D1
10
45.05
20
-13.113398
30
0
11
21.300059
21
-13.113398
31
0
70
32
71
5
72
1
41
1
210
0
220
0
230
1
3
Standard
100
AcDbAlignedDimension
13
0
23
-1.5875
33
0
14
45.05
24
-4.4875
34
0
50
0
100
AcDbRotatedDimension
1001
ACAD
1000
DSTYLE
1002
{
1070
   279
1070
     0
1070
   172
1070
     1
1070
   173
1070
     1
1070
   340
1005
F7
1070
   271
1070
     2
1070
   272
1070
     2
1070
    77
1070
     1
1070
    73
1070
     0
1070
   171
1070
     3
1070
   274
1070
     4
1070
   177
1070
    35
1070
   176
1070
    35
1070
   178
1070
    35
1070
    48
1040
-0.005
1070
    41
1041
3.5
1070
   147
1041
1.75
1070
    42
1041
1.5875
1070
    44
1041
2.0
1070
   140
1041
3.5
1070
   343
1005
0
1070
   344
1005
0
1002
}
0
DIMENSION
5
10D
100
AcDbEntity
8
SK2
62
256
6
ByLayer
370
13
48
1
60
0
100
AcDbDimension
2
DimnDraft3D2
10
46
20
-31.692985
30
0
11
5.3913
21
-31.692985
31
0
70
32
71
5
72
1
41
1
210
0
220
0
230
1
3
Standard
100
AcDbAlignedDimension
13
-36
23
-4.5875
33
0
14
46
24
-1.5875
34
0
50
0
100
AcDbRotatedDimension
1001
ACAD
1000
DSTYLE
1002
{
1070
   279
1070
     0
1070
   172
1070
     1
1070
   173
1070
     1
1070
   340
1005
F7
1070
   271
1070
     2
1070
   272
1070
     2
1070
    77
1070
     1
1070
    73
1070
     0
1070
   171
1070
     3
1070
   274
1070
     4
1070
   177
1070
    35
1070
   176
1070
    35
1070
   178
1070
    35
1070
    48
1040
-0.005
1070
    41
1041
3.5
1070
   147
1041
1.75
1070
    42
1041
1.5875
1070
    44
1041
2.0
1070
   140
1041
3.5
1070
   343
1005
0
1070
   344
1005
0
1002
}
0
DIMENSION
5
117
100
AcDbEntity
8
SK2
62
256
6
ByLayer
370
13
48
1
60
0
100
AcDbDimension
2
DimnDraft3D3
10
46
20
14.509119
30
0
11
31.025
21
14.509119
31
0
70
32
71
5
72
1
41
1
210
0
220
0
230
1
3
Standard
100
AcDbAlignedDimension
13
16.05
23
4.4875
33
0
14
46
24
1.5875
34
0
50
0
100
AcDbRotatedDimension
1001
ACAD
1000
DSTYLE
1002
{
1070
   279
1070
     0
1070
   172
1070
     1
1070
   173
1070
     1
1070
   340
1005
F7
1070
   271
1070
     2
1070
   272
1070
     2
1070
    77
1070
     1
1070
    73
1070
     0
1070
   171
1070
     3
1070
   274
1070
     4
1070
   177
1070
    35
1070
   176
1070
    35
1070
   178
1070
    35
1070
    48
1040
-0.005
1070
    41
1041
3.5
1070
   147
1041
1.75
1070
    42
1041
1.5875
1070
    44
1041
2.0
1070
   140
1041
3.5
1070
   343
1005
0
1070
   344
1005
0
1002
}
0
DIMENSION
5
121
100
AcDbEntity
8
SK2
62
256
6
ByLayer
370
13
48
1
60
0
100
AcDbDimension
2
DimnDraft3D4
10
45.05
20
-15.702503
30
0
11
55.981425
21
-15.702503
31
0
70
32
71
5
72
1
41
1
210
0
220
0
230
1
3
Standard
100
AcDbAlignedDimension
13
46
23
-1.5875
33
0
14
45.05
24
-4.4875
34
0
50
0
100
AcDbRotatedDimension
1001
ACAD
1000
DSTYLE
1002
{
1070
   279
1070
     0
1070
   172
1070
     1
1070
   173
1070
     1
1070
   340
1005
F7
1070
   271
1070
     2
1070
   272
1070
     2
1070
    77
1070
     1
1070
    73
1070
     0
1070
   171
1070
     3
1070
   274
1070
     4
1070
   177
1070
    35
1070
   176
1070
    35
1070
   178
1070
    35
1070
    48
1040
-0.005
1070
    41
1041
3.5
1070
   147
1041
1.75
1070
    42
1041
1.5875
1070
    44
1041
2.0
1070
   140
1041
3.5
1070
   343
1005
0
1070
   344
1005
0
1002
}
0
DIMENSION
5
12B
100
AcDbEntity
8
SK2
62
256
6
ByLayer
370
13
48
1
60
0
100
AcDbDimension
2
DimnDraft3D5
10
45.05
20
-21.343428
30
0
11
2.310676
21
-21.343428
31
0
70
32
71
5
72
1
41
1
210
0
220
0
230
1
3
Standard
100
AcDbAlignedDimension
13
-36
23
-4.5875
33
0
14
45.05
24
-4.4875
34
0
50
0
100
AcDbRotatedDimension
1001
ACAD
1000
DSTYLE
1002
{
1070
   279
1070
     0
1070
   172
1070
     1
1070
   173
1070
     1
1070
   340
1005
F7
1070
   271
1070
     2
1070
   272
1070
     2
1070
    77
1070
     1
1070
    73
1070
     0
1070
   171
1070
     3
1070
   274
1070
     4
1070
   177
1070
    35
1070
   176
1070
    35
1070
   178
1070
    35
1070
    48
1040
-0.005
1070
    41
1041
3.5
1070
   147
1041
1.75
1070
    42
1041
1.5875
1070
    44
1041
2.0
1070
   140
1041
3.5
1070
   343
1005
0
1070
   344
1005
0
1002
}
0
DIMENSION
5
136
100
AcDbEntity
8
SK2
62
256
6
ByLayer
370
13
48
1
60
0
100
AcDbDimension
2
DimnDraft3D6
10
-46.625163
20
3
30
0
11
-47.250163
21
21.47418
31
0
70
33
71
5
72
1
41
1
210
0
220
0
230
1
3
Standard
100
AcDbAlignedDimension
13
-37.5875
23
-3
33
0
14
-37.5875
24
3
34
0
1001
ACAD
1000
DSTYLE
1002
{
1070
   279
1070
     0
1070
    74
1070
     0
1070
   173
1070
     1
1070
   340
1005
F7
1070
   271
1070
     3
1070
   272
1070
     2
1070
    77
1070
     1
1070
    73
1070
     0
1070
   171
1070
     3
1070
   274
1070
     4
1070
   177
1070
    35
1070
   176
1070
    35
1070
   178
1070
    35
1070
    48
1040
-0.005
1070
    41
1041
3.5
1070
   147
1041
1.75
1070
    42
1041
1.5875
1070
    44
1041
2.0
1070
   140
1041
3.5
1070
   343
1005
0
1070
   344
1005
0
1002
}
0
DIMENSION
5
141
100
AcDbEntity
8
2
62
256
6
ByLayer
370
13
48
1
60
0
100
AcDbDimension
2
DimnDraft3D7
10
60.083343
20
2.9
30
0
11
55.458343
21
19.967266
31
0
70
33
71
5
72
1
41
1
210
0
220
0
230
1
3
Standard
100
AcDbAlignedDimension
13
46.6375
23
-2.9
33
0
14
46.6375
24
2.9
34
0
1001
ACAD
1000
DSTYLE
1002
{
1070
   279
1070
     0
1070
    74
1070
     0
1070
   173
1070
     1
1070
   340
1005
F7
1070
   271
1070
     3
1070
   272
1070
     2
1070
    77
1070
     1
1070
    73
1070
     0
1070
   171
1070
     3
1070
   274
1070
     4
1070
   177
1070
    35
1070
   176
1070
    35
1070
   178
1070
    35
1070
    48
1040
-0.005
1070
    41
1041
3.5
1070
   147
1041
1.75
1070
    42
1041
1.5875
1070
    44
1041
2.0
1070
   140
1041
3.5
1070
   343
1005
0
1070
   344
1005
0
1002
}
0
ENDSEC
0
SECTION
2
OBJECTS
0
DICTIONARY
5
1ac
330
0
100
AcDbDictionary
280
0
281
1
3
ACAD_GROUP
350
1ad
3
ACAD_MLINESTYLE
350
1ae
0
DICTIONARY
5
1ad
330
0
100
AcDbDictionary
280
0
281
1
0
DICTIONARY
5
1ae
330
0
100
AcDbDictionary
280
0
281
1
3
Standard
350
18
0
MLINESTYLE
5
18
330
1ae
100
AcDbMlineStyle
2
Standard
70
0
3

62
256
51
90
52
90
71
2
49
-0.5
62
256
6
ByLayer
49
0.5
62
256
6
ByLayer
0
RASTERVARIABLES
5
19a
330

100
AcDbRasterVariables
90
0
70
1
71
1
72
1
0
ENDSEC
0
EOF
