0
SECTION
2
HEADER
9
$ACADVER
1
AC1015
9
$DWGCODEPAGE
3
ANSI_1252
9
$HANDSEED
5
191
9
$ANGBASE
50
0
9
$ANGDIR
70
0
9
$ATTMODE
70
1
9
$AUNITS
70
0
9
$AUPREC
70
0
9
$CECOLOR
62
256
9
$CELTSCALE
40
1
9
$CELTYPE
6
ByLayer
9
$CELWEIGHT
370
18
9
$CLAYER
8
0
9
$CMLJUST
70
0
9
$CMLSCALE
40
1
9
$CMLSTYLE
2
Standard
9
$DIMSTYLE
2
Standard
9
$TEXTSIZE
40
0.2
9
$TEXTSTYLE
7
Standard
9
$LUNITS
70
2
9
$LUPREC
70
4
9
$EXTNAMES
290
1
9
$INSUNITS
70
4
9
$LTSCALE
40
1
9
$LWDISPLAY
290
1
9
$PDMODE
70
0
9
$PDSIZE
40
0
9
$PLINEGEN
70
0
0
ENDSEC
0
SECTION
2
CLASSES
0
CLASS
1
RASTERVARIABLES
2
AcDbRasterVariables
3
ISM
90
0
280
0
281
0
0
ENDSEC
0
SECTION
2
TABLES
0
TABLE
2
VPORT
5
187
100
AcDbSymbolTable
0
VPORT
5
1
100
AcDbSymbolTableRecord
100
AcDbViewportTableRecord
2
*Active
70
0
10
0
20
0
11
1
21
1
12
-1
22
1
13
0
23
0
14
0.5
24
0.5
15
10
25
10
16
0
26
0
36
1
17
0
27
0
37
0
0
ENDTAB
0
TABLE
2
LTYPE
5
188
100
AcDbSymbolTable
0
LTYPE
5
14
100
AcDbSymbolTableRecord
100
AcDbLinetypeTableRecord
70
0
2
ByBlock
3

72
65
73
0
40
0
0
LTYPE
5
15
100
AcDbSymbolTableRecord
100
AcDbLinetypeTableRecord
70
0
2
ByLayer
3

72
65
73
0
40
0
0
LTYPE
5
16
100
AcDbSymbolTableRecord
100
AcDbLinetypeTableRecord
70
0
2
CONTINUOUS
3
Solid line
72
65
73
0
40
0
0
LTYPE
5
6A
100
AcDbSymbolTableRecord
100
AcDbLinetypeTableRecord
70
0
2
CENTER
3
____ _ ____ _ ____ _ ____
72
65
73
4
40
47.5
49
22
74
0
49
-8.5
74
0
49
8.5
74
0
49
-8.5
74
0
0
LTYPE
5
6B
100
AcDbSymbolTableRecord
100
AcDbLinetypeTableRecord
70
0
2
DASHED
3
__ __ __ __ __ __ __ __ __
72
65
73
2
40
25.72
49
12.86
74
0
49
-12.86
74
0
0
ENDTAB
0
TABLE
2
LAYER
5
189
100
AcDbSymbolTable
0
LAYER
5
10
100
AcDbSymbolTableRecord
100
AcDbLayerTableRecord
2
0
70
0
62
7
6
CONTINUOUS
290
1
370
-3
390
0
0
LAYER
5
6D
100
AcDbSymbolTableRecord
100
AcDbLayerTableRecord
2
81
70
0
62
-3
6
CONTINUOUS
290
1
370
-3
390
0
0
LAYER
5
6F
100
AcDbSymbolTableRecord
100
AcDbLayerTableRecord
2
80
70
0
62
-6
6
CONTINUOUS
290
1
370
-3
390
0
0
LAYER
5
74
100
AcDbSymbolTableRecord
100
AcDbLayerTableRecord
2
2
70
0
62
7
6
CONTINUOUS
290
1
370
-3
390
0
0
LAYER
5
78
100
AcDbSymbolTableRecord
100
AcDbLayerTableRecord
2
1
70
0
62
4
6
CONTINUOUS
290
1
370
-3
390
0
0
LAYER
5
84
100
AcDbSymbolTableRecord
100
AcDbLayerTableRecord
2
4
70
0
62
-2
6
CENTER
290
1
370
-3
390
0
0
LAYER
5
173
100
AcDbSymbolTableRecord
100
AcDbLayerTableRecord
2
SK2
70
0
62
7
6
CONTINUOUS
290
1
370
-3
390
0
0
LAYER
5
174
100
AcDbSymbolTableRecord
100
AcDbLayerTableRecord
2
SK1
70
0
62
4
6
CONTINUOUS
290
1
370
-3
390
0
0
LAYER
5
175
100
AcDbSymbolTableRecord
100
AcDbLayerTableRecord
2
SK4
70
0
62
2
6
CENTER
290
1
370
-3
390
0
0
LAYER
5
176
100
AcDbSymbolTableRecord
100
AcDbLayerTableRecord
2
SK6
70
0
62
5
6
CONTINUOUS
290
1
370
-3
390
0
0
ENDTAB
0
TABLE
2
STYLE
5
18a
100
AcDbSymbolTable
0
STYLE
5
11
100
AcDbSymbolTableRecord
100
AcDbTextStyleTableRecord
2
Standard
3
txt
70
0
71
0
40
0
41
1
42
0
50
0
0
STYLE
5
CF
100
AcDbSymbolTableRecord
100
AcDbTextStyleTableRecord
2
iso_b_vert
3
simplex.shx
70
0
71
0
40
0
41
1
42
0
50
0
0
STYLE
5
D0
100
AcDbSymbolTableRecord
100
AcDbTextStyleTableRecord
2
DWGDirectTextStyle
3
simplex
70
0
71
0
40
0
41
1
42
0
50
0
0
ENDTAB
0
TABLE
2
DIMSTYLE
5
18b
100
AcDbSymbolTable
100
AcDbDimStyleTable
0
DIMSTYLE
105
27
100
AcDbSymbolTableRecord
100
AcDbDimStyleTableRecord
2
Standard
70
0
3
<>
41
0.18
42
0.0625
44
0.18
140
0.18
147
0.09
73
0
74
0
77
1
271
2
275
0
278
52
280
0
340
11
0
ENDTAB
0
TABLE
2
VIEW
5
18c
100
AcDbSymbolTable
0
ENDTAB
0
TABLE
2
UCS
5
18d
100
AcDbSymbolTable
0
ENDTAB
0
TABLE
2
APPID
5
18e
100
AcDbSymbolTable
0
APPID
5
12
100
AcDbSymbolTableRecord
100
AcDbRegAppTableRecord
2
ACAD
70
0
0
ENDTAB
0
TABLE
2
BLOCK_RECORD
5
18f
100
AcDbSymbolTable
0
BLOCK_RECORD
5
1F
100
AcDbSymbolTableRecord
100
AcDbBlockTableRecord
2
*Model_Space
340
0
70
0
0
BLOCK_RECORD
5
1B
100
AcDbSymbolTableRecord
100
AcDbBlockTableRecord
2
*Paper_Space
340
0
70
0
0
BLOCK_RECORD
5
23
100
AcDbSymbolTableRecord
100
AcDbBlockTableRecord
2
*Paper_Space0
340
0
70
0
0
BLOCK_RECORD
5
D2
100
AcDbSymbolTableRecord
100
AcDbBlockTableRecord
2
DimnDraft3D1
340
0
70
0
0
BLOCK_RECORD
5
DC
100
AcDbSymbolTableRecord
100
AcDbBlockTableRecord
2
DimnDraft3D2
340
0
70
0
0
BLOCK_RECORD
5
E6
100
AcDbSymbolTableRecord
100
AcDbBlockTableRecord
2
DimnDraft3D3
340
0
70
0
0
BLOCK_RECORD
5
F0
100
AcDbSymbolTableRecord
100
AcDbBlockTableRecord
2
DimnDraft3D4
340
0
70
0
0
BLOCK_RECORD
5
FA
100
AcDbSymbolTableRecord
100
AcDbBlockTableRecord
2
DimnDraft3D5
340
0
70
0
0
BLOCK_RECORD
5
104
100
AcDbSymbolTableRecord
100
AcDbBlockTableRecord
2
DimnDraft3D6
340
0
70
0
0
BLOCK_RECORD
5
10F
100
AcDbSymbolTableRecord
100
AcDbBlockTableRecord
2
DimnDraft3D7
340
0
70
0
0
ENDTAB
0
ENDSEC
0
SECTION
2
BLOCKS
0
BLOCK
5
20
100
AcDbEntity
8
0
100
AcDbBlockBegin
2
*Model_Space
70
0
10
0
20
0
30
0
3
*Model_Space
0
ENDBLK
5
21
100
AcDbEntity
8
0
100
AcDbBlockEnd
0
BLOCK
5
1C
100
AcDbEntity
8
0
100
AcDbBlockBegin
2
*Paper_Space
70
0
10
0
20
0
30
0
3
*Paper_Space
0
ENDBLK
5
1D
100
AcDbEntity
8
0
100
AcDbBlockEnd
0
BLOCK
5
24
100
AcDbEntity
8
0
100
AcDbBlockBegin
2
*Paper_Space0
70
0
10
0
20
0
30
0
3
*Paper_Space0
0
ENDBLK
5
25
100
AcDbEntity
8
0
100
AcDbBlockEnd
0
BLOCK
5
D9
100
AcDbEntity
8
0
100
AcDbBlockBegin
2
DimnDraft3D1
70
0
10
0
20
0
30
0
3
DimnDraft3D1
0
MTEXT
5
D3
100
AcDbEntity
8
2
62
256
6
ByLayer
370
13
48
1
60
0
100
AcDbMText
10
12.360575
20
-12.138398
30
0
210
0
220
0
230
1
1
\W0.6713;35,12
40
3.5
41
0
44
1.084337
50
0
71
7
72
5
7
iso_b_vert
0
LINE
5
D4
100
AcDbEntity
8
2
62
256
6
ByLayer
370
13
48
1
60
0
100
AcDbLine
10
0
20
-1.5875
30
0
11
0
21
-15.013398
31
0
39
0
210
0
220
0
230
1
0
LINE
5
D5
100
AcDbEntity
8
2
62
256
6
ByLayer
370
13
48
1
60
0
100
AcDbLine
10
35.1217
20
-4.3875
30
0
11
35.1217
21
-15.013398
31
0
39
0
210
0
220
0
230
1
0
LINE
5
D6
100
AcDbEntity
8
2
62
256
6
ByLayer
370
13
48
1
60
0
100
AcDbLine
10
0
20
-13.013398
30
0
11
35.1217
21
-13.013398
31
0
39
0
210
0
220
0
230
1
0
SOLID
5
D7
100
AcDbEntity
8
2
62
256
6
ByLayer
370
13
48
1
60
0
100
AcDbTrace
10
0
20
-13.013398
30
0
11
3.499998
21
-12.552615
31
0
12
3.500002
22
-13.474182
32
0
13
0
23
-13.013398
33
0
39
0
210
0
220
0
230
1
0
SOLID
5
D8
100
AcDbEntity
8
2
62
256
6
ByLayer
370
13
48
1
60
0
100
AcDbTrace
10
35.1217
20
-13.013398
30
0
11
31.621702
21
-13.474182
31
0
12
31.621698
22
-12.552615
32
0
13
35.1217
23
-13.013398
33
0
39
0
210
0
220
0
230
1
0
ENDBLK
5
DA
100
AcDbEntity
8
0
100
AcDbBlockEnd
0
BLOCK
5
E3
100
AcDbEntity
8
0
100
AcDbBlockBegin
2
DimnDraft3D2
70
0
10
0
20
0
30
0
3
DimnDraft3D2
0
MTEXT
5
DD
100
AcDbEntity
8
SK2
62
256
6
ByLayer
370
13
48
1
60
0
100
AcDbMText
10
-3.985684
20
-30.817985
30
0
210
0
220
0
230
1
1
\W0.7317;72,00
40
3.5
41
0
44
1.084337
50
0
71
7
72
5
7
iso_b_vert
0
LINE
5
DE
100
AcDbEntity
8
SK2
62
256
6
ByLayer
370
13
48
1
60
0
100
AcDbLine
10
-36
20
-4.5875
30
0
11
-36
21
-33.692985
31
0
39
0
210
0
220
0
230
1
0
LINE
5
DF
100
AcDbEntity
8
SK2
62
256
6
ByLayer
370
13
48
1
60
0
100
AcDbLine
10
36
20
-1.5875
30
0
11
36
21
-33.692985
31
0
39
0
210
0
220
0
230
1
0
LINE
5
E0
100
AcDbEntity
8
SK2
62
256
6
ByLayer
370
13
48
1
60
0
100
AcDbLine
10
-36
20
-31.692985
30
0
11
36
21
-31.692985
31
0
39
0
210
0
220
0
230
1
0
SOLID
5
E1
100
AcDbEntity
8
SK2
62
256
6
ByLayer
370
13
48
1
60
0
100
AcDbTrace
10
-36
20
-31.692985
30
0
11
-32.500002
21
-31.232202
31
0
12
-32.499998
22
-32.153769
32
0
13
-36
23
-31.692985
33
0
39
0
210
0
220
0
230
1
0
SOLID
5
E2
100
AcDbEntity
8
SK2
62
256
6
ByLayer
370
13
48
1
60
0
100
AcDbTrace
10
36
20
-31.692985
30
0
11
32.500002
21
-32.153769
31
0
12
32.499998
22
-31.232202
32
0
13
36
23
-31.692985
33
0
39
0
210
0
220
0
230
1
0
ENDBLK
5
E4
100
AcDbEntity
8
0
100
AcDbBlockEnd
0
BLOCK
5
ED
100
AcDbEntity
8
0
100
AcDbBlockBegin
2
DimnDraft3D3
70
0
10
0
20
0
30
0
3
DimnDraft3D3
0
MTEXT
5
E7
100
AcDbEntity
8
SK2
62
256
6
ByLayer
370
13
48
1
60
0
100
AcDbMText
10
23.148816
20
15.284119
30
0
210
0
220
0
230
1
1
\W0.6713;17,68
40
3.5
41
0
44
1.084337
50
0
71
7
72
5
7
iso_b_vert
0
LINE
5
E8
100
AcDbEntity
8
SK2
62
256
6
ByLayer
370
13
48
1
60
0
100
AcDbLine
10
18.32
20
4.3875
30
0
11
18.32
21
16.409119
31
0
39
0
210
0
220
0
230
1
0
LINE
5
E9
100
AcDbEntity
8
SK2
62
256
6
ByLayer
370
13
48
1
60
0
100
AcDbLine
10
36
20
1.5875
30
0
11
36
21
16.409119
31
0
39
0
210
0
220
0
230
1
0
LINE
5
EA
100
AcDbEntity
8
SK2
62
256
6
ByLayer
370
13
48
1
60
0
100
AcDbLine
10
18.32
20
14.409119
30
0
11
36
21
14.409119
31
0
39
0
210
0
220
0
230
1
0
SOLID
5
EB
100
AcDbEntity
8
SK2
62
256
6
ByLayer
370
13
48
1
60
0
100
AcDbTrace
10
18.32
20
14.409119
30
0
11
21.819998
21
14.869903
31
0
12
21.820002
22
13.948335
32
0
13
18.32
23
14.409119
33
0
39
0
210
0
220
0
230
1
0
SOLID
5
EC
100
AcDbEntity
8
SK2
62
256
6
ByLayer
370
13
48
1
60
0
100
AcDbTrace
10
36
20
14.409119
30
0
11
32.500002
21
13.948335
31
0
12
32.499998
22
14.869903
32
0
13
36
23
14.409119
33
0
39
0
210
0
220
0
230
1
0
ENDBLK
5
EE
100
AcDbEntity
8
0
100
AcDbBlockEnd
0
BLOCK
5
F7
100
AcDbEntity
8
0
100
AcDbBlockBegin
2
DimnDraft3D4
70
0
10
0
20
0
30
0
3
DimnDraft3D4
0
MTEXT
5
F1
100
AcDbEntity
8
SK2
62
256
6
ByLayer
370
13
48
1
60
0
100
AcDbMText
10
42.840636
20
-14.727503
30
0
210
0
220
0
230
1
1
\W0.7150;0,88
40
3.5
41
0
44
1.084337
50
0
71
7
72
5
7
iso_b_vert
0
LINE
5
F2
100
AcDbEntity
8
SK2
62
256
6
ByLayer
370
13
48
1
60
0
100
AcDbLine
10
36
20
-1.5875
30
0
11
36
21
-17.602503
31
0
39
0
210
0
220
0
230
1
0
LINE
5
F3
100
AcDbEntity
8
SK2
62
256
6
ByLayer
370
13
48
1
60
0
100
AcDbLine
10
35.1217
20
-4.3875
30
0
11
35.1217
21
-17.602503
31
0
39
0
210
0
220
0
230
1
0
LINE
5
F4
100
AcDbEntity
8
SK2
62
256
6
ByLayer
370
13
48
1
60
0
100
AcDbLine
10
26.3717
20
-15.602503
30
0
11
49.997215
21
-15.602503
31
0
39
0
210
0
220
0
230
1
0
SOLID
5
F5
100
AcDbEntity
8
SK2
62
256
6
ByLayer
370
13
48
1
60
0
100
AcDbTrace
10
36
20
-15.602503
30
0
11
39.499998
21
-15.141719
31
0
12
39.500002
22
-16.063287
32
0
13
36
23
-15.602503
33
0
39
0
210
0
220
0
230
1
0
SOLID
5
F6
100
AcDbEntity
8
SK2
62
256
6
ByLayer
370
13
48
1
60
0
100
AcDbTrace
10
35.1217
20
-15.602503
30
0
11
31.621702
21
-16.063287
31
0
12
31.621698
22
-15.141719
32
0
13
35.1217
23
-15.602503
33
0
39
0
210
0
220
0
230
1
0
ENDBLK
5
F8
100
AcDbEntity
8
0
100
AcDbBlockEnd
0
BLOCK
5
101
100
AcDbEntity
8
0
100
AcDbBlockBegin
2
DimnDraft3D5
70
0
10
0
20
0
30
0
3
DimnDraft3D5
0
MTEXT
5
FB
100
AcDbEntity
8
SK2
62
256
6
ByLayer
370
13
48
1
60
0
100
AcDbMText
10
-6.191308
20
-20.468428
30
0
210
0
220
0
230
1
1
\W0.6110;71,12
40
3.5
41
0
44
1.084337
50
0
71
7
72
5
7
iso_b_vert
0
LINE
5
FC
100
AcDbEntity
8
SK2
62
256
6
ByLayer
370
13
48
1
60
0
100
AcDbLine
10
-36
20
-4.5875
30
0
11
-36
21
-23.343428
31
0
39
0
210
0
220
0
230
1
0
LINE
5
FD
100
AcDbEntity
8
SK2
62
256
6
ByLayer
370
13
48
1
60
0
100
AcDbLine
10
35.1217
20
-4.3875
30
0
11
35.1217
21
-23.343428
31
0
39
0
210
0
220
0
230
1
0
LINE
5
FE
100
AcDbEntity
8
SK2
62
256
6
ByLayer
370
13
48
1
60
0
100
AcDbLine
10
-36
20
-21.343428
30
0
11
35.1217
21
-21.343428
31
0
39
0
210
0
220
0
230
1
0
SOLID
5
FF
100
AcDbEntity
8
SK2
62
256
6
ByLayer
370
13
48
1
60
0
100
AcDbTrace
10
-36
20
-21.343428
30
0
11
-32.500002
21
-20.882645
31
0
12
-32.499998
22
-21.804212
32
0
13
-36
23
-21.343428
33
0
39
0
210
0
220
0
230
1
0
SOLID
5
100
100
AcDbEntity
8
SK2
62
256
6
ByLayer
370
13
48
1
60
0
100
AcDbTrace
10
35.1217
20
-21.343428
30
0
11
31.621702
21
-21.804212
31
0
12
31.621698
22
-20.882645
32
0
13
35.1217
23
-21.343428
33
0
39
0
210
0
220
0
230
1
0
ENDBLK
5
102
100
AcDbEntity
8
0
100
AcDbBlockEnd
0
BLOCK
5
10C
100
AcDbEntity
8
0
100
AcDbBlockBegin
2
DimnDraft3D6
70
0
10
0
20
0
30
0
3
DimnDraft3D6
0
MTEXT
5
105
100
AcDbEntity
8
SK2
62
256
6
ByLayer
370
13
48
1
60
0
100
AcDbMText
10
-46.375163
20
22.34918
30
0
210
0
220
0
230
1
1
\W0.7317;6,000
40
3.5
41
0
44
1.084337
50
90
71
7
72
5
7
iso_b_vert
0
MTEXT
5
106
100
AcDbEntity
8
SK2
62
256
6
ByLayer
370
13
48
1
60
0
100
AcDbMText
10
-46.375163
20
17.126524
30
0
210
0
220
0
230
1
1
%%c
40
3.5
41
0
44
1.084337
50
90
71
7
72
5
7
iso_b_vert
0
LINE
5
107
100
AcDbEntity
8
SK2
62
256
6
ByLayer
370
13
48
1
60
0
100
AcDbLine
10
-37.5875
20
-3
30
0
11
-46.625163
21
-3
31
0
39
0
210
0
220
0
230
1
0
LINE
5
108
100
AcDbEntity
8
SK2
62
256
6
ByLayer
370
13
48
1
60
0
100
AcDbLine
10
-37.5875
20
3
30
0
11
-46.625163
21
3
31
0
39
0
210
0
220
0
230
1
0
LINE
5
109
100
AcDbEntity
8
SK2
62
256
6
ByLayer
370
13
48
1
60
0
100
AcDbLine
10
-44.625163
20
32.121549
30
0
11
-44.625163
21
-11.75
31
0
39
0
210
0
220
0
230
1
0
SOLID
5
10A
100
AcDbEntity
8
SK2
62
256
6
ByLayer
370
13
48
1
60
0
100
AcDbTrace
10
-44.625163
20
-3
30
0
11
-44.164379
21
-6.499998
31
0
12
-45.085946
22
-6.500002
32
0
13
-44.625163
23
-3
33
0
39
0
210
0
220
0
230
1
0
SOLID
5
10B
100
AcDbEntity
8
SK2
62
256
6
ByLayer
370
13
48
1
60
0
100
AcDbTrace
10
-44.625163
20
3
30
0
11
-45.085946
21
6.499998
31
0
12
-44.164379
22
6.500002
32
0
13
-44.625163
23
3
33
0
39
0
210
0
220
0
230
1
0
ENDBLK
5
10D
100
AcDbEntity
8
0
100
AcDbBlockEnd
0
BLOCK
5
117
100
AcDbEntity
8
0
100
AcDbBlockBegin
2
DimnDraft3D7
70
0
10
0
20
0
30
0
3
DimnDraft3D7
0
MTEXT
5
110
100
AcDbEntity
8
2
62
256
6
ByLayer
370
13
48
1
60
0
100
AcDbMText
10
46.333343
20
20.742266
30
0
210
0
220
0
230
1
1
\W0.7317;5,600
40
3.5
41
0
44
1.084337
50
90
71
7
72
5
7
iso_b_vert
0
MTEXT
5
111
100
AcDbEntity
8
2
62
256
6
ByLayer
370
13
48
1
60
0
100
AcDbMText
10
46.333343
20
15.51961
30
0
210
0
220
0
230
1
1
%%c
40
3.5
41
0
44
1.084337
50
90
71
7
72
5
7
iso_b_vert
0
LINE
5
112
100
AcDbEntity
8
2
62
256
6
ByLayer
370
13
48
1
60
0
100
AcDbLine
10
36.7092
20
-2.8
30
0
11
50.083343
21
-2.8
31
0
39
0
210
0
220
0
230
1
0
LINE
5
113
100
AcDbEntity
8
2
62
256
6
ByLayer
370
13
48
1
60
0
100
AcDbLine
10
36.7092
20
2.8
30
0
11
50.083343
21
2.8
31
0
39
0
210
0
220
0
230
1
0
LINE
5
114
100
AcDbEntity
8
2
62
256
6
ByLayer
370
13
48
1
60
0
100
AcDbLine
10
48.083343
20
30.514635
30
0
11
48.083343
21
-11.55
31
0
39
0
210
0
220
0
230
1
0
SOLID
5
115
100
AcDbEntity
8
2
62
256
6
ByLayer
370
13
48
1
60
0
100
AcDbTrace
10
48.083343
20
-2.8
30
0
11
48.544126
21
-6.299998
31
0
12
47.622559
22
-6.300002
32
0
13
48.083343
23
-2.8
33
0
39
0
210
0
220
0
230
1
0
SOLID
5
116
100
AcDbEntity
8
2
62
256
6
ByLayer
370
13
48
1
60
0
100
AcDbTrace
10
48.083343
20
2.8
30
0
11
47.622559
21
6.299998
31
0
12
48.544126
22
6.300002
32
0
13
48.083343
23
2.8
33
0
39
0
210
0
220
0
230
1
0
ENDBLK
5
118
100
AcDbEntity
8
0
100
AcDbBlockEnd
0
ENDSEC
0
SECTION
2
ENTITIES
0
ARC
5
8D
100
AcDbEntity
8
1
62
256
6
ByLayer
370
18
48
1
60
0
100
AcDbCircle
39
0
10
0
20
2.15
30
0
40
0.85
210
0
220
0
230
1
100
AcDbArc
50
57.792719
51
90
0
ARC
5
8E
100
AcDbEntity
8
1
62
256
6
ByLayer
370
18
48
1
60
0
100
AcDbCircle
39
0
10
-0.906072
20
-3.588413
30
0
40
0.85
210
0
220
0
230
-1
100
AcDbArc
50
57.792719
51
90.103132
0
ARC
5
8F
100
AcDbEntity
8
1
62
256
6
ByLayer
370
18
48
1
60
0
100
AcDbCircle
39
0
10
0
20
-2.15
30
0
40
0.85
210
0
220
0
230
1
100
AcDbArc
50
270
51
302.207281
0
ARC
5
90
100
AcDbEntity
8
1
62
256
6
ByLayer
370
18
48
1
60
0
100
AcDbCircle
39
0
10
-0.906072
20
3.588413
30
0
40
0.85
210
0
220
0
230
-1
100
AcDbArc
50
269.896868
51
302.207281
0
ELLIPSE
5
91
100
AcDbEntity
8
1
62
256
6
ByLayer
370
18
48
1
60
0
100
AcDbEllipse
10
9.293683
20
3.67468
30
0
11
1
21
0
31
0
210
0
220
0
230
1
40
0.999998
41
-1.9632423209201
42
-1.56423738381795
0
ELLIPSE
5
92
100
AcDbEntity
8
1
62
256
6
ByLayer
370
18
48
1
60
0
100
AcDbEllipse
10
9.293683
20
-3.67468
30
0
11
1
21
0
31
0
210
0
220
0
230
1
40
0.999998
41
1.57507843221419
42
1.96685288466775
0
ELLIPSE
5
93
100
AcDbEntity
8
1
62
256
6
ByLayer
370
13
48
1
60
0
100
AcDbEllipse
10
9.294998
20
1.611614
30
0
11
0.129617228318904
21
0.270553828512784
31
0
210
0
220
0
230
1
40
0.269771
41
-2.80383196103323
42
-2.07985270294296
0
ELLIPSE
5
94
100
AcDbEntity
8
1
62
256
6
ByLayer
370
13
48
1
60
0
100
AcDbEllipse
10
80.194174
20
42.658776
30
0
11
-61.3999999999999
21
7.51908301246938E-15
31
0
210
0
220
0
230
1
40
0.99863
41
0.747101783571901
42
0.767013286313464
0
ELLIPSE
5
95
100
AcDbEntity
8
1
62
256
6
ByLayer
370
13
48
1
60
0
100
AcDbEllipse
10
12.639655
20
-70.990543
30
0
11
-39.5339785777258
21
63.2886831512816
31
0
210
0
220
0
230
1
40
0.81708
41
-0.652719635217244
42
-0.564780925706368
0
POINT
5
6C
100
AcDbEntity
8
81
62
256
6
ByLayer
370
18
48
1
60
0
100
AcDbPoint
10
36
20
0
30
0
39
0
210
0
220
0
230
1
50
360
0
POINT
5
6E
100
AcDbEntity
8
80
62
256
6
ByLayer
370
18
48
1
60
0
100
AcDbPoint
10
0
20
0
30
0
39
0
210
0
220
0
230
1
50
360
0
POINT
5
70
100
AcDbEntity
8
SK2
62
256
6
ByLayer
370
18
48
1
60
1
100
AcDbPoint
10
-36
20
-3
30
0
39
0
210
0
220
0
230
1
50
360
0
POINT
5
72
100
AcDbEntity
8
SK2
62
256
6
ByLayer
370
18
48
1
60
1
100
AcDbPoint
10
-36
20
3
30
0
39
0
210
0
220
0
230
1
50
360
0
POINT
5
73
100
AcDbEntity
8
2
62
256
6
ByLayer
370
18
48
1
60
1
100
AcDbPoint
10
35.1217
20
-2.8
30
0
39
0
210
0
220
0
230
1
50
360
0
POINT
5
75
100
AcDbEntity
8
2
62
256
6
ByLayer
370
18
48
1
60
1
100
AcDbPoint
10
35.1217
20
2.8
30
0
39
0
210
0
220
0
230
1
50
360
0
SPLINE
5
96
100
AcDbEntity
8
1
62
256
6
ByLayer
370
18
48
1
60
0
100
AcDbSpline
70
4
71
2
72
6
73
3
40
0
40
0
40
0
40
1
40
1
40
1
41
1
10
9.2948147645323
20
-2.67452628047946
30
0
41
1
10
9.76240468583089
20
-2.67458190651689
30
0
41
1
10
10.2299932197168
20
-2.67521166135865
30
0
0
SPLINE
5
97
100
AcDbEntity
8
1
62
256
6
ByLayer
370
18
48
1
60
0
100
AcDbSpline
70
4
71
3
72
21
73
17
40
0
40
0
40
0
40
0
40
0.121503326526026
40
0.219962056540061
40
0.287401809920426
40
0.349366208160985
40
0.414842919735071
40
0.48162544786216
40
0.548422896580684
40
0.606873933787583
40
0.665327043631329
40
0.723394283870089
40
0.779058164586636
40
0.832161792478833
40
0.903619595698313
40
1
40
1
40
1
40
1
41
1
10
26.8794947801662
20
2.70368033463191
30
0
41
1
10
26.6512940862609
20
2.70341846754252
30
0
41
1
10
26.2381502766758
20
2.70286045726652
30
0
41
1
10
25.6980775433006
20
2.70000242632648
30
0
41
1
10
25.2701278818455
20
2.70019652767169
30
0
41
1
10
24.9040815598472
20
2.70050869140795
30
0
41
1
10
24.539149664379
20
2.70018005149518
30
0
41
1
10
24.1651632579047
20
2.69877265645726
30
0
41
1
10
23.8043681552028
20
2.69825568827821
30
0
41
1
10
23.4592267785315
20
2.69697361422195
30
0
41
1
10
23.1304855231631
20
2.69673067737179
30
0
41
1
10
22.8069797704745
20
2.6968068037952
30
0
41
1
10
22.4935272921339
20
2.69658541289809
30
0
41
1
10
22.1549075094227
20
2.69580080201047
30
0
41
1
10
21.7398395724313
20
2.69461078591095
30
0
41
1
10
21.4244944859811
20
2.69431429176902
30
0
41
1
10
21.2434182152386
20
2.69407376594646
30
0
0
SPLINE
5
98
100
AcDbEntity
8
1
62
256
6
ByLayer
370
18
48
1
60
0
100
AcDbSpline
70
4
71
2
72
6
73
3
40
0
40
0
40
0
40
1
40
1
40
1
41
1
10
34.7020930792251
20
0.218946561093759
30
0
41
1
10
34.4521913335398
20
0.304911974061213
30
0
41
1
10
34.2029660099854
20
0.441753713071137
30
0
0
SPLINE
5
99
100
AcDbEntity
8
1
62
256
6
ByLayer
370
18
48
1
60
0
100
AcDbSpline
70
4
71
3
72
19
73
15
40
0
40
0
40
0
40
0
40
0.107631281024379
40
0.186929028422218
40
0.238738485237783
40
0.282837571369185
40
0.327790072484681
40
0.510838750081729
40
0.581994759653616
40
0.652333002878571
40
0.715755546374567
40
0.783113353022937
40
0.880219202128141
40
1
40
1
40
1
40
1
41
1
10
20.4121923796776
20
-2.69249842954085
30
0
41
1
10
20.6442747672412
20
-2.69304180755668
30
0
41
1
10
21.0473600100338
20
-2.69388796815008
30
0
41
1
10
21.5622256794575
20
-2.69445692491243
30
0
41
1
10
21.9400619690581
20
-2.69512145370797
30
0
41
1
10
22.2438412586268
20
-2.69604950329705
30
0
41
1
10
22.8306467722914
20
-2.69714882895889
30
0
41
1
10
23.4758050188193
20
-2.69721654541834
30
0
41
1
10
24.1757058815023
20
-2.69882998960213
30
0
41
1
10
24.6176228326833
20
-2.70049175061257
30
0
41
1
10
25.0513520184335
20
-2.70037368234637
30
0
41
1
10
25.5428059751531
20
-2.69994706422514
30
0
41
1
10
26.1557976724447
20
-2.70206200892801
30
0
41
1
10
26.6235288317985
20
-2.70301897614053
30
0
41
1
10
26.8818443705491
20
-2.70366035924678
30
0
0
SPLINE
5
9A
100
AcDbEntity
8
1
62
256
6
ByLayer
370
18
48
1
60
0
100
AcDbSpline
70
4
71
3
72
10
73
6
40
0
40
0
40
0
40
0
40
0.440722863378583
40
0.705371544243658
40
1
40
1
40
1
40
1
41
1
10
27.2552204758903
20
-0.0505982588578604
30
0
41
1
10
27.4197556288375
20
-0.0871433322154758
30
0
41
1
10
27.6824308861072
20
-0.163414101072817
30
0
41
1
10
28.0533891195736
20
-0.312393201642521
30
0
41
1
10
28.2601144616071
20
-0.413006370315799
30
0
41
1
10
28.3688211443802
20
-0.4708819560488
30
0
0
SPLINE
5
9B
100
AcDbEntity
8
1
62
256
6
ByLayer
370
18
48
1
60
0
100
AcDbSpline
70
4
71
2
72
6
73
3
40
0
40
0
40
0
40
1
40
1
40
1
41
1
10
10.2292356634839
20
2.67521162475569
30
0
41
1
10
9.76202591502118
20
2.67458036856829
30
0
41
1
10
9.29481477395177
20
2.6745262248611
30
0
0
SPLINE
5
9C
100
AcDbEntity
8
1
62
256
6
ByLayer
370
18
48
1
60
0
100
AcDbSpline
70
4
71
2
72
6
73
3
40
0
40
0
40
0
40
1
40
1
40
1
41
1
10
18.9097384780822
20
0.0513666049233166
30
0
41
1
10
18.3777472575994
20
0.169671051180103
30
0
41
1
10
17.8515507242452
20
0.442441972264305
30
0
0
SPLINE
5
9D
100
AcDbEntity
8
1
62
256
6
ByLayer
370
18
48
1
60
0
100
AcDbSpline
70
4
71
3
72
8
73
4
40
0
40
0
40
0
40
0
40
1
40
1
40
1
40
1
41
1
10
12.639654834512
20
-1.09295898631518
30
0
41
1
10
12.6536116672322
20
-1.05348384876086
30
0
41
1
10
12.6685331594122
20
-1.01502080803081
30
0
41
1
10
12.6842998616109
20
-0.977815350743299
30
0
0
SPLINE
5
9E
100
AcDbEntity
8
1
62
256
6
ByLayer
370
13
48
1
60
0
100
AcDbSpline
70
4
71
3
72
24
73
20
40
0
40
0
40
0
40
0
40
0.0047522663002486
40
0.098841946976146
40
0.145886787314094
40
0.192931627652037
40
0.287021308327928
40
0.334066148665867
40
0.38111098900382
40
0.475200669679709
40
0.522245510017648
40
0.569290350355589
40
0.663380031031492
40
0.710424871369431
40
0.757469711707384
40
0.851559392383274
40
0.898604232721223
40
0.945649073059162
40
1
40
1
40
1
40
1
41
1
10
35.2002434272297
20
1.15255718644846
30
0
41
1
10
35.19675772838
20
1.15255636475271
30
0
41
1
10
35.1242590852263
20
1.15252353243159
30
0
41
1
10
35.0172581587514
20
1.15199985247085
30
0
41
1
10
34.8792442177123
20
1.15044315352478
30
0
41
1
10
34.7412160823625
20
1.14821315127489
30
0
41
1
10
34.6031956821254
20
1.1451073843659
30
0
41
1
10
34.4651818132264
20
1.14112541757984
30
0
41
1
10
34.3271537323017
20
1.1364848517035
30
0
41
1
10
34.1891333624523
20
1.13097543186791
30
0
41
1
10
34.0511194900904
20
1.12459811842021
30
0
41
1
10
33.913091370018
20
1.11757957281023
30
0
41
1
10
33.7750709147287
20
1.10970230865229
30
0
41
1
10
33.637056928489
20
1.10096864133351
30
0
41
1
10
33.4990287009855
20
1.09161362269151
30
0
41
1
10
33.3610081623748
20
1.08141315426033
30
0
41
1
10
33.222994164567
20
1.07037091630613
30
0
41
1
10
33.1141140597149
20
1.06118922280493
30
0
41
1
10
33.039743996074
20
1.05459833814157
30
0
41
1
10
32.9998803741261
20
1.05097437796749
30
0
0
SPLINE
5
9F
100
AcDbEntity
8
1
62
256
6
ByLayer
370
18
48
1
60
0
100
AcDbSpline
70
4
71
3
72
8
73
4
40
0
40
0
40
0
40
0
40
1
40
1
40
1
40
1
41
1
10
35.999827085544
20
0.0637698227595251
30
0
41
1
10
36.0000576381527
20
0.0212566075865084
30
0
41
1
10
36.0000576381527
20
-0.0212566075865084
30
0
41
1
10
35.999827085544
20
-0.0637698227595251
30
0
0
SPLINE
5
A0
100
AcDbEntity
8
1
62
256
6
ByLayer
370
18
48
1
60
0
100
AcDbSpline
70
4
71
3
72
10
73
6
40
0
40
0
40
0
40
0
40
0.249279184356237
40
0.249279184356237
40
1
40
1
40
1
40
1
41
1
10
10.2253923174007
20
2.67480992431075
30
0
41
1
10
10.3808745139637
20
2.67473598123539
30
0
41
1
10
10.5369211124294
20
2.67205682051545
30
0
41
1
10
11.1648936400035
20
2.65262941202349
30
0
41
1
10
11.641534127813
20
2.613597669375
30
0
41
1
10
12.1224043088669
20
2.55593673057143
30
0
0
SPLINE
5
A1
100
AcDbEntity
8
1
62
256
6
ByLayer
370
13
48
1
60
0
100
AcDbSpline
70
4
71
3
72
10
73
6
40
0
40
0
40
0
40
0
40
0.5
40
0.5
40
1
40
1
40
1
40
1
41
1
10
9.29556199195611
20
1.44922519180554
30
0
41
1
10
9.22807644200577
20
1.46954464383097
30
0
41
1
10
9.16147573273184
20
1.49276729638058
30
0
41
1
10
9.03033289658981
20
1.54566002194002
30
0
41
1
10
8.9654727216311
20
1.57549410439353
30
0
41
1
10
8.90261669796146
20
1.60876909965535
30
0
0
SPLINE
5
A2
100
AcDbEntity
8
1
62
256
6
ByLayer
370
13
48
1
60
0
100
AcDbSpline
70
4
71
3
72
20
73
16
40
0
40
0
40
0
40
0
40
0.144260294201529
40
0.144260294201529
40
0.288520588403058
40
0.288520588403058
40
0.432780882604586
40
0.432780882604586
40
0.577041176806115
40
0.577041176806115
40
0.721301471007644
40
0.721301471007644
40
0.865561765209173
40
0.865561765209173
40
1
40
1
40
1
40
1
41
1
10
9.29556199195611
20
1.44922519180557
30
0
41
1
10
9.29549156667747
20
1.55920415956024
30
0
41
1
10
9.29542502484102
20
1.66325363699366
30
0
41
1
10
9.29530086423708
20
1.85960300120755
30
0
41
1
10
9.29524347996727
20
1.95155335025638
30
0
41
1
10
9.29514083274347
20
2.11923305578296
30
0
41
1
10
9.29509516329037
20
2.19559844730892
30
0
41
1
10
9.29501479178671
20
2.3333244122656
30
0
41
1
10
9.29497990438273
20
2.39504144488694
30
0
41
1
10
9.29492211075905
20
2.49971045172327
30
0
41
1
10
9.29489896946967
20
2.54303608781342
30
0
41
1
10
9.29486220038382
20
2.61196354092368
30
0
41
1
10
9.29484854477138
20
2.63762458967676
30
0
41
1
10
9.29482960609775
20
2.66902105483001
30
0
41
1
10
9.29482388641574
20
2.67594574044358
30
0
41
1
10
9.29482046254753
20
2.67468797720562
30
0
0
SPLINE
5
A3
100
AcDbEntity
8
1
62
256
6
ByLayer
370
18
48
1
60
0
100
AcDbSpline
70
4
71
3
72
12
73
8
40
0
40
0
40
0
40
0
40
0.499999999999997
40
0.499999999999997
40
0.749999999999998
40
0.749999999999998
40
1
40
1
40
1
40
1
41
1
10
12.1224043088676
20
-2.55593673057137
30
0
41
1
10
11.6415294598988
20
-2.61359822910262
30
0
41
1
10
11.1648863927882
20
-2.65262987082534
30
0
41
1
10
10.4577382644477
20
-2.67450636058908
30
0
41
1
10
10.2231425528433
20
-2.67689261594285
30
0
41
1
10
9.75667360930851
20
-2.66883842679812
30
0
41
1
10
9.52484929177956
20
-2.6580751848802
30
0
41
1
10
9.29481605097155
20
-2.63817514471279
30
0
0
SPLINE
5
A4
100
AcDbEntity
8
1
62
256
6
ByLayer
370
18
48
1
60
0
100
AcDbSpline
70
4
71
3
72
8
73
4
40
0
40
0
40
0
40
0
40
1
40
1
40
1
40
1
41
1
10
35.167274625616
20
2.78732134892178
30
0
41
1
10
35.2304135170111
20
2.60852978506202
30
0
41
1
10
35.2943514364849
20
2.4259583305934
30
0
41
1
10
35.3582138107349
20
2.23916228548626
30
0
0
SPLINE
5
A5
100
AcDbEntity
8
1
62
256
6
ByLayer
370
18
48
1
60
0
100
AcDbSpline
70
4
71
3
72
10
73
6
40
0
40
0
40
0
40
0
40
0.5
40
0.5
40
1
40
1
40
1
40
1
41
1
10
9.29481605096444
20
-2.63817514471216
30
0
41
1
10
9.23139247778806
20
-2.63268840875458
30
0
41
1
10
9.16729716504568
20
-2.63300852488879
30
0
41
1
10
9.03744088442895
20
-2.64786771402186
30
0
41
1
10
8.97113753064369
20
-2.66273147364072
30
0
41
1
10
8.90694767079302
20
-2.68589812733228
30
0
0
SPLINE
5
A6
100
AcDbEntity
8
1
62
256
6
ByLayer
370
13
48
1
60
0
100
AcDbSpline
70
4
71
3
72
34
73
30
40
0
40
0
40
0
40
0
40
0.123773221901894
40
0.123773221901894
40
0.247546443803788
40
0.247546443803788
40
0.278489749279261
40
0.278489749279261
40
0.309433054754735
40
0.309433054754735
40
0.371319665705684
40
0.371319665705684
40
0.495092887607583
40
0.495092887607583
40
0.526036193083059
40
0.526036193083059
40
0.556979498558534
40
0.556979498558534
40
0.618866109509483
40
0.618866109509483
40
0.742639331411379
40
0.742639331411379
40
0.804525942362327
40
0.804525942362327
40
0.866412553313276
40
0.866412553313276
40
0.990185775215171
40
0.990185775215171
40
1
40
1
40
1
40
1
41
1
10
35.0506486105223
20
-2.56735680791198
30
0
41
1
10
34.5119094656421
20
-2.47367545204284
30
0
41
1
10
33.9783368481923
20
-2.34008931492002
30
0
41
1
10
32.9116966624442
20
-2.00421743513417
30
0
41
1
10
32.3780171269162
20
-1.80234795099344
30
0
41
1
10
31.7045210394799
20
-1.51537145965691
30
0
41
1
10
31.5695081966785
20
-1.45624556438631
30
0
41
1
10
31.3006324535197
20
-1.33577822399835
30
0
41
1
10
31.1665079961322
20
-1.27434197090386
30
0
41
1
10
30.7648383720518
20
-1.08689484277639
30
0
41
1
10
30.4980658040136
20
-0.957635526549325
30
0
41
1
10
29.6988958978113
20
-0.560500457644366
30
0
41
1
10
29.1673162330417
20
-0.283818842931396
30
0
41
1
10
28.4979228845827
20
0.064473263036831
30
0
41
1
10
28.3637931426435
20
0.134244363812684
30
0
41
1
10
28.0948888771816
20
0.273749655100346
30
0
41
1
10
27.9598650721296
20
0.343621363523425
30
0
41
1
10
27.5553616164987
20
0.551339434788417
30
0
41
1
10
27.2870862381298
20
0.687238719271363
30
0
41
1
10
26.4849205439253
20
1.08438147753745
30
0
41
1
10
25.9532755078676
20
1.33391027747919
30
0
41
1
10
25.1526925618198
20
1.6725801610647
30
0
41
1
10
24.885340390928
20
1.77953580574263
30
0
41
1
10
24.3482185987552
20
1.97906574367511
30
0
41
1
10
24.0776763407269
20
2.07184511472147
30
0
41
1
10
23.2688250333885
20
2.32301190982767
30
0
41
1
10
22.7318320872465
20
2.45518990916088
30
0
41
1
10
22.148826671116
20
2.55326800730339
30
0
41
1
10
22.1059976072968
20
2.56021393151787
30
0
41
1
10
22.0631729576358
20
2.5668989748211
30
0
0
SPLINE
5
A7
100
AcDbEntity
8
1
62
256
6
ByLayer
370
18
48
1
60
0
100
AcDbSpline
70
4
71
3
72
12
73
8
40
0
40
0
40
0
40
0
40
0.250000000000001
40
0.250000000000001
40
0.500000000000003
40
0.500000000000003
40
1
40
1
40
1
40
1
41
1
10
35.2002434272116
20
1.15255718644855
30
0
41
1
10
35.1967087743008
20
1.24618947304765
30
0
41
1
10
35.2014339495149
20
1.33829736452796
30
0
41
1
10
35.218691132107
20
1.52107235517835
30
0
41
1
10
35.231415649813
20
1.61170392554575
30
0
41
1
10
35.2764931510214
20
1.88232447638566
30
0
41
1
10
35.3155524495011
20
2.06107577083586
30
0
41
1
10
35.3582138107362
20
2.23916228548686
30
0
0
SPLINE
5
A8
100
AcDbEntity
8
1
62
256
6
ByLayer
370
18
48
1
60
0
100
AcDbSpline
70
4
71
2
72
6
73
3
40
0
40
0
40
0
40
1
40
1
40
1
41
0.500000038408384
10
35.1108034933149
20
-2.71839091441923
30
0
41
0.499999961591616
10
35.1102458611557
20
-2.71802356391457
30
0
41
0.500000038408384
10
35.1096888085241
20
-2.71765459402206
30
0
0
SPLINE
5
A9
100
AcDbEntity
8
1
62
256
6
ByLayer
370
13
48
1
60
0
100
AcDbSpline
70
4
71
3
72
28
73
24
40
0
40
0
40
0
40
0
40
0.0586235843401798
40
0.0586235843401798
40
0.13103715477555
40
0.13103715477555
40
0.275864295646291
40
0.275864295646291
40
0.348277866081662
40
0.348277866081662
40
0.420691436517033
40
0.420691436517033
40
0.565518577387773
40
0.565518577387773
40
0.637932147823144
40
0.637932147823144
40
0.710345718258515
40
0.710345718258515
40
0.855172859129258
40
0.855172859129258
40
0.927586429564629
40
0.927586429564629
40
1
40
1
40
1
40
1
41
1
10
20.419866837194
20
-2.69246483654388
30
0
41
1
10
20.2012951979636
20
-2.69140731783116
30
0
41
1
10
19.9822964362023
20
-2.68329577961404
30
0
41
1
10
19.4950338611642
20
-2.64953626101786
30
0
41
1
10
19.2270032324954
20
-2.62016223195985
30
0
41
1
10
18.4242077281082
20
-2.50096342522553
30
0
41
1
10
17.8909734131879
20
-2.38183667455266
30
0
41
1
10
17.0862011770075
20
-2.14748370937295
30
0
41
1
10
16.816971138404
20
-2.06028208440779
30
0
41
1
10
16.2760798194081
20
-1.86916592095727
30
0
41
1
10
16.0070589986358
20
-1.76627952188642
30
0
41
1
10
15.2023142296063
20
-1.43900991377547
30
0
41
1
10
14.6688730999132
20
-1.19559066317953
30
0
41
1
10
13.8653900853181
20
-0.807148095389152
30
0
41
1
10
13.5970528555728
20
-0.673701542881759
30
0
41
1
10
13.0577408226055
20
-0.401450844901262
30
0
41
1
10
12.786594361279
20
-0.262424824331049
30
0
41
1
10
11.9791933806489
20
0.152958517839721
30
0
41
1
10
11.4450262974801
20
0.429292389643479
30
0
41
1
10
10.6420811435285
20
0.827540323318289
30
0
41
1
10
10.3741085722103
20
0.957499320159684
30
0
41
1
10
9.83650071419947
20
1.21003544205047
30
0
41
1
10
9.56621273917898
20
1.33260770644554
30
0
41
1
10
9.29556199195594
20
1.44922519180562
30
0
0
SPLINE
5
AA
100
AcDbEntity
8
1
62
256
6
ByLayer
370
18
48
1
60
0
100
AcDbSpline
70
4
71
3
72
42
73
38
40
0
40
0
40
0
40
0
40
0.0343605619167904
40
0.0343605619167904
40
0.0880071973658582
40
0.0880071973658582
40
0.141653832814926
40
0.141653832814926
40
0.195300468263994
40
0.195300468263994
40
0.248947103713062
40
0.248947103713062
40
0.302593739162129
40
0.302593739162129
40
0.356240374611197
40
0.356240374611197
40
0.409887010060265
40
0.409887010060265
40
0.463533645509333
40
0.463533645509333
40
0.517180280958401
40
0.517180280958401
40
0.570826916407468
40
0.570826916407468
40
0.678120187305602
40
0.678120187305602
40
0.785413458203735
40
0.785413458203735
40
0.839060093652802
40
0.839060093652802
40
0.892706729101869
40
0.892706729101869
40
0.946353364550935
40
0.946353364550935
40
0.973176682275468
40
0.973176682275468
40
1
40
1
40
1
40
1
41
1
10
20.0330101949101
20
2.77283586422675
30
0
41
1
10
20.2058549017855
20
2.77301916765998
30
0
41
1
10
20.3786368289208
20
2.7686113312931
30
0
41
1
10
20.8215667578744
20
2.74558876204776
30
0
41
1
10
21.0924196587333
20
2.72029940627004
30
0
41
1
10
21.6330051130655
20
2.64797595635503
30
0
41
1
10
21.9027007310737
20
2.60101331404005
30
0
41
1
10
22.4423867758546
20
2.48652795176668
30
0
41
1
10
22.7124475352562
20
2.41892333853758
30
0
41
1
10
23.2536578521388
20
2.26423132561325
30
0
41
1
10
23.5234546283202
20
2.17757314164874
30
0
41
1
10
24.0628914957204
20
1.98743638801704
30
0
41
1
10
24.3325535344339
20
1.88398985458707
30
0
41
1
10
24.87309394814
20
1.66201183544319
30
0
41
1
10
25.143618556782
20
1.54366579623397
30
0
41
1
10
25.6831076994156
20
1.29604053893104
30
0
41
1
10
25.9525860378828
20
1.16658648371438
30
0
41
1
10
26.4925196485756
20
0.898931845531905
30
0
41
1
10
26.7631912019104
20
0.760147193202499
30
0
41
1
10
27.3029398955522
20
0.478630409591148
30
0
41
1
10
27.5724059723384
20
0.335672304729087
30
0
41
1
10
28.1117942307119
20
0.0477294189467159
30
0
41
1
10
28.3821834145121
20
-0.0975761031639877
30
0
41
1
10
29.1925846443962
20
-0.530240753963767
30
0
41
1
10
29.7301990264389
20
-0.813563099134171
30
0
41
1
10
30.811491154319
20
-1.34914182566382
30
0
41
1
10
31.3492238477966
20
-1.59810733842565
30
0
41
1
10
32.158888692393
20
-1.92916302792403
30
0
41
1
10
32.4292997693102
20
-2.03227508702403
30
0
41
1
10
32.9667023632259
20
-2.22036366072064
30
0
41
1
10
33.2343559735747
20
-2.30574728502464
30
0
41
1
10
33.7692921104507
20
-2.45743815913974
30
0
41
1
10
34.0365962600067
20
-2.5237438350012
30
0
41
1
10
34.4382448036012
20
-2.60805497744778
30
0
41
1
10
34.5722410538655
20
-2.63363483256063
30
0
41
1
10
34.8406169864974
20
-2.67959481592007
30
0
41
1
10
34.9747750452128
20
-2.70007751987205
30
0
41
1
10
35.1096888085227
20
-2.71765459402334
30
0
0
SPLINE
5
AB
100
AcDbEntity
8
1
62
256
6
ByLayer
370
18
48
1
60
0
100
AcDbSpline
70
4
71
3
72
10
73
6
40
0
40
0
40
0
40
0
40
0.5
40
0.5
40
1
40
1
40
1
40
1
41
1
10
35.1096888085263
20
-2.7176545940159
30
0
41
1
10
35.1070572836412
20
-2.6800187602214
30
0
41
1
10
35.099090919906
20
-2.64967495413776
30
0
41
1
10
35.0781921185358
20
-2.60069161463983
30
0
41
1
10
35.0652934933995
20
-2.58196796010259
30
0
41
1
10
35.0506486105182
20
-2.56735680790794
30
0
0
SPLINE
5
AC
100
AcDbEntity
8
1
62
256
6
ByLayer
370
18
48
1
60
0
100
AcDbSpline
70
4
71
3
72
10
73
6
40
0
40
0
40
0
40
0
40
0.654945311053603
40
0.654945311053603
40
1
40
1
40
1
40
1
41
1
10
8.9069476707898
20
-2.68589812733262
30
0
41
1
10
8.90678152403677
20
-2.71511469922976
30
0
41
1
10
8.90661378568211
20
-2.73503195636067
30
0
41
1
10
8.90636077255635
20
-2.75042838286885
30
0
41
1
10
8.90627488100407
20
-2.75297682131963
30
0
41
1
10
8.90619024074059
20
-2.75281495268581
30
0
0
SPLINE
5
AD
100
AcDbEntity
8
1
62
256
6
ByLayer
370
18
48
1
60
0
100
AcDbSpline
70
4
71
4
72
10
73
5
40
0
40
0
40
0
40
0
40
0
40
1
40
1
40
1
40
1
40
1
41
1
10
12.6396548345122
20
-1.09295898631521
30
0
41
1
10
12.5103422031008
20
-1.45870342237922
30
0
41
1
10
12.3810295716895
20
-1.82444785844322
30
0
41
1
10
12.2517169402782
20
-2.19019229450723
30
0
41
1
10
12.1224043088669
20
-2.55593673057123
30
0
0
SPLINE
5
AE
100
AcDbEntity
8
1
62
256
6
ByLayer
370
18
48
1
60
0
100
AcDbSpline
70
4
71
3
72
8
73
4
40
0
40
0
40
0
40
0
40
1
40
1
40
1
40
1
41
1
10
35.9869952873407
20
-0.106312676234438
30
0
41
1
10
35.7739222989544
20
-0.816243141959887
30
0
41
1
10
35.5643184674457
20
-1.52719007993363
30
0
41
1
10
35.3582138107348
20
-2.23916228548663
30
0
0
SPLINE
5
AF
100
AcDbEntity
8
1
62
256
6
ByLayer
370
18
48
1
60
0
100
AcDbSpline
70
4
71
3
72
20
73
16
40
0
40
0
40
0
40
0
40
0.249516599036389
40
0.249516599036389
40
0.374274898554585
40
0.374274898554585
40
0.499033198072781
40
0.499033198072781
40
0.623791497590977
40
0.623791497590977
40
0.748549797109173
40
0.748549797109173
40
0.998066396145565
40
0.998066396145565
40
1
40
1
40
1
40
1
41
1
10
13.9966897497068
20
-1.44667823547888
30
0
41
1
10
14.4391424138202
20
-1.64757197391046
30
0
41
1
10
14.8798595290326
20
-1.83110050093904
30
0
41
1
10
15.5419063124087
20
-2.07544357792463
30
0
41
1
10
15.7631948167447
20
-2.15164192059501
30
0
41
1
10
16.2053419993719
20
-2.29215490061128
30
0
41
1
10
16.4259300924747
20
-2.35627928890076
30
0
41
1
10
16.8670438618556
20
-2.47144302928149
30
0
41
1
10
17.0875151870823
20
-2.52254234734409
30
0
41
1
10
17.5289163497514
20
-2.6111583189421
30
0
41
1
10
17.7503243910012
20
-2.64861215743449
30
0
41
1
10
18.4130496833924
20
-2.73897746651568
30
0
41
1
10
18.8531081213484
20
-2.77022592589356
30
0
41
1
10
19.2981619801533
20
-2.7715154988542
30
0
41
1
10
19.3015844722229
20
-2.77152360872768
30
0
41
1
10
19.3050070734601
20
-2.77152991237747
30
0
0
SPLINE
5
B0
100
AcDbEntity
8
1
62
256
6
ByLayer
370
18
48
1
60
0
100
AcDbSpline
70
4
71
3
72
16
73
12
40
0
40
0
40
0
40
0
40
8.33397295565E-05
40
8.33397295565E-05
40
0.33338889315304
40
0.33338889315304
40
0.666694446576524
40
0.666694446576524
40
0.833347223288262
40
0.833347223288262
40
1
40
1
40
1
40
1
41
1
10
31.2019626118196
20
1.82857714363482
30
0
41
1
10
31.2020727291143
20
1.82862187056713
30
0
41
1
10
31.202182846319
20
1.82866659620865
30
0
41
1
10
31.642690911458
20
2.00758008457515
30
0
41
1
10
32.0825346129836
20
2.16712129042125
30
0
41
1
10
32.9652403985333
20
2.43709713910397
30
0
41
1
10
33.4047846150568
20
2.5468432887964
30
0
41
1
10
34.0658724068064
20
2.66965654417271
30
0
41
1
10
34.2867107591125
20
2.70354989112826
30
0
41
1
10
34.7272843256861
20
2.75648079696887
30
0
41
1
10
34.9472206393894
20
2.77563623143186
30
0
41
1
10
35.167274625616
20
2.78732134892178
30
0
0
SPLINE
5
B1
100
AcDbEntity
8
1
62
256
6
ByLayer
370
18
48
1
60
0
100
AcDbSpline
70
4
71
3
72
34
73
30
40
0
40
0
40
0
40
0
40
0.0672834782659912
40
0.0672834782659912
40
0.134566956531982
40
0.134566956531982
40
0.201850434797974
40
0.201850434797974
40
0.269133913063965
40
0.269133913063965
40
0.336417391329956
40
0.336417391329956
40
0.403700869595947
40
0.403700869595947
40
0.470984347861938
40
0.470984347861938
40
0.53826782612793
40
0.53826782612793
40
0.672834782659912
40
0.672834782659912
40
0.740118260925903
40
0.740118260925903
40
0.807401739191893
40
0.807401739191893
40
0.874685217457884
40
0.874685217457884
40
0.941968695723874
40
0.941968695723874
40
1
40
1
40
1
40
1
41
1
10
9.19689083569924
20
1.34475939347294
30
0
41
1
10
9.46813770582355
20
1.21973357665479
30
0
41
1
10
9.73942276780042
20
1.08889768623925
30
0
41
1
10
10.2805305655573
20
0.820050621543515
30
0
41
1
10
10.5505148315657
20
0.6822782886087
30
0
41
1
10
11.0905308634122
20
0.402268619540479
30
0
41
1
10
11.3604768900212
20
0.259867013553929
30
0
41
1
10
11.901867442294
20
-0.0267078300866501
30
0
41
1
10
12.1731046114893
20
-0.170808348736131
30
0
41
1
10
12.7136555956785
20
-0.455919837337745
30
0
41
1
10
12.9836068666639
20
-0.597116217587313
30
0
41
1
10
13.5245348730252
20
-0.87368375731424
30
0
41
1
10
13.7957775098245
20
-1.00971472658165
30
0
41
1
10
14.3367443265594
20
-1.27167057395559
30
0
41
1
10
14.6068052597756
20
-1.39767326749728
30
0
41
1
10
15.1471220143573
20
-1.63802867866144
30
0
41
1
10
15.4178182045731
20
-1.75243873023416
30
0
41
1
10
16.2301152523853
20
-2.07292088587937
30
0
41
1
10
16.7687602339956
20
-2.25537744872506
30
0
41
1
10
17.5810844748104
20
-2.4718900614098
30
0
41
1
10
17.8516971576663
20
-2.53427019126187
30
0
41
1
10
18.3917452092867
20
-2.6380008182945
30
0
41
1
10
18.6615335470863
20
-2.67941371023855
30
0
41
1
10
19.2023043617938
20
-2.74038280653602
30
0
41
1
10
19.4734250447925
20
-2.75994471722331
30
0
41
1
10
20.0136571331948
20
-2.77653071622643
30
0
41
1
10
20.2833295365021
20
-2.77361460390369
30
0
41
1
10
20.7862794109575
20
-2.74738000999847
30
0
41
1
10
21.0198254500633
20
-2.72685544811006
30
0
41
1
10
21.2530958090972
20
-2.69820255108417
30
0
0
SPLINE
5
B2
100
AcDbEntity
8
1
62
256
6
ByLayer
370
18
48
1
60
0
100
AcDbSpline
70
4
71
3
72
16
73
12
40
0
40
0
40
0
40
0
40
0.249999999999997
40
0.249999999999997
40
0.374999999999996
40
0.374999999999996
40
0.499999999999995
40
0.499999999999995
40
0.749999999999997
40
0.749999999999997
40
1
40
1
40
1
40
1
41
1
10
35.0506486105222
20
-2.56735680791198
30
0
41
1
10
35.0035543894829
20
-2.52037105618388
30
0
41
1
10
34.9608361861015
20
-2.46299848191401
30
0
41
1
10
34.9034437785441
20
-2.36107248979189
30
0
41
1
10
34.8854321173051
20
-2.32444078911885
30
0
41
1
10
34.8517334086829
20
-2.24565973371205
30
0
41
1
10
34.8359882676504
20
-2.20332427069349
30
0
41
1
10
34.7928644587538
20
-2.06888066283412
30
0
41
1
10
34.7698374398557
20
-1.97045234099821
30
0
41
1
10
34.7351773585672
20
-1.75607472668585
30
0
41
1
10
34.7235216058185
20
-1.63968152108956
30
0
41
1
10
34.7180468163774
20
-1.51482319323623
30
0
0
SPLINE
5
B3
100
AcDbEntity
8
1
62
256
6
ByLayer
370
18
48
1
60
0
100
AcDbSpline
70
4
71
3
72
18
73
14
40
0
40
0
40
0
40
0
40
0.250000000000009
40
0.250000000000009
40
0.375000000000007
40
0.375000000000007
40
0.500000000000006
40
0.500000000000006
40
0.625000000000004
40
0.625000000000004
40
0.750000000000003
40
0.750000000000003
40
1
40
1
40
1
40
1
41
1
10
35.5823164269668
20
-0.827255829802198
30
0
41
1
10
35.6156250777954
20
-0.794916526999515
30
0
41
1
10
35.6504712627074
20
-0.748306658125784
30
0
41
1
10
35.7053103150593
20
-0.6588720316322
30
0
41
1
10
35.723878747386
20
-0.625941281238994
30
0
41
1
10
35.7606918643392
20
-0.555843554782882
30
0
41
1
10
35.7790709223358
20
-0.518458797886751
30
0
41
1
10
35.8157613379059
20
-0.439217927831805
30
0
41
1
10
35.8341122459893
20
-0.397230521010215
30
0
41
1
10
35.8697432265721
20
-0.311177859282651
30
0
41
1
10
35.8871492637526
20
-0.266852539400077
30
0
41
1
10
35.9381146056331
20
-0.1301828397024
30
0
41
1
10
35.9704561577115
20
-0.0339296083398324
30
0
41
1
10
35.999827085544
20
0.0637698227595251
30
0
0
SPLINE
5
B4
100
AcDbEntity
8
1
62
256
6
ByLayer
370
18
48
1
60
0
100
AcDbSpline
70
4
71
3
72
8
73
4
40
0
40
0
40
0
40
0
40
1
40
1
40
1
40
1
41
1
10
35.9869952873407
20
0.106312676234353
30
0
41
1
10
35.7739239416951
20
0.816237668569158
30
0
41
1
10
35.5643200610569
20
1.52718457492998
30
0
41
1
10
35.3582138107349
20
2.23916228548649
30
0
0
SPLINE
5
B5
100
AcDbEntity
8
1
62
256
6
ByLayer
370
13
48
1
60
0
100
AcDbSpline
70
4
71
3
72
84
73
80
40
0
40
0
40
0
40
0
40
0.0146297540009453
40
0.0243861876128792
40
0.0341426212248117
40
0.0536554884486786
40
0.0634119220606106
40
0.073168355672546
40
0.0926812228964118
40
0.102437656508345
40
0.112194090120277
40
0.131706957344145
40
0.141463390956078
40
0.151219824568012
40
0.170732691791878
40
0.180489125403812
40
0.190245559015746
40
0.209758426239612
40
0.219514859851545
40
0.229271293463478
40
0.248784160687345
40
0.258540594299278
40
0.268297027911211
40
0.287809895135078
40
0.297566328747011
40
0.307322762358945
40
0.326835629582811
40
0.336592063194745
40
0.346348496806678
40
0.365861364030545
40
0.375617797642478
40
0.385374231254412
40
0.404887098478278
40
0.414643532090211
40
0.424399965702145
40
0.443912832926011
40
0.453669266537944
40
0.463425700149878
40
0.482938567373744
40
0.492695000985677
40
0.502451434597611
40
0.521964301821478
40
0.531720735433411
40
0.541477169045344
40
0.560990036269211
40
0.570746469881144
40
0.580502903493077
40
0.600015770716944
40
0.609772204328877
40
0.61952863794081
40
0.639041505164678
40
0.64879793877661
40
0.658554372388544
40
0.678067239612411
40
0.687823673224345
40
0.697580106836278
40
0.717092974060144
40
0.726849407672077
40
0.736605841284011
40
0.756118708507877
40
0.765875142119811
40
0.775631575731744
40
0.795144442955611
40
0.804900876567544
40
0.814657310179477
40
0.834170177403344
40
0.843926611015277
40
0.85368304462721
40
0.873195911851077
40
0.88295234546301
40
0.892708779074944
40
0.912221646298811
40
0.921978079910744
40
0.931734513522677
40
0.951247380746544
40
0.961003814358477
40
0.97076024797041
40
0.990273115194277
40
1
40
1
40
1
40
1
41
1
10
27.2707879623438
20
-0.0540404165886911
30
0
41
1
10
27.2190466318268
20
-0.0426014255249356
30
0
41
1
10
27.1328018364032
20
-0.02350694906238
30
0
41
1
10
27.0120569119579
20
0.003273012034299
30
0
41
1
10
26.8740286840039
20
0.0337867940197043
30
0
41
1
10
26.7360081482129
20
0.0643267643306728
30
0
41
1
10
26.5979941583704
20
0.0948627495549771
30
0
41
1
10
26.4599659807572
20
0.12524972312471
30
0
41
1
10
26.3219455436987
20
0.155593525293199
30
0
41
1
10
26.1839316415733
20
0.185861498256855
30
0
41
1
10
26.0459035308585
20
0.215926624296401
30
0
41
1
10
25.907883133252
20
0.245877895656321
30
0
41
1
10
25.769869239381
20
0.275683310047412
30
0
41
1
10
25.6318411180652
20
0.305234182183028
30
0
41
1
10
25.4938206953404
20
0.334602473446011
30
0
41
1
10
25.355806783523
20
0.363756942747954
30
0
41
1
10
25.2177786484034
20
0.392607510362268
30
0
41
1
10
25.0797582240145
20
0.421208964918349
30
0
41
1
10
24.9417443348402
20
0.449530924661076
30
0
41
1
10
24.8037162264885
20
0.477501618881831
30
0
41
1
10
24.6656958120191
20
0.505157531095108
30
0
41
1
10
24.5276818805188
20
0.532467678361626
30
0
41
1
10
24.3896537152935
20
0.559380327708993
30
0
41
1
10
24.2516332311458
20
0.585913616181613
30
0
41
1
10
24.1136192430873
20
0.61203762851224
30
0
41
1
10
23.9755910381112
20
0.637720774845035
30
0
41
1
10
23.8375705469365
20
0.66296284991489
30
0
41
1
10
23.6995565941046
20
0.687735093254872
30
0
41
1
10
23.5615284433219
20
0.712026101888596
30
0
41
1
10
23.4235080365307
20
0.735817373998486
30
0
41
1
10
23.2854941865995
20
0.759081367097763
30
0
41
1
10
23.1474661225338
20
0.781826881096577
30
0
41
1
10
23.0094457600032
20
0.804017253628586
30
0
41
1
10
22.8714318742158
20
0.825626283278438
30
0
41
1
10
22.7334037385189
20
0.846682845491443
30
0
41
1
10
22.595383264804
20
0.867132275327264
30
0
41
1
10
22.4573692720112
20
0.886949747971982
30
0
41
1
10
22.3193410506685
20
0.906184061929252
30
0
41
1
10
22.1813205239507
20
0.924762734727437
30
0
41
1
10
22.0433065170375
20
0.942662356042688
30
0
41
1
10
21.9052783056005
20
0.959951473404117
30
0
41
1
10
21.767257827413
20
0.976540016913105
30
0
41
1
10
21.6292439092109
20
0.992406030489348
30
0
41
1
10
21.4912158004183
20
1.00763818707483
30
0
41
1
10
21.3531954314606
20
1.02213033893031
30
0
41
1
10
21.2151815938883
20
1.0358638748165
30
0
41
1
10
21.0771535415062
20
1.04894544193593
30
0
41
1
10
20.9391331963678
20
1.06125312461589
30
0
41
1
10
20.8011193456548
20
1.07276982133774
30
0
41
1
10
20.6630912465809
20
1.08361981347727
30
0
41
1
10
20.5250708104834
20
1.09366577213547
30
0
41
1
10
20.3870568440327
20
1.10289212132599
30
0
41
1
10
20.2490286402572
20
1.11144038337483
30
0
41
1
10
20.1110081292086
20
1.11915824161767
30
0
41
1
10
19.9729941636546
20
1.12603171725959
30
0
41
1
10
19.8349660114405
20
1.13222015020727
30
0
41
1
10
19.6969456011329
20
1.13755879890178
30
0
41
1
10
19.5589317266934
20
1.14203843595126
30
0
41
1
10
19.4209036435421
20
1.14583252375433
30
0
41
1
10
19.2828832733503
20
1.14876434069259
30
0
41
1
10
19.1448694045261
20
1.1508261698219
30
0
41
1
10
19.0068413030966
20
1.15220507664353
30
0
41
1
10
18.8688208917235
20
1.15271286425826
30
0
41
1
10
18.7308069793778
20
1.15234335033656
30
0
41
1
10
18.5927788355174
20
1.15129660657831
30
0
41
1
10
18.4547583909162
20
1.14937348947609
30
0
41
1
10
18.3167444751379
20
1.14656931226335
30
0
41
1
10
18.1787163418305
20
1.1430979014838
30
0
41
1
10
18.0406959055399
20
1.13875245965281
30
0
41
1
10
17.9026819594696
20
1.13353386865825
30
0
41
1
10
17.7646537844015
20
1.12766493291346
30
0
41
1
10
17.626633296222
20
1.12093176144833
30
0
41
1
10
17.4886193057464
20
1.11333663930188
30
0
41
1
10
17.3505910972221
20
1.10511067595138
30
0
41
1
10
17.2125706019406
20
1.09603347447697
30
0
41
1
10
17.0745566451539
20
1.08610867575294
30
0
41
1
10
16.9365284904516
20
1.07557497659263
30
0
41
1
10
16.7986125843778
20
1.06421465704989
30
0
41
1
10
16.6952066888007
20
1.0550750722131
30
0
41
1
10
16.6608059635297
20
1.05196226379371
30
0
0
SPLINE
5
B6
100
AcDbEntity
8
1
62
256
6
ByLayer
370
18
48
1
60
0
100
AcDbSpline
70
4
71
3
72
18
73
14
40
0
40
0
40
0
40
0
40
0.125000000000002
40
0.125000000000002
40
0.250000000000004
40
0.250000000000004
40
0.375000000000006
40
0.375000000000006
40
0.500000000000007
40
0.500000000000007
40
0.750000000000004
40
0.750000000000004
40
1
40
1
40
1
40
1
41
1
10
35.5127513068041
20
-0.845589589778399
30
0
41
1
10
35.4827427954557
20
-0.843851509237595
30
0
41
1
10
35.4531812926656
20
-0.83447710156247
30
0
41
1
10
35.3966093667109
20
-0.802789672314077
30
0
41
1
10
35.3698540291235
20
-0.780783812075043
30
0
41
1
10
35.3189025856336
20
-0.726468879323107
30
0
41
1
10
35.2946703886752
20
-0.693967300829513
30
0
41
1
10
35.2498158274952
20
-0.62196510256004
30
0
41
1
10
35.2289834885395
20
-0.582264040990026
30
0
41
1
10
35.1706333614366
20
-0.453540857641059
30
0
41
1
10
35.137106938989
20
-0.354096873537401
30
0
41
1
10
35.0820537708879
20
-0.142376016766462
30
0
41
1
10
35.0600607693887
20
-0.0291853191512814
30
0
41
1
10
35.0431927955066
20
0.0907944399612006
30
0
0
SPLINE
5
B7
100
AcDbEntity
8
1
62
256
6
ByLayer
370
18
48
1
60
0
100
AcDbSpline
70
4
71
3
72
37
73
33
40
0
40
0
40
0
40
0
40
0.125
40
0.125
40
0.250000000000001
40
0.250000000000001
40
0.375000000000001
40
0.375000000000001
40
0.500000000000001
40
0.500000000000001
40
0.5625
40
0.5625
40
0.593749999999999
40
0.593749999999999
40
0.624999999999998
40
0.624999999999998
40
0.687499999999999
40
0.687499999999999
40
0.718749999999999
40
0.718749999999999
40
0.749999999999999
40
0.781249999999998
40
0.781249999999998
40
0.812499999999998
40
0.812499999999998
40
0.874999999999998
40
0.874999999999998
40
0.906249999999998
40
0.906249999999998
40
0.937499999999998
40
0.937499999999998
40
1
40
1
40
1
40
1
41
1
10
8.90694767079245
20
-2.68589812733279
30
0
41
1
10
8.73801647286945
20
-2.66537707591093
30
0
41
1
10
8.57095844480625
20
-2.63967383954633
30
0
41
1
10
8.24145050487698
20
-2.57513714016071
30
0
41
1
10
8.07872880464413
20
-2.53627702032065
30
0
41
1
10
7.76044633772722
20
-2.4410727428116
30
0
41
1
10
7.60608797293284
20
-2.38518721790868
30
0
41
1
10
7.31063552595822
20
-2.24989861450936
30
0
41
1
10
7.16910017650753
20
-2.17012405932567
30
0
41
1
10
6.97898285547734
20
-2.02767421053895
30
0
41
1
10
6.91908595232343
20
-1.97625696818059
30
0
41
1
10
6.83590820912599
20
-1.89152069524343
30
0
41
1
10
6.80930014236031
20
-1.8619991890871
30
0
41
1
10
6.75868044468334
20
-1.7999810384876
30
0
41
1
10
6.73459111714629
20
-1.76733928044837
30
0
41
1
10
6.66818954998269
20
-1.66617175675591
30
0
41
1
10
6.63127891863462
20
-1.59402869484268
30
0
41
1
10
6.58949104944088
20
-1.47708831153906
30
0
41
1
10
6.57781354822805
20
-1.43640453883978
30
0
41
1
10
6.56000050457783
20
-1.35393057571369
30
0
41
1
10
6.54754156541679
20
-1.26999412604258
30
0
41
1
10
6.54594793536762
20
-1.18308030808407
30
0
41
1
10
6.54992027638534
20
-1.0946377510887
30
0
41
1
10
6.55476210126247
20
-1.04935689003804
30
0
41
1
10
6.57719132331195
20
-0.914701383913041
30
0
41
1
10
6.60252043826401
20
-0.825761903064716
30
0
41
1
10
6.65384224815728
20
-0.693419618837765
30
0
41
1
10
6.67316345744868
20
-0.649597591151746
30
0
41
1
10
6.71501383498261
20
-0.564037360774478
30
0
41
1
10
6.73763240067353
20
-0.522059849073088
30
0
41
1
10
6.80993299577517
20
-0.398235196253523
30
0
41
1
10
6.86402913228093
20
-0.318481327788362
30
0
41
1
10
6.92286485511309
20
-0.240978848417626
30
0
0
SPLINE
5
B8
100
AcDbEntity
8
1
62
256
6
ByLayer
370
18
48
1
60
0
100
AcDbSpline
70
4
71
3
72
18
73
14
40
0
40
0
40
0
40
0
40
0.0738218120028502
40
0.0738218120028502
40
0.25905744960228
40
0.25905744960228
40
0.44429308720171
40
0.44429308720171
40
0.62952872480114
40
0.62952872480114
40
0.81476436240057
40
0.81476436240057
40
1
40
1
40
1
40
1
41
1
10
34.5540406417997
20
0.263422956034674
30
0
41
1
10
34.5648831965881
20
0.271412301211228
30
0
41
1
10
34.5761531068408
20
0.28041310010147
30
0
41
1
10
34.6172360797234
20
0.315538606479578
30
0
41
1
10
34.6492571145663
20
0.347022133749078
30
0
41
1
10
34.7161929733349
20
0.419624992754905
30
0
41
1
10
34.7516907524698
20
0.461343661084584
30
0
41
1
10
34.8255682702571
20
0.553468010790311
30
0
41
1
10
34.863291013323
20
0.603028062987107
30
0
41
1
10
34.9408916579924
20
0.70832301706622
30
0
41
1
10
34.9810453367911
20
0.764547141439579
30
0
41
1
10
35.0621832102316
20
0.87832029289325
30
0
41
1
10
35.1032039553926
20
0.936369796536837
30
0
41
1
10
35.1473681747839
20
0.993714688345733
30
0
0
SPLINE
5
B9
100
AcDbEntity
8
1
62
256
6
ByLayer
370
13
48
1
60
0
100
AcDbSpline
70
4
71
3
72
9
73
5
40
0
40
0
40
0
40
0
40
0.247330255307211
40
1
40
1
40
1
40
1
41
1
10
12.9147265235692
20
-1.0721754500812
30
0
41
1
10
12.8920505489475
20
-1.0740084327233
30
0
41
1
10
12.8003668319827
20
-1.08129691873211
30
0
41
1
10
12.7086724408517
20
-1.08810902461346
30
0
41
1
10
12.6396548345122
20
-1.09295898631521
30
0
0
SPLINE
5
BA
100
AcDbEntity
8
1
62
256
6
ByLayer
370
18
48
1
60
0
100
AcDbSpline
70
4
71
3
72
52
73
48
40
0
40
0
40
0
40
0
40
0.0231825171300518
40
0.0231825171300518
40
0.0557430998923842
40
0.0557430998923842
40
0.0883036826547165
40
0.0883036826547165
40
0.120864265417049
40
0.120864265417049
40
0.153424848179381
40
0.153424848179381
40
0.218546013704046
40
0.218546013704046
40
0.251106596466378
40
0.251106596466378
40
0.28366717922871
40
0.28366717922871
40
0.316227761991043
40
0.316227761991043
40
0.348788344753375
40
0.348788344753375
40
0.41390951027804
40
0.41390951027804
40
0.479030675802704
40
0.479030675802704
40
0.511591258565037
40
0.511591258565037
40
0.544151841327369
40
0.544151841327369
40
0.576712424089701
40
0.576712424089701
40
0.609273006852033
40
0.609273006852033
40
0.674394172376696
40
0.674394172376696
40
0.706954755139027
40
0.706954755139027
40
0.739515337901357
40
0.739515337901357
40
0.804636503426019
40
0.804636503426019
40
0.837197086188349
40
0.837197086188349
40
0.86975766895068
40
0.86975766895068
40
1
40
1
40
1
40
1
41
1
10
14.8504783810097
20
1.81252490162365
30
0
41
1
10
15.0076319164409
20
1.87562688945042
30
0
41
1
10
15.1647601866547
20
1.93625839158764
30
0
41
1
10
15.5427786120041
20
2.0757528665398
30
0
41
1
10
15.7641952791768
20
2.15197841962836
30
0
41
1
10
16.2065863679673
20
2.2925317074338
30
0
41
1
10
16.4272984492888
20
2.35666641960575
30
0
41
1
10
16.8686616380051
20
2.47183530010045
30
0
41
1
10
17.0892557207834
20
2.52293134632856
30
0
41
1
10
17.530910932951
20
2.61151884837986
30
0
41
1
10
17.7524461242533
20
2.6489496846996
30
0
41
1
10
18.4155356722486
20
2.7392192628796
30
0
41
1
10
18.8558480522521
20
2.77036850688052
30
0
41
1
10
19.5186698319489
20
2.77208642849124
30
0
41
1
10
19.7400807070168
20
2.76512875797309
30
0
41
1
10
20.1816677067558
20
2.7364113650336
30
0
41
1
10
20.4021487856618
20
2.71466121318028
30
0
41
1
10
20.8431170433839
20
2.65657833965281
30
0
41
1
10
21.0637363197826
20
2.6203031454304
30
0
41
1
10
21.5060084944049
20
2.53368045304939
30
0
41
1
10
21.727045126594
20
2.48327914543688
30
0
41
1
10
22.3887884977062
20
2.31282839843391
30
0
41
1
10
22.8292444869199
20
2.17310443588153
30
0
41
1
10
23.7139105199733
20
1.84863266858298
30
0
41
1
10
24.1538971802745
20
1.66501320469803
30
0
41
1
10
24.8157323190341
20
1.36555851080919
30
0
41
1
10
25.0368291938663
20
1.26128749783445
30
0
41
1
10
25.4785376320679
20
1.04680831756525
30
0
41
1
10
25.6990081225128
20
0.936755168965703
30
0
41
1
10
26.1396941692447
20
0.71195041361193
30
0
41
1
10
26.359952482619
20
0.597270654427916
30
0
41
1
10
26.8012500542666
20
0.36508179446929
30
0
41
1
10
27.0225419311231
20
0.247336319794414
30
0
41
1
10
27.684284817036
20
-0.106613395338627
30
0
41
1
10
28.1242035965965
20
-0.342944448129288
30
0
41
1
10
28.7863464474052
20
-0.690249035271989
30
0
41
1
10
29.0074731550403
20
-0.804564026288716
30
0
41
1
10
29.4483243605307
20
-1.02789471471414
30
0
41
1
10
29.6684300528023
20
-1.13706413445328
30
0
41
1
10
30.3292622216153
20
-1.45455427815315
30
0
41
1
10
30.7713438670045
20
-1.65396859757101
30
0
41
1
10
31.4323011500491
20
-1.92198073349832
30
0
41
1
10
31.6523227520707
20
-2.00650403823042
30
0
41
1
10
32.0928199949844
20
-2.16447392170278
30
0
41
1
10
32.3136553259331
20
-2.2379824321165
30
0
41
1
10
33.4169808477302
20
-2.57454994635188
30
0
41
1
10
34.2864199423923
20
-2.74054696122934
30
0
41
1
10
35.167274625616
20
-2.78732134892178
30
0
0
SPLINE
5
BB
100
AcDbEntity
8
1
62
256
6
ByLayer
370
18
48
1
60
0
100
AcDbSpline
70
4
71
3
72
8
73
4
40
0
40
0
40
0
40
0
40
1
40
1
40
1
40
1
41
1
10
35.999827085544
20
0.0637698227595536
30
0
41
1
10
35.9955329930204
20
0.0779363903562569
30
0
41
1
10
35.9912557716081
20
0.0921173171556404
30
0
41
1
10
35.9869952873408
20
0.106312676234324
30
0
0
SPLINE
5
BC
100
AcDbEntity
8
1
62
256
6
ByLayer
370
18
48
1
60
0
100
AcDbSpline
70
4
71
3
72
30
73
26
40
0
40
0
40
0
40
0
40
0.0903302066387589
40
0.0903302066387589
40
0.180660413277518
40
0.180660413277518
40
0.270990619916277
40
0.270990619916277
40
0.361320826555036
40
0.361320826555036
40
0.451651033193795
40
0.451651033193795
40
0.541981239832554
40
0.541981239832554
40
0.632311446471313
40
0.632311446471313
40
0.722641653110071
40
0.722641653110071
40
0.81297185974883
40
0.81297185974883
40
0.903302066387589
40
0.903302066387589
40
0.993632273026348
40
0.993632273026348
40
1
40
1
40
1
40
1
41
1
10
34.6736716686174
20
0.197961166438461
30
0
41
1
10
34.43964859472
20
0.319954757706285
30
0
41
1
10
34.2056315923204
20
0.440894783055086
30
0
41
1
10
33.7371652053688
20
0.679780486943002
30
0
41
1
10
33.5028131609198
20
0.797895730818283
30
0
41
1
10
33.0326037590994
20
1.02877284360613
30
0
41
1
10
32.7983063843013
20
1.14068321513812
30
0
41
1
10
32.3298234728981
20
1.35688774718457
30
0
41
1
10
32.0955133943465
20
1.46120652882723
30
0
41
1
10
31.6265042668476
20
1.66119704194511
30
0
41
1
10
31.391313110544
20
1.75687549084674
30
0
41
1
10
30.9220551579655
20
1.93451744798003
30
0
41
1
10
30.6878562410179
20
2.01771805248109
30
0
41
1
10
30.2192022417498
20
2.17220138443514
30
0
41
1
10
29.9847424603159
20
2.24336199205572
30
0
41
1
10
29.515135094416
20
2.37101022215558
30
0
41
1
10
29.2801127961241
20
2.42683445305232
30
0
41
1
10
28.810916955921
20
2.52508259422413
30
0
41
1
10
28.5766808654442
20
2.56676340231027
30
0
41
1
10
28.1076190866817
20
2.63398544136464
30
0
41
1
10
27.8725761533864
20
2.65873511295993
30
0
41
1
10
27.4025431998466
20
2.69256073598564
30
0
41
1
10
27.1678053931678
20
2.70229106340352
30
0
41
1
10
26.9166576923797
20
2.70375262657865
30
0
41
1
10
26.9001201599776
20
2.70380894629605
30
0
41
1
10
26.8835833652774
20
2.70382453574158
30
0
0
SPLINE
5
BD
100
AcDbEntity
8
1
62
256
6
ByLayer
370
18
48
1
60
0
100
AcDbSpline
70
4
71
3
72
14
73
10
40
0
40
0
40
0
40
0
40
0.224100423230887
40
0.224100423230887
40
0.482733615487258
40
0.482733615487258
40
0.741366807743628
40
0.741366807743628
40
1
40
1
40
1
40
1
41
1
10
14.8475502696456
20
-1.81515470321887
30
0
41
1
10
14.6432883959183
20
-1.89213733610848
30
0
41
1
10
14.439528335062
20
-1.96476626872143
30
0
41
1
10
14.001069823973
20
-2.11212235236505
30
0
41
1
10
13.7665909502332
20
-2.18533146780157
30
0
41
1
10
13.2979394360159
20
-2.31600255399627
30
0
41
1
10
13.063579284092
20
-2.37320980404854
30
0
41
1
10
12.5938702757201
20
-2.47519867913283
30
0
41
1
10
12.3586949629953
20
-2.51957772400584
30
0
41
1
10
12.1224043088669
20
-2.55593673057146
30
0
0
SPLINE
5
BE
100
AcDbEntity
8
1
62
256
6
ByLayer
370
18
48
1
60
0
100
AcDbSpline
70
4
71
3
72
8
73
4
40
0
40
0
40
0
40
0
40
1
40
1
40
1
40
1
41
1
10
35.167274625616
20
-2.78732134892178
30
0
41
1
10
35.230415690174
20
-2.60852363127657
30
0
41
1
10
35.2943536644575
20
-2.42595181382239
30
0
41
1
10
35.3582138107348
20
-2.2391622854864
30
0
0
SPLINE
5
BF
100
AcDbEntity
8
1
62
256
6
ByLayer
370
18
48
1
60
0
100
AcDbSpline
70
4
71
3
72
66
73
62
40
0
40
0
40
0
40
0
40
0.036946728711427
40
0.036946728711427
40
0.0738934574228539
40
0.0738934574228539
40
0.110840186134281
40
0.110840186134281
40
0.147786914845708
40
0.147786914845708
40
0.184733643557135
40
0.184733643557135
40
0.221680372268562
40
0.221680372268562
40
0.258627100979989
40
0.258627100979989
40
0.277100465335703
40
0.277100465335703
40
0.295573829691417
40
0.295573829691417
40
0.332520558402844
40
0.332520558402844
40
0.350993922758557
40
0.350993922758557
40
0.369467287114271
40
0.369467287114271
40
0.406414015825698
40
0.406414015825698
40
0.443360744537124
40
0.443360744537124
40
0.480307473248551
40
0.480307473248551
40
0.517254201959978
40
0.517254201959978
40
0.554200930671405
40
0.554200930671405
40
0.591147659382832
40
0.591147659382832
40
0.628094388094259
40
0.628094388094259
40
0.665041116805686
40
0.665041116805686
40
0.701987845517113
40
0.701987845517113
40
0.73893457422854
40
0.73893457422854
40
0.775881302939967
40
0.775881302939967
40
0.812828031651394
40
0.812828031651394
40
0.849774760362821
40
0.849774760362821
40
0.886721489074248
40
0.886721489074248
40
0.923668217785675
40
0.923668217785675
40
0.960614946497102
40
0.960614946497102
40
0.997561675208529
40
0.997561675208529
40
1
40
1
40
1
40
1
41
1
10
12.1224043088669
20
2.55593673057146
30
0
41
1
10
12.3580357683101
20
2.51967915698032
30
0
41
1
10
12.5928285921616
20
2.47540308763666
30
0
41
1
10
13.0622686764035
20
2.37351604452593
30
0
41
1
10
13.2967214726173
20
2.31632409951567
30
0
41
1
10
13.7662040918525
20
2.18545732281524
30
0
41
1
10
14.0017819384017
20
2.11190107045655
30
0
41
1
10
14.4723657573767
20
1.95371221893618
30
0
41
1
10
14.7070455989941
20
1.86928299630739
30
0
41
1
10
15.1763904377182
20
1.68945635228806
30
0
41
1
10
15.4110832675575
20
1.59327069470811
30
0
41
1
10
15.8812465768153
20
1.3911740709593
30
0
41
1
10
16.1170670000001
20
1.28547709128762
30
0
41
1
10
16.5871351668208
20
1.06788299328909
30
0
41
1
10
16.8217184391188
20
0.955490256719003
30
0
41
1
10
17.173882754318
20
0.783142893378084
30
0
41
1
10
17.2911880476036
20
0.724939664032235
30
0
41
1
10
17.5261268479256
20
0.607428609883755
30
0
41
1
10
17.6437249140205
20
0.548083945697044
30
0
41
1
10
17.996893947116
20
0.368459181471849
30
0
41
1
10
18.2323280303162
20
0.247604865927826
30
0
41
1
10
18.5846977571562
20
0.0657113163084091
30
0
41
1
10
18.7021085099712
20
0.0050085063575978
30
0
41
1
10
18.9368328946134
20
-0.116557511571955
30
0
41
1
10
19.0541237442181
20
-0.177460726134001
30
0
41
1
10
19.4065874389531
20
-0.358935872291255
30
0
41
1
10
19.6421578629293
20
-0.479542206254393
30
0
41
1
10
20.1129489382082
20
-0.716901163332949
30
0
41
1
10
20.3479084204959
20
-0.833650400197939
30
0
41
1
10
20.8174105555131
20
-1.06210320548286
30
0
41
1
10
21.0521618400238
20
-1.17317117120865
30
0
41
1
10
21.5226021461276
20
-1.3873576979264
30
0
41
1
10
21.7583258874711
20
-1.49104766511317
30
0
41
1
10
22.2284849182029
20
-1.68888612102532
30
0
41
1
10
22.4631476744681
20
-1.78265345923623
30
0
41
1
10
22.9326771601854
20
-1.95796859610854
30
0
41
1
10
23.1677435454534
20
-2.03941772153769
30
0
41
1
10
23.6386004104575
20
-2.19160913895917
30
0
41
1
10
23.8736872411274
20
-2.26175206418458
30
0
41
1
10
24.3433159378749
20
-2.38640869245879
30
0
41
1
10
24.5777815945876
20
-2.44239116438743
30
0
41
1
10
25.0474273627863
20
-2.53691767708517
30
0
41
1
10
25.2830755328507
20
-2.57615481663996
30
0
41
1
10
25.7534998260084
20
-2.63967182943276
30
0
41
1
10
25.9882625922806
20
-2.66376107824723
30
0
41
1
10
26.4575483945309
20
-2.69802393470314
30
0
41
1
10
26.6921676934985
20
-2.70492037302279
30
0
41
1
10
27.1625264911038
20
-2.70245705907288
30
0
41
1
10
27.3982499179315
20
-2.69277647887924
30
0
41
1
10
27.8680340763026
20
-2.65915346359088
30
0
41
1
10
28.1026311344221
20
-2.63458872745426
30
0
41
1
10
28.5722047359054
20
-2.56751420475513
30
0
41
1
10
28.8071107464643
20
-2.52582157118533
30
0
41
1
10
29.2782004740608
20
-2.42729221838891
30
0
41
1
10
29.5130735621476
20
-2.37152297174214
30
0
41
1
10
29.982455411197
20
-2.24403083089476
30
0
41
1
10
30.2171936720934
20
-2.17283801588215
30
0
41
1
10
30.6870794754201
20
-2.01799940607759
30
0
41
1
10
30.9226124592374
20
-1.93432317830744
30
0
41
1
10
31.1731330194131
20
-1.83946845324513
30
0
41
1
10
31.188640568019
20
-1.83356792959205
30
0
41
1
10
31.2041461298696
20
-1.82763985455293
30
0
0
SPLINE
5
C0
100
AcDbEntity
8
1
62
256
6
ByLayer
370
18
48
1
60
0
100
AcDbSpline
70
4
71
3
72
10
73
6
40
0
40
0
40
0
40
0
40
0.685911751679696
40
0.685911751679696
40
1
40
1
40
1
40
1
41
1
10
35.0431927955066
20
0.0907944399611722
30
0
41
1
10
34.9600512017905
20
0.124148388393479
30
0
41
1
10
34.8785191711562
20
0.155321002764651
30
0
41
1
10
34.7636879566812
20
0.195539377963882
30
0
41
1
10
34.7285016942196
20
0.207341162955089
30
0
41
1
10
34.6945766189056
20
0.218049815150039
30
0
0
SPLINE
5
C1
100
AcDbEntity
8
1
62
256
6
ByLayer
370
18
48
1
60
0
100
AcDbSpline
70
4
71
3
72
26
73
22
40
0
40
0
40
0
40
0
40
0.03125
40
0.03125
40
0.0625
40
0.0625
40
0.125
40
0.125
40
0.25
40
0.25
40
0.375
40
0.375
40
0.5
40
0.5
40
0.625
40
0.625
40
0.75
40
0.75
40
0.875
40
0.875
40
1
40
1
40
1
40
1
41
1
10
6.92286485510945
20
-0.240978848415295
30
0
41
1
10
6.94441346941699
20
-0.212593524747433
30
0
41
1
10
6.96899019078828
20
-0.185928484845448
30
0
41
1
10
7.02098776944968
20
-0.137026379367427
30
0
41
1
10
7.04855513075688
20
-0.11455900064405
30
0
41
1
10
7.13479185689567
20
-0.0516327693833034
30
0
41
1
10
7.19732014705809
20
-0.0154528738395925
30
0
41
1
10
7.388715586491
20
0.0788091365789398
30
0
41
1
10
7.52299506320884
20
0.124442024869182
30
0
41
1
10
7.79905101399615
20
0.19644371447464
30
0
41
1
10
7.93853775382325
20
0.221694330779769
30
0
41
1
10
8.21826574515762
20
0.256567992862358
30
0
41
1
10
8.35878695370616
20
0.266110575330373
30
0
41
1
10
8.64098511907528
20
0.271337813268048
30
0
41
1
10
8.78322578899409
20
0.26693284891374
30
0
41
1
10
9.06614549176263
20
0.244484365778703
30
0
41
1
10
9.20618982545261
20
0.226536241711898
30
0
41
1
10
9.48347052811567
20
0.177257090373558
30
0
41
1
10
9.62070464817654
20
0.145915617862272
30
0
41
1
10
9.89224298384283
20
0.0691904156889507
30
0
41
1
10
10.0272374014229
20
0.023512403501428
30
0
41
1
10
10.1589728302371
20
-0.0290479412067839
30
0
0
SPLINE
5
C2
100
AcDbEntity
8
1
62
256
6
ByLayer
370
18
48
1
60
0
100
AcDbSpline
70
4
71
1
72
4
73
2
40
0
40
0
40
1
40
1
41
1
10
35.1108034933151
20
-2.71839091441927
30
0
41
1
10
35.582316427103
20
-0.827255829669667
30
0
0
SPLINE
5
C3
100
AcDbEntity
8
1
62
256
6
ByLayer
370
18
48
1
60
0
100
AcDbSpline
70
4
71
3
72
8
73
4
40
0
40
0
40
0
40
0
40
1
40
1
40
1
40
1
41
1
10
35.999827085544
20
-0.0637698227595251
30
0
41
1
10
35.9955316705027
20
-0.0779407534522534
30
0
41
1
10
35.9912544552659
20
-0.0921217030303865
30
0
41
1
10
35.9869952873407
20
-0.106312676234381
30
0
0
SPLINE
5
C4
100
AcDbEntity
8
1
62
256
6
ByLayer
370
18
48
1
60
0
100
AcDbSpline
70
4
71
3
72
8
73
4
40
0
40
0
40
0
40
0
40
1
40
1
40
1
40
1
41
1
10
35.167274625616
20
-2.78732134892178
30
0
41
1
10
35.1460351721051
20
-2.77428376222201
30
0
41
1
10
35.1273702547492
20
-2.75139679014109
30
0
41
1
10
35.1108034932686
20
-2.71839091432722
30
0
0
SPLINE
5
C5
100
AcDbEntity
8
1
62
256
6
ByLayer
370
18
48
1
60
0
100
AcDbSpline
70
4
71
3
72
12
73
8
40
0
40
0
40
0
40
0
40
0.499999999999998
40
0.499999999999998
40
0.749999999999999
40
0.749999999999999
40
1
40
1
40
1
40
1
41
1
10
10.1589728302371
20
-0.029047941206727
30
0
41
1
10
10.7958050375829
20
-0.283133881797482
30
0
41
1
10
11.4344194260753
20
-0.527078519908031
30
0
41
1
10
12.3940013689336
20
-0.881207060842542
30
0
41
1
10
12.7141536418899
20
-0.997224109113773
30
0
41
1
10
13.3550215895143
20
-1.22515386728438
30
0
41
1
10
13.6761367072661
20
-1.33720527533694
30
0
41
1
10
13.9966897497068
20
-1.44667823547891
30
0
0
SPLINE
5
C6
100
AcDbEntity
8
1
62
256
6
ByLayer
370
13
48
1
60
0
100
AcDbSpline
70
4
71
3
72
84
73
80
40
0
40
0
40
0
40
0
40
0.0052208643258516
40
0.0248043542776821
40
0.0345960992535977
40
0.0443878442295126
40
0.0639713341813429
40
0.073763079157258
40
0.0835548241331725
40
0.103138314085004
40
0.112930059060919
40
0.122721804036834
40
0.142305293988664
40
0.15209703896458
40
0.161888783940493
40
0.181472273892325
40
0.19126401886824
40
0.201055763844154
40
0.220639253795986
40
0.2304309987719
40
0.240222743747816
40
0.259806233699647
40
0.269597978675562
40
0.279389723651475
40
0.298973213603307
40
0.308764958579223
40
0.318556703555137
40
0.338140193506968
40
0.347931938482882
40
0.357723683458799
40
0.377307173410629
40
0.387098918386544
40
0.396890663362457
40
0.416474153314289
40
0.426265898290204
40
0.43605764326612
40
0.45564113321795
40
0.465432878193866
40
0.475224623169781
40
0.494808113121611
40
0.504599858097526
40
0.514391603073441
40
0.533975093025272
40
0.543766838001187
40
0.553558582977101
40
0.573142072928933
40
0.582933817904847
40
0.592725562880763
40
0.612309052832593
40
0.622100797808508
40
0.631892542784424
40
0.651476032736254
40
0.661267777712169
40
0.671059522688084
40
0.690643012639915
40
0.70043475761583
40
0.710226502591745
40
0.729809992543575
40
0.739601737519491
40
0.749393482495406
40
0.768976972447236
40
0.778768717423151
40
0.788560462399067
40
0.808143952350897
40
0.817935697326812
40
0.827727442302727
40
0.847310932254558
40
0.857102677230473
40
0.866894422206387
40
0.886477912158218
40
0.896269657134133
40
0.906061402110048
40
0.925644892061879
40
0.935436637037794
40
0.945228382013709
40
0.96481187196554
40
0.974603616941455
40
0.984395361917371
40
1
40
1
40
1
40
1
41
1
10
29.4643887304909
20
-1.05523817871276
30
0
41
1
10
29.445991512571
20
-1.05686963796654
30
0
41
1
10
29.3585871019375
20
-1.06452447091894
30
0
41
1
10
29.2366732375912
20
-1.07458646434512
30
0
41
1
10
29.0986454115235
20
-1.08514445686038
30
0
41
1
10
28.9606317715761
20
-1.09508626775141
30
0
41
1
10
28.8226104350339
20
-1.1041827975441
30
0
41
1
10
28.6845826247765
20
-1.11243097933524
30
0
41
1
10
28.5465690392782
20
-1.12004201841029
30
0
41
1
10
28.4085478017584
20
-1.12679441391228
30
0
41
1
10
28.2705200972765
20
-1.13268656603708
30
0
41
1
10
28.1325066053111
20
-1.13792309700503
30
0
41
1
10
27.9944854415693
20
-1.14229073475292
30
0
41
1
10
27.8564577808395
20
-1.14578937069862
30
0
41
1
10
27.7184443089619
20
-1.14861653381271
30
0
41
1
10
27.5804231266053
20
-1.15056779314838
30
0
41
1
10
27.4423954038921
20
-1.15164457700803
30
0
41
1
10
27.3043818535816
20
-1.15203817571393
30
0
41
1
10
27.1663605813607
20
-1.15155628844181
30
0
41
1
10
27.0283327899267
20
-1.15020597192091
30
0
41
1
10
26.8903191899034
20
-1.14816774308349
30
0
41
1
10
26.7522978936665
20
-1.14526198342799
30
0
41
1
10
26.6142701120053
20
-1.14149734426994
30
0
41
1
10
26.4762565561413
20
-1.13704312361031
30
0
41
1
10
26.3382353489802
20
-1.13173291777034
30
0
41
1
10
26.2002076825278
20
-1.12557699482556
30
0
41
1
10
26.0621942320969
20
-1.1187330035394
30
0
41
1
10
25.9241731018125
20
-1.11104828259042
30
0
41
1
10
25.7861454359989
20
-1.10253477911706
30
0
41
1
10
25.6481319352581
20
-1.09333903559843
30
0
41
1
10
25.5101107062944
20
-1.08332460888337
30
0
41
1
10
25.3720829528033
20
-1.07250812114111
30
0
41
1
10
25.2340693851836
20
-1.06102159534697
30
0
41
1
10
25.096048116776
20
-1.04874521786664
30
0
41
1
10
24.9580203550489
20
-1.03569721609685
30
0
41
1
10
24.8200067980467
20
-1.02199475284399
30
0
41
1
10
24.6819855547711
20
-1.00753503567992
30
0
41
1
10
24.543957810994
20
-0.992337913246132
30
0
41
1
10
24.40594426779
20
-0.976505334866829
30
0
41
1
10
24.2679230261677
20
-0.959951858371738
30
0
41
1
10
24.1298952597471
20
-0.942698896303483
30
0
41
1
10
23.9918816897773
20
-0.924833412953404
30
0
41
1
10
23.8538604382272
20
-0.906288647029584
30
0
41
1
10
23.7158327141029
20
-0.887089102457935
30
0
41
1
10
23.5778192009815
20
-0.867304932163364
30
0
41
1
10
23.4397980190855
20
-0.846888293370796
30
0
41
1
10
23.3017703514964
20
-0.825865174214357
30
0
41
1
10
23.1637568781096
20
-0.804288690259312
30
0
41
1
10
23.0257357032374
20
-0.782130095746851
30
0
41
1
10
22.8877080004284
20
-0.759416793124473
30
0
41
1
10
22.749694472856
20
-0.73618468025694
30
0
41
1
10
22.6116732136286
20
-0.712424229037396
30
0
41
1
10
22.4736454079809
20
-0.68816417019346
30
0
41
1
10
22.3356317937466
20
-0.663423047667806
30
0
41
1
10
22.1976104902937
20
-0.638210607232736
30
0
41
1
10
22.0595827204998
20
-0.612556798993836
30
0
41
1
10
21.9215691778769
20
-0.586462741669237
30
0
41
1
10
21.783547985553
20
-0.559957485663006
30
0
41
1
10
21.6455203226772
20
-0.533072164816133
30
0
41
1
10
21.5075068656203
20
-0.505790397275149
30
0
41
1
10
21.3694857262344
20
-0.4781604956774
30
0
41
1
10
21.2314580774425
20
-0.450214665178379
30
0
41
1
10
21.0934446104632
20
-0.421919029887476
30
0
41
1
10
20.9554234225715
20
-0.393341073534771
30
0
41
1
10
20.8173956851509
20
-0.364513971662973
30
0
41
1
10
20.679382115628
20
-0.335385787444864
30
0
41
1
10
20.5413608186122
20
-0.30604183488569
30
0
41
1
10
20.4033330006175
20
-0.27651435681156
30
0
41
1
10
20.2653193747057
20
-0.246735228750225
30
0
41
1
10
20.127298053857
20
-0.216807402436558
30
0
41
1
10
19.9892702489699
20
-0.186763874839784
30
0
41
1
10
19.851256669694
20
-0.15652045081967
30
0
41
1
10
19.7132354397267
20
-0.126197481154549
30
0
41
1
10
19.5752077505139
20
-0.0958285964191532
30
0
41
1
10
19.4371942759037
20
-0.0653136661804865
30
0
41
1
10
19.2991731208758
20
-0.0347901425347743
30
0
41
1
10
19.1611454307733
20
-0.0042921667019868
30
0
41
1
10
19.0371522702034
20
0.023189706869772
30
0
41
1
10
18.9476581580774
20
0.0429902127222874
30
0
41
1
10
18.8926676652857
20
0.0551383691583567
30
0
0
SPLINE
5
C7
100
AcDbEntity
8
1
62
256
6
ByLayer
370
18
48
1
60
0
100
AcDbSpline
70
4
71
3
72
12
73
8
40
0
40
0
40
0
40
0
40
0.250000000000008
40
0.250000000000008
40
0.500000000000016
40
0.500000000000016
40
1
40
1
40
1
40
1
41
1
10
8.90261669796121
20
1.60876909965549
30
0
41
1
10
8.90253405967488
20
1.57798091080701
30
0
41
1
10
8.91864136379922
20
1.54889822447572
30
0
41
1
10
8.95970175330356
20
1.49715401478701
30
0
41
1
10
8.98546548482091
20
1.47393590479933
30
0
41
1
10
9.06780789584258
20
1.41058342330777
30
0
41
1
10
9.13091946224543
20
1.37516757790249
30
0
41
1
10
9.19689083569949
20
1.3447593934728
30
0
0
SPLINE
5
C8
100
AcDbEntity
8
1
62
256
6
ByLayer
370
18
48
1
60
0
100
AcDbSpline
70
4
71
3
72
8
73
4
40
0
40
0
40
0
40
0
40
1
40
1
40
1
40
1
41
1
10
35.5127513068041
20
-0.845589589778427
30
0
41
1
10
35.5350999239868
20
-0.844220828076658
30
0
41
1
10
35.5582666359198
20
-0.838231907209064
30
0
41
1
10
35.5823164271021
20
-0.827255829676886
30
0
0
SPLINE
5
C9
100
AcDbEntity
8
1
62
256
6
ByLayer
370
18
48
1
60
0
100
AcDbSpline
70
4
71
3
72
18
73
14
40
0
40
0
40
0
40
0
40
0.125
40
0.125
40
0.249999999999999
40
0.249999999999999
40
0.5
40
0.5
40
0.625
40
0.625
40
0.75
40
0.75
40
1
40
1
40
1
40
1
41
1
10
34.6736716686175
20
0.197961166438631
30
0
41
1
10
34.6628821458643
20
0.122892629697901
30
0
41
1
10
34.6536340889236
20
0.0476317213943389
30
0
41
1
10
34.6382453773552
20
-0.103277892226743
30
0
41
1
10
34.6320906688388
20
-0.179223076894829
30
0
41
1
10
34.6185568247042
20
-0.405049327072362
30
0
41
1
10
34.6160135587136
20
-0.552862949384433
30
0
41
1
10
34.6217200505309
20
-0.770561023958521
30
0
41
1
10
34.6252172869683
20
-0.842453202507414
30
0
41
1
10
34.6354686382408
20
-0.984861675130105
30
0
41
1
10
34.6422379347118
20
-1.05530805921413
30
0
41
1
10
34.6670321137856
20
-1.26065334273093
30
0
41
1
10
34.6895939644451
20
-1.39095740072901
30
0
41
1
10
34.7180468163751
20
-1.51482319323628
30
0
0
SPLINE
5
CA
100
AcDbEntity
8
1
62
256
6
ByLayer
370
18
48
1
60
0
100
AcDbSpline
70
4
71
3
72
10
73
6
40
0
40
0
40
0
40
0
40
0.5
40
0.5
40
1
40
1
40
1
40
1
41
1
10
35.1473681747814
20
0.993714688342408
30
0
41
1
10
35.1646434998475
20
1.01614577985734
30
0
41
1
10
35.1789596045304
20
1.04142186066375
30
0
41
1
10
35.1972537908066
20
1.09506112120479
30
0
41
1
10
35.2013267284886
20
1.12386074127374
30
0
41
1
10
35.2002434272342
20
1.15255718644852
30
0
0
SPLINE
5
CB
100
AcDbEntity
8
1
62
256
6
ByLayer
370
13
48
1
60
0
100
AcDbSpline
70
4
71
3
72
8
73
4
40
0
40
0
40
0
40
0
40
1
40
1
40
1
40
1
41
1
10
9.29482046299972
20
-2.674688143266
30
0
41
1
10
9.29481653845338
20
-2.673247365973
30
0
41
1
10
9.29481562996415
20
-2.66105736862525
30
0
41
1
10
9.29481605096447
20
-2.63817514471216
30
0
0
SPLINE
5
CC
100
AcDbEntity
8
1
62
256
6
ByLayer
370
18
48
1
60
0
100
AcDbSpline
70
4
71
3
72
22
73
18
40
0
40
0
40
0
40
0
40
0.0731531948778852
40
0.0731531948778852
40
0.227627662398238
40
0.227627662398238
40
0.304864896158414
40
0.304864896158414
40
0.38210212991859
40
0.38210212991859
40
0.536576597438943
40
0.536576597438943
40
0.691051064959295
40
0.691051064959295
40
0.845525532479648
40
0.845525532479648
40
1
40
1
40
1
40
1
41
1
10
8.90619043678831
20
2.75281532276213
30
0
41
1
10
8.9061143550168
20
2.75267358684241
30
0
41
1
10
8.90603928433097
20
2.75034201006594
30
0
41
1
10
8.90580847349122
20
2.73639463033663
30
0
41
1
10
8.90565583997207
20
2.7173380944966
30
0
41
1
10
8.90542733842383
20
2.67398286505434
30
0
41
1
10
8.90535097477897
20
2.65698610542847
30
0
41
1
10
8.90519924008765
20
2.61853574442361
30
0
41
1
10
8.90512361541943
20
2.59704856706267
30
0
41
1
10
8.9048949085348
20
2.52594064362845
30
0
41
1
10
8.90474012916002
20
2.46970801313444
30
0
41
1
10
8.90440950557104
20
2.33947582128619
30
0
41
1
10
8.90423210632392
20
2.26478370903084
30
0
41
1
10
8.90384689228537
20
2.10157399854535
30
0
41
1
10
8.9036384877337
20
2.0128706841995
30
0
41
1
10
8.90317095830702
20
1.82145801789005
30
0
41
1
10
8.90291091804318
20
1.71838540267504
30
0
41
1
10
8.90261669796146
20
1.60876909965594
30
0
0
SPLINE
5
CD
100
AcDbEntity
8
1
62
256
6
ByLayer
370
18
48
1
60
0
100
AcDbSpline
70
4
71
3
72
8
73
4
40
0
40
0
40
0
40
0
40
1
40
1
40
1
40
1
41
1
10
34.6736716686175
20
0.197961166438631
30
0
41
1
10
34.7961624675173
20
0.157202772485476
30
0
41
1
10
34.919319908612
20
0.121360562180456
30
0
41
1
10
35.0431927955066
20
0.0907944399611722
30
0
0
LINE
5
76
100
AcDbEntity
8
81
62
256
6
ByLayer
370
18
48
1
60
0
100
AcDbLine
10
36
20
0
30
0
11
41
21
0
31
0
39
0
210
0
220
0
230
1
0
LINE
5
77
100
AcDbEntity
8
1
62
256
6
ByLayer
370
18
48
1
60
0
100
AcDbLine
10
8.906184
20
2.752812
30
0
11
0.907602
21
2.738415
31
0
39
0
210
0
220
0
230
1
0
LINE
5
79
100
AcDbEntity
8
1
62
256
6
ByLayer
370
18
48
1
60
0
100
AcDbLine
10
20.025927
20
2.772828
30
0
11
19.305462
21
2.771531
31
0
39
0
210
0
220
0
230
1
0
LINE
5
7A
100
AcDbEntity
8
1
62
256
6
ByLayer
370
18
48
1
60
0
100
AcDbLine
10
19.305462
20
-2.771531
30
0
11
20.025927
21
-2.772828
31
0
39
0
210
0
220
0
230
1
0
LINE
5
7B
100
AcDbEntity
8
1
62
256
6
ByLayer
370
18
48
1
60
0
100
AcDbLine
10
0.907602
20
-2.738415
30
0
11
8.906184
21
-2.752812
31
0
39
0
210
0
220
0
230
1
0
LINE
5
7C
100
AcDbEntity
8
SK1
62
256
6
ByLayer
370
18
48
1
60
0
100
AcDbLine
10
0
20
3
30
0
11
-34.989637
21
3
31
0
39
0
210
0
220
0
230
1
0
LINE
5
7E
100
AcDbEntity
8
SK1
62
256
6
ByLayer
370
18
48
1
60
0
100
AcDbLine
10
-34.989637
20
-3
30
0
11
0
21
-3
31
0
39
0
210
0
220
0
230
1
0
LINE
5
7F
100
AcDbEntity
8
SK1
62
256
6
ByLayer
370
18
48
1
60
0
100
AcDbLine
10
-34.989637
20
3
30
0
11
-36
21
1.25
31
0
39
0
210
0
220
0
230
1
0
LINE
5
80
100
AcDbEntity
8
SK1
62
256
6
ByLayer
370
18
48
1
60
0
100
AcDbLine
10
-36
20
-1.25
30
0
11
-34.989637
21
-3
31
0
39
0
210
0
220
0
230
1
0
LINE
5
81
100
AcDbEntity
8
SK4
62
256
6
ByLayer
370
18
48
0.05
60
0
100
AcDbLine
10
41
20
0
30
0
11
-41
21
0
31
0
39
0
210
0
220
0
230
1
0
LINE
5
83
100
AcDbEntity
8
4
62
256
6
ByLayer
370
18
48
0.05
60
0
100
AcDbLine
10
36
20
0
30
0
11
0
21
0
31
0
39
0
210
0
220
0
230
1
0
LINE
5
85
100
AcDbEntity
8
80
62
256
6
ByLayer
370
18
48
1
60
0
100
AcDbLine
10
0
20
0
30
0
11
-5
21
0
31
0
39
0
210
0
220
0
230
1
0
LINE
5
86
100
AcDbEntity
8
1
62
256
6
ByLayer
370
13
48
1
60
0
100
AcDbLine
10
0.453036
20
2.869207
30
0
11
0.453036
21
-2.869207
31
0
39
0
210
0
220
0
230
1
0
LINE
5
87
100
AcDbEntity
8
1
62
256
6
ByLayer
370
18
48
1
60
0
100
AcDbLine
10
0
20
-3
30
0
11
0
21
3
31
0
39
0
210
0
220
0
230
1
0
LINE
5
88
100
AcDbEntity
8
1
62
256
6
ByLayer
370
13
48
1
60
0
100
AcDbLine
10
0.907602
20
2.738415
30
0
11
0.907602
21
-2.738415
31
0
39
0
210
0
220
0
230
1
0
LINE
5
89
100
AcDbEntity
8
1
62
256
6
ByLayer
370
18
48
1
60
0
100
AcDbLine
10
34.718047
20
-1.514823
30
0
11
35.512751
21
-0.84559
31
0
39
0
210
0
220
0
230
1
0
LINE
5
8A
100
AcDbEntity
8
SK1
62
256
6
ByLayer
370
18
48
1
60
0
100
AcDbLine
10
-34.989637
20
3
30
0
11
-34.989637
21
-3
31
0
39
0
210
0
220
0
230
1
0
LINE
5
8B
100
AcDbEntity
8
SK1
62
256
6
ByLayer
370
18
48
1
60
0
100
AcDbLine
10
-36
20
1.25
30
0
11
-36
21
-1.25
31
0
39
0
210
0
220
0
230
1
0
LINE
5
8C
100
AcDbEntity
8
SK1
62
256
6
ByLayer
370
18
48
1
60
0
100
AcDbLine
10
0
20
-3
30
0
11
0
21
3
31
0
39
0
210
0
220
0
230
1
0
MTEXT
5
CE
100
AcDbEntity
8
SK6
62
256
6
ByLayer
370
13
48
1
60
0
100
AcDbMText
10
2.129169
20
35.182694
30
0
210
0
220
0
230
1
1
\W0.7353;860.1-0560-019A1-PM 4234
40
3.5
41
0
44
1.084337
50
0
71
8
72
5
7
iso_b_vert
0
DIMENSION
5
DB
100
AcDbEntity
8
2
62
256
6
ByLayer
370
13
48
1
60
0
100
AcDbDimension
2
DimnDraft3D1
10
35.1217
20
-13.013398
30
0
11
16.371759
21
-13.013398
31
0
70
32
71
5
72
1
41
1
210
0
220
0
230
1
3
Standard
100
AcDbAlignedDimension
13
0
23
-1.5875
33
0
14
35.1217
24
-4.3875
34
0
50
0
100
AcDbRotatedDimension
1001
ACAD
1000
DSTYLE
1002
{
1070
   279
1070
     0
1070
   172
1070
     1
1070
   173
1070
     1
1070
   340
1005
CF
1070
   271
1070
     2
1070
   272
1070
     2
1070
    77
1070
     1
1070
    73
1070
     0
1070
   171
1070
     3
1070
   274
1070
     4
1070
   177
1070
    35
1070
   176
1070
    35
1070
   178
1070
    35
1070
    48
1040
-0.005
1070
    41
1041
3.5
1070
   147
1041
1.75
1070
    42
1041
1.5875
1070
    44
1041
2.0
1070
   140
1041
3.5
1070
   343
1005
0
1070
   344
1005
0
1002
}
0
DIMENSION
5
E5
100
AcDbEntity
8
SK2
62
256
6
ByLayer
370
13
48
1
60
0
100
AcDbDimension
2
DimnDraft3D2
10
36
20
-31.692985
30
0
11
0.463
21
-31.692985
31
0
70
32
71
5
72
1
41
1
210
0
220
0
230
1
3
Standard
100
AcDbAlignedDimension
13
-36
23
-4.5875
33
0
14
36
24
-1.5875
34
0
50
0
100
AcDbRotatedDimension
1001
ACAD
1000
DSTYLE
1002
{
1070
   279
1070
     0
1070
   172
1070
     1
1070
   173
1070
     1
1070
   340
1005
CF
1070
   271
1070
     2
1070
   272
1070
     2
1070
    77
1070
     1
1070
    73
1070
     0
1070
   171
1070
     3
1070
   274
1070
     4
1070
   177
1070
    35
1070
   176
1070
    35
1070
   178
1070
    35
1070
    48
1040
-0.005
1070
    41
1041
3.5
1070
   147
1041
1.75
1070
    42
1041
1.5875
1070
    44
1041
2.0
1070
   140
1041
3.5
1070
   343
1005
0
1070
   344
1005
0
1002
}
0
DIMENSION
5
EF
100
AcDbEntity
8
SK2
62
256
6
ByLayer
370
13
48
1
60
0
100
AcDbDimension
2
DimnDraft3D3
10
36
20
14.409119
30
0
11
27.16
21
14.409119
31
0
70
32
71
5
72
1
41
1
210
0
220
0
230
1
3
Standard
100
AcDbAlignedDimension
13
18.32
23
4.3875
33
0
14
36
24
1.5875
34
0
50
0
100
AcDbRotatedDimension
1001
ACAD
1000
DSTYLE
1002
{
1070
   279
1070
     0
1070
   172
1070
     1
1070
   173
1070
     1
1070
   340
1005
CF
1070
   271
1070
     2
1070
   272
1070
     2
1070
    77
1070
     1
1070
    73
1070
     0
1070
   171
1070
     3
1070
   274
1070
     4
1070
   177
1070
    35
1070
   176
1070
    35
1070
   178
1070
    35
1070
    48
1040
-0.005
1070
    41
1041
3.5
1070
   147
1041
1.75
1070
    42
1041
1.5875
1070
    44
1041
2.0
1070
   140
1041
3.5
1070
   343
1005
0
1070
   344
1005
0
1002
}
0
DIMENSION
5
F9
100
AcDbEntity
8
SK2
62
256
6
ByLayer
370
13
48
1
60
0
100
AcDbDimension
2
DimnDraft3D4
10
35.1217
20
-15.602503
30
0
11
45.981425
21
-15.602503
31
0
70
32
71
5
72
1
41
1
210
0
220
0
230
1
3
Standard
100
AcDbAlignedDimension
13
36
23
-1.5875
33
0
14
35.1217
24
-4.3875
34
0
50
0
100
AcDbRotatedDimension
1001
ACAD
1000
DSTYLE
1002
{
1070
   279
1070
     0
1070
   172
1070
     1
1070
   173
1070
     1
1070
   340
1005
CF
1070
   271
1070
     2
1070
   272
1070
     2
1070
    77
1070
     1
1070
    73
1070
     0
1070
   171
1070
     3
1070
   274
1070
     4
1070
   177
1070
    35
1070
   176
1070
    35
1070
   178
1070
    35
1070
    48
1040
-0.005
1070
    41
1041
3.5
1070
   147
1041
1.75
1070
    42
1041
1.5875
1070
    44
1041
2.0
1070
   140
1041
3.5
1070
   343
1005
0
1070
   344
1005
0
1002
}
0
DIMENSION
5
103
100
AcDbEntity
8
SK2
62
256
6
ByLayer
370
13
48
1
60
0
100
AcDbDimension
2
DimnDraft3D5
10
35.1217
20
-21.343428
30
0
11
-2.617624
21
-21.343428
31
0
70
32
71
5
72
1
41
1
210
0
220
0
230
1
3
Standard
100
AcDbAlignedDimension
13
-36
23
-4.5875
33
0
14
35.1217
24
-4.3875
34
0
50
0
100
AcDbRotatedDimension
1001
ACAD
1000
DSTYLE
1002
{
1070
   279
1070
     0
1070
   172
1070
     1
1070
   173
1070
     1
1070
   340
1005
CF
1070
   271
1070
     2
1070
   272
1070
     2
1070
    77
1070
     1
1070
    73
1070
     0
1070
   171
1070
     3
1070
   274
1070
     4
1070
   177
1070
    35
1070
   176
1070
    35
1070
   178
1070
    35
1070
    48
1040
-0.005
1070
    41
1041
3.5
1070
   147
1041
1.75
1070
    42
1041
1.5875
1070
    44
1041
2.0
1070
   140
1041
3.5
1070
   343
1005
0
1070
   344
1005
0
1002
}
0
DIMENSION
5
10E
100
AcDbEntity
8
SK2
62
256
6
ByLayer
370
13
48
1
60
0
100
AcDbDimension
2
DimnDraft3D6
10
-46.625163
20
3
30
0
11
-47.250163
21
21.47418
31
0
70
33
71
5
72
1
41
1
210
0
220
0
230
1
3
Standard
100
AcDbAlignedDimension
13
-37.5875
23
-3
33
0
14
-37.5875
24
3
34
0
1001
ACAD
1000
DSTYLE
1002
{
1070
   279
1070
     0
1070
    74
1070
     0
1070
   173
1070
     1
1070
   340
1005
CF
1070
   271
1070
     3
1070
   272
1070
     2
1070
    77
1070
     1
1070
    73
1070
     0
1070
   171
1070
     3
1070
   274
1070
     4
1070
   177
1070
    35
1070
   176
1070
    35
1070
   178
1070
    35
1070
    48
1040
-0.005
1070
    41
1041
3.5
1070
   147
1041
1.75
1070
    42
1041
1.5875
1070
    44
1041
2.0
1070
   140
1041
3.5
1070
   343
1005
0
1070
   344
1005
0
1002
}
0
DIMENSION
5
119
100
AcDbEntity
8
2
62
256
6
ByLayer
370
13
48
1
60
0
100
AcDbDimension
2
DimnDraft3D7
10
50.083343
20
2.8
30
0
11
45.458343
21
19.867266
31
0
70
33
71
5
72
1
41
1
210
0
220
0
230
1
3
Standard
100
AcDbAlignedDimension
13
36.7092
23
-2.8
33
0
14
36.7092
24
2.8
34
0
1001
ACAD
1000
DSTYLE
1002
{
1070
   279
1070
     0
1070
    74
1070
     0
1070
   173
1070
     1
1070
   340
1005
CF
1070
   271
1070
     3
1070
   272
1070
     2
1070
    77
1070
     1
1070
    73
1070
     0
1070
   171
1070
     3
1070
   274
1070
     4
1070
   177
1070
    35
1070
   176
1070
    35
1070
   178
1070
    35
1070
    48
1040
-0.005
1070
    41
1041
3.5
1070
   147
1041
1.75
1070
    42
1041
1.5875
1070
    44
1041
2.0
1070
   140
1041
3.5
1070
   343
1005
0
1070
   344
1005
0
1002
}
0
ENDSEC
0
SECTION
2
OBJECTS
0
DICTIONARY
5
184
330
0
100
AcDbDictionary
280
0
281
1
3
ACAD_GROUP
350
185
3
ACAD_MLINESTYLE
350
186
0
DICTIONARY
5
185
330
0
100
AcDbDictionary
280
0
281
1
0
DICTIONARY
5
186
330
0
100
AcDbDictionary
280
0
281
1
3
Standard
350
18
0
MLINESTYLE
5
18
330
186
100
AcDbMlineStyle
2
Standard
70
0
3

62
256
51
90
52
90
71
2
49
-0.5
62
256
6
ByLayer
49
0.5
62
256
6
ByLayer
0
RASTERVARIABLES
5
172
330

100
AcDbRasterVariables
90
0
70
1
71
1
72
1
0
ENDSEC
0
EOF
