0
SECTION
2
HEADER
9
$ACADVER
1
AC1015
9
$DWGCODEPAGE
3
ANSI_1252
9
$HANDSEED
5
1b1
9
$ANGBASE
50
0
9
$ANGDIR
70
0
9
$ATTMODE
70
1
9
$AUNITS
70
0
9
$AUPREC
70
0
9
$CECOLOR
62
256
9
$CELTSCALE
40
1
9
$CELTYPE
6
ByLayer
9
$CELWEIGHT
370
18
9
$CLAYER
8
0
9
$CMLJUST
70
0
9
$CMLSCALE
40
1
9
$CMLSTYLE
2
Standard
9
$DIMSTYLE
2
Standard
9
$TEXTSIZE
40
0.2
9
$TEXTSTYLE
7
Standard
9
$LUNITS
70
2
9
$LUPREC
70
4
9
$EXTNAMES
290
1
9
$INSUNITS
70
4
9
$LTSCALE
40
1
9
$LWDISPLAY
290
1
9
$PDMODE
70
0
9
$PDSIZE
40
0
9
$PLINEGEN
70
0
0
ENDSEC
0
SECTION
2
CLASSES
0
CLASS
1
RASTERVARIABLES
2
AcDbRasterVariables
3
ISM
90
0
280
0
281
0
0
ENDSEC
0
SECTION
2
TABLES
0
TABLE
2
VPORT
5
1a7
100
AcDbSymbolTable
0
VPORT
5
1
100
AcDbSymbolTableRecord
100
AcDbViewportTableRecord
2
*Active
70
0
10
0
20
0
11
1
21
1
12
-1
22
1
13
0
23
0
14
0.5
24
0.5
15
10
25
10
16
0
26
0
36
1
17
0
27
0
37
0
0
ENDTAB
0
TABLE
2
LTYPE
5
1a8
100
AcDbSymbolTable
0
LTYPE
5
14
100
AcDbSymbolTableRecord
100
AcDbLinetypeTableRecord
70
0
2
ByBlock
3

72
65
73
0
40
0
0
LTYPE
5
15
100
AcDbSymbolTableRecord
100
AcDbLinetypeTableRecord
70
0
2
ByLayer
3

72
65
73
0
40
0
0
LTYPE
5
16
100
AcDbSymbolTableRecord
100
AcDbLinetypeTableRecord
70
0
2
CONTINUOUS
3
Solid line
72
65
73
0
40
0
0
LTYPE
5
6A
100
AcDbSymbolTableRecord
100
AcDbLinetypeTableRecord
70
0
2
CENTER
3
____ _ ____ _ ____ _ ____
72
65
73
4
40
47.5
49
22
74
0
49
-8.5
74
0
49
8.5
74
0
49
-8.5
74
0
0
LTYPE
5
6B
100
AcDbSymbolTableRecord
100
AcDbLinetypeTableRecord
70
0
2
DASHED
3
__ __ __ __ __ __ __ __ __
72
65
73
2
40
25.72
49
12.86
74
0
49
-12.86
74
0
0
ENDTAB
0
TABLE
2
LAYER
5
1a9
100
AcDbSymbolTable
0
LAYER
5
10
100
AcDbSymbolTableRecord
100
AcDbLayerTableRecord
2
0
70
0
62
7
6
CONTINUOUS
290
1
370
-3
390
0
0
LAYER
5
6D
100
AcDbSymbolTableRecord
100
AcDbLayerTableRecord
2
81
70
0
62
-3
6
CONTINUOUS
290
1
370
-3
390
0
0
LAYER
5
6F
100
AcDbSymbolTableRecord
100
AcDbLayerTableRecord
2
80
70
0
62
-6
6
CONTINUOUS
290
1
370
-3
390
0
0
LAYER
5
74
100
AcDbSymbolTableRecord
100
AcDbLayerTableRecord
2
2
70
0
62
7
6
CONTINUOUS
290
1
370
-3
390
0
0
LAYER
5
78
100
AcDbSymbolTableRecord
100
AcDbLayerTableRecord
2
1
70
0
62
4
6
CONTINUOUS
290
1
370
-3
390
0
0
LAYER
5
88
100
AcDbSymbolTableRecord
100
AcDbLayerTableRecord
2
4
70
0
62
-2
6
CENTER
290
1
370
-3
390
0
0
LAYER
5
193
100
AcDbSymbolTableRecord
100
AcDbLayerTableRecord
2
SK2
70
0
62
7
6
CONTINUOUS
290
1
370
-3
390
0
0
LAYER
5
194
100
AcDbSymbolTableRecord
100
AcDbLayerTableRecord
2
SK1
70
0
62
4
6
CONTINUOUS
290
1
370
-3
390
0
0
LAYER
5
195
100
AcDbSymbolTableRecord
100
AcDbLayerTableRecord
2
SK4
70
0
62
2
6
CENTER
290
1
370
-3
390
0
0
LAYER
5
196
100
AcDbSymbolTableRecord
100
AcDbLayerTableRecord
2
SK6
70
0
62
5
6
CONTINUOUS
290
1
370
-3
390
0
0
ENDTAB
0
TABLE
2
STYLE
5
1aa
100
AcDbSymbolTable
0
STYLE
5
11
100
AcDbSymbolTableRecord
100
AcDbTextStyleTableRecord
2
Standard
3
txt
70
0
71
0
40
0
41
1
42
0
50
0
0
STYLE
5
EF
100
AcDbSymbolTableRecord
100
AcDbTextStyleTableRecord
2
iso_b_vert
3
simplex.shx
70
0
71
0
40
0
41
1
42
0
50
0
0
STYLE
5
F0
100
AcDbSymbolTableRecord
100
AcDbTextStyleTableRecord
2
DWGDirectTextStyle
3
simplex
70
0
71
0
40
0
41
1
42
0
50
0
0
ENDTAB
0
TABLE
2
DIMSTYLE
5
1ab
100
AcDbSymbolTable
100
AcDbDimStyleTable
0
DIMSTYLE
105
27
100
AcDbSymbolTableRecord
100
AcDbDimStyleTableRecord
2
Standard
70
0
3
<>
41
0.18
42
0.0625
44
0.18
140
0.18
147
0.09
73
0
74
0
77
1
271
2
275
0
278
52
280
0
340
11
0
ENDTAB
0
TABLE
2
VIEW
5
1ac
100
AcDbSymbolTable
0
ENDTAB
0
TABLE
2
UCS
5
1ad
100
AcDbSymbolTable
0
ENDTAB
0
TABLE
2
APPID
5
1ae
100
AcDbSymbolTable
0
APPID
5
12
100
AcDbSymbolTableRecord
100
AcDbRegAppTableRecord
2
ACAD
70
0
0
ENDTAB
0
TABLE
2
BLOCK_RECORD
5
1af
100
AcDbSymbolTable
0
BLOCK_RECORD
5
1F
100
AcDbSymbolTableRecord
100
AcDbBlockTableRecord
2
*Model_Space
340
0
70
0
0
BLOCK_RECORD
5
1B
100
AcDbSymbolTableRecord
100
AcDbBlockTableRecord
2
*Paper_Space
340
0
70
0
0
BLOCK_RECORD
5
23
100
AcDbSymbolTableRecord
100
AcDbBlockTableRecord
2
*Paper_Space0
340
0
70
0
0
BLOCK_RECORD
5
F2
100
AcDbSymbolTableRecord
100
AcDbBlockTableRecord
2
DimnDraft3D1
340
0
70
0
0
BLOCK_RECORD
5
FC
100
AcDbSymbolTableRecord
100
AcDbBlockTableRecord
2
DimnDraft3D2
340
0
70
0
0
BLOCK_RECORD
5
106
100
AcDbSymbolTableRecord
100
AcDbBlockTableRecord
2
DimnDraft3D3
340
0
70
0
0
BLOCK_RECORD
5
110
100
AcDbSymbolTableRecord
100
AcDbBlockTableRecord
2
DimnDraft3D4
340
0
70
0
0
BLOCK_RECORD
5
11A
100
AcDbSymbolTableRecord
100
AcDbBlockTableRecord
2
DimnDraft3D5
340
0
70
0
0
BLOCK_RECORD
5
124
100
AcDbSymbolTableRecord
100
AcDbBlockTableRecord
2
DimnDraft3D6
340
0
70
0
0
BLOCK_RECORD
5
12F
100
AcDbSymbolTableRecord
100
AcDbBlockTableRecord
2
DimnDraft3D7
340
0
70
0
0
ENDTAB
0
ENDSEC
0
SECTION
2
BLOCKS
0
BLOCK
5
20
100
AcDbEntity
8
0
100
AcDbBlockBegin
2
*Model_Space
70
0
10
0
20
0
30
0
3
*Model_Space
0
ENDBLK
5
21
100
AcDbEntity
8
0
100
AcDbBlockEnd
0
BLOCK
5
1C
100
AcDbEntity
8
0
100
AcDbBlockBegin
2
*Paper_Space
70
0
10
0
20
0
30
0
3
*Paper_Space
0
ENDBLK
5
1D
100
AcDbEntity
8
0
100
AcDbBlockEnd
0
BLOCK
5
24
100
AcDbEntity
8
0
100
AcDbBlockBegin
2
*Paper_Space0
70
0
10
0
20
0
30
0
3
*Paper_Space0
0
ENDBLK
5
25
100
AcDbEntity
8
0
100
AcDbBlockEnd
0
BLOCK
5
F9
100
AcDbEntity
8
0
100
AcDbBlockBegin
2
DimnDraft3D1
70
0
10
0
20
0
30
0
3
DimnDraft3D1
0
MTEXT
5
F3
100
AcDbEntity
8
2
62
256
6
ByLayer
370
13
48
1
60
0
100
AcDbMText
10
13.097075
20
-11.488398
30
0
210
0
220
0
230
1
1
\W0.7317;37,30
40
3.5
41
0
44
1.084337
50
0
71
7
72
5
7
iso_b_vert
0
LINE
5
F4
100
AcDbEntity
8
2
62
256
6
ByLayer
370
13
48
1
60
0
100
AcDbLine
10
0
20
-1.5875
30
0
11
0
21
-14.363398
31
0
39
0
210
0
220
0
230
1
0
LINE
5
F5
100
AcDbEntity
8
2
62
256
6
ByLayer
370
13
48
1
60
0
100
AcDbLine
10
37.2957
20
-3.7375
30
0
11
37.2957
21
-14.363398
31
0
39
0
210
0
220
0
230
1
0
LINE
5
F6
100
AcDbEntity
8
2
62
256
6
ByLayer
370
13
48
1
60
0
100
AcDbLine
10
0
20
-12.363398
30
0
11
37.2957
21
-12.363398
31
0
39
0
210
0
220
0
230
1
0
SOLID
5
F7
100
AcDbEntity
8
2
62
256
6
ByLayer
370
13
48
1
60
0
100
AcDbTrace
10
0
20
-12.363398
30
0
11
3.499998
21
-11.902615
31
0
12
3.500002
22
-12.824182
32
0
13
0
23
-12.363398
33
0
39
0
210
0
220
0
230
1
0
SOLID
5
F8
100
AcDbEntity
8
2
62
256
6
ByLayer
370
13
48
1
60
0
100
AcDbTrace
10
37.2957
20
-12.363398
30
0
11
33.795702
21
-12.824182
31
0
12
33.795698
22
-11.902615
32
0
13
37.2957
23
-12.363398
33
0
39
0
210
0
220
0
230
1
0
ENDBLK
5
FA
100
AcDbEntity
8
0
100
AcDbBlockEnd
0
BLOCK
5
103
100
AcDbEntity
8
0
100
AcDbBlockBegin
2
DimnDraft3D2
70
0
10
0
20
0
30
0
3
DimnDraft3D2
0
MTEXT
5
FD
100
AcDbEntity
8
SK2
62
256
6
ByLayer
370
13
48
1
60
0
100
AcDbMText
10
-2.995895
20
-30.817985
30
0
210
0
220
0
230
1
1
\W0.7581;74,00
40
3.5
41
0
44
1.084337
50
0
71
7
72
5
7
iso_b_vert
0
LINE
5
FE
100
AcDbEntity
8
SK2
62
256
6
ByLayer
370
13
48
1
60
0
100
AcDbLine
10
-36
20
-4.5875
30
0
11
-36
21
-33.692985
31
0
39
0
210
0
220
0
230
1
0
LINE
5
FF
100
AcDbEntity
8
SK2
62
256
6
ByLayer
370
13
48
1
60
0
100
AcDbLine
10
38
20
-1.5875
30
0
11
38
21
-33.692985
31
0
39
0
210
0
220
0
230
1
0
LINE
5
100
100
AcDbEntity
8
SK2
62
256
6
ByLayer
370
13
48
1
60
0
100
AcDbLine
10
-36
20
-31.692985
30
0
11
38
21
-31.692985
31
0
39
0
210
0
220
0
230
1
0
SOLID
5
101
100
AcDbEntity
8
SK2
62
256
6
ByLayer
370
13
48
1
60
0
100
AcDbTrace
10
-36
20
-31.692985
30
0
11
-32.500002
21
-31.232202
31
0
12
-32.499998
22
-32.153769
32
0
13
-36
23
-31.692985
33
0
39
0
210
0
220
0
230
1
0
SOLID
5
102
100
AcDbEntity
8
SK2
62
256
6
ByLayer
370
13
48
1
60
0
100
AcDbTrace
10
38
20
-31.692985
30
0
11
34.500002
21
-32.153769
31
0
12
34.499998
22
-31.232202
32
0
13
38
23
-31.692985
33
0
39
0
210
0
220
0
230
1
0
ENDBLK
5
104
100
AcDbEntity
8
0
100
AcDbBlockEnd
0
BLOCK
5
10D
100
AcDbEntity
8
0
100
AcDbBlockBegin
2
DimnDraft3D3
70
0
10
0
20
0
30
0
3
DimnDraft3D3
0
MTEXT
5
107
100
AcDbEntity
8
SK2
62
256
6
ByLayer
370
13
48
1
60
0
100
AcDbMText
10
22.451316
20
14.634119
30
0
210
0
220
0
230
1
1
\W0.7317;22,20
40
3.5
41
0
44
1.084337
50
0
71
7
72
5
7
iso_b_vert
0
LINE
5
108
100
AcDbEntity
8
SK2
62
256
6
ByLayer
370
13
48
1
60
0
100
AcDbLine
10
15.8
20
3.7375
30
0
11
15.8
21
15.759119
31
0
39
0
210
0
220
0
230
1
0
LINE
5
109
100
AcDbEntity
8
SK2
62
256
6
ByLayer
370
13
48
1
60
0
100
AcDbLine
10
38
20
1.5875
30
0
11
38
21
15.759119
31
0
39
0
210
0
220
0
230
1
0
LINE
5
10A
100
AcDbEntity
8
SK2
62
256
6
ByLayer
370
13
48
1
60
0
100
AcDbLine
10
15.8
20
13.759119
30
0
11
38
21
13.759119
31
0
39
0
210
0
220
0
230
1
0
SOLID
5
10B
100
AcDbEntity
8
SK2
62
256
6
ByLayer
370
13
48
1
60
0
100
AcDbTrace
10
15.8
20
13.759119
30
0
11
19.299998
21
14.219903
31
0
12
19.300002
22
13.298335
32
0
13
15.8
23
13.759119
33
0
39
0
210
0
220
0
230
1
0
SOLID
5
10C
100
AcDbEntity
8
SK2
62
256
6
ByLayer
370
13
48
1
60
0
100
AcDbTrace
10
38
20
13.759119
30
0
11
34.500002
21
13.298335
31
0
12
34.499998
22
14.219903
32
0
13
38
23
13.759119
33
0
39
0
210
0
220
0
230
1
0
ENDBLK
5
10E
100
AcDbEntity
8
0
100
AcDbBlockEnd
0
BLOCK
5
117
100
AcDbEntity
8
0
100
AcDbBlockBegin
2
DimnDraft3D4
70
0
10
0
20
0
30
0
3
DimnDraft3D4
0
MTEXT
5
111
100
AcDbEntity
8
SK2
62
256
6
ByLayer
370
13
48
1
60
0
100
AcDbMText
10
44.840636
20
-14.077503
30
0
210
0
220
0
230
1
1
\W0.7150;0,70
40
3.5
41
0
44
1.084337
50
0
71
7
72
5
7
iso_b_vert
0
LINE
5
112
100
AcDbEntity
8
SK2
62
256
6
ByLayer
370
13
48
1
60
0
100
AcDbLine
10
38
20
-1.5875
30
0
11
38
21
-16.952503
31
0
39
0
210
0
220
0
230
1
0
LINE
5
113
100
AcDbEntity
8
SK2
62
256
6
ByLayer
370
13
48
1
60
0
100
AcDbLine
10
37.2957
20
-3.7375
30
0
11
37.2957
21
-16.952503
31
0
39
0
210
0
220
0
230
1
0
LINE
5
114
100
AcDbEntity
8
SK2
62
256
6
ByLayer
370
13
48
1
60
0
100
AcDbLine
10
28.5457
20
-14.952503
30
0
11
51.997215
21
-14.952503
31
0
39
0
210
0
220
0
230
1
0
SOLID
5
115
100
AcDbEntity
8
SK2
62
256
6
ByLayer
370
13
48
1
60
0
100
AcDbTrace
10
38
20
-14.952503
30
0
11
41.499998
21
-14.491719
31
0
12
41.500002
22
-15.413287
32
0
13
38
23
-14.952503
33
0
39
0
210
0
220
0
230
1
0
SOLID
5
116
100
AcDbEntity
8
SK2
62
256
6
ByLayer
370
13
48
1
60
0
100
AcDbTrace
10
37.2957
20
-14.952503
30
0
11
33.795702
21
-15.413287
31
0
12
33.795698
22
-14.491719
32
0
13
37.2957
23
-14.952503
33
0
39
0
210
0
220
0
230
1
0
ENDBLK
5
118
100
AcDbEntity
8
0
100
AcDbBlockEnd
0
BLOCK
5
121
100
AcDbEntity
8
0
100
AcDbBlockBegin
2
DimnDraft3D5
70
0
10
0
20
0
30
0
3
DimnDraft3D5
0
MTEXT
5
11B
100
AcDbEntity
8
SK2
62
256
6
ByLayer
370
13
48
1
60
0
100
AcDbMText
10
-5.892308
20
-20.468428
30
0
210
0
220
0
230
1
1
\W0.7317;73,30
40
3.5
41
0
44
1.084337
50
0
71
7
72
5
7
iso_b_vert
0
LINE
5
11C
100
AcDbEntity
8
SK2
62
256
6
ByLayer
370
13
48
1
60
0
100
AcDbLine
10
-36
20
-4.5875
30
0
11
-36
21
-23.343428
31
0
39
0
210
0
220
0
230
1
0
LINE
5
11D
100
AcDbEntity
8
SK2
62
256
6
ByLayer
370
13
48
1
60
0
100
AcDbLine
10
37.2957
20
-3.7375
30
0
11
37.2957
21
-23.343428
31
0
39
0
210
0
220
0
230
1
0
LINE
5
11E
100
AcDbEntity
8
SK2
62
256
6
ByLayer
370
13
48
1
60
0
100
AcDbLine
10
-36
20
-21.343428
30
0
11
37.2957
21
-21.343428
31
0
39
0
210
0
220
0
230
1
0
SOLID
5
11F
100
AcDbEntity
8
SK2
62
256
6
ByLayer
370
13
48
1
60
0
100
AcDbTrace
10
-36
20
-21.343428
30
0
11
-32.500002
21
-20.882645
31
0
12
-32.499998
22
-21.804212
32
0
13
-36
23
-21.343428
33
0
39
0
210
0
220
0
230
1
0
SOLID
5
120
100
AcDbEntity
8
SK2
62
256
6
ByLayer
370
13
48
1
60
0
100
AcDbTrace
10
37.2957
20
-21.343428
30
0
11
33.795702
21
-21.804212
31
0
12
33.795698
22
-20.882645
32
0
13
37.2957
23
-21.343428
33
0
39
0
210
0
220
0
230
1
0
ENDBLK
5
122
100
AcDbEntity
8
0
100
AcDbBlockEnd
0
BLOCK
5
12C
100
AcDbEntity
8
0
100
AcDbBlockBegin
2
DimnDraft3D6
70
0
10
0
20
0
30
0
3
DimnDraft3D6
0
MTEXT
5
125
100
AcDbEntity
8
SK2
62
256
6
ByLayer
370
13
48
1
60
0
100
AcDbMText
10
-46.375163
20
22.34918
30
0
210
0
220
0
230
1
1
\W0.7317;6,000
40
3.5
41
0
44
1.084337
50
90
71
7
72
5
7
iso_b_vert
0
MTEXT
5
126
100
AcDbEntity
8
SK2
62
256
6
ByLayer
370
13
48
1
60
0
100
AcDbMText
10
-46.375163
20
17.126524
30
0
210
0
220
0
230
1
1
%%c
40
3.5
41
0
44
1.084337
50
90
71
7
72
5
7
iso_b_vert
0
LINE
5
127
100
AcDbEntity
8
SK2
62
256
6
ByLayer
370
13
48
1
60
0
100
AcDbLine
10
-37.5875
20
-3
30
0
11
-46.625163
21
-3
31
0
39
0
210
0
220
0
230
1
0
LINE
5
128
100
AcDbEntity
8
SK2
62
256
6
ByLayer
370
13
48
1
60
0
100
AcDbLine
10
-37.5875
20
3
30
0
11
-46.625163
21
3
31
0
39
0
210
0
220
0
230
1
0
LINE
5
129
100
AcDbEntity
8
SK2
62
256
6
ByLayer
370
13
48
1
60
0
100
AcDbLine
10
-44.625163
20
32.121549
30
0
11
-44.625163
21
-11.75
31
0
39
0
210
0
220
0
230
1
0
SOLID
5
12A
100
AcDbEntity
8
SK2
62
256
6
ByLayer
370
13
48
1
60
0
100
AcDbTrace
10
-44.625163
20
-3
30
0
11
-44.164379
21
-6.499998
31
0
12
-45.085946
22
-6.500002
32
0
13
-44.625163
23
-3
33
0
39
0
210
0
220
0
230
1
0
SOLID
5
12B
100
AcDbEntity
8
SK2
62
256
6
ByLayer
370
13
48
1
60
0
100
AcDbTrace
10
-44.625163
20
3
30
0
11
-45.085946
21
6.499998
31
0
12
-44.164379
22
6.500002
32
0
13
-44.625163
23
3
33
0
39
0
210
0
220
0
230
1
0
ENDBLK
5
12D
100
AcDbEntity
8
0
100
AcDbBlockEnd
0
BLOCK
5
137
100
AcDbEntity
8
0
100
AcDbBlockBegin
2
DimnDraft3D7
70
0
10
0
20
0
30
0
3
DimnDraft3D7
0
MTEXT
5
130
100
AcDbEntity
8
2
62
256
6
ByLayer
370
13
48
1
60
0
100
AcDbMText
10
48.333343
20
20.092266
30
0
210
0
220
0
230
1
1
\W0.7581;4,300
40
3.5
41
0
44
1.084337
50
90
71
7
72
5
7
iso_b_vert
0
MTEXT
5
131
100
AcDbEntity
8
2
62
256
6
ByLayer
370
13
48
1
60
0
100
AcDbMText
10
48.333343
20
14.86961
30
0
210
0
220
0
230
1
1
%%c
40
3.5
41
0
44
1.084337
50
90
71
7
72
5
7
iso_b_vert
0
LINE
5
132
100
AcDbEntity
8
2
62
256
6
ByLayer
370
13
48
1
60
0
100
AcDbLine
10
38.8832
20
-2.15
30
0
11
52.083343
21
-2.15
31
0
39
0
210
0
220
0
230
1
0
LINE
5
133
100
AcDbEntity
8
2
62
256
6
ByLayer
370
13
48
1
60
0
100
AcDbLine
10
38.8832
20
2.15
30
0
11
52.083343
21
2.15
31
0
39
0
210
0
220
0
230
1
0
LINE
5
134
100
AcDbEntity
8
2
62
256
6
ByLayer
370
13
48
1
60
0
100
AcDbLine
10
50.083343
20
30.233056
30
0
11
50.083343
21
-10.9
31
0
39
0
210
0
220
0
230
1
0
SOLID
5
135
100
AcDbEntity
8
2
62
256
6
ByLayer
370
13
48
1
60
0
100
AcDbTrace
10
50.083343
20
-2.15
30
0
11
50.544126
21
-5.649998
31
0
12
49.622559
22
-5.650002
32
0
13
50.083343
23
-2.15
33
0
39
0
210
0
220
0
230
1
0
SOLID
5
136
100
AcDbEntity
8
2
62
256
6
ByLayer
370
13
48
1
60
0
100
AcDbTrace
10
50.083343
20
2.15
30
0
11
49.622559
21
5.649998
31
0
12
50.544126
22
5.650002
32
0
13
50.083343
23
2.15
33
0
39
0
210
0
220
0
230
1
0
ENDBLK
5
138
100
AcDbEntity
8
0
100
AcDbBlockEnd
0
ENDSEC
0
SECTION
2
ENTITIES
0
ARC
5
9A
100
AcDbEntity
8
1
62
256
6
ByLayer
370
18
48
1
60
0
100
AcDbCircle
39
0
10
0
20
2.2
30
0
40
0.8
210
0
220
0
230
1
100
AcDbArc
50
24.518796
51
90
0
ARC
5
9B
100
AcDbEntity
8
1
62
256
6
ByLayer
370
18
48
1
60
0
100
AcDbCircle
39
0
10
-1.45572
20
2.863987
30
0
40
0.8
210
0
220
0
230
-1
100
AcDbArc
50
269.86249
51
335.481204
0
ARC
5
9C
100
AcDbEntity
8
1
62
256
6
ByLayer
370
18
48
1
60
0
100
AcDbCircle
39
0
10
0
20
-2.2
30
0
40
0.8
210
0
220
0
230
1
100
AcDbArc
50
270
51
335.481204
0
ARC
5
9D
100
AcDbEntity
8
1
62
256
6
ByLayer
370
18
48
1
60
0
100
AcDbCircle
39
0
10
-1.45572
20
-2.863987
30
0
40
0.8
210
0
220
0
230
-1
100
AcDbArc
50
24.518796
51
90.13751
0
ELLIPSE
5
9E
100
AcDbEntity
8
1
62
256
6
ByLayer
370
18
48
1
60
0
100
AcDbEllipse
10
4.25
20
2.23526
30
0
11
0.25
21
0
31
0
210
0
220
0
230
1
40
1
41
-2.35060036467295
42
-1.5542570592002
0
ELLIPSE
5
9F
100
AcDbEntity
8
1
62
256
6
ByLayer
370
18
48
1
60
0
100
AcDbEllipse
10
4.25
20
-2.23526
30
0
11
0.25
21
0
31
0
210
0
220
0
230
1
40
1
41
1.57846861862155
42
2.36156202629484
0
ELLIPSE
5
A0
100
AcDbEntity
8
1
62
256
6
ByLayer
370
18
48
1
60
0
100
AcDbEllipse
10
36.815655
20
0.942635
30
0
11
1.14371734177465
21
-0.742357503303627
31
0
210
0
220
0
230
-1
40
0.12325
41
-0.0268115671016273
42
0.0403034326750548
0
ELLIPSE
5
A1
100
AcDbEntity
8
1
62
256
6
ByLayer
370
13
48
1
60
0
100
AcDbEllipse
10
38.197977
20
1.142198
30
0
11
1.3672934624259
21
-0.677224063302844
31
0
210
0
220
0
230
-1
40
0.715108
41
1.84170958261543
42
1.92178730207353
0
ELLIPSE
5
A2
100
AcDbEntity
8
1
62
256
6
ByLayer
370
18
48
1
60
0
100
AcDbEllipse
10
37.963026
20
0.059583
30
0
11
0.111267324349418
21
0.166605077300046
31
0
210
0
220
0
230
-1
40
0.487455
41
-2.1173697875791
42
-1.00035906630853
0
ELLIPSE
5
A3
100
AcDbEntity
8
1
62
256
6
ByLayer
370
13
48
1
60
0
100
AcDbEllipse
10
37.492662
20
0.42159
30
0
11
0.121981890157829
21
0.158494222208645
31
0
210
0
220
0
230
1
40
0.455639
41
0.912984858149161
42
2.15012741233613
0
POINT
5
6C
100
AcDbEntity
8
81
62
256
6
ByLayer
370
18
48
1
60
0
100
AcDbPoint
10
38
20
0
30
0
39
0
210
0
220
0
230
1
50
360
0
POINT
5
6E
100
AcDbEntity
8
80
62
256
6
ByLayer
370
18
48
1
60
0
100
AcDbPoint
10
0
20
0
30
0
39
0
210
0
220
0
230
1
50
360
0
POINT
5
70
100
AcDbEntity
8
SK2
62
256
6
ByLayer
370
18
48
1
60
1
100
AcDbPoint
10
-36
20
-3
30
0
39
0
210
0
220
0
230
1
50
360
0
POINT
5
72
100
AcDbEntity
8
SK2
62
256
6
ByLayer
370
18
48
1
60
1
100
AcDbPoint
10
-36
20
3
30
0
39
0
210
0
220
0
230
1
50
360
0
POINT
5
73
100
AcDbEntity
8
2
62
256
6
ByLayer
370
18
48
1
60
1
100
AcDbPoint
10
37.2957
20
-2.15
30
0
39
0
210
0
220
0
230
1
50
360
0
POINT
5
75
100
AcDbEntity
8
2
62
256
6
ByLayer
370
18
48
1
60
1
100
AcDbPoint
10
37.2957
20
2.15
30
0
39
0
210
0
220
0
230
1
50
360
0
SPLINE
5
A4
100
AcDbEntity
8
1
62
256
6
ByLayer
370
18
48
1
60
0
100
AcDbSpline
70
4
71
3
72
16
73
12
40
0
40
0
40
0
40
0
40
0.137938119737926
40
0.256349546592267
40
0.364531648284105
40
0.478736774454218
40
0.570285250244591
40
0.657935094085249
40
0.743775241296084
40
0.874938345270116
40
1
40
1
40
1
40
1
41
1
10
7.53260473383392
20
1.993211679876
30
0
41
1
10
7.38172323265525
20
1.9928435733074
30
0
41
1
10
7.10131662025293
20
1.9922349018108
30
0
41
1
10
6.70256632349046
20
1.99102003876766
30
0
41
1
10
6.32977554104303
20
1.99103059177074
30
0
41
1
10
5.98637095040351
20
1.98910680033376
30
0
41
1
10
5.66542336872831
20
1.98859422870558
30
0
41
1
10
5.37550401733114
20
1.9882477529207
30
0
41
1
10
5.0422527875339
20
1.98776783912166
30
0
41
1
10
4.66809537207931
20
1.98700166568733
30
0
41
1
10
4.3878415067324
20
1.98582799948454
30
0
41
1
10
4.25105420696079
20
1.98514441681158
30
0
0
SPLINE
5
A5
100
AcDbEntity
8
1
62
256
6
ByLayer
370
18
48
1
60
0
100
AcDbSpline
70
4
71
3
72
21
73
17
40
0
40
0
40
0
40
0
40
0.124713877560747
40
0.209109593137739
40
0.275305345797956
40
0.346328353228434
40
0.41827315535308
40
0.490151180396302
40
0.544014380637259
40
0.597823792794388
40
0.651596339348374
40
0.704490712179886
40
0.754669955178723
40
0.810381112548056
40
0.899632499881956
40
1
40
1
40
1
40
1
41
1
10
25.5271625209825
20
-2.03645620723754
30
0
41
1
10
25.7145033261149
20
-2.03676575796862
30
0
41
1
10
26.0286568205085
20
-2.03736073191243
30
0
41
1
10
26.4424992167391
20
-2.03898960576492
30
0
41
1
10
26.7754495163663
20
-2.03942428366176
30
0
41
1
10
27.0898768867302
20
-2.03973024940854
30
0
41
1
10
27.412793281195
20
-2.0415231606508
30
0
41
1
10
27.7099345057879
20
-2.04175654776077
30
0
41
1
10
27.9798136271637
20
-2.04185193543591
30
0
41
1
10
28.2224766424027
20
-2.04327244330438
30
0
41
1
10
28.4636785768608
20
-2.04462636648779
30
0
41
1
10
28.6994459977924
20
-2.04470260868166
30
0
41
1
10
28.9380421121241
20
-2.04449665890405
30
0
41
1
10
29.2312551985005
20
-2.04460961462951
30
0
41
1
10
29.6000611770703
20
-2.04663947378805
30
0
41
1
10
29.8850096465365
20
-2.04682906595141
30
0
41
1
10
30.0358323812466
20
-2.0468377991742
30
0
0
SPLINE
5
A6
100
AcDbEntity
8
1
62
256
6
ByLayer
370
18
48
1
60
0
100
AcDbSpline
70
4
71
3
72
19
73
15
40
0
40
0
40
0
40
0
40
0.112968446430587
40
0.193663236251813
40
0.264203176678876
40
0.339592945048427
40
0.415470594944677
40
0.491295625103099
40
0.601669847442951
40
0.699946687626476
40
0.745963909552846
40
0.800232159645997
40
0.892287364383908
40
1
40
1
40
1
40
1
41
1
10
14.275630915315
20
-2.00808993793478
30
0
41
1
10
14.4454361405974
20
-2.00850297489123
30
0
41
1
10
14.7365522204983
20
-2.00929359599621
30
0
41
1
10
15.1337782280066
20
-2.01075699502505
30
0
41
1
10
15.4744763082474
20
-2.01183331455414
30
0
41
1
10
15.8079807365663
20
-2.01177551665191
30
0
41
1
10
16.1494115795917
20
-2.01392604538631
30
0
41
1
10
16.5434504413277
20
-2.01516646526935
30
0
41
1
10
16.9711700290126
20
-2.01460392863299
30
0
41
1
10
17.3540622766827
20
-2.01789200052531
30
0
41
1
10
17.6526066923661
20
-2.0176412502403
30
0
41
1
10
17.9417958435269
20
-2.01791381778972
30
0
41
1
10
18.3237373598833
20
-2.02088744444183
30
0
41
1
10
18.6240941299273
20
-2.02069308486614
30
0
41
1
10
18.7860438339081
20
-2.02034156460391
30
0
0
SPLINE
5
A7
100
AcDbEntity
8
1
62
256
6
ByLayer
370
18
48
1
60
0
100
AcDbSpline
70
4
71
3
72
14
73
10
40
0
40
0
40
0
40
0
40
0.0242311181378789
40
0.0943498770280855
40
0.284233039386197
40
0.493809283136965
40
0.703176455302813
40
0.844833214987332
40
1
40
1
40
1
40
1
41
1
10
19.9833369738866
20
-0.465795891823547
30
0
41
1
10
19.9832983243258
20
-0.465966427826515
30
0
41
1
10
19.9867711840367
20
-0.467122890428129
30
0
41
1
10
20.0363463442527
20
-0.476577476264737
30
0
41
1
10
20.2042358534166
20
-0.515208808543349
30
0
41
1
10
20.3478759411345
20
-0.564878033372111
30
0
41
1
10
20.5864548259392
20
-0.662095240300147
30
0
41
1
10
20.8197719348975
20
-0.773395891460979
30
0
41
1
10
20.9646555326979
20
-0.849234005921829
30
0
41
1
10
21.042670639348
20
-0.891864403008071
30
0
0
SPLINE
5
A8
100
AcDbEntity
8
1
62
256
6
ByLayer
370
18
48
1
60
0
100
AcDbSpline
70
4
71
2
72
6
73
3
40
0
40
0
40
0
40
1
40
1
40
1
41
1
10
36.8114963245391
20
-2.0628862940915
30
0
41
1
10
37.0279067437962
20
-2.06160175618373
30
0
41
1
10
37.2442194002019
20
-2.06471410090143
30
0
0
SPLINE
5
A9
100
AcDbEntity
8
1
62
256
6
ByLayer
370
18
48
1
60
0
100
AcDbSpline
70
4
71
3
72
19
73
15
40
0
40
0
40
0
40
0
40
0.126959707388717
40
0.235579859732885
40
0.310287741334592
40
0.37627802755945
40
0.445668340496044
40
0.520300640440484
40
0.600108381698591
40
0.689577807687595
40
0.779109322115345
40
0.868065162784005
40
0.951298469333606
40
1
40
1
40
1
40
1
41
1
10
18.7855263755574
20
2.02034137798364
30
0
41
1
10
18.6237491594248
20
2.02069232276219
30
0
41
1
10
18.3235649154913
20
2.02088646166212
30
0
41
1
10
17.9281945094847
20
2.01780794803852
30
0
41
1
10
17.6105048271891
20
2.01764270090769
30
0
41
1
10
17.3428018382727
20
2.01779321122345
30
0
41
1
10
17.0752024692691
20
2.01579734425445
30
0
41
1
10
16.78999178714
20
2.01464941234548
30
0
41
1
10
16.4791938910399
20
2.01503437018366
30
0
41
1
10
16.149411522482
20
2.01390631850481
30
0
41
1
10
15.8079807517925
20
2.01178077598422
30
0
41
1
10
15.4744763044889
20
2.01183201621382
30
0
41
1
10
15.1930412746044
20
2.01094431318691
30
0
41
1
10
15.0249336267561
20
2.01034803729252
30
0
41
1
10
14.9628800646824
20
2.0101301011407
30
0
0
SPLINE
5
AA
100
AcDbEntity
8
1
62
256
6
ByLayer
370
18
48
1
60
0
100
AcDbSpline
70
4
71
3
72
20
73
16
40
0
40
0
40
0
40
0
40
0.0006608994174331
40
0.0011882199359778
40
0.0021372018276376
40
0.0038553047324901
40
0.0753382421462863
40
0.233824203725226
40
0.369478390692547
40
0.469520371206033
40
0.610092054696494
40
0.654882032176416
40
0.735016359945381
40
0.850312296729116
40
1
40
1
40
1
40
1
41
1
10
31.2274588468867
20
-0.464841364251583
30
0
41
1
10
31.2273087138285
20
-0.464830549535094
30
0
41
1
10
31.2275081523587
20
-0.464877472583879
30
0
41
1
10
31.2274684098492
20
-0.46490482659533
30
0
41
1
10
31.2275619912724
20
-0.464966839854839
30
0
41
1
10
31.2291459772723
20
-0.466295166017204
30
0
41
1
10
31.2630724635955
20
-0.472692855425123
30
0
41
1
10
31.3594497146545
20
-0.489647832476976
30
0
41
1
10
31.486107484197
20
-0.528281987015788
30
0
41
1
10
31.6199007188
20
-0.574210929796834
30
0
41
1
10
31.7284207181176
20
-0.616253732702518
30
0
41
1
10
31.8593259519739
20
-0.674733821693991
30
0
41
1
10
31.9848598351882
20
-0.73352606694769
30
0
41
1
10
32.1706753112599
20
-0.826325452443456
30
0
41
1
10
32.3166510964646
20
-0.902434365828583
30
0
41
1
10
32.4003973488016
20
-0.947347259533302
30
0
0
SPLINE
5
AB
100
AcDbEntity
8
1
62
256
6
ByLayer
370
18
48
1
60
0
100
AcDbSpline
70
4
71
3
72
20
73
16
40
0
40
0
40
0
40
0
40
0.119641847696238
40
0.226184109206128
40
0.292688315749582
40
0.35258889757531
40
0.415730617508956
40
0.479920641756812
40
0.544154673664941
40
0.608452914144637
40
0.694256032391602
40
0.780138864595804
40
0.864921320724056
40
0.943941327040804
40
1
40
1
40
1
40
1
41
1
10
30.0351900365929
20
2.04683695330093
30
0
41
1
10
29.8845813906495
20
2.04682810568104
30
0
41
1
10
29.5998470156459
20
2.04663857778198
30
0
41
1
10
29.2312551952843
20
2.04460957188243
30
0
41
1
10
28.9380421127321
20
2.04449666699941
30
0
41
1
10
28.6994459976273
20
2.04470260648461
30
0
41
1
10
28.4636785769069
20
2.04462636710065
30
0
41
1
10
28.2224766423902
20
2.04327244313905
30
0
41
1
10
27.979813627167
20
2.04185193547988
30
0
41
1
10
27.7099345057865
20
2.04175654774457
30
0
41
1
10
27.4127932811953
20
2.04152316065571
30
0
41
1
10
27.08987688673
20
2.03973024940729
30
0
41
1
10
26.7754495163661
20
2.03942428366207
30
0
41
1
10
26.4987408149458
20
2.03906303107689
30
0
41
1
10
26.3286656919912
20
2.03850478388526
30
0
41
1
10
26.2580829823407
20
2.03826543880285
30
0
0
SPLINE
5
AC
100
AcDbEntity
8
1
62
256
6
ByLayer
370
18
48
1
60
0
100
AcDbSpline
70
4
71
3
72
18
73
14
40
0
40
0
40
0
40
0
40
8.07543698439E-05
40
0.0022850343255084
40
0.0063227025454758
40
0.0705993143265502
40
0.28724305338082
40
0.500313445511673
40
0.594947001656349
40
0.685688428181154
40
0.741457099445618
40
0.827316586660518
40
1
40
1
40
1
40
1
41
1
10
8.72165187970036
20
-0.46453124838368
30
0
41
1
10
8.7216515857666
20
-0.464532204246052
30
0
41
1
10
8.72164592627536
20
-0.464552355824083
30
0
41
1
10
8.72168309702494
20
-0.464613995962679
30
0
41
1
10
8.72311672394719
20
-0.465389299140611
30
0
41
1
10
8.77073329354556
20
-0.472750392939616
30
0
41
1
10
8.87756764652869
20
-0.49356997501414
30
0
41
1
10
9.08608041512338
20
-0.561152617843845
30
0
41
1
10
9.17588785323215
20
-0.595567220773972
30
0
41
1
10
9.26735201099675
20
-0.634228540142914
30
0
41
1
10
9.37348260922244
20
-0.681782236354763
30
0
41
1
10
9.51483526104445
20
-0.747936128561548
30
0
41
1
10
9.63668273630987
20
-0.809698945651917
30
0
41
1
10
9.71956499597832
20
-0.853717068327796
30
0
0
SPLINE
5
AD
100
AcDbEntity
8
1
62
256
6
ByLayer
370
18
48
1
60
0
100
AcDbSpline
70
4
71
3
72
16
73
12
40
0
40
0
40
0
40
0
40
0.125052125925764
40
0.256205236208843
40
0.342038843014049
40
0.429682008563127
40
0.521223509014041
40
0.635419933569847
40
0.74359379255881
40
0.861996197310202
40
1
40
1
40
1
40
1
41
1
10
4.25105420696082
20
-1.98514441681161
30
0
41
1
10
4.38784150673246
20
-1.98582799948457
30
0
41
1
10
4.66809537207948
20
-1.98700166568901
30
0
41
1
10
5.04225278753384
20
-1.9877678391166
30
0
41
1
10
5.37550401733174
20
-1.98824775293269
30
0
41
1
10
5.66542336872669
20
-1.9885942286584
30
0
41
1
10
5.98637095041124
20
-1.98910680053811
30
0
41
1
10
6.32977554100751
20
-1.99103059081921
30
0
41
1
10
6.70256632362108
20
-1.99102004221953
30
0
41
1
10
7.10139997112199
20
-1.99223514048398
30
0
41
1
10
7.38188993310243
20
-1.99284397359278
30
0
41
1
10
7.5328547826183
20
-1.99321228436293
30
0
0
SPLINE
5
AE
100
AcDbEntity
8
1
62
256
6
ByLayer
370
18
48
1
60
0
100
AcDbSpline
70
4
71
3
72
76
73
72
40
0
40
0
40
0
40
0
40
0.0345379017527855
40
0.0345379017527855
40
0.130557546121919
40
0.130557546121919
40
0.226577190491053
40
0.226577190491053
40
0.27458701267562
40
0.27458701267562
40
0.322596834860186
40
0.322596834860186
40
0.41861647922932
40
0.41861647922932
40
0.466626301413887
40
0.466626301413887
40
0.49063121250617
40
0.49063121250617
40
0.502633668052312
40
0.502633668052312
40
0.505634281938847
40
0.507134588882115
40
0.507884742353749
40
0.508259819089566
40
0.508259819089566
40
0.508634895825383
40
0.508634895825383
40
0.51013520276865
40
0.51013520276865
40
0.511635509711918
40
0.511635509711918
40
0.514636123598452
40
0.514636123598452
40
0.538641034690732
40
0.538641034690732
40
0.562645945783011
40
0.562645945783011
40
0.610655767967569
40
0.610655767967569
40
0.706675412336685
40
0.706675412336685
40
0.730680323428964
40
0.730680323428964
40
0.754685234521243
40
0.754685234521243
40
0.760686462294313
40
0.760686462294313
40
0.76218676923758
40
0.76218676923758
40
0.762374307605489
40
0.762374307605489
40
0.762561845973397
40
0.762561845973397
40
0.762936922709214
40
0.763687076180848
40
0.766687690067383
40
0.778690145613524
40
0.778690145613524
40
0.802695056705806
40
0.802695056705806
40
0.850704878890369
40
0.850704878890369
40
0.898714701074932
40
0.898714701074932
40
0.946724523259496
40
0.946724523259496
40
0.970729434351778
40
0.970729434351778
40
0.994734345444059
40
0.994734345444059
40
1
40
1
40
1
40
1
41
1
10
8.98030872711024
20
-0.443863609088794
30
0
41
1
10
8.90147591109897
20
-0.405093054730031
30
0
41
1
10
8.82253308422477
20
-0.367319502794231
30
0
41
1
10
8.52478783807891
20
-0.2295066631672
30
0
41
1
10
8.30628321550765
20
-0.137820424943982
30
0
41
1
10
7.86735726694539
20
0.0187415558409612
30
0
41
1
10
7.64693025902091
20
0.0835713450505011
30
0
41
1
10
7.31144033226741
20
0.154963757393602
30
0
41
1
10
7.19860414973837
20
0.174430692976045
30
0
41
1
10
6.97485231879131
20
0.203552653162376
30
0
41
1
10
6.86342494840656
20
0.213337939812277
30
0
41
1
10
6.52952691946234
20
0.228531682003222
30
0
41
1
10
6.30743123949836
20
0.219738157712413
30
0
41
1
10
5.97127821481774
20
0.179854747844502
30
0
41
1
10
5.85872773864043
20
0.162122734273652
30
0
41
1
10
5.68869510564892
20
0.129162203595683
30
0
41
1
10
5.63175331734735
20
0.117100570914374
30
0
41
1
10
5.5462220217205
20
0.0975155109394166
30
0
41
1
10
5.5177024408228
20
0.0907414662242445
30
0
41
1
10
5.48204311997088
20
0.0819764277338209
30
0
41
1
10
5.47134448987592
20
0.0793245841920509
30
0
41
1
10
5.45886155342794
20
0.0761920618013789
30
0
41
1
10
5.45261976653342
20
0.0746161593864372
30
0
41
1
10
5.44994464391499
20
0.0739387101704096
30
0
41
1
10
5.44816121487574
20
0.0734866199698274
30
0
41
1
10
5.44856252164709
20
0.0725504310506437
30
0
41
1
10
5.45153387640869
20
0.0692808457849594
30
0
41
1
10
5.4546532316038
20
0.06712920568458
30
0
41
1
10
5.46061863453826
20
0.0627249690661245
30
0
41
1
10
5.46366084820559
20
0.0605797067541403
30
0
41
1
10
5.47285263373163
20
0.0542058824051708
30
0
41
1
10
5.47907280682927
20
0.0500445092781376
30
0
41
1
10
5.53534098146474
20
0.0128614813451122
30
0
41
1
10
5.58676734356911
20
-0.0187476854715669
30
0
41
1
10
5.68945336985297
20
-0.0821830970745907
30
0
41
1
10
5.74099481465149
20
-0.113712982226957
30
0
41
1
10
5.89586425811339
20
-0.208131548603006
30
0
41
1
10
5.99946610090115
20
-0.270808653576068
30
0
41
1
10
6.31057409391346
20
-0.458967644837657
30
0
41
1
10
6.51834770863491
20
-0.58467691888643
30
0
41
1
10
6.77664822181367
20
-0.744792710493016
30
0
41
1
10
6.82823949670262
20
-0.776965926095812
30
0
41
1
10
6.93109811530221
20
-0.841932611702418
30
0
41
1
10
6.9825449486853
20
-0.874450922360751
30
0
41
1
10
7.0456099073258
20
-0.917109425075807
30
0
41
1
10
7.05825777879306
20
-0.925611317934937
30
0
41
1
10
7.07331184436487
20
-0.937355069004724
30
0
41
1
10
7.07651519300623
20
-0.939559376356272
30
0
41
1
10
7.07916400533685
20
-0.943001004565843
30
0
41
1
10
7.07951610455268
20
-0.943412349093705
30
0
41
1
10
7.07949954083722
20
-0.944403229397437
30
0
41
1
10
7.07891674525655
20
-0.944634747843509
30
0
41
1
10
7.07783609839453
20
-0.945591784781953
30
0
41
1
10
7.07567485885815
20
-0.947505479875844
30
0
41
1
10
7.06775088748668
20
-0.954518181021655
30
0
41
1
10
7.03750250427186
20
-0.981240286469529
30
0
41
1
10
7.00872979400313
20
-1.0064642620971
30
0
41
1
10
6.93971917678147
20
-1.06648311844162
30
0
41
1
10
6.8937584214612
20
-1.10581482287731
30
0
41
1
10
6.75639046080772
20
-1.22053866343694
30
0
41
1
10
6.66524756455425
20
-1.2929505231144
30
0
41
1
10
6.48069360882181
20
-1.4262460162268
30
0
41
1
10
6.38779867209936
20
-1.48661409635301
30
0
41
1
10
6.20097171571177
20
-1.5888701893328
30
0
41
1
10
6.10648244594364
20
-1.63113787684463
30
0
41
1
10
5.96018204714352
20
-1.67882739440736
30
0
41
1
10
5.91039395076166
20
-1.69214364989915
30
0
41
1
10
5.81070623819718
20
-1.71289207962323
30
0
41
1
10
5.76069293443297
20
-1.72039370383058
30
0
41
1
10
5.69932923953775
20
-1.72624236668767
30
0
41
1
10
5.68827467768293
20
-1.72716400325152
30
0
41
1
10
5.67720383097117
20
-1.72795757149734
30
0
0
SPLINE
5
AF
100
AcDbEntity
8
1
62
256
6
ByLayer
370
18
48
1
60
0
100
AcDbSpline
70
4
71
3
72
8
73
4
40
0
40
0
40
0
40
0
40
1
40
1
40
1
40
1
41
1
10
37.2312769525346
20
-2.0623313099054
30
0
41
1
10
37.2346087999849
20
-2.06359845183942
30
0
41
1
10
37.2382053064989
20
-2.06409651448666
30
0
41
1
10
37.2420756223605
20
-2.06383188350569
30
0
0
SPLINE
5
B0
100
AcDbEntity
8
1
62
256
6
ByLayer
370
18
48
1
60
0
100
AcDbSpline
70
4
71
3
72
28
73
24
40
0
40
0
40
0
40
0
40
0.125000000000001
40
0.125000000000001
40
0.250000000000002
40
0.250000000000002
40
0.375000000000003
40
0.375000000000003
40
0.500000000000004
40
0.500000000000004
40
0.562500000000005
40
0.562500000000005
40
0.625000000000005
40
0.625000000000005
40
0.750000000000003
40
0.750000000000003
40
0.812500000000003
40
0.812500000000003
40
0.875000000000002
40
0.875000000000002
40
0.937500000000001
40
0.937500000000001
40
1
40
1
40
1
40
1
41
1
10
37.7637076647028
20
-0.599489950798187
30
0
41
1
10
37.7465504356187
20
-0.578459637896856
30
0
41
1
10
37.7224033704996
20
-0.572669536209219
30
0
41
1
10
37.6683991770894
20
-0.585003920003999
30
0
41
1
10
37.6380775755073
20
-0.603091816247598
30
0
41
1
10
37.5758241099527
20
-0.65851992919616
30
0
41
1
10
37.5431172640874
20
-0.696596369062803
30
0
41
1
10
37.4803601734935
20
-0.790062940442112
30
0
41
1
10
37.4494963792055
20
-0.84685425503497
30
0
41
1
10
37.4121378808227
20
-0.939613940705527
30
0
41
1
10
37.4012667353665
20
-0.971610083372127
30
0
41
1
10
37.3843747760687
20
-1.03464487038471
30
0
41
1
10
37.3784674568628
20
-1.0652581324282
30
0
41
1
10
37.3694702474722
20
-1.15003108176504
30
0
41
1
10
37.3757563999697
20
-1.19408473957358
30
0
41
1
10
37.3974296829333
20
-1.23464368304107
30
0
41
1
10
37.4066251800453
20
-1.24422549962864
30
0
41
1
10
37.4277703379009
20
-1.25617763489495
30
0
41
1
10
37.4396006989582
20
-1.25856432874735
30
0
41
1
10
37.4654764255603
20
-1.25701668608889
30
0
41
1
10
37.479260585599
20
-1.25307056196462
30
0
41
1
10
37.5080690116957
20
-1.23956424980017
30
0
41
1
10
37.5232866041844
20
-1.22986089613838
30
0
41
1
10
37.5387179871072
20
-1.21764400959901
30
0
0
SPLINE
5
B1
100
AcDbEntity
8
1
62
256
6
ByLayer
370
18
48
1
60
0
100
AcDbSpline
70
4
71
3
72
10
73
6
40
0
40
0
40
0
40
0
40
0.5
40
0.5
40
1
40
1
40
1
40
1
41
1
10
4.06253401904758
20
-1.1384286495819
30
0
41
1
10
4.08770172003315
20
-1.13059323791015
30
0
41
1
10
4.11857597852168
20
-1.13025144564395
30
0
41
1
10
4.18407031144423
20
-1.14255314276684
30
0
41
1
10
4.21796054071945
20
-1.15482065538859
30
0
41
1
10
4.25155170475006
20
-1.17180868611743
30
0
0
SPLINE
5
B2
100
AcDbEntity
8
1
62
256
6
ByLayer
370
18
48
1
60
0
100
AcDbSpline
70
4
71
3
72
8
73
4
40
0
40
0
40
0
40
0
40
1
40
1
40
1
40
1
41
1
10
37.295513567941
20
2.08174353114882
30
0
41
1
10
37.2850645772106
20
2.09410848328241
30
0
41
1
10
37.2753380406577
20
2.10479389742079
30
0
41
1
10
37.2662952164517
20
2.11380609070778
30
0
0
SPLINE
5
B3
100
AcDbEntity
8
1
62
256
6
ByLayer
370
18
48
1
60
0
100
AcDbSpline
70
4
71
3
72
22
73
18
40
0
40
0
40
0
40
0
40
0.125
40
0.125
40
0.25
40
0.25
40
0.375
40
0.375
40
0.5
40
0.5
40
0.625
40
0.625
40
0.75
40
0.75
40
0.875
40
0.875
40
1
40
1
40
1
40
1
41
1
10
37.29551356794
20
2.08174353115154
30
0
41
1
10
37.3163099543068
20
2.03561252726189
30
0
41
1
10
37.3373179474121
20
1.98864665266655
30
0
41
1
10
37.3796774402745
20
1.89302196375436
30
0
41
1
10
37.4010206736225
20
1.8444374419141
30
0
41
1
10
37.4439140513351
20
1.74680467218479
30
0
41
1
10
37.4654205504998
20
1.69781075229312
30
0
41
1
10
37.5082293397904
20
1.59875905628064
30
0
41
1
10
37.529569132245
20
1.54881408834692
30
0
41
1
10
37.5721649567426
20
1.44843421663109
30
0
41
1
10
37.5935153646455
20
1.39803993356696
30
0
41
1
10
37.6358438917378
20
1.29710388747034
30
0
41
1
10
37.6566946236549
20
1.24667437107411
30
0
41
1
10
37.6978188882181
20
1.14585153887134
30
0
41
1
10
37.7180795661284
20
1.09545831934895
30
0
41
1
10
37.7583034928729
20
0.994669051121747
30
0
41
1
10
37.7783427251581
20
0.944272515871489
30
0
41
1
10
37.7979897117396
20
0.893874389872792
30
0
0
SPLINE
5
B4
100
AcDbEntity
8
1
62
256
6
ByLayer
370
18
48
1
60
0
100
AcDbSpline
70
4
71
3
72
10
73
6
40
0
40
0
40
0
40
0
40
0.5
40
0.5
40
1
40
1
40
1
40
1
41
1
10
37.9636484739926
20
0.190088969538976
30
0
41
1
10
37.967295069457
20
0.166749338962177
30
0
41
1
10
37.9722498109213
20
0.141444200342789
30
0
41
1
10
37.9843861535777
20
0.0874941867111545
30
0
41
1
10
37.9916738279853
20
0.0585039348642056
30
0
41
1
10
37.9999281020302
20
0.028817096449302
30
0
0
SPLINE
5
B5
100
AcDbEntity
8
1
62
256
6
ByLayer
370
18
48
1
60
0
100
AcDbSpline
70
4
71
3
72
70
73
66
40
0
40
0
40
0
40
0
40
0.0235040515832109
40
0.0235040515832109
40
0.0560127387879131
40
0.0560127387879131
40
0.0885214259926153
40
0.0885214259926153
40
0.121030113197317
40
0.121030113197317
40
0.15353880040202
40
0.15353880040202
40
0.186047487606722
40
0.186047487606722
40
0.218556174811424
40
0.218556174811424
40
0.251064862016126
40
0.251064862016126
40
0.283573549220828
40
0.283573549220828
40
0.31608223642553
40
0.31608223642553
40
0.348590923630232
40
0.348590923630232
40
0.381099610834935
40
0.381099610834935
40
0.413608298039637
40
0.413608298039637
40
0.446116985244339
40
0.446116985244339
40
0.478625672449041
40
0.478625672449041
40
0.511134359653743
40
0.511134359653743
40
0.543643046858445
40
0.543643046858445
40
0.576151734063148
40
0.576151734063148
40
0.60866042126785
40
0.60866042126785
40
0.641169108472552
40
0.641169108472552
40
0.673677795677254
40
0.673677795677254
40
0.706186482881956
40
0.706186482881956
40
0.738695170086658
40
0.738695170086658
40
0.771203857291361
40
0.771203857291361
40
0.803712544496063
40
0.803712544496063
40
0.836221231700765
40
0.836221231700765
40
0.868729918905467
40
0.868729918905467
40
0.901238606110169
40
0.901238606110169
40
0.933747293314871
40
0.933747293314871
40
0.966255980519574
40
0.966255980519574
40
0.998764667724276
40
0.998764667724276
40
1
40
1
40
1
40
1
41
1
10
33.147959370997
20
-1.32786047901024
30
0
41
1
10
33.035679210835
20
-1.3767588820572
30
0
41
1
10
32.9233759550314
20
-1.42369960279967
30
0
41
1
10
32.6556944854045
20
-1.53097099800544
30
0
41
1
10
32.5000623353856
20
-1.58933776285522
30
0
41
1
10
32.1891278006739
20
-1.69445144677982
30
0
41
1
10
32.0337309822607
20
-1.74192433211215
30
0
41
1
10
31.7231345925745
20
-1.82829112918336
30
0
41
1
10
31.5679992669445
20
-1.86704787719327
30
0
41
1
10
31.2564122430745
20
-1.93388753647375
30
0
41
1
10
31.1008705607376
20
-1.96197699627786
30
0
41
1
10
30.7903212245412
20
-2.00707185707319
30
0
41
1
10
30.6354518133061
20
-2.02404960046289
30
0
41
1
10
30.3244434894137
20
-2.04426708210076
30
0
41
1
10
30.1682382577319
20
-2.04736283151416
30
0
41
1
10
29.8568979564593
20
-2.04532934803845
30
0
41
1
10
29.701759571164
20
-2.03928077515869
30
0
41
1
10
29.390737740132
20
-2.01457092745531
30
0
41
1
10
29.2347784177489
20
-1.99539127099189
30
0
41
1
10
28.9228176398519
20
-1.94799025093485
30
0
41
1
10
28.7675067214463
20
-1.9190955071827
30
0
41
1
10
28.4565376848159
20
-1.85018086898933
30
0
41
1
10
28.3009086085156
20
-1.80982851074873
30
0
41
1
10
27.9891161649959
20
-1.71847316531319
30
0
41
1
10
27.8332236312322
20
-1.66839549890909
30
0
41
1
10
27.5219370088613
20
-1.55957935293119
30
0
41
1
10
27.3663119606227
20
-1.50061343405133
30
0
41
1
10
27.0548189420377
20
-1.37363075206369
30
0
41
1
10
26.8989975547706
20
-1.30608756604349
30
0
41
1
10
26.5872725730805
20
-1.16468809834586
30
0
41
1
10
26.4315734316585
20
-1.09091084447152
30
0
41
1
10
26.120219940712
20
-0.936633392547037
30
0
41
1
10
25.9647344445366
20
-0.856474836067434
30
0
41
1
10
25.6531553220601
20
-0.692202861684251
30
0
41
1
10
25.4969729997828
20
-0.608081113398441
30
0
41
1
10
25.1854938356903
20
-0.437017141491935
30
0
41
1
10
25.0300303756924
20
-0.349789253834359
30
0
41
1
10
24.7189115051999
20
-0.173957673405482
30
0
41
1
10
24.5627125538563
20
-0.085448522208651
30
0
41
1
10
24.2507906183443
20
0.0912782035893827
30
0
41
1
10
24.0952304773075
20
0.179475517187228
30
0
41
1
10
23.7842560852386
20
0.354993195422139
30
0
41
1
10
23.628561785765
20
0.441724608523089
30
0
41
1
10
23.3164140529467
20
0.612231404585089
30
0
41
1
10
23.1603864141978
20
0.695760892190378
30
0
41
1
10
22.8492423976994
20
0.858749785296709
30
0
41
1
10
22.6935902344373
20
0.938043419713466
30
0
41
1
10
22.3818377495648
20
1.09057237790708
30
0
41
1
10
22.2255030579496
20
1.16391091310959
30
0
41
1
10
21.9138777662525
20
1.30350272924207
30
0
41
1
10
21.7581350210698
20
1.37016303317438
30
0
41
1
10
21.4464559791749
20
1.49471757057032
30
0
41
1
10
21.2905436197333
20
1.55263244180185
30
0
41
1
10
20.9783240862493
20
1.6592239989688
30
0
41
1
10
20.8222397848329
20
1.70827875366027
30
0
41
1
10
20.5102785196756
20
1.79666194743899
30
0
41
1
10
20.3543586938724
20
1.83558263241994
30
0
41
1
10
20.0424741086149
20
1.90205303584585
30
0
41
1
10
19.8859930138344
20
1.92984755477505
30
0
41
1
10
19.5735643065977
20
1.97589523829848
30
0
41
1
10
19.4175399641877
20
1.99324200966296
30
0
41
1
10
19.1057715130033
20
2.01534695431772
30
0
41
1
10
18.9497037891002
20
2.02010689839025
30
0
41
1
10
18.7872574782871
20
2.02023852326792
30
0
41
1
10
18.7813109313539
20
2.02023567399877
30
0
41
1
10
18.7753648219201
20
2.02022509570261
30
0
0
SPLINE
5
B6
100
AcDbEntity
8
1
62
256
6
ByLayer
370
18
48
1
60
0
100
AcDbSpline
70
4
71
3
72
26
73
22
40
0
40
0
40
0
40
0
40
0.0530369491133472
40
0.0530369491133472
40
0.147733254202013
40
0.147733254202013
40
0.242429559290679
40
0.242429559290679
40
0.337125864379344
40
0.337125864379344
40
0.43182216946801
40
0.43182216946801
40
0.526518474556675
40
0.526518474556675
40
0.621214779645341
40
0.621214779645341
40
0.715911084734007
40
0.715911084734007
40
0.810607389822673
40
0.810607389822673
40
1
40
1
40
1
40
1
41
1
10
10.6342279182341
20
-1.29607101525235
30
0
41
1
10
10.5466161518037
20
-1.33339572424114
30
0
41
1
10
10.4589783102847
20
-1.36970969901969
30
0
41
1
10
10.2147633927733
20
-1.46723347317408
30
0
41
1
10
10.058434599722
20
-1.52448611198412
30
0
41
1
10
9.74583782347995
20
-1.62991652199821
30
0
41
1
10
9.58976708103731
20
-1.67908003165442
30
0
41
1
10
9.27712972407198
20
-1.76767277875302
30
0
41
1
10
9.12018666058086
20
-1.80673131171247
30
0
41
1
10
8.80726743549317
20
-1.87262299686216
30
0
41
1
10
8.65113443830882
20
-1.90099376677983
30
0
41
1
10
8.33886579671469
20
-1.94731010208517
30
0
41
1
10
8.18246259310166
20
-1.96497089542737
30
0
41
1
10
7.86870010856131
20
-1.98747243561289
30
0
41
1
10
7.712239911674
20
-1.99296583049647
30
0
41
1
10
7.39972500640414
20
-1.99350324296862
30
0
41
1
10
7.24333823915708
20
-1.98805931993084
30
0
41
1
10
6.93002008277281
20
-1.96554851639925
30
0
41
1
10
6.77299732100664
20
-1.94868629735768
30
0
41
1
10
6.3037526174769
20
-1.88204621777803
30
0
41
1
10
5.99091314900099
20
-1.81477866784709
30
0
41
1
10
5.67742550213973
20
-1.72794166463663
30
0
0
SPLINE
5
B7
100
AcDbEntity
8
1
62
256
6
ByLayer
370
18
48
1
60
0
100
AcDbSpline
70
4
71
3
72
22
73
18
40
0
40
0
40
0
40
0
40
0.125
40
0.125
40
0.25
40
0.25
40
0.375
40
0.375
40
0.5
40
0.5
40
0.625
40
0.625
40
0.75
40
0.75
40
0.875
40
0.875
40
1
40
1
40
1
40
1
41
1
10
37.29551356794
20
-2.08174353115149
30
0
41
1
10
37.3163100884815
20
-2.03561222963259
30
0
41
1
10
37.3373181656604
20
-1.98864616277601
30
0
41
1
10
37.3796777199161
20
-1.89302132968044
30
0
41
1
10
37.401020935011
20
-1.84443684651797
30
0
41
1
10
37.4439142421693
20
-1.74680423824327
30
0
41
1
10
37.46542080953
20
-1.69781015684745
30
0
41
1
10
37.5082295381668
20
-1.59875859337103
30
0
41
1
10
37.5295692631571
20
-1.54881378026289
30
0
41
1
10
37.572164910497
20
-1.44843432519318
30
0
41
1
10
37.5935151226594
20
-1.39804050681067
30
0
41
1
10
37.6358437928074
20
-1.29710412717188
30
0
41
1
10
37.6566945720075
20
-1.24667449719035
30
0
41
1
10
37.697818894454
20
-1.14585152408887
30
0
41
1
10
37.7180795823273
20
-1.09545827895479
30
0
41
1
10
37.7583035143863
20
-0.994668997019772
30
0
41
1
10
37.7783427454917
20
-0.944272463711854
30
0
41
1
10
37.7979897117395
20
-0.893874389872792
30
0
0
SPLINE
5
B8
100
AcDbEntity
8
1
62
256
6
ByLayer
370
18
48
1
60
0
100
AcDbSpline
70
4
71
3
72
18
73
14
40
0
40
0
40
0
40
0
40
0.250000000000001
40
0.250000000000001
40
0.375000000000002
40
0.375000000000002
40
0.500000000000002
40
0.500000000000002
40
0.750000000000003
40
0.750000000000003
40
0.875000000000002
40
0.875000000000002
40
1
40
1
40
1
40
1
41
1
10
37.2312769525333
20
-2.06233130990538
30
0
41
1
10
37.1861617979072
20
-2.05781121638916
30
0
41
1
10
37.1442959585129
20
-2.04381106176976
30
0
41
1
10
37.0868401774668
20
-2.00722238897396
30
0
41
1
10
37.0685556923742
20
-1.9923439415729
30
0
41
1
10
37.0346169906425
20
-1.95778714383039
30
0
41
1
10
37.0188599661536
20
-1.93806097628101
30
0
41
1
10
36.9752501232938
20
-1.87149020223399
30
0
41
1
10
36.951025634584
20
-1.81731975356485
30
0
41
1
10
36.9225888721577
20
-1.72011350730415
30
0
41
1
10
36.9144399021959
20
-1.68494506496194
30
0
41
1
10
36.9012208343755
20
-1.6104987099028
30
0
41
1
10
36.8960965656705
20
-1.57106990399586
30
0
41
1
10
36.8924737495506
20
-1.52941143134831
30
0
0
SPLINE
5
B9
100
AcDbEntity
8
1
62
256
6
ByLayer
370
18
48
1
60
0
100
AcDbSpline
70
4
71
3
72
14
73
10
40
0
40
0
40
0
40
0
40
0.25
40
0.25
40
0.5
40
0.5
40
0.75
40
0.75
40
1
40
1
40
1
40
1
41
1
10
37.2789834528221
20
-2.04562030267596
30
0
41
1
10
37.2811243128801
20
-2.04392110892326
30
0
41
1
10
37.2827348288986
20
-2.04362123417843
30
0
41
1
10
37.2845838459106
20
-2.0465838541671
30
0
41
1
10
37.2847966127844
20
-2.04992050009122
30
0
41
1
10
37.2830926707329
20
-2.06135062154331
30
0
41
1
10
37.2811138359898
20
-2.06958704402786
30
0
41
1
10
37.2749990870574
20
-2.08975986155218
30
0
41
1
10
37.2708694193679
20
-2.10168039141081
30
0
41
1
10
37.2662952164517
20
-2.11380609070793
30
0
0
SPLINE
5
BA
100
AcDbEntity
8
1
62
256
6
ByLayer
370
18
48
1
60
0
100
AcDbSpline
70
4
71
3
72
8
73
4
40
0
40
0
40
0
40
0
40
1
40
1
40
1
40
1
41
1
10
37.9614138707187
20
0.204322824292888
30
0
41
1
10
37.9621622231984
20
0.199578724928955
30
0
41
1
10
37.9629070914007
20
0.194834106743826
30
0
41
1
10
37.9636484739925
20
0.190088969538976
30
0
0
SPLINE
5
BB
100
AcDbEntity
8
1
62
256
6
ByLayer
370
18
48
1
60
0
100
AcDbSpline
70
4
71
3
72
8
73
4
40
0
40
0
40
0
40
0
40
1
40
1
40
1
40
1
41
1
10
37.8997974388432
20
0.538364216497456
30
0
41
1
10
37.9214368454786
20
0.431232869786299
30
0
41
1
10
37.9412578943538
20
0.324042930695384
30
0
41
1
10
37.9592426589194
20
0.216793821583082
30
0
0
SPLINE
5
BC
100
AcDbEntity
8
1
62
256
6
ByLayer
370
18
48
1
60
0
100
AcDbSpline
70
4
71
3
72
36
73
32
40
0
40
0
40
0
40
0
40
0.125
40
0.125
40
0.249999999999999
40
0.249999999999999
40
0.374999999999999
40
0.374999999999999
40
0.499999999999999
40
0.499999999999999
40
0.624999999999998
40
0.624999999999998
40
0.656250000000001
40
0.656250000000001
40
0.687500000000003
40
0.687500000000003
40
0.750000000000008
40
0.750000000000008
40
0.781250000000007
40
0.781250000000007
40
0.812500000000005
40
0.812500000000005
40
0.843750000000004
40
0.843750000000004
40
0.875000000000003
40
0.875000000000003
40
0.937500000000001
40
0.937500000000001
40
0.968750000000001
40
0.968750000000001
40
1
40
1
40
1
40
1
41
1
10
35.6070877243306
20
0.0329206099645205
30
0
41
1
10
35.6995194861475
20
-0.0247120584675713
30
0
41
1
10
35.7930040353465
20
-0.0781339341076546
30
0
41
1
10
35.9827915066367
20
-0.173705148815799
30
0
41
1
10
36.0789524791146
20
-0.215796036465434
30
0
41
1
10
36.2721625066429
20
-0.286011587197265
30
0
41
1
10
36.3700027928426
20
-0.31433146079786
30
0
41
1
10
36.5638415680252
20
-0.354460533127735
30
0
41
1
10
36.659915146862
20
-0.366307055455707
30
0
41
1
10
36.8501584504568
20
-0.371501947803978
30
0
41
1
10
36.9443296884933
20
-0.364865021080135
30
0
41
1
10
37.0606033818191
20
-0.342574149515087
30
0
41
1
10
37.0838633621168
20
-0.337739254401441
30
0
41
1
10
37.1292929508961
20
-0.324546725522538
30
0
41
1
10
37.1514540559612
20
-0.316342377333427
30
0
41
1
10
37.2157548715984
20
-0.285948373778865
30
0
41
1
10
37.2552151212153
20
-0.258494461672427
30
0
41
1
10
37.305638018913
20
-0.20379786201255
30
0
41
1
10
37.3211825462135
20
-0.18289349593195
30
0
41
1
10
37.3471523592208
20
-0.136872288569407
30
0
41
1
10
37.357609380921
20
-0.111628064978532
30
0
41
1
10
37.3729141825444
20
-0.0561931441888248
30
0
41
1
10
37.3775500843932
20
-0.0272480599350331
30
0
41
1
10
37.3817652531038
20
0.0327000061023739
30
0
41
1
10
37.3812890892977
20
0.063840942979084
30
0
41
1
10
37.373526186796
20
0.156298711859819
30
0
41
1
10
37.3600345499962
20
0.218452006948837
30
0
41
1
10
37.331899226441
20
0.309477483443516
30
0
41
1
10
37.3211638573295
20
0.339451177355613
30
0
41
1
10
37.2977602060763
20
0.398471631726693
30
0
41
1
10
37.285032208868
20
0.427490287353578
30
0
41
1
10
37.2730998992888
20
0.456896141882197
30
0
0
SPLINE
5
BD
100
AcDbEntity
8
1
62
256
6
ByLayer
370
18
48
1
60
0
100
AcDbSpline
70
4
71
3
72
38
73
34
40
0
40
0
40
0
40
0
40
0.0432527333990231
40
0.0432527333990231
40
0.0865054667980463
40
0.0865054667980463
40
0.173010933596092
40
0.173010933596092
40
0.216263666995114
40
0.216263666995114
40
0.259516400394136
40
0.259516400394136
40
0.346021867192182
40
0.346021867192182
40
0.432527333990229
40
0.432527333990229
40
0.475780067389252
40
0.475780067389252
40
0.519032800788275
40
0.519032800788275
40
0.605538267586321
40
0.605538267586321
40
0.648791000985346
40
0.648791000985346
40
0.69204373438437
40
0.69204373438437
40
0.778549201182416
40
0.778549201182416
40
0.821801934581441
40
0.821801934581441
40
0.865054667980465
40
0.865054667980465
40
1
40
1
40
1
40
1
41
1
10
37.2662952164516
20
-2.11380609070793
30
0
41
1
10
37.0936256191912
20
-2.1324062127176
30
0
41
1
10
36.9211218487089
20
-2.14350659028401
30
0
41
1
10
36.5753863601404
20
-2.15067399409691
30
0
41
1
10
36.4026921214556
20
-2.14671052525026
30
0
41
1
10
35.8878124234403
20
-2.11292171552566
30
0
41
1
10
35.5473799875485
20
-2.06116790202563
30
0
41
1
10
35.0351102811384
20
-1.94278211895337
30
0
41
1
10
34.8641057756592
20
-1.89652137070613
30
0
41
1
10
34.5206754288951
20
-1.79089571957897
30
0
41
1
10
34.3475950932914
20
-1.73128595564432
30
0
41
1
10
33.829631309545
20
-1.53552917577875
30
0
41
1
10
33.488046114178
20
-1.38345545538155
30
0
41
1
10
32.8051182071365
20
-1.04644578230381
30
0
41
1
10
32.46346037457
20
-0.862003481161878
30
0
41
1
10
31.9461505522087
20
-0.567641103726601
30
0
41
1
10
31.7727514245224
20
-0.466608300753592
30
0
41
1
10
31.4287044860502
20
-0.264118782204065
30
0
41
1
10
31.2573800280119
20
-0.162196168868348
30
0
41
1
10
30.7441258560143
20
0.143265757557799
30
0
41
1
10
30.4030185453646
20
0.346681326160848
30
0
41
1
10
29.8881357503256
20
0.643236247984163
30
0
41
1
10
29.7157363407286
20
0.740548424548507
30
0
41
1
10
29.3691666173153
20
0.929954348020573
30
0
41
1
10
29.1968880526826
20
1.02103871770296
30
0
41
1
10
28.6818940984902
20
1.28202789334938
30
0
41
1
10
28.3405864083499
20
1.439081216695
30
0
41
1
10
27.8272343450103
20
1.64359528271618
30
0
41
1
10
27.6557536344565
20
1.70641283074397
30
0
41
1
10
27.3109989589351
20
1.82007425432033
30
0
41
1
10
27.1370520019794
20
1.8710940254075
30
0
41
1
10
26.4259280509328
20
2.05276627664983
30
0
41
1
10
25.8953972011693
20
2.12270834623874
30
0
41
1
10
25.3594654467072
20
2.12139059869813
30
0
0
SPLINE
5
BE
100
AcDbEntity
8
1
62
256
6
ByLayer
370
18
48
1
60
0
100
AcDbSpline
70
4
71
3
72
34
73
30
40
0
40
0
40
0
40
0
40
0.0473468802660379
40
0.0473468802660379
40
0.142612192239436
40
0.142612192239436
40
0.190244848226135
40
0.190244848226135
40
0.237877504212835
40
0.237877504212835
40
0.428408128159627
40
0.428408128159627
40
0.476040784146325
40
0.476040784146325
40
0.523673440133023
40
0.523673440133023
40
0.618938752106419
40
0.618938752106419
40
0.666571408093118
40
0.666571408093118
40
0.714204064079816
40
0.714204064079816
40
0.809469376053211
40
0.809469376053211
40
0.857102032039908
40
0.857102032039908
40
0.904734688026605
40
0.904734688026605
40
1
40
1
40
1
40
1
41
1
10
15.0851928858629
20
-2.01922670093327
30
0
41
1
10
14.9125542922291
20
-2.04603877800193
30
0
41
1
10
14.7408527732561
20
-2.06565285213117
30
0
41
1
10
14.2252958922112
20
-2.10317918181877
30
0
41
1
10
13.8829316769953
20
-2.09919981459637
30
0
41
1
10
13.3668233880827
20
-2.05018888510955
30
0
41
1
10
13.1943989486724
20
-2.02667754365291
30
0
41
1
10
12.8479312293162
20
-1.96530794449816
30
0
41
1
10
12.6733353202934
20
-1.927327321924
30
0
41
1
10
11.807244435503
20
-1.70599056599073
30
0
41
1
10
11.1274471305008
20
-1.42668360790182
30
0
41
1
10
10.2572969805406
20
-0.992177791160742
30
0
41
1
10
10.0833449946957
20
-0.901476239681472
30
0
41
1
10
9.73773160624631
20
-0.715621999666865
30
0
41
1
10
9.56553702867123
20
-0.620337815106467
30
0
41
1
10
9.04950719003926
20
-0.32964159794571
30
0
41
1
10
8.70643100202864
20
-0.129026463669192
30
0
41
1
10
8.18744558927017
20
0.172123531880231
30
0
41
1
10
8.01320383316875
20
0.272958642459514
30
0
41
1
10
7.66518347117324
20
0.471805872678687
30
0
41
1
10
7.49213383991963
20
0.569282231428133
30
0
41
1
10
6.97445453623644
20
0.85369404375632
30
0
41
1
10
6.63125970590417
20
1.03255830220431
30
0
41
1
10
6.11408816362868
20
1.27669492189463
30
0
41
1
10
5.94133089367187
20
1.35409164387815
30
0
41
1
10
5.59426326466732
20
1.49961553312451
30
0
41
1
10
5.41947277616725
20
1.56776633775343
30
0
41
1
10
4.89722945219847
20
1.75368244304829
30
0
41
1
10
4.550184957878
20
1.85370406937346
30
0
41
1
10
4.20092867825559
20
1.92682339464855
30
0
0
SPLINE
5
BF
100
AcDbEntity
8
1
62
256
6
ByLayer
370
18
48
1
60
0
100
AcDbSpline
70
4
71
3
72
20
73
16
40
0
40
0
40
0
40
0
40
0.0625
40
0.0625
40
0.125
40
0.125
40
0.25
40
0.25
40
0.375
40
0.375
40
0.5
40
0.5
40
0.75
40
0.75
40
1
40
1
40
1
40
1
41
1
10
35.607087724331
20
0.0329206099644068
30
0
41
1
10
35.6202019615678
20
-0.0111058851052235
30
0
41
1
10
35.6350011844986
20
-0.0551723942353135
30
0
41
1
10
35.6671580299411
20
-0.141502320383125
30
0
41
1
10
35.684528780268
20
-0.183867989665543
30
0
41
1
10
35.7401733400878
20
-0.308780294104707
30
0
41
1
10
35.7819613196065
20
-0.389153444557309
30
0
41
1
10
35.8736774280086
20
-0.544865131313173
30
0
41
1
10
35.9233222975915
20
-0.619617418065189
30
0
41
1
10
36.0271252712545
20
-0.761311658335785
30
0
41
1
10
36.081562463388
20
-0.828714946011331
30
0
41
1
10
36.2513686819679
20
-1.02210420219046
30
0
41
1
10
36.3741337008537
20
-1.14005964021013
30
0
41
1
10
36.6273449204563
20
-1.35137793730718
30
0
41
1
10
36.7581335312535
20
-1.445354343236
30
0
41
1
10
36.8924737495506
20
-1.52941143134831
30
0
0
SPLINE
5
C0
100
AcDbEntity
8
1
62
256
6
ByLayer
370
18
48
1
60
0
100
AcDbSpline
70
4
71
3
72
10
73
6
40
0
40
0
40
0
40
0
40
0.78308597136199
40
0.78308597136199
40
1
40
1
40
1
40
1
41
1
10
37.2662952164517
20
2.11380609070781
30
0
41
1
10
37.0937381735934
20
2.13239408825754
30
0
41
1
10
36.9206776927242
20
2.14351606147991
30
0
41
1
10
36.7004813104263
20
2.14808059166361
30
0
41
1
10
36.6527819393698
20
2.14849623769669
30
0
41
1
10
36.6051392773421
20
2.14834226936782
30
0
0
SPLINE
5
C1
100
AcDbEntity
8
1
62
256
6
ByLayer
370
18
48
1
60
0
100
AcDbSpline
70
4
71
3
72
40
73
36
40
0
40
0
40
0
40
0
40
0.0323490986504829
40
0.0323490986504829
40
0.0746322690808437
40
0.0746322690808437
40
0.116915439511204
40
0.116915439511204
40
0.286048121232648
40
0.286048121232648
40
0.328331291663009
40
0.328331291663009
40
0.370614462093371
40
0.370614462093371
40
0.455180802954094
40
0.455180802954094
40
0.497463973384455
40
0.497463973384455
40
0.539747143814816
40
0.539747143814816
40
0.624313484675539
40
0.624313484675539
40
0.666596655105901
40
0.666596655105901
40
0.708879825536263
40
0.708879825536263
40
0.793446166396987
40
0.793446166396987
40
0.878012507257711
40
0.878012507257711
40
0.920295677688074
40
0.920295677688074
40
0.962578848118435
40
0.962578848118435
40
1
40
1
40
1
40
1
41
1
10
26.3301231356946
20
-2.04610739539845
30
0
41
1
10
26.1992222234327
20
-2.06658477897514
30
0
41
1
10
26.0683710852653
20
-2.08294416198248
30
0
41
1
10
25.7661975092662
20
-2.1110450700337
30
0
41
1
10
25.5947391921071
20
-2.11978758363602
30
0
41
1
10
25.2502930523818
20
-2.12256126992005
30
0
41
1
10
25.0766386432197
20
-2.11654386173831
30
0
41
1
10
24.211313010098
20
-2.04944343167546
30
0
41
1
10
23.5335825540314
20
-1.87955574969806
30
0
41
1
10
22.669230683951
20
-1.54755321526289
30
0
41
1
10
22.4952039704585
20
-1.47507099617297
30
0
41
1
10
22.1499856541782
20
-1.32175017652159
30
0
41
1
10
21.9781094233448
20
-1.24065726451215
30
0
41
1
10
21.4635751416686
20
-0.985816755237749
30
0
41
1
10
21.1216976845782
20
-0.800967002894708
30
0
41
1
10
20.6055191901999
20
-0.509069030208707
30
0
41
1
10
20.4328654409725
20
-0.409382500202838
30
0
41
1
10
20.0853187297008
20
-0.206896997326112
30
0
41
1
10
19.9123326070261
20
-0.105092504158307
30
0
41
1
10
19.3957674979742
20
0.199185752484084
30
0
41
1
10
19.0536039351654
20
0.400100017216715
30
0
41
1
10
18.538806910532
20
0.690313907847951
30
0
41
1
10
18.3668764895392
20
0.785067662339628
30
0
41
1
10
18.0214295495884
20
0.969050318933938
30
0
41
1
10
17.8472684185784
20
1.05873297748403
30
0
41
1
10
17.3274522686819
20
1.3144501294141
30
0
41
1
10
16.9842000587792
20
1.46642171461124
30
0
41
1
10
16.2982446072498
20
1.72689674824156
30
0
41
1
10
15.955013665365
20
1.83477347124241
30
0
41
1
10
15.434930199449
20
1.95759016079893
30
0
41
1
10
15.2606325002163
20
1.99190952368454
30
0
41
1
10
14.9148574592137
20
2.04575013178393
30
0
41
1
10
14.7426991027645
20
2.06548532229453
30
0
41
1
10
14.418804970306
20
2.08912316650554
30
0
41
1
10
14.2669689025344
20
2.09456995351053
30
0
41
1
10
14.1150407008163
20
2.09435904331536
30
0
0
SPLINE
5
C2
100
AcDbEntity
8
1
62
256
6
ByLayer
370
18
48
1
60
0
100
AcDbSpline
70
4
71
3
72
8
73
4
40
0
40
0
40
0
40
0
40
1
40
1
40
1
40
1
41
1
10
37.5387179871074
20
-1.21764400959899
30
0
41
1
10
37.4362376422494
20
-1.49920644303444
30
0
41
1
10
37.3337572973913
20
-1.78076887646986
30
0
41
1
10
37.2312769525334
20
-2.06233130990532
30
0
0
SPLINE
5
C3
100
AcDbEntity
8
1
62
256
6
ByLayer
370
18
48
1
60
0
100
AcDbSpline
70
4
71
3
72
10
73
6
40
0
40
0
40
0
40
0
40
0.5
40
0.5
40
1
40
1
40
1
40
1
41
1
10
37.9636484739926
20
-0.190088969538891
30
0
41
1
10
37.9672941621762
20
-0.166755145912504
30
0
41
1
10
37.9722473636435
20
-0.141456767228789
30
0
41
1
10
37.984379542638
20
-0.0875218878252895
30
0
41
1
10
37.9916563992153
20
-0.058566618157613
30
0
41
1
10
37.9999281020288
20
-0.0288170964542758
30
0
0
SPLINE
5
C4
100
AcDbEntity
8
1
62
256
6
ByLayer
370
13
48
1
60
0
100
AcDbSpline
70
4
71
3
72
36
73
32
40
0
40
0
40
0
40
0
40
0.0072463900259296
40
0.0072463900259296
40
0.0621432486581322
40
0.0621432486581322
40
0.171936965922537
40
0.171936965922537
40
0.226833824554738
40
0.226833824554738
40
0.281730683186939
40
0.281730683186939
40
0.391524400451345
40
0.391524400451345
40
0.50131811771575
40
0.50131811771575
40
0.556214976347952
40
0.556214976347952
40
0.611111834980155
40
0.611111834980155
40
0.72090555224456
40
0.72090555224456
40
0.775802410876763
40
0.775802410876763
40
0.830699269508965
40
0.830699269508965
40
0.940492986773367
40
0.940492986773367
40
0.995389845405568
40
0.995389845405568
40
1
40
1
40
1
40
1
41
1
10
36.8302872935342
20
-2.06294521104022
30
0
41
1
10
36.8075207444434
20
-2.06299959534411
30
0
41
1
10
36.7847491198835
20
-2.06292845024839
30
0
41
1
10
36.5894147472414
20
-2.06124085885023
30
0
41
1
10
36.4168588807065
20
-2.05249757670688
30
0
41
1
10
35.9025484029
20
-2.00547436936643
30
0
41
1
10
35.562475827825
20
-1.94647512351503
30
0
41
1
10
35.051057435546
20
-1.81979719714798
30
0
41
1
10
34.88039536489
20
-1.77119605124434
30
0
41
1
10
34.5378187358384
20
-1.66186659349987
30
0
41
1
10
34.3655748298774
20
-1.60102506609965
30
0
41
1
10
33.8476410204177
20
-1.40207824480075
30
0
41
1
10
33.5062162487158
20
-1.24970609106424
30
0
41
1
10
32.824153352799
20
-0.916308074345693
30
0
41
1
10
32.4833040880436
20
-0.735480595134817
30
0
41
1
10
31.967919337096
20
-0.449905589291234
30
0
41
1
10
31.7947529850835
20
-0.352053891191616
30
0
41
1
10
31.4504359141136
20
-0.156120890052733
30
0
41
1
10
31.2790429653621
20
-0.0578603348299964
30
0
41
1
10
30.765861655561
20
0.235516914416962
30
0
41
1
10
30.4251564070444
20
0.429355074651454
30
0
41
1
10
29.9115550657495
20
0.709340239028535
30
0
41
1
10
29.7398759959458
20
0.800787284589518
30
0
41
1
10
29.3945709405971
20
0.978157810957384
30
0
41
1
10
29.2216268131684
20
1.06366016649721
30
0
41
1
10
28.7064904604784
20
1.30674879994436
30
0
41
1
10
28.3653445520597
20
1.45128261660776
30
0
41
1
10
27.852749408432
20
1.63681281885474
30
0
41
1
10
27.6816618721983
20
1.69337837155214
30
0
41
1
10
27.4953935160623
20
1.74816332882355
30
0
41
1
10
27.4809535282062
20
1.75236559802147
30
0
41
1
10
27.4665052646961
20
1.75652555767718
30
0
0
SPLINE
5
C5
100
AcDbEntity
8
1
62
256
6
ByLayer
370
18
48
1
60
0
100
AcDbSpline
70
4
71
3
72
14
73
10
40
0
40
0
40
0
40
0
40
0.108838659362055
40
0.108838659362055
40
0.374301595738726
40
0.374301595738726
40
0.905227468492071
40
0.905227468492071
40
1
40
1
40
1
40
1
41
1
10
14.2972446360435
20
-2.00815591920775
30
0
41
1
10
14.2263931609774
20
-2.0079013095903
30
0
41
1
10
14.1554119321945
20
-2.00647018671827
30
0
41
1
10
13.9107536540848
20
-1.99747371597704
30
0
41
1
10
13.7373308318732
20
-1.98398998639715
30
0
41
1
10
13.2200929375452
20
-1.92329577705985
30
0
41
1
10
12.8777157390544
20
-1.85588184961091
30
0
41
1
10
12.4730164569115
20
-1.74752887214103
30
0
41
1
10
12.4116884842626
20
-1.7303328677107
30
0
41
1
10
12.3503120274992
20
-1.71237097830547
30
0
0
SPLINE
5
C6
100
AcDbEntity
8
1
62
256
6
ByLayer
370
13
48
1
60
0
100
AcDbSpline
70
4
71
3
72
26
73
22
40
0
40
0
40
0
40
0
40
0.048516717815223
40
0.048516717815223
40
0.123971400648004
40
0.123971400648004
40
0.274880766313566
40
0.274880766313566
40
0.425790131979127
40
0.425790131979127
40
0.501244814811907
40
0.501244814811907
40
0.576699497644686
40
0.576699497644686
40
0.727608863310243
40
0.727608863310243
40
0.803063546143021
40
0.803063546143021
40
0.878518228975798
40
0.878518228975798
40
1
40
1
40
1
40
1
41
1
10
12.3503120278241
20
-1.71237097840057
30
0
41
1
10
12.2397697420172
20
-1.68002065359073
30
0
41
1
10
12.1290701837347
20
-1.64518595575774
30
0
41
1
10
11.845521568206
20
-1.55009943636046
30
0
41
1
10
11.6716791454031
20
-1.48619344859941
30
0
41
1
10
11.1512175712332
20
-1.27990424666368
30
0
41
1
10
10.8077964184486
20
-1.12396862056909
30
0
41
1
10
10.1210809174959
20
-0.786398807208229
30
0
41
1
10
9.77791954680259
20
-0.604613030155292
30
0
41
1
10
9.25822494583872
20
-0.320923822158761
30
0
41
1
10
9.08385179967541
20
-0.224300012632085
30
0
41
1
10
8.73777980582574
20
-0.0317109457710956
30
0
41
1
10
8.56546449095964
20
0.0645522083089247
30
0
41
1
10
8.04939537736794
20
0.350918465914162
30
0
41
1
10
7.7066449457777
20
0.538855945454685
30
0
41
1
10
7.18933377836743
20
0.807109140812742
30
0
41
1
10
7.01634907832786
20
0.894215322887646
30
0
41
1
10
6.66842382910255
20
1.06228169990112
30
0
41
1
10
6.4948017516752
20
1.14260165845923
30
0
41
1
10
6.0439716715322
20
1.33987111322497
30
0
41
1
10
5.76749134520566
20
1.44986840405886
30
0
41
1
10
5.49074758303192
20
1.54605331411545
30
0
0
SPLINE
5
C7
100
AcDbEntity
8
1
62
256
6
ByLayer
370
18
48
1
60
0
100
AcDbSpline
70
4
71
3
72
12
73
8
40
0
40
0
40
0
40
0
40
0.25
40
0.25
40
0.5
40
0.5
40
1
40
1
40
1
40
1
41
1
10
37.7979897117397
20
0.893874389872622
30
0
41
1
10
37.8092110300008
20
0.861578989252735
30
0
41
1
10
37.8198830332188
20
0.829694299500488
30
0
41
1
10
37.8400253324234
20
0.766778359171127
30
0
41
1
10
37.8495266928314
20
0.735621412352572
30
0
41
1
10
37.8753982830384
20
0.645728181409936
30
0
41
1
10
37.8893977747563
20
0.58985037957666
30
0
41
1
10
37.8997974388432
20
0.538364216497456
30
0
0
SPLINE
5
C8
100
AcDbEntity
8
1
62
256
6
ByLayer
370
18
48
1
60
0
100
AcDbSpline
70
4
71
3
72
8
73
4
40
0
40
0
40
0
40
0
40
1
40
1
40
1
40
1
41
1
10
37.9641934237904
20
-0.0544714585535075
30
0
41
1
10
37.9618856477156
20
-0.0588680663906302
30
0
41
1
10
37.9595796961498
20
-0.0632664142121371
30
0
41
1
10
37.9572755708758
20
-0.0676664994083751
30
0
0
SPLINE
5
C9
100
AcDbEntity
8
1
62
256
6
ByLayer
370
18
48
1
60
0
100
AcDbSpline
70
4
71
3
72
72
73
68
40
0
40
0
40
0
40
0
40
0.0080797005276825
40
0.0080797005276825
40
0.0386841422836019
40
0.0386841422836019
40
0.0692885840395214
40
0.0692885840395214
40
0.0998930257954409
40
0.0998930257954409
40
0.13049746755136
40
0.13049746755136
40
0.16110190930728
40
0.16110190930728
40
0.191706351063199
40
0.191706351063199
40
0.222310792819119
40
0.222310792819119
40
0.252915234575038
40
0.252915234575038
40
0.283519676330958
40
0.283519676330958
40
0.314124118086877
40
0.314124118086877
40
0.344728559842797
40
0.344728559842797
40
0.375333001598716
40
0.375333001598716
40
0.405937443354636
40
0.405937443354636
40
0.436541885110555
40
0.436541885110555
40
0.467146326866475
40
0.467146326866475
40
0.497750768622394
40
0.497750768622394
40
0.558959652134233
40
0.558959652134233
40
0.589564093890153
40
0.589564093890153
40
0.620168535646072
40
0.620168535646072
40
0.650772977401992
40
0.650772977401992
40
0.681377419157911
40
0.681377419157911
40
0.711981860913831
40
0.711981860913831
40
0.74258630266975
40
0.74258630266975
40
0.77319074442567
40
0.77319074442567
40
0.803795186181589
40
0.803795186181589
40
0.834399627937509
40
0.834399627937509
40
0.865004069693428
40
0.865004069693428
40
0.895608511449348
40
0.895608511449348
40
0.926212953205267
40
0.926212953205267
40
0.956817394961186
40
0.956817394961186
40
0.987421836717105
40
0.987421836717105
40
1
40
1
40
1
40
1
41
1
10
10.6323488612278
20
1.30370939682018
30
0
41
1
10
10.6712441956149
20
1.32134954982666
30
0
41
1
10
10.7101430875344
20
1.33879598203228
30
0
41
1
10
10.8963714963706
20
1.42143488892904
30
0
41
1
10
11.0434686105058
20
1.48433591277151
30
0
41
1
10
11.3403513809622
20
1.60101077938751
30
0
41
1
10
11.4896565780525
20
1.65528512510988
30
0
41
1
10
11.7866640010378
20
1.75534141316874
30
0
41
1
10
11.9342625163987
20
1.80162788682387
30
0
41
1
10
12.2307278147721
20
1.88382025705127
30
0
41
1
10
12.3796991494442
20
1.91996455439875
30
0
41
1
10
12.6772315708798
20
1.98252012832611
30
0
41
1
10
12.8248105149913
20
2.0089531453583
30
0
41
1
10
13.119047814595
20
2.05125893960096
30
0
41
1
10
13.2662818897327
20
2.06696549689241
30
0
41
1
10
13.5603792559404
20
2.08812819456279
30
0
41
1
10
13.7071803070455
20
2.09358455787671
30
0
41
1
10
14.0000024388532
20
2.09388266849484
30
0
41
1
10
14.1468953355345
20
2.08870963450465
30
0
41
1
10
14.4419116881404
20
2.06799814062606
30
0
41
1
10
14.5899508762464
20
2.05248434507911
30
0
41
1
10
14.8862868643929
20
2.01032094064888
30
0
41
1
10
15.0345310773788
20
1.98377257763525
30
0
41
1
10
15.331236404293
20
1.92148445759077
30
0
41
1
10
15.4796619694955
20
1.88557783447328
30
0
41
1
10
15.775981686475
20
1.80364625504845
30
0
41
1
10
15.9237959748328
20
1.75722696026324
30
0
41
1
10
16.2209085691908
20
1.65681037135229
30
0
41
1
10
16.3694298747702
20
1.60267326641539
30
0
41
1
10
16.6658430648415
20
1.48601803536548
30
0
41
1
10
16.8132633548407
20
1.42285927301697
30
0
41
1
10
17.1095357300299
20
1.29046939456973
30
0
41
1
10
17.2585465561209
20
1.22115234228542
30
0
41
1
10
17.5554528952475
20
1.07666991883502
30
0
41
1
10
17.7032089660372
20
1.00095078721904
30
0
41
1
10
18.1463296372687
20
0.766058315202798
30
0
41
1
10
18.4450524878443
20
0.602750427161595
30
0
41
1
10
18.8880655976896
20
0.345960409230116
30
0
41
1
10
19.0359472266094
20
0.259922160676666
30
0
41
1
10
19.3324264666636
20
0.0875162394287088
30
0
41
1
10
19.4811139899077
20
0.000892862321507
30
0
41
1
10
19.7773382103718
20
-0.174037430669188
30
0
41
1
10
19.9249227045946
20
-0.261403464291703
30
0
41
1
10
20.2211002247619
20
-0.432481662398686
30
0
41
1
10
20.3693543978112
20
-0.516781596437625
30
0
41
1
10
20.6655242528802
20
-0.683987519737343
30
0
41
1
10
20.8134818396287
20
-0.767410095224193
30
0
41
1
10
21.1089324642809
20
-0.92665308357698
30
0
41
1
10
21.2563392972069
20
-1.00334485777853
30
0
41
1
10
21.549998055659
20
-1.15183534209959
30
0
41
1
10
21.6957939569534
20
-1.2242423705124
30
0
41
1
10
21.9881534494754
20
-1.36126463491902
30
0
41
1
10
22.1347097664723
20
-1.42596507764853
30
0
41
1
10
22.4280185776653
20
-1.54856794020779
30
0
41
1
10
22.5745194405518
20
-1.60674868904081
30
0
41
1
10
22.8681641027584
20
-1.71542742963197
30
0
41
1
10
23.0162419696416
20
-1.76521748060946
30
0
41
1
10
23.3131058697888
20
-1.85588074994865
30
0
41
1
10
23.4611563311065
20
-1.89658540772635
30
0
41
1
10
23.7559353980724
20
-1.96890566685616
30
0
41
1
10
23.9035207100331
20
-1.9998886086054
30
0
41
1
10
24.1997177309588
20
-2.05141245858906
30
0
41
1
10
24.3484189233184
20
-2.07208910565075
30
0
41
1
10
24.6439389032683
20
-2.10301563832582
30
0
41
1
10
24.7911033818778
20
-2.11312705118323
30
0
41
1
10
24.9996863342312
20
-2.1196774137164
30
0
41
1
10
25.0604876756525
20
-2.12068547689398
30
0
41
1
10
25.1213130049147
20
-2.12078765625563
30
0
0
SPLINE
5
CA
100
AcDbEntity
8
1
62
256
6
ByLayer
370
18
48
1
60
0
100
AcDbSpline
70
4
71
3
72
24
73
20
40
0
40
0
40
0
40
0
40
0.0408195268610916
40
0.0408195268610916
40
0.147395134987636
40
0.147395134987636
40
0.253970743114181
40
0.253970743114181
40
0.360546351240725
40
0.360546351240725
40
0.46712195936727
40
0.46712195936727
40
0.573697567493814
40
0.573697567493814
40
0.680273175620358
40
0.680273175620358
40
0.786848783746903
40
0.786848783746903
40
1
40
1
40
1
40
1
41
1
10
33.1673424219514
20
1.33345450052556
30
0
41
1
10
33.2233628254446
20
1.35961407831348
30
0
41
1
10
33.2792831039436
20
1.38533186006305
30
0
41
1
10
33.4807607355183
20
1.4767024392612
30
0
41
1
10
33.6261462983548
20
1.53918493613546
30
0
41
1
10
33.9179753711202
20
1.65521031645375
30
0
41
1
10
34.0641242909995
20
1.70914508101848
30
0
41
1
10
34.3562631601732
20
1.80936610396372
30
0
41
1
10
34.502035785111
20
1.85576583250523
30
0
41
1
10
34.7962052718939
20
1.93811341132471
30
0
41
1
10
34.9445123246346
20
1.97454477814449
30
0
41
1
10
35.2395839268194
20
2.03740554493652
30
0
41
1
10
35.3861475615025
20
2.06408893241047
30
0
41
1
10
35.680308408259
20
2.10637951109001
30
0
41
1
10
35.8278767822546
20
2.12211709593512
30
0
41
1
10
36.1233978747568
20
2.14304876462893
30
0
41
1
10
36.270674186381
20
2.14818677781713
30
0
41
1
10
36.7100560645332
20
2.14709030103597
30
0
41
1
10
37.0036242496351
20
2.12519686534833
30
0
41
1
10
37.2955135679414
20
2.08174353114828
30
0
0
SPLINE
5
CB
100
AcDbEntity
8
1
62
256
6
ByLayer
370
18
48
1
60
0
100
AcDbSpline
70
4
71
3
72
8
73
4
40
0
40
0
40
0
40
0
40
1
40
1
40
1
40
1
41
1
10
37.9999281020302
20
0.0288170964492735
30
0
41
1
10
38.0000239656625
20
0.0096057643440872
30
0
41
1
10
38.0000239656625
20
-0.0096057643437746
30
0
41
1
10
37.9999281020302
20
-0.0288170964489609
30
0
0
SPLINE
5
CC
100
AcDbEntity
8
1
62
256
6
ByLayer
370
18
48
1
60
0
100
AcDbSpline
70
4
71
3
72
8
73
4
40
0
40
0
40
0
40
0
40
1
40
1
40
1
40
1
41
1
10
37.9999281020302
20
0.0288170964493304
30
0
41
1
10
37.989483328677
20
-0.0009919058850869
30
0
41
1
10
37.9767465120234
20
-0.0305562240088761
30
0
41
1
10
37.9641934237904
20
-0.0544714585534507
30
0
0
SPLINE
5
CD
100
AcDbEntity
8
1
62
256
6
ByLayer
370
18
48
1
60
0
100
AcDbSpline
70
4
71
3
72
8
73
4
40
0
40
0
40
0
40
0
40
1
40
1
40
1
40
1
41
1
10
37.9592426589194
20
0.216793821583082
30
0
41
1
10
37.9599289801308
20
0.21270106083432
30
0
41
1
10
37.960653715319
20
0.208541495173193
30
0
41
1
10
37.9614138707187
20
0.204322824292888
30
0
0
SPLINE
5
CE
100
AcDbEntity
8
1
62
256
6
ByLayer
370
18
48
1
60
0
100
AcDbSpline
70
4
71
3
72
16
73
12
40
0
40
0
40
0
40
0
40
0.124999999999996
40
0.124999999999996
40
0.249999999999993
40
0.249999999999993
40
0.499999999999995
40
0.499999999999995
40
0.749999999999998
40
0.749999999999998
40
1
40
1
40
1
40
1
41
1
10
37.7637076647023
20
-0.599489950797476
30
0
41
1
10
37.7658608642247
20
-0.611180984185154
30
0
41
1
10
37.7658461950737
20
-0.627399577254437
30
0
41
1
10
37.7609486520132
20
-0.669650155821756
30
0
41
1
10
37.7561875396106
20
-0.694568554955424
30
0
41
1
10
37.7350634192351
20
-0.780136565142726
30
0
41
1
10
37.7127700657595
20
-0.847136293970266
30
0
41
1
10
37.6625276784716
20
-0.977138544128564
30
0
41
1
10
37.6353109272744
20
-1.03873139695116
30
0
41
1
10
37.5836205533643
20
-1.14407442018947
30
0
41
1
10
37.5593167663168
20
-1.18752486779664
30
0
41
1
10
37.5387179871078
20
-1.21764400959825
30
0
0
SPLINE
5
CF
100
AcDbEntity
8
1
62
256
6
ByLayer
370
18
48
1
60
0
100
AcDbSpline
70
4
71
3
72
12
73
8
40
0
40
0
40
0
40
0
40
0.25
40
0.25
40
0.5
40
0.5
40
1
40
1
40
1
40
1
41
1
10
37.7979897117397
20
-0.893874389872593
30
0
41
1
10
37.8092110253222
20
-0.86157900271769
30
0
41
1
10
37.8198830080586
20
-0.829694372609737
30
0
41
1
10
37.8400252437474
20
-0.766778641637615
30
0
41
1
10
37.8495266090372
20
-0.735621695514709
30
0
41
1
10
37.8753982809718
20
-0.645728204567519
30
0
41
1
10
37.8893977810452
20
-0.589850348441843
30
0
41
1
10
37.8997974388432
20
-0.538364216497456
30
0
0
SPLINE
5
D0
100
AcDbEntity
8
1
62
256
6
ByLayer
370
18
48
1
60
0
100
AcDbSpline
70
4
71
3
72
8
73
4
40
0
40
0
40
0
40
0
40
1
40
1
40
1
40
1
41
1
10
37.8997974388432
20
-0.538364216497456
30
0
41
1
10
37.9214368454786
20
-0.431232869786299
30
0
41
1
10
37.9412578943538
20
-0.324042930695384
30
0
41
1
10
37.9592426589194
20
-0.216793821583082
30
0
0
SPLINE
5
D1
100
AcDbEntity
8
1
62
256
6
ByLayer
370
18
48
1
60
0
100
AcDbSpline
70
4
71
3
72
8
73
4
40
0
40
0
40
0
40
0
40
1
40
1
40
1
40
1
41
1
10
37.9592426589194
20
-0.216793821583082
30
0
41
1
10
37.9599289801308
20
-0.21270106083432
30
0
41
1
10
37.960653715319
20
-0.208541495173222
30
0
41
1
10
37.9614138707187
20
-0.204322824292916
30
0
0
SPLINE
5
D2
100
AcDbEntity
8
1
62
256
6
ByLayer
370
13
48
1
60
0
100
AcDbSpline
70
4
71
3
72
8
73
4
40
0
40
0
40
0
40
0
40
1
40
1
40
1
40
1
41
1
10
37.51009299683
20
0.562472824779121
30
0
41
1
10
37.4480268612264
20
0.602446103165335
30
0
41
1
10
37.3876361540375
20
0.645886509140297
30
0
41
1
10
37.3293406293109
20
0.693621562573981
30
0
0
SPLINE
5
D3
100
AcDbEntity
8
1
62
256
6
ByLayer
370
18
48
1
60
0
100
AcDbSpline
70
4
71
3
72
10
73
6
40
0
40
0
40
0
40
0
40
0.5
40
0.5
40
1
40
1
40
1
40
1
41
1
10
4.11288414497133
20
1.9472714026237
30
0
41
1
10
4.09833477854727
20
1.95147254760391
30
0
41
1
10
4.0859694322628
20
1.95631243223048
30
0
41
1
10
4.06773354123825
20
1.96698642652873
30
0
41
1
10
4.06201846085295
20
1.97274229116073
30
0
41
1
10
4.06202574215979
20
1.97841133150047
30
0
0
SPLINE
5
D4
100
AcDbEntity
8
1
62
256
6
ByLayer
370
18
48
1
60
0
100
AcDbSpline
70
4
71
3
72
10
73
6
40
0
40
0
40
0
40
0
40
0.5
40
0.5
40
1
40
1
40
1
40
1
41
1
10
4.25155170506005
20
-1.1718086862742
30
0
41
1
10
4.48563958324505
20
-1.29019374919201
30
0
41
1
10
4.72117495675843
20
-1.39600383933057
30
0
41
1
10
5.19732051864562
20
-1.58199780133924
30
0
41
1
10
5.43613778496169
20
-1.66157678831917
30
0
41
1
10
5.67692115295907
20
-1.72780194176175
30
0
0
SPLINE
5
D5
100
AcDbEntity
8
1
62
256
6
ByLayer
370
18
48
1
60
0
100
AcDbSpline
70
4
71
3
72
22
73
18
40
0
40
0
40
0
40
0
40
0.024188672105572
40
0.024188672105572
40
0.18682389342131
40
0.18682389342131
40
0.268141504079179
40
0.268141504079179
40
0.349459114737047
40
0.349459114737047
40
0.512094336052786
40
0.512094336052786
40
0.674729557368524
40
0.674729557368524
40
0.837364778684262
40
0.837364778684262
40
1
40
1
40
1
40
1
41
1
10
4.06220197143634
20
-2.07023589983785
30
0
41
1
10
4.06220540239167
20
-2.07024211748637
30
0
41
1
10
4.06220875026943
20
-2.07005091244935
30
0
41
1
10
4.06223400582536
20
-2.06705203882456
30
0
41
1
10
4.06225267475239
20
-2.05565617548785
30
0
41
1
10
4.06227852907966
20
-2.02514498116045
30
0
41
1
10
4.06228681973536
20
-2.01265275973157
30
0
41
1
10
4.06230286257531
20
-1.98346244429982
30
0
41
1
10
4.06231062659532
20
-1.96677923243524
30
0
41
1
10
4.06233373050938
20
-1.91061348061572
30
0
41
1
10
4.06234891177445
20
-1.86505342082506
30
0
41
1
10
4.06238110867096
20
-1.75753099245023
30
0
41
1
10
4.06239821942396
20
-1.69515136477435
30
0
41
1
10
4.06243417924921
20
-1.55814247125403
30
0
41
1
10
4.06245315749129
20
-1.48310665361055
30
0
41
1
10
4.06249285701125
20
-1.31993533563656
30
0
41
1
10
4.06251373526709
20
-1.23104707612433
30
0
41
1
10
4.06253401903763
20
-1.13842864958724
30
0
0
SPLINE
5
D6
100
AcDbEntity
8
1
62
256
6
ByLayer
370
18
48
1
60
0
100
AcDbSpline
70
4
71
3
72
16
73
12
40
0
40
0
40
0
40
0
40
0.25
40
0.25
40
0.5
40
0.5
40
0.75
40
0.75
40
0.875
40
0.875
40
1
40
1
40
1
40
1
41
1
10
37.3293406293094
20
0.693621562581654
30
0
41
1
10
37.3723918032482
20
0.701304551103135
30
0
41
1
10
37.4151851006003
20
0.710037250737003
30
0
41
1
10
37.4999902270307
20
0.730804054386823
30
0
41
1
10
37.5421608348406
20
0.742868755536733
30
0
41
1
10
37.6236912289249
20
0.772132411002701
30
0
41
1
10
37.6632166493046
20
0.789238502056548
30
0
41
1
10
37.718983740545
20
0.822285552452627
30
0
41
1
10
37.736669845497
20
0.834398655621811
30
0
41
1
10
37.7695522082748
20
0.861650499650779
30
0
41
1
10
37.7848983755586
20
0.876993192372197
30
0
41
1
10
37.7979897117396
20
0.893874389872423
30
0
0
SPLINE
5
D7
100
AcDbEntity
8
1
62
256
6
ByLayer
370
18
48
1
60
0
100
AcDbSpline
70
4
71
3
72
8
73
4
40
0
40
0
40
0
40
0
40
1
40
1
40
1
40
1
41
1
10
4.20092867825593
20
1.92682339464847
30
0
41
1
10
4.17036128077069
20
1.93322290014041
30
0
41
1
10
4.13984343307857
20
1.93948687960022
30
0
41
1
10
4.11288414496855
20
1.94727140262449
30
0
0
SPLINE
5
D8
100
AcDbEntity
8
1
62
256
6
ByLayer
370
18
48
1
60
0
100
AcDbSpline
70
4
71
3
72
74
73
70
40
0
40
0
40
0
40
0
40
0.0015683589153675
40
0.0015683589153675
40
0.0342437790204023
40
0.0342437790204023
40
0.0669191991254371
40
0.0669191991254371
40
0.099594619230472
40
0.099594619230472
40
0.132270039335507
40
0.132270039335507
40
0.164945459440542
40
0.164945459440542
40
0.197620879545576
40
0.197620879545576
40
0.230296299650611
40
0.230296299650611
40
0.262971719755646
40
0.262971719755646
40
0.295647139860681
40
0.295647139860681
40
0.328322559965716
40
0.328322559965716
40
0.36099798007075
40
0.36099798007075
40
0.393673400175785
40
0.393673400175785
40
0.42634882028082
40
0.42634882028082
40
0.459024240385854
40
0.459024240385854
40
0.491699660490889
40
0.491699660490889
40
0.524375080595924
40
0.524375080595924
40
0.540712790648441
40
0.540712790648441
40
0.557050500700958
40
0.557050500700958
40
0.589725920805993
40
0.589725920805993
40
0.606063630858509
40
0.606063630858509
40
0.622401340911026
40
0.622401340911026
40
0.65507676101606
40
0.65507676101606
40
0.687752181121094
40
0.687752181121094
40
0.720427601226127
40
0.720427601226127
40
0.753103021331161
40
0.753103021331161
40
0.785778441436194
40
0.785778441436194
40
0.818453861541228
40
0.818453861541228
40
0.851129281646262
40
0.851129281646262
40
0.883804701751295
40
0.883804701751295
40
0.916480121856329
40
0.916480121856329
40
0.949155541961362
40
0.949155541961362
40
0.981830962066396
40
0.981830962066396
40
1
40
1
40
1
40
1
41
1
10
7.53193808548104
20
1.99323089347351
30
0
41
1
10
7.53943009533108
20
1.99324608840738
30
0
41
1
10
7.54692165860672
20
1.99324813601191
30
0
41
1
10
7.71048414327959
20
1.99300603969084
30
0
41
1
10
7.86668190425578
20
1.98755637728829
30
0
41
1
10
8.17988791551747
20
1.965215447914
30
0
41
1
10
8.33666156707986
20
1.94758472387264
30
0
41
1
10
8.6489286263332
20
1.90137251807531
30
0
41
1
10
8.80497435059021
20
1.87305109538539
30
0
41
1
10
9.11757838970902
20
1.80733444374988
30
0
41
1
10
9.27423544331583
20
1.76843146316202
30
0
41
1
10
9.587132596473
20
1.67988696956357
30
0
41
1
10
9.7432382987418
20
1.63075026095015
30
0
41
1
10
10.0557717659343
20
1.52542650499234
30
0
41
1
10
10.2119847391388
20
1.46828545878023
30
0
41
1
10
10.5246281029109
20
1.34354991897132
30
0
41
1
10
10.6812627808046
20
1.27683811109628
30
0
41
1
10
10.9941182813247
20
1.13854340695192
30
0
41
1
10
11.1503776980969
20
1.06668669031492
30
0
41
1
10
11.4626162230103
20
0.914662275578593
30
0
41
1
10
11.6187473667339
20
0.835356413879282
30
0
41
1
10
11.9321953840732
20
0.673545278257961
30
0
41
1
10
12.0886592661566
20
0.591212290855708
30
0
41
1
10
12.4008541290939
20
0.422107867469322
30
0
41
1
10
12.5566695484935
20
0.335595050819279
30
0
41
1
10
12.8693511072549
20
0.162203902011981
30
0
41
1
10
13.0262469175864
20
0.0748053718037909
30
0
41
1
10
13.3387043255606
20
-0.100330722218104
30
0
41
1
10
13.4943448203518
20
-0.188148337964435
30
0
41
1
10
13.8064221502741
20
-0.361248743286154
30
0
41
1
10
13.9626308669862
20
-0.446933842261217
30
0
41
1
10
14.2753622504967
20
-0.6165387158687
30
0
41
1
10
14.4313234196821
20
-0.699984837096707
30
0
41
1
10
14.7432793463566
20
-0.861275471147849
30
0
41
1
10
14.8992839152514
20
-0.939534698297734
30
0
41
1
10
15.1333092820525
20
-1.05367246448031
30
0
41
1
10
15.2113033468677
20
-1.09116384774447
30
0
41
1
10
15.3674188352338
20
-1.16429725313759
30
0
41
1
10
15.4455615867202
20
-1.19987539365758
30
0
41
1
10
15.6797824829504
20
-1.3034787765084
30
0
41
1
10
15.8358543402726
20
-1.36885432104313
30
0
41
1
10
16.0698084768106
20
-1.46232267159115
30
0
41
1
10
16.1477531460894
20
-1.4927727792861
30
0
41
1
10
16.3036100763569
20
-1.55111237629382
30
0
41
1
10
16.3815643545444
20
-1.5789629491249
30
0
41
1
10
16.6159727294303
20
-1.65851003128117
30
0
41
1
10
16.7724383649087
20
-1.70651619381081
30
0
41
1
10
17.084588664147
20
-1.79429934424584
30
0
41
1
10
17.2402427672199
20
-1.8345689301571
30
0
41
1
10
17.5522359044663
20
-1.90145895799336
30
0
41
1
10
17.7088861988114
20
-1.92909446254146
30
0
41
1
10
18.0214396273853
20
-1.97445455994858
30
0
41
1
10
18.1772047501717
20
-1.99282628663482
30
0
41
1
10
18.4888931587948
20
-2.01555728056951
30
0
41
1
10
18.6449870794086
20
-2.02052717322994
30
0
41
1
10
18.9577057805095
20
-2.01991776140361
30
0
41
1
10
19.1138987160557
20
-2.01497602522824
30
0
41
1
10
19.4255827228346
20
-1.99245552336447
30
0
41
1
10
19.5815015966188
20
-1.9748996297981
30
0
41
1
10
19.8936036713341
20
-1.92854269737615
30
0
41
1
10
20.0499399978518
20
-1.90064013460176
30
0
41
1
10
20.3618332734364
20
-1.83380259028746
30
0
41
1
10
20.5176783901914
20
-1.79472179808226
30
0
41
1
10
20.8293266946984
20
-1.70610714302444
30
0
41
1
10
20.9850776493303
20
-1.65704571051827
30
0
41
1
10
21.296939782363
20
-1.55031593647249
30
0
41
1
10
21.4531384502983
20
-1.49216746732577
30
0
41
1
10
21.6955476617721
20
-1.39510346012062
30
0
41
1
10
21.7821087208602
20
-1.35908356728555
30
0
41
1
10
21.8686423619185
20
-1.32194056350721
30
0
0
SPLINE
5
D9
100
AcDbEntity
8
1
62
256
6
ByLayer
370
18
48
1
60
0
100
AcDbSpline
70
4
71
3
72
30
73
26
40
0
40
0
40
0
40
0
40
0.0800368414065333
40
0.0800368414065333
40
0.163669855824121
40
0.163669855824121
40
0.247302870241709
40
0.247302870241709
40
0.330935884659297
40
0.330935884659297
40
0.414568899076885
40
0.414568899076885
40
0.498201913494473
40
0.498201913494473
40
0.581834927912061
40
0.581834927912061
40
0.665467942329649
40
0.665467942329649
40
0.749100956747237
40
0.749100956747237
40
0.832733971164825
40
0.832733971164825
40
0.916366985582413
40
0.916366985582413
40
1
40
1
40
1
40
1
41
1
10
30.0357008959509
20
2.04646534303393
30
0
41
1
10
30.1843584374425
20
2.04703394988513
30
0
41
1
10
30.3331163747966
20
2.04375920454575
30
0
41
1
10
30.6375560020245
20
2.02385359829196
30
0
41
1
10
30.7929909588092
20
2.00674697667219
30
0
41
1
10
31.1035618432537
20
1.96152231020437
30
0
41
1
10
31.2588457114917
20
1.9334095441894
30
0
41
1
10
31.5694944070162
20
1.86668256920979
30
0
41
1
10
31.7249065174509
20
1.82783564368165
30
0
41
1
10
32.0359510613294
20
1.74126928970065
30
0
41
1
10
32.1913495589269
20
1.69374368625017
30
0
41
1
10
32.5017711218531
20
1.58871622219661
30
0
41
1
10
32.6566353502624
20
1.53060993556161
30
0
41
1
10
32.9674352506378
20
1.40602707788088
30
0
41
1
10
33.1232811695252
20
1.33983623669957
30
0
41
1
10
33.4338631556158
20
1.20034098233302
30
0
41
1
10
33.5887108206127
20
1.12655626844966
30
0
41
1
10
33.8989250626354
20
0.973182216968212
30
0
41
1
10
34.054660075993
20
0.893859387400482
30
0
41
1
10
34.3657252688092
20
0.730613660474717
30
0
41
1
10
34.5206978117451
20
0.646507119762532
30
0
41
1
10
34.8305798034453
20
0.474904502217811
30
0
41
1
10
34.9857793004293
20
0.387950227160928
30
0
41
1
10
35.2966305972308
20
0.21175558956449
30
0
41
1
10
35.4521445998851
20
0.122349745949464
30
0
41
1
10
35.6070877243311
20
0.0329206099645205
30
0
0
SPLINE
5
DA
100
AcDbEntity
8
1
62
256
6
ByLayer
370
18
48
1
60
0
100
AcDbSpline
70
4
71
3
72
8
73
4
40
0
40
0
40
0
40
0
40
1
40
1
40
1
40
1
41
1
10
37.9614138707187
20
-0.204322824292944
30
0
41
1
10
37.9621622231984
20
-0.199578724928642
30
0
41
1
10
37.9629070914008
20
-0.194834106743485
30
0
41
1
10
37.9636484739926
20
-0.190088969538948
30
0
0
SPLINE
5
DB
100
AcDbEntity
8
1
62
256
6
ByLayer
370
18
48
1
60
0
100
AcDbSpline
70
4
71
3
72
14
73
10
40
0
40
0
40
0
40
0
40
0.290162037834816
40
0.290162037834816
40
0.530141519870121
40
0.530141519870121
40
0.770121001905425
40
0.770121001905425
40
1
40
1
40
1
40
1
41
1
10
25.5569889624134
20
-2.03652546092317
30
0
41
1
10
25.350024323307
20
-2.03616034664697
30
0
41
1
10
25.1426187995498
20
-2.02558183087481
30
0
41
1
10
24.7615333322888
20
-1.98738359836233
30
0
41
1
10
24.5879642038984
20
-1.962992338573
30
0
41
1
10
24.2434538481705
20
-1.90115991530786
30
0
41
1
10
24.0718751639556
20
-1.86363969322463
30
0
41
1
10
23.7366337047194
20
-1.77808756809424
30
0
41
1
10
23.572853724466
20
-1.73062910135701
30
0
41
1
10
23.4089723983201
20
-1.67789919185805
30
0
0
SPLINE
5
DC
100
AcDbEntity
8
1
62
256
6
ByLayer
370
13
48
1
60
0
100
AcDbSpline
70
4
71
3
72
28
73
24
40
0
40
0
40
0
40
0
40
0.0776577537139014
40
0.0776577537139014
40
0.15217898710541
40
0.15217898710541
40
0.226700220496918
40
0.226700220496918
40
0.375742687279937
40
0.375742687279937
40
0.450263920671448
40
0.450263920671448
40
0.524785154062959
40
0.524785154062959
40
0.599306387454469
40
0.599306387454469
40
0.673827620845979
40
0.673827620845979
40
0.822870087629003
40
0.822870087629003
40
0.971912554412026
40
0.971912554412026
40
1
40
1
40
1
40
1
41
1
10
23.4089723983559
20
-1.67789919186956
30
0
41
1
10
23.2306897504885
20
-1.62053556107503
30
0
41
1
10
23.0522871622568
20
-1.55693330778052
30
0
41
1
10
22.7015977415226
20
-1.4209062273853
30
0
41
1
10
22.5292990045543
20
-1.34902266722182
30
0
41
1
10
22.1826024423663
20
-1.19556881691375
30
0
41
1
10
22.0097434851813
20
-1.11466377120007
30
0
41
1
10
21.4923045503723
20
-0.861520485495078
30
0
41
1
10
21.1481483309088
20
-0.679312469955164
30
0
41
1
10
20.6283520558476
20
-0.393493904529976
30
0
41
1
10
20.4553023561195
20
-0.29669346648123
30
0
41
1
10
20.1104944363011
20
-0.10280924686009
30
0
41
1
10
19.9384980977546
20
-0.005481945882849
30
0
41
1
10
19.5946146660369
20
0.18869379449481
30
0
41
1
10
19.4226509539181
20
0.285402625890242
30
0
41
1
10
19.0777069073773
20
0.476314141463035
30
0
41
1
10
18.9044124734288
20
0.570824446341902
30
0
41
1
10
18.3845989601558
20
0.847618971635313
30
0
41
1
10
18.0415270646017
20
1.02008518805724
30
0
41
1
10
17.3563038913908
20
1.33299385980661
30
0
41
1
10
17.0136303565938
20
1.47232449916945
30
0
41
1
10
16.6030679574053
20
1.61337892745377
30
0
41
1
10
16.5377820541852
20
1.63499822444737
30
0
41
1
10
16.4724456270349
20
1.65579139263232
30
0
0
SPLINE
5
DD
100
AcDbEntity
8
1
62
256
6
ByLayer
370
18
48
1
60
0
100
AcDbSpline
70
4
71
3
72
8
73
4
40
0
40
0
40
0
40
0
40
1
40
1
40
1
40
1
41
1
10
16.4724456271982
20
1.65579139258031
30
0
41
1
10
16.3983971081692
20
1.67935716403852
30
0
41
1
10
16.3242836929623
20
1.70186180265162
30
0
41
1
10
16.2502984167956
20
1.72319109034717
30
0
0
SPLINE
5
DE
100
AcDbEntity
8
1
62
256
6
ByLayer
370
13
48
1
60
0
100
AcDbSpline
70
4
71
3
72
20
73
16
40
0
40
0
40
0
40
0
40
0.154922078764174
40
0.154922078764174
40
0.239429870887757
40
0.239429870887757
40
0.323937663011339
40
0.323937663011339
40
0.492953247258504
40
0.492953247258504
40
0.661968831505669
40
0.661968831505669
40
0.830984415752835
40
0.830984415752835
40
1
40
1
40
1
40
1
41
1
10
4.25112006942189
20
-1.98526256084742
30
0
41
1
10
4.25114557380445
20
-1.98540470075179
30
0
41
1
10
4.25116892010402
20
-1.97853361753451
30
0
41
1
10
4.25120367177044
20
-1.95725626506331
30
0
41
1
10
4.25121567387825
20
-1.94768460788953
30
0
41
1
10
4.25123949604091
20
-1.92433770835098
30
0
41
1
10
4.25125136744978
20
-1.9104844770541
30
0
41
1
10
4.25128662408812
20
-1.86315445986958
30
0
41
1
10
4.25130977288404
20
-1.82394424911939
30
0
41
1
10
4.25135698779818
20
-1.7306253732186
30
0
41
1
10
4.25138111908109
20
-1.67634615197304
30
0
41
1
10
4.251430559439
20
-1.55288562985729
30
0
41
1
10
4.25145562062542
20
-1.48430961204716
30
0
41
1
10
4.25150509270179
20
-1.33526082614409
30
0
41
1
10
4.25152915665106
20
-1.25585716109202
30
0
41
1
10
4.25155170474068
20
-1.17180868627301
30
0
0
SPLINE
5
DF
100
AcDbEntity
8
1
62
256
6
ByLayer
370
18
48
1
60
0
100
AcDbSpline
70
4
71
3
72
62
73
58
40
0
40
0
40
0
40
0
40
0.0625000000000055
40
0.0625000000000055
40
0.125000000000011
40
0.125000000000011
40
0.25000000000002
40
0.25000000000002
40
0.312500000000025
40
0.312500000000025
40
0.375000000000029
40
0.375000000000029
40
0.500000000000039
40
0.500000000000039
40
0.562500000000044
40
0.562500000000044
40
0.593750000000047
40
0.593750000000047
40
0.597656250000047
40
0.597656250000047
40
0.601562500000047
40
0.601562500000047
40
0.603515625000045
40
0.603515625000045
40
0.605468750000044
40
0.605468750000044
40
0.609375000000044
40
0.609375000000044
40
0.625000000000042
40
0.625000000000042
40
0.656250000000039
40
0.656250000000039
40
0.671875000000037
40
0.671875000000037
40
0.687500000000035
40
0.687500000000035
40
0.703125000000033
40
0.703125000000033
40
0.718750000000031
40
0.718750000000031
40
0.73437500000003
40
0.73437500000003
40
0.750000000000028
40
0.750000000000028
40
0.765625000000026
40
0.765625000000026
40
0.781250000000024
40
0.781250000000024
40
0.81250000000002
40
0.81250000000002
40
0.843750000000016
40
0.843750000000016
40
0.875000000000012
40
0.875000000000012
40
0.937500000000006
40
0.937500000000006
40
1
40
1
40
1
40
1
41
1
10
8.98030904666885
20
-0.443864872692416
30
0
41
1
10
8.78412175611567
20
-0.331974721641018
30
0
41
1
10
8.58461379892418
20
-0.221533802231733
30
0
41
1
10
8.18501971118079
20
-0.0081415505869984
30
0
41
1
10
7.98427643847577
20
0.0951767703366215
30
0
41
1
10
7.37793353771977
20
0.392954165222818
30
0
41
1
10
6.96818222271844
20
0.575119645620077
30
0
41
1
10
6.33977622491466
20
0.814849208341968
30
0
41
1
10
6.12748388190656
20
0.88934259485498
30
0
41
1
10
5.70093521980402
20
1.0251801283184
30
0
41
1
10
5.48661471021336
20
1.08659071707368
30
0
41
1
10
4.83977836767221
20
1.25156984233729
30
0
41
1
10
4.40332387537782
20
1.33578576822237
30
0
41
1
10
3.7391715159722
20
1.42819312296371
30
0
41
1
10
3.51622678569532
20
1.45338043301481
30
0
41
1
10
3.17936758038781
20
1.48335258958244
30
0
41
1
10
3.06667454125483
20
1.49204026267469
30
0
41
1
10
2.9394284929501
20
1.50038663491478
30
0
41
1
10
2.92528356450916
20
1.50129416587563
30
0
41
1
10
2.89698071698572
20
1.50306963728801
30
0
41
1
10
2.88283022181585
20
1.50386187066962
30
0
41
1
10
2.86168901355373
20
1.50186890478514
30
0
41
1
10
2.8546276091019
20
1.50075413136165
30
0
41
1
10
2.84144826420123
20
1.49733814374255
30
0
41
1
10
2.83508181224102
20
1.4952756378529
30
0
41
1
10
2.81573074045738
20
1.48947131646312
30
0
41
1
10
2.8028670943084
20
1.48552731772108
30
0
41
1
10
2.73874258832888
20
1.46541422531271
30
0
41
1
10
2.68798047326126
20
1.4480426229452
30
0
41
1
10
2.53893949725568
20
1.39155441367751
30
0
41
1
10
2.44354298082689
20
1.34828432260164
30
0
41
1
10
2.31023123849329
20
1.26845222550239
30
0
41
1
10
2.26716865414468
20
1.23905747444746
30
0
41
1
10
2.18759816751395
20
1.17435866146508
30
0
41
1
10
2.15100995017332
20
1.13910421994009
30
0
41
1
10
2.08665493529759
20
1.06031482462092
30
0
41
1
10
2.0597079093013
20
1.01756217448181
30
0
41
1
10
2.01982352457938
20
0.925682486515939
30
0
41
1
10
2.0067050304549
20
0.875217359941445
30
0
41
1
10
1.99739484629367
20
0.772716593790165
30
0
41
1
10
2.00083958636998
20
0.720000792347918
30
0
41
1
10
2.02164361271551
20
0.614773359448265
30
0
41
1
10
2.03853357036493
20
0.563568588249609
30
0
41
1
10
2.08172221815818
20
0.463091110331931
30
0
41
1
10
2.10815330872376
20
0.413800476141233
30
0
41
1
10
2.16624043201119
20
0.319606463615344
30
0
41
1
10
2.19811168354829
20
0.274216591713838
30
0
41
1
10
2.2999160103675
20
0.141733597776323
30
0
41
1
10
2.37623745379778
20
0.0580671596085836
30
0
41
1
10
2.53452519692632
20
-0.0992164520320387
30
0
41
1
10
2.61716649544746
20
-0.173521957463521
30
0
41
1
10
2.78703621915705
20
-0.316360499645526
30
0
41
1
10
2.87430002620812
20
-0.384850924011431
30
0
41
1
10
3.14128613202195
20
-0.583693540274339
30
0
41
1
10
3.3233522832893
20
-0.705547319126055
30
0
41
1
10
3.69024628896045
20
-0.933283957443109
30
0
41
1
10
3.87556510666104
20
-1.03929812084601
30
0
41
1
10
4.06253401886809
20
-1.13842864949513
30
0
0
SPLINE
5
E0
100
AcDbEntity
8
1
62
256
6
ByLayer
370
18
48
1
60
0
100
AcDbSpline
70
4
71
3
72
26
73
22
40
0
40
0
40
0
40
0
40
0.182514998209985
40
0.182514998209985
40
0.273772497314977
40
0.273772497314977
40
0.36502999641997
40
0.36502999641997
40
0.456287495524962
40
0.456287495524962
40
0.547544994629954
40
0.547544994629954
40
0.638802493734947
40
0.638802493734947
40
0.730059992839939
40
0.730059992839939
40
0.821317491944932
40
0.821317491944932
40
0.912574991049924
40
0.912574991049924
40
1
40
1
40
1
40
1
41
1
10
8.98030904666746
20
-0.443864872691592
30
0
41
1
10
9.27672058666622
20
-0.615298442641375
30
0
41
1
10
9.57345436205537
20
-0.77467695040005
30
0
41
1
10
10.0137042543522
20
-1.00569457289905
30
0
41
1
10
10.1601935999705
20
-1.08036619373618
30
0
41
1
10
10.4543378788028
20
-1.22262750004475
30
0
41
1
10
10.6017072667841
20
-1.29067755718373
30
0
41
1
10
10.8963714963666
20
-1.42143488892728
30
0
41
1
10
11.0434686105017
20
-1.48433591276984
30
0
41
1
10
11.3403513809582
20
-1.601010779386
30
0
41
1
10
11.4896565780485
20
-1.65528512510846
30
0
41
1
10
11.7866640010339
20
-1.75534141316749
30
0
41
1
10
11.9342625163948
20
-1.8016278868227
30
0
41
1
10
12.2307278147682
20
-1.88382025705027
30
0
41
1
10
12.3796991494403
20
-1.91996455439784
30
0
41
1
10
12.677231570876
20
-1.98252012832541
30
0
41
1
10
12.8248105149876
20
-2.00895314535768
30
0
41
1
10
13.1190478145913
20
-2.05125893960053
30
0
41
1
10
13.266281889729
20
-2.06696549689207
30
0
41
1
10
13.5542037346282
20
-2.08768381557312
30
0
41
1
10
13.694849627001
20
-2.093117223257
30
0
41
1
10
13.8351430890711
20
-2.09368676579899
30
0
0
SPLINE
5
E1
100
AcDbEntity
8
1
62
256
6
ByLayer
370
18
48
1
60
0
100
AcDbSpline
70
4
71
3
72
70
73
66
40
0
40
0
40
0
40
0
40
0.0281454084020185
40
0.0281454084020185
40
0.0585728995140258
40
0.0585728995140258
40
0.0890003906260331
40
0.0890003906260331
40
0.11942788173804
40
0.11942788173804
40
0.149855372850048
40
0.149855372850048
40
0.180282863962055
40
0.180282863962055
40
0.210710355074062
40
0.210710355074062
40
0.241137846186069
40
0.241137846186069
40
0.271565337298077
40
0.271565337298077
40
0.301992828410084
40
0.301992828410084
40
0.332420319522091
40
0.332420319522091
40
0.362847810634098
40
0.362847810634098
40
0.393275301746105
40
0.393275301746105
40
0.454130283970122
40
0.454130283970122
40
0.48455777508213
40
0.48455777508213
40
0.514985266194139
40
0.514985266194139
40
0.545412757306147
40
0.545412757306147
40
0.575840248418155
40
0.575840248418155
40
0.606267739530164
40
0.606267739530164
40
0.636695230642172
40
0.636695230642172
40
0.66712272175418
40
0.66712272175418
40
0.697550212866189
40
0.697550212866189
40
0.727977703978197
40
0.727977703978197
40
0.758405195090205
40
0.758405195090205
40
0.788832686202214
40
0.788832686202214
40
0.819260177314222
40
0.819260177314222
40
0.84968766842623
40
0.84968766842623
40
0.880115159538239
40
0.880115159538239
40
0.910542650650247
40
0.910542650650247
40
0.940970141762255
40
0.940970141762255
40
0.971397632874264
40
0.971397632874264
40
1
40
1
40
1
40
1
41
1
10
21.8748706842662
20
1.30810451559876
30
0
41
1
10
22.0101376498884
20
1.37095067032138
30
0
41
1
10
22.1457089475106
20
1.43056272705297
30
0
41
1
10
22.428018577663
20
1.54856794020688
30
0
41
1
10
22.5745194405495
20
1.60674868903993
30
0
41
1
10
22.8681641027561
20
1.71542742963118
30
0
41
1
10
23.0162419696394
20
1.76521748060875
30
0
41
1
10
23.3131058697867
20
1.85588074994803
30
0
41
1
10
23.4611563311044
20
1.89658540772578
30
0
41
1
10
23.7559353980703
20
1.96890566685568
30
0
41
1
10
23.9035207100311
20
1.999888608605
30
0
41
1
10
24.1997177309568
20
2.05141245858877
30
0
41
1
10
24.3484189233164
20
2.07208910565049
30
0
41
1
10
24.6439389032664
20
2.10301563832564
30
0
41
1
10
24.7911033818758
20
2.11312705118311
30
0
41
1
10
25.0867578386109
20
2.12241181704886
30
0
41
1
10
25.2348551301318
20
2.12172653821602
30
0
41
1
10
25.5309667074457
20
2.10952874099829
30
0
41
1
10
25.6784147947236
20
2.09782146883995
30
0
41
1
10
25.9739303105209
20
2.06414707743394
30
0
41
1
10
26.1218686264512
20
2.04218769577921
30
0
41
1
10
26.4175630523688
20
1.98785487142033
30
0
41
1
10
26.5651432967711
20
1.95505478925983
30
0
41
1
10
26.8605847729365
20
1.88004931728847
30
0
41
1
10
27.0080425899877
20
1.83820227925537
30
0
41
1
10
27.3018840589197
20
1.74571081522839
30
0
41
1
10
27.4480645342964
20
1.694841781082
30
0
41
1
10
27.885303173752
20
1.52902718065897
30
0
41
1
10
28.1784531503152
20
1.40507585817193
30
0
41
1
10
28.6172246794758
20
1.19447097618993
30
0
41
1
10
28.7640049996005
20
1.12098154240107
30
0
41
1
10
29.059728752011
20
0.969145400275124
30
0
41
1
10
29.2081808811616
20
0.890623024595584
30
0
41
1
10
29.5031026318165
20
0.728461772544421
30
0
41
1
10
29.6498999971561
20
0.644579182200857
30
0
41
1
10
29.9451277880622
20
0.475995535022946
30
0
41
1
10
30.0932757850894
20
0.390555867429043
30
0
41
1
10
30.3891519869604
20
0.216895633961883
30
0
41
1
10
30.5359858681707
20
0.128213742571205
30
0
41
1
10
30.8307856696678
20
-0.0472126772990862
30
0
41
1
10
30.9785046205836
20
-0.13437451208938
30
0
41
1
10
31.2740331868501
20
-0.308519795553934
30
0
41
1
10
31.4216675933401
20
-0.396283491621176
30
0
41
1
10
31.7163550273449
20
-0.568445930753597
30
0
41
1
10
31.8640013454464
20
-0.652275353070081
30
0
41
1
10
32.1592092830325
20
-0.816650338609747
30
0
41
1
10
32.3066549050267
20
-0.89737047283964
30
0
41
1
10
32.6013597712834
20
-1.05551775990315
30
0
41
1
10
32.7489802913254
20
-1.13126945053799
30
0
41
1
10
33.0428794930423
20
-1.27568319302179
30
0
41
1
10
33.1893996792552
20
-1.34456951582715
30
0
41
1
10
33.4807607355177
20
-1.47670243926095
30
0
41
1
10
33.6261462983542
20
-1.53918493613523
30
0
41
1
10
33.9179753711197
20
-1.65521031645355
30
0
41
1
10
34.064124290999
20
-1.70914508101828
30
0
41
1
10
34.3562631601728
20
-1.80936610396358
30
0
41
1
10
34.5020357851107
20
-1.85576583250511
30
0
41
1
10
34.7962052718935
20
-1.93811341132462
30
0
41
1
10
34.9445123246342
20
-1.97454477814441
30
0
41
1
10
35.2395839268191
20
-2.03740554493646
30
0
41
1
10
35.3861475615022
20
-2.06408893241041
30
0
41
1
10
35.6803084082587
20
-2.10637951108998
30
0
41
1
10
35.8278767822544
20
-2.1221170959351
30
0
41
1
10
36.1145347937949
20
-2.14242099531228
30
0
41
1
10
36.253004373646
20
-2.1475512245843
30
0
41
1
10
36.3907707550319
20
-2.14782768949505
30
0
0
SPLINE
5
E2
100
AcDbEntity
8
1
62
256
6
ByLayer
370
18
48
1
60
0
100
AcDbSpline
70
4
71
3
72
14
73
10
40
0
40
0
40
0
40
0
40
0.25
40
0.25
40
0.5
40
0.5
40
0.75
40
0.75
40
1
40
1
40
1
40
1
41
1
10
37.2730998992888
20
0.456896141882169
30
0
41
1
10
37.2642160833615
20
0.478789321663101
30
0
41
1
10
37.2570243293617
20
0.50111925381168
30
0
41
1
10
37.2475328565184
20
0.547019031470683
30
0
41
1
10
37.245180842538
20
0.570813313351977
30
0
41
1
10
37.2494832537188
20
0.617740595023037
30
0
41
1
10
37.2564145193147
20
0.641094416551482
30
0
41
1
10
37.2847857337994
20
0.677741959223113
30
0
41
1
10
37.3063644882264
20
0.689521199874918
30
0
41
1
10
37.3293406293068
20
0.693621562582763
30
0
0
SPLINE
5
E3
100
AcDbEntity
8
1
62
256
6
ByLayer
370
18
48
1
60
0
100
AcDbSpline
70
4
71
3
72
8
73
4
40
0
40
0
40
0
40
0
40
1
40
1
40
1
40
1
41
1
10
37.9572755709622
20
-0.0676664992146812
30
0
41
1
10
37.8927529355404
20
-0.244940983079999
30
0
41
1
10
37.8282303001186
20
-0.422215466945317
30
0
41
1
10
37.7637076646968
20
-0.599489950810607
30
0
0
SPLINE
5
E4
100
AcDbEntity
8
1
62
256
6
ByLayer
370
18
48
1
60
0
100
AcDbSpline
70
4
71
3
72
8
73
4
40
0
40
0
40
0
40
0
40
1
40
1
40
1
40
1
41
1
10
4.06202574216027
20
-1.9784113315005
30
0
41
1
10
4.06806470392564
20
-1.97071170663867
30
0
41
1
10
4.0744673151255
20
-1.9633728951886
30
0
41
1
10
4.08125346264694
20
-1.95641586880299
30
0
0
SPLINE
5
E5
100
AcDbEntity
8
1
62
256
6
ByLayer
370
18
48
1
60
0
100
AcDbSpline
70
4
71
3
72
8
73
4
40
0
40
0
40
0
40
0
40
1
40
1
40
1
40
1
41
1
10
37.295513567941
20
-2.08174353114879
30
0
41
1
10
37.2850645772107
20
-2.09410848328241
30
0
41
1
10
37.2753380406577
20
-2.10479389742079
30
0
41
1
10
37.2662952164517
20
-2.11380609070778
30
0
0
SPLINE
5
E6
100
AcDbEntity
8
1
62
256
6
ByLayer
370
18
48
1
60
0
100
AcDbSpline
70
4
71
3
72
10
73
6
40
0
40
0
40
0
40
0
40
0.540040587287542
40
0.540040587287542
40
1
40
1
40
1
40
1
41
1
10
4.0620257421603
20
1.97841133150052
30
0
41
1
10
4.06206792531307
20
2.01125406138743
30
0
41
1
10
4.06210334577656
20
2.03534539704094
30
0
41
1
10
4.06215998846031
20
2.06370398601544
30
0
41
1
10
4.06218235721514
20
2.07020706805628
30
0
41
1
10
4.06220200204214
20
2.07023595006891
30
0
0
SPLINE
5
E7
100
AcDbEntity
8
1
62
256
6
ByLayer
370
18
48
1
60
0
100
AcDbSpline
70
4
71
3
72
8
73
4
40
0
40
0
40
0
40
0
40
1
40
1
40
1
40
1
41
1
10
4.06202574216027
20
1.97841133150052
30
0
41
1
10
4.06806470392564
20
1.9707117066387
30
0
41
1
10
4.0744673151255
20
1.96337289518863
30
0
41
1
10
4.08125346264697
20
1.95641586880299
30
0
0
SPLINE
5
E8
100
AcDbEntity
8
SK1
62
256
6
ByLayer
370
18
48
1
60
0
100
AcDbSpline
70
4
71
3
72
8
73
4
40
0
40
0
40
0
40
0
40
1
40
1
40
1
40
1
41
1
10
-35.4
20
1.2501987848089
30
0
41
1
10
-35.6037692826563
20
1.18008233281498
30
0
41
1
10
-35.8061060268686
20
1.10981343790885
30
0
41
1
10
-36
20
1.03868934395157
30
0
0
SPLINE
5
E9
100
AcDbEntity
8
SK1
62
256
6
ByLayer
370
18
48
1
60
0
100
AcDbSpline
70
4
71
3
72
14
73
10
40
0
40
0
40
0
40
0
40
0.125
40
0.125
40
0.249999999999999
40
0.249999999999999
40
0.5
40
0.5
40
1
40
1
40
1
40
1
41
1
10
-35.3
20
1.19103214611769
30
0
41
1
10
-35.3
20
1.20113238664675
30
0
41
1
10
-35.3017593723636
20
1.20982654450941
30
0
41
1
10
-35.306935341198
20
1.2239590103776
30
0
41
1
10
-35.3102739075535
20
1.22946765538501
30
0
41
1
10
-35.3215583577555
20
1.24336058265257
30
0
41
1
10
-35.3303095934912
20
1.24868826672369
30
0
41
1
10
-35.358391202053
20
1.2588616219941
30
0
41
1
10
-35.378655954467
20
1.25754321241087
30
0
41
1
10
-35.4
20
1.2501987848089
30
0
0
SPLINE
5
EA
100
AcDbEntity
8
SK1
62
256
6
ByLayer
370
18
48
1
60
0
100
AcDbSpline
70
4
71
3
72
14
73
10
40
0
40
0
40
0
40
0
40
0.500000000000001
40
0.500000000000001
40
0.750000000000002
40
0.750000000000002
40
0.875000000000001
40
0.875000000000001
40
1
40
1
40
1
40
1
41
1
10
-35.4
20
-0.222084623016599
30
0
41
1
10
-35.3787677796885
20
-0.214778674167036
30
0
41
1
10
-35.3584290958895
20
-0.201498109101408
30
0
41
1
10
-35.3303626450498
20
-0.170014809102383
30
0
41
1
10
-35.3215171954455
20
-0.157677298543206
30
0
41
1
10
-35.3102812516991
20
-0.134389379377836
30
0
41
1
10
-35.3068890218585
20
-0.125786714660279
30
0
41
1
10
-35.3017585680987
20
-0.106713357562768
30
0
41
1
10
-35.3
20
-0.0960198754938801
30
0
41
1
10
-35.3
20
-0.0849468073304251
30
0
0
SPLINE
5
EB
100
AcDbEntity
8
SK1
62
256
6
ByLayer
370
18
48
1
60
0
100
AcDbSpline
70
4
71
3
72
8
73
4
40
0
40
0
40
0
40
0
40
1
40
1
40
1
40
1
41
1
10
-36
20
0.433594063873159
30
0
41
1
10
-35.8060538599588
20
0.362450834075105
30
0
41
1
10
-35.6037429694745
20
0.292192020715959
30
0
41
1
10
-35.4
20
0.222084623015832
30
0
0
SPLINE
5
EC
100
AcDbEntity
8
SK1
62
256
6
ByLayer
370
18
48
1
60
0
100
AcDbSpline
70
4
71
3
72
8
73
4
40
0
40
0
40
0
40
0
40
1
40
1
40
1
40
1
41
1
10
-36
20
-0.433594063873159
30
0
41
1
10
-35.8060538599588
20
-0.362450834075105
30
0
41
1
10
-35.6037429694745
20
-0.292192020715959
30
0
41
1
10
-35.4
20
-0.222084623015832
30
0
0
SPLINE
5
ED
100
AcDbEntity
8
SK1
62
256
6
ByLayer
370
18
48
1
60
0
100
AcDbSpline
70
4
71
3
72
14
73
10
40
0
40
0
40
0
40
0
40
0.499999999999996
40
0.499999999999996
40
0.749999999999997
40
0.749999999999997
40
0.874999999999998
40
0.874999999999998
40
1
40
1
40
1
40
1
41
1
10
-35.4
20
0.222084623016599
30
0
41
1
10
-35.3787677796885
20
0.214778674167036
30
0
41
1
10
-35.3584290958895
20
0.201498109101408
30
0
41
1
10
-35.3303626450498
20
0.170014809102383
30
0
41
1
10
-35.3215171954455
20
0.157677298543234
30
0
41
1
10
-35.3102812516991
20
0.134389379377836
30
0
41
1
10
-35.3068890218585
20
0.125786714660279
30
0
41
1
10
-35.3017585680987
20
0.106713357562768
30
0
41
1
10
-35.3
20
0.0960198754939086
30
0
41
1
10
-35.3
20
0.0849468073304251
30
0
0
LINE
5
76
100
AcDbEntity
8
81
62
256
6
ByLayer
370
18
48
1
60
0
100
AcDbLine
10
38
20
0
30
0
11
43
21
0
31
0
39
0
210
0
220
0
230
1
0
LINE
5
77
100
AcDbEntity
8
1
62
256
6
ByLayer
370
18
48
1
60
0
100
AcDbLine
10
4.062134
20
2.07024
30
0
11
1.45764
21
2.063989
31
0
39
0
210
0
220
0
230
1
0
LINE
5
79
100
AcDbEntity
8
1
62
256
6
ByLayer
370
18
48
1
60
0
100
AcDbLine
10
14.109443
20
2.094353
30
0
11
13.844716
21
2.093718
31
0
39
0
210
0
220
0
230
1
0
LINE
5
7A
100
AcDbEntity
8
1
62
256
6
ByLayer
370
18
48
1
60
0
100
AcDbLine
10
25.358514
20
2.121351
30
0
11
25.118233
21
2.120775
31
0
39
0
210
0
220
0
230
1
0
LINE
5
7B
100
AcDbEntity
8
1
62
256
6
ByLayer
370
18
48
1
60
0
100
AcDbLine
10
36.610641
20
2.148356
30
0
11
36.387921
21
2.147822
31
0
39
0
210
0
220
0
230
1
0
LINE
5
7C
100
AcDbEntity
8
1
62
256
6
ByLayer
370
18
48
1
60
0
100
AcDbLine
10
36.387921
20
-2.147822
30
0
11
36.610452
21
-2.148356
31
0
39
0
210
0
220
0
230
1
0
LINE
5
7D
100
AcDbEntity
8
1
62
256
6
ByLayer
370
18
48
1
60
0
100
AcDbLine
10
25.118233
20
-2.120775
30
0
11
25.357709
21
-2.121349
31
0
39
0
210
0
220
0
230
1
0
LINE
5
7E
100
AcDbEntity
8
1
62
256
6
ByLayer
370
18
48
1
60
0
100
AcDbLine
10
13.844716
20
-2.093718
30
0
11
14.107964
21
-2.09435
31
0
39
0
210
0
220
0
230
1
0
LINE
5
7F
100
AcDbEntity
8
1
62
256
6
ByLayer
370
18
48
1
60
0
100
AcDbLine
10
1.45764
20
-2.063989
30
0
11
4.062134
21
-2.07024
31
0
39
0
210
0
220
0
230
1
0
LINE
5
80
100
AcDbEntity
8
SK1
62
256
6
ByLayer
370
18
48
1
60
0
100
AcDbLine
10
-35.278312
20
3
30
0
11
-36
21
1.75
31
0
39
0
210
0
220
0
230
1
0
LINE
5
82
100
AcDbEntity
8
SK1
62
256
6
ByLayer
370
18
48
1
60
0
100
AcDbLine
10
-36
20
-1.75
30
0
11
-35.278312
21
-3
31
0
39
0
210
0
220
0
230
1
0
LINE
5
83
100
AcDbEntity
8
SK1
62
256
6
ByLayer
370
18
48
1
60
0
100
AcDbLine
10
0
20
3
30
0
11
-35.278312
21
3
31
0
39
0
210
0
220
0
230
1
0
LINE
5
84
100
AcDbEntity
8
SK1
62
256
6
ByLayer
370
18
48
1
60
0
100
AcDbLine
10
-35.278312
20
-3
30
0
11
0
21
-3
31
0
39
0
210
0
220
0
230
1
0
LINE
5
85
100
AcDbEntity
8
SK4
62
256
6
ByLayer
370
18
48
0.05
60
0
100
AcDbLine
10
43
20
0
30
0
11
-41
21
0
31
0
39
0
210
0
220
0
230
1
0
LINE
5
87
100
AcDbEntity
8
4
62
256
6
ByLayer
370
18
48
0.05
60
0
100
AcDbLine
10
38
20
0
30
0
11
0
21
0
31
0
39
0
210
0
220
0
230
1
0
LINE
5
89
100
AcDbEntity
8
80
62
256
6
ByLayer
370
18
48
1
60
0
100
AcDbLine
10
0
20
0
30
0
11
-5
21
0
31
0
39
0
210
0
220
0
230
1
0
LINE
5
8A
100
AcDbEntity
8
1
62
256
6
ByLayer
370
18
48
1
60
0
100
AcDbLine
10
36.892474
20
-1.529411
30
0
11
37.957276
21
-0.067666
31
0
39
0
210
0
220
0
230
1
0
LINE
5
8B
100
AcDbEntity
8
1
62
256
6
ByLayer
370
13
48
1
60
0
100
AcDbLine
10
37.954757
20
0.1952
30
0
11
37.963648
21
0.190089
31
0
39
0
210
0
220
0
230
1
0
LINE
5
8C
100
AcDbEntity
8
1
62
256
6
ByLayer
370
18
48
1
60
0
100
AcDbLine
10
0
20
-3
30
0
11
0
21
3
31
0
39
0
210
0
220
0
230
1
0
LINE
5
8D
100
AcDbEntity
8
1
62
256
6
ByLayer
370
13
48
1
60
0
100
AcDbLine
10
37.835813
20
0.019324
30
0
11
37.964193
21
-0.054471
31
0
39
0
210
0
220
0
230
1
0
LINE
5
8E
100
AcDbEntity
8
1
62
256
6
ByLayer
370
13
48
1
60
0
100
AcDbLine
10
37.899797
20
0.538364
30
0
11
37.510093
21
0.562473
31
0
39
0
210
0
220
0
230
1
0
LINE
5
8F
100
AcDbEntity
8
1
62
256
6
ByLayer
370
13
48
1
60
0
100
AcDbLine
10
37.365449
20
0.38133
30
0
11
37.835813
21
0.019324
31
0
39
0
210
0
220
0
230
1
0
LINE
5
90
100
AcDbEntity
8
1
62
256
6
ByLayer
370
13
48
1
60
0
100
AcDbLine
10
1.45764
20
2.063989
30
0
11
1.45764
21
-2.063989
31
0
39
0
210
0
220
0
230
1
0
LINE
5
91
100
AcDbEntity
8
1
62
256
6
ByLayer
370
13
48
1
60
0
100
AcDbLine
10
37.959243
20
0.216794
30
0
11
37.510093
21
0.562473
31
0
39
0
210
0
220
0
230
1
0
LINE
5
92
100
AcDbEntity
8
1
62
256
6
ByLayer
370
13
48
1
60
0
100
AcDbLine
10
0.72786
20
2.531993
30
0
11
0.72786
21
-2.531993
31
0
39
0
210
0
220
0
230
1
0
LINE
5
93
100
AcDbEntity
8
SK1
62
256
6
ByLayer
370
13
48
1
60
0
100
AcDbLine
10
-35.4
20
1.250199
30
0
11
-35.4
21
0.222085
31
0
39
0
210
0
220
0
230
1
0
LINE
5
94
100
AcDbEntity
8
SK1
62
256
6
ByLayer
370
18
48
1
60
0
100
AcDbLine
10
-36
20
1.75
30
0
11
-36
21
1.038689
31
0
39
0
210
0
220
0
230
1
0
LINE
5
95
100
AcDbEntity
8
SK1
62
256
6
ByLayer
370
18
48
1
60
0
100
AcDbLine
10
0
20
-3
30
0
11
0
21
3
31
0
39
0
210
0
220
0
230
1
0
LINE
5
96
100
AcDbEntity
8
SK1
62
256
6
ByLayer
370
18
48
1
60
0
100
AcDbLine
10
-36
20
1.038689
30
0
11
-36
21
0.433594
31
0
39
0
210
0
220
0
230
1
0
LINE
5
97
100
AcDbEntity
8
SK1
62
256
6
ByLayer
370
18
48
1
60
0
100
AcDbLine
10
-36
20
-0.433594
30
0
11
-36
21
-1.75
31
0
39
0
210
0
220
0
230
1
0
LINE
5
98
100
AcDbEntity
8
SK1
62
256
6
ByLayer
370
18
48
1
60
0
100
AcDbLine
10
-35.3
20
-0.084947
30
0
11
-35.3
21
1.191032
31
0
39
0
210
0
220
0
230
1
0
LINE
5
99
100
AcDbEntity
8
SK1
62
256
6
ByLayer
370
18
48
1
60
0
100
AcDbLine
10
-35.278312
20
3
30
0
11
-35.278312
21
-3
31
0
39
0
210
0
220
0
230
1
0
MTEXT
5
EE
100
AcDbEntity
8
SK6
62
256
6
ByLayer
370
13
48
1
60
0
100
AcDbMText
10
3.129169
20
34.532694
30
0
210
0
220
0
230
1
1
\W0.7361;860.1-0430-022A1-MM 2214
40
3.5
41
0
44
1.084337
50
0
71
8
72
5
7
iso_b_vert
0
DIMENSION
5
FB
100
AcDbEntity
8
2
62
256
6
ByLayer
370
13
48
1
60
0
100
AcDbDimension
2
DimnDraft3D1
10
37.2957
20
-12.363398
30
0
11
17.545759
21
-12.363398
31
0
70
32
71
5
72
1
41
1
210
0
220
0
230
1
3
Standard
100
AcDbAlignedDimension
13
0
23
-1.5875
33
0
14
37.2957
24
-3.7375
34
0
50
0
100
AcDbRotatedDimension
1001
ACAD
1000
DSTYLE
1002
{
1070
   279
1070
     0
1070
   172
1070
     1
1070
   173
1070
     1
1070
   340
1005
EF
1070
   271
1070
     2
1070
   272
1070
     2
1070
    77
1070
     1
1070
    73
1070
     0
1070
   171
1070
     3
1070
   274
1070
     4
1070
   177
1070
    35
1070
   176
1070
    35
1070
   178
1070
    35
1070
    48
1040
-0.005
1070
    41
1041
3.5
1070
   147
1041
1.75
1070
    42
1041
1.5875
1070
    44
1041
2.0
1070
   140
1041
3.5
1070
   343
1005
0
1070
   344
1005
0
1002
}
0
DIMENSION
5
105
100
AcDbEntity
8
SK2
62
256
6
ByLayer
370
13
48
1
60
0
100
AcDbDimension
2
DimnDraft3D2
10
38
20
-31.692985
30
0
11
1.637
21
-31.692985
31
0
70
32
71
5
72
1
41
1
210
0
220
0
230
1
3
Standard
100
AcDbAlignedDimension
13
-36
23
-4.5875
33
0
14
38
24
-1.5875
34
0
50
0
100
AcDbRotatedDimension
1001
ACAD
1000
DSTYLE
1002
{
1070
   279
1070
     0
1070
   172
1070
     1
1070
   173
1070
     1
1070
   340
1005
EF
1070
   271
1070
     2
1070
   272
1070
     2
1070
    77
1070
     1
1070
    73
1070
     0
1070
   171
1070
     3
1070
   274
1070
     4
1070
   177
1070
    35
1070
   176
1070
    35
1070
   178
1070
    35
1070
    48
1040
-0.005
1070
    41
1041
3.5
1070
   147
1041
1.75
1070
    42
1041
1.5875
1070
    44
1041
2.0
1070
   140
1041
3.5
1070
   343
1005
0
1070
   344
1005
0
1002
}
0
DIMENSION
5
10F
100
AcDbEntity
8
SK2
62
256
6
ByLayer
370
13
48
1
60
0
100
AcDbDimension
2
DimnDraft3D3
10
38
20
13.759119
30
0
11
26.9
21
13.759119
31
0
70
32
71
5
72
1
41
1
210
0
220
0
230
1
3
Standard
100
AcDbAlignedDimension
13
15.8
23
3.7375
33
0
14
38
24
1.5875
34
0
50
0
100
AcDbRotatedDimension
1001
ACAD
1000
DSTYLE
1002
{
1070
   279
1070
     0
1070
   172
1070
     1
1070
   173
1070
     1
1070
   340
1005
EF
1070
   271
1070
     2
1070
   272
1070
     2
1070
    77
1070
     1
1070
    73
1070
     0
1070
   171
1070
     3
1070
   274
1070
     4
1070
   177
1070
    35
1070
   176
1070
    35
1070
   178
1070
    35
1070
    48
1040
-0.005
1070
    41
1041
3.5
1070
   147
1041
1.75
1070
    42
1041
1.5875
1070
    44
1041
2.0
1070
   140
1041
3.5
1070
   343
1005
0
1070
   344
1005
0
1002
}
0
DIMENSION
5
119
100
AcDbEntity
8
SK2
62
256
6
ByLayer
370
13
48
1
60
0
100
AcDbDimension
2
DimnDraft3D4
10
37.2957
20
-14.952503
30
0
11
47.981425
21
-14.952503
31
0
70
32
71
5
72
1
41
1
210
0
220
0
230
1
3
Standard
100
AcDbAlignedDimension
13
38
23
-1.5875
33
0
14
37.2957
24
-3.7375
34
0
50
0
100
AcDbRotatedDimension
1001
ACAD
1000
DSTYLE
1002
{
1070
   279
1070
     0
1070
   172
1070
     1
1070
   173
1070
     1
1070
   340
1005
EF
1070
   271
1070
     2
1070
   272
1070
     2
1070
    77
1070
     1
1070
    73
1070
     0
1070
   171
1070
     3
1070
   274
1070
     4
1070
   177
1070
    35
1070
   176
1070
    35
1070
   178
1070
    35
1070
    48
1040
-0.005
1070
    41
1041
3.5
1070
   147
1041
1.75
1070
    42
1041
1.5875
1070
    44
1041
2.0
1070
   140
1041
3.5
1070
   343
1005
0
1070
   344
1005
0
1002
}
0
DIMENSION
5
123
100
AcDbEntity
8
SK2
62
256
6
ByLayer
370
13
48
1
60
0
100
AcDbDimension
2
DimnDraft3D5
10
37.2957
20
-21.343428
30
0
11
-1.443624
21
-21.343428
31
0
70
32
71
5
72
1
41
1
210
0
220
0
230
1
3
Standard
100
AcDbAlignedDimension
13
-36
23
-4.5875
33
0
14
37.2957
24
-3.7375
34
0
50
0
100
AcDbRotatedDimension
1001
ACAD
1000
DSTYLE
1002
{
1070
   279
1070
     0
1070
   172
1070
     1
1070
   173
1070
     1
1070
   340
1005
EF
1070
   271
1070
     2
1070
   272
1070
     2
1070
    77
1070
     1
1070
    73
1070
     0
1070
   171
1070
     3
1070
   274
1070
     4
1070
   177
1070
    35
1070
   176
1070
    35
1070
   178
1070
    35
1070
    48
1040
-0.005
1070
    41
1041
3.5
1070
   147
1041
1.75
1070
    42
1041
1.5875
1070
    44
1041
2.0
1070
   140
1041
3.5
1070
   343
1005
0
1070
   344
1005
0
1002
}
0
DIMENSION
5
12E
100
AcDbEntity
8
SK2
62
256
6
ByLayer
370
13
48
1
60
0
100
AcDbDimension
2
DimnDraft3D6
10
-46.625163
20
3
30
0
11
-47.250163
21
21.47418
31
0
70
33
71
5
72
1
41
1
210
0
220
0
230
1
3
Standard
100
AcDbAlignedDimension
13
-37.5875
23
-3
33
0
14
-37.5875
24
3
34
0
1001
ACAD
1000
DSTYLE
1002
{
1070
   279
1070
     0
1070
    74
1070
     0
1070
   173
1070
     1
1070
   340
1005
EF
1070
   271
1070
     3
1070
   272
1070
     2
1070
    77
1070
     1
1070
    73
1070
     0
1070
   171
1070
     3
1070
   274
1070
     4
1070
   177
1070
    35
1070
   176
1070
    35
1070
   178
1070
    35
1070
    48
1040
-0.005
1070
    41
1041
3.5
1070
   147
1041
1.75
1070
    42
1041
1.5875
1070
    44
1041
2.0
1070
   140
1041
3.5
1070
   343
1005
0
1070
   344
1005
0
1002
}
0
DIMENSION
5
139
100
AcDbEntity
8
2
62
256
6
ByLayer
370
13
48
1
60
0
100
AcDbDimension
2
DimnDraft3D7
10
52.083343
20
2.15
30
0
11
47.458343
21
19.217266
31
0
70
33
71
5
72
1
41
1
210
0
220
0
230
1
3
Standard
100
AcDbAlignedDimension
13
38.8832
23
-2.15
33
0
14
38.8832
24
2.15
34
0
1001
ACAD
1000
DSTYLE
1002
{
1070
   279
1070
     0
1070
    74
1070
     0
1070
   173
1070
     1
1070
   340
1005
EF
1070
   271
1070
     3
1070
   272
1070
     2
1070
    77
1070
     1
1070
    73
1070
     0
1070
   171
1070
     3
1070
   274
1070
     4
1070
   177
1070
    35
1070
   176
1070
    35
1070
   178
1070
    35
1070
    48
1040
-0.005
1070
    41
1041
3.5
1070
   147
1041
1.75
1070
    42
1041
1.5875
1070
    44
1041
2.0
1070
   140
1041
3.5
1070
   343
1005
0
1070
   344
1005
0
1002
}
0
ENDSEC
0
SECTION
2
OBJECTS
0
DICTIONARY
5
1a4
330
0
100
AcDbDictionary
280
0
281
1
3
ACAD_GROUP
350
1a5
3
ACAD_MLINESTYLE
350
1a6
0
DICTIONARY
5
1a5
330
0
100
AcDbDictionary
280
0
281
1
0
DICTIONARY
5
1a6
330
0
100
AcDbDictionary
280
0
281
1
3
Standard
350
18
0
MLINESTYLE
5
18
330
1a6
100
AcDbMlineStyle
2
Standard
70
0
3

62
256
51
90
52
90
71
2
49
-0.5
62
256
6
ByLayer
49
0.5
62
256
6
ByLayer
0
RASTERVARIABLES
5
192
330

100
AcDbRasterVariables
90
0
70
1
71
1
72
1
0
ENDSEC
0
EOF
