0
SECTION
2
HEADER
9
$ACADVER
1
AC1015
9
$DWGCODEPAGE
3
ANSI_1252
9
$HANDSEED
5
1a5
9
$ANGBASE
50
0
9
$ANGDIR
70
0
9
$ATTMODE
70
1
9
$AUNITS
70
0
9
$AUPREC
70
0
9
$CECOLOR
62
256
9
$CELTSCALE
40
1
9
$CELTYPE
6
ByLayer
9
$CELWEIGHT
370
18
9
$CLAYER
8
0
9
$CMLJUST
70
0
9
$CMLSCALE
40
1
9
$CMLSTYLE
2
Standard
9
$DIMSTYLE
2
Standard
9
$TEXTSIZE
40
0.2
9
$TEXTSTYLE
7
Standard
9
$LUNITS
70
2
9
$LUPREC
70
4
9
$EXTNAMES
290
1
9
$INSUNITS
70
4
9
$LTSCALE
40
1
9
$LWDISPLAY
290
1
9
$PDMODE
70
0
9
$PDSIZE
40
0
9
$PLINEGEN
70
0
0
ENDSEC
0
SECTION
2
CLASSES
0
CLASS
1
RASTERVARIABLES
2
AcDbRasterVariables
3
ISM
90
0
280
0
281
0
0
ENDSEC
0
SECTION
2
TABLES
0
TABLE
2
VPORT
5
19b
100
AcDbSymbolTable
0
VPORT
5
1
100
AcDbSymbolTableRecord
100
AcDbViewportTableRecord
2
*Active
70
0
10
0
20
0
11
1
21
1
12
-1
22
1
13
0
23
0
14
0.5
24
0.5
15
10
25
10
16
0
26
0
36
1
17
0
27
0
37
0
0
ENDTAB
0
TABLE
2
LTYPE
5
19c
100
AcDbSymbolTable
0
LTYPE
5
14
100
AcDbSymbolTableRecord
100
AcDbLinetypeTableRecord
70
0
2
ByBlock
3

72
65
73
0
40
0
0
LTYPE
5
15
100
AcDbSymbolTableRecord
100
AcDbLinetypeTableRecord
70
0
2
ByLayer
3

72
65
73
0
40
0
0
LTYPE
5
16
100
AcDbSymbolTableRecord
100
AcDbLinetypeTableRecord
70
0
2
CONTINUOUS
3
Solid line
72
65
73
0
40
0
0
LTYPE
5
6A
100
AcDbSymbolTableRecord
100
AcDbLinetypeTableRecord
70
0
2
CENTER
3
____ _ ____ _ ____ _ ____
72
65
73
4
40
47.5
49
22
74
0
49
-8.5
74
0
49
8.5
74
0
49
-8.5
74
0
0
LTYPE
5
6B
100
AcDbSymbolTableRecord
100
AcDbLinetypeTableRecord
70
0
2
DASHED
3
__ __ __ __ __ __ __ __ __
72
65
73
2
40
25.72
49
12.86
74
0
49
-12.86
74
0
0
ENDTAB
0
TABLE
2
LAYER
5
19d
100
AcDbSymbolTable
0
LAYER
5
10
100
AcDbSymbolTableRecord
100
AcDbLayerTableRecord
2
0
70
0
62
7
6
CONTINUOUS
290
1
370
-3
390
0
0
LAYER
5
6D
100
AcDbSymbolTableRecord
100
AcDbLayerTableRecord
2
81
70
0
62
-3
6
CONTINUOUS
290
1
370
-3
390
0
0
LAYER
5
6F
100
AcDbSymbolTableRecord
100
AcDbLayerTableRecord
2
80
70
0
62
-6
6
CONTINUOUS
290
1
370
-3
390
0
0
LAYER
5
74
100
AcDbSymbolTableRecord
100
AcDbLayerTableRecord
2
2
70
0
62
7
6
CONTINUOUS
290
1
370
-3
390
0
0
LAYER
5
78
100
AcDbSymbolTableRecord
100
AcDbLayerTableRecord
2
1
70
0
62
4
6
CONTINUOUS
290
1
370
-3
390
0
0
LAYER
5
86
100
AcDbSymbolTableRecord
100
AcDbLayerTableRecord
2
4
70
0
62
-2
6
CENTER
290
1
370
-3
390
0
0
LAYER
5
187
100
AcDbSymbolTableRecord
100
AcDbLayerTableRecord
2
SK2
70
0
62
7
6
CONTINUOUS
290
1
370
-3
390
0
0
LAYER
5
188
100
AcDbSymbolTableRecord
100
AcDbLayerTableRecord
2
SK1
70
0
62
4
6
CONTINUOUS
290
1
370
-3
390
0
0
LAYER
5
189
100
AcDbSymbolTableRecord
100
AcDbLayerTableRecord
2
SK4
70
0
62
2
6
CENTER
290
1
370
-3
390
0
0
LAYER
5
18a
100
AcDbSymbolTableRecord
100
AcDbLayerTableRecord
2
SK6
70
0
62
5
6
CONTINUOUS
290
1
370
-3
390
0
0
ENDTAB
0
TABLE
2
STYLE
5
19e
100
AcDbSymbolTable
0
STYLE
5
11
100
AcDbSymbolTableRecord
100
AcDbTextStyleTableRecord
2
Standard
3
txt
70
0
71
0
40
0
41
1
42
0
50
0
0
STYLE
5
E3
100
AcDbSymbolTableRecord
100
AcDbTextStyleTableRecord
2
iso_b_vert
3
simplex.shx
70
0
71
0
40
0
41
1
42
0
50
0
0
STYLE
5
E4
100
AcDbSymbolTableRecord
100
AcDbTextStyleTableRecord
2
DWGDirectTextStyle
3
simplex
70
0
71
0
40
0
41
1
42
0
50
0
0
ENDTAB
0
TABLE
2
DIMSTYLE
5
19f
100
AcDbSymbolTable
100
AcDbDimStyleTable
0
DIMSTYLE
105
27
100
AcDbSymbolTableRecord
100
AcDbDimStyleTableRecord
2
Standard
70
0
3
<>
41
0.18
42
0.0625
44
0.18
140
0.18
147
0.09
73
0
74
0
77
1
271
2
275
0
278
52
280
0
340
11
0
ENDTAB
0
TABLE
2
VIEW
5
1a0
100
AcDbSymbolTable
0
ENDTAB
0
TABLE
2
UCS
5
1a1
100
AcDbSymbolTable
0
ENDTAB
0
TABLE
2
APPID
5
1a2
100
AcDbSymbolTable
0
APPID
5
12
100
AcDbSymbolTableRecord
100
AcDbRegAppTableRecord
2
ACAD
70
0
0
ENDTAB
0
TABLE
2
BLOCK_RECORD
5
1a3
100
AcDbSymbolTable
0
BLOCK_RECORD
5
1F
100
AcDbSymbolTableRecord
100
AcDbBlockTableRecord
2
*Model_Space
340
0
70
0
0
BLOCK_RECORD
5
1B
100
AcDbSymbolTableRecord
100
AcDbBlockTableRecord
2
*Paper_Space
340
0
70
0
0
BLOCK_RECORD
5
23
100
AcDbSymbolTableRecord
100
AcDbBlockTableRecord
2
*Paper_Space0
340
0
70
0
0
BLOCK_RECORD
5
E6
100
AcDbSymbolTableRecord
100
AcDbBlockTableRecord
2
DimnDraft3D1
340
0
70
0
0
BLOCK_RECORD
5
F0
100
AcDbSymbolTableRecord
100
AcDbBlockTableRecord
2
DimnDraft3D2
340
0
70
0
0
BLOCK_RECORD
5
FA
100
AcDbSymbolTableRecord
100
AcDbBlockTableRecord
2
DimnDraft3D3
340
0
70
0
0
BLOCK_RECORD
5
104
100
AcDbSymbolTableRecord
100
AcDbBlockTableRecord
2
DimnDraft3D4
340
0
70
0
0
BLOCK_RECORD
5
10E
100
AcDbSymbolTableRecord
100
AcDbBlockTableRecord
2
DimnDraft3D5
340
0
70
0
0
BLOCK_RECORD
5
118
100
AcDbSymbolTableRecord
100
AcDbBlockTableRecord
2
DimnDraft3D6
340
0
70
0
0
BLOCK_RECORD
5
123
100
AcDbSymbolTableRecord
100
AcDbBlockTableRecord
2
DimnDraft3D7
340
0
70
0
0
ENDTAB
0
ENDSEC
0
SECTION
2
BLOCKS
0
BLOCK
5
20
100
AcDbEntity
8
0
100
AcDbBlockBegin
2
*Model_Space
70
0
10
0
20
0
30
0
3
*Model_Space
0
ENDBLK
5
21
100
AcDbEntity
8
0
100
AcDbBlockEnd
0
BLOCK
5
1C
100
AcDbEntity
8
0
100
AcDbBlockBegin
2
*Paper_Space
70
0
10
0
20
0
30
0
3
*Paper_Space
0
ENDBLK
5
1D
100
AcDbEntity
8
0
100
AcDbBlockEnd
0
BLOCK
5
24
100
AcDbEntity
8
0
100
AcDbBlockBegin
2
*Paper_Space0
70
0
10
0
20
0
30
0
3
*Paper_Space0
0
ENDBLK
5
25
100
AcDbEntity
8
0
100
AcDbBlockEnd
0
BLOCK
5
ED
100
AcDbEntity
8
0
100
AcDbBlockBegin
2
DimnDraft3D1
70
0
10
0
20
0
30
0
3
DimnDraft3D1
0
MTEXT
5
E7
100
AcDbEntity
8
2
62
256
6
ByLayer
370
13
48
1
60
0
100
AcDbMText
10
13.065975
20
-11.438398
30
0
210
0
220
0
230
1
1
\W0.7317;37,26
40
3.5
41
0
44
1.084337
50
0
71
7
72
5
7
iso_b_vert
0
LINE
5
E8
100
AcDbEntity
8
2
62
256
6
ByLayer
370
13
48
1
60
0
100
AcDbLine
10
0
20
-1.5875
30
0
11
0
21
-14.313398
31
0
39
0
210
0
220
0
230
1
0
LINE
5
E9
100
AcDbEntity
8
2
62
256
6
ByLayer
370
13
48
1
60
0
100
AcDbLine
10
37.2646
20
-3.6875
30
0
11
37.2646
21
-14.313398
31
0
39
0
210
0
220
0
230
1
0
LINE
5
EA
100
AcDbEntity
8
2
62
256
6
ByLayer
370
13
48
1
60
0
100
AcDbLine
10
0
20
-12.313398
30
0
11
37.2646
21
-12.313398
31
0
39
0
210
0
220
0
230
1
0
SOLID
5
EB
100
AcDbEntity
8
2
62
256
6
ByLayer
370
13
48
1
60
0
100
AcDbTrace
10
0
20
-12.313398
30
0
11
3.499998
21
-11.852615
31
0
12
3.500002
22
-12.774182
32
0
13
0
23
-12.313398
33
0
39
0
210
0
220
0
230
1
0
SOLID
5
EC
100
AcDbEntity
8
2
62
256
6
ByLayer
370
13
48
1
60
0
100
AcDbTrace
10
37.2646
20
-12.313398
30
0
11
33.764602
21
-12.774182
31
0
12
33.764598
22
-11.852615
32
0
13
37.2646
23
-12.313398
33
0
39
0
210
0
220
0
230
1
0
ENDBLK
5
EE
100
AcDbEntity
8
0
100
AcDbBlockEnd
0
BLOCK
5
F7
100
AcDbEntity
8
0
100
AcDbBlockBegin
2
DimnDraft3D2
70
0
10
0
20
0
30
0
3
DimnDraft3D2
0
MTEXT
5
F1
100
AcDbEntity
8
SK2
62
256
6
ByLayer
370
13
48
1
60
0
100
AcDbMText
10
-3.026995
20
-30.817985
30
0
210
0
220
0
230
1
1
\W0.7581;74,00
40
3.5
41
0
44
1.084337
50
0
71
7
72
5
7
iso_b_vert
0
LINE
5
F2
100
AcDbEntity
8
SK2
62
256
6
ByLayer
370
13
48
1
60
0
100
AcDbLine
10
-36
20
-4.5875
30
0
11
-36
21
-33.692985
31
0
39
0
210
0
220
0
230
1
0
LINE
5
F3
100
AcDbEntity
8
SK2
62
256
6
ByLayer
370
13
48
1
60
0
100
AcDbLine
10
38
20
-1.5875
30
0
11
38
21
-33.692985
31
0
39
0
210
0
220
0
230
1
0
LINE
5
F4
100
AcDbEntity
8
SK2
62
256
6
ByLayer
370
13
48
1
60
0
100
AcDbLine
10
-36
20
-31.692985
30
0
11
38
21
-31.692985
31
0
39
0
210
0
220
0
230
1
0
SOLID
5
F5
100
AcDbEntity
8
SK2
62
256
6
ByLayer
370
13
48
1
60
0
100
AcDbTrace
10
-36
20
-31.692985
30
0
11
-32.500002
21
-31.232202
31
0
12
-32.499998
22
-32.153769
32
0
13
-36
23
-31.692985
33
0
39
0
210
0
220
0
230
1
0
SOLID
5
F6
100
AcDbEntity
8
SK2
62
256
6
ByLayer
370
13
48
1
60
0
100
AcDbTrace
10
38
20
-31.692985
30
0
11
34.500002
21
-32.153769
31
0
12
34.499998
22
-31.232202
32
0
13
38
23
-31.692985
33
0
39
0
210
0
220
0
230
1
0
ENDBLK
5
F8
100
AcDbEntity
8
0
100
AcDbBlockEnd
0
BLOCK
5
101
100
AcDbEntity
8
0
100
AcDbBlockBegin
2
DimnDraft3D3
70
0
10
0
20
0
30
0
3
DimnDraft3D3
0
MTEXT
5
FB
100
AcDbEntity
8
SK2
62
256
6
ByLayer
370
13
48
1
60
0
100
AcDbMText
10
22.934605
20
14.584119
30
0
210
0
220
0
230
1
1
\W0.6898;21,74
40
3.5
41
0
44
1.084337
50
0
71
7
72
5
7
iso_b_vert
0
LINE
5
FC
100
AcDbEntity
8
SK2
62
256
6
ByLayer
370
13
48
1
60
0
100
AcDbLine
10
16.26
20
3.6875
30
0
11
16.26
21
15.709119
31
0
39
0
210
0
220
0
230
1
0
LINE
5
FD
100
AcDbEntity
8
SK2
62
256
6
ByLayer
370
13
48
1
60
0
100
AcDbLine
10
38
20
1.5875
30
0
11
38
21
15.709119
31
0
39
0
210
0
220
0
230
1
0
LINE
5
FE
100
AcDbEntity
8
SK2
62
256
6
ByLayer
370
13
48
1
60
0
100
AcDbLine
10
16.26
20
13.709119
30
0
11
38
21
13.709119
31
0
39
0
210
0
220
0
230
1
0
SOLID
5
FF
100
AcDbEntity
8
SK2
62
256
6
ByLayer
370
13
48
1
60
0
100
AcDbTrace
10
16.26
20
13.709119
30
0
11
19.759998
21
14.169903
31
0
12
19.760002
22
13.248335
32
0
13
16.26
23
13.709119
33
0
39
0
210
0
220
0
230
1
0
SOLID
5
100
100
AcDbEntity
8
SK2
62
256
6
ByLayer
370
13
48
1
60
0
100
AcDbTrace
10
38
20
13.709119
30
0
11
34.500002
21
13.248335
31
0
12
34.499998
22
14.169903
32
0
13
38
23
13.709119
33
0
39
0
210
0
220
0
230
1
0
ENDBLK
5
102
100
AcDbEntity
8
0
100
AcDbBlockEnd
0
BLOCK
5
10B
100
AcDbEntity
8
0
100
AcDbBlockBegin
2
DimnDraft3D4
70
0
10
0
20
0
30
0
3
DimnDraft3D4
0
MTEXT
5
105
100
AcDbEntity
8
SK2
62
256
6
ByLayer
370
13
48
1
60
0
100
AcDbMText
10
44.656425
20
-14.027503
30
0
210
0
220
0
230
1
1
\W0.7383;0,74
40
3.5
41
0
44
1.084337
50
0
71
7
72
5
7
iso_b_vert
0
LINE
5
106
100
AcDbEntity
8
SK2
62
256
6
ByLayer
370
13
48
1
60
0
100
AcDbLine
10
38
20
-1.5875
30
0
11
38
21
-16.902503
31
0
39
0
210
0
220
0
230
1
0
LINE
5
107
100
AcDbEntity
8
SK2
62
256
6
ByLayer
370
13
48
1
60
0
100
AcDbLine
10
37.2646
20
-3.6875
30
0
11
37.2646
21
-16.902503
31
0
39
0
210
0
220
0
230
1
0
LINE
5
108
100
AcDbEntity
8
SK2
62
256
6
ByLayer
370
13
48
1
60
0
100
AcDbLine
10
28.5146
20
-14.902503
30
0
11
52.181425
21
-14.902503
31
0
39
0
210
0
220
0
230
1
0
SOLID
5
109
100
AcDbEntity
8
SK2
62
256
6
ByLayer
370
13
48
1
60
0
100
AcDbTrace
10
38
20
-14.902503
30
0
11
41.499998
21
-14.441719
31
0
12
41.500002
22
-15.363287
32
0
13
38
23
-14.902503
33
0
39
0
210
0
220
0
230
1
0
SOLID
5
10A
100
AcDbEntity
8
SK2
62
256
6
ByLayer
370
13
48
1
60
0
100
AcDbTrace
10
37.2646
20
-14.902503
30
0
11
33.764602
21
-15.363287
31
0
12
33.764598
22
-14.441719
32
0
13
37.2646
23
-14.902503
33
0
39
0
210
0
220
0
230
1
0
ENDBLK
5
10C
100
AcDbEntity
8
0
100
AcDbBlockEnd
0
BLOCK
5
115
100
AcDbEntity
8
0
100
AcDbBlockBegin
2
DimnDraft3D5
70
0
10
0
20
0
30
0
3
DimnDraft3D5
0
MTEXT
5
10F
100
AcDbEntity
8
SK2
62
256
6
ByLayer
370
13
48
1
60
0
100
AcDbMText
10
-5.923408
20
-20.468428
30
0
210
0
220
0
230
1
1
\W0.7317;73,26
40
3.5
41
0
44
1.084337
50
0
71
7
72
5
7
iso_b_vert
0
LINE
5
110
100
AcDbEntity
8
SK2
62
256
6
ByLayer
370
13
48
1
60
0
100
AcDbLine
10
-36
20
-4.5875
30
0
11
-36
21
-23.343428
31
0
39
0
210
0
220
0
230
1
0
LINE
5
111
100
AcDbEntity
8
SK2
62
256
6
ByLayer
370
13
48
1
60
0
100
AcDbLine
10
37.2646
20
-3.6875
30
0
11
37.2646
21
-23.343428
31
0
39
0
210
0
220
0
230
1
0
LINE
5
112
100
AcDbEntity
8
SK2
62
256
6
ByLayer
370
13
48
1
60
0
100
AcDbLine
10
-36
20
-21.343428
30
0
11
37.2646
21
-21.343428
31
0
39
0
210
0
220
0
230
1
0
SOLID
5
113
100
AcDbEntity
8
SK2
62
256
6
ByLayer
370
13
48
1
60
0
100
AcDbTrace
10
-36
20
-21.343428
30
0
11
-32.500002
21
-20.882645
31
0
12
-32.499998
22
-21.804212
32
0
13
-36
23
-21.343428
33
0
39
0
210
0
220
0
230
1
0
SOLID
5
114
100
AcDbEntity
8
SK2
62
256
6
ByLayer
370
13
48
1
60
0
100
AcDbTrace
10
37.2646
20
-21.343428
30
0
11
33.764602
21
-21.804212
31
0
12
33.764598
22
-20.882645
32
0
13
37.2646
23
-21.343428
33
0
39
0
210
0
220
0
230
1
0
ENDBLK
5
116
100
AcDbEntity
8
0
100
AcDbBlockEnd
0
BLOCK
5
120
100
AcDbEntity
8
0
100
AcDbBlockBegin
2
DimnDraft3D6
70
0
10
0
20
0
30
0
3
DimnDraft3D6
0
MTEXT
5
119
100
AcDbEntity
8
SK2
62
256
6
ByLayer
370
13
48
1
60
0
100
AcDbMText
10
-46.375163
20
22.34918
30
0
210
0
220
0
230
1
1
\W0.7317;6,000
40
3.5
41
0
44
1.084337
50
90
71
7
72
5
7
iso_b_vert
0
MTEXT
5
11A
100
AcDbEntity
8
SK2
62
256
6
ByLayer
370
13
48
1
60
0
100
AcDbMText
10
-46.375163
20
17.126524
30
0
210
0
220
0
230
1
1
%%c
40
3.5
41
0
44
1.084337
50
90
71
7
72
5
7
iso_b_vert
0
LINE
5
11B
100
AcDbEntity
8
SK2
62
256
6
ByLayer
370
13
48
1
60
0
100
AcDbLine
10
-37.5875
20
-3
30
0
11
-46.625163
21
-3
31
0
39
0
210
0
220
0
230
1
0
LINE
5
11C
100
AcDbEntity
8
SK2
62
256
6
ByLayer
370
13
48
1
60
0
100
AcDbLine
10
-37.5875
20
3
30
0
11
-46.625163
21
3
31
0
39
0
210
0
220
0
230
1
0
LINE
5
11D
100
AcDbEntity
8
SK2
62
256
6
ByLayer
370
13
48
1
60
0
100
AcDbLine
10
-44.625163
20
32.121549
30
0
11
-44.625163
21
-11.75
31
0
39
0
210
0
220
0
230
1
0
SOLID
5
11E
100
AcDbEntity
8
SK2
62
256
6
ByLayer
370
13
48
1
60
0
100
AcDbTrace
10
-44.625163
20
-3
30
0
11
-44.164379
21
-6.499998
31
0
12
-45.085946
22
-6.500002
32
0
13
-44.625163
23
-3
33
0
39
0
210
0
220
0
230
1
0
SOLID
5
11F
100
AcDbEntity
8
SK2
62
256
6
ByLayer
370
13
48
1
60
0
100
AcDbTrace
10
-44.625163
20
3
30
0
11
-45.085946
21
6.499998
31
0
12
-44.164379
22
6.500002
32
0
13
-44.625163
23
3
33
0
39
0
210
0
220
0
230
1
0
ENDBLK
5
121
100
AcDbEntity
8
0
100
AcDbBlockEnd
0
BLOCK
5
12B
100
AcDbEntity
8
0
100
AcDbBlockBegin
2
DimnDraft3D7
70
0
10
0
20
0
30
0
3
DimnDraft3D7
0
MTEXT
5
124
100
AcDbEntity
8
2
62
256
6
ByLayer
370
13
48
1
60
0
100
AcDbMText
10
48.333343
20
20.042266
30
0
210
0
220
0
230
1
1
\W0.7581;4,200
40
3.5
41
0
44
1.084337
50
90
71
7
72
5
7
iso_b_vert
0
MTEXT
5
125
100
AcDbEntity
8
2
62
256
6
ByLayer
370
13
48
1
60
0
100
AcDbMText
10
48.333343
20
14.81961
30
0
210
0
220
0
230
1
1
%%c
40
3.5
41
0
44
1.084337
50
90
71
7
72
5
7
iso_b_vert
0
LINE
5
126
100
AcDbEntity
8
2
62
256
6
ByLayer
370
13
48
1
60
0
100
AcDbLine
10
38.8521
20
-2.1
30
0
11
52.083343
21
-2.1
31
0
39
0
210
0
220
0
230
1
0
LINE
5
127
100
AcDbEntity
8
2
62
256
6
ByLayer
370
13
48
1
60
0
100
AcDbLine
10
38.8521
20
2.1
30
0
11
52.083343
21
2.1
31
0
39
0
210
0
220
0
230
1
0
LINE
5
128
100
AcDbEntity
8
2
62
256
6
ByLayer
370
13
48
1
60
0
100
AcDbLine
10
50.083343
20
30.183056
30
0
11
50.083343
21
-10.85
31
0
39
0
210
0
220
0
230
1
0
SOLID
5
129
100
AcDbEntity
8
2
62
256
6
ByLayer
370
13
48
1
60
0
100
AcDbTrace
10
50.083343
20
-2.1
30
0
11
50.544126
21
-5.599998
31
0
12
49.622559
22
-5.600002
32
0
13
50.083343
23
-2.1
33
0
39
0
210
0
220
0
230
1
0
SOLID
5
12A
100
AcDbEntity
8
2
62
256
6
ByLayer
370
13
48
1
60
0
100
AcDbTrace
10
50.083343
20
2.1
30
0
11
49.622559
21
5.599998
31
0
12
50.544126
22
5.600002
32
0
13
50.083343
23
2.1
33
0
39
0
210
0
220
0
230
1
0
ENDBLK
5
12C
100
AcDbEntity
8
0
100
AcDbBlockEnd
0
ENDSEC
0
SECTION
2
ENTITIES
0
ARC
5
90
100
AcDbEntity
8
1
62
256
6
ByLayer
370
18
48
1
60
0
100
AcDbCircle
39
0
10
0
20
2.15
30
0
40
0.849999999999997
210
0
220
0
230
1
100
AcDbArc
50
25.642535
51
90
0
ARC
5
91
100
AcDbEntity
8
1
62
256
6
ByLayer
370
18
48
1
60
0
100
AcDbCircle
39
0
10
0
20
-2.15
30
0
40
0.849999999999997
210
0
220
0
230
1
100
AcDbArc
50
270
51
334.357465
0
ARC
5
92
100
AcDbEntity
8
1
62
256
6
ByLayer
370
18
48
1
60
0
100
AcDbCircle
39
0
10
-1.53257
20
2.885684
30
0
40
0.849999999999998
210
0
220
0
230
-1
100
AcDbArc
50
269.896868
51
334.357465
0
ARC
5
93
100
AcDbEntity
8
1
62
256
6
ByLayer
370
18
48
1
60
0
100
AcDbCircle
39
0
10
-1.53257
20
-2.885684
30
0
40
0.849999999999998
210
0
220
0
230
-1
100
AcDbArc
50
25.642535
51
90.103132
0
ELLIPSE
5
94
100
AcDbEntity
8
1
62
256
6
ByLayer
370
18
48
1
60
0
100
AcDbEllipse
10
5.929571
20
2.977304
30
0
11
1
21
0
31
0
210
0
220
0
230
1
40
0.999954
41
-1.9309108814721
42
-1.56539793296372
0
ELLIPSE
5
95
100
AcDbEntity
8
1
62
256
6
ByLayer
370
18
48
1
60
0
100
AcDbEllipse
10
5.929571
20
-2.977304
30
0
11
1
21
0
31
0
210
0
220
0
230
1
40
0.999954
41
1.5730430905725
42
1.92965144657973
0
ELLIPSE
5
96
100
AcDbEntity
8
1
62
256
6
ByLayer
370
13
48
1
60
0
100
AcDbEllipse
10
6.588746
20
-7.467039
30
0
11
-63.367412775826
21
39.3377469148257
31
0
210
0
220
0
230
1
40
0.076017
41
-1.52364076200618
42
-1.45910005416664
0
ELLIPSE
5
97
100
AcDbEntity
8
1
62
256
6
ByLayer
370
13
48
1
60
0
100
AcDbEllipse
10
5.930856
20
-2.237526
30
0
11
-0.0347932252452631
21
0.297975555166917
31
0
210
0
220
0
230
1
40
0.527274
41
0.269498486031958
42
0.427212435947914
0
ELLIPSE
5
98
100
AcDbEntity
8
1
62
256
6
ByLayer
370
13
48
1
60
0
100
AcDbEllipse
10
82.194174
20
43.317348
30
0
11
-61.7
21
7.55582120308407E-15
31
0
210
0
220
0
230
1
40
0.99863
41
0.7647507571823
42
0.769379056803204
0
ELLIPSE
5
99
100
AcDbEntity
8
1
62
256
6
ByLayer
370
18
48
1
60
0
100
AcDbEllipse
10
38.096351
20
0.000793
30
0
11
0.632504334497578
21
2.08553948083599
31
0
210
0
220
0
230
-1
40
0.406728
41
-2.88320217609856
42
-2.87855629606683
0
ELLIPSE
5
9A
100
AcDbEntity
8
1
62
256
6
ByLayer
370
13
48
1
60
0
100
AcDbEllipse
10
7.494203
20
-6.008478
30
0
11
-63.367412775826
21
39.3377469148257
31
0
210
0
220
0
230
1
40
0.076017
41
-1.52364076200618
42
-1.4947631041249
0
POINT
5
6C
100
AcDbEntity
8
81
62
256
6
ByLayer
370
18
48
1
60
0
100
AcDbPoint
10
38
20
0
30
0
39
0
210
0
220
0
230
1
50
360
0
POINT
5
6E
100
AcDbEntity
8
80
62
256
6
ByLayer
370
18
48
1
60
0
100
AcDbPoint
10
0
20
0
30
0
39
0
210
0
220
0
230
1
50
360
0
POINT
5
70
100
AcDbEntity
8
SK2
62
256
6
ByLayer
370
18
48
1
60
1
100
AcDbPoint
10
-36
20
-3
30
0
39
0
210
0
220
0
230
1
50
360
0
POINT
5
72
100
AcDbEntity
8
SK2
62
256
6
ByLayer
370
18
48
1
60
1
100
AcDbPoint
10
-36
20
3
30
0
39
0
210
0
220
0
230
1
50
360
0
POINT
5
73
100
AcDbEntity
8
2
62
256
6
ByLayer
370
18
48
1
60
1
100
AcDbPoint
10
37.2646
20
-2.1
30
0
39
0
210
0
220
0
230
1
50
360
0
POINT
5
75
100
AcDbEntity
8
2
62
256
6
ByLayer
370
18
48
1
60
1
100
AcDbPoint
10
37.2646
20
2.1
30
0
39
0
210
0
220
0
230
1
50
360
0
SPLINE
5
9B
100
AcDbEntity
8
1
62
256
6
ByLayer
370
18
48
1
60
0
100
AcDbSpline
70
4
71
3
72
10
73
6
40
0
40
0
40
0
40
0
40
0.0302820296630252
40
0.788397283162086
40
1
40
1
40
1
40
1
41
1
10
28.9869002677399
20
1.87434359254445
30
0
41
1
10
28.9945242063355
20
1.87268491365478
30
0
41
1
10
29.1930211577796
20
1.82914195048596
30
0
41
1
10
29.4450052920586
20
1.76197625593718
30
0
41
1
10
29.6906039716403
20
1.66945393837548
30
0
41
1
10
29.7442347430212
20
1.6482351834027
30
0
0
SPLINE
5
9C
100
AcDbEntity
8
1
62
256
6
ByLayer
370
18
48
1
60
0
100
AcDbSpline
70
4
71
3
72
17
73
13
40
0
40
0
40
0
40
0
40
0.149982650665529
40
0.24921776042125
40
0.33113031612394
40
0.418646831751586
40
0.506903295584923
40
0.724455475437546
40
0.774618410190984
40
0.846572932651595
40
0.956133182405738
40
1
40
1
40
1
40
1
41
1
10
31.6962094858455
20
2.02184396656716
30
0
41
1
10
31.5166281105579
20
2.02211497019977
30
0
41
1
10
31.2182265034306
20
2.02225394429047
30
0
41
1
10
30.8216938514388
20
2.02337742230782
30
0
41
1
10
30.5000374139972
20
2.02147506770041
30
0
41
1
10
30.1914492465395
20
2.01958079188867
30
0
41
1
10
29.7204479093597
20
2.02048682719266
30
0
41
1
10
29.29417930957
20
2.01848316082018
30
0
41
1
10
28.8874165533626
20
2.01866930158883
30
0
41
1
10
28.6100231510344
20
2.01812805515573
30
0
41
1
10
28.3401229154627
20
2.01716345336632
30
0
41
1
10
28.1564092702486
20
2.01678391764932
30
0
41
1
10
28.1038843615538
20
2.01669420274448
30
0
0
SPLINE
5
9D
100
AcDbEntity
8
1
62
256
6
ByLayer
370
18
48
1
60
0
100
AcDbSpline
70
4
71
2
72
6
73
3
40
0
40
0
40
0
40
1
40
1
40
1
41
1
10
26.2607625233059
20
-0.0419188380087405
30
0
41
1
10
25.9290062765859
20
0.0590794851482315
30
0
41
1
10
25.6001501324234
20
0.245704700131228
30
0
0
SPLINE
5
9E
100
AcDbEntity
8
1
62
256
6
ByLayer
370
18
48
1
60
0
100
AcDbSpline
70
4
71
2
72
6
73
3
40
0
40
0
40
0
40
1
40
1
40
1
41
1
10
9.68063573202915
20
0.0421270425564444
30
0
41
1
10
10.0137358655582
20
-0.0576440187588503
30
0
41
1
10
10.343628070034
20
-0.249044034022973
30
0
0
SPLINE
5
9F
100
AcDbEntity
8
1
62
256
6
ByLayer
370
18
48
1
60
0
100
AcDbSpline
70
4
71
3
72
19
73
15
40
0
40
0
40
0
40
0
40
0.132679391356292
40
0.219360623896045
40
0.27560735874543
40
0.332408252314461
40
0.390499190075339
40
0.449467393503139
40
0.50925491566043
40
0.594307838345667
40
0.676803440108188
40
0.750993677240705
40
0.857008788667399
40
1
40
1
40
1
40
1
41
1
10
27.7325077294371
20
-2.01632269208085
30
0
41
1
10
27.9061665736591
20
-2.01640328045772
30
0
41
1
10
28.1932856849563
20
-2.01674759512463
30
0
41
1
10
28.554040443337
20
-2.01786917020107
30
0
41
1
10
28.8154796327343
20
-2.01858964279219
30
0
41
1
10
29.0394964216793
20
-2.01867217401099
30
0
41
1
10
29.2670751246482
20
-2.01852158861885
30
0
41
1
10
29.498563026195
20
-2.01912529019151
30
0
41
1
10
29.7653419345273
20
-2.02016208518521
30
0
41
1
10
30.0629191284609
20
-2.01984786080277
30
0
41
1
10
30.379351200039
20
-2.02018241842765
30
0
41
1
10
30.723209061215
20
-2.02337706829994
30
0
41
1
10
31.1462696958149
20
-2.02245421558058
30
0
41
1
10
31.4722116850344
20
-2.02233498981406
30
0
41
1
10
31.6593838598109
20
-2.0218946252042
30
0
0
SPLINE
5
A0
100
AcDbEntity
8
1
62
256
6
ByLayer
370
18
48
1
60
0
100
AcDbSpline
70
4
71
2
72
6
73
3
40
0
40
0
40
0
40
1
40
1
40
1
41
1
10
20.9307196973317
20
0.0421416215801287
30
0
41
1
10
21.2744373325824
20
-0.0624648006757411
30
0
41
1
10
21.5949897556858
20
-0.250103732836919
30
0
0
SPLINE
5
A1
100
AcDbEntity
8
1
62
256
6
ByLayer
370
18
48
1
60
0
100
AcDbSpline
70
4
71
2
72
6
73
3
40
0
40
0
40
0
40
1
40
1
40
1
41
1
10
15.0112354001834
20
-0.0420759955037511
30
0
41
1
10
14.7018515758225
20
0.0507072312867649
30
0
41
1
10
14.3952321064435
20
0.222925586992574
30
0
0
SPLINE
5
A2
100
AcDbEntity
8
1
62
256
6
ByLayer
370
18
48
1
60
0
100
AcDbSpline
70
4
71
3
72
17
73
13
40
0
40
0
40
0
40
0
40
0.148373988631864
40
0.249249618843017
40
0.333710900326373
40
0.42397463138197
40
0.514935257122509
40
0.739219235874238
40
0.790908991953275
40
0.864253436580165
40
0.975792314453241
40
1
40
1
40
1
40
1
41
1
10
20.44468204051
20
2.00314876868603
30
0
41
1
10
20.2705016517666
20
2.00343621237127
30
0
41
1
10
19.9778983003492
20
2.00346896777768
30
0
41
1
10
19.586107039764
20
2.00169180521593
30
0
41
1
10
19.2625832329149
20
2.00082943452821
30
0
41
1
10
18.950648141509
20
2.00137917454669
30
0
41
1
10
18.4745739513325
20
1.99914324134863
30
0
41
1
10
18.0437816994597
20
1.99954304015301
30
0
41
1
10
17.6336649713942
20
1.99773665496304
30
0
41
1
10
17.3559570242374
20
1.99703628945343
30
0
41
1
10
17.1104673135875
20
1.99696310004114
30
0
41
1
10
16.9511041768973
20
1.99668999918282
30
0
41
1
10
16.9226853487358
20
1.99663487074088
30
0
0
SPLINE
5
A3
100
AcDbEntity
8
1
62
256
6
ByLayer
370
18
48
1
60
0
100
AcDbSpline
70
4
71
3
72
16
73
12
40
0
40
0
40
0
40
0
40
0.108428953489572
40
0.217547296545113
40
0.303020533938523
40
0.388028893946482
40
0.474218075032784
40
0.581532218068976
40
0.677010145706658
40
0.80725536450232
40
1
40
1
40
1
40
1
41
1
10
5.93108002537428
20
-1.97736253005689
30
0
41
1
10
6.0489578953858
20
-1.97756330415621
30
0
41
1
10
6.28547608767482
20
-1.97795812227344
30
0
41
1
10
6.61506893661806
20
-1.97815285520662
30
0
41
1
10
6.91903379625918
20
-1.9788617356773
30
0
41
1
10
7.19818717658984
20
-1.97995340547925
30
0
41
1
10
7.50106419350726
20
-1.98008335406777
30
0
41
1
10
7.81533588224849
20
-1.98052710428939
30
0
41
1
10
8.17751509225616
20
-1.98144954630888
30
0
41
1
10
8.63260232085707
20
-1.98151015527088
30
0
41
1
10
8.98385529743206
20
-1.98256562672731
30
0
41
1
10
9.19346591715893
20
-1.9833273129839
30
0
0
SPLINE
5
A4
100
AcDbEntity
8
1
62
256
6
ByLayer
370
18
48
1
60
0
100
AcDbSpline
70
4
71
3
72
19
73
15
40
0
40
0
40
0
40
0
40
0.131748332800958
40
0.217857400034907
40
0.273931527988492
40
0.330349506361346
40
0.387856861572916
40
0.446349096247707
40
0.505762179069287
40
0.590086264755672
40
0.671636944244416
40
0.745258263439048
40
0.850190580352603
40
1
40
1
40
1
40
1
41
1
10
16.4808116107
20
-1.99536381281692
30
0
41
1
10
16.6548782606207
20
-1.99600840126021
30
0
41
1
10
16.9427189394079
20
-1.9968627261982
30
0
41
1
10
17.3046627304534
20
-1.99704201572769
30
0
41
1
10
17.567075506083
20
-1.99750862608909
30
0
41
1
10
17.7916940066057
20
-1.99844731153601
30
0
41
1
10
18.0195090232728
20
-1.99913614709138
30
0
41
1
10
18.2512825600455
20
-1.99913087637182
30
0
41
1
10
18.5184890574538
20
-1.99948703826416
30
0
41
1
10
18.8161593266809
20
-2.00095192998242
30
0
41
1
10
19.1326063713273
20
-2.0011813559455
30
0
41
1
10
19.4762838753827
20
-2.00092888505358
30
0
41
1
10
19.9101454831228
20
-2.00359260584645
30
0
41
1
10
20.2467373751722
20
-2.0034449141119
30
0
41
1
10
20.4446820405098
20
-2.00314876868617
30
0
0
SPLINE
5
A5
100
AcDbEntity
8
1
62
256
6
ByLayer
370
18
48
1
60
0
100
AcDbSpline
70
4
71
2
72
6
73
3
40
0
40
0
40
0
40
1
40
1
40
1
41
1
10
37.2403246239241
20
0.0535322865575267
30
0
41
1
10
37.0492198599666
20
0.132864798475623
30
0
41
1
10
36.8586004698104
20
0.240760532629366
30
0
0
SPLINE
5
A6
100
AcDbEntity
8
1
62
256
6
ByLayer
370
18
48
1
60
0
100
AcDbSpline
70
4
71
3
72
9
73
5
40
0
40
0
40
0
40
0
40
0.229892469251046
40
1
40
1
40
1
40
1
41
1
10
6.5847448967854
20
1.81436057231141
30
0
41
1
10
6.62695019336311
20
1.80478328006123
30
0
41
1
10
6.81057563398676
20
1.76041943008138
30
0
41
1
10
6.99453520761097
20
1.70442308170303
30
0
41
1
10
7.13626632587085
20
1.65429617354886
30
0
0
SPLINE
5
A7
100
AcDbEntity
8
1
62
256
6
ByLayer
370
18
48
1
60
0
100
AcDbSpline
70
4
71
3
72
17
73
13
40
0
40
0
40
0
40
0
40
0.152650524300668
40
0.261588771689819
40
0.340746047714688
40
0.423891725775198
40
0.509968436075067
40
0.595985775791876
40
0.678459892325533
40
0.758827530560383
40
0.881495637947019
40
1
40
1
40
1
40
1
41
1
10
9.1934659171589
20
1.98332731298402
30
0
41
1
10
9.02749712224303
20
1.98269535945087
30
0
41
1
10
8.74308311256326
20
1.98185373382245
30
0
41
1
10
8.37243574849686
20
1.98145106051845
30
0
41
1
10
8.07761423226404
20
1.98122586567888
30
0
41
1
10
7.80747329360412
20
1.98052242783393
30
0
41
1
10
7.52989795641543
20
1.98009839487821
30
0
41
1
10
7.25304428216211
20
1.9800191804537
30
0
41
1
10
6.98240600107843
20
1.97916328338692
30
0
41
1
10
6.67189505026096
20
1.97815785597558
30
0
41
1
10
6.32228757301937
20
1.97799132924518
30
0
41
1
10
6.05999720123316
20
1.97754857062782
30
0
41
1
10
5.9311120814474
20
1.97735018607381
30
0
0
SPLINE
5
A8
100
AcDbEntity
8
1
62
256
6
ByLayer
370
18
48
1
60
0
100
AcDbSpline
70
4
71
2
72
6
73
3
40
0
40
0
40
0
40
1
40
1
40
1
41
1
10
32.1800240949318
20
0.0423116146615712
30
0
41
1
10
32.5353452637273
20
-0.0660632577723561
30
0
41
1
10
32.8856705016252
20
-0.270799537360574
30
0
0
SPLINE
5
A9
100
AcDbEntity
8
1
62
256
6
ByLayer
370
13
48
1
60
0
100
AcDbSpline
70
4
71
3
72
115
73
111
40
0
40
0
40
0
40
0
40
0.0055895055493109
40
0.0209377384416722
40
0.047797146003301
40
0.0516342042263954
40
0.0593083206725722
40
0.0669824371187521
40
0.0784936117880198
40
0.0823306700111164
40
0.0900047864572941
40
0.0976789029034765
40
0.107271548461197
40
0.113027135795837
40
0.118782723130466
40
0.12837536868819
40
0.143723601580552
40
0.170583009142184
40
0.174420067365279
40
0.182094183811454
40
0.189768300257635
40
0.201279474926904
40
0.205116533149999
40
0.212790649596179
40
0.220464766042354
40
0.231975940711625
40
0.23581299893472
40
0.243487115380896
40
0.25116123182708
40
0.262672406496349
40
0.266509464719441
40
0.274183581165621
40
0.281857697611798
40
0.291450343169524
40
0.297205930504162
40
0.302961517838791
40
0.312554163396521
40
0.327902396288878
40
0.354761803850509
40
0.358598862073603
40
0.366272978519777
40
0.373947094965961
40
0.385458269635232
40
0.389295327858324
40
0.396969444304501
40
0.40464356075068
40
0.416154735419952
40
0.419991793643045
40
0.427665910089223
40
0.435340026535401
40
0.446851201204674
40
0.450688259427766
40
0.458362375873942
40
0.466036492320122
40
0.475629137877849
40
0.481384725212486
40
0.487140312547116
40
0.496732958104842
40
0.51208119099721
40
0.538940598558835
40
0.542777656781928
40
0.550451773228107
40
0.558125889674287
40
0.56963706434356
40
0.573474122566648
40
0.581148239012829
40
0.588822355459003
40
0.600333530128276
40
0.60417058835137
40
0.611844704797545
40
0.619518821243728
40
0.631029995912996
40
0.63486705413609
40
0.642541170582267
40
0.650215287028444
40
0.659807932586171
40
0.665563519920811
40
0.671319107255443
40
0.68091175281317
40
0.696259985705528
40
0.723119393267158
40
0.726956451490252
40
0.734630567936428
40
0.742304684382608
40
0.753815859051883
40
0.757652917274973
40
0.76532703372115
40
0.773001150167329
40
0.782593795725053
40
0.788349383059694
40
0.794104970394328
40
0.80369761595205
40
0.819045848844411
40
0.842068198182952
40
0.849742314629136
40
0.865090547521492
40
0.880438780413851
40
0.907298187975484
40
0.911135246198577
40
0.918809362644754
40
0.926483479090933
40
0.937994653760204
40
0.941831711983298
40
0.949505828429475
40
0.957179944875654
40
0.966772590433379
40
0.972528177768019
40
0.978283765102651
40
0.987876410660376
40
1
40
1
40
1
40
1
41
1.00000000000002
10
32.1996900569724
20
0.0363515482574136
30
0
41
1.00000000000002
10
32.185226467237
20
0.0407360070712732
30
0
41
1.00000000000002
10
32.1310467464713
20
0.0571509777947187
30
0
41
1.00000000000002
10
32.0073632949932
20
0.0945622949373594
30
0
41
1.00000000000002
10
31.8882331822269
20
0.130622555121929
30
0
41
1.00000000000002
10
31.7889609202333
20
0.160587211145465
30
0
41
1.00000000000002
10
31.7393175702792
20
0.17547588468852
30
0
41
1.00000000000002
10
31.6698177777588
20
0.196259827114939
30
0
41
1.00000000000002
10
31.6102496074516
20
0.214033889268587
30
0
41
1.00000000000002
10
31.5506802421644
20
0.231749698222723
30
0
41
1.00000000000002
10
31.5010367195769
20
0.246449283602141
30
0
41
1.00000000000002
10
31.4365018095626
20
0.265489060552846
30
0
41
1.00000000000002
10
31.376932684047
20
0.282995130458454
30
0
41
1.00000000000002
10
31.3223273620786
20
0.298977928017046
30
0
41
1.00000000000002
10
31.2677188816147
20
0.314877846373428
30
0
41
1.00000000000002
10
31.1882861917935
20
0.337857518514873
30
0
41
1.00000000000002
10
31.0542385544091
20
0.376224227105459
30
0
41
1.00000000000002
10
30.9351081897112
20
0.409984516535806
30
0
41
1.00000000000002
10
30.8358357170038
20
0.437779670190215
30
0
41
1.00000000000002
10
30.7861922383976
20
0.451526396570519
30
0
41
1.00000000000002
10
30.716692210789
20
0.470623985234785
30
0
41
1.00000000000002
10
30.6571237984373
20
0.486861897297974
30
0
41
1.00000000000002
10
30.5975541729862
20
0.50296595023342
30
0
41
1.00000000000002
10
30.5479104645129
20
0.516273628740652
30
0
41
1.00000000000002
10
30.4784103365822
20
0.534736426611334
30
0
41
1.00000000000002
10
30.4188419918177
20
0.550409232364234
30
0
41
1.00000000000002
10
30.3592725307416
20
0.565930903773948
30
0
41
1.00000000000002
10
30.3096289818371
20
0.578742422504421
30
0
41
1.00000000000002
10
30.2401290675237
20
0.59649117917762
30
0
41
1.00000000000002
10
30.1805608803416
20
0.611531141612219
30
0
41
1.00000000000002
10
30.1209915344188
20
0.62640255175829
30
0
41
1.00000000000002
10
30.071348033551
20
0.638661281016099
30
0
41
1.00000000000002
10
30.0068131529928
20
0.654414169844998
30
0
41
1.00000000000002
10
29.947244058372
20
0.668768139098674
30
0
41
1.00000000000002
10
29.8926387684318
20
0.68176409080182
30
0
41
1.00000000000002
10
29.8380303268425
20
0.694601669183967
30
0
41
1.00000000000002
10
29.7585977127156
20
0.712986763080791
30
0
41
1.00000000000002
10
29.6245502488721
20
0.743221378896164
30
0
41
1.00000000000002
10
29.5054200951158
20
0.769213421747634
30
0
41
1.00000000000002
10
29.4061478192937
20
0.790204821394991
30
0
41
1.00000000000002
10
29.3565044434393
20
0.800484544825719
30
0
41
1.00000000000002
10
29.287004561647
20
0.814617151948323
30
0
41
1.00000000000002
10
29.2274362688861
20
0.826481007616206
30
0
41
1.00000000000002
10
29.1678667499913
20
0.83811505792222
30
0
41
1.00000000000002
10
29.1182231188684
20
0.847639190719331
30
0
41
1.00000000000002
10
29.0487230738207
20
0.860699252055109
30
0
41
1.00000000000002
10
28.9891547704104
20
0.871627703039063
30
0
41
1.00000000000002
10
28.9295853230676
20
0.882313720779375
30
0
41
1.00000000000002
10
28.8799417749901
20
0.891040616699238
30
0
41
1.00000000000002
10
28.8104418567664
20
0.902970985846091
30
0
41
1.00000000000002
10
28.7508736673544
20
0.912916140076201
30
0
41
1.00000000000002
10
28.6913043299902
20
0.922607227843295
30
0
41
1.00000000000002
10
28.6416608379096
20
0.930498544648722
30
0
41
1.00000000000002
10
28.5771259619737
20
0.940487174774014
30
0
41
1.00000000000002
10
28.5175568625961
20
0.949430028274841
30
0
41
1.00000000000002
10
28.4629515578134
20
0.957392605421412
30
0
41
1.00000000000002
10
28.4083430940742
20
0.965145363936536
30
0
41
1.00000000000002
10
28.3289104391676
20
0.976037923457661
30
0
41
1.00000000000002
10
28.1948628910939
20
0.993371638831469
30
0
41
1.00000000000002
10
28.0757326610317
20
1.0074938719329
30
0
41
1.00000000000002
10
27.9764603439198
20
1.01837063081943
30
0
41
1.00000000000002
10
27.9268169529042
20
1.02356231417858
30
0
41
1.00000000000002
10
27.8573170573162
20
1.03050203533463
30
0
41
1.00000000000002
10
27.7977487567843
20
1.03612235668783
30
0
41
1.00000000000002
10
27.7381792294779
20
1.04145375647705
30
0
41
1.00000000000002
10
27.688535582827
20
1.04569444857095
30
0
41
1.00000000000002
10
27.6190354979887
20
1.0512957838416
30
0
41
1.00000000000002
10
27.5594671479404
20
1.05576029654842
30
0
41
1.00000000000002
10
27.4998976504679
20
1.05992991308668
30
0
41
1.00000000000002
10
27.4502540636937
20
1.06320002387642
30
0
41
1.00000000000002
10
27.3807541013664
20
1.06743688343469
30
0
41
1.00000000000002
10
27.3211858846887
20
1.07072480725581
30
0
41
1.00000000000002
10
27.2616165287716
20
1.07371348238289
30
0
41
1.00000000000002
10
27.2119730273652
20
1.07599820863638
30
0
41
1.00000000000002
10
27.1474381474669
20
1.078654360121
30
0
41
1.00000000000002
10
27.0878690496487
20
1.08078227550013
30
0
41
1.00000000000002
10
27.0332637474983
20
1.08246160304922
30
0
41
1.00000000000002
10
26.978655284272
20
1.08391261528673
30
0
41
1.00000000000002
10
26.8992226258154
20
1.08560255298625
30
0
41
1.00000000000002
10
26.7651750737736
20
1.08731158949772
30
0
41
1.00000000000002
10
26.6460448745309
20
1.08733717470176
30
0
41
1.00000000000002
10
26.5467726363561
20
1.08637510565294
30
0
41
1.00000000000002
10
26.4971293024427
20
1.08565371009366
30
0
41
1.00000000000002
10
26.4276295252832
20
1.08429447614103
30
0
41
1.00000000000002
10
26.3680613634884
20
1.08277249888622
30
0
41
1.00000000000002
10
26.3084920022832
20
1.08094681242713
30
0
41
1.00000000000002
10
26.2588484986795
20
1.07922328312472
30
0
41
1.00000000000002
10
26.1943136596009
20
1.07666694306474
30
0
41
1.00000000000002
10
26.1347446467233
20
1.07398111692885
30
0
41
1.00000000000002
10
26.0801394697473
20
1.07124823933817
30
0
41
1.00000000000002
10
26.0255311516664
20
1.06829560093946
30
0
41
1.00000000000002
10
25.9460986930707
20
1.06359491171137
30
0
41
1.00000000000002
10
25.8219838828547
20
1.05524852706777
30
0
41
1.00000000000002
10
25.7028506086282
20
1.04586571681384
30
0
41
1.00000000000002
10
25.5837148610482
20
1.03532359089602
30
0
41
1.00000000000002
10
25.4844250545691
20
1.02578209724482
30
0
41
1.00000000000002
10
25.3354888835944
20
1.01005657410247
30
0
41
1.00000000000002
10
25.2163584270936
20
0.996010028740564
30
0
41
1.00000000000002
10
25.1170858749453
20
0.983399031932727
30
0
41
1.00000000000002
10
25.0674423802404
20
0.976900177734003
30
0
41
1.00000000000002
10
24.9979423895825
20
0.967491003720092
30
0
41
1.00000000000002
10
24.9383740590352
20
0.959099594957487
30
0
41
1.00000000000002
10
24.8788045465913
20
0.950438617778169
30
0
41
1.00000000000002
10
24.8291609129016
20
0.943051234011287
30
0
41
1.00000000000002
10
24.7646258849745
20
0.933169914529552
30
0
41
1.00000000000002
10
24.7050566823762
20
0.923759996914194
30
0
41
1.00000000000002
10
24.6504513203886
20
0.914896490091062
30
0
41
1.00000000000002
10
24.5958428233178
20
0.905851847522096
30
0
41
1.00000000000002
10
24.5247544981451
20
0.893776540380154
30
0
41
1.00000000000002
10
24.4685580165295
20
0.8839003456148
30
0
41
1.00000000000002
10
24.4371863017222
20
0.878286848857281
30
0
0
SPLINE
5
AA
100
AcDbEntity
8
1
62
256
6
ByLayer
370
13
48
1
60
0
100
AcDbSpline
70
4
71
3
72
38
73
34
40
0
40
0
40
0
40
0
40
0.0286682813837532
40
0.123103309582555
40
0.136594027896672
40
0.163575464524901
40
0.19055690115313
40
0.231029056095473
40
0.244519774409587
40
0.271501211037816
40
0.298482647666046
40
0.33895480260839
40
0.352445520922504
40
0.379426957550732
40
0.406408394178961
40
0.446880549121305
40
0.46037126743542
40
0.487352704063649
40
0.514334140691878
40
0.548060936477165
40
0.568297013948337
40
0.588533091419507
40
0.622259887204795
40
0.676222760461252
40
0.770657788660054
40
0.784148506974169
40
0.811129943602398
40
0.838111380230627
40
0.875210855594441
40
0.892074253487084
40
0.908937651379728
40
0.946037126743543
40
1
40
1
40
1
40
1
41
1.00000000000002
10
9.70201530513426
20
0.0356597002512152
30
0
41
1.00000000000002
10
9.68091529455375
20
0.0420424975584117
30
0
41
1.00000000000002
10
9.59031161230413
20
0.0694479399551241
30
0
41
1.00000000000002
10
9.48979503640933
20
0.0999281141510245
30
0
41
1.00000000000002
10
9.3905226751223
20
0.129980263718917
30
0
41
1.00000000000002
10
9.3408792624065
20
0.144920591730962
30
0
41
1.00000000000002
10
9.27137933742995
20
0.165788942941727
30
0
41
1.00000000000002
10
9.21181101957291
20
0.18364771945323
30
0
41
1.00000000000002
10
9.15224148735695
20
0.201458395322756
30
0
41
1.00000000000002
10
9.1025978573548
20
0.216243600434235
30
0
41
1.00000000000002
10
9.03309783648923
20
0.236870932440065
30
0
41
1.00000000000002
10
8.9735295723196
20
0.254498729243147
30
0
41
1.00000000000002
10
8.91396017341828
20
0.272057959309899
30
0
41
1.00000000000002
10
8.86431666451891
20
0.286620248799204
30
0
41
1.00000000000002
10
8.79481678997255
20
0.306912472361113
30
0
41
1.00000000000002
10
8.73524862363023
20
0.32422925974651
30
0
41
1.00000000000002
10
8.67567929360969
20
0.341457595340437
30
0
41
1.00000000000002
10
8.62603580054103
20
0.355731232257049
30
0
41
1.00000000000002
10
8.56150091772632
20
0.374186003992114
30
0
41
1.00000000000002
10
8.50193180910667
20
0.391119663436391
30
0
41
1.00000000000002
10
8.44732649675313
20
0.406550880663749
30
0
41
1.00000000000002
10
8.39271802901808
20
0.421877863699867
30
0
41
1.00000000000002
10
8.3132853765403
20
0.443984591503086
30
0
41
1.00000000000002
10
8.17923784855259
20
0.480771034553773
30
0
41
1.00000000000002
10
8.06010764626177
20
0.51297757383465
30
0
41
1.00000000000002
10
7.96083534360918
20
0.539384454407627
30
0
41
1.00000000000002
10
7.91119195598344
20
0.552417276756688
30
0
41
1.00000000000002
10
7.84417461211178
20
0.569842503893414
30
0
41
1.00000000000002
10
7.78460593730921
20
0.58516834895555
30
0
41
1.00000000000002
10
7.73248335090753
20
0.598447522796293
30
0
41
1.00000000000002
10
7.68035671982103
20
0.611595017576904
30
0
41
1.00000000000002
10
7.6009246321693
20
0.631377003135115
30
0
41
1.00000000000002
10
7.53391327268362
20
0.647835955014401
30
0
41
1.00000000000002
10
7.49420313814955
20
0.657482654329542
30
0
0
SPLINE
5
AB
100
AcDbEntity
8
1
62
256
6
ByLayer
370
18
48
1
60
0
100
AcDbSpline
70
4
71
3
72
8
73
4
40
0
40
0
40
0
40
0
40
1
40
1
40
1
40
1
41
1
10
37.9997065649529
20
0.0697951510639712
30
0
41
1
10
37.9556572588379
20
0.195178477395928
30
0
41
1
10
37.9133037327767
20
0.322589153803932
30
0
41
1
10
37.8724235811389
20
0.452142506252613
30
0
0
SPLINE
5
AC
100
AcDbEntity
8
1
62
256
6
ByLayer
370
18
48
1
60
0
100
AcDbSpline
70
4
71
3
72
10
73
6
40
0
40
0
40
0
40
0
40
0.5
40
0.5
40
1
40
1
40
1
40
1
41
1
10
5.57620572563232
20
-1.16590963614138
30
0
41
1
10
5.63408518492796
20
-1.17150808508112
30
0
41
1
10
5.69260830623784
20
-1.18153220812164
30
0
41
1
10
5.81079622630114
20
-1.20932722104189
30
0
41
1
10
5.87070335415436
20
-1.22720118432639
30
0
41
1
10
5.93041643833231
20
-1.24857603280373
30
0
0
SPLINE
5
AD
100
AcDbEntity
8
1
62
256
6
ByLayer
370
18
48
1
60
0
100
AcDbSpline
70
4
71
3
72
8
73
4
40
0
40
0
40
0
40
0
40
1
40
1
40
1
40
1
41
1
10
37.9997065649529
20
0.0697951510638859
30
0
41
1
10
38.0000978116831
20
0.0232650503546097
30
0
41
1
10
38.0000978116831
20
-0.0232650503546381
30
0
41
1
10
37.9997065649529
20
-0.0697951510639143
30
0
0
SPLINE
5
AE
100
AcDbEntity
8
1
62
256
6
ByLayer
370
18
48
1
60
0
100
AcDbSpline
70
4
71
3
72
8
73
4
40
0
40
0
40
0
40
0
40
1
40
1
40
1
40
1
41
1
10
37.9997065649529
20
-0.0697951510639427
30
0
41
1
10
37.955428532161
20
-0.195829532181762
30
0
41
1
10
37.9130858351205
20
-0.32327969360685
30
0
41
1
10
37.8724235811389
20
-0.452142506252755
30
0
0
SPLINE
5
AF
100
AcDbEntity
8
1
62
256
6
ByLayer
370
18
48
1
60
0
100
AcDbSpline
70
4
71
3
72
24
73
20
40
0
40
0
40
0
40
0
40
0.17720940283598
40
0.17720940283598
40
0.354418805671959
40
0.354418805671959
40
0.443023507089949
40
0.443023507089949
40
0.531628208507939
40
0.531628208507939
40
0.620232909925929
40
0.620232909925929
40
0.708837611343919
40
0.708837611343919
40
0.797442312761908
40
0.797442312761908
40
0.886047014179898
40
0.886047014179898
40
1
40
1
40
1
40
1
41
1
10
37.074486753339
20
0.118739388500671
30
0
41
1
10
36.7552376166785
20
0.299610672044992
30
0
41
1
10
36.4361271530617
20
0.478729487316315
30
0
41
1
10
35.7948662976013
20
0.822814007068672
30
0
41
1
10
35.4758722482412
20
0.986099488483887
30
0
41
1
10
34.9958606168633
20
1.21138938819229
30
0
41
1
10
34.8352419660521
20
1.28300836722707
30
0
41
1
10
34.5151998306397
20
1.4177601325936
30
0
41
1
10
34.3554682028106
20
1.48087345684922
30
0
41
1
10
34.035576459435
20
1.5980768090534
30
0
41
1
10
33.8753714792243
20
1.65248325910107
30
0
41
1
10
33.5548368450111
20
1.75122475437115
30
0
41
1
10
33.3948018441892
20
1.79495684283896
30
0
41
1
10
33.0749934380615
20
1.8715748394178
30
0
41
1
10
32.9151668224032
20
1.9046551634226
30
0
41
1
10
32.5949845286579
20
1.95875977374357
30
0
41
1
10
32.434410267356
20
1.9792117242047
30
0
41
1
10
32.0699159272996
20
2.01238433416685
30
0
41
1
10
31.865599647311
20
2.0218678818394
30
0
41
1
10
31.6616185243742
20
2.02191949028702
30
0
0
SPLINE
5
B0
100
AcDbEntity
8
1
62
256
6
ByLayer
370
18
48
1
60
0
100
AcDbSpline
70
4
71
3
72
68
73
64
40
0
40
0
40
0
40
0
40
0.0279720790977458
40
0.0279720790977458
40
0.0614706447491947
40
0.0614706447491947
40
0.0949692104006434
40
0.0949692104006434
40
0.128467776052092
40
0.128467776052092
40
0.161966341703541
40
0.161966341703541
40
0.19546490735499
40
0.19546490735499
40
0.228963473006439
40
0.228963473006439
40
0.262462038657888
40
0.262462038657888
40
0.295960604309337
40
0.295960604309337
40
0.329459169960786
40
0.329459169960786
40
0.362957735612234
40
0.362957735612234
40
0.396456301263683
40
0.396456301263683
40
0.429954866915132
40
0.429954866915132
40
0.463453432566581
40
0.463453432566581
40
0.49695199821803
40
0.49695199821803
40
0.530450563869479
40
0.530450563869479
40
0.563949129520928
40
0.563949129520928
40
0.597447695172377
40
0.597447695172377
40
0.630946260823825
40
0.630946260823825
40
0.664444826475274
40
0.664444826475274
40
0.697943392126723
40
0.697943392126723
40
0.731441957778171
40
0.731441957778171
40
0.76494052342962
40
0.76494052342962
40
0.798439089081069
40
0.798439089081069
40
0.831937654732517
40
0.831937654732517
40
0.865436220383966
40
0.865436220383966
40
0.898934786035415
40
0.898934786035415
40
0.932433351686863
40
0.932433351686863
40
0.965931917338312
40
0.965931917338312
40
0.99943048298976
40
0.99943048298976
40
1
40
1
40
1
40
1
41
1
10
23.555958971237
20
-1.28394151755418
30
0
41
1
10
23.4221810381386
20
-1.3414391974062
30
0
41
1
10
23.2883755143089
20
-1.39632908662574
30
0
41
1
10
22.9937604157524
20
-1.51104391673988
30
0
41
1
10
22.832797751393
20
-1.5690040487203
30
0
41
1
10
22.5121915614361
20
-1.67414844634951
30
0
41
1
10
22.3519912889684
20
-1.72146120462807
30
0
41
1
10
22.0313462737329
20
-1.80706197770402
30
0
41
1
10
21.8705721246498
20
-1.8446239895774
30
0
41
1
10
21.5493511388908
20
-1.90743691095096
30
0
41
1
10
21.3890256654123
20
-1.93267168214865
30
0
41
1
10
21.0684081138308
20
-1.97359215546467
30
0
41
1
10
20.9080907366729
20
-1.98806829427394
30
0
41
1
10
20.5868841754507
20
-2.00363244944606
30
0
41
1
10
20.4260720274897
20
-2.00485630413581
30
0
41
1
10
20.1049723494077
20
-1.99754704352571
30
0
41
1
10
19.944557635005
20
-1.98800092941457
30
0
41
1
10
19.6236328577535
20
-1.95544152646809
30
0
41
1
10
19.4626701355077
20
-1.93267182460733
30
0
41
1
10
19.1410266333702
20
-1.87773153872388
30
0
41
1
10
18.9806336252026
20
-1.84480550857623
30
0
41
1
10
18.6596797420253
20
-1.76662517527663
30
0
41
1
10
18.4991598370994
20
-1.72174797517445
30
0
41
1
10
18.177536735751
20
-1.62311192314783
30
0
41
1
10
18.0166409976788
20
-1.56912735977463
30
0
41
1
10
17.6956270882452
20
-1.45057432179206
30
0
41
1
10
17.5353711236001
20
-1.38636678378356
30
0
41
1
10
17.2141057677225
20
-1.25198393330999
30
0
41
1
10
17.0530029184234
20
-1.1813309550692
30
0
41
1
10
16.7316445698866
20
-1.03134269351443
30
0
41
1
10
16.5714262401904
20
-0.952408606729165
30
0
41
1
10
16.2504422433398
20
-0.791453327998113
30
0
41
1
10
16.0900578605161
20
-0.708659057103006
30
0
41
1
10
15.7682891505385
20
-0.538453870601387
30
0
41
1
10
15.607470965194
20
-0.450749680872207
30
0
41
1
10
15.286297611689
20
-0.274686577257967
30
0
41
1
10
15.1259323346979
20
-0.185621948680279
30
0
41
1
10
14.8044915807247
20
-0.0071326015807642
30
0
41
1
10
14.643380546198
20
0.0829347753607976
30
0
41
1
10
14.3216114602208
20
0.261290194490613
30
0
41
1
10
14.160962581606
20
0.34982669701094
30
0
41
1
10
13.8396190770484
20
0.524241931759633
30
0
41
1
10
13.6790622303388
20
0.610091937269942
30
0
41
1
10
13.3566199602597
20
0.777493630330468
30
0
41
1
10
13.1956724581791
20
0.859378714926123
30
0
41
1
10
12.8741746928499
20
1.0170459880473
30
0
41
1
10
12.7136381722298
20
1.09235544709929
30
0
41
1
10
12.3918682670532
20
1.23675584872288
30
0
41
1
10
12.2306615911268
20
1.30621468773333
30
0
41
1
10
11.9087112769776
20
1.43569281640484
30
0
41
1
10
11.7482359124219
20
1.49533995450091
30
0
41
1
10
11.426783283899
20
1.60608369389396
30
0
41
1
10
11.2660019528761
20
1.65752953697836
30
0
41
1
10
10.943549407941
20
1.74984117264097
30
0
41
1
10
10.7830435392132
20
1.78978060603694
30
0
41
1
10
10.4615277432964
20
1.85887429437349
30
0
41
1
10
10.300945916226
20
1.88875776493094
30
0
41
1
10
9.97910107382805
20
1.936723698478
30
0
41
1
10
9.81792606413669
20
1.95419889141641
30
0
41
1
10
9.49619441354778
20
1.9770651824069
30
0
41
1
10
9.33565206599746
20
1.98338063204974
30
0
41
1
10
9.17205813287657
20
1.98329210223559
30
0
41
1
10
9.16932330417256
20
1.98328874659015
30
0
41
1
10
9.16658845009442
20
1.98328351936769
30
0
0
SPLINE
5
B1
100
AcDbEntity
8
1
62
256
6
ByLayer
370
18
48
1
60
0
100
AcDbSpline
70
4
71
3
72
8
73
4
40
0
40
0
40
0
40
0
40
1
40
1
40
1
40
1
41
1
10
37.8724235811389
20
-0.452142506252755
30
0
41
1
10
37.8439141447827
20
-0.542491805567721
30
0
41
1
10
37.8154789321932
20
-0.632864183109746
30
0
41
1
10
37.7871180572711
20
-0.723259674293757
30
0
0
SPLINE
5
B2
100
AcDbEntity
8
1
62
256
6
ByLayer
370
18
48
1
60
0
100
AcDbSpline
70
4
71
3
72
8
73
4
40
0
40
0
40
0
40
0
40
1
40
1
40
1
40
1
41
1
10
37.6544636756612
20
1.08363424717191
30
0
41
1
10
37.6958986430944
20
0.957392440317847
30
0
41
1
10
37.7400825221847
20
0.837781789277926
30
0
41
1
10
37.7871180572711
20
0.723259674293729
30
0
0
SPLINE
5
B3
100
AcDbEntity
8
1
62
256
6
ByLayer
370
18
48
1
60
0
100
AcDbSpline
70
4
71
3
72
12
73
8
40
0
40
0
40
0
40
0
40
0.5
40
0.5
40
0.75
40
0.75
40
1
40
1
40
1
40
1
41
1
10
37.0744867533391
20
0.118739388500671
30
0
41
1
10
37.0499318881908
20
-0.0611691373133851
30
0
41
1
10
37.0373908023419
20
-0.239899692580906
30
0
41
1
10
37.0369469195926
20
-0.506194538192347
30
0
41
1
10
37.0399498715691
20
-0.593976793491947
30
0
41
1
10
37.051984563609
20
-0.763670112087453
30
0
41
1
10
37.0610104745499
20
-0.846184486573122
30
0
41
1
10
37.0730526269509
20
-0.926360625277823
30
0
0
SPLINE
5
B4
100
AcDbEntity
8
1
62
256
6
ByLayer
370
18
48
1
60
0
100
AcDbSpline
70
4
71
3
72
26
73
22
40
0
40
0
40
0
40
0
40
0.03125
40
0.03125
40
0.0624999999999999
40
0.0624999999999999
40
0.125
40
0.125
40
0.1875
40
0.1875
40
0.25
40
0.25
40
0.375
40
0.375
40
0.5
40
0.5
40
0.625
40
0.625
40
0.75
40
0.75
40
1
40
1
40
1
40
1
41
1
10
2.49725877813225
20
1.70470216096948
30
0
41
1
10
2.51436368673558
20
1.72184919753664
30
0
41
1
10
2.53532366644484
20
1.73718751914041
30
0
41
1
10
2.58175562227817
20
1.76448379022838
30
0
41
1
10
2.60757123177953
20
1.77666776130951
30
0
41
1
10
2.68968841202161
20
1.80950785235399
30
0
41
1
10
2.74938060693813
20
1.82627125403917
30
0
41
1
10
2.87448254635953
20
1.85455991257729
30
0
41
1
10
2.94010551501981
20
1.86594984442721
30
0
41
1
10
3.07238741717907
20
1.88491825653955
30
0
41
1
10
3.13952544706126
20
1.89256979837501
30
0
41
1
10
3.34321594534367
20
1.91185990048532
30
0
41
1
10
3.4828208672073
20
1.91994865796661
30
0
41
1
10
3.76250846331297
20
1.93021717661515
30
0
41
1
10
3.90205403226656
20
1.93234007931755
30
0
41
1
10
4.18063143074903
20
1.93180384876885
30
0
41
1
10
4.31966128940863
20
1.92911708268065
30
0
41
1
10
4.59721522698172
20
1.91843720640307
30
0
41
1
10
4.73653266997241
20
1.91036217200758
30
0
41
1
10
5.14669694360111
20
1.87615397504581
30
0
41
1
10
5.40953338496436
20
1.84045199452314
30
0
41
1
10
5.66251885981455
20
1.78270874355718
30
0
0
SPLINE
5
B5
100
AcDbEntity
8
1
62
256
6
ByLayer
370
18
48
1
60
0
100
AcDbSpline
70
4
71
3
72
14
73
10
40
0
40
0
40
0
40
0
40
0.25
40
0.25
40
0.5
40
0.5
40
0.75
40
0.75
40
1
40
1
40
1
40
1
41
1
10
6.58874588299398
20
-0.801077841332244
30
0
41
1
10
6.6426940260564
20
-0.702649079098279
30
0
41
1
10
6.71209759457261
20
-0.581425824031669
30
0
41
1
10
6.86820957848838
20
-0.317155159516432
30
0
41
1
10
6.95481286458406
20
-0.174285715847958
30
0
41
1
10
7.12813615655941
20
0.104913004151086
30
0
41
1
10
7.21473944265506
20
0.241054261814867
30
0
41
1
10
7.37085142657088
20
0.479731188348183
30
0
41
1
10
7.44025499508706
20
0.582106126833565
30
0
41
1
10
7.49420313814949
20
0.657482654329527
30
0
0
SPLINE
5
B6
100
AcDbEntity
8
1
62
256
6
ByLayer
370
18
48
1
60
0
100
AcDbSpline
70
4
71
3
72
19
73
15
40
0
40
0
40
0
40
0
40
0.140458014287911
40
0.140458014287911
40
0.280916028575822
40
0.421374042863733
40
0.421374042863733
40
0.561832057151644
40
0.561832057151644
40
0.702290071439554
40
0.702290071439554
40
0.842748085727465
40
0.842748085727465
40
1
40
1
40
1
40
1
41
1
10
5.57620572563229
20
-1.16590963614138
30
0
41
1
10
5.57606880627279
20
-1.24148697887259
30
0
41
1
10
5.5759333488968
20
-1.31445793685884
30
0
41
1
10
5.57567652370273
20
-1.45032493321997
30
0
41
1
10
5.57543271498255
20
-1.57673228207994
30
0
41
1
10
5.5752099630715
20
-1.68457000505902
30
0
41
1
10
5.57499136208449
20
-1.78277810025162
30
0
41
1
10
5.57488581985717
20
-1.82625122373039
30
0
41
1
10
5.57467388166515
20
-1.90140536724422
30
0
41
1
10
5.5745671405731
20
-1.93325452828179
30
0
41
1
10
5.57433865232287
20
-1.98539087160347
30
0
41
1
10
5.57421585995465
20
-2.00573179151647
30
0
41
1
10
5.57392951478892
20
-2.03519318097867
30
0
41
1
10
5.57376282386196
20
-2.04302400318048
30
0
41
1
10
5.57356894266837
20
-2.04303944557665
30
0
0
SPLINE
5
B7
100
AcDbEntity
8
1
62
256
6
ByLayer
370
18
48
1
60
0
100
AcDbSpline
70
4
71
3
72
22
73
18
40
0
40
0
40
0
40
0
40
0.125
40
0.125
40
0.25
40
0.25
40
0.375
40
0.375
40
0.5
40
0.5
40
0.625
40
0.625
40
0.75
40
0.75
40
0.875
40
0.875
40
1
40
1
40
1
40
1
41
1
10
37.6497645609386
20
-0.41898654059662
30
0
41
1
10
37.6601147606043
20
-0.424787843904028
30
0
41
1
10
37.6712541466309
20
-0.426862317371274
30
0
41
1
10
37.6952602520679
20
-0.423604022863543
30
0
41
1
10
37.7082368149361
20
-0.418195006005277
30
0
41
1
10
37.7356781596665
20
-0.399821239571253
30
0
41
1
10
37.7499446841408
20
-0.387046924050253
30
0
41
1
10
37.7796409622646
20
-0.35462962263577
30
0
41
1
10
37.7952316145507
20
-0.334737354031859
30
0
41
1
10
37.8267507165221
20
-0.289264383269739
30
0
41
1
10
37.8426667634709
20
-0.263769751761714
30
0
41
1
10
37.8748231592648
20
-0.207583606324135
30
0
41
1
10
37.8911641481577
20
-0.176656414239659
30
0
41
1
10
37.9231346388886
20
-0.111710797129689
30
0
41
1
10
37.9388735498877
20
-0.0775258453858498
30
0
41
1
10
37.969840429382
20
-0.0059196770627068
30
0
41
1
10
37.9851200488711
20
0.0316695513193679
30
0
41
1
10
37.999706564953
20
0.069795151064028
30
0
0
SPLINE
5
B8
100
AcDbEntity
8
1
62
256
6
ByLayer
370
18
48
1
60
0
100
AcDbSpline
70
4
71
3
72
10
73
6
40
0
40
0
40
0
40
0
40
0.5
40
0.5
40
1
40
1
40
1
40
1
41
1
10
5.66251885981484
20
1.78270874355712
30
0
41
1
10
6.02364486943031
20
1.70028270777027
30
0
41
1
10
6.38482821848569
20
1.60323307378604
30
0
41
1
10
7.10692905398059
20
1.38352538588415
30
0
41
1
10
7.46785095119262
20
1.26081161335801
30
0
41
1
10
7.82856791720192
20
1.12465825169414
30
0
0
SPLINE
5
B9
100
AcDbEntity
8
1
62
256
6
ByLayer
370
18
48
1
60
0
100
AcDbSpline
70
4
71
3
72
8
73
4
40
0
40
0
40
0
40
0
40
1
40
1
40
1
40
1
41
1
10
5.93041643833229
20
-1.2485760328037
30
0
41
1
10
6.0461420768772
20
-1.29000109102827
30
0
41
1
10
6.1620684800435
20
-1.32967473100663
30
0
41
1
10
6.27818566370604
20
-1.36769712141143
30
0
0
SPLINE
5
BA
100
AcDbEntity
8
1
62
256
6
ByLayer
370
18
48
1
60
0
100
AcDbSpline
70
4
71
3
72
60
73
56
40
0
40
0
40
0
40
0
40
0.0088201107454888
40
0.0088201107454888
40
0.0406621708449141
40
0.0406621708449141
40
0.0725042309443394
40
0.0725042309443394
40
0.13618835114319
40
0.13618835114319
40
0.168030411242615
40
0.168030411242615
40
0.199872471342039
40
0.199872471342039
40
0.263556591540888
40
0.263556591540888
40
0.295398651640311
40
0.295398651640311
40
0.327240711739735
40
0.327240711739735
40
0.359082771839159
40
0.359082771839159
40
0.390924831938583
40
0.390924831938583
40
0.422766892038006
40
0.422766892038006
40
0.45460895213743
40
0.45460895213743
40
0.518293072336276
40
0.518293072336276
40
0.581977192535123
40
0.581977192535123
40
0.613819252634546
40
0.613819252634546
40
0.645661312733969
40
0.645661312733969
40
0.677503372833392
40
0.677503372833392
40
0.709345432932815
40
0.709345432932815
40
0.741187493032238
40
0.741187493032238
40
0.773029553131661
40
0.773029553131661
40
0.836713673330509
40
0.836713673330509
40
0.868555733429932
40
0.868555733429932
40
0.900397793529356
40
0.900397793529356
40
0.964081913728202
40
0.964081913728202
40
0.995923973827624
40
0.995923973827624
40
1
40
1
40
1
40
1
41
1
10
12.3187685105757
20
1.2792444187246
30
0
41
1
10
12.3613777697745
20
1.29841958608935
30
0
41
1
10
12.4040070670952
20
1.31732349824429
30
0
41
1
10
12.6006687717012
20
1.40316287572222
30
0
41
1
10
12.7548873906843
20
1.46707547514382
30
0
41
1
10
13.0627063255399
20
1.58564320315841
30
0
41
1
10
13.2163072576983
20
1.64073891535997
30
0
41
1
10
13.6773293605711
20
1.7921705313735
30
0
41
1
10
13.9860083595606
20
1.87457270253967
30
0
41
1
10
14.4469303305119
20
1.96570654081219
30
0
41
1
10
14.6005343914983
20
1.9906991315062
30
0
41
1
10
14.9080172690556
20
2.0297056049526
30
0
41
1
10
15.0621426841736
20
2.04370343787713
30
0
41
1
10
15.5238153035453
20
2.06842115895447
30
0
41
1
10
15.8303549621891
20
2.06215807802758
30
0
41
1
10
16.2922707164946
20
2.01875696032962
30
0
41
1
10
16.446196438177
20
1.99857794923869
30
0
41
1
10
16.7534552209405
20
1.94747092289376
30
0
41
1
10
16.9070117711065
20
1.91654720587385
30
0
41
1
10
17.2142911644174
20
1.84415537503776
30
0
41
1
10
17.3682380764741
20
1.80258592027988
30
0
41
1
10
17.6759495772836
20
1.70972375221763
30
0
41
1
10
17.829587991194
20
1.65864960941156
30
0
41
1
10
18.1365500318441
20
1.54739799991447
30
0
41
1
10
18.2901192646838
20
1.48748791763086
30
0
41
1
10
18.5976493960507
20
1.35932119915157
30
0
41
1
10
18.751763849023
20
1.29110916236053
30
0
41
1
10
19.2124230493961
20
1.07660082863211
30
0
41
1
10
19.5191450342701
20
0.920978912983315
30
0
41
1
10
20.1349682159803
20
0.590335122834119
30
0
41
1
10
20.4413025721447
20
0.417495592285178
30
0
41
1
10
20.9019864041799
20
0.15297200809249
30
0
41
1
10
21.0560841189392
20
0.0639377175902496
30
0
41
1
10
21.3632970424837
20
-0.113802309707467
30
0
41
1
10
21.5167732562289
20
-0.202221790403627
30
0
41
1
10
21.823360266349
20
-0.37834044321167
30
0
41
1
10
21.9769133745904
20
-0.465278495763584
30
0
41
1
10
22.2844984104407
20
-0.636977265383649
30
0
41
1
10
22.4382506524321
20
-0.721324571269918
30
0
41
1
10
22.7451090101169
20
-0.885250410351745
30
0
41
1
10
22.8983552123179
20
-0.965012606782352
30
0
41
1
10
23.205274256029
20
-1.11889931444247
30
0
41
1
10
23.3591063830532
20
-1.19329716068066
30
0
41
1
10
23.8201582876935
20
-1.40550867228225
30
0
41
1
10
24.126048485033
20
-1.53270592538348
30
0
41
1
10
24.5869096971871
20
-1.69685465271604
30
0
41
1
10
24.7406791852794
20
-1.74726109151618
30
0
41
1
10
25.0476280889973
20
-1.8375993031627
30
0
41
1
10
25.2007752673348
20
-1.87790957486328
30
0
41
1
10
25.6607767617371
20
-1.98302317634156
30
0
41
1
10
25.9683155917845
20
-2.03224522189856
30
0
41
1
10
26.4282559116847
20
-2.07154201066217
30
0
41
1
10
26.58140358157
20
-2.07902071119179
30
0
41
1
10
26.7544442858803
20
-2.08098769204381
30
0
41
1
10
26.7740866726568
20
-2.08111625767899
30
0
41
1
10
26.7937333283941
20
-2.08115042222107
30
0
0
SPLINE
5
BB
100
AcDbEntity
8
1
62
256
6
ByLayer
370
18
48
1
60
0
100
AcDbSpline
70
4
71
3
72
16
73
12
40
0
40
0
40
0
40
0
40
0.0793626748718041
40
0.0793626748718041
40
0.263490139897448
40
0.263490139897448
40
0.631745069948724
40
0.631745069948724
40
0.815872534974361
40
0.815872534974361
40
1
40
1
40
1
40
1
41
1
10
34.8129734156323
20
1.29749928904718
30
0
41
1
10
34.87892067051
20
1.32785363277358
30
0
41
1
10
34.9448770635035
20
1.35757378761573
30
0
41
1
10
35.1639002634524
20
1.4541174469793
30
0
41
1
10
35.3175755749401
20
1.51780047268707
30
0
41
1
10
35.7768951574034
20
1.69554731124723
30
0
41
1
10
36.0817644681301
20
1.79646738518542
30
0
41
1
10
36.5412285592346
20
1.91743047034222
30
0
41
1
10
36.6946939675013
20
1.95276390996582
30
0
41
1
10
37.0007114346533
20
2.01217174554498
30
0
41
1
10
37.1533173596534
20
2.03647879423349
30
0
41
1
10
37.3060479496334
20
2.0551557184173
30
0
0
SPLINE
5
BC
100
AcDbEntity
8
1
62
256
6
ByLayer
370
18
48
1
60
0
100
AcDbSpline
70
4
71
3
72
38
73
34
40
0
40
0
40
0
40
0
40
0.0887627608491768
40
0.0887627608491768
40
0.177525521698354
40
0.177525521698354
40
0.221906902122943
40
0.221906902122943
40
0.266288282547532
40
0.266288282547532
40
0.35505104339671
40
0.35505104339671
40
0.3994324238213
40
0.3994324238213
40
0.443813804245889
40
0.443813804245889
40
0.53257656509507
40
0.53257656509507
40
0.621339325944251
40
0.621339325944251
40
0.665720706368842
40
0.665720706368842
40
0.710102086793432
40
0.710102086793432
40
0.798864847642613
40
0.798864847642613
40
0.843246228067203
40
0.843246228067203
40
0.887627608491794
40
0.887627608491794
40
0.976390369340973
40
0.976390369340973
40
1
40
1
40
1
40
1
41
1
10
5.8340911722872
20
1.97393205956163
30
0
41
1
10
6.16559167084233
20
1.92556484718324
30
0
41
1
10
6.49722357455451
20
1.85129856149231
30
0
41
1
10
7.15541537163858
20
1.65950683478852
30
0
41
1
10
7.48269376562232
20
1.54187187539179
30
0
41
1
10
7.97529294730325
20
1.33777004731721
30
0
41
1
10
8.13975710341074
20
1.26510232226178
30
0
41
1
10
8.47008348503181
20
1.11151042701363
30
0
41
1
10
8.63594931647333
20
1.0305839212044
30
0
41
1
10
9.13014703004319
20
0.780219059681542
30
0
41
1
10
9.45723194942215
20
0.602114187799202
30
0
41
1
10
9.94916200199771
20
0.326429096858874
30
0
41
1
10
10.1133294154931
20
0.233069295907086
30
0
41
1
10
10.4428297452317
20
0.0447576794499014
30
0
41
1
10
10.60875993455
20
-0.0504842972574693
30
0
41
1
10
11.1034886124243
20
-0.333458897485457
30
0
41
1
10
11.43012871052
20
-0.518503423296522
30
0
41
1
10
12.0830338932235
20
-0.871384291575623
30
0
41
1
10
12.4093028510825
20
-1.03921288257919
30
0
41
1
10
12.9029342531327
20
-1.27052951430841
30
0
41
1
10
13.0687578006007
20
-1.34449729454948
30
0
41
1
10
13.3983339589122
20
-1.48242087173887
30
0
41
1
10
13.5623556016411
20
-1.54655055011696
30
0
41
1
10
14.0530745341584
20
-1.7236219503888
30
0
41
1
10
14.3785916937294
20
-1.82104314484857
30
0
41
1
10
14.8688674295458
20
-1.93220975151419
30
0
41
1
10
15.0325912539276
20
-1.96345540471464
30
0
41
1
10
15.3615739818089
20
-2.01354594913346
30
0
41
1
10
15.5273968258752
20
-2.03242689306254
30
0
41
1
10
16.0214200982393
20
-2.06920162348464
30
0
41
1
10
16.3474554236769
20
-2.06751339654392
30
0
41
1
10
16.7604794659003
20
-2.03332729899111
30
0
41
1
10
16.8472150013264
20
-2.02433400657361
30
0
41
1
10
16.9339832224956
20
-2.01355386925803
30
0
0
SPLINE
5
BD
100
AcDbEntity
8
1
62
256
6
ByLayer
370
18
48
1
60
0
100
AcDbSpline
70
4
71
3
72
40
73
36
40
0
40
0
40
0
40
0
40
0.0070008736679687
40
0.0070008736679687
40
0.0566508299845686
40
0.0566508299845686
40
0.106300786301169
40
0.106300786301169
40
0.205600698934368
40
0.205600698934368
40
0.25525065525097
40
0.25525065525097
40
0.304900611567572
40
0.304900611567572
40
0.404200524200775
40
0.404200524200775
40
0.503500436833978
40
0.503500436833978
40
0.553150393150579
40
0.553150393150579
40
0.602800349467181
40
0.602800349467181
40
0.702100262100387
40
0.702100262100387
40
0.751750218416989
40
0.751750218416989
40
0.80140017473359
40
0.80140017473359
40
0.900700087366793
40
0.900700087366793
40
0.950350043683395
40
0.950350043683395
40
0.975175021841697
40
0.975175021841697
40
1
40
1
40
1
40
1
41
1
10
27.4025137024505
20
2.08224295031201
30
0
41
1
10
27.4256557745255
20
2.08225884074537
30
0
41
1
10
27.4488129415309
20
2.0821441967943
30
0
41
1
10
27.6363311191309
20
2.08015603088583
30
0
41
1
10
27.8016432466599
20
2.07175864496952
30
0
41
1
10
28.1295711911065
20
2.04207130888543
30
0
41
1
10
28.2928153708817
20
2.02080683202331
30
0
41
1
10
28.781736108191
20
1.93870985350313
30
0
41
1
10
29.1060180192921
20
1.85920618490405
30
0
41
1
10
29.5953354051724
20
1.70655512272995
30
0
41
1
10
29.7588139466361
20
1.6500198970372
30
0
41
1
10
30.0873524647825
20
1.5262144141617
30
0
41
1
10
30.2525231398818
20
1.45887853511124
30
0
41
1
10
30.7441963501087
20
1.24558982718236
30
0
41
1
10
31.0690531491633
20
1.0869797613712
30
0
41
1
10
31.7192545059856
20
0.746638988406488
30
0
41
1
10
32.0443998448604
20
0.564580932911554
30
0
41
1
10
32.5372892282561
20
0.281616258958394
30
0
41
1
10
32.7023128670953
20
0.185695885972905
30
0
41
1
10
33.0296422369636
20
-0.0053910610485559
30
0
41
1
10
33.1926047003721
20
-0.100879256874407
30
0
41
1
10
33.6805590734863
20
-0.385163295859655
30
0
41
1
10
34.0047483965348
20
-0.571554404036078
30
0
41
1
10
34.4937717909722
20
-0.838913727500426
30
0
41
1
10
34.6572160768542
20
-0.926027640216546
30
0
41
1
10
34.9858112040467
20
-1.09481865117505
30
0
41
1
10
35.150572844143
20
-1.17623618093026
30
0
41
1
10
35.6408532687991
20
-1.40690900644788
30
0
41
1
10
35.9647169720724
20
-1.54394516634153
30
0
41
1
10
36.4510200561459
20
-1.71879644735697
30
0
41
1
10
36.6131971052686
20
-1.77198525783436
30
0
41
1
10
36.8570522399127
20
-1.84359098987804
30
0
41
1
10
36.9384320858604
20
-1.86609923435509
30
0
41
1
10
37.1014497191725
20
-1.90830205571493
30
0
41
1
10
37.1828137647116
20
-1.92817952015432
30
0
41
1
10
37.2650456762238
20
-1.94612362631892
30
0
0
SPLINE
5
BE
100
AcDbEntity
8
1
62
256
6
ByLayer
370
18
48
1
60
0
100
AcDbSpline
70
4
71
3
72
8
73
4
40
0
40
0
40
0
40
0
40
1
40
1
40
1
40
1
41
1
10
37.6544636756612
20
-1.08363424717191
30
0
41
1
10
37.6958986430944
20
-0.957392440317875
30
0
41
1
10
37.7400825221847
20
-0.837781789277983
30
0
41
1
10
37.7871180572711
20
-0.723259674293757
30
0
0
SPLINE
5
BF
100
AcDbEntity
8
1
62
256
6
ByLayer
370
18
48
1
60
0
100
AcDbSpline
70
4
71
3
72
8
73
4
40
0
40
0
40
0
40
0
40
1
40
1
40
1
40
1
41
1
10
37.6742337237766
20
0.657454095587184
30
0
41
1
10
37.7137518982888
20
0.676340277374123
30
0
41
1
10
37.751747747101
20
0.697682243506478
30
0
41
1
10
37.7871180572711
20
0.723259674293729
30
0
0
SPLINE
5
C0
100
AcDbEntity
8
1
62
256
6
ByLayer
370
18
48
1
60
0
100
AcDbSpline
70
4
71
4
72
10
73
5
40
0
40
0
40
0
40
0
40
0
40
1
40
1
40
1
40
1
40
1
41
1
10
7.82856791720175
20
1.1246582516942
30
0
41
1
10
7.74497672243868
20
1.00786435235301
30
0
41
1
10
7.66138552767563
20
0.891070453011849
30
0
41
1
10
7.57779433291256
20
0.774276553670688
30
0
41
1
10
7.49420313814949
20
0.657482654329527
30
0
0
SPLINE
5
C1
100
AcDbEntity
8
1
62
256
6
ByLayer
370
18
48
1
60
0
100
AcDbSpline
70
4
71
3
72
10
73
6
40
0
40
0
40
0
40
0
40
0.5
40
0.5
40
1
40
1
40
1
40
1
41
1
10
37.6462435435893
20
-0.415434248466085
30
0
41
1
10
37.6007539772011
20
-0.380595726057152
30
0
41
1
10
37.5618825219
20
-0.325796302881315
30
0
41
1
10
37.4933291382994
20
-0.188480902039203
30
0
41
1
10
37.4652785892999
20
-0.108768046050756
30
0
41
1
10
37.4421298750783
20
-0.0208388095697103
30
0
0
SPLINE
5
C2
100
AcDbEntity
8
1
62
256
6
ByLayer
370
18
48
1
60
0
100
AcDbSpline
70
4
71
3
72
8
73
4
40
0
40
0
40
0
40
0
40
1
40
1
40
1
40
1
41
1
10
37.3060479496334
20
-2.05515571841727
30
0
41
1
10
37.2910348254182
20
-2.03036553772932
30
0
41
1
10
37.2785356525565
20
-1.99545057599789
30
0
41
1
10
37.2680958836405
20
-1.94977599448842
30
0
0
SPLINE
5
C3
100
AcDbEntity
8
1
62
256
6
ByLayer
370
13
48
1
60
0
100
AcDbSpline
70
4
71
3
72
40
73
36
40
0
40
0
40
0
40
0
40
0.0308380519333804
40
0.0308380519333804
40
0.0770062119633861
40
0.0770062119633861
40
0.123174371993392
40
0.123174371993392
40
0.215510692053404
40
0.215510692053404
40
0.261678852083409
40
0.261678852083409
40
0.307847012113414
40
0.307847012113414
40
0.400183332173422
40
0.400183332173422
40
0.49251965223343
40
0.49251965223343
40
0.538687812263434
40
0.538687812263434
40
0.584855972293437
40
0.584855972293437
40
0.63102413232344
40
0.63102413232344
40
0.677192292353444
40
0.677192292353444
40
0.76952861241345
40
0.76952861241345
40
0.815696772443454
40
0.815696772443454
40
0.861864932473457
40
0.861864932473457
40
0.954201252533462
40
0.954201252533462
40
1
40
1
40
1
40
1
41
1
10
27.7953670071905
20
-2.01624472142061
30
0
41
1
10
27.6871127284805
20
-2.01674308134548
30
0
41
1
10
27.5787871549901
20
-2.01445110783163
30
0
41
1
10
27.307797282468
20
-2.00160200740271
30
0
41
1
10
27.145001018445
20
-1.98787226668711
30
0
41
1
10
26.8179779994248
20
-1.94791901111915
30
0
41
1
10
26.6539859102832
20
-1.92161493989914
30
0
41
1
10
26.1651170571777
20
-1.82536799901644
30
0
41
1
10
25.8415279554521
20
-1.73862215471539
30
0
41
1
10
25.3549392715551
20
-1.5776459045608
30
0
41
1
10
25.1925903873324
20
-1.51902974876032
30
0
41
1
10
24.8669341661472
20
-1.39236609429617
30
0
41
1
10
24.7032080013526
20
-1.32415277524467
30
0
41
1
10
24.2117496841989
20
-1.10757894048501
30
0
41
1
10
23.8872402386787
20
-0.949054818152632
30
0
41
1
10
23.2383674760382
20
-0.613233694220071
30
0
41
1
10
22.9142477898349
20
-0.435851922385325
30
0
41
1
10
22.4238706249197
20
-0.163064823960838
30
0
41
1
10
22.2594955823379
20
-0.070931271397825
30
0
41
1
10
21.9319491616117
20
0.112707916775747
30
0
41
1
10
21.7683484545488
20
0.204290487235369
30
0
41
1
10
21.4407249572197
20
0.385598600914363
30
0
41
1
10
21.2763588457457
20
0.475567335038136
30
0
41
1
10
20.9491010468767
20
0.651411437131202
30
0
41
1
10
20.7860206150687
20
0.737163245158314
30
0
41
1
10
20.2973379716457
20
0.986073041167941
30
0
41
1
10
19.9725096837773
20
1.14164908094594
30
0
41
1
10
19.4819915462826
20
1.35145855214395
30
0
41
1
10
19.3175053747711
20
1.41774114602202
30
0
41
1
10
18.9901617977577
20
1.54066308275563
30
0
41
1
10
18.8270229066109
20
1.59716603196955
30
0
41
1
10
18.3381198653721
20
1.75075370612501
30
0
41
1
10
18.0132549913383
20
1.83278458327553
30
0
41
1
10
17.5236439976812
20
1.91968678142774
30
0
41
1
10
17.3603796901025
20
1.94287505861465
30
0
41
1
10
17.1980576002633
20
1.95998546651535
30
0
0
SPLINE
5
C4
100
AcDbEntity
8
1
62
256
6
ByLayer
370
13
48
1
60
0
100
AcDbSpline
70
4
71
3
72
30
73
26
40
0
40
0
40
0
40
0
40
0.117034330151532
40
0.117034330151532
40
0.175551495227298
40
0.175551495227298
40
0.234068660303064
40
0.234068660303064
40
0.351102990454596
40
0.351102990454596
40
0.409620155530364
40
0.409620155530364
40
0.468137320606131
40
0.468137320606131
40
0.702205980909206
40
0.702205980909206
40
0.760723145984973
40
0.760723145984973
40
0.81924031106074
40
0.81924031106074
40
0.936274641212274
40
0.936274641212274
40
0.994791806288039
40
0.994791806288039
40
1
40
1
40
1
40
1
41
1
10
37.2262069236641
20
-1.78749052009582
30
0
41
1
10
36.8993558170698
20
-1.69845430981977
30
0
41
1
10
36.5739395567686
20
-1.5878402025748
30
0
41
1
10
36.084581573789
20
-1.39410367017985
30
0
41
1
10
35.9208027873378
20
-1.32468633379904
30
0
41
1
10
35.5941985568314
20
-1.17845470147455
30
0
41
1
10
35.4316395564477
20
-1.10178946681998
30
0
41
1
10
34.9450576196477
20
-0.863067856164889
30
0
41
1
10
34.6222330422867
20
-0.692153834068733
30
0
41
1
10
34.1358596714208
20
-0.425609539240781
30
0
41
1
10
33.9733938143224
20
-0.335053742528686
30
0
41
1
10
33.647145813388
20
-0.151583578712263
30
0
41
1
10
33.4830881299403
20
-0.0585436262414873
30
0
41
1
10
32.6684217800474
20
0.402433925550923
30
0
41
1
10
32.026767060301
20
0.763192916942273
30
0
41
1
10
31.2081590915381
20
1.15407080242812
30
0
41
1
10
31.0447550940395
20
1.22871365846191
30
0
41
1
10
30.7195694121706
20
1.36927277110777
30
0
41
1
10
30.5575250329401
20
1.43520254732391
30
0
41
1
10
30.0712971200103
20
1.61843000886745
30
0
41
1
10
29.7479428464603
20
1.72276432800044
30
0
41
1
10
29.259005414853
20
1.84539950409368
30
0
41
1
10
29.0949391858628
20
1.88110229309615
30
0
41
1
10
28.9170120251272
20
1.91325258763553
30
0
41
1
10
28.9024762414497
20
1.91583085866969
30
0
41
1
10
28.8879460799603
20
1.91835977181069
30
0
0
SPLINE
5
C5
100
AcDbEntity
8
1
62
256
6
ByLayer
370
13
48
1
60
0
100
AcDbSpline
70
4
71
3
72
34
73
30
40
0
40
0
40
0
40
0
40
0.0779328428988232
40
0.0779328428988232
40
0.126521509961141
40
0.126521509961141
40
0.175110177023459
40
0.175110177023459
40
0.272287511148093
40
0.272287511148093
40
0.320876178210411
40
0.320876178210411
40
0.369464845272729
40
0.369464845272729
40
0.466642179397367
40
0.466642179397367
40
0.563819513522004
40
0.563819513522004
40
0.612408180584323
40
0.612408180584323
40
0.660996847646642
40
0.660996847646642
40
0.758174181771279
40
0.758174181771279
40
0.855351515895917
40
0.855351515895917
40
0.952528850020554
40
0.952528850020554
40
1
40
1
40
1
40
1
41
1
10
16.5115721056133
20
-1.99545967550768
30
0
41
1
10
16.2508908816549
20
-1.99499197966054
30
0
41
1
10
15.9907922536381
20
-1.97886418344527
30
0
41
1
10
15.5664546330575
20
-1.92693970775477
30
0
41
1
10
15.4030742617415
20
-1.90095059746429
30
0
41
1
10
15.0749204575871
20
-1.83690482751513
30
0
41
1
10
14.9108182492696
20
-1.79887072129574
30
0
41
1
10
14.4209343174268
20
-1.66926045910975
30
0
41
1
10
14.0965970075381
20
-1.5615313421323
30
0
41
1
10
13.6086577325517
20
-1.37306319515343
30
0
41
1
10
13.4457790589169
20
-1.30584087898174
30
0
41
1
10
13.1190948953551
20
-1.16307338368202
30
0
41
1
10
12.9548180701522
20
-1.08722338626583
30
0
41
1
10
12.4624119650347
20
-0.851102447232051
30
0
41
1
10
12.1372156242696
20
-0.682384010544553
30
0
41
1
10
11.4867260497352
20
-0.333163342763271
30
0
41
1
10
11.1616995135716
20
-0.152306969099271
30
0
41
1
10
10.6699009393407
20
0.120320834532521
30
0
41
1
10
10.5050133965791
20
0.211400234685442
30
0
41
1
10
10.1776685991882
20
0.390712328303124
30
0
41
1
10
10.0146740605794
20
0.479188994923817
30
0
41
1
10
9.52615784288025
20
0.73836687968722
30
0
41
1
10
9.20146204268889
20
0.903616246703848
30
0
41
1
10
8.54826281635852
20
1.20889343731568
30
0
41
1
10
8.21816255380477
20
1.34973393681347
30
0
41
1
10
7.56479411522824
20
1.59095843008126
30
0
41
1
10
7.23997371583454
20
1.69252380823011
30
0
41
1
10
6.75496050037765
20
1.8107351717826
30
0
41
1
10
6.59556674198703
20
1.84442870598704
30
0
41
1
10
6.43561498078734
20
1.87264998696082
30
0
0
SPLINE
5
C6
100
AcDbEntity
8
1
62
256
6
ByLayer
370
18
48
1
60
0
100
AcDbSpline
70
4
71
3
72
8
73
4
40
0
40
0
40
0
40
0
40
1
40
1
40
1
40
1
41
1
10
5.93140585596359
20
-1.94279256075083
30
0
41
1
10
5.86344576816367
20
-1.94756625740553
30
0
41
1
10
5.79644475314348
20
-1.95832160340692
30
0
41
1
10
5.73065629006334
20
-1.97521427455277
30
0
0
SPLINE
5
C7
100
AcDbEntity
8
1
62
256
6
ByLayer
370
18
48
1
60
0
100
AcDbSpline
70
4
71
3
72
8
73
4
40
0
40
0
40
0
40
0
40
1
40
1
40
1
40
1
41
1
10
5.73065612731523
20
1.97521431634203
30
0
41
1
10
5.67727922354237
20
1.98892004843668
30
0
41
1
10
5.62470051242411
20
2.00666582776191
30
0
41
1
10
5.57305537355577
20
2.02853479853545
30
0
0
SPLINE
5
C8
100
AcDbEntity
8
1
62
256
6
ByLayer
370
18
48
1
60
0
100
AcDbSpline
70
4
71
1
72
4
73
2
40
0
40
0
40
1
40
1
41
1
10
37.6429113379153
20
-0.446473317011197
30
0
41
1
10
37.6497645609779
20
-0.418986540618562
30
0
0
SPLINE
5
C9
100
AcDbEntity
8
1
62
256
6
ByLayer
370
13
48
1
60
0
100
AcDbSpline
70
4
71
3
72
17
73
13
40
0
40
0
40
0
40
0
40
0.0952049787964433
40
0.246004148997036
40
0.246004148997036
40
0.396803319197629
40
0.396803319197629
40
0.547602489398222
40
0.547602489398222
40
0.698401659598815
40
0.698401659598815
40
1
40
1
40
1
40
1
41
1
10
5.93113336971072
20
-1.97743923253043
30
0
41
1
10
5.9310949413198
20
-1.97759438198443
30
0
41
1
10
5.93099992418774
20
-1.97189675390325
30
0
41
1
10
5.93091551408168
20
-1.95068233944698
30
0
41
1
10
5.93081943642937
20
-1.91266068213943
30
0
41
1
10
5.93077551203797
20
-1.88770056570701
30
0
41
1
10
5.93069639271971
20
-1.82724131456692
30
0
41
1
10
5.93066088439986
20
-1.79162748971996
30
0
41
1
10
5.93059651665618
20
-1.70961069949456
30
0
41
1
10
5.93056752213576
20
-1.66290486767815
30
0
41
1
10
5.93048964189913
20
-1.50815072729264
30
0
41
1
10
5.93044960855877
20
-1.38500156089236
30
0
41
1
10
5.93041643833231
20
-1.24857603280373
30
0
0
SPLINE
5
CA
100
AcDbEntity
8
1
62
256
6
ByLayer
370
18
48
1
60
0
100
AcDbSpline
70
4
71
3
72
18
73
14
40
0
40
0
40
0
40
0
40
0.0391982964050374
40
0.0391982964050374
40
0.23135863712403
40
0.23135863712403
40
0.423518977843022
40
0.423518977843022
40
0.615679318562015
40
0.615679318562015
40
0.807839659281007
40
0.807839659281007
40
1
40
1
40
1
40
1
41
1
10
37.1668082060104
20
0.124659765999866
30
0
41
1
10
37.1681402932253
20
0.128746780545242
30
0
41
1
10
37.1697225607996
20
0.133003385402333
30
0
41
1
10
37.1804965575055
20
0.159153560274717
30
0
41
1
10
37.1950179028744
20
0.184686784456261
30
0
41
1
10
37.2343505613306
20
0.24436912211624
30
0
41
1
10
37.2590882583979
20
0.278325121142018
30
0
41
1
10
37.3168146746439
20
0.351407775092355
30
0
41
1
10
37.3505961402201
20
0.391554510857702
30
0
41
1
10
37.4262155463881
20
0.472905010531008
30
0
41
1
10
37.4678272692283
20
0.514124415115049
30
0
41
1
10
37.563399544095
20
0.593194318663052
30
0
41
1
10
37.6158026451076
20
0.629529223363932
30
0
41
1
10
37.6742337237766
20
0.657454095587212
30
0
0
SPLINE
5
CB
100
AcDbEntity
8
1
62
256
6
ByLayer
370
18
48
1
60
0
100
AcDbSpline
70
4
71
3
72
32
73
28
40
0
40
0
40
0
40
0
40
0.11975996896288
40
0.11975996896288
40
0.179639953444318
40
0.179639953444318
40
0.239519937925757
40
0.239519937925757
40
0.299399922407196
40
0.299399922407196
40
0.359279906888634
40
0.359279906888634
40
0.479039875851514
40
0.479039875851514
40
0.598799844814393
40
0.598799844814393
40
0.658679829295832
40
0.658679829295832
40
0.718559813777271
40
0.718559813777271
40
0.838319782740148
40
0.838319782740148
40
0.898199767221586
40
0.898199767221586
40
0.958079751703024
40
0.958079751703024
40
1
40
1
40
1
40
1
41
1
10
7.82856791720189
20
1.12465825169417
30
0
41
1
10
8.13711977343081
20
0.977259755460295
30
0
41
1
10
8.4443327993084
20
0.818501828608703
30
0
41
1
10
8.90627742195926
20
0.568459952805171
30
0
41
1
10
9.06066692789472
20
0.482890844675609
30
0
41
1
10
9.3688164414917
20
0.310118858069615
30
0
41
1
10
9.52253114585503
20
0.222647653223106
30
0
41
1
10
9.83015525074669
20
0.0471337315875076
30
0
41
1
10
9.98388757867414
20
-0.0412198121051688
30
0
41
1
10
10.2922903167118
20
-0.217192486986448
30
0
41
1
10
10.4464657950512
20
-0.305129264768198
30
0
41
1
10
10.90802684506
20
-0.56466290136234
30
0
41
1
10
11.2153183197152
20
-0.73383329408307
30
0
41
1
10
11.831993697929
20
-1.05215725312044
30
0
41
1
10
12.1384770439271
20
-1.20141807677155
30
0
41
1
10
12.6004671167548
20
-1.40307797062078
30
0
41
1
10
12.7546794330985
20
-1.46699142291962
30
0
41
1
10
13.0624857311698
20
-1.58556217741784
30
0
41
1
10
13.2160804920273
20
-1.6406596307836
30
0
41
1
10
13.6770826985312
20
-1.79209909755772
30
0
41
1
10
13.9857488181259
20
-1.87450879380589
30
0
41
1
10
14.4466517434281
20
-1.96565774600373
30
0
41
1
10
14.600249074738
20
-1.99065599974148
30
0
41
1
10
14.9077188352544
20
-2.02967467048933
30
0
41
1
10
15.0618374838751
20
-2.04367936747644
30
0
41
1
10
15.3234519723895
20
-2.05769920478835
30
0
41
1
10
15.4310298730438
20
-2.06068621249693
30
0
41
1
10
15.5385690560573
20
-2.06089005978745
30
0
0
SPLINE
5
CC
100
AcDbEntity
8
1
62
256
6
ByLayer
370
18
48
1
60
0
100
AcDbSpline
70
4
71
3
72
50
73
46
40
0
40
0
40
0
40
0
40
0.0642337138264813
40
0.0642337138264813
40
0.0976539383326779
40
0.0976539383326779
40
0.131074162838874
40
0.131074162838874
40
0.197914611851267
40
0.197914611851267
40
0.231334836357464
40
0.231334836357464
40
0.26475506086366
40
0.26475506086366
40
0.331595509876053
40
0.331595509876053
40
0.398435958888446
40
0.398435958888446
40
0.431856183394644
40
0.431856183394644
40
0.465276407900842
40
0.465276407900842
40
0.498696632407039
40
0.498696632407039
40
0.532116856913237
40
0.532116856913237
40
0.565537081419435
40
0.565537081419435
40
0.598957305925632
40
0.598957305925632
40
0.665797754938028
40
0.665797754938028
40
0.699217979444225
40
0.699217979444225
40
0.732638203950423
40
0.732638203950423
40
0.799478652962816
40
0.799478652962816
40
0.832898877469013
40
0.832898877469013
40
0.866319101975209
40
0.866319101975209
40
0.933159550987604
40
0.933159550987604
40
1
40
1
40
1
40
1
41
1
10
23.5480826310912
20
1.28021848969078
30
0
41
1
10
23.8433462709688
20
1.41511426960594
30
0
41
1
10
24.13734528487
20
1.53670280842201
30
0
41
1
10
24.5862021801949
20
1.69661654149286
30
0
41
1
10
24.7399659336814
20
1.74703630533585
30
0
41
1
10
25.0469039180059
20
1.83740097165605
30
0
41
1
10
25.2000451124287
20
1.877725477897
30
0
41
1
10
25.6600247060278
20
1.98288570491681
30
0
41
1
10
25.9675519501965
20
2.03214190368058
30
0
41
1
10
26.42747348049
20
2.07149412518504
30
0
41
1
10
26.5806151568833
20
2.0789918649794
30
0
41
1
10
26.8874076187904
20
2.08251888826885
30
0
41
1
10
27.041142433184
20
2.07850679680198
30
0
41
1
10
27.5015612247267
20
2.04949717031431
30
0
41
1
10
27.8072783397251
20
2.00744705060507
30
0
41
1
10
28.4217814546404
20
1.8796058070657
30
0
41
1
10
28.7277784583185
20
1.7944975777784
30
0
41
1
10
29.1876010271158
20
1.6384908551475
30
0
41
1
10
29.3413227664138
20
1.5816172935817
30
0
41
1
10
29.6481474032875
20
1.45975940530562
30
0
41
1
10
29.8011327706405
20
1.39459126072561
30
0
41
1
10
30.1073341778087
20
1.25716928646185
30
0
41
1
10
30.2605369180972
20
1.18491554044027
30
0
41
1
10
30.567482267901
20
1.03374648024226
30
0
41
1
10
30.7210182769777
20
0.954925060279777
30
0
41
1
10
31.027405837228
20
0.793068692753081
30
0
41
1
10
31.1803551829379
20
0.709686526680116
30
0
41
1
10
31.486546986736
20
0.539250870959279
30
0
41
1
10
31.6401911023093
20
0.452354474253781
30
0
41
1
10
32.1004664069859
20
0.18806864405741
30
0
41
1
10
32.4058912630913
20
0.0085433700550936
30
0
41
1
10
32.8655856926615
20
-0.259399570784268
30
0
41
1
10
33.0193309331298
20
-0.348199604626728
30
0
41
1
10
33.3255859695315
20
-0.523349075242436
30
0
41
1
10
33.4785866886775
20
-0.609487078697526
30
0
41
1
10
33.9373414906715
20
-0.863350910484343
30
0
41
1
10
34.2448102783653
20
-1.0248615904008
30
0
41
1
10
34.7036798954734
20
-1.24773670199752
30
0
41
1
10
34.8566536194936
20
-1.31867298656758
30
0
41
1
10
35.162753324567
20
-1.45362441008828
30
0
41
1
10
35.3164015062236
20
-1.51732655716952
30
0
41
1
10
35.7758701010538
20
-1.69518957377787
30
0
41
1
10
36.0810556695552
20
-1.79627384532745
30
0
41
1
10
36.6947754640503
20
-1.95786168616937
30
0
41
1
10
36.9999640110272
20
-2.01772571493223
30
0
41
1
10
37.3060479496334
20
-2.05515571841727
30
0
0
SPLINE
5
CD
100
AcDbEntity
8
1
62
256
6
ByLayer
370
18
48
1
60
0
100
AcDbSpline
70
4
71
3
72
10
73
6
40
0
40
0
40
0
40
0
40
0.5
40
0.5
40
1
40
1
40
1
40
1
41
1
10
37.2262069236641
20
-1.78749052009584
30
0
41
1
10
37.1729201516269
20
-1.69192927300736
30
0
41
1
10
37.132407506064
20
-1.5714969418016
30
0
41
1
10
37.0794133218646
20
-1.27707217360324
30
0
41
1
10
37.0683642463555
20
-1.1112139809542
30
0
41
1
10
37.0730526269509
20
-0.926360625277823
30
0
0
SPLINE
5
CE
100
AcDbEntity
8
1
62
256
6
ByLayer
370
18
48
1
60
0
100
AcDbSpline
70
4
71
3
72
8
73
4
40
0
40
0
40
0
40
0
40
1
40
1
40
1
40
1
41
1
10
5.5735686308312
20
2.04303946367395
30
0
41
1
10
5.57341624219492
20
2.04304501417806
30
0
41
1
10
5.57324705711892
20
2.03822380371133
30
0
41
1
10
5.57305537355566
20
2.02853479853553
30
0
0
SPLINE
5
CF
100
AcDbEntity
8
1
62
256
6
ByLayer
370
18
48
1
60
0
100
AcDbSpline
70
4
71
1
72
4
73
2
40
0
40
0
40
1
40
1
41
1
10
37.2680958836509
20
-1.94977599456436
30
0
41
1
10
37.6429113379148
20
-0.446473317011083
30
0
0
SPLINE
5
D0
100
AcDbEntity
8
1
62
256
6
ByLayer
370
18
48
1
60
0
100
AcDbSpline
70
4
71
3
72
8
73
4
40
0
40
0
40
0
40
0
40
1
40
1
40
1
40
1
41
1
10
5.83409117228413
20
-1.97393205956209
30
0
41
1
10
5.87915372543387
20
-1.96735725775034
30
0
41
1
10
5.92421871078594
20
-1.96030388399373
30
0
41
1
10
5.96927942653596
20
-1.95278266256
30
0
0
SPLINE
5
D1
100
AcDbEntity
8
1
62
256
6
ByLayer
370
18
48
1
60
0
100
AcDbSpline
70
4
71
3
72
40
73
36
40
0
40
0
40
0
40
0
40
0.0430849623985171
40
0.0430849623985171
40
0.125220097385482
40
0.125220097385482
40
0.166287664878965
40
0.166287664878965
40
0.207355232372448
40
0.207355232372448
40
0.289490367359414
40
0.289490367359414
40
0.330557934852897
40
0.330557934852897
40
0.37162550234638
40
0.37162550234638
40
0.453760637333346
40
0.453760637333346
40
0.535895772320312
40
0.535895772320312
40
0.576963339813795
40
0.576963339813795
40
0.618030907307278
40
0.618030907307278
40
0.700166042294245
40
0.700166042294245
40
0.741233609787729
40
0.741233609787729
40
0.782301177281213
40
0.782301177281213
40
0.946571447255148
40
0.946571447255148
40
0.987639014748634
40
0.987639014748634
40
1
40
1
40
1
40
1
41
1
10
16.1587055031689
20
2.06197935439798
30
0
41
1
10
16.3302156210779
20
2.06190902587204
30
0
41
1
10
16.5012741591123
20
2.05474590744802
30
0
41
1
10
16.9985988222694
20
2.01368609780909
30
0
41
1
10
17.324214607345
20
1.96116477005569
30
0
41
1
10
17.8176669832531
20
1.84590367276746
30
0
41
1
10
17.9833388200951
20
1.80107873964903
30
0
41
1
10
18.3123204236062
20
1.70078113771638
30
0
41
1
10
18.4761024817067
20
1.64537380040693
30
0
41
1
10
18.966326180474
20
1.46478728455799
30
0
41
1
10
19.2912883438094
20
1.32476341623774
30
0
41
1
10
19.7812424752409
20
1.09217834788382
30
0
41
1
10
19.944858150062
20
1.01072813651956
30
0
41
1
10
20.2734857770363
20
0.840993425526591
30
0
41
1
10
20.439132383582
20
0.752601326010165
30
0
41
1
10
20.9325068423627
20
0.483000130355009
30
0
41
1
10
21.2581403350614
20
0.29610582576862
30
0
41
1
10
21.9097170522398
20
-0.0799182919436134
30
0
41
1
10
22.2351750503416
20
-0.269903404798271
30
0
41
1
10
22.728231484668
20
-0.548389146187048
30
0
41
1
10
22.8937584754729
20
-0.640556933186957
30
0
41
1
10
23.2222629014098
20
-0.819011422776441
30
0
41
1
10
23.3858230992595
20
-0.905438449762357
30
0
41
1
10
23.875352850558
20
-1.15507777948508
30
0
41
1
10
24.1999732498798
20
-1.30889780160783
30
0
41
1
10
24.6895060920779
20
-1.51328858515731
30
0
41
1
10
24.8530010287626
20
-1.57718614394281
30
0
41
1
10
25.1814982738807
20
-1.69526241839947
30
0
41
1
10
25.3469386452814
20
-1.74945840414853
30
0
41
1
10
26.1678232668355
20
-1.98987628260321
30
0
41
1
10
26.8120766646719
20
-2.08861318549933
30
0
41
1
10
27.6336596765092
20
-2.08025415315765
30
0
41
1
10
27.7989579129644
20
-2.07192999832691
30
0
41
1
10
28.0122582104894
20
-2.0527124945244
30
0
41
1
10
28.0615408590596
20
-2.04768466865153
30
0
41
1
10
28.110770305548
20
-2.04208383491948
30
0
0
SPLINE
5
D2
100
AcDbEntity
8
1
62
256
6
ByLayer
370
18
48
1
60
0
100
AcDbSpline
70
4
71
3
72
10
73
6
40
0
40
0
40
0
40
0
40
0.5
40
0.5
40
1
40
1
40
1
40
1
41
1
10
37.2650456762234
20
-1.94612362631918
30
0
41
1
10
37.2644145209613
20
-1.91103158926188
30
0
41
1
10
37.2597541137469
20
-1.88089757793645
30
0
41
1
10
37.2458594245122
20
-1.82843779742947
30
0
41
1
10
37.2367850836545
20
-1.8064607470761
30
0
41
1
10
37.226206923664
20
-1.78749052009584
30
0
0
SPLINE
5
D3
100
AcDbEntity
8
1
62
256
6
ByLayer
370
18
48
1
60
0
100
AcDbSpline
70
4
71
4
72
10
73
5
40
0
40
0
40
0
40
0
40
0
40
1
40
1
40
1
40
1
40
1
41
1
10
6.58874588299415
20
-0.801077841332329
30
0
41
1
10
6.51110582817208
20
-0.942732661352096
30
0
41
1
10
6.43346577335006
20
-1.08438748137186
30
0
41
1
10
6.35582571852802
20
-1.22604230139166
30
0
41
1
10
6.27818566370598
20
-1.36769712141143
30
0
0
SPLINE
5
D4
100
AcDbEntity
8
1
62
256
6
ByLayer
370
18
48
1
60
0
100
AcDbSpline
70
4
71
3
72
8
73
4
40
0
40
0
40
0
40
0
40
1
40
1
40
1
40
1
41
1
10
37.872423581139
20
0.45214250625267
30
0
41
1
10
37.8439141980471
20
0.542491636767664
30
0
41
1
10
37.8154789852072
20
0.63286401413643
30
0
41
1
10
37.7871180572711
20
0.723259674293729
30
0
0
SPLINE
5
D5
100
AcDbEntity
8
1
62
256
6
ByLayer
370
18
48
1
60
0
100
AcDbSpline
70
4
71
3
72
10
73
6
40
0
40
0
40
0
40
0
40
0.5
40
0.5
40
1
40
1
40
1
40
1
41
1
10
37.3060479496334
20
-2.0551557184173
30
0
41
1
10
37.3632543179044
20
-1.90415259233501
30
0
41
1
10
37.4216634671572
20
-1.74825460173358
30
0
41
1
10
37.5386728272586
20
-1.42511982610398
30
0
41
1
10
37.5972793518898
20
-1.25786033696579
30
0
41
1
10
37.654463675661
20
-1.08363424717254
30
0
0
SPLINE
5
D6
100
AcDbEntity
8
1
62
256
6
ByLayer
370
18
48
1
60
0
100
AcDbSpline
70
4
71
3
72
12
73
8
40
0
40
0
40
0
40
0
40
0.25
40
0.25
40
0.5
40
0.5
40
1
40
1
40
1
40
1
41
1
10
5.57305537355558
20
2.02853479853556
30
0
41
1
10
5.57297451175529
20
2.02444748719816
30
0
41
1
10
5.58738835441818
20
2.0197926376369
30
0
41
1
10
5.62367983516725
20
2.01047628607515
30
0
41
1
10
5.6464852936916
20
2.00572151509027
30
0
41
1
10
5.7193336521961
20
1.99176209599207
30
0
41
1
10
5.77526577924462
20
1.98251491325547
30
0
41
1
10
5.83409117228717
20
1.97393205956163
30
0
0
SPLINE
5
D7
100
AcDbEntity
8
1
62
256
6
ByLayer
370
13
48
1
60
0
100
AcDbSpline
70
4
71
3
72
113
73
109
40
0
40
0
40
0
40
0
40
0.0235108325505414
40
0.0273675486338981
40
0.0350809808005911
40
0.0427944129672881
40
0.054364561217343
40
0.0582212773006939
40
0.0659347094673909
40
0.0736481416340883
40
0.0832899318424592
40
0.0890750059674893
40
0.0948600800925093
40
0.104501870300882
40
0.119928734634279
40
0.143069031134377
40
0.15078246330108
40
0.166209327634474
40
0.181636191967877
40
0.208633204551318
40
0.212489920634672
40
0.220203352801368
40
0.227916784968065
40
0.239486933218115
40
0.243343649301467
40
0.251057081468158
40
0.258770513634859
40
0.268412303843235
40
0.274197377968262
40
0.279982452093283
40
0.289624242301658
40
0.305051106635054
40
0.32819140313515
40
0.335904835301854
40
0.351331699635248
40
0.366758563968646
40
0.39375557655209
40
0.397612292635444
40
0.40532572480214
40
0.413039156968838
40
0.424609305218884
40
0.42846602130224
40
0.436179453468936
40
0.443892885635637
40
0.453534675844007
40
0.459319749969036
40
0.465104824094053
40
0.474746614302426
40
0.490173478635825
40
0.517170491219273
40
0.521027207302627
40
0.528740639469321
40
0.53645407163602
40
0.548024219886067
40
0.551880935969422
40
0.55959436813612
40
0.567307800302814
40
0.578877948552863
40
0.582734664636218
40
0.590448096802912
40
0.598161528969614
40
0.609731677219661
40
0.613588393303013
40
0.621301825469712
40
0.629015257636408
40
0.638657047844782
40
0.644442121969809
40
0.650227196094827
40
0.659868986303206
40
0.675295850636599
40
0.702292863220046
40
0.706149579303399
40
0.713863011470092
40
0.721576443636795
40
0.733146591886844
40
0.737003307970195
40
0.744716740136891
40
0.752430172303588
40
0.764000320553638
40
0.767857036636991
40
0.775570468803688
40
0.783283900970384
40
0.794854049220436
40
0.798710765303786
40
0.806424197470481
40
0.81413762963718
40
0.823779419845556
40
0.829564493970582
40
0.835349568095601
40
0.844991358303975
40
0.860418222637381
40
0.88741523522082
40
0.891271951304173
40
0.89898538347087
40
0.906698815637569
40
0.91826896388762
40
0.922125679970968
40
0.929839112137667
40
0.93755254430436
40
0.949122692554411
40
0.952979408637764
40
0.960692840804458
40
0.96840627297116
40
0.979976421221206
40
0.983833137304559
40
0.991546569471255
40
0.999260001637951
40
1
40
1
40
1
40
1
41
1
10
33.9641845105809
20
-0.885452147035807
30
0
41
1
10
33.9036606800342
20
-0.896106995281087
30
0
41
1
10
33.833201715524
20
-0.90807807698431
30
0
41
1
10
33.7428818558122
20
-0.922761009614021
30
0
41
1
10
33.6932413756406
20
-0.930658668802636
30
0
41
1
10
33.623743837479
20
-0.941411131527047
30
0
41
1
10
33.5641714637519
20
-0.950309787411783
30
0
41
1
10
33.5046002988727
20
-0.958950255849004
30
0
41
1
10
33.4549600363573
20
-0.965977663186465
30
0
41
1
10
33.3904259879592
20
-0.974822123908098
30
0
41
1
10
33.3308544947466
20
-0.982687405602775
30
0
41
1
10
33.2762475422256
20
-0.9896534847488
30
0
41
1
10
33.2216437292532
20
-0.996422993348915
30
0
41
1
10
33.1422221726978
20
-1.0058868295159
30
0
41
1
10
33.018127558109
20
-1.01971205308004
30
0
41
1
10
32.8989797226737
20
-1.03164184738094
30
0
41
1
10
32.7798342794359
20
-1.04243958476513
30
0
41
1
10
32.6805563665782
20
-1.05067012375679
30
0
41
1
10
32.5316408588982
20
-1.0615307528731
30
0
41
1
10
32.4124898891323
20
-1.06870133937153
30
0
41
1
10
32.3131945596984
20
-1.07372693752532
30
0
41
1
10
32.263554112569
20
-1.07600990262878
30
0
41
1
10
32.1940565920398
20
-1.07885394490498
30
0
41
1
10
32.1344842094618
20
-1.08093631941031
30
0
41
1
10
32.07491302176
20
-1.08272372247623
30
0
41
1
10
32.0252727387835
20
-1.08400894156955
30
0
41
1
10
31.9607386666351
20
-1.08535630430117
30
0
41
1
10
31.901167153033
20
-1.08627196995664
30
0
41
1
10
31.8465601825488
20
-1.08684367481916
30
0
41
1
10
31.7919563508914
20
-1.08719032101391
30
0
41
1
10
31.7125347634222
20
-1.08726796959766
30
0
41
1
10
31.5884400895447
20
-1.08633958308405
30
0
41
1
10
31.4692921762855
20
-1.08406592107343
30
0
41
1
10
31.3501466339431
20
-1.08060080641536
30
0
41
1
10
31.2508686142943
20
-1.07688171906904
30
0
41
1
10
31.1019529112309
20
-1.06976965441819
30
0
41
1
10
30.9828017750632
20
-1.0626007609516
30
0
41
1
10
30.883506329881
20
-1.05570446338777
30
0
41
1
10
30.8338658255073
20
-1.0520077316819
30
0
41
1
10
30.7643682220693
20
-1.04649039027745
30
0
41
1
10
30.7047957675907
20
-1.04142668408537
30
0
41
1
10
30.6452245079701
20
-1.0360793155977
30
0
41
1
10
30.595584176223
20
-1.03142071593891
30
0
41
1
10
30.5310500757776
20
-1.02506119737603
30
0
41
1
10
30.4714785764199
20
-1.01888645157194
30
0
41
1
10
30.4168716588993
20
-1.01297756532244
30
0
41
1
10
30.3622678995523
20
-1.00685096069623
30
0
41
1
10
30.2828464221478
20
-0.997537239017021
30
0
41
1
10
30.1488276518172
20
-0.980740685297661
30
0
41
1
10
30.0296767675679
20
-0.96453546318287
30
0
41
1
10
29.9303815330987
20
-0.950206243596313
30
0
41
1
10
29.8807411573769
20
-0.942801674953785
30
0
41
1
10
29.8112437890241
20
-0.932129092110443
30
0
41
1
10
29.751671576585
20
-0.922688603696599
30
0
41
1
10
29.6921005771207
20
-0.912995644941674
30
0
41
1
10
29.642460431255
20
-0.904733824935192
30
0
41
1
10
29.5729631632182
20
-0.892872980179305
30
0
41
1
10
29.5133908831923
20
-0.88242733315866
30
0
41
1
10
29.4538197193596
20
-0.87173948317195
30
0
41
1
10
29.4041794139315
20
-0.862654972230047
30
0
41
1
10
29.3346819322844
20
-0.849655791018563
30
0
41
1
10
29.2751094946805
20
-0.838249554575441
30
0
41
1
10
29.2155382156977
20
-0.826613334782252
30
0
41
1
10
29.1658978622335
20
-0.816746319306901
30
0
41
1
10
29.1013637323349
20
-0.8036813923718
30
0
41
1
10
29.0417922020849
20
-0.791386325761664
30
0
41
1
10
28.9871852525379
20
-0.779923524485184
30
0
41
1
10
28.9325814543178
20
-0.768283379945586
30
0
41
1
10
28.8531599012215
20
-0.751035254260302
30
0
41
1
10
28.7191409573547
20
-0.721093008383406
30
0
41
1
10
28.5999898621681
20
-0.693608441785699
30
0
41
1
10
28.5006944308167
20
-0.670132348058871
30
0
41
1
10
28.4510539523446
20
-0.658198753466536
30
0
41
1
10
28.3815564381775
20
-0.641279304157166
30
0
41
1
10
28.3219841061492
20
-0.626586100339779
30
0
41
1
10
28.2624130001298
20
-0.611721175532011
30
0
41
1
10
28.2127727769143
20
-0.599201403368113
30
0
41
1
10
28.1432754259945
20
-0.581480418966976
30
0
41
1
10
28.0837031046131
20
-0.566120301223606
30
0
41
1
10
28.0241319270445
20
-0.550604727487382
30
0
41
1
10
27.9744916207872
20
-0.53755358286412
30
0
41
1
10
27.9049941430478
20
-0.519108743305395
30
0
41
1
10
27.8454217076723
20
-0.503149157204348
30
0
41
1
10
27.78585042013
20
-0.487051183450688
30
0
41
1
10
27.7362100578774
20
-0.473526157919139
30
0
41
1
10
27.6716759233546
20
-0.455810463926639
30
0
41
1
10
27.6121043978591
20
-0.439330298269823
30
0
41
1
10
27.5574974631526
20
-0.424118994586138
30
0
41
1
10
27.5028936870811
20
-0.408799464952153
30
0
41
1
10
27.4234721747636
20
-0.386336063544604
30
0
41
1
10
27.2894533151274
20
-0.347970906302322
30
0
41
1
10
27.1703022962488
20
-0.313543240605014
30
0
41
1
10
27.0710069061881
20
-0.28462193199212
30
0
41
1
10
27.0213664428774
20
-0.270040469180657
30
0
41
1
10
26.9518689425065
20
-0.249540380180207
30
0
41
1
10
26.8922966182498
20
-0.231908946328559
30
0
41
1
10
26.8327255206436
20
-0.214212853561179
30
0
41
1
10
26.7830853129576
20
-0.199406175522881
30
0
41
1
10
26.7135880018295
20
-0.178614109332187
30
0
41
1
10
26.6540157270866
20
-0.160756116089601
30
0
41
1
10
26.5944445996474
20
-0.142853158395496
30
0
41
1
10
26.5448043320867
20
-0.127887667208739
30
0
41
1
10
26.475306898451
20
-0.106896915545065
30
0
41
1
10
26.4157344903412
20
-0.0888923938363746
30
0
41
1
10
26.3561632213518
20
-0.0708624877031525
30
0
41
1
10
26.3065228684251
20
-0.0558047478834851
30
0
41
1
10
26.2649045826807
20
-0.0431756882204297
30
0
41
1
10
26.2431426748431
20
-0.0365722296244542
30
0
41
1
10
26.2412376739817
20
-0.0359941752396082
30
0
0
SPLINE
5
D8
100
AcDbEntity
8
1
62
256
6
ByLayer
370
13
48
1
60
0
100
AcDbSpline
70
4
71
3
72
71
73
67
40
0
40
0
40
0
40
0
40
0.0158075902234757
40
0.0279581138009641
40
0.0522591609559389
40
0.0765602081109164
40
0.119087040632122
40
0.125162302420868
40
0.137312825998354
40
0.149463349575842
40
0.167689134942075
40
0.17376439673082
40
0.185914920308307
40
0.198065443885794
40
0.213253598357654
40
0.222366491040771
40
0.231479383723887
40
0.246667538195747
40
0.270968585350724
40
0.307420156083187
40
0.319570679660675
40
0.343871726815651
40
0.368172773970626
40
0.410699606491834
40
0.416774868280579
40
0.428925391858066
40
0.441075915435554
40
0.459301700801785
40
0.46537696259053
40
0.477527486168018
40
0.489678009745506
40
0.504866164217366
40
0.513979056900482
40
0.523091949583597
40
0.538280104055458
40
0.562581151210433
40
0.605107983731641
40
0.611183245520386
40
0.623333769097874
40
0.635484292675362
40
0.653710078041593
40
0.659785339830337
40
0.671935863407825
40
0.684086386985313
40
0.702312172351545
40
0.70838743414029
40
0.720537957717777
40
0.732688481295264
40
0.750914266661497
40
0.756989528450241
40
0.769140052027729
40
0.781290575605217
40
0.796478730077076
40
0.805591622760193
40
0.814704515443308
40
0.829892669915169
40
0.854193717070144
40
0.896720549591353
40
0.902795811380097
40
0.914946334957584
40
0.927096858535072
40
0.943803828454118
40
0.951397905690048
40
0.958991982925978
40
0.975698952845024
40
1
40
1
40
1
40
1
41
1
10
11.4914555129226
20
-0.880680463986209
30
0
41
1
10
11.4656212158974
20
-0.885280212131136
30
0
41
1
10
11.4199287896614
20
-0.893295386086862
30
0
41
1
10
11.334521737778
20
-0.907873774411598
30
0
41
1
10
11.2352438135923
20
-0.924175315984542
30
0
41
1
10
11.0863283096673
20
-0.947324832281709
30
0
41
1
10
10.9671773621853
20
-0.964451431321436
30
0
41
1
10
10.8678820593674
20
-0.977854148512392
30
0
41
1
10
10.8182416247891
20
-0.984364024538735
30
0
41
1
10
10.7487441170296
20
-0.993155430136341
30
0
41
1
10
10.6891717397307
20
-1.00035738480969
30
0
41
1
10
10.629600551647
20
-1.00728650019809
30
0
41
1
10
10.5799602653909
20
-1.01287617351426
30
0
41
1
10
10.5154261839082
20
-1.01983740509519
30
0
41
1
10
10.4558546556097
20
-1.0259506919856
30
0
41
1
10
10.4012476663617
20
-1.03129952666814
30
0
41
1
10
10.346643808614
20
-1.03644024240577
30
0
41
1
10
10.2672221659973
20
-1.04351581527942
30
0
41
1
10
10.1431273762042
20
-1.05356839891323
30
0
41
1
10
10.023979337276
20
-1.06184369337291
30
0
41
1
10
9.9048336919389
20
-1.06895538067457
30
0
41
1
10
9.8055556188188
20
-1.07408696162386
30
0
41
1
10
9.65663991078449
20
-1.08026815425143
30
0
41
1
10
9.53748884934288
20
-1.08368902840803
30
0
41
1
10
9.43819351150665
20
-1.08558833299355
30
0
41
1
10
9.38855307183383
20
-1.08630065823721
30
0
41
1
10
9.31905557841657
20
-1.08694496532019
30
0
41
1
10
9.25948323397731
20
-1.0871437340648
30
0
41
1
10
9.19991209158607
20
-1.08704716259842
30
0
41
1
10
9.15027185845179
20
-1.08676039625723
30
0
41
1
10
9.08573788079093
20
-1.08606553357544
30
0
41
1
10
9.0261664846476
20
-1.08509813911152
30
0
41
1
10
8.9715596485614
20
-1.0839450971672
30
0
41
1
10
8.91695595872631
20
-1.08256571314263
30
0
41
1
10
8.83753455910136
20
-1.08013295514192
30
0
41
1
10
8.70351585359043
20
-1.07487182227735
30
0
41
1
10
8.58436492085454
20
-1.06873962576768
30
0
41
1
10
8.48506957497108
20
-1.06269413576192
30
0
41
1
10
8.43542913336231
20
-1.05942157115209
30
0
41
1
10
8.36593166238231
20
-1.05449328357315
30
0
41
1
10
8.30635935545234
20
-1.04992897751512
30
0
41
1
10
8.2467882627559
20
-1.04507712077691
30
0
41
1
10
8.19714803842123
20
-1.04082928858432
30
0
41
1
10
8.1276506633217
20
-1.03454265678604
30
0
41
1
10
8.06807830270222
20
-1.02882286269954
30
0
41
1
10
8.00850707669514
20
-1.0228217500416
30
0
41
1
10
7.95886673126188
20
-1.0176195425575
30
0
41
1
10
7.88936920984713
20
-1.01000509360139
30
0
41
1
10
7.82979675140263
20
-1.00315711219801
30
0
41
1
10
7.77022545651664
20
-0.996035070307954
30
0
41
1
10
7.72058509525203
20
-0.989902848076895
30
0
41
1
10
7.65605096760763
20
-0.981640086965911
30
0
41
1
10
7.59647945135373
20
-0.973721952392708
30
0
41
1
10
7.54187252421741
20
-0.966225896286261
30
0
41
1
10
7.48726875214064
20
-0.958519321727238
30
0
41
1
10
7.40784723739262
20
-0.946923633790021
30
0
41
1
10
7.27382835766758
20
-0.926323703707993
30
0
41
1
10
7.15467731101557
20
-0.906825355676347
30
0
41
1
10
7.05538190649509
20
-0.889806245672133
30
0
41
1
10
7.00574143979443
20
-0.881064806494123
30
0
41
1
10
6.93872558046209
20
-0.868992563723992
30
0
41
1
10
6.87915363043706
20
-0.85799906384014
30
0
41
1
10
6.82702817011634
20
-0.84818422829602
30
0
41
1
10
6.77490675406494
20
-0.8381998084717
30
0
41
1
10
6.69548467454303
20
-0.822646739044217
30
0
41
1
10
6.62846283144467
20
-0.809187469987535
30
0
41
1
10
6.58874588299415
20
-0.801077841332301
30
0
0
SPLINE
5
D9
100
AcDbEntity
8
1
62
256
6
ByLayer
370
18
48
1
60
0
100
AcDbSpline
70
4
71
3
72
10
73
6
40
0
40
0
40
0
40
0
40
0.5
40
0.5
40
1
40
1
40
1
40
1
41
1
10
37.3060479496334
20
2.0551557184173
30
0
41
1
10
37.3632451558107
20
1.90417677678928
30
0
41
1
10
37.4216491630717
20
1.74829319337334
30
0
41
1
10
37.5386581485538
20
1.42516127353989
30
0
41
1
10
37.5972695255305
20
1.25789027538332
30
0
41
1
10
37.654463675661
20
1.0836342471726
30
0
0
SPLINE
5
DA
100
AcDbEntity
8
1
62
256
6
ByLayer
370
13
48
1
60
0
100
AcDbSpline
70
4
71
3
72
115
73
111
40
0
40
0
40
0
40
0
40
0.0008429221456124
40
0.0085334403021028
40
0.0200692175368447
40
0.0239144766150917
40
0.0316049947715808
40
0.0392955129280722
40
0.0508312901628096
40
0.0546765492410597
40
0.0623670673975471
40
0.0700575855540433
40
0.0815933627887803
40
0.0854386218670273
40
0.093129140023516
40
0.100819658180009
40
0.112355435414746
40
0.116200694492995
40
0.123891212649481
40
0.131581730805974
40
0.143117508040713
40
0.146962767118963
40
0.154653285275451
40
0.162343803431946
40
0.173879580666683
40
0.177724839744931
40
0.185415357901419
40
0.193105876057911
40
0.204641653292653
40
0.208486912370898
40
0.216177430527386
40
0.223867948683881
40
0.233481096379496
40
0.239248984996866
40
0.245016873614232
40
0.254630021309845
40
0.270011057622832
40
0.296927871170555
40
0.300773130248801
40
0.308463648405291
40
0.316154166561784
40
0.327689943796519
40
0.331535202874769
40
0.339225721031257
40
0.346916239187751
40
0.35845201642249
40
0.362297275500736
40
0.369987793657227
40
0.37767831181372
40
0.389214089048456
40
0.393059348126704
40
0.400749866283195
40
0.408440384439689
40
0.418053532135303
40
0.423821420752672
40
0.429589309370039
40
0.439202457065651
40
0.454583493378638
40
0.481500306926359
40
0.485345566004607
40
0.4930360841611
40
0.50072660231759
40
0.512262379552327
40
0.516107638630575
40
0.523798156787065
40
0.531488674943559
40
0.541101822639172
40
0.546869711256542
40
0.552637599873909
40
0.562250747569526
40
0.57763178388251
40
0.600703338351984
40
0.608393856508478
40
0.62377489282146
40
0.639155929134445
40
0.666072742682166
40
0.669918001760413
40
0.677608519916904
40
0.685299038073396
40
0.696834815308132
40
0.700680074386381
40
0.708370592542871
40
0.716061110699361
40
0.725674258394977
40
0.731442147012349
40
0.737210035629715
40
0.746823183325334
40
0.762204219638316
40
0.785275774107791
40
0.792966292264284
40
0.808347328577268
40
0.82372836489025
40
0.850645178437973
40
0.854490437516219
40
0.862180955672709
40
0.869871473829202
40
0.88140725106394
40
0.885252510142187
40
0.892943028298678
40
0.900633546455169
40
0.910246694150784
40
0.916014582768155
40
0.921782471385522
40
0.931395619081138
40
0.946776655394121
40
0.973693468941842
40
0.97753872802009
40
0.985229246176581
40
0.992919764333072
40
1
40
1
40
1
40
1
41
1
10
22.7388331733669
20
-0.88113932480897
30
0
41
1
10
22.7366568203395
20
-0.881526238385305
30
0
41
1
10
22.7146241981394
20
-0.885438176104913
30
0
41
1
10
22.6628067432946
20
-0.894518461570101
30
0
41
1
10
22.603234290253
20
-0.904652278197631
30
0
41
1
10
22.5436630056034
20
-0.914540071084957
30
0
41
1
10
22.4940226489597
20
-0.922616556712256
30
0
41
1
10
22.4245252005401
20
-0.933621468800055
30
0
41
1
10
22.3649529016941
20
-0.942738545692606
30
0
41
1
10
22.3053818532736
20
-0.95159949292497
30
0
41
1
10
22.2557417077355
20
-0.958812292342827
30
0
41
1
10
22.1862444903401
20
-0.968596652867717
30
0
41
1
10
22.1266722703703
20
-0.976657668814681
30
0
41
1
10
22.0671011378232
20
-0.984453335765437
30
0
41
1
10
22.0174608174409
20
-0.990771049607105
30
0
41
1
10
21.947963253198
20
-0.999291853829931
30
0
41
1
10
21.8883907123642
20
-1.00626071919814
30
0
41
1
10
21.8288193412504
20
-1.01295542655254
30
0
41
1
10
21.7791789339098
20
-1.01834859488673
30
0
41
1
10
21.709681442242
20
-1.02556572700303
30
0
41
1
10
21.650109107483
20
-1.03140990520993
30
0
41
1
10
21.5905379920685
20
-1.03697343896894
30
0
41
1
10
21.5408977631142
20
-1.04141854834469
30
0
41
1
10
21.4714004107357
20
-1.04730157782009
30
0
41
1
10
21.4118280930458
20
-1.05199701065601
30
0
41
1
10
21.3522569212426
20
-1.05640628387988
30
0
41
1
10
21.3026166211646
20
-1.05988464878214
30
0
41
1
10
21.2331191554822
20
-1.06440839532951
30
0
41
1
10
21.1735467344035
20
-1.06793447189565
30
0
41
1
10
21.1139754649079
20
-1.07116968819778
30
0
41
1
10
21.0643351189599
20
-1.07366539918655
30
0
41
1
10
20.9998010050102
20
-1.07658895067303
30
0
41
1
10
20.9402294962813
20
-1.07896121672877
30
0
41
1
10
20.885622573161
20
-1.08086929549484
30
0
41
1
10
20.8310188067742
20
-1.08255495813438
30
0
41
1
10
20.7515973081767
20
-1.0845832847979
30
0
41
1
10
20.617578469654
20
-1.08685305915586
30
0
41
1
10
20.4984274662701
20
-1.08736975159888
30
0
41
1
10
20.3991320870084
20
-1.08684467585789
30
0
41
1
10
20.3494916290599
20
-1.08633885114557
30
0
41
1
10
20.2799941345317
20
-1.0852762732215
30
0
41
1
10
20.2204218113332
20
-1.08401256180369
30
0
41
1
10
20.1608507092746
20
-1.08245283346864
30
0
41
1
10
20.1112104921194
20
-1.08094516968686
30
0
41
1
10
20.0417131546651
20
-1.07848146431007
30
0
41
1
10
19.9821408431978
20
-1.07601999698687
30
0
41
1
10
19.9225696675624
20
-1.07326407693083
30
0
41
1
10
19.8729293491458
20
-1.07075969318171
30
0
41
1
10
19.8034318255216
20
-1.06690379170334
30
0
41
1
10
19.7438593258097
20
-1.06325437094125
30
0
41
1
10
19.6842879599543
20
-1.05931447731879
30
0
41
1
10
19.6346475233648
20
-1.0558253135658
30
0
41
1
10
19.5701132800668
20
-1.05097730259118
30
0
41
1
10
19.5105416471056
20
-1.0461883804704
30
0
41
1
10
19.4559346133927
20
-1.04154234037651
30
0
41
1
10
19.4013307418599
20
-1.03667403328546
30
0
41
1
10
19.3219091012449
20
-1.02918003259987
30
0
41
1
10
19.1878900570468
20
-1.01542352762803
30
0
41
1
10
19.0687389311722
20
-1.00186086680844
30
0
41
1
10
18.9694434963542
20
-0.989698811090534
30
0
41
1
10
18.9198030167683
20
-0.983373587826406
30
0
41
1
10
18.8503054976924
20
-0.974199270650018
30
0
41
1
10
18.790733157446
20
-0.966028446822207
30
0
41
1
10
18.731162037044
20
-0.957594149633763
30
0
41
1
10
18.6815218167969
20
-0.950374578392882
30
0
41
1
10
18.6169878294694
20
-0.94071102998231
30
0
41
1
10
18.5574163971867
20
-0.931513285084719
30
0
41
1
10
18.5028095021038
20
-0.922855030771188
30
0
41
1
10
18.4482057478801
20
-0.913993760450069
30
0
41
1
10
18.3687842794488
20
-0.900734471244675
30
0
41
1
10
18.2446898008146
20
-0.879135438723296
30
0
41
1
10
18.125542073945
20
-0.857349012948362
30
0
41
1
10
18.0063966975357
20
-0.834623227908679
30
0
41
1
10
17.907118818819
20
-0.81499773768806
30
0
41
1
10
17.7582033407159
20
-0.784386459461359
30
0
41
1
10
17.6390523816534
20
-0.758881810553817
30
0
41
1
10
17.5397570669229
20
-0.73699408011754
30
0
41
1
10
17.4901166257898
20
-0.725842580820114
30
0
41
1
10
17.4206191086593
20
-0.709995369093178
30
0
41
1
10
17.3610467249901
20
-0.696197277110002
30
0
41
1
10
17.3014755339095
20
-0.682208367770414
30
0
41
1
10
17.2518352487124
20
-0.670406079467824
30
0
41
1
10
17.1873011771744
20
-0.65487051407132
30
0
41
1
10
17.1277296682643
20
-0.640341708704938
30
0
41
1
10
17.0731227065186
20
-0.626869440766711
30
0
41
1
10
17.0185188846885
20
-0.613249309263239
30
0
41
1
10
16.9390973095556
20
-0.593180078331528
30
0
41
1
10
16.815002655212
20
-0.561231581639476
30
0
41
1
10
16.6958547707099
20
-0.529949455417864
30
0
41
1
10
16.5767092754408
20
-0.498091010949025
30
0
41
1
10
16.4774313190865
20
-0.47109223117522
30
0
41
1
10
16.3285157514804
20
-0.429907312618326
30
0
41
1
10
16.209364745133
20
-0.396472765630165
30
0
41
1
10
16.1100693983415
20
-0.368306734051771
30
0
41
1
10
16.0604289416156
20
-0.354086092341731
30
0
41
1
10
15.990931401585
20
-0.334064152313289
30
0
41
1
10
15.9313589962694
20
-0.316814838998368
30
0
41
1
10
15.8717877800821
20
-0.299477800524301
30
0
41
1
10
15.8221474783031
20
-0.284954503190164
30
0
41
1
10
15.7576134028766
20
-0.265997489866578
30
0
41
1
10
15.6980419115102
20
-0.248429086088947
30
0
41
1
10
15.6434349881151
20
-0.232267108279558
30
0
41
1
10
15.5888312122784
20
-0.216035204822333
30
0
41
1
10
15.5094096910461
20
-0.192318728556415
30
0
41
1
10
15.3753907985811
20
-0.152042223704598
30
0
41
1
10
15.2562397478807
20
-0.116191381741231
30
0
41
1
10
15.1569443547565
20
-0.086259978019541
30
0
41
1
10
15.1073039004236
20
-0.0712158553802738
30
0
41
1
10
15.0493103508546
20
-0.0536230744857278
30
0
41
1
10
15.0111717320356
20
-0.042056833690566
30
0
41
1
10
14.9928902825046
20
-0.0365120494478219
30
0
0
SPLINE
5
DB
100
AcDbEntity
8
1
62
256
6
ByLayer
370
13
48
1
60
0
100
AcDbSpline
70
4
71
3
72
38
73
34
40
0
40
0
40
0
40
0
40
0.0089636945726935
40
0.0542495963665406
40
0.0693448969644964
40
0.0995354981603724
40
0.129726099356269
40
0.175012001150114
40
0.190107301748075
40
0.220297902943953
40
0.250488504139835
40
0.295774405933686
40
0.310869706531652
40
0.341060307727524
40
0.371250908923419
40
0.416536810717271
40
0.431632111315231
40
0.461822712511098
40
0.492013313706991
40
0.529751565201871
40
0.552394516098808
40
0.575037466995728
40
0.612775718490568
40
0.673156920882379
40
0.778824025067995
40
0.793919325665963
40
0.824109926861839
40
0.854300528057715
40
0.899586429851562
40
0.914681730449542
40
0.944872331645416
40
0.975062932841317
40
1
40
1
40
1
40
1
41
1.00000000000002
10
37.6544636756415
20
1.08363424717147
30
0
41
1.00000000000002
10
37.6485681024506
20
1.083488184679
30
0
41
1.00000000000002
10
37.6128874109609
20
1.08257859063639
30
0
41
1.00000000000002
10
37.5672800835236
20
1.08122053714016
30
0
41
1.00000000000002
10
37.5077108703433
20
1.07914455237824
30
0
41
1.00000000000002
10
37.4580674441215
20
1.07721366830569
30
0
41
1.00000000000002
10
37.3885675560907
20
1.07416685272054
30
0
41
1.00000000000002
10
37.3289992715116
20
1.07120216786357
30
0
41
1.00000000000002
10
37.2694297679445
20
1.06793835821276
30
0
41
1.00000000000002
10
37.2197861493244
20
1.06502130097539
30
0
41
1.00000000000002
10
37.1502861173589
20
1.06059831794736
30
0
41
1.00000000000002
10
37.0907178212275
20
1.05645711120125
30
0
41
1.00000000000002
10
37.0311483787701
20
1.05202074671676
30
0
41
1.00000000000002
10
36.981504828635
20
1.04813082200844
30
0
41
1.00000000000002
10
36.9120048888955
20
1.04235141592211
30
0
41
1.00000000000002
10
36.8524366593603
20
1.03705189177862
30
0
41
1.00000000000002
10
36.792867261211
20
1.03146244824129
30
0
41
1.00000000000002
10
36.7432237095643
20
1.02661675218827
30
0
41
1.00000000000002
10
36.6786887504106
20
1.0200173213473
30
0
41
1.00000000000002
10
36.6191195729701
20
1.01361461451283
30
0
41
1.00000000000002
10
36.5645142012741
20
1.00748827812308
30
0
41
1.00000000000002
10
36.5099056749746
20
1.00115961146495
30
0
41
1.00000000000002
10
36.4304729354492
20
0.99157892953992
30
0
41
1.00000000000002
10
36.2964252677043
20
0.9743969527701
30
0
41
1.00000000000002
10
36.177294978127
20
0.957701400405264
30
0
41
1.00000000000002
10
36.0780226529398
20
0.942906706855334
30
0
41
1.00000000000002
10
36.028379262208
20
0.935327590333409
30
0
41
1.00000000000002
10
35.9588793711777
20
0.924417257801886
30
0
41
1.00000000000002
10
35.8993110801357
20
0.914749622767809
30
0
41
1.00000000000002
10
35.8397415667717
20
0.904823983095733
30
0
41
1.00000000000002
10
35.7900979409085
20
0.896392429940173
30
0
41
1.00000000000002
10
35.7339818676154
20
0.88663086439315
30
0
41
1.00000000000002
10
35.697724354255
20
0.880188765797281
30
0
41
1.00000000000002
10
35.6813232820211
20
0.877246883977771
30
0
0
SPLINE
5
DC
100
AcDbEntity
8
1
62
256
6
ByLayer
370
13
48
1
60
0
100
AcDbSpline
70
4
71
3
72
112
73
108
40
0
40
0
40
0
40
0
40
0.0107427399073399
40
0.0145702710646439
40
0.0222253333792499
40
0.029880395693858
40
0.0413629891657672
40
0.0451905203230725
40
0.0528455826376789
40
0.0605006449522879
40
0.0700694728455461
40
0.0758107695815015
40
0.0815520663174557
40
0.0911208942107117
40
0.106431018839929
40
0.133223736941053
40
0.137051268098359
40
0.144706330412967
40
0.152361392727572
40
0.163843986199482
40
0.167671517356788
40
0.175326579671394
40
0.182981641986003
40
0.19255046987926
40
0.198291766615217
40
0.20403306335117
40
0.21360189124443
40
0.228912015873645
40
0.251877202817465
40
0.259532265132074
40
0.274842389761287
40
0.290152514390502
40
0.316945232491627
40
0.320772763648932
40
0.328427825963538
40
0.336082888278145
40
0.347565481750054
40
0.351393012907361
40
0.359048075221966
40
0.366703137536572
40
0.376271965429831
40
0.38201326216579
40
0.387754558901743
40
0.397323386795006
40
0.412633511424218
40
0.435598698368039
40
0.443253760682647
40
0.458563885311861
40
0.473874009941075
40
0.500666728042201
40
0.504494259199505
40
0.51214932151411
40
0.519804383828718
40
0.53128697730063
40
0.535114508457934
40
0.54276957077254
40
0.550424633087146
40
0.559993460980405
40
0.565734757716363
40
0.571476054452316
40
0.581044882345577
40
0.59635500697479
40
0.623147725075914
40
0.626975256233221
40
0.634630318547826
40
0.642285380862432
40
0.653767974334343
40
0.657595505491649
40
0.665250567806255
40
0.672905630120861
40
0.684388223592774
40
0.688215754750078
40
0.695870817064682
40
0.703525879379291
40
0.7150084728512
40
0.718836004008507
40
0.726491066323114
40
0.73414612863772
40
0.74371495653098
40
0.749456253266936
40
0.75519755000289
40
0.76476637789615
40
0.780076502525365
40
0.80686922062649
40
0.810696751783793
40
0.818351814098399
40
0.826006876413007
40
0.837489469884918
40
0.841317001042223
40
0.848972063356829
40
0.856627125671437
40
0.868109719143348
40
0.871937250300652
40
0.879592312615258
40
0.887247374929864
40
0.898729968401776
40
0.90255749955908
40
0.910212561873685
40
0.917867624188294
40
0.927436452081552
40
0.933177748817509
40
0.938919045553464
40
0.948487873446723
40
0.963797998075937
40
0.990590716177062
40
0.994418247334367
40
1
40
1
40
1
40
1
41
1.00000000000002
10
20.9513319612714
20
0.0358864450896014
30
0
41
1.00000000000002
10
20.9234660965237
20
0.0443422274436207
30
0
41
1.00000000000002
10
20.8856729240157
20
0.0558147172905864
30
0
41
1.00000000000002
10
20.8280225825378
20
0.0733034427042283
30
0
41
1.00000000000002
10
20.7783790466186
20
0.0883294473176742
30
0
41
1.00000000000002
10
20.7088791742794
20
0.109334839301707
30
0
41
1.00000000000002
10
20.6493110492046
20
0.127328727739919
30
0
41
1.00000000000002
10
20.5897417901548
20
0.145289575126551
30
0
41
1.00000000000002
10
20.5400983724128
20
0.160209948678325
30
0
41
1.00000000000002
10
20.4755636052543
20
0.179562822753578
30
0
41
1.00000000000002
10
20.4159946133451
20
0.197384745335565
30
0
41
1.00000000000002
10
20.3613894075714
20
0.213679206975423
30
0
41
1.00000000000002
10
20.3067810392959
20
0.229908497385021
30
0
41
1.00000000000002
10
20.2273485126898
20
0.253399927467024
30
0
41
1.00000000000002
10
20.093301149182
20
0.292718132639913
30
0
41
1.00000000000002
10
19.9741710261175
20
0.327443359743221
30
0
41
1.00000000000002
10
19.8748987537633
20
0.356116495167093
30
0
41
1.00000000000002
10
19.8252553790233
20
0.370318394784412
30
0
41
1.00000000000002
10
19.755755502141
20
0.390078536829455
30
0
41
1.00000000000002
10
19.6961872175996
20
0.406910655652118
30
0
41
1.00000000000002
10
19.6366177130897
20
0.423630623848273
30
0
41
1.00000000000002
10
19.5869740789992
20
0.437465377677332
30
0
41
1.00000000000002
10
19.5224390558653
20
0.455325215492498
30
0
41
1.00000000000002
10
19.4628698632751
20
0.47168455978552
30
0
41
1.00000000000002
10
19.4082645188713
20
0.486568684346356
30
0
41
1.00000000000002
10
19.353656033286
20
0.501332521188079
30
0
41
1.00000000000002
10
19.2742233344913
20
0.52259047439195
30
0
41
1.00000000000002
10
19.1501081766607
20
0.555284656424265
30
0
41
1.00000000000002
10
19.0309746542631
20
0.586081516679586
30
0
41
1.00000000000002
10
18.9118387811665
20
0.616224504751288
30
0
41
1.00000000000002
10
18.8125489509476
20
0.640817256777823
30
0
41
1.00000000000002
10
18.663612865512
20
0.676780127870373
30
0
41
1.00000000000002
10
18.5444825756395
20
0.704723683636146
30
0
41
1.00000000000002
10
18.4452101831928
20
0.727402983743515
30
0
41
1.00000000000002
10
18.3955667699972
20
0.738537680099837
30
0
41
1.00000000000002
10
18.3260668911674
20
0.753887389491792
30
0
41
1.00000000000002
10
18.2664986500487
20
0.766816100085675
30
0
41
1.00000000000002
10
18.2069292162189
20
0.779531980772629
30
0
41
1.00000000000002
10
18.1572856470801
20
0.789967574121346
30
0
41
1.00000000000002
10
18.0927507081583
20
0.803305202618657
30
0
41
1.00000000000002
10
18.0331815921967
20
0.815382691439634
30
0
41
1.00000000000002
10
17.9785763144562
20
0.826253535278749
30
0
41
1.00000000000002
10
17.9239678964781
20
0.836938147247093
30
0
41
1.00000000000002
10
17.8445353043871
20
0.852139662475774
30
0
41
1.00000000000002
10
17.7204203222701
20
0.875064038112451
30
0
41
1.00000000000002
10
17.601286957508
20
0.896036880946733
30
0
41
1.00000000000002
10
17.4821512032701
20
0.916008609542056
30
0
41
1.00000000000002
10
17.3828614506857
20
0.931918134623524
30
0
41
1.00000000000002
10
17.2339254547466
20
0.954458079154258
30
0
41
1.00000000000002
10
17.1147952121537
20
0.971224432265367
30
0
41
1.00000000000002
10
17.015522851766
20
0.984337996495619
30
0
41
1.00000000000002
10
16.9658794541627
20
0.990650971542387
30
0
41
1.00000000000002
10
16.8963795982334
20
0.999170290783987
30
0
41
1.00000000000002
10
16.8368113787622
20
1.00615625499655
30
0
41
1.00000000000002
10
16.777241970041
20
1.01286177552289
30
0
41
1.00000000000002
10
16.7275984174851
20
1.01825145318512
30
0
41
1.00000000000002
10
16.6630634824518
20
1.02496200449727
30
0
41
1.00000000000002
10
16.6034943489454
20
1.03085174098943
30
0
41
1.00000000000002
10
16.5488890328523
20
1.03599418564762
30
0
41
1.00000000000002
10
16.4942805688789
20
1.04091421983251
30
0
41
1.00000000000002
10
16.4148479228874
20
1.04766224151744
30
0
41
1.00000000000002
10
16.2808004076414
20
1.0579380788847
30
0
41
1.00000000000002
10
16.1616702094004
20
1.06566573305802
30
0
41
1.00000000000002
10
16.0623978953544
20
1.0711546644682
30
0
41
1.00000000000002
10
16.0127544953623
20
1.07365092775357
30
0
41
1.00000000000002
10
15.9432545687428
20
1.07680132657746
30
0
41
1.00000000000002
10
15.8836862308548
20
1.07915386699861
30
0
41
1.00000000000002
10
15.8241166664532
20
1.08120483893126
30
0
41
1.00000000000002
10
15.7744730008269
20
1.0827078384198
30
0
41
1.00000000000002
10
15.7049729161441
20
1.08446500697608
30
0
41
1.00000000000002
10
15.6454045872367
20
1.08561903270721
30
0
41
1.00000000000002
10
15.5858351210092
20
1.08646920629034
30
0
41
1.00000000000002
10
15.5361915573814
20
1.08697164776362
30
0
41
1.00000000000002
10
15.4666916139159
20
1.08732640953003
30
0
41
1.00000000000002
10
15.4071233999106
20
1.08727516423457
30
0
41
1.00000000000002
10
15.3475540355509
20
1.08691878318303
30
0
41
1.00000000000002
10
15.2979105222565
20
1.08641656401335
30
0
41
1.00000000000002
10
15.2333756277198
20
1.08544484608468
30
0
41
1.00000000000002
10
15.1738065243038
20
1.08421819072317
30
0
41
1.00000000000002
10
15.1192012304011
20
1.08281878078987
30
0
41
1.00000000000002
10
15.0645927931081
20
1.08119364432063
30
0
41
1.00000000000002
10
14.9851602084196
20
1.07841334286392
30
0
41
1.00000000000002
10
14.8511128472579
20
1.07259472939913
30
0
41
1.00000000000002
10
14.731982844945
20
1.06591677340334
30
0
41
1.00000000000002
10
14.6327107112011
20
1.05938878848213
30
0
41
1.00000000000002
10
14.5830674084437
20
1.05590265085795
30
0
41
1.00000000000002
10
14.5135676282466
20
1.05068555921461
30
0
41
1.00000000000002
10
14.4539994174111
20
1.04586593607991
30
0
41
1.00000000000002
10
14.394429971465
20
1.04075429095187
30
0
41
1.00000000000002
10
14.3447863895786
20
1.0363047105164
30
0
41
1.00000000000002
10
14.2752863888274
20
1.02974621668049
30
0
41
1.00000000000002
10
14.2157180998849
20
1.02378279086029
30
0
41
1.00000000000002
10
14.156148650746
20
1.01753374245093
30
0
41
1.00000000000002
10
14.1065050926074
20
1.01214215865631
30
0
41
1.00000000000002
10
14.0370051459932
20
1.0042730571191
30
0
41
1.00000000000002
10
13.977436917411
20
0.997193145840875
30
0
41
1.00000000000002
10
13.9178675296949
20
0.989834804291555
30
0
41
1.00000000000002
10
13.8682239899682
20
0.983525163730555
30
0
41
1.00000000000002
10
13.8036890449086
20
0.97503544131812
30
0
41
1.00000000000002
10
13.744119875772
20
0.966900778480757
30
0
41
1.00000000000002
10
13.68951450407
20
0.959198218157135
30
0
41
1.00000000000002
10
13.6349059705644
20
0.951305647052416
30
0
41
1.00000000000002
10
13.5554732089458
20
0.939472372467784
30
0
41
1.00000000000002
10
13.4214254809058
20
0.918550288388483
30
0
41
1.00000000000002
10
13.3022951245497
20
0.898591077541776
30
0
41
1.00000000000002
10
13.2084001762157
20
0.882073157613813
30
0
41
1.00000000000002
10
13.1839929755954
20
0.87771436460569
30
0
41
1.00000000000002
10
13.169513966226
20
0.875106947864292
30
0
0
SPLINE
5
DD
100
AcDbEntity
8
1
62
256
6
ByLayer
370
18
48
1
60
0
100
AcDbSpline
70
4
71
3
72
32
73
28
40
0
40
0
40
0
40
0
40
0.0799497871029996
40
0.0799497871029996
40
0.159899574205999
40
0.159899574205999
40
0.239849361308999
40
0.239849361308999
40
0.319799148411998
40
0.319799148411998
40
0.399748935514998
40
0.399748935514998
40
0.479698722617998
40
0.479698722617998
40
0.559648509720997
40
0.559648509720997
40
0.639598296823997
40
0.639598296823997
40
0.719548083926996
40
0.719548083926996
40
0.799497871029996
40
0.799497871029996
40
0.879447658132995
40
0.879447658132995
40
0.959397445235995
40
0.959397445235995
40
1
40
1
40
1
40
1
41
1
10
6.27818566370598
20
-1.3676971214114
30
0
41
1
10
6.43941992005452
20
-1.43192878034932
30
0
41
1
10
6.59998791353593
20
-1.49205539490677
30
0
41
1
10
6.92136599338298
20
-1.60301948205316
30
0
41
1
10
7.08171166706859
20
-1.65459492199616
30
0
41
1
10
7.40317672016471
20
-1.74606300995535
30
0
41
1
10
7.56441931538691
20
-1.78651527357539
30
0
41
1
10
7.88611395810369
20
-1.85684683660847
30
0
41
1
10
8.04652268850515
20
-1.88670368379337
30
0
41
1
10
8.36785235914675
20
-1.93407877293782
30
0
41
1
10
8.52831984705685
20
-1.95193446835597
30
0
41
1
10
8.85024964257889
20
-1.9764814335355
30
0
41
1
10
9.01108664192645
20
-1.98312477082641
30
0
41
1
10
9.33245797116953
20
-1.98345763056136
30
0
41
1
10
9.4927998464089
20
-1.97722803982617
30
0
41
1
10
9.81408273369547
20
-1.95454870160728
30
0
41
1
10
9.97503501071429
20
-1.93722677493844
30
0
41
1
10
10.2967099274259
20
-1.88948935834915
30
0
41
1
10
10.4571507710168
20
-1.85972184072213
30
0
41
1
10
10.778313893603
20
-1.7908874689322
30
0
41
1
10
10.9385910952107
20
-1.75114294200333
30
0
41
1
10
11.2604631328081
20
-1.65922910977162
30
0
41
1
10
11.4213921053467
20
-1.60784363744753
30
0
41
1
10
11.7426191643254
20
-1.49736907497265
30
0
41
1
10
11.9029093966041
20
-1.43790855994334
30
0
41
1
10
12.1452326726736
20
-1.34062790250473
30
0
41
1
10
12.2269075696641
20
-1.30664266987355
30
0
41
1
10
12.3086011678939
20
-1.27168366076734
30
0
0
SPLINE
5
DE
100
AcDbEntity
8
1
62
256
6
ByLayer
370
18
48
1
60
0
100
AcDbSpline
70
4
71
3
72
68
73
64
40
0
40
0
40
0
40
0
40
0.0225261872203831
40
0.0225261872203831
40
0.0558962753593006
40
0.0558962753593006
40
0.0892663634982181
40
0.0892663634982181
40
0.122636451637135
40
0.122636451637135
40
0.156006539776053
40
0.156006539776053
40
0.18937662791497
40
0.18937662791497
40
0.222746716053888
40
0.222746716053888
40
0.256116804192805
40
0.256116804192805
40
0.289486892331722
40
0.289486892331722
40
0.32285698047064
40
0.32285698047064
40
0.356227068609557
40
0.356227068609557
40
0.389597156748475
40
0.389597156748475
40
0.422967244887392
40
0.422967244887392
40
0.456337333026311
40
0.456337333026311
40
0.489707421165229
40
0.489707421165229
40
0.523077509304148
40
0.523077509304148
40
0.556447597443067
40
0.556447597443067
40
0.589817685581985
40
0.589817685581985
40
0.623187773720904
40
0.623187773720904
40
0.656557861859822
40
0.656557861859822
40
0.68992794999874
40
0.68992794999874
40
0.723298038137659
40
0.723298038137659
40
0.756668126276577
40
0.756668126276577
40
0.790038214415496
40
0.790038214415496
40
0.823408302554414
40
0.823408302554414
40
0.856778390693332
40
0.856778390693332
40
0.890148478832251
40
0.890148478832251
40
0.92351856697117
40
0.92351856697117
40
0.956888655110088
40
0.956888655110088
40
0.990258743249007
40
0.990258743249007
40
1
40
1
40
1
40
1
41
1
10
20.4092604632423
20
2.00314560014607
30
0
41
1
10
20.5174850410309
20
2.00354991174524
30
0
41
1
10
20.6257349802841
20
2.00149140400379
30
0
41
1
10
20.8948922502462
20
1.98905378387269
30
0
41
1
10
21.055348523043
20
1.9749349852423
30
0
41
1
10
21.3758385494631
20
1.93465331031609
30
0
41
1
10
21.5360139126698
20
1.90968171306324
30
0
41
1
10
21.8566717564012
20
1.84767580447672
30
0
41
1
10
22.0175757919834
20
1.81042990722224
30
0
41
1
10
22.3383356149378
20
1.72538989878757
30
0
41
1
10
22.498514013062
20
1.67831665146889
30
0
41
1
10
22.8188290862053
20
1.57387638287889
30
0
41
1
10
22.9792719329223
20
1.5163845613894
30
0
41
1
10
23.3007205732454
20
1.39179742849098
30
0
41
1
10
23.4609701890502
20
1.32555395285453
30
0
41
1
10
23.7813328233551
20
1.18587482244149
30
0
41
1
10
23.9415646881785
20
1.11206491266574
30
0
41
1
10
24.2624846782884
20
0.957575286707851
30
0
41
1
10
24.4233212533061
20
0.877144669196355
30
0
41
1
10
24.7439861348946
20
0.712189388531186
30
0
41
1
10
24.9040302525815
20
0.627076937223706
30
0
41
1
10
25.2245321343442
20
0.453587173721502
30
0
41
1
10
25.3852202766659
20
0.365368804272976
30
0
41
1
10
25.7062293608446
20
0.186633517382205
30
0
41
1
10
25.86626143697
20
0.0964697217125376
30
0
41
1
10
26.1864323086246
20
-0.0835775150060272
30
0
41
1
10
26.3465471160048
20
-0.173505668069424
30
0
41
1
10
26.6670742864173
20
-0.352761145572686
30
0
41
1
10
26.8277944019421
20
-0.441498620512505
30
0
41
1
10
27.1479836977594
20
-0.615385495726542
30
0
41
1
10
27.3079179987689
20
-0.700483944896064
30
0
41
1
10
27.6279528138204
20
-0.867361799073677
30
0
41
1
10
27.788342489553
20
-0.948626326326831
30
0
41
1
10
28.109082418009
20
-1.10397991769978
30
0
41
1
10
28.2692654692513
20
-1.17788854615122
30
0
41
1
10
28.5891090467831
20
-1.32076351307271
30
0
41
1
10
28.7489471120828
20
-1.38859614302859
30
0
41
1
10
29.0696364149268
20
-1.51407119831009
30
0
41
1
10
29.2301781897199
20
-1.57211600733567
30
0
41
1
10
29.550404056758
20
-1.67993935408151
30
0
41
1
10
29.7103978136915
20
-1.72920929530943
30
0
41
1
10
30.0305142842533
20
-1.815826721896
30
0
41
1
10
30.1910679892111
20
-1.85349635513702
30
0
41
1
10
30.5117109909066
20
-1.91994299881773
30
0
41
1
10
30.6717200443184
20
-1.94811287913566
30
0
41
1
10
30.9915738535717
20
-1.9899175684686
30
0
41
1
10
31.151677904719
20
-2.0041993227471
30
0
41
1
10
31.4724221153135
20
-2.02122816286587
30
0
41
1
10
31.632838298936
20
-2.02372289951919
30
0
41
1
10
31.9531021076998
20
-2.01724392946713
30
0
41
1
10
32.1131758194063
20
-2.00840477078225
30
0
41
1
10
32.4332878462935
20
-1.97935589985474
30
0
41
1
10
32.5939105405752
20
-1.95891372507705
30
0
41
1
10
32.9141427414554
20
-1.90485556537212
30
0
41
1
10
33.0740021378666
20
-1.87179069355511
30
0
41
1
10
33.3938954538746
20
-1.79519549931726
30
0
41
1
10
33.5539818907686
20
-1.7514705092232
30
0
41
1
10
33.8746394459633
20
-1.65272629275952
30
0
41
1
10
34.0348426011296
20
-1.59833283558123
30
0
41
1
10
34.3548331952675
20
-1.48111890659948
30
0
41
1
10
34.5146307676395
20
-1.41799120454613
30
0
41
1
10
34.7214741790359
20
-1.33091206458747
30
0
41
1
10
34.7682603183807
20
-1.31087493140907
30
0
41
1
10
34.8150642756001
20
-1.29049621600584
30
0
0
SPLINE
5
DF
100
AcDbEntity
8
1
62
256
6
ByLayer
370
18
48
1
60
0
100
AcDbSpline
70
4
71
3
72
8
73
4
40
0
40
0
40
0
40
0
40
1
40
1
40
1
40
1
41
1
10
37.6462435435893
20
-0.415434248466085
30
0
41
1
10
37.6474171637041
20
-0.416618397735221
30
0
41
1
10
37.6485908361694
20
-0.417802495121464
30
0
41
1
10
37.6497645609777
20
-0.418986540618789
30
0
0
SPLINE
5
E0
100
AcDbEntity
8
1
62
256
6
ByLayer
370
18
48
1
60
0
100
AcDbSpline
70
4
71
3
72
36
73
32
40
0
40
0
40
0
40
0
40
0.249999999999999
40
0.249999999999999
40
0.374999999999997
40
0.374999999999997
40
0.499999999999995
40
0.499999999999995
40
0.562499999999995
40
0.562499999999995
40
0.624999999999996
40
0.624999999999996
40
0.687499999999997
40
0.687499999999997
40
0.749999999999997
40
0.749999999999997
40
0.781249999999998
40
0.781249999999998
40
0.812499999999998
40
0.812499999999998
40
0.843749999999998
40
0.843749999999998
40
0.874999999999999
40
0.874999999999999
40
0.906249999999999
40
0.906249999999999
40
0.937499999999999
40
0.937499999999999
40
0.96875
40
0.96875
40
1
40
1
40
1
40
1
41
1
10
5.57620572563232
20
-1.16590963614138
30
0
41
1
10
5.20460747386556
20
-1.02151355555051
30
0
41
1
10
4.83659926442431
20
-0.859875704546965
30
0
41
1
10
4.29172836172339
20
-0.58190624961415
30
0
41
1
10
4.11046115834949
20
-0.482727223054837
30
0
41
1
10
3.75622770703265
20
-0.271691643960594
30
0
41
1
10
3.58319645652603
20
-0.159966726068006
30
0
41
1
10
3.33203712801324
20
0.0203863793154824
30
0
41
1
10
3.24972877642563
20
0.0826523451804633
30
0
41
1
10
3.0886422012351
20
0.212562315989601
30
0
41
1
10
3.00948792897509
20
0.280537109387978
30
0
41
1
10
2.85780603024685
20
0.421859260299414
30
0
41
1
10
2.78545809183208
20
0.494958487022103
30
0
41
1
10
2.650156244507
20
0.64767738561855
30
0
41
1
10
2.58755951857157
20
0.727014821001632
30
0
41
1
10
2.50650126257574
20
0.848700205591342
30
0
41
1
10
2.48152576377768
20
0.889833291226694
30
0
41
1
10
2.4364662273569
20
0.97345718966676
30
0
41
1
10
2.41632475484514
20
1.0161863395592
30
0
41
1
10
2.38301497823349
20
1.10061848296365
30
0
41
1
10
2.36967687835926
20
1.14257850857493
30
0
41
1
10
2.35034745047119
20
1.22591994405673
30
0
41
1
10
2.34438306964054
20
1.26766432309677
30
0
41
1
10
2.34074663810077
20
1.3476186369451
30
0
41
1
10
2.34294961063759
20
1.38606535221629
30
0
41
1
10
2.35514961743021
20
1.45998566846382
30
0
41
1
10
2.36528639427348
20
1.49573928019109
30
0
41
1
10
2.39246634057463
20
1.56260332405625
30
0
41
1
10
2.40942278766892
20
1.59377143511298
30
0
41
1
10
2.44918887752567
20
1.65217259188836
30
0
41
1
10
2.47216725807357
20
1.67954884258876
30
0
41
1
10
2.49725877813225
20
1.70470216096948
30
0
0
SPLINE
5
E1
100
AcDbEntity
8
1
62
256
6
ByLayer
370
18
48
1
60
0
100
AcDbSpline
70
4
71
3
72
8
73
4
40
0
40
0
40
0
40
0
40
1
40
1
40
1
40
1
41
1
10
37.074486753339
20
0.118739388500671
30
0
41
1
10
37.1959863483207
20
0.0656306686130961
30
0
41
1
10
37.3184943949296
20
0.0188555145338398
30
0
41
1
10
37.4421298750771
20
-0.0208388095687724
30
0
0
LINE
5
76
100
AcDbEntity
8
81
62
256
6
ByLayer
370
18
48
1
60
0
100
AcDbLine
10
38
20
0
30
0
11
43
21
0
31
0
39
0
210
0
220
0
230
1
0
LINE
5
77
100
AcDbEntity
8
1
62
256
6
ByLayer
370
18
48
1
60
0
100
AcDbLine
10
5.573441
20
2.042956
30
0
11
1.5341
21
2.035685
31
0
39
0
210
0
220
0
230
1
0
LINE
5
79
100
AcDbEntity
8
1
62
256
6
ByLayer
370
18
48
1
60
0
100
AcDbLine
10
16.145136
20
2.061985
30
0
11
15.538544
21
2.060893
31
0
39
0
210
0
220
0
230
1
0
LINE
5
7A
100
AcDbEntity
8
1
62
256
6
ByLayer
370
18
48
1
60
0
100
AcDbLine
10
27.396525
20
2.082237
30
0
11
26.794371
21
2.081154
31
0
39
0
210
0
220
0
230
1
0
LINE
5
7B
100
AcDbEntity
8
1
62
256
6
ByLayer
370
18
48
1
60
0
100
AcDbLine
10
26.794371
20
-2.081154
30
0
11
27.396525
21
-2.082237
31
0
39
0
210
0
220
0
230
1
0
LINE
5
7C
100
AcDbEntity
8
1
62
256
6
ByLayer
370
18
48
1
60
0
100
AcDbLine
10
15.538544
20
-2.060893
30
0
11
16.145136
21
-2.061985
31
0
39
0
210
0
220
0
230
1
0
LINE
5
7D
100
AcDbEntity
8
1
62
256
6
ByLayer
370
18
48
1
60
0
100
AcDbLine
10
1.5341
20
-2.035685
30
0
11
5.573441
21
-2.042956
31
0
39
0
210
0
220
0
230
1
0
LINE
5
7E
100
AcDbEntity
8
SK1
62
256
6
ByLayer
370
18
48
1
60
0
100
AcDbLine
10
-34.989637
20
3
30
0
11
-36
21
1.25
31
0
39
0
210
0
220
0
230
1
0
LINE
5
80
100
AcDbEntity
8
SK1
62
256
6
ByLayer
370
18
48
1
60
0
100
AcDbLine
10
-36
20
-1.25
30
0
11
-34.989637
21
-3
31
0
39
0
210
0
220
0
230
1
0
LINE
5
81
100
AcDbEntity
8
SK1
62
256
6
ByLayer
370
18
48
1
60
0
100
AcDbLine
10
0
20
3
30
0
11
-34.989637
21
3
31
0
39
0
210
0
220
0
230
1
0
LINE
5
82
100
AcDbEntity
8
SK1
62
256
6
ByLayer
370
18
48
1
60
0
100
AcDbLine
10
-34.989637
20
-3
30
0
11
0
21
-3
31
0
39
0
210
0
220
0
230
1
0
LINE
5
83
100
AcDbEntity
8
SK4
62
256
6
ByLayer
370
18
48
0.05
60
0
100
AcDbLine
10
43
20
0
30
0
11
-41
21
0
31
0
39
0
210
0
220
0
230
1
0
LINE
5
85
100
AcDbEntity
8
4
62
256
6
ByLayer
370
18
48
0.05
60
0
100
AcDbLine
10
38
20
0
30
0
11
0
21
0
31
0
39
0
210
0
220
0
230
1
0
LINE
5
87
100
AcDbEntity
8
80
62
256
6
ByLayer
370
18
48
1
60
0
100
AcDbLine
10
0
20
0
30
0
11
-5
21
0
31
0
39
0
210
0
220
0
230
1
0
LINE
5
88
100
AcDbEntity
8
1
62
256
6
ByLayer
370
13
48
1
60
0
100
AcDbLine
10
0.766285
20
2.517842
30
0
11
0.766285
21
-2.517842
31
0
39
0
210
0
220
0
230
1
0
LINE
5
89
100
AcDbEntity
8
1
62
256
6
ByLayer
370
18
48
1
60
0
100
AcDbLine
10
37.642911
20
-0.446473
30
0
11
37.646244
21
-0.415434
31
0
39
0
210
0
220
0
230
1
0
LINE
5
8A
100
AcDbEntity
8
1
62
256
6
ByLayer
370
18
48
1
60
0
100
AcDbLine
10
37.073053
20
-0.926361
30
0
11
37.642911
21
-0.446473
31
0
39
0
210
0
220
0
230
1
0
LINE
5
8B
100
AcDbEntity
8
1
62
256
6
ByLayer
370
13
48
1
60
0
100
AcDbLine
10
1.5341
20
2.035685
30
0
11
1.5341
21
-2.035685
31
0
39
0
210
0
220
0
230
1
0
LINE
5
8C
100
AcDbEntity
8
1
62
256
6
ByLayer
370
18
48
1
60
0
100
AcDbLine
10
0
20
-3
30
0
11
0
21
3
31
0
39
0
210
0
220
0
230
1
0
LINE
5
8D
100
AcDbEntity
8
SK1
62
256
6
ByLayer
370
18
48
1
60
0
100
AcDbLine
10
0
20
-3
30
0
11
0
21
3
31
0
39
0
210
0
220
0
230
1
0
LINE
5
8E
100
AcDbEntity
8
SK1
62
256
6
ByLayer
370
18
48
1
60
0
100
AcDbLine
10
-36
20
1.25
30
0
11
-36
21
-1.25
31
0
39
0
210
0
220
0
230
1
0
LINE
5
8F
100
AcDbEntity
8
SK1
62
256
6
ByLayer
370
18
48
1
60
0
100
AcDbLine
10
-34.989637
20
3
30
0
11
-34.989637
21
-3
31
0
39
0
210
0
220
0
230
1
0
MTEXT
5
E2
100
AcDbEntity
8
SK6
62
256
6
ByLayer
370
13
48
1
60
0
100
AcDbMText
10
3.129169
20
34.482694
30
0
210
0
220
0
230
1
1
\W0.7507;860.1-0420-027A1-PM 4234
40
3.5
41
0
44
1.084337
50
0
71
8
72
5
7
iso_b_vert
0
DIMENSION
5
EF
100
AcDbEntity
8
2
62
256
6
ByLayer
370
13
48
1
60
0
100
AcDbDimension
2
DimnDraft3D1
10
37.2646
20
-12.313398
30
0
11
17.514659
21
-12.313398
31
0
70
32
71
5
72
1
41
1
210
0
220
0
230
1
3
Standard
100
AcDbAlignedDimension
13
0
23
-1.5875
33
0
14
37.2646
24
-3.6875
34
0
50
0
100
AcDbRotatedDimension
1001
ACAD
1000
DSTYLE
1002
{
1070
   279
1070
     0
1070
   172
1070
     1
1070
   173
1070
     1
1070
   340
1005
E3
1070
   271
1070
     2
1070
   272
1070
     2
1070
    77
1070
     1
1070
    73
1070
     0
1070
   171
1070
     3
1070
   274
1070
     4
1070
   177
1070
    35
1070
   176
1070
    35
1070
   178
1070
    35
1070
    48
1040
-0.005
1070
    41
1041
3.5
1070
   147
1041
1.75
1070
    42
1041
1.5875
1070
    44
1041
2.0
1070
   140
1041
3.5
1070
   343
1005
0
1070
   344
1005
0
1002
}
0
DIMENSION
5
F9
100
AcDbEntity
8
SK2
62
256
6
ByLayer
370
13
48
1
60
0
100
AcDbDimension
2
DimnDraft3D2
10
38
20
-31.692985
30
0
11
1.6059
21
-31.692985
31
0
70
32
71
5
72
1
41
1
210
0
220
0
230
1
3
Standard
100
AcDbAlignedDimension
13
-36
23
-4.5875
33
0
14
38
24
-1.5875
34
0
50
0
100
AcDbRotatedDimension
1001
ACAD
1000
DSTYLE
1002
{
1070
   279
1070
     0
1070
   172
1070
     1
1070
   173
1070
     1
1070
   340
1005
E3
1070
   271
1070
     2
1070
   272
1070
     2
1070
    77
1070
     1
1070
    73
1070
     0
1070
   171
1070
     3
1070
   274
1070
     4
1070
   177
1070
    35
1070
   176
1070
    35
1070
   178
1070
    35
1070
    48
1040
-0.005
1070
    41
1041
3.5
1070
   147
1041
1.75
1070
    42
1041
1.5875
1070
    44
1041
2.0
1070
   140
1041
3.5
1070
   343
1005
0
1070
   344
1005
0
1002
}
0
DIMENSION
5
103
100
AcDbEntity
8
SK2
62
256
6
ByLayer
370
13
48
1
60
0
100
AcDbDimension
2
DimnDraft3D3
10
38
20
13.709119
30
0
11
27.13
21
13.709119
31
0
70
32
71
5
72
1
41
1
210
0
220
0
230
1
3
Standard
100
AcDbAlignedDimension
13
16.26
23
3.6875
33
0
14
38
24
1.5875
34
0
50
0
100
AcDbRotatedDimension
1001
ACAD
1000
DSTYLE
1002
{
1070
   279
1070
     0
1070
   172
1070
     1
1070
   173
1070
     1
1070
   340
1005
E3
1070
   271
1070
     2
1070
   272
1070
     2
1070
    77
1070
     1
1070
    73
1070
     0
1070
   171
1070
     3
1070
   274
1070
     4
1070
   177
1070
    35
1070
   176
1070
    35
1070
   178
1070
    35
1070
    48
1040
-0.005
1070
    41
1041
3.5
1070
   147
1041
1.75
1070
    42
1041
1.5875
1070
    44
1041
2.0
1070
   140
1041
3.5
1070
   343
1005
0
1070
   344
1005
0
1002
}
0
DIMENSION
5
10D
100
AcDbEntity
8
SK2
62
256
6
ByLayer
370
13
48
1
60
0
100
AcDbDimension
2
DimnDraft3D4
10
37.2646
20
-14.902503
30
0
11
47.981425
21
-14.902503
31
0
70
32
71
5
72
1
41
1
210
0
220
0
230
1
3
Standard
100
AcDbAlignedDimension
13
38
23
-1.5875
33
0
14
37.2646
24
-3.6875
34
0
50
0
100
AcDbRotatedDimension
1001
ACAD
1000
DSTYLE
1002
{
1070
   279
1070
     0
1070
   172
1070
     1
1070
   173
1070
     1
1070
   340
1005
E3
1070
   271
1070
     2
1070
   272
1070
     2
1070
    77
1070
     1
1070
    73
1070
     0
1070
   171
1070
     3
1070
   274
1070
     4
1070
   177
1070
    35
1070
   176
1070
    35
1070
   178
1070
    35
1070
    48
1040
-0.005
1070
    41
1041
3.5
1070
   147
1041
1.75
1070
    42
1041
1.5875
1070
    44
1041
2.0
1070
   140
1041
3.5
1070
   343
1005
0
1070
   344
1005
0
1002
}
0
DIMENSION
5
117
100
AcDbEntity
8
SK2
62
256
6
ByLayer
370
13
48
1
60
0
100
AcDbDimension
2
DimnDraft3D5
10
37.2646
20
-21.343428
30
0
11
-1.474724
21
-21.343428
31
0
70
32
71
5
72
1
41
1
210
0
220
0
230
1
3
Standard
100
AcDbAlignedDimension
13
-36
23
-4.5875
33
0
14
37.2646
24
-3.6875
34
0
50
0
100
AcDbRotatedDimension
1001
ACAD
1000
DSTYLE
1002
{
1070
   279
1070
     0
1070
   172
1070
     1
1070
   173
1070
     1
1070
   340
1005
E3
1070
   271
1070
     2
1070
   272
1070
     2
1070
    77
1070
     1
1070
    73
1070
     0
1070
   171
1070
     3
1070
   274
1070
     4
1070
   177
1070
    35
1070
   176
1070
    35
1070
   178
1070
    35
1070
    48
1040
-0.005
1070
    41
1041
3.5
1070
   147
1041
1.75
1070
    42
1041
1.5875
1070
    44
1041
2.0
1070
   140
1041
3.5
1070
   343
1005
0
1070
   344
1005
0
1002
}
0
DIMENSION
5
122
100
AcDbEntity
8
SK2
62
256
6
ByLayer
370
13
48
1
60
0
100
AcDbDimension
2
DimnDraft3D6
10
-46.625163
20
3
30
0
11
-47.250163
21
21.47418
31
0
70
33
71
5
72
1
41
1
210
0
220
0
230
1
3
Standard
100
AcDbAlignedDimension
13
-37.5875
23
-3
33
0
14
-37.5875
24
3
34
0
1001
ACAD
1000
DSTYLE
1002
{
1070
   279
1070
     0
1070
    74
1070
     0
1070
   173
1070
     1
1070
   340
1005
E3
1070
   271
1070
     3
1070
   272
1070
     2
1070
    77
1070
     1
1070
    73
1070
     0
1070
   171
1070
     3
1070
   274
1070
     4
1070
   177
1070
    35
1070
   176
1070
    35
1070
   178
1070
    35
1070
    48
1040
-0.005
1070
    41
1041
3.5
1070
   147
1041
1.75
1070
    42
1041
1.5875
1070
    44
1041
2.0
1070
   140
1041
3.5
1070
   343
1005
0
1070
   344
1005
0
1002
}
0
DIMENSION
5
12D
100
AcDbEntity
8
2
62
256
6
ByLayer
370
13
48
1
60
0
100
AcDbDimension
2
DimnDraft3D7
10
52.083343
20
2.1
30
0
11
47.458343
21
19.167266
31
0
70
33
71
5
72
1
41
1
210
0
220
0
230
1
3
Standard
100
AcDbAlignedDimension
13
38.8521
23
-2.1
33
0
14
38.8521
24
2.1
34
0
1001
ACAD
1000
DSTYLE
1002
{
1070
   279
1070
     0
1070
    74
1070
     0
1070
   173
1070
     1
1070
   340
1005
E3
1070
   271
1070
     3
1070
   272
1070
     2
1070
    77
1070
     1
1070
    73
1070
     0
1070
   171
1070
     3
1070
   274
1070
     4
1070
   177
1070
    35
1070
   176
1070
    35
1070
   178
1070
    35
1070
    48
1040
-0.005
1070
    41
1041
3.5
1070
   147
1041
1.75
1070
    42
1041
1.5875
1070
    44
1041
2.0
1070
   140
1041
3.5
1070
   343
1005
0
1070
   344
1005
0
1002
}
0
ENDSEC
0
SECTION
2
OBJECTS
0
DICTIONARY
5
198
330
0
100
AcDbDictionary
280
0
281
1
3
ACAD_GROUP
350
199
3
ACAD_MLINESTYLE
350
19a
0
DICTIONARY
5
199
330
0
100
AcDbDictionary
280
0
281
1
0
DICTIONARY
5
19a
330
0
100
AcDbDictionary
280
0
281
1
3
Standard
350
18
0
MLINESTYLE
5
18
330
19a
100
AcDbMlineStyle
2
Standard
70
0
3

62
256
51
90
52
90
71
2
49
-0.5
62
256
6
ByLayer
49
0.5
62
256
6
ByLayer
0
RASTERVARIABLES
5
186
330

100
AcDbRasterVariables
90
0
70
1
71
1
72
1
0
ENDSEC
0
EOF
