0
SECTION
2
HEADER
9
$ACADVER
1
AC1015
9
$DWGCODEPAGE
3
ANSI_1252
9
$HANDSEED
5
196
9
$ANGBASE
50
0
9
$ANGDIR
70
0
9
$ATTMODE
70
1
9
$AUNITS
70
0
9
$AUPREC
70
0
9
$CECOLOR
62
256
9
$CELTSCALE
40
1
9
$CELTYPE
6
ByLayer
9
$CELWEIGHT
370
18
9
$CLAYER
8
0
9
$CMLJUST
70
0
9
$CMLSCALE
40
1
9
$CMLSTYLE
2
Standard
9
$DIMSTYLE
2
Standard
9
$TEXTSIZE
40
0.2
9
$TEXTSTYLE
7
Standard
9
$LUNITS
70
2
9
$LUPREC
70
4
9
$EXTNAMES
290
1
9
$INSUNITS
70
4
9
$LTSCALE
40
1
9
$LWDISPLAY
290
1
9
$PDMODE
70
0
9
$PDSIZE
40
0
9
$PLINEGEN
70
0
0
ENDSEC
0
SECTION
2
CLASSES
0
CLASS
1
RASTERVARIABLES
2
AcDbRasterVariables
3
ISM
90
0
280
0
281
0
0
ENDSEC
0
SECTION
2
TABLES
0
TABLE
2
VPORT
5
18c
100
AcDbSymbolTable
0
VPORT
5
1
100
AcDbSymbolTableRecord
100
AcDbViewportTableRecord
2
*Active
70
0
10
0
20
0
11
1
21
1
12
-1
22
1
13
0
23
0
14
0.5
24
0.5
15
10
25
10
16
0
26
0
36
1
17
0
27
0
37
0
0
ENDTAB
0
TABLE
2
LTYPE
5
18d
100
AcDbSymbolTable
0
LTYPE
5
14
100
AcDbSymbolTableRecord
100
AcDbLinetypeTableRecord
70
0
2
ByBlock
3

72
65
73
0
40
0
0
LTYPE
5
15
100
AcDbSymbolTableRecord
100
AcDbLinetypeTableRecord
70
0
2
ByLayer
3

72
65
73
0
40
0
0
LTYPE
5
16
100
AcDbSymbolTableRecord
100
AcDbLinetypeTableRecord
70
0
2
CONTINUOUS
3
Solid line
72
65
73
0
40
0
0
LTYPE
5
6A
100
AcDbSymbolTableRecord
100
AcDbLinetypeTableRecord
70
0
2
CENTER
3
____ _ ____ _ ____ _ ____
72
65
73
4
40
47.5
49
22
74
0
49
-8.5
74
0
49
8.5
74
0
49
-8.5
74
0
0
LTYPE
5
6B
100
AcDbSymbolTableRecord
100
AcDbLinetypeTableRecord
70
0
2
DASHED
3
__ __ __ __ __ __ __ __ __
72
65
73
2
40
25.72
49
12.86
74
0
49
-12.86
74
0
0
ENDTAB
0
TABLE
2
LAYER
5
18e
100
AcDbSymbolTable
0
LAYER
5
10
100
AcDbSymbolTableRecord
100
AcDbLayerTableRecord
2
0
70
0
62
7
6
CONTINUOUS
290
1
370
-3
390
0
0
LAYER
5
6D
100
AcDbSymbolTableRecord
100
AcDbLayerTableRecord
2
81
70
0
62
-3
6
CONTINUOUS
290
1
370
-3
390
0
0
LAYER
5
6F
100
AcDbSymbolTableRecord
100
AcDbLayerTableRecord
2
80
70
0
62
-6
6
CONTINUOUS
290
1
370
-3
390
0
0
LAYER
5
74
100
AcDbSymbolTableRecord
100
AcDbLayerTableRecord
2
2
70
0
62
7
6
CONTINUOUS
290
1
370
-3
390
0
0
LAYER
5
78
100
AcDbSymbolTableRecord
100
AcDbLayerTableRecord
2
1
70
0
62
4
6
CONTINUOUS
290
1
370
-3
390
0
0
LAYER
5
86
100
AcDbSymbolTableRecord
100
AcDbLayerTableRecord
2
4
70
0
62
-2
6
CENTER
290
1
370
-3
390
0
0
LAYER
5
178
100
AcDbSymbolTableRecord
100
AcDbLayerTableRecord
2
SK2
70
0
62
7
6
CONTINUOUS
290
1
370
-3
390
0
0
LAYER
5
179
100
AcDbSymbolTableRecord
100
AcDbLayerTableRecord
2
SK1
70
0
62
4
6
CONTINUOUS
290
1
370
-3
390
0
0
LAYER
5
17a
100
AcDbSymbolTableRecord
100
AcDbLayerTableRecord
2
SK4
70
0
62
2
6
CENTER
290
1
370
-3
390
0
0
LAYER
5
17b
100
AcDbSymbolTableRecord
100
AcDbLayerTableRecord
2
SK6
70
0
62
5
6
CONTINUOUS
290
1
370
-3
390
0
0
ENDTAB
0
TABLE
2
STYLE
5
18f
100
AcDbSymbolTable
0
STYLE
5
11
100
AcDbSymbolTableRecord
100
AcDbTextStyleTableRecord
2
Standard
3
txt
70
0
71
0
40
0
41
1
42
0
50
0
0
STYLE
5
D4
100
AcDbSymbolTableRecord
100
AcDbTextStyleTableRecord
2
iso_b_vert
3
simplex.shx
70
0
71
0
40
0
41
1
42
0
50
0
0
STYLE
5
D5
100
AcDbSymbolTableRecord
100
AcDbTextStyleTableRecord
2
DWGDirectTextStyle
3
simplex
70
0
71
0
40
0
41
1
42
0
50
0
0
ENDTAB
0
TABLE
2
DIMSTYLE
5
190
100
AcDbSymbolTable
100
AcDbDimStyleTable
0
DIMSTYLE
105
27
100
AcDbSymbolTableRecord
100
AcDbDimStyleTableRecord
2
Standard
70
0
3
<>
41
0.18
42
0.0625
44
0.18
140
0.18
147
0.09
73
0
74
0
77
1
271
2
275
0
278
52
280
0
340
11
0
ENDTAB
0
TABLE
2
VIEW
5
191
100
AcDbSymbolTable
0
ENDTAB
0
TABLE
2
UCS
5
192
100
AcDbSymbolTable
0
ENDTAB
0
TABLE
2
APPID
5
193
100
AcDbSymbolTable
0
APPID
5
12
100
AcDbSymbolTableRecord
100
AcDbRegAppTableRecord
2
ACAD
70
0
0
ENDTAB
0
TABLE
2
BLOCK_RECORD
5
194
100
AcDbSymbolTable
0
BLOCK_RECORD
5
1F
100
AcDbSymbolTableRecord
100
AcDbBlockTableRecord
2
*Model_Space
340
0
70
0
0
BLOCK_RECORD
5
1B
100
AcDbSymbolTableRecord
100
AcDbBlockTableRecord
2
*Paper_Space
340
0
70
0
0
BLOCK_RECORD
5
23
100
AcDbSymbolTableRecord
100
AcDbBlockTableRecord
2
*Paper_Space0
340
0
70
0
0
BLOCK_RECORD
5
D7
100
AcDbSymbolTableRecord
100
AcDbBlockTableRecord
2
DimnDraft3D1
340
0
70
0
0
BLOCK_RECORD
5
E1
100
AcDbSymbolTableRecord
100
AcDbBlockTableRecord
2
DimnDraft3D2
340
0
70
0
0
BLOCK_RECORD
5
EB
100
AcDbSymbolTableRecord
100
AcDbBlockTableRecord
2
DimnDraft3D3
340
0
70
0
0
BLOCK_RECORD
5
F5
100
AcDbSymbolTableRecord
100
AcDbBlockTableRecord
2
DimnDraft3D4
340
0
70
0
0
BLOCK_RECORD
5
FF
100
AcDbSymbolTableRecord
100
AcDbBlockTableRecord
2
DimnDraft3D5
340
0
70
0
0
BLOCK_RECORD
5
109
100
AcDbSymbolTableRecord
100
AcDbBlockTableRecord
2
DimnDraft3D6
340
0
70
0
0
BLOCK_RECORD
5
114
100
AcDbSymbolTableRecord
100
AcDbBlockTableRecord
2
DimnDraft3D7
340
0
70
0
0
ENDTAB
0
ENDSEC
0
SECTION
2
BLOCKS
0
BLOCK
5
20
100
AcDbEntity
8
0
100
AcDbBlockBegin
2
*Model_Space
70
0
10
0
20
0
30
0
3
*Model_Space
0
ENDBLK
5
21
100
AcDbEntity
8
0
100
AcDbBlockEnd
0
BLOCK
5
1C
100
AcDbEntity
8
0
100
AcDbBlockBegin
2
*Paper_Space
70
0
10
0
20
0
30
0
3
*Paper_Space
0
ENDBLK
5
1D
100
AcDbEntity
8
0
100
AcDbBlockEnd
0
BLOCK
5
24
100
AcDbEntity
8
0
100
AcDbBlockBegin
2
*Paper_Space0
70
0
10
0
20
0
30
0
3
*Paper_Space0
0
ENDBLK
5
25
100
AcDbEntity
8
0
100
AcDbBlockEnd
0
BLOCK
5
DE
100
AcDbEntity
8
0
100
AcDbBlockBegin
2
DimnDraft3D1
70
0
10
0
20
0
30
0
3
DimnDraft3D1
0
MTEXT
5
D8
100
AcDbEntity
8
2
62
256
6
ByLayer
370
13
48
1
60
0
100
AcDbMText
10
7.082664
20
-10.923398
30
0
210
0
220
0
230
1
1
\W0.7581;25,47
40
3.5
41
0
44
1.084337
50
0
71
7
72
5
7
iso_b_vert
0
LINE
5
D9
100
AcDbEntity
8
2
62
256
6
ByLayer
370
13
48
1
60
0
100
AcDbLine
10
0
20
-1.5875
30
0
11
0
21
-13.798398
31
0
39
0
210
0
220
0
230
1
0
LINE
5
DA
100
AcDbEntity
8
2
62
256
6
ByLayer
370
13
48
1
60
0
100
AcDbLine
10
25.4655
20
-3.1725
30
0
11
25.4655
21
-13.798398
31
0
39
0
210
0
220
0
230
1
0
LINE
5
DB
100
AcDbEntity
8
2
62
256
6
ByLayer
370
13
48
1
60
0
100
AcDbLine
10
0
20
-11.798398
30
0
11
25.4655
21
-11.798398
31
0
39
0
210
0
220
0
230
1
0
SOLID
5
DC
100
AcDbEntity
8
2
62
256
6
ByLayer
370
13
48
1
60
0
100
AcDbTrace
10
0
20
-11.798398
30
0
11
3.499998
21
-11.337615
31
0
12
3.500002
22
-12.259182
32
0
13
0
23
-11.798398
33
0
39
0
210
0
220
0
230
1
0
SOLID
5
DD
100
AcDbEntity
8
2
62
256
6
ByLayer
370
13
48
1
60
0
100
AcDbTrace
10
25.4655
20
-11.798398
30
0
11
21.965502
21
-12.259182
31
0
12
21.965498
22
-11.337615
32
0
13
25.4655
23
-11.798398
33
0
39
0
210
0
220
0
230
1
0
ENDBLK
5
DF
100
AcDbEntity
8
0
100
AcDbBlockEnd
0
BLOCK
5
E8
100
AcDbEntity
8
0
100
AcDbBlockBegin
2
DimnDraft3D2
70
0
10
0
20
0
30
0
3
DimnDraft3D2
0
MTEXT
5
E2
100
AcDbEntity
8
SK2
62
256
6
ByLayer
370
13
48
1
60
0
100
AcDbMText
10
-8.641884
20
-30.817985
30
0
210
0
220
0
230
1
1
\W0.7317;62,00
40
3.5
41
0
44
1.084337
50
0
71
7
72
5
7
iso_b_vert
0
LINE
5
E3
100
AcDbEntity
8
SK2
62
256
6
ByLayer
370
13
48
1
60
0
100
AcDbLine
10
-36
20
-4.5875
30
0
11
-36
21
-33.692985
31
0
39
0
210
0
220
0
230
1
0
LINE
5
E4
100
AcDbEntity
8
SK2
62
256
6
ByLayer
370
13
48
1
60
0
100
AcDbLine
10
26
20
-1.5875
30
0
11
26
21
-33.692985
31
0
39
0
210
0
220
0
230
1
0
LINE
5
E5
100
AcDbEntity
8
SK2
62
256
6
ByLayer
370
13
48
1
60
0
100
AcDbLine
10
-36
20
-31.692985
30
0
11
26
21
-31.692985
31
0
39
0
210
0
220
0
230
1
0
SOLID
5
E6
100
AcDbEntity
8
SK2
62
256
6
ByLayer
370
13
48
1
60
0
100
AcDbTrace
10
-36
20
-31.692985
30
0
11
-32.500002
21
-31.232202
31
0
12
-32.499998
22
-32.153769
32
0
13
-36
23
-31.692985
33
0
39
0
210
0
220
0
230
1
0
SOLID
5
E7
100
AcDbEntity
8
SK2
62
256
6
ByLayer
370
13
48
1
60
0
100
AcDbTrace
10
26
20
-31.692985
30
0
11
22.500002
21
-32.153769
31
0
12
22.499998
22
-31.232202
32
0
13
26
23
-31.692985
33
0
39
0
210
0
220
0
230
1
0
ENDBLK
5
E9
100
AcDbEntity
8
0
100
AcDbBlockEnd
0
BLOCK
5
F2
100
AcDbEntity
8
0
100
AcDbBlockBegin
2
DimnDraft3D3
70
0
10
0
20
0
30
0
3
DimnDraft3D3
0
MTEXT
5
EC
100
AcDbEntity
8
SK2
62
256
6
ByLayer
370
13
48
1
60
0
100
AcDbMText
10
16.784605
20
14.069119
30
0
210
0
220
0
230
1
1
\W0.6898;10,04
40
3.5
41
0
44
1.084337
50
0
71
7
72
5
7
iso_b_vert
0
LINE
5
ED
100
AcDbEntity
8
SK2
62
256
6
ByLayer
370
13
48
1
60
0
100
AcDbLine
10
15.96
20
3.1725
30
0
11
15.96
21
15.194119
31
0
39
0
210
0
220
0
230
1
0
LINE
5
EE
100
AcDbEntity
8
SK2
62
256
6
ByLayer
370
13
48
1
60
0
100
AcDbLine
10
26
20
1.5875
30
0
11
26
21
15.194119
31
0
39
0
210
0
220
0
230
1
0
LINE
5
EF
100
AcDbEntity
8
SK2
62
256
6
ByLayer
370
13
48
1
60
0
100
AcDbLine
10
26.050395
20
13.194119
30
0
11
15.909605
21
13.194119
31
0
39
0
210
0
220
0
230
1
0
SOLID
5
F0
100
AcDbEntity
8
SK2
62
256
6
ByLayer
370
13
48
1
60
0
100
AcDbTrace
10
15.96
20
13.194119
30
0
11
19.459998
21
13.654903
31
0
12
19.460002
22
12.733335
32
0
13
15.96
23
13.194119
33
0
39
0
210
0
220
0
230
1
0
SOLID
5
F1
100
AcDbEntity
8
SK2
62
256
6
ByLayer
370
13
48
1
60
0
100
AcDbTrace
10
26
20
13.194119
30
0
11
22.500002
21
12.733335
31
0
12
22.499998
22
13.654903
32
0
13
26
23
13.194119
33
0
39
0
210
0
220
0
230
1
0
ENDBLK
5
F3
100
AcDbEntity
8
0
100
AcDbBlockEnd
0
BLOCK
5
FC
100
AcDbEntity
8
0
100
AcDbBlockBegin
2
DimnDraft3D4
70
0
10
0
20
0
30
0
3
DimnDraft3D4
0
MTEXT
5
F6
100
AcDbEntity
8
SK2
62
256
6
ByLayer
370
13
48
1
60
0
100
AcDbMText
10
32.840636
20
-13.512503
30
0
210
0
220
0
230
1
1
\W0.7150;0,53
40
3.5
41
0
44
1.084337
50
0
71
7
72
5
7
iso_b_vert
0
LINE
5
F7
100
AcDbEntity
8
SK2
62
256
6
ByLayer
370
13
48
1
60
0
100
AcDbLine
10
26
20
-1.5875
30
0
11
26
21
-16.387503
31
0
39
0
210
0
220
0
230
1
0
LINE
5
F8
100
AcDbEntity
8
SK2
62
256
6
ByLayer
370
13
48
1
60
0
100
AcDbLine
10
25.4655
20
-3.1725
30
0
11
25.4655
21
-16.387503
31
0
39
0
210
0
220
0
230
1
0
LINE
5
F9
100
AcDbEntity
8
SK2
62
256
6
ByLayer
370
13
48
1
60
0
100
AcDbLine
10
16.7155
20
-14.387503
30
0
11
39.997215
21
-14.387503
31
0
39
0
210
0
220
0
230
1
0
SOLID
5
FA
100
AcDbEntity
8
SK2
62
256
6
ByLayer
370
13
48
1
60
0
100
AcDbTrace
10
26
20
-14.387503
30
0
11
29.499998
21
-13.926719
31
0
12
29.500002
22
-14.848287
32
0
13
26
23
-14.387503
33
0
39
0
210
0
220
0
230
1
0
SOLID
5
FB
100
AcDbEntity
8
SK2
62
256
6
ByLayer
370
13
48
1
60
0
100
AcDbTrace
10
25.4655
20
-14.387503
30
0
11
21.965502
21
-14.848287
31
0
12
21.965498
22
-13.926719
32
0
13
25.4655
23
-14.387503
33
0
39
0
210
0
220
0
230
1
0
ENDBLK
5
FD
100
AcDbEntity
8
0
100
AcDbBlockEnd
0
BLOCK
5
106
100
AcDbEntity
8
0
100
AcDbBlockBegin
2
DimnDraft3D5
70
0
10
0
20
0
30
0
3
DimnDraft3D5
0
MTEXT
5
100
100
AcDbEntity
8
SK2
62
256
6
ByLayer
370
13
48
1
60
0
100
AcDbMText
10
-11.469218
20
-20.468428
30
0
210
0
220
0
230
1
1
\W0.6977;61,47
40
3.5
41
0
44
1.084337
50
0
71
7
72
5
7
iso_b_vert
0
LINE
5
101
100
AcDbEntity
8
SK2
62
256
6
ByLayer
370
13
48
1
60
0
100
AcDbLine
10
-36
20
-4.5875
30
0
11
-36
21
-23.343428
31
0
39
0
210
0
220
0
230
1
0
LINE
5
102
100
AcDbEntity
8
SK2
62
256
6
ByLayer
370
13
48
1
60
0
100
AcDbLine
10
25.4655
20
-3.1725
30
0
11
25.4655
21
-23.343428
31
0
39
0
210
0
220
0
230
1
0
LINE
5
103
100
AcDbEntity
8
SK2
62
256
6
ByLayer
370
13
48
1
60
0
100
AcDbLine
10
-36
20
-21.343428
30
0
11
25.4655
21
-21.343428
31
0
39
0
210
0
220
0
230
1
0
SOLID
5
104
100
AcDbEntity
8
SK2
62
256
6
ByLayer
370
13
48
1
60
0
100
AcDbTrace
10
-36
20
-21.343428
30
0
11
-32.500002
21
-20.882645
31
0
12
-32.499998
22
-21.804212
32
0
13
-36
23
-21.343428
33
0
39
0
210
0
220
0
230
1
0
SOLID
5
105
100
AcDbEntity
8
SK2
62
256
6
ByLayer
370
13
48
1
60
0
100
AcDbTrace
10
25.4655
20
-21.343428
30
0
11
21.965502
21
-21.804212
31
0
12
21.965498
22
-20.882645
32
0
13
25.4655
23
-21.343428
33
0
39
0
210
0
220
0
230
1
0
ENDBLK
5
107
100
AcDbEntity
8
0
100
AcDbBlockEnd
0
BLOCK
5
111
100
AcDbEntity
8
0
100
AcDbBlockBegin
2
DimnDraft3D6
70
0
10
0
20
0
30
0
3
DimnDraft3D6
0
MTEXT
5
10A
100
AcDbEntity
8
SK2
62
256
6
ByLayer
370
13
48
1
60
0
100
AcDbMText
10
-46.375163
20
22.34918
30
0
210
0
220
0
230
1
1
\W0.7317;6,000
40
3.5
41
0
44
1.084337
50
90
71
7
72
5
7
iso_b_vert
0
MTEXT
5
10B
100
AcDbEntity
8
SK2
62
256
6
ByLayer
370
13
48
1
60
0
100
AcDbMText
10
-46.375163
20
17.126524
30
0
210
0
220
0
230
1
1
%%c
40
3.5
41
0
44
1.084337
50
90
71
7
72
5
7
iso_b_vert
0
LINE
5
10C
100
AcDbEntity
8
SK2
62
256
6
ByLayer
370
13
48
1
60
0
100
AcDbLine
10
-37.5875
20
-3
30
0
11
-46.625163
21
-3
31
0
39
0
210
0
220
0
230
1
0
LINE
5
10D
100
AcDbEntity
8
SK2
62
256
6
ByLayer
370
13
48
1
60
0
100
AcDbLine
10
-37.5875
20
3
30
0
11
-46.625163
21
3
31
0
39
0
210
0
220
0
230
1
0
LINE
5
10E
100
AcDbEntity
8
SK2
62
256
6
ByLayer
370
13
48
1
60
0
100
AcDbLine
10
-44.625163
20
32.121549
30
0
11
-44.625163
21
-11.75
31
0
39
0
210
0
220
0
230
1
0
SOLID
5
10F
100
AcDbEntity
8
SK2
62
256
6
ByLayer
370
13
48
1
60
0
100
AcDbTrace
10
-44.625163
20
-3
30
0
11
-44.164379
21
-6.499998
31
0
12
-45.085946
22
-6.500002
32
0
13
-44.625163
23
-3
33
0
39
0
210
0
220
0
230
1
0
SOLID
5
110
100
AcDbEntity
8
SK2
62
256
6
ByLayer
370
13
48
1
60
0
100
AcDbTrace
10
-44.625163
20
3
30
0
11
-45.085946
21
6.499998
31
0
12
-44.164379
22
6.500002
32
0
13
-44.625163
23
3
33
0
39
0
210
0
220
0
230
1
0
ENDBLK
5
112
100
AcDbEntity
8
0
100
AcDbBlockEnd
0
BLOCK
5
11C
100
AcDbEntity
8
0
100
AcDbBlockBegin
2
DimnDraft3D7
70
0
10
0
20
0
30
0
3
DimnDraft3D7
0
MTEXT
5
115
100
AcDbEntity
8
2
62
256
6
ByLayer
370
13
48
1
60
0
100
AcDbMText
10
36.333343
20
19.527266
30
0
210
0
220
0
230
1
1
\W0.6713;3,170
40
3.5
41
0
44
1.084337
50
90
71
7
72
5
7
iso_b_vert
0
MTEXT
5
116
100
AcDbEntity
8
2
62
256
6
ByLayer
370
13
48
1
60
0
100
AcDbMText
10
36.333343
20
14.30461
30
0
210
0
220
0
230
1
1
%%c
40
3.5
41
0
44
1.084337
50
90
71
7
72
5
7
iso_b_vert
0
LINE
5
117
100
AcDbEntity
8
2
62
256
6
ByLayer
370
13
48
1
60
0
100
AcDbLine
10
27.053
20
-1.585
30
0
11
40.083343
21
-1.585
31
0
39
0
210
0
220
0
230
1
0
LINE
5
118
100
AcDbEntity
8
2
62
256
6
ByLayer
370
13
48
1
60
0
100
AcDbLine
10
27.053
20
1.585
30
0
11
40.083343
21
1.585
31
0
39
0
210
0
220
0
230
1
0
LINE
5
119
100
AcDbEntity
8
2
62
256
6
ByLayer
370
13
48
1
60
0
100
AcDbLine
10
38.083343
20
28.424635
30
0
11
38.083343
21
-10.335
31
0
39
0
210
0
220
0
230
1
0
SOLID
5
11A
100
AcDbEntity
8
2
62
256
6
ByLayer
370
13
48
1
60
0
100
AcDbTrace
10
38.083343
20
-1.585
30
0
11
38.544126
21
-5.084998
31
0
12
37.622559
22
-5.085002
32
0
13
38.083343
23
-1.585
33
0
39
0
210
0
220
0
230
1
0
SOLID
5
11B
100
AcDbEntity
8
2
62
256
6
ByLayer
370
13
48
1
60
0
100
AcDbTrace
10
38.083343
20
1.585
30
0
11
37.622559
21
5.084998
31
0
12
38.544126
22
5.085002
32
0
13
38.083343
23
1.585
33
0
39
0
210
0
220
0
230
1
0
ENDBLK
5
11D
100
AcDbEntity
8
0
100
AcDbBlockEnd
0
ENDSEC
0
SECTION
2
ENTITIES
0
ARC
5
8F
100
AcDbEntity
8
1
62
256
6
ByLayer
370
18
48
1
60
0
100
AcDbCircle
39
0
10
0
20
2.15
30
0
40
0.849999999999997
210
0
220
0
230
1
100
AcDbArc
50
8.19057
51
90
0
ARC
5
90
100
AcDbEntity
8
1
62
256
6
ByLayer
370
18
48
1
60
0
100
AcDbCircle
39
0
10
0
20
-2.15
30
0
40
0.849999999999997
210
0
220
0
230
1
100
AcDbArc
50
270
51
351.80943
0
ARC
5
91
100
AcDbEntity
8
1
62
256
6
ByLayer
370
18
48
1
60
0
100
AcDbCircle
39
0
10
-1.682659
20
2.392192
30
0
40
0.850000000000004
210
0
220
0
230
-1
100
AcDbArc
50
269.896868
51
351.80943
0
ARC
5
92
100
AcDbEntity
8
1
62
256
6
ByLayer
370
18
48
1
60
0
100
AcDbCircle
39
0
10
-1.682659
20
-2.392192
30
0
40
0.850000000000004
210
0
220
0
230
-1
100
AcDbArc
50
8.19057
51
90.103132
0
ELLIPSE
5
93
100
AcDbEntity
8
1
62
256
6
ByLayer
370
13
48
1
60
0
100
AcDbEllipse
10
7.560378
20
-1.614764
30
0
11
0.0800478803173932
21
0.289123393824665
31
0
210
0
220
0
230
1
40
0.477024
41
0.521739467851179
42
1.10884634477498
0
ELLIPSE
5
94
100
AcDbEntity
8
1
62
256
6
ByLayer
370
13
48
1
60
0
100
AcDbEllipse
10
70.194174
20
43.437707
30
0
11
-61.85
21
7.5741902983914E-15
31
0
210
0
220
0
230
1
40
0.99863
41
0.770166174552056
42
0.773034040202048
0
ELLIPSE
5
95
100
AcDbEntity
8
1
62
256
6
ByLayer
370
13
48
1
60
0
100
AcDbEllipse
10
8.323319
20
51.20222
30
0
11
-58.2599351616452
21
46.739602289329
31
0
210
0
220
0
230
1
40
0.581015
41
1.98277555469847
42
2.00697831441442
0
ELLIPSE
5
96
100
AcDbEntity
8
1
62
256
6
ByLayer
370
18
48
1
60
0
100
AcDbEllipse
10
26.06766
20
0.0007
30
0
11
0.477421710397288
21
1.57414085839772
31
0
210
0
220
0
230
-1
40
0.406716
41
-2.91138044989532
42
-2.89317004771564
0
POINT
5
6C
100
AcDbEntity
8
81
62
256
6
ByLayer
370
18
48
1
60
0
100
AcDbPoint
10
26
20
0
30
0
39
0
210
0
220
0
230
1
50
360
0
POINT
5
6E
100
AcDbEntity
8
80
62
256
6
ByLayer
370
18
48
1
60
0
100
AcDbPoint
10
0
20
0
30
0
39
0
210
0
220
0
230
1
50
360
0
POINT
5
70
100
AcDbEntity
8
SK2
62
256
6
ByLayer
370
18
48
1
60
1
100
AcDbPoint
10
-36
20
-3
30
0
39
0
210
0
220
0
230
1
50
360
0
POINT
5
72
100
AcDbEntity
8
SK2
62
256
6
ByLayer
370
18
48
1
60
1
100
AcDbPoint
10
-36
20
3
30
0
39
0
210
0
220
0
230
1
50
360
0
POINT
5
73
100
AcDbEntity
8
2
62
256
6
ByLayer
370
18
48
1
60
1
100
AcDbPoint
10
25.4655
20
-1.585
30
0
39
0
210
0
220
0
230
1
50
360
0
POINT
5
75
100
AcDbEntity
8
2
62
256
6
ByLayer
370
18
48
1
60
1
100
AcDbPoint
10
25.4655
20
1.585
30
0
39
0
210
0
220
0
230
1
50
360
0
SPLINE
5
97
100
AcDbEntity
8
1
62
256
6
ByLayer
370
18
48
1
60
0
100
AcDbSpline
70
4
71
3
72
19
73
15
40
0
40
0
40
0
40
0
40
0.157522563607877
40
0.264457217017142
40
0.330124860457383
40
0.391957378430261
40
0.453717995745978
40
0.515310073034423
40
0.576698888461672
40
0.66387628098434
40
0.754486690743097
40
0.845112536096192
40
0.956110502452665
40
1
40
1
40
1
40
1
41
1
10
21.4107535899247
20
1.5198897528937
30
0
41
1
10
21.2444482365463
20
1.51986852997544
30
0
41
1
10
20.9652470287701
20
1.51959586088083
30
0
41
1
10
20.6167199088948
20
1.51993005731993
30
0
41
1
10
20.3692171225905
20
1.51859451051413
30
0
41
1
10
20.1694092622906
20
1.51706602505834
30
0
41
1
10
19.9738990928052
20
1.51716652979934
30
0
41
1
10
19.7788597643819
20
1.5174237786355
30
0
41
1
10
19.5569850675861
20
1.51783023311995
30
0
41
1
10
19.3044722932183
20
1.51811908652601
30
0
41
1
10
19.0210985753096
20
1.51555216714428
30
0
41
1
10
18.7125880150687
20
1.51575499125113
30
0
41
1
10
18.4533951767345
20
1.51577082195391
30
0
41
1
10
18.2898862129443
20
1.51564889105785
30
0
41
1
10
18.2435543159837
20
1.51560407376149
30
0
0
SPLINE
5
98
100
AcDbEntity
8
1
62
256
6
ByLayer
370
18
48
1
60
0
100
AcDbSpline
70
4
71
3
72
20
73
16
40
0
40
0
40
0
40
0
40
0.145421703854911
40
0.234071327545699
40
0.29440277080748
40
0.355930961440023
40
0.418681847081998
40
0.482661610086457
40
0.53809393996083
40
0.593630476598585
40
0.649287855096147
40
0.705077269110403
40
0.763603929032407
40
0.858405015877781
40
1
40
1
40
1
40
1
41
1
10
8.81689099059682
20
-1.49824245664482
30
0
41
1
10
8.99098242294463
20
-1.49868853511268
30
0
41
1
10
9.27123734734167
20
-1.49928358057861
30
0
41
1
10
9.62384448034504
20
-1.49935513146022
30
0
41
1
10
9.87595452619416
20
-1.49980722679496
30
0
41
1
10
10.0970488150377
20
-1.50077999766793
30
0
41
1
10
10.3225137501084
20
-1.50119920901065
30
0
41
1
10
10.5406789569958
20
-1.50112301124676
30
0
41
1
10
10.7502036336325
20
-1.50115936800057
30
0
41
1
10
10.949760979252
20
-1.50128778965186
30
0
41
1
10
11.1497392958044
20
-1.50299777858402
30
0
41
1
10
11.3533051995519
20
-1.5037012146521
30
0
41
1
10
11.6037519102778
20
-1.50359136528468
30
0
41
1
10
11.956953424889
20
-1.50250610421702
30
0
41
1
10
12.2400647274085
20
-1.50386921682562
30
0
41
1
10
12.4096401676778
20
-1.50513943597849
30
0
0
SPLINE
5
99
100
AcDbEntity
8
1
62
256
6
ByLayer
370
18
48
1
60
0
100
AcDbSpline
70
4
71
2
72
6
73
3
40
0
40
0
40
0
40
1
40
1
40
1
41
1
10
12.1853616697275
20
0.0673048515757557
30
0
41
1
10
12.4273593502063
20
0.0011156163743635
30
0
41
1
10
12.6675631031292
20
-0.131886041813431
30
0
0
SPLINE
5
9A
100
AcDbEntity
8
1
62
256
6
ByLayer
370
18
48
1
60
0
100
AcDbSpline
70
4
71
3
72
19
73
15
40
0
40
0
40
0
40
0
40
0.153360952263399
40
0.251646151105884
40
0.331891094664199
40
0.412126987650608
40
0.489322783874017
40
0.543682832266964
40
0.598223025093291
40
0.652912635824811
40
0.707666183395755
40
0.765816072179281
40
0.860509377761251
40
1
40
1
40
1
40
1
41
1
10
17.8341307643101
20
-1.51494909927129
30
0
41
1
10
18.0169249004448
20
-1.51535347944628
30
0
41
1
10
18.3168782911329
20
-1.51577918573699
30
0
41
1
10
18.7125186031967
20
-1.51575506410518
30
0
41
1
10
19.0209817641056
20
-1.51555194742085
30
0
41
1
10
19.3043155687209
20
-1.51811808981546
30
0
41
1
10
19.5567976813159
20
-1.51783066565719
30
0
41
1
10
19.778645594687
20
-1.51742417672924
30
0
41
1
10
19.9736619466847
20
-1.51716667408255
30
0
41
1
10
20.1691497896244
20
-1.51706589129643
30
0
41
1
10
20.3689357420763
20
-1.51859098798332
30
0
41
1
10
20.6164130820486
20
-1.51993090280877
30
0
41
1
10
20.9649063433357
20
-1.51959542381996
30
0
41
1
10
21.2440809513736
20
-1.51986788485255
30
0
41
1
10
21.4103706846141
20
-1.51988825601907
30
0
0
SPLINE
5
9B
100
AcDbEntity
8
1
62
256
6
ByLayer
370
18
48
1
60
0
100
AcDbSpline
70
4
71
3
72
20
73
16
40
0
40
0
40
0
40
0
40
0.157726866204043
40
0.263328428036632
40
0.32852287384106
40
0.390667970753266
40
0.452665612840284
40
0.514528398008661
40
0.576274868740083
40
0.647542167876471
40
0.71744047157096
40
0.785976864322316
40
0.853180387530111
40
0.95192802417015
40
1
40
1
40
1
40
1
41
1
10
12.4092580501633
20
1.50513815390568
30
0
41
1
10
12.2396985242769
20
1.50386879666755
30
0
41
1
10
11.9566140003793
20
1.50250665667281
30
0
41
1
10
11.6034460252041
20
1.50359168444641
30
0
41
1
10
11.3530236051457
20
1.50370145872981
30
0
41
1
10
11.1494782348721
20
1.50299499257801
30
0
41
1
10
10.9495210282755
20
1.50128715412211
30
0
41
1
10
10.7499856900873
20
1.50115930646177
30
0
41
1
10
10.5404849179498
20
1.5011230646702
30
0
41
1
10
10.3223452437803
20
1.50119917036685
30
0
41
1
10
10.0969069998752
20
1.50077941944988
30
0
41
1
10
9.87583878055364
20
1.49980685844352
30
0
41
1
10
9.62375776108584
20
1.49935511700832
30
0
41
1
10
9.39366056730702
20
1.49930838681269
30
0
41
1
10
9.23584367097325
20
1.49910572593635
30
0
41
1
10
9.18417376192102
20
1.49902451069261
30
0
0
SPLINE
5
9C
100
AcDbEntity
8
1
62
256
6
ByLayer
370
18
48
1
60
0
100
AcDbSpline
70
4
71
2
72
6
73
3
40
0
40
0
40
0
40
1
40
1
40
1
41
1
10
21.1851532684913
20
0.0673616401130346
30
0
41
1
10
21.4301015842406
20
9.37361030253E-05
30
0
41
1
10
21.6679494939103
20
-0.132099721432894
30
0
0
SPLINE
5
9D
100
AcDbEntity
8
1
62
256
6
ByLayer
370
18
48
1
60
0
100
AcDbSpline
70
4
71
2
72
6
73
3
40
0
40
0
40
0
40
1
40
1
40
1
41
1
10
8.18910151194831
20
-0.0862138674922619
30
0
41
1
10
8.03472585475453
20
-0.0535816011462202
30
0
41
1
10
7.88063028818024
20
0.0053462340210046
30
0
0
SPLINE
5
9E
100
AcDbEntity
8
1
62
256
6
ByLayer
370
18
48
1
60
0
100
AcDbSpline
70
4
71
2
72
6
73
3
40
0
40
0
40
0
40
1
40
1
40
1
41
1
10
17.1171351869151
20
-0.0667084447891284
30
0
41
1
10
16.891906948002
20
-0.0052004031261106
30
0
41
1
10
16.6691297842966
20
0.113750623825524
30
0
0
SPLINE
5
9F
100
AcDbEntity
8
1
62
256
6
ByLayer
370
18
48
1
60
0
100
AcDbSpline
70
4
71
3
72
14
73
10
40
0
40
0
40
0
40
0
40
0.0112290470440028
40
0.0112290470440028
40
0.340819364696002
40
0.340819364696002
40
0.670409682348001
40
0.670409682348001
40
1
40
1
40
1
40
1
41
1
10
7.85516220554513
20
0.0422227830910913
30
0
41
1
10
7.85689314176125
20
0.0431100155081765
30
0
41
1
10
7.85863221970871
20
0.0440267687268374
30
0
41
1
10
7.9116569556422
20
0.0727473588475789
30
0
41
1
10
7.96967798325477
20
0.125892873701332
30
0
41
1
10
8.08582920051722
20
0.270672932906109
30
0
41
1
10
8.14385022812979
20
0.362171409064388
30
0
41
1
10
8.24640566581934
20
0.562289164965534
30
0
41
1
10
8.29084369153821
20
0.670720368660255
30
0
41
1
10
8.32331915974956
20
0.775023829919149
30
0
0
SPLINE
5
A0
100
AcDbEntity
8
1
62
256
6
ByLayer
370
13
48
1
60
0
100
AcDbSpline
70
4
71
3
72
8
73
4
40
0
40
0
40
0
40
0
40
1
40
1
40
1
40
1
41
1
10
7.22878087564962
20
-1.33813863708875
30
0
41
1
10
7.33602326364442
20
-1.32484431628282
30
0
41
1
10
7.4472339911523
20
-1.3266139311099
30
0
41
1
10
7.56103808757788
20
-1.34507631618425
30
0
0
SPLINE
5
A1
100
AcDbEntity
8
1
62
256
6
ByLayer
370
18
48
1
60
0
100
AcDbSpline
70
4
71
3
72
16
73
12
40
0
40
0
40
0
40
0
40
0.25
40
0.25
40
0.375000000000001
40
0.375000000000001
40
0.500000000000001
40
0.500000000000001
40
0.75
40
0.75
40
1
40
1
40
1
40
1
41
1
10
25.331554168907
20
0.292068731700226
30
0
41
1
10
25.3143765116145
20
0.208139570754071
30
0
41
1
10
25.3006594047714
20
0.123334097394974
30
0
41
1
10
25.2853116646516
20
-0.0051979746655491
30
0
41
1
10
25.2810715470713
20
-0.0482637757512805
30
0
41
1
10
25.2744073054091
20
-0.134855240499064
30
0
41
1
10
25.2719916624467
20
-0.178460675949793
30
0
41
1
10
25.2676606619659
20
-0.307180526499877
30
0
41
1
10
25.2685513307682
20
-0.391131181122375
30
0
41
1
10
25.2777970322983
20
-0.555352511797793
30
0
41
1
10
25.2862599506574
20
-0.636034647418512
30
0
41
1
10
25.2983227205894
20
-0.712644581814715
30
0
0
SPLINE
5
A2
100
AcDbEntity
8
1
62
256
6
ByLayer
370
18
48
1
60
0
100
AcDbSpline
70
4
71
3
72
40
73
36
40
0
40
0
40
0
40
0
40
0.0089536869096171
40
0.0089536869096171
40
0.124486312962747
40
0.124486312962747
40
0.182252625989312
40
0.182252625989312
40
0.240018939015878
40
0.240018939015878
40
0.355551565069008
40
0.355551565069008
40
0.384434721582291
40
0.384434721582291
40
0.413317878095575
40
0.413317878095575
40
0.471084191122141
40
0.471084191122141
40
0.528850504148708
40
0.528850504148708
40
0.557733660661992
40
0.557733660661992
40
0.586616817175276
40
0.586616817175276
40
0.702149443228417
40
0.702149443228417
40
0.759915756254987
40
0.759915756254987
40
0.817682069281557
40
0.817682069281557
40
0.933214695334697
40
0.933214695334697
40
0.990981008361267
40
0.990981008361267
40
1
40
1
40
1
40
1
41
1
10
8.51714833804314
20
1.5544875262753
30
0
41
1
10
8.5461820167219
20
1.55450348129102
30
0
41
1
10
8.57520039564864
20
1.55427968800322
30
0
41
1
10
8.97849181772264
20
1.54784673876284
30
0
41
1
10
9.35018433386585
20
1.50203153920154
30
0
41
1
10
9.91389059203584
20
1.37671966134087
30
0
41
1
10
10.1037098525519
20
1.32527411978938
30
0
41
1
10
10.4797688448228
20
1.2066018259969
30
0
41
1
10
10.6667005688976
20
1.13938412715814
30
0
41
1
10
11.2268630343979
20
0.917897833850503
30
0
41
1
10
11.5987931602907
20
0.742765456223736
30
0
41
1
10
12.0707926917314
20
0.50276452908102
30
0
41
1
10
12.1655066991814
20
0.453798790877301
30
0
41
1
10
12.3537698542189
20
0.354948976237353
30
0
41
1
10
12.4475302376129
20
0.304881235205499
30
0
41
1
10
12.7282687467655
20
0.153822741549476
30
0
41
1
10
12.9146846396072
20
0.0519391943734036
30
0
41
1
10
13.2874666098522
20
-0.151493213763928
30
0
41
1
10
13.4739460105964
20
-0.252829944544516
30
0
41
1
10
13.7548472955706
20
-0.402300630459394
30
0
41
1
10
13.8487192041834
20
-0.451625120639647
30
0
41
1
10
14.0370790893422
20
-0.549014115321143
30
0
41
1
10
14.131752667892
20
-0.597264670708199
30
0
41
1
10
14.6027909942156
20
-0.832225120715606
30
0
41
1
10
14.9745016965734
20
-1.00074636961287
30
0
41
1
10
15.5337815598474
20
-1.21116029071214
30
0
41
1
10
15.7204580507519
20
-1.27426850185856
30
0
41
1
10
16.0962213405857
20
-1.38389009919337
30
0
41
1
10
16.2858666484675
20
-1.43032654099838
30
0
41
1
10
16.8482049271665
20
-1.54048437654325
30
0
41
1
10
17.2191337378618
20
-1.57536722062525
30
0
41
1
10
17.7791955743112
20
-1.56759594760723
30
0
41
1
10
17.9664789344904
20
-1.55499900293086
30
0
41
1
10
18.1846172647585
20
-1.52864233914809
30
0
41
1
10
18.2140506575962
20
-1.52484138631931
30
0
41
1
10
18.2434594481399
20
-1.52080242208493
30
0
0
SPLINE
5
A3
100
AcDbEntity
8
1
62
256
6
ByLayer
370
18
48
1
60
0
100
AcDbSpline
70
4
71
3
72
36
73
32
40
0
40
0
40
0
40
0
40
0.0633007968040918
40
0.0633007968040918
40
0.126601593608184
40
0.126601593608184
40
0.189902390412275
40
0.189902390412275
40
0.253203187216367
40
0.253203187216367
40
0.316503984020459
40
0.316503984020459
40
0.379804780824551
40
0.379804780824551
40
0.443105577628643
40
0.443105577628643
40
0.506406374432735
40
0.506406374432735
40
0.569707171236827
40
0.569707171236827
40
0.633007968040918
40
0.633007968040918
40
0.69630876484501
40
0.69630876484501
40
0.759609561649102
40
0.759609561649102
40
0.822910358453194
40
0.822910358453194
40
0.886211155257286
40
0.886211155257286
40
1
40
1
40
1
40
1
41
1
10
8.55438148038226
20
1.51714091508768
30
0
41
1
10
8.7315654649197
20
1.4964371146155
30
0
41
1
10
8.90821476569644
20
1.46712566558898
30
0
41
1
10
9.26147040983389
20
1.3921005472846
30
0
41
1
10
9.43840519255622
20
1.34636309148144
30
0
41
1
10
9.79270141093127
20
1.2399224247757
30
0
41
1
10
9.96919239724323
20
1.17937185888456
30
0
41
1
10
10.3222918713119
20
1.04528164046309
30
0
41
1
10
10.4994190921563
20
0.971745434664683
30
0
41
1
10
10.8534252184475
20
0.814644577999474
30
0
41
1
10
11.0298922721046
20
0.731138884459256
30
0
41
1
10
11.3828534479001
20
0.555920510038362
30
0
41
1
10
11.5601235945764
20
0.464555049946512
30
0
41
1
10
11.9137492122662
20
0.277868923947438
30
0
41
1
10
12.0901001366594
20
0.182515248381804
30
0
41
1
10
12.4433757760147
20
-0.009478166125092
30
0
41
1
10
12.6205557896161
20
-0.106549259664604
30
0
41
1
10
12.9737560881981
20
-0.297741970029421
30
0
41
1
10
13.1500805622395
20
-0.391923053365446
30
0
41
1
10
13.5033882008167
20
-0.575286917394038
30
0
41
1
10
13.6805711870998
20
-0.664578794211081
30
0
41
1
10
14.0335089023299
20
-0.834189029740884
30
0
41
1
10
14.2098560152262
20
-0.914424319006798
30
0
41
1
10
14.5631702834172
20
-1.06441040218135
30
0
41
1
10
14.7402235771542
20
-1.13386226111118
30
0
41
1
10
15.0930808340929
20
-1.25875626595302
30
0
41
1
10
15.2693523431393
20
-1.3143517069368
30
0
41
1
10
15.6227896129257
20
-1.4104389720205
30
0
41
1
10
15.7994965930447
20
-1.45073860777109
30
0
41
1
10
16.2929839767843
20
-1.53939307009389
30
0
41
1
10
16.610655095122
20
-1.5690337640516
30
0
41
1
10
16.927757030286
20
-1.56961465307521
30
0
0
SPLINE
5
A4
100
AcDbEntity
8
1
62
256
6
ByLayer
370
18
48
1
60
0
100
AcDbSpline
70
4
71
3
72
12
73
8
40
0
40
0
40
0
40
0
40
0.162423093838688
40
0.162423093838688
40
0.441615395892456
40
0.441615395892456
40
1
40
1
40
1
40
1
41
1
10
23.6039693228169
20
1.08900121793744
30
0
41
1
10
23.7065485185943
20
1.1301861188937
30
0
41
1
10
23.8090821474772
20
1.1692631074356
30
0
41
1
10
24.0874572588273
20
1.26908815369239
30
0
41
1
10
24.2633433818316
20
1.32539329933675
30
0
41
1
10
24.7927168400955
20
1.47151519747797
30
0
41
1
10
25.1424121957223
20
1.53671185201551
30
0
41
1
10
25.4932364071768
20
1.56674354214766
30
0
0
SPLINE
5
A5
100
AcDbEntity
8
1
62
256
6
ByLayer
370
18
48
1
60
0
100
AcDbSpline
70
4
71
3
72
14
73
10
40
0
40
0
40
0
40
0
40
0.0161656605884166
40
0.0161656605884166
40
0.344110440392278
40
0.344110440392278
40
0.672055220196139
40
0.672055220196139
40
1
40
1
40
1
40
1
41
1
10
25.4610870389026
20
0.236065736466173
30
0
41
1
10
25.462579095935
20
0.237084232704717
30
0
41
1
10
25.4640763263564
20
0.238108475607703
30
0
41
1
10
25.4960570385084
20
0.260030590258282
30
0
41
1
10
25.528090865945
20
0.28284539526112
30
0
41
1
10
25.5969508635724
20
0.329912898693181
30
0
41
1
10
25.6341284955759
20
0.354382706310275
30
0
41
1
10
25.7123581271198
20
0.398551206513503
30
0
41
1
10
25.7542319698665
20
0.418635626395769
30
0
41
1
10
25.7985543273742
20
0.43338101638426
30
0
0
SPLINE
5
A6
100
AcDbEntity
8
1
62
256
6
ByLayer
370
18
48
1
60
0
100
AcDbSpline
70
4
71
3
72
8
73
4
40
0
40
0
40
0
40
0
40
1
40
1
40
1
40
1
41
1
10
25.757534850851
20
-0.780704260117744
30
0
41
1
10
25.7921260506225
20
-0.667566282664183
30
0
41
1
10
25.8307398857904
20
-0.5616630490766
30
0
41
1
10
25.873428754481
20
-0.46208213770629
30
0
0
SPLINE
5
A7
100
AcDbEntity
8
1
62
256
6
ByLayer
370
18
48
1
60
0
100
AcDbSpline
70
4
71
3
72
8
73
4
40
0
40
0
40
0
40
0
40
1
40
1
40
1
40
1
41
1
10
25.7139804384646
20
-0.362612443208008
30
0
41
1
10
25.7209805824344
20
-0.365485918450929
30
0
41
1
10
25.7282286541617
20
-0.367503216073743
30
0
41
1
10
25.735743794804
20
-0.368598235245315
30
0
0
SPLINE
5
A8
100
AcDbEntity
8
1
62
256
6
ByLayer
370
18
48
1
60
0
100
AcDbSpline
70
4
71
3
72
10
73
6
40
0
40
0
40
0
40
0
40
0.5
40
0.5
40
1
40
1
40
1
40
1
41
1
10
25.4474787204112
20
-1.47737412846675
30
0
41
1
10
25.445741833457
20
-1.44743464824631
30
0
41
1
10
25.4411050149267
20
-1.42156182703619
30
0
41
1
10
25.4281701268275
20
-1.3754131239196
30
0
41
1
10
25.4200385590245
20
-1.3557371452016
30
0
41
1
10
25.4106923171692
20
-1.33854170033845
30
0
0
SPLINE
5
A9
100
AcDbEntity
8
1
62
256
6
ByLayer
370
18
48
1
60
0
100
AcDbSpline
70
4
71
3
72
12
73
8
40
0
40
0
40
0
40
0
40
0.422375462148191
40
0.422375462148191
40
0.844750924296381
40
0.844750924296381
40
1
40
1
40
1
40
1
41
1
10
6.76776070035925
20
-1.46891551220614
30
0
41
1
10
6.91450700953976
20
-1.49339143086078
30
0
41
1
10
7.06263776079783
20
-1.5120811354999
30
0
41
1
10
7.36129501833787
20
-1.53923056195711
30
0
41
1
10
7.51138314655449
20
-1.54761146223427
30
0
41
1
10
7.71573198873483
20
-1.55252417338087
30
0
41
1
10
7.7706219499301
20
-1.55321097842881
30
0
41
1
10
7.82547850683284
20
-1.5532682892073
30
0
0
SPLINE
5
AA
100
AcDbEntity
8
1
62
256
6
ByLayer
370
18
48
1
60
0
100
AcDbSpline
70
4
71
3
72
24
73
20
40
0
40
0
40
0
40
0
40
0.0624999999999966
40
0.0624999999999966
40
0.124999999999993
40
0.124999999999993
40
0.249999999999994
40
0.249999999999994
40
0.374999999999995
40
0.374999999999995
40
0.499999999999996
40
0.499999999999996
40
0.624999999999997
40
0.624999999999997
40
0.749999999999998
40
0.749999999999998
40
0.874999999999999
40
0.874999999999999
40
1
40
1
40
1
40
1
41
1
10
4.55158692303232
20
-1.4885444140092
30
0
41
1
10
4.57085188376902
20
-1.47591556782496
30
0
41
1
10
4.60334879227236
20
-1.46312502739815
30
0
41
1
10
4.67762488322143
20
-1.44021646784384
30
0
41
1
10
4.71958034210263
20
-1.4298964698803
30
0
41
1
10
4.85171374919528
20
-1.40208732440718
30
0
41
1
10
4.94550669876824
20
-1.38808767353615
30
0
41
1
10
5.13858035005583
20
-1.36642128387547
30
0
41
1
10
5.23648481001874
20
-1.35906552935435
30
0
41
1
10
5.43229493490918
20
-1.35027254661071
30
0
41
1
10
5.5305896246129
20
-1.34883169824641
30
0
41
1
10
5.72787295012935
20
-1.35140890472533
30
0
41
1
10
5.82728688062051
20
-1.35548905272742
30
0
41
1
10
6.0228860077923
20
-1.3684736730871
30
0
41
1
10
6.11945731233476
20
-1.37737128648428
30
0
41
1
10
6.31012987682143
20
-1.39897487561828
30
0
41
1
10
6.40422795187845
20
-1.411691834941
30
0
41
1
10
6.58985650630825
20
-1.4394500930365
30
0
41
1
10
6.68049032661219
20
-1.45435962606004
30
0
41
1
10
6.76776070035922
20
-1.46891551220614
30
0
0
SPLINE
5
AB
100
AcDbEntity
8
1
62
256
6
ByLayer
370
13
48
1
60
0
100
AcDbSpline
70
4
71
3
72
88
73
84
40
0
40
0
40
0
40
0
40
0.0036923082618778
40
0.0120031863189024
40
0.0203140643759324
40
0.0369358204899856
40
0.0452466985470122
40
0.0535575766040402
40
0.0629073144181949
40
0.0701793327180934
40
0.0774513510179912
40
0.0868010888321466
40
0.103422844946202
40
0.128355479117282
40
0.136666357174309
40
0.153288113288362
40
0.169909869402418
40
0.198997942602011
40
0.203153381630525
40
0.211464259687551
40
0.219775137744578
40
0.236396893858633
40
0.244707771915659
40
0.253018649972687
40
0.262368387786842
40
0.26964040608674
40
0.276912424386639
40
0.286262162200794
40
0.302883918314848
40
0.327816552485928
40
0.336127430542956
40
0.35274918665701
40
0.369370942771064
40
0.398459015970657
40
0.402614454999172
40
0.410925333056198
40
0.419236211113225
40
0.435857967227279
40
0.444168845284306
40
0.452479723341333
40
0.461829461155488
40
0.469101479455387
40
0.476373497755285
40
0.48572323556944
40
0.502344991683494
40
0.527277625854575
40
0.535588503911603
40
0.552210260025657
40
0.56883201613971
40
0.597920089339305
40
0.602075528367818
40
0.610386406424845
40
0.618697284481873
40
0.635319040595927
40
0.643629918652953
40
0.65194079670998
40
0.661290534524135
40
0.668562552824034
40
0.675834571123933
40
0.685184308938088
40
0.701806065052141
40
0.726738699223223
40
0.73504957728025
40
0.751671333394304
40
0.768293089508357
40
0.797381162707951
40
0.801536601736465
40
0.809847479793492
40
0.818158357850519
40
0.834780113964573
40
0.843090992021601
40
0.851401870078627
40
0.860751607892782
40
0.868023626192681
40
0.87529564449258
40
0.884645382306735
40
0.901267138420789
40
0.926199772591869
40
0.934510650648897
40
0.951132406762951
40
0.967754162877004
40
0.996842236076599
40
1
40
1
40
1
40
1
41
1
10
13.7530166754359
20
-0.692671026183433
30
0
41
1
10
13.7460743569363
20
-0.693551741298393
30
0
41
1
10
13.7235058651538
20
-0.696395109121397
30
0
41
1
10
13.6853148810361
20
-0.701086038473875
30
0
41
1
10
13.6228167264331
20
-0.708504451553239
30
0
41
1
10
13.5603164541456
20
-0.715550011206318
30
0
41
1
10
13.4978148402612
20
-0.722221259700063
30
0
41
1
10
13.4489867474896
20
-0.727221684352713
30
0
41
1
10
13.4021112959626
20
-0.731816564557789
30
0
41
1
10
13.3571892858178
20
-0.736034966437188
30
0
41
1
10
13.3122683425371
20
-0.740085143674207
30
0
41
1
10
13.2497710724479
20
-0.745444090522227
30
0
41
1
10
13.1540737521882
20
-0.752995572153054
30
0
41
1
10
13.0603197676578
20
-0.759434779817042
30
0
41
1
10
12.9665671069831
20
-0.765065093962562
30
0
41
1
10
12.8884453612757
20
-0.769210103828073
30
0
41
1
10
12.7712634597592
20
-0.774375058764662
30
0
41
1
10
12.6775078209901
20
-0.77743471398739
30
0
41
1
10
12.5993765927904
20
-0.779317181355395
30
0
41
1
10
12.5603149003543
20
-0.780097437540434
30
0
41
1
10
12.497816730839
20
-0.781056134833449
30
0
41
1
10
12.4353164446736
20
-0.7816136972518
30
0
41
1
10
12.3728148170606
20
-0.781772501517253
30
0
41
1
10
12.3239867144944
20
-0.78166029575732
30
0
41
1
10
12.2771112538708
20
-0.781333166407819
30
0
41
1
10
12.232189234999
20
-0.780822197642635
30
0
41
1
10
12.1872682815167
20
-0.780129008588972
30
0
41
1
10
12.1247709931322
20
-0.778865854309913
30
0
41
1
10
12.0290736359043
20
-0.776237389568365
30
0
41
1
10
11.9353196020754
20
-0.772710739486627
30
0
41
1
10
11.8415668826609
20
-0.768365479973966
30
0
41
1
10
11.7634450825237
20
-0.764175207176521
30
0
41
1
10
11.6462631040409
20
-0.756842348544666
30
0
41
1
10
11.5525074255747
20
-0.749966464460584
30
0
41
1
10
11.4743761952029
20
-0.743608235188049
30
0
41
1
10
11.4353145089012
20
-0.740260108197504
30
0
41
1
10
11.3728163639511
20
-0.734625734713546
30
0
41
1
10
11.3103161212788
20
-0.728623142128072
30
0
41
1
10
11.2478145499345
20
-0.722259152724263
30
0
41
1
10
11.1989864964058
20
-0.717063027968265
30
0
41
1
10
11.1521110866466
20
-0.711875956555133
30
0
41
1
10
11.1071891183151
20
-0.706726416294941
30
0
41
1
10
11.0622682171831
20
-0.701409679004826
30
0
41
1
10
10.9997710047094
20
-0.693738141000182
30
0
41
1
10
10.9040737650514
20
-0.681364829042906
30
0
41
1
10
10.8103198329752
20
-0.668442564728508
30
0
41
1
10
10.7165671862841
20
-0.654810795116646
30
0
41
1
10
10.638445423737
20
-0.64294142631104
30
0
41
1
10
10.5212634540257
20
-0.624245355640909
30
0
41
1
10
10.4275077300997
20
-0.608485522169872
30
0
41
1
10
10.3493764300438
20
-0.594852920911677
30
0
41
1
10
10.3103147019979
20
-0.587884248859979
30
0
41
1
10
10.2478164780428
20
-0.576509346951866
30
0
41
1
10
10.1853161440553
20
-0.564851898644207
30
0
41
1
10
10.1228144815855
20
-0.552922208564638
30
0
41
1
10
10.0739863604315
20
-0.54342237504116
30
0
41
1
10
10.0271108919337
20
-0.534152955343984
30
0
41
1
10
9.98218887564187
20
-0.525135740177831
30
0
41
1
10
9.93726793545292
20
-0.51599051726393
30
0
41
1
10
9.87477068215227
20
-0.503056930838909
30
0
41
1
10
9.77907341165118
20
-0.482786975462346
30
0
41
1
10
9.68531949713491
20
-0.462401552590677
30
0
41
1
10
9.59156690369358
20
-0.441528289793496
30
0
41
1
10
9.51344520805307
20
-0.423765379420388
30
0
41
1
10
9.39626336889489
20
-0.396527599783184
30
0
41
1
10
9.30250776500927
20
-0.37427112209437
30
0
41
1
10
9.22437655556874
20
-0.355434098461501
30
0
41
1
10
9.18531487155832
20
-0.345903891368238
30
0
41
1
10
9.12281671532469
20
-0.330518810151119
30
0
41
1
10
9.06031644262544
20
-0.314982211927429
30
0
41
1
10
8.99781482897529
20
-0.299305974069199
30
0
41
1
10
8.94898673662371
20
-0.28695196434586
30
0
41
1
10
8.90211128556672
20
-0.275015399840953
30
0
41
1
10
8.85718927576315
20
-0.263507851305803
30
0
41
1
10
8.81226833261849
20
-0.251931523990777
30
0
41
1
10
8.74977106222582
20
-0.235712788013501
30
0
41
1
10
8.65407373979053
20
-0.210645712468278
30
0
41
1
10
8.56031974895743
20
-0.185915503503168
30
0
41
1
10
8.46656707709229
20
-0.160993580090718
30
0
41
1
10
8.38844531628914
20
-0.14005382560174
30
0
41
1
10
8.27126338439277
20
-0.108438686343874
30
0
41
1
10
8.17938352872812
20
-0.0835932087180709
30
0
41
1
10
8.11875441502809
20
-0.0671695907151957
30
0
41
1
10
8.11281725144241
20
-0.0655596018951314
30
0
0
SPLINE
5
AC
100
AcDbEntity
8
1
62
256
6
ByLayer
370
18
48
1
60
0
100
AcDbSpline
70
4
71
3
72
8
73
4
40
0
40
0
40
0
40
0
40
1
40
1
40
1
40
1
41
1
10
25.331554168907
20
0.292068731700226
30
0
41
1
10
25.3814259867377
20
0.252549646448017
30
0
41
1
10
25.4316676921603
20
0.214687214635376
30
0
41
1
10
25.4823106446787
20
0.17862188928396
30
0
0
SPLINE
5
AD
100
AcDbEntity
8
1
62
256
6
ByLayer
370
18
48
1
60
0
100
AcDbSpline
70
4
71
3
72
8
73
4
40
0
40
0
40
0
40
0
40
1
40
1
40
1
40
1
41
1
10
7.51823800438771
20
0.191979270942255
30
0
41
1
10
7.41945385676337
20
0.237982262687495
30
0
41
1
10
7.3226599842456
20
0.284122621246581
30
0
41
1
10
7.22805330692046
20
0.330366650615588
30
0
0
SPLINE
5
AE
100
AcDbEntity
8
1
62
256
6
ByLayer
370
18
48
1
60
0
100
AcDbSpline
70
4
71
3
72
8
73
4
40
0
40
0
40
0
40
0
40
1
40
1
40
1
40
1
41
1
10
25.4932364071768
20
-1.56674354214766
30
0
41
1
10
25.4784922348422
20
-1.55068567025199
30
0
41
1
10
25.4665500521226
20
-1.52434243906123
30
0
41
1
10
25.4567442905176
20
-1.48760412750505
30
0
0
SPLINE
5
AF
100
AcDbEntity
8
1
62
256
6
ByLayer
370
18
48
1
60
0
100
AcDbSpline
70
4
71
3
72
28
73
24
40
0
40
0
40
0
40
0
40
0.280786435565605
40
0.280786435565605
40
0.42117965334841
40
0.42117965334841
40
0.561572871131214
40
0.561572871131214
40
0.701966088914019
40
0.701966088914019
40
0.772162697805422
40
0.772162697805422
40
0.842359306696824
40
0.842359306696824
40
0.877457611142528
40
0.877457611142528
40
0.912555915588231
40
0.912555915588231
40
0.947654220033934
40
0.947654220033934
40
0.982752524479637
40
0.982752524479637
40
1
40
1
40
1
40
1
41
1
10
7.22805330691637
20
0.330366650617123
30
0
41
1
10
6.92939718059648
20
0.46832086368849
30
0
41
1
10
6.63349140720746
20
0.6048338136859
30
0
41
1
10
6.19474917227222
20
0.806549332474788
30
0
41
1
10
6.04936353281752
20
0.873269177636473
30
0
41
1
10
5.76072885484911
20
1.00526240293749
30
0
41
1
10
5.61826605350922
20
1.07017789627051
30
0
41
1
10
5.34247662239622
20
1.19496585278759
30
0
41
1
10
5.20852521920608
20
1.25514280440268
30
0
41
1
10
5.01674839564708
20
1.33992322956686
30
0
41
1
10
4.95396244359796
20
1.36742873102224
30
0
41
1
10
4.83541067902331
20
1.41861245276934
30
0
41
1
10
4.77951288520231
20
1.44235652857625
30
0
41
1
10
4.70254471874907
20
1.47414001928948
30
0
41
1
10
4.67804496402675
20
1.48409002446266
30
0
41
1
10
4.63187017143355
20
1.50240267979285
30
0
41
1
10
4.6100981067317
20
1.51079878737971
30
0
41
1
10
4.57112926546478
20
1.52520594337534
30
0
41
1
10
4.55380729276274
20
1.531269502897
30
0
41
1
10
4.52421303601761
20
1.54072054950024
30
0
41
1
10
4.51187336058103
20
1.54411441718344
30
0
41
1
10
4.49838408698196
20
1.54670767264619
30
0
41
1
10
4.49471252170878
20
1.54717257503273
30
0
41
1
10
4.49183152140446
20
1.54723851361354
30
0
0
SPLINE
5
B0
100
AcDbEntity
8
1
62
256
6
ByLayer
370
18
48
1
60
0
100
AcDbSpline
70
4
71
3
72
44
73
40
40
0
40
0
40
0
40
0
40
0.0288573006725966
40
0.0288573006725966
40
0.0774144356389666
40
0.0774144356389666
40
0.125971570605337
40
0.125971570605337
40
0.223085840538078
40
0.223085840538078
40
0.32020011047082
40
0.32020011047082
40
0.36875724543719
40
0.36875724543719
40
0.41731438040356
40
0.41731438040356
40
0.46587151536993
40
0.46587151536993
40
0.5144286503363
40
0.5144286503363
40
0.56298578530267
40
0.56298578530267
40
0.61154292026904
40
0.61154292026904
40
0.66010005523541
40
0.66010005523541
40
0.70865719020178
40
0.70865719020178
40
0.75721432516815
40
0.75721432516815
40
0.80577146013452
40
0.80577146013452
40
0.85432859510089
40
0.85432859510089
40
0.90288573006726
40
0.90288573006726
40
0.95144286503363
40
0.95144286503363
40
1
40
1
40
1
40
1
41
1
10
14.6009434532624
20
1.0775774734517
30
0
41
1
10
14.706009046741
20
1.11933541467843
30
0
41
1
10
14.8110689034145
20
1.15892751042506
30
0
41
1
10
15.0923176640494
20
1.25850369285828
30
0
41
1
10
15.2685663833491
20
1.31411550548677
30
0
41
1
10
15.6219610622244
20
1.41023614172116
30
0
41
1
10
15.7986488107873
20
1.45055901366868
30
0
41
1
10
16.3277809033491
20
1.54569868044729
30
0
41
1
10
16.6812536589325
20
1.57531375643285
30
0
41
1
10
17.3864673144589
20
1.56212960290475
30
0
41
1
10
17.7399508423646
20
1.51933443501864
30
0
41
1
10
18.2685603506856
20
1.40542010462858
30
0
41
1
10
18.4452059747805
20
1.35914195757971
30
0
41
1
10
18.7984777004448
20
1.25167518452244
30
0
41
1
10
18.9745012194121
20
1.19057441964389
30
0
41
1
10
19.3267636956742
20
1.05528360647321
30
0
41
1
10
19.5035672651636
20
0.981072535140981
30
0
41
1
10
19.8565517526486
20
0.822742248652673
30
0
41
1
10
20.0325637832127
20
0.738587736588443
30
0
41
1
10
20.3847159295827
20
0.561950212413308
30
0
41
1
10
20.5616151339366
20
0.469844184639555
30
0
41
1
10
20.9142193172566
20
0.281765091665733
30
0
41
1
10
21.0901226271157
20
0.185677782817152
30
0
41
1
10
21.4426462375118
20
-0.0078592677232905
30
0
41
1
10
21.6193850880697
20
-0.105691304796295
30
0
41
1
10
21.9715818898489
20
-0.298366983934841
30
0
41
1
10
22.1474841422513
20
-0.393312826078699
30
0
41
1
10
22.5000689409108
20
-0.578330543758199
30
0
41
1
10
22.6767345299616
20
-0.668337614087875
30
0
41
1
10
23.0286985593264
20
-0.839442829806814
30
0
41
1
10
23.2046427525126
20
-0.92044954426234
30
0
41
1
10
23.5572841513665
20
-1.07206155357531
30
0
41
1
10
23.7336808248876
20
-1.14217839756924
30
0
41
1
10
24.0854407417702
20
-1.26841040669706
30
0
41
1
10
24.2611505869988
20
-1.32471854335105
30
0
41
1
10
24.6135991361813
20
-1.42214222898491
30
0
41
1
10
24.7899137093304
20
-1.46315329128314
30
0
41
1
10
25.1416049555906
20
-1.52777191082734
30
0
41
1
10
25.3171773548743
20
-1.55167231635687
30
0
41
1
10
25.4932364071768
20
-1.56674354214766
30
0
0
SPLINE
5
B1
100
AcDbEntity
8
1
62
256
6
ByLayer
370
18
48
1
60
0
100
AcDbSpline
70
4
71
3
72
8
73
4
40
0
40
0
40
0
40
0
40
1
40
1
40
1
40
1
41
1
10
25.4932364071768
20
1.56674354214766
30
0
41
1
10
25.5822371832123
20
1.31665983860481
30
0
41
1
10
25.6732968823759
20
1.05622269951854
30
0
41
1
10
25.757534850851
20
0.780704260117744
30
0
0
SPLINE
5
B2
100
AcDbEntity
8
1
62
256
6
ByLayer
370
18
48
1
60
0
100
AcDbSpline
70
4
71
3
72
18
73
14
40
0
40
0
40
0
40
0
40
0.125
40
0.125
40
0.25
40
0.25
40
0.375
40
0.375
40
0.5
40
0.5
40
0.75
40
0.75
40
1
40
1
40
1
40
1
41
1
10
7.22805330692881
20
0.330366650617094
30
0
41
1
10
7.22798368656066
20
0.251008464327555
30
0
41
1
10
7.22792548752611
20
0.170973766941614
30
0
41
1
10
7.22783896781078
20
0.0095702784156799
30
0
41
1
10
7.2278105887234
20
-0.0724637878284966
30
0
41
1
10
7.22778911427241
20
-0.234570820938757
30
0
41
1
10
7.22779576762042
20
-0.314152604035314
30
0
41
1
10
7.227841644356
20
-0.470446219212903
30
0
41
1
10
7.2278810938775
20
-0.547446102340615
30
0
41
1
10
7.22804047403724
20
-0.772080956851852
30
0
41
1
10
7.22819771034722
20
-0.90810912940691
30
0
41
1
10
7.22852360073807
20
-1.15268638853317
30
0
41
1
10
7.22868377002976
20
-1.25557079911863
30
0
41
1
10
7.22878087565059
20
-1.33813863708843
30
0
0
SPLINE
5
B3
100
AcDbEntity
8
1
62
256
6
ByLayer
370
18
48
1
60
0
100
AcDbSpline
70
4
71
3
72
8
73
4
40
0
40
0
40
0
40
0
40
1
40
1
40
1
40
1
41
1
10
25.757534850851
20
0.780704260117744
30
0
41
1
10
25.7921260506225
20
0.667566282664183
30
0
41
1
10
25.8307398857904
20
0.5616630490766
30
0
41
1
10
25.873428754481
20
0.462082137706318
30
0
0
SPLINE
5
B4
100
AcDbEntity
8
1
62
256
6
ByLayer
370
18
48
1
60
0
100
AcDbSpline
70
4
71
1
72
4
73
2
40
0
40
0
40
1
40
1
41
1
10
25.4567442905135
20
-1.48760412752165
30
0
41
1
10
25.7357437948078
20
-0.3685982352319
30
0
0
SPLINE
5
B5
100
AcDbEntity
8
1
62
256
6
ByLayer
370
18
48
1
60
0
100
AcDbSpline
70
4
71
3
72
26
73
22
40
0
40
0
40
0
40
0
40
0.141763155514871
40
0.141763155514871
40
0.283526311029741
40
0.283526311029741
40
0.354407888787177
40
0.354407888787177
40
0.425289466544612
40
0.425289466544612
40
0.567052622059483
40
0.567052622059483
40
0.63793419981692
40
0.63793419981692
40
0.708815777574357
40
0.708815777574357
40
0.850578933089232
40
0.850578933089232
40
0.992342088604107
40
0.992342088604107
40
1
40
1
40
1
40
1
41
1
10
25.331554168907
20
0.292068731700226
30
0
41
1
10
25.1473152186979
20
0.388404679089319
30
0
41
1
10
24.9633148210308
20
0.482491351160462
30
0
41
1
10
24.5942163849233
20
0.663852559852131
30
0
41
1
10
24.4090224930472
20
0.751958629442498
30
0
41
1
10
24.1321498362722
20
0.875774960189744
30
0
41
1
10
24.0398770446297
20
0.915540473062691
30
0
41
1
10
23.8555242963335
20
0.991838209160903
30
0
41
1
10
23.7633421736414
20
1.0282135098158
30
0
41
1
10
23.4862148278936
20
1.13250165360344
30
0
41
1
10
23.3010079485075
20
1.19645118029322
30
0
41
1
10
23.0242526540563
20
1.2805210388193
30
0
41
1
10
22.9319760121729
20
1.30654656173016
30
0
41
1
10
22.7475345848563
20
1.35419927076362
30
0
41
1
10
22.6553028064181
20
1.37562437473031
30
0
41
1
10
22.3778981709454
20
1.4332098516818
30
0
41
1
10
22.1927864546585
20
1.46370519287416
30
0
41
1
10
21.8237401988378
20
1.50622572819725
30
0
41
1
10
21.6393155618202
20
1.51799996641776
30
0
41
1
10
21.4440604123118
20
1.51969839017522
30
0
41
1
10
21.434054568126
20
1.51976147247157
30
0
41
1
10
21.4240497931083
20
1.51980031328446
30
0
0
SPLINE
5
B6
100
AcDbEntity
8
1
62
256
6
ByLayer
370
18
48
1
60
0
100
AcDbSpline
70
4
71
3
72
38
73
34
40
0
40
0
40
0
40
0
40
0.0518771313756588
40
0.0518771313756588
40
0.0913822509016748
40
0.0913822509016748
40
0.130887370427691
40
0.130887370427691
40
0.20989760947972
40
0.20989760947972
40
0.28890784853175
40
0.28890784853175
40
0.328412968057765
40
0.328412968057765
40
0.36791808758378
40
0.36791808758378
40
0.446928326635808
40
0.446928326635808
40
0.486433446161821
40
0.486433446161821
40
0.525938565687835
40
0.525938565687835
40
0.604948804739863
40
0.604948804739863
40
0.68395904379189
40
0.68395904379189
40
0.762969282843918
40
0.762969282843918
40
0.841979521895945
40
0.841979521895945
40
0.920989760947973
40
0.920989760947973
40
1
40
1
40
1
40
1
41
1
10
14.5984333057667
20
-1.080134988146
30
0
41
1
10
14.4766004289144
20
-1.1250261849965
30
0
41
1
10
14.3546929150377
20
-1.16707968215977
30
0
41
1
10
14.1405323213742
20
-1.23482384809975
30
0
41
1
10
14.0481046800326
20
-1.26175499677601
30
0
41
1
10
13.8630311016383
20
-1.31146909845637
30
0
41
1
10
13.7705395722621
20
-1.33472801981145
30
0
41
1
10
13.4925815140976
20
-1.39791045421893
30
0
41
1
10
13.3067204781201
20
-1.43166337484388
30
0
41
1
10
12.9364094600527
20
-1.48109725159864
30
0
41
1
10
12.7514552960425
20
-1.49629078139677
30
0
41
1
10
12.473075146021
20
-1.505394715297
30
0
41
1
10
12.3801623238424
20
-1.50593461734962
30
0
41
1
10
12.1949389111572
20
-1.50096715197435
30
0
41
1
10
12.1023236810848
20
-1.49648362465248
30
0
41
1
10
11.8245371412676
20
-1.47725234388412
30
0
41
1
10
11.6391345371192
20
-1.45586870999477
30
0
41
1
10
11.3607859560005
20
-1.40921366889575
30
0
41
1
10
11.268078401717
20
-1.39147607178234
30
0
41
1
10
11.0830061336679
20
-1.35036005239908
30
0
41
1
10
10.9904555596904
20
-1.32754404448778
30
0
41
1
10
10.712688317899
20
-1.25457651384232
30
0
41
1
10
10.526919447698
20
-1.19840516967639
30
0
41
1
10
10.1562990364162
20
-1.07123558085462
30
0
41
1
10
9.97134226257782
20
-0.999887873705546
30
0
41
1
10
9.60079631225722
20
-0.846336848316156
30
0
41
1
10
9.41497616208923
20
-0.764020952722774
30
0
41
1
10
9.04474158531013
20
-0.590853966901307
30
0
41
1
10
8.85976122110986
20
-0.499922805178471
30
0
41
1
10
8.48886006170537
20
-0.313018604314095
30
0
41
1
10
8.30321968140774
20
-0.217169933678321
30
0
41
1
10
7.93309859962346
20
-0.0241652501253498
30
0
41
1
10
7.74808754521968
20
0.0729129245354443
30
0
41
1
10
7.56237924367332
20
0.169093819547982
30
0
0
SPLINE
5
B7
100
AcDbEntity
8
1
62
256
6
ByLayer
370
13
48
1
60
0
100
AcDbSpline
70
4
71
3
72
28
73
24
40
0
40
0
40
0
40
0
40
0.160065668452389
40
0.160065668452389
40
0.240098502678582
40
0.240098502678582
40
0.320131336904775
40
0.320131336904775
40
0.400164171130968
40
0.400164171130968
40
0.480197005357161
40
0.480197005357161
40
0.640262673809545
40
0.640262673809545
40
0.720295508035737
40
0.720295508035737
40
0.800328342261929
40
0.800328342261929
40
0.880361176488121
40
0.880361176488121
40
0.960394010714313
40
0.960394010714313
40
1
40
1
40
1
40
1
41
1
10
25.4106923171692
20
-1.33854170033843
30
0
41
1
10
25.0376886166418
20
-1.24175525454297
30
0
41
1
10
24.6675767983473
20
-1.11244422932791
30
0
41
1
10
24.1088785425535
20
-0.880042470676983
30
0
41
1
10
23.922010864007
20
-0.795748725886881
30
0
41
1
10
23.5507253802558
20
-0.620427795601557
30
0
41
1
10
23.3657648737604
20
-0.528866194514734
30
0
41
1
10
22.9959763861452
20
-0.340183477260609
30
0
41
1
10
22.8112624220634
20
-0.242829598166452
30
0
41
1
10
22.4399572948275
20
-0.0461220172838637
30
0
41
1
10
22.2526108442445
20
0.0537218634235046
30
0
41
1
10
21.6941432011687
20
0.348923652881439
30
0
41
1
10
21.3256932779174
20
0.539543935732667
30
0
41
1
10
20.7696137393207
20
0.799985016634963
30
0
41
1
10
20.5833086356783
20
0.882858773007314
30
0
41
1
10
20.2098743994326
20
1.0360453417135
30
0
41
1
10
20.0239641505916
20
1.10569332635311
30
0
41
1
10
19.6532950820921
20
1.2308647628609
30
0
41
1
10
19.4684340221619
20
1.28619068705103
30
0
41
1
10
19.0981611156877
20
1.37948047095176
30
0
41
1
10
18.9122430455728
20
1.41737402348667
30
0
41
1
10
18.6329782195761
20
1.46125851053736
30
0
41
1
10
18.540550560282
20
1.47353705459156
30
0
41
1
10
18.4482805524163
20
1.48349313071787
30
0
0
SPLINE
5
B8
100
AcDbEntity
8
1
62
256
6
ByLayer
370
13
48
1
60
0
100
AcDbSpline
70
4
71
3
72
10
73
6
40
0
40
0
40
0
40
0
40
0.123001071129362
40
0.123001071129362
40
1
40
1
40
1
40
1
41
1
10
8.83316709838576
20
-1.49824524054793
30
0
41
1
10
8.78077565918275
20
-1.49785857996221
30
0
41
1
10
8.7284485570207
20
-1.49672308816989
30
0
41
1
10
8.30345959202987
20
-1.48167037354614
30
0
41
1
10
7.9339475209612
20
-1.4310680224182
30
0
41
1
10
7.56103808757797
20
-1.34507631618428
30
0
0
SPLINE
5
B9
100
AcDbEntity
8
1
62
256
6
ByLayer
370
18
48
1
60
0
100
AcDbSpline
70
4
71
3
72
10
73
6
40
0
40
0
40
0
40
0
40
0.5
40
0.5
40
1
40
1
40
1
40
1
41
1
10
25.4106923171692
20
-1.33854170033843
30
0
41
1
10
25.3724754154659
20
-1.26822930780102
30
0
41
1
10
25.3433028690544
20
-1.18058545857787
30
0
41
1
10
25.3045124317804
20
-0.967825695542217
30
0
41
1
10
25.2958252171169
20
-0.844837283948692
30
0
41
1
10
25.2983227205895
20
-0.712644581814686
30
0
0
SPLINE
5
BA
100
AcDbEntity
8
1
62
256
6
ByLayer
370
18
48
1
60
0
100
AcDbSpline
70
4
71
3
72
16
73
12
40
0
40
0
40
0
40
0
40
0.125000000000003
40
0.125000000000003
40
0.250000000000006
40
0.250000000000006
40
0.500000000000004
40
0.500000000000004
40
0.750000000000002
40
0.750000000000002
40
1
40
1
40
1
40
1
41
1
10
25.7139804384644
20
-0.362612443208008
30
0
41
1
10
25.6990648767791
20
-0.35500505510521
30
0
41
1
10
25.6848130011248
20
-0.344482300052221
30
0
41
1
10
25.6574496199608
20
-0.318427497487733
30
0
41
1
10
25.6442470947013
20
-0.302741246343175
30
0
41
1
10
25.607066999275
20
-0.250033636416646
30
0
41
1
10
25.5853798641593
20
-0.207630271637271
30
0
41
1
10
25.5468669865619
20
-0.111429210827879
30
0
41
1
10
25.5302392671844
20
-0.0577707308924573
30
0
41
1
10
25.5024935112467
20
0.0553630359288206
30
0
41
1
10
25.4911803577917
20
0.115356841371749
30
0
41
1
10
25.4823106446789
20
0.178621889285523
30
0
0
SPLINE
5
BB
100
AcDbEntity
8
1
62
256
6
ByLayer
370
18
48
1
60
0
100
AcDbSpline
70
4
71
3
72
16
73
12
40
0
40
0
40
0
40
0
40
0.298768062540014
40
0.298768062540014
40
0.49473551787812
40
0.49473551787812
40
0.690702973216227
40
0.690702973216227
40
0.886670428554332
40
0.886670428554332
40
1
40
1
40
1
40
1
41
1
10
4.85300401886786
20
-1.41094818221455
30
0
41
1
10
4.8090948685408
20
-1.42975648377316
30
0
41
1
10
4.76731548323926
20
-1.44739336432124
30
0
41
1
10
4.70254471875185
20
-1.47414001928837
30
0
41
1
10
4.67804496402934
20
-1.48409002446161
30
0
41
1
10
4.63187017143571
20
-1.50240267979203
30
0
41
1
10
4.6100981067336
20
-1.51079878737897
30
0
41
1
10
4.57112926546625
20
-1.5252059433748
30
0
41
1
10
4.55380729276402
20
-1.53126950289658
30
0
41
1
10
4.53045286484266
20
-1.53872783471343
30
0
41
1
10
4.5227174365572
20
-1.54101528394244
30
0
41
1
10
4.51596586897028
20
-1.54279482301015
30
0
0
SPLINE
5
BC
100
AcDbEntity
8
1
62
256
6
ByLayer
370
18
48
1
60
0
100
AcDbSpline
70
4
71
3
72
14
73
10
40
0
40
0
40
0
40
0
40
0.144944222688289
40
0.144944222688289
40
0.429962815125526
40
0.429962815125526
40
0.714981407562763
40
0.714981407562763
40
1
40
1
40
1
40
1
41
1
10
4.49183060422141
20
-1.54723853459257
30
0
41
1
10
4.48884929977524
20
-1.54730668521699
30
0
41
1
10
4.48671466738159
20
-1.54694755716332
30
0
41
1
10
4.48295170257614
20
-1.54458381717197
30
0
41
1
10
4.48386323007495
20
-1.54126710100712
30
0
41
1
10
4.49256664184981
20
-1.5312973252677
30
0
41
1
10
4.50024335169672
20
-1.52471975930959
30
0
41
1
10
4.52159542162792
20
-1.50868957777331
30
0
41
1
10
4.53542043740222
20
-1.49914210289904
30
0
41
1
10
4.55158692303235
20
-1.4885444140092
30
0
0
SPLINE
5
BD
100
AcDbEntity
8
1
62
256
6
ByLayer
370
13
48
1
60
0
100
AcDbSpline
70
4
71
3
72
36
73
32
40
0
40
0
40
0
40
0
40
0.0326794824756454
40
0.0326794824756454
40
0.0989660823724835
40
0.0989660823724835
40
0.165252682269322
40
0.165252682269322
40
0.23153928216616
40
0.23153928216616
40
0.297825882062998
40
0.297825882062998
40
0.364112481959836
40
0.364112481959836
40
0.430399081856675
40
0.430399081856675
40
0.562972281650353
40
0.562972281650353
40
0.629258881547191
40
0.629258881547191
40
0.695545481444029
40
0.695545481444029
40
0.761832081340867
40
0.761832081340867
40
0.828118681237705
40
0.828118681237705
40
0.894405281134544
40
0.894405281134544
40
0.960691881031382
40
0.960691881031382
40
1
40
1
40
1
40
1
41
1
10
17.8845097415629
20
-1.51497556375844
30
0
41
1
10
17.7932212003639
20
-1.51527007097749
30
0
41
1
10
17.7019751551905
20
-1.51323661207613
30
0
41
1
10
17.4255347894808
20
-1.50013328668271
30
0
41
1
10
17.2400354268074
20
-1.48196876934765
30
0
41
1
10
16.8674011177093
20
-1.42730662632903
30
0
41
1
10
16.6800910970929
20
-1.39050470842372
30
0
41
1
10
16.3062150581824
20
-1.29898397804959
30
0
41
1
10
16.1188977004671
20
-1.2447280158774
30
0
41
1
10
15.7469858240435
20
-1.1223784462498
30
0
41
1
10
15.5618200569479
20
-1.0539557010627
30
0
41
1
10
15.1914424001317
20
-0.904219956670602
30
0
41
1
10
15.0058612288689
20
-0.823537091104981
30
0
41
1
10
14.6334450163706
20
-0.652204152692974
30
0
41
1
10
14.4456816302312
20
-0.561190758302189
30
0
41
1
10
13.8869170112315
20
-0.280344722550524
30
0
41
1
10
13.517413862975
20
-0.0841434331052255
30
0
41
1
10
12.9598509521617
20
0.208387129279345
30
0
41
1
10
12.7726139045451
20
0.305698364711475
30
0
41
1
10
12.3989163713418
20
0.495278784925262
30
0
41
1
10
12.2130381322189
20
0.586495578692592
30
0
41
1
10
11.8417919315968
20
0.76020314684726
30
0
41
1
10
11.6565270933402
20
0.842838787052983
30
0
41
1
10
11.285381714804
20
0.996946850700027
30
0
41
1
10
11.0993106241204
20
1.06799066587303
30
0
41
1
10
10.7245721322539
20
1.19628608971425
30
0
41
1
10
10.5378377461596
20
1.25315778528255
30
0
41
1
10
10.1661933922202
20
1.34983601742729
30
0
41
1
10
9.98090562760171
20
1.38948422131699
30
0
41
1
10
9.68518913754275
20
1.4386630615418
30
0
41
1
10
9.57504233198799
20
1.45391367646238
30
0
41
1
10
9.46467278995445
20
1.46593355584668
30
0
0
SPLINE
5
BE
100
AcDbEntity
8
1
62
256
6
ByLayer
370
18
48
1
60
0
100
AcDbSpline
70
4
71
3
72
12
73
8
40
0
40
0
40
0
40
0
40
0.250000000000002
40
0.250000000000002
40
0.500000000000005
40
0.500000000000005
40
1
40
1
40
1
40
1
41
1
10
6.76776070035919
20
1.46891551220614
30
0
41
1
10
6.91450700953973
20
1.49339143086078
30
0
41
1
10
7.0626377607978
20
1.5120811354999
30
0
41
1
10
7.36129501833784
20
1.53923056195711
30
0
41
1
10
7.51138314655446
20
1.54761146223427
30
0
41
1
10
7.95966017254287
20
1.55838840385448
30
0
41
1
10
8.2575283922607
20
1.54681405488887
30
0
41
1
10
8.55438148038226
20
1.51714091508768
30
0
0
SPLINE
5
BF
100
AcDbEntity
8
1
62
256
6
ByLayer
370
18
48
1
60
0
100
AcDbSpline
70
4
71
3
72
60
73
56
40
0
40
0
40
0
40
0
40
0.0162289151901995
40
0.0162289151901995
40
0.0656994307548484
40
0.0656994307548484
40
0.115169946319497
40
0.115169946319497
40
0.139905204101821
40
0.139905204101821
40
0.164640461884145
40
0.164640461884145
40
0.214110977448792
40
0.214110977448792
40
0.238846235231115
40
0.238846235231115
40
0.263581493013438
40
0.263581493013438
40
0.313052008578084
40
0.313052008578084
40
0.337787266360407
40
0.337787266360407
40
0.36252252414273
40
0.36252252414273
40
0.411993039707376
40
0.411993039707376
40
0.461463555272022
40
0.461463555272022
40
0.486198813054345
40
0.486198813054345
40
0.510934070836668
40
0.510934070836668
40
0.560404586401314
40
0.560404586401314
40
0.585139844183638
40
0.585139844183638
40
0.609875101965961
40
0.609875101965961
40
0.659345617530608
40
0.659345617530608
40
0.708816133095254
40
0.708816133095254
40
0.7582866486599
40
0.7582866486599
40
0.807757164224546
40
0.807757164224546
40
0.857227679789192
40
0.857227679789192
40
0.906698195353838
40
0.906698195353838
40
0.931433453136161
40
0.931433453136161
40
0.956168710918484
40
0.956168710918484
40
1
40
1
40
1
40
1
41
1
10
12.3767957261062
20
1.50491592587568
30
0
41
1
10
12.4374948506591
20
1.50530853571658
30
0
41
1
10
12.4982444688031
20
1.50448912346465
30
0
41
1
10
12.7443554978146
20
1.49675661673217
30
0
41
1
10
12.9296443452282
20
1.48175226174175
30
0
41
1
10
13.2994150255789
20
1.43287742769519
30
0
41
1
10
13.4843274007081
20
1.39950726418127
30
0
41
1
10
13.7625531971424
20
1.33667417288026
30
0
41
1
10
13.8550823066892
20
1.31349042507833
30
0
41
1
10
14.0401005958885
20
1.26400947336128
30
0
41
1
10
14.1324378171541
20
1.23725704762324
30
0
41
1
10
14.4096193407524
20
1.14994334411466
30
0
41
1
10
14.5949845963196
20
1.08345273461211
30
0
41
1
10
14.8730049749111
20
0.974856471494775
30
0
41
1
10
14.9654734080315
20
0.937106183981285
30
0
41
1
10
15.1504606650168
20
0.859597314752961
30
0
41
1
10
15.2428145827486
20
0.819539596558599
30
0
41
1
10
15.520100232348
20
0.694463240326968
30
0
41
1
10
15.7057965984062
20
0.605369617157777
30
0
41
1
10
15.9836284905728
20
0.467754927554609
30
0
41
1
10
16.0760558454311
20
0.420989035199796
30
0
41
1
10
16.2610449123111
20
0.326763129109509
30
0
41
1
10
16.3534488309779
20
0.279049532189276
30
0
41
1
10
16.6309243966803
20
0.134195516123498
30
0
41
1
10
16.8167598587967
20
0.035795595243485
30
0
41
1
10
17.1871209565354
20
-0.159162714623676
30
0
41
1
10
17.3719257395684
20
-0.256512736345172
30
0
41
1
10
17.6497656103879
20
-0.399750676229445
30
0
41
1
10
17.7426312014989
20
-0.446943943273567
30
0
41
1
10
17.9279081769642
20
-0.539824149107972
30
0
41
1
10
18.0203863229261
20
-0.585551136086991
30
0
41
1
10
18.2978319823603
20
-0.719031284492701
30
0
41
1
10
18.4826277089024
20
-0.803679811710452
30
0
41
1
10
18.7607587286276
20
-0.923186318029849
30
0
41
1
10
18.8534714399874
20
-0.961588375806002
30
0
41
1
10
19.0386267645865
20
-1.03550424253248
30
0
41
1
10
19.1310769794977
20
-1.07139366993167
30
0
41
1
10
19.4084958834576
20
-1.17395526446225
30
0
41
1
10
19.5937584256509
20
-1.23342687808724
30
0
41
1
10
19.9644900379267
20
-1.33715612591294
30
0
41
1
10
20.1494619669209
20
-1.3806961161815
30
0
41
1
10
20.5196123731036
20
-1.45403579214042
30
0
41
1
10
20.7052617510209
20
-1.48029817851537
30
0
41
1
10
21.0756086520444
20
-1.51417602643926
30
0
41
1
10
21.2604631735216
20
-1.52101117429436
30
0
41
1
10
21.6308825561422
20
-1.51834493981235
30
0
41
1
10
21.8165703228169
20
-1.50682281700514
30
0
41
1
10
22.1865589058675
20
-1.46464357949975
30
0
41
1
10
22.3713577365792
20
-1.43437044636235
30
0
41
1
10
22.6493192355987
20
-1.37696019434546
30
0
41
1
10
22.7420889607601
20
-1.35552098484393
30
0
41
1
10
22.9272120817565
20
-1.30785804183364
30
0
41
1
10
23.0197287084056
20
-1.28183173413475
30
0
41
1
10
23.2758662952346
20
-1.20419697947489
30
0
41
1
10
23.4395596626641
20
-1.14853894101836
30
0
41
1
10
23.6037114787424
20
-1.08802716749463
30
0
0
SPLINE
5
C0
100
AcDbEntity
8
1
62
256
6
ByLayer
370
18
48
1
60
0
100
AcDbSpline
70
4
71
3
72
12
73
8
40
0
40
0
40
0
40
0
40
0.328772980829585
40
0.328772980829585
40
0.657545961659169
40
0.657545961659169
40
1
40
1
40
1
40
1
41
1
10
7.47259149958072
20
-1.45172057209012
30
0
41
1
10
7.66198633449773
20
-1.48841151255507
30
0
41
1
10
7.85119956182947
20
-1.51557487781523
30
0
41
1
10
8.22935636880075
20
-1.54983807646263
30
0
41
1
10
8.41696195101133
20
-1.55679940991948
30
0
41
1
10
8.79899255529634
20
-1.55071448944381
30
0
41
1
10
8.9931981467482
20
-1.53680487715894
30
0
41
1
10
9.1876472907463
20
-1.51238927074508
30
0
0
SPLINE
5
C1
100
AcDbEntity
8
1
62
256
6
ByLayer
370
18
48
1
60
0
100
AcDbSpline
70
4
71
3
72
39
73
35
40
0
40
0
40
0
40
0
40
0.0107053946410371
40
0.0107053946410371
40
0.0813692950238189
40
0.0813692950238189
40
0.152033195406601
40
0.152033195406601
40
0.293360996172166
40
0.293360996172166
40
0.328692946363557
40
0.328692946363557
40
0.364024896554947
40
0.364024896554947
40
0.434688796937731
40
0.434688796937731
40
0.576016597703298
40
0.576016597703298
40
0.61134854789469
40
0.61134854789469
40
0.646680498086082
40
0.646680498086082
40
0.717344398468865
40
0.717344398468865
40
0.788008298851649
40
0.788008298851649
40
0.858672199234433
40
0.858672199234433
40
0.929336099617216
40
0.929336099617216
40
0.964668049808608
40
0.982334024904304
40
0.982334024904304
40
1
40
1
40
1
40
1
41
1
10
17.5066038580878
20
1.57067201558718
30
0
41
1
10
17.53485779654
20
1.57074460057311
30
0
41
1
10
17.5631229475084
20
1.57058801557162
30
0
41
1
10
17.7780663970956
20
1.56765099013643
30
0
41
1
10
17.9653256021767
20
1.55509652225342
30
0
41
1
10
18.3426319281828
20
1.50959171670391
30
0
41
1
10
18.5302812032238
20
1.47692467727074
30
0
41
1
10
19.0904287702356
20
1.35204152425047
30
0
41
1
10
19.4610525096878
20
1.23272496002281
30
0
41
1
10
19.9288052690587
20
1.04662743196397
30
0
41
1
10
20.0225901183232
20
1.00757489052725
30
0
41
1
10
20.2108657530723
20
0.926080233740805
30
0
41
1
10
20.3054021735948
20
0.883677199282289
30
0
41
1
10
20.5871584903963
20
0.752817502755789
30
0
41
1
10
20.7737416849545
20
0.660635257070908
30
0
41
1
10
21.332290909692
20
0.373778066641108
30
0
41
1
10
21.7031564888953
20
0.168973647943744
30
0
41
1
10
22.1727806878708
20
-0.0898330562565377
30
0
41
1
10
22.2672489234398
20
-0.141842184307933
30
0
41
1
10
22.4552878478491
20
-0.244761159995562
30
0
41
1
10
22.5489747534482
20
-0.295742378877776
30
0
41
1
10
22.8292532849017
20
-0.44688900432206
30
0
41
1
10
23.0151909375535
20
-0.545012028781372
30
0
41
1
10
23.3870657616121
20
-0.732900996260526
30
0
41
1
10
23.5729828561424
20
-0.822715559112737
30
0
41
1
10
23.9460110027622
20
-0.991964823687169
30
0
41
1
10
24.1335443441079
20
-1.07153182233995
30
0
41
1
10
24.5102358339496
20
-1.21592017423683
30
0
41
1
10
24.6977120927612
20
-1.28029455275072
30
0
41
1
10
24.9787403305495
20
-1.36407571205652
30
0
41
1
10
25.1191936687911
20
-1.40278323071439
30
0
41
1
10
25.2597617119304
20
-1.43649395187288
30
0
41
1
10
25.3535227130035
20
-1.45783068057071
30
0
41
1
10
25.40030385772
20
-1.46801141821206
30
0
41
1
10
25.4474787204114
20
-1.47737412846661
30
0
0
SPLINE
5
C2
100
AcDbEntity
8
1
62
256
6
ByLayer
370
13
48
1
60
0
100
AcDbSpline
70
4
71
3
72
90
73
86
40
0
40
0
40
0
40
0
40
0.0023491721456215
40
0.0105832816877509
40
0.018817391229881
40
0.03528561031415
40
0.0435197198562788
40
0.0517538293984113
40
0.0610172026333107
40
0.0682220484826786
40
0.0754268943320412
40
0.084690267566943
40
0.101158486651205
40
0.125860815277603
40
0.134094924819736
40
0.150563143903996
40
0.167031362988264
40
0.195850746385723
40
0.199967801156793
40
0.20820191069892
40
0.216436020241052
40
0.232904239325321
40
0.24113834886745
40
0.249372458409581
40
0.25863583164448
40
0.26584067749385
40
0.273045523343211
40
0.282308896578112
40
0.298777115662377
40
0.323479444288773
40
0.331713553830907
40
0.348181772915169
40
0.364649991999433
40
0.393469375396897
40
0.397586430167964
40
0.405820539710095
40
0.414054649252228
40
0.430522868336493
40
0.438756977878622
40
0.446991087420753
40
0.456254460655653
40
0.463459306505021
40
0.470664152354385
40
0.479927525589283
40
0.496395744673547
40
0.521098073299943
40
0.529332182842078
40
0.545800401926338
40
0.562268621010608
40
0.59108800440807
40
0.595205059179135
40
0.603439168721264
40
0.611673278263398
40
0.628141497347663
40
0.636375606889794
40
0.644609716431926
40
0.653873089666825
40
0.661077935516192
40
0.668282781365555
40
0.677546154600452
40
0.694014373684719
40
0.718716702311116
40
0.726950811853249
40
0.743419030937513
40
0.759887250021778
40
0.788706633419238
40
0.792823688190306
40
0.801057797732438
40
0.80929190727457
40
0.825760126358835
40
0.833994235900965
40
0.842228345443102
40
0.851491718677996
40
0.858696564527363
40
0.865901410376728
40
0.875164783611626
40
0.89163300269589
40
0.916335331322287
40
0.92456944086442
40
0.941037659948683
40
0.957505879032948
40
0.986325262430409
40
0.990442317201477
40
0.998676426743608
40
1
40
1
40
1
40
1
41
1
10
22.7455640907656
20
-0.693614113986683
30
0
41
1
10
22.7411059919194
20
-0.694176833526228
30
0
41
1
10
22.7210219094617
20
-0.696700208896516
30
0
41
1
10
22.6853148810361
20
-0.701086038473846
30
0
41
1
10
22.6228167264331
20
-0.708504451553239
30
0
41
1
10
22.5603164541456
20
-0.71555001120629
30
0
41
1
10
22.4978148402612
20
-0.722221259700063
30
0
41
1
10
22.4489867474895
20
-0.727221684352713
30
0
41
1
10
22.4021112959626
20
-0.731816564557789
30
0
41
1
10
22.3571892858178
20
-0.736034966437188
30
0
41
1
10
22.3122683425371
20
-0.740085143674236
30
0
41
1
10
22.2497710724479
20
-0.745444090522227
30
0
41
1
10
22.1540737521881
20
-0.752995572153054
30
0
41
1
10
22.0603197676578
20
-0.759434779817013
30
0
41
1
10
21.9665671069831
20
-0.765065093962562
30
0
41
1
10
21.8884453612757
20
-0.769210103828073
30
0
41
1
10
21.7712634597592
20
-0.774375058764633
30
0
41
1
10
21.6775078209901
20
-0.77743471398739
30
0
41
1
10
21.5993765927904
20
-0.779317181355395
30
0
41
1
10
21.5603149003544
20
-0.780097437540462
30
0
41
1
10
21.497816730839
20
-0.781056134833449
30
0
41
1
10
21.4353164446737
20
-0.7816136972518
30
0
41
1
10
21.3728148170607
20
-0.781772501517281
30
0
41
1
10
21.3239867144945
20
-0.78166029575732
30
0
41
1
10
21.2771112538708
20
-0.781333166407819
30
0
41
1
10
21.232189234999
20
-0.780822197642635
30
0
41
1
10
21.1872682815168
20
-0.780129008588972
30
0
41
1
10
21.1247709931322
20
-0.778865854309913
30
0
41
1
10
21.0290736359043
20
-0.776237389568365
30
0
41
1
10
20.9353196020754
20
-0.772710739486627
30
0
41
1
10
20.841566882661
20
-0.768365479973966
30
0
41
1
10
20.7634450825238
20
-0.764175207176521
30
0
41
1
10
20.6462631040409
20
-0.756842348544666
30
0
41
1
10
20.5525074255747
20
-0.749966464460556
30
0
41
1
10
20.4743761952029
20
-0.743608235188049
30
0
41
1
10
20.4353145089012
20
-0.740260108197504
30
0
41
1
10
20.372816363951
20
-0.734625734713546
30
0
41
1
10
20.3103161212788
20
-0.728623142128072
30
0
41
1
10
20.2478145499345
20
-0.722259152724263
30
0
41
1
10
20.1989864964059
20
-0.717063027968265
30
0
41
1
10
20.1521110866467
20
-0.711875956555161
30
0
41
1
10
20.1071891183151
20
-0.706726416294941
30
0
41
1
10
20.0622682171831
20
-0.701409679004826
30
0
41
1
10
19.9997710047095
20
-0.693738141000182
30
0
41
1
10
19.9040737650514
20
-0.681364829042877
30
0
41
1
10
19.8103198329751
20
-0.668442564728508
30
0
41
1
10
19.7165671862841
20
-0.654810795116646
30
0
41
1
10
19.638445423737
20
-0.64294142631104
30
0
41
1
10
19.5212634540256
20
-0.624245355640909
30
0
41
1
10
19.4275077300997
20
-0.608485522169872
30
0
41
1
10
19.3493764300438
20
-0.594852920911677
30
0
41
1
10
19.3103147019979
20
-0.587884248859979
30
0
41
1
10
19.2478164780428
20
-0.576509346951866
30
0
41
1
10
19.1853161440553
20
-0.564851898644207
30
0
41
1
10
19.1228144815855
20
-0.55292220856461
30
0
41
1
10
19.0739863604315
20
-0.543422375041132
30
0
41
1
10
19.0271108919337
20
-0.534152955343984
30
0
41
1
10
18.9821888756418
20
-0.525135740177831
30
0
41
1
10
18.9372679354529
20
-0.51599051726393
30
0
41
1
10
18.8747706821522
20
-0.503056930838909
30
0
41
1
10
18.7790734116512
20
-0.482786975462346
30
0
41
1
10
18.6853194971349
20
-0.462401552590677
30
0
41
1
10
18.5915669036936
20
-0.441528289793496
30
0
41
1
10
18.5134452080531
20
-0.42376537942036
30
0
41
1
10
18.3962633688949
20
-0.396527599783184
30
0
41
1
10
18.3025077650092
20
-0.37427112209437
30
0
41
1
10
18.2243765555819
20
-0.35543409846926
30
0
41
1
10
18.1853148714528
20
-0.34590389130625
30
0
41
1
10
18.1228167147156
20
-0.330518792237342
30
0
41
1
10
18.0603164412665
20
-0.314982123354923
30
0
41
1
10
17.997814827005
20
-0.299305709576942
30
0
41
1
10
17.9489867343562
20
-0.286951493923965
30
0
41
1
10
17.9021112833058
20
-0.275014647948694
30
0
41
1
10
17.8571892738783
20
-0.26350673998536
30
0
41
1
10
17.8122683315206
20
-0.25192996513897
30
0
41
1
10
17.7497710630267
20
-0.235710451095883
30
0
41
1
10
17.6540737458057
20
-0.210641765226256
30
0
41
1
10
17.5603197647891
20
-0.185909191054549
30
0
41
1
10
17.4665671075505
20
-0.160984114621698
30
0
41
1
10
17.3884453647386
20
-0.140041208441943
30
0
41
1
10
17.2712634674541
20
-0.10842114242601
30
0
41
1
10
17.1775078315033
20
-0.0830651946101284
30
0
41
1
10
17.0993766048664
20
-0.0618980698839664
30
0
41
1
10
17.0734280365648
20
-0.054831458246241
30
0
41
1
10
17.0552918972308
20
-0.0498877076969677
30
0
41
1
10
17.0527803572928
20
-0.0492030095104781
30
0
0
SPLINE
5
C3
100
AcDbEntity
8
1
62
256
6
ByLayer
370
18
48
1
60
0
100
AcDbSpline
70
4
71
3
72
8
73
4
40
0
40
0
40
0
40
0
40
1
40
1
40
1
40
1
41
1
10
25.4932364071768
20
-1.56674354214766
30
0
41
1
10
25.582247433276
20
-1.31663103690221
30
0
41
1
10
25.6733071228993
20
-1.05618920567878
30
0
41
1
10
25.757534850851
20
-0.780704260117744
30
0
0
SPLINE
5
C4
100
AcDbEntity
8
1
62
256
6
ByLayer
370
18
48
1
60
0
100
AcDbSpline
70
4
71
3
72
20
73
16
40
0
40
0
40
0
40
0
40
0.0975955927194164
40
0.0975955927194164
40
0.24799632726618
40
0.24799632726618
40
0.398397061812944
40
0.398397061812944
40
0.548797796359708
40
0.548797796359708
40
0.699198530906472
40
0.699198530906472
40
0.849599265453236
40
0.849599265453236
40
1
40
1
40
1
40
1
41
1
10
4.8583891771454
20
1.40271877908842
30
0
41
1
10
4.91791269862961
20
1.39264719773325
30
0
41
1
10
4.97940042132922
20
1.38428417888446
30
0
41
1
10
5.13858035005592
20
1.36642128387544
30
0
41
1
10
5.23648481001879
20
1.35906552935435
30
0
41
1
10
5.43229493490924
20
1.35027254661071
30
0
41
1
10
5.53058962461296
20
1.34883169824641
30
0
41
1
10
5.72787295012938
20
1.35140890472533
30
0
41
1
10
5.82728688062053
20
1.35548905272742
30
0
41
1
10
6.02288600779235
20
1.3684736730871
30
0
41
1
10
6.11945731233476
20
1.37737128648431
30
0
41
1
10
6.31012987682143
20
1.39897487561828
30
0
41
1
10
6.40422795187845
20
1.411691834941
30
0
41
1
10
6.58985650630825
20
1.4394500930365
30
0
41
1
10
6.68049032661219
20
1.45435962606004
30
0
41
1
10
6.76776070035919
20
1.46891551220614
30
0
0
SPLINE
5
C5
100
AcDbEntity
8
1
62
256
6
ByLayer
370
18
48
1
60
0
100
AcDbSpline
70
4
71
3
72
8
73
4
40
0
40
0
40
0
40
0
40
1
40
1
40
1
40
1
41
1
10
25.9222366080529
20
-0.306411854781942
30
0
41
1
10
25.9059348588067
20
-0.358291906078961
30
0
41
1
10
25.8896655617112
20
-0.410181996498039
30
0
41
1
10
25.873428754481
20
-0.462082137706318
30
0
0
SPLINE
5
C6
100
AcDbEntity
8
1
62
256
6
ByLayer
370
13
48
1
60
0
100
AcDbSpline
70
4
71
3
72
18
73
14
40
0
40
0
40
0
40
0
40
0.25
40
0.25
40
0.5
40
0.5
40
0.625
40
0.625
40
0.75
40
0.75
40
0.875
40
0.875
40
1
40
1
40
1
40
1
41
1
10
7.56103808757794
20
-1.34507631618419
30
0
41
1
10
7.56112725964567
20
-1.27733510745327
30
0
41
1
10
7.56121351764176
20
-1.18842679446269
30
0
41
1
10
7.56141035486408
20
-0.974687577297459
30
0
41
1
10
7.56151793226073
20
-0.853563982053061
30
0
41
1
10
7.56170085624316
20
-0.651091632879258
30
0
41
1
10
7.56176484100712
20
-0.580526785054161
30
0
41
1
10
7.56189406198661
20
-0.436992247281694
30
0
41
1
10
7.56195976499555
20
-0.363511414484464
30
0
41
1
10
7.56209026001869
20
-0.213076752284508
30
0
41
1
10
7.56215522958629
20
-0.13582972887275
30
0
41
1
10
7.5622752291128
20
0.0169631927787179
30
0
41
1
10
7.56233083830759
20
0.0931388567874762
30
0
41
1
10
7.56237924367312
20
0.169093819547527
30
0
0
SPLINE
5
C7
100
AcDbEntity
8
1
62
256
6
ByLayer
370
18
48
1
60
0
100
AcDbSpline
70
4
71
3
72
8
73
4
40
0
40
0
40
0
40
0
40
1
40
1
40
1
40
1
41
1
10
25.9996104995826
20
-0.0702738154718645
30
0
41
1
10
25.9729359711209
20
-0.148333209372311
30
0
41
1
10
25.9471753795229
20
-0.227044621020212
30
0
41
1
10
25.9222366080529
20
-0.306411854781885
30
0
0
SPLINE
5
C8
100
AcDbEntity
8
1
62
256
6
ByLayer
370
18
48
1
60
0
100
AcDbSpline
70
4
71
3
72
8
73
4
40
0
40
0
40
0
40
0
40
1
40
1
40
1
40
1
41
1
10
25.9222366080529
20
0.306411854781914
30
0
41
1
10
25.9059348797791
20
0.358291839334612
30
0
41
1
10
25.8896655826082
20
0.410181929701821
30
0
41
1
10
25.873428754481
20
0.462082137706318
30
0
0
SPLINE
5
C9
100
AcDbEntity
8
1
62
256
6
ByLayer
370
13
48
1
60
0
100
AcDbSpline
70
4
71
3
72
88
73
84
40
0
40
0
40
0
40
0
40
0.0230981888588173
40
0.0272171883512841
40
0.035455187336216
40
0.04369318632115
40
0.0601691842910156
40
0.0684071832759462
40
0.0766451822608782
40
0.085912931118928
40
0.0931211802307472
40
0.100329429342562
40
0.109597178200611
40
0.126073176170476
40
0.150787173125275
40
0.15902517211021
40
0.175501170080071
40
0.191977168049943
40
0.220810164497208
40
0.224929163989673
40
0.233167162974603
40
0.241405161959538
40
0.257881159929405
40
0.266119158914336
40
0.274357157899269
40
0.283624906757319
40
0.290833155869137
40
0.29804140498095
40
0.307309153838998
40
0.323785151808867
40
0.348499148763666
40
0.3567371477486
40
0.373213145718465
40
0.389689143688331
40
0.418522140135594
40
0.422641139628063
40
0.430879138612995
40
0.439117137597928
40
0.455593135567794
40
0.463831134552726
40
0.472069133537663
40
0.481336882395708
40
0.488545131507526
40
0.495753380619342
40
0.50502112947739
40
0.521497127447256
40
0.546211124402054
40
0.554449123386989
40
0.570925121356853
40
0.58740111932672
40
0.616234115773983
40
0.620353115266452
40
0.628591114251383
40
0.636829113236317
40
0.653305111206184
40
0.661543110191115
40
0.669781109176049
40
0.679048858034098
40
0.686257107145915
40
0.693465356257728
40
0.70273310511578
40
0.719209103085647
40
0.743923100040444
40
0.752161099025378
40
0.768637096995242
40
0.785113094965109
40
0.813946091412373
40
0.818065090904841
40
0.826303089889772
40
0.834541088874706
40
0.851017086844573
40
0.859255085829505
40
0.867493084814438
40
0.876760833672486
40
0.883969082784304
40
0.89117733189612
40
0.900445080754168
40
0.916921078724035
40
0.941635075678832
40
0.949873074663767
40
0.966349072633633
40
0.982825070603497
40
1
40
1
40
1
40
1
41
1.00000000000003
10
21.2281774497076
20
0.0556370286611793
30
0
41
1.00000000000003
10
21.1843679077426
20
0.0675755980793705
30
0
41
1.00000000000003
10
21.132748413539
20
0.0816454562246895
30
0
41
1.00000000000003
10
21.0655059867576
20
0.0999392857552237
30
0
41
1.00000000000003
10
21.0264426714692
20
0.110503911469632
30
0
41
1.00000000000003
10
20.9639408129817
20
0.127352855115642
30
0
41
1.00000000000003
10
20.9014410561484
20
0.144159043981712
30
0
41
1.00000000000003
10
20.8389426304193
20
0.160911335281351
30
0
41
1.00000000000003
10
20.7901144338926
20
0.173930152687058
30
0
41
1.00000000000003
10
20.7432398445151
20
0.186383091327821
30
0
41
1.00000000000003
10
20.6983180631913
20
0.198272247805585
30
0
41
1.00000000000003
10
20.6533952127199
20
0.210107821362464
30
0
41
1.00000000000003
10
20.5908924202547
20
0.226475563096579
30
0
41
1.00000000000003
10
20.4951833992441
20
0.251314865856209
30
0
41
1.00000000000003
10
20.4014373384335
20
0.275430226280057
30
0
41
1.00000000000003
10
20.3076899899131
20
0.299247496435689
30
0
41
1.00000000000003
10
20.2295617465824
20
0.318831007845878
30
0
41
1.00000000000003
10
20.1123687062649
20
0.347753007675881
30
0
41
1.00000000000003
10
20.0186244405483
20
0.370513181461508
30
0
41
1.00000000000003
10
19.9405057517701
20
0.389177594790442
30
0
41
1.00000000000003
10
19.9014424782558
20
0.39839263239337
30
0
41
1.00000000000003
10
19.8389406988235
20
0.412979921723365
30
0
41
1.00000000000003
10
19.7764410333585
20
0.427376608439248
30
0
41
1.00000000000003
10
19.7139426988084
20
0.441571938407877
30
0
41
1.00000000000003
10
19.6651145699476
20
0.452513624876148
30
0
41
1.00000000000003
10
19.6182400393463
20
0.462894486235755
30
0
41
1.00000000000003
10
19.573318306017
20
0.472726926424784
30
0
41
1.00000000000003
10
19.5283954946365
20
0.482443331916372
30
0
41
1.00000000000003
10
19.4658927430449
20
0.495764865162514
30
0
41
1.00000000000003
10
19.370183752941
20
0.515709891352017
30
0
41
1.00000000000003
10
19.2764376746047
20
0.534684725891011
30
0
41
1.00000000000003
10
19.1826902728269
20
0.55308089425496
30
0
41
1.00000000000003
10
19.1045619625525
20
0.567972398735646
30
0
41
1.00000000000003
10
18.98736879159
20
0.589523695343428
30
0
41
1.00000000000003
10
18.893624405749
20
0.606029172965049
30
0
41
1.00000000000003
10
18.8155056262972
20
0.619269198649573
30
0
41
1.00000000000003
10
18.7764423088477
20
0.625733659183918
30
0
41
1.00000000000003
10
18.7139404621728
20
0.635839926219755
30
0
41
1.00000000000003
10
18.6514407361509
20
0.645634479475216
30
0
41
1.00000000000003
10
18.5889423533782
20
0.65510898720161
30
0
41
1.00000000000003
10
18.5401141960045
20
0.662304742456579
30
0
41
1.00000000000003
10
18.4932396479508
20
0.669029437048446
30
0
41
1.00000000000003
10
18.4483179077541
20
0.675304111301509
30
0
41
1.00000000000003
10
18.4033950985388
20
0.681417507414105
30
0
41
1.00000000000003
10
18.340892362134
20
0.689657728588608
30
0
41
1.00000000000003
10
18.2451834187402
20
0.701660163874786
30
0
41
1.00000000000003
10
18.1514374069024
20
0.712593333456746
30
0
41
1.00000000000003
10
18.0576900689359
20
0.722755911755464
30
0
41
1.00000000000003
10
17.9795618058564
20
0.730679036527655
30
0
41
1.00000000000003
10
17.8623686930617
20
0.741565919263714
30
0
41
1.00000000000003
10
17.7686243393066
20
0.749295044941199
30
0
41
1.00000000000003
10
17.6905055770534
20
0.755088462210502
30
0
41
1.00000000000003
10
17.6514422672833
20
0.757815070915434
30
0
41
1.00000000000003
10
17.5889404327817
20
0.761896868310408
30
0
41
1.00000000000003
10
17.5264407195291
20
0.765593197658667
30
0
41
1.00000000000003
10
17.4639423509784
20
0.768898827652641
30
0
41
1.00000000000003
10
17.4151142046886
20
0.771248239563966
30
0
41
1.00000000000003
10
17.368239667845
20
0.773287587765345
30
0
41
1.00000000000003
10
17.3233179391415
20
0.775043281234708
30
0
41
1.00000000000003
10
17.2783951436122
20
0.776616221420517
30
0
41
1.00000000000003
10
17.215892431543
20
0.778510288392602
30
0
41
1.00000000000003
10
17.120183536868
20
0.780725574381967
30
0
41
1.00000000000003
10
17.0264375889072
20
0.781935771474912
30
0
41
1.00000000000003
10
16.9326903256352
20
0.782303738122414
30
0
41
1.00000000000003
10
16.8545621311398
20
0.782043165701515
30
0
41
1.00000000000003
10
16.7373691176251
20
0.780599667682572
30
0
41
1.00000000000003
10
16.6436248216105
20
0.778374738692043
30
0
41
1.00000000000003
10
16.565506075648
20
0.775842447598854
30
0
41
1.00000000000003
10
16.5264427665973
20
0.774418257887965
30
0
41
1.00000000000003
10
16.4639409179352
20
0.771859262974295
30
0
41
1.00000000000003
10
16.4014411706011
20
0.76890240440003
30
0
41
1.00000000000003
10
16.3389427538287
20
0.765546759059709
30
0
41
1.00000000000003
10
16.2901145639506
20
0.762702343736784
30
0
41
1.00000000000003
10
16.2432399805611
20
0.759757515472763
30
0
41
1.00000000000003
10
16.1983182045815
20
0.756739883259634
30
0
41
1.00000000000003
10
16.1533953590566
20
0.753547484573978
30
0
41
1.00000000000003
10
16.090892572753
20
0.748829226715891
30
0
41
1.00000000000003
10
15.9951835593175
20
0.740956415224908
30
0
41
1.00000000000003
10
15.9014375025834
20
0.732292524937357
30
0
41
1.00000000000003
10
15.8076901549873
20
0.722833696786588
30
0
41
1.00000000000003
10
15.729561910264
20
0.714441626076316
30
0
41
1.00000000000003
10
15.6344817483075
20
0.703449837233657
30
0
41
1.00000000000003
10
15.570658204046
20
0.695560675961539
30
0
41
1.00000000000003
10
15.5380843622645
20
0.691401357827155
30
0
0
SPLINE
5
CA
100
AcDbEntity
8
1
62
256
6
ByLayer
370
18
48
1
60
0
100
AcDbSpline
70
4
71
3
72
12
73
8
40
0
40
0
40
0
40
0
40
0.25
40
0.25
40
0.500000000000001
40
0.500000000000001
40
1
40
1
40
1
40
1
41
1
10
7.22878087565076
20
-1.33813863708548
30
0
41
1
10
7.22879969318458
20
-1.35413898014403
30
0
41
1
10
7.24255071288755
20
-1.36810211915241
30
0
41
1
10
7.27674881806766
20
-1.39178024976783
30
0
41
1
10
7.29807634632832
20
-1.40180509861199
30
0
41
1
10
7.36603584104574
20
-1.42804998062152
30
0
41
1
10
7.41803070279786
20
-1.44115065899067
30
0
41
1
10
7.47259149958069
20
-1.45172057209018
30
0
0
SPLINE
5
CB
100
AcDbEntity
8
1
62
256
6
ByLayer
370
13
48
1
60
0
100
AcDbSpline
70
4
71
3
72
24
73
20
40
0
40
0
40
0
40
0
40
0.131194595702336
40
0.150318318856994
40
0.188565765166281
40
0.226813211475592
40
0.303308104094196
40
0.341555550403482
40
0.379802996712778
40
0.422831373810746
40
0.456297889331397
40
0.489764404852042
40
0.532792781949991
40
0.60928767456858
40
0.724030013496486
40
0.762277459805801
40
0.838772352424383
40
0.915267245042996
40
1
40
1
40
1
40
1
41
1.00000000000003
10
25.7575348507933
20
0.780704260116813
30
0
41
1.00000000000003
10
25.7039384358245
20
0.779806057776489
30
0
41
1.00000000000003
10
25.642533550827
20
0.77833936414462
30
0
41
1.00000000000003
10
25.565506075648
20
0.775842447598854
30
0
41
1.00000000000003
10
25.5264427665973
20
0.774418257887965
30
0
41
1.00000000000003
10
25.4639409179352
20
0.771859262974267
30
0
41
1.00000000000003
10
25.4014411706011
20
0.76890240440003
30
0
41
1.00000000000003
10
25.3389427538288
20
0.765546759059738
30
0
41
1.00000000000003
10
25.2901145639506
20
0.762702343736784
30
0
41
1.00000000000003
10
25.2432399805611
20
0.759757515472763
30
0
41
1.00000000000003
10
25.1983182045815
20
0.756739883259634
30
0
41
1.00000000000003
10
25.1533953590566
20
0.753547484573978
30
0
41
1.00000000000003
10
25.090892572753
20
0.748829226715863
30
0
41
1.00000000000003
10
24.9951835593175
20
0.740956415224908
30
0
41
1.00000000000003
10
24.9014375025834
20
0.732292524937357
30
0
41
1.00000000000003
10
24.8076901549872
20
0.722833696786588
30
0
41
1.00000000000003
10
24.729561910264
20
0.714441626076345
30
0
41
1.00000000000003
10
24.6324419494063
20
0.703214025279388
30
0
41
1.00000000000003
10
24.5665789399293
20
0.695055920689706
30
0
41
1.00000000000003
10
24.531965605665
20
0.690618497393908
30
0
0
SPLINE
5
CC
100
AcDbEntity
8
1
62
256
6
ByLayer
370
13
48
1
60
0
100
AcDbSpline
70
4
71
3
72
64
73
60
40
0
40
0
40
0
40
0
40
0.0250519169346384
40
0.0311074950903254
40
0.0432186514016965
40
0.0553298077130655
40
0.0795521203358091
40
0.0916632766471802
40
0.10377443295855
40
0.117399483808842
40
0.127996745581293
40
0.138594007353741
40
0.152219058204034
40
0.176441370826775
40
0.212774839760888
40
0.22488599607226
40
0.249108308695002
40
0.273330621317743
40
0.315719668407542
40
0.321775246563228
40
0.333886402874598
40
0.34599755918597
40
0.370219871808712
40
0.382331028120082
40
0.394442184431453
40
0.408067235281745
40
0.418664497054195
40
0.429261758826645
40
0.442886809676937
40
0.467109122299678
40
0.503442591233791
40
0.515553747545163
40
0.539776060167905
40
0.563998372790646
40
0.606387419880444
40
0.61244299803613
40
0.624554154347501
40
0.636665310658872
40
0.660887623281614
40
0.672998779592985
40
0.685109935904355
40
0.698734986754648
40
0.709332248527098
40
0.719929510299547
40
0.733554561149839
40
0.757776873772581
40
0.794110342706694
40
0.806221499018065
40
0.830443811640807
40
0.854666124263548
40
0.897055171353347
40
0.903110749509032
40
0.915221905820404
40
0.927333062131774
40
0.943985902059909
40
0.951555374754516
40
0.959124847449123
40
0.975777687377258
40
1
40
1
40
1
40
1
41
1.00000000000003
10
12.1937084431729
20
0.0650303378539529
30
0
41
1.00000000000003
10
12.1613894205062
20
0.07383750799792
30
0
41
1.00000000000003
10
12.1212593319489
20
0.0847711509702525
30
0
41
1.00000000000003
10
12.0655059867576
20
0.0999392857552522
30
0
41
1.00000000000003
10
12.0264426714692
20
0.110503911469632
30
0
41
1.00000000000003
10
11.9639408129817
20
0.127352855115642
30
0
41
1.00000000000003
10
11.9014410561484
20
0.144159043981741
30
0
41
1.00000000000003
10
11.8389426304193
20
0.160911335281351
30
0
41
1.00000000000003
10
11.7901144338925
20
0.173930152687058
30
0
41
1.00000000000003
10
11.7432398445151
20
0.186383091327821
30
0
41
1.00000000000003
10
11.6983180631913
20
0.198272247805585
30
0
41
1.00000000000003
10
11.6533952127199
20
0.210107821362464
30
0
41
1.00000000000003
10
11.5908924202547
20
0.226475563096607
30
0
41
1.00000000000003
10
11.4951833992441
20
0.25131486585618
30
0
41
1.00000000000003
10
11.4014373384335
20
0.275430226280057
30
0
41
1.00000000000003
10
11.307689989913
20
0.299247496435689
30
0
41
1.00000000000003
10
11.2295617465824
20
0.318831007845878
30
0
41
1.00000000000003
10
11.1123687062649
20
0.34775300767591
30
0
41
1.00000000000003
10
11.0186244405483
20
0.370513181461508
30
0
41
1.00000000000003
10
10.9405057517701
20
0.389177594790442
30
0
41
1.00000000000003
10
10.9014424782558
20
0.39839263239337
30
0
41
1.00000000000003
10
10.8389406988234
20
0.412979921723365
30
0
41
1.00000000000003
10
10.7764410333585
20
0.427376608439248
30
0
41
1.00000000000003
10
10.7139426988083
20
0.441571938407849
30
0
41
1.00000000000003
10
10.6651145699476
20
0.452513624876148
30
0
41
1.00000000000003
10
10.6182400393463
20
0.462894486235755
30
0
41
1.00000000000003
10
10.573318306017
20
0.472726926424784
30
0
41
1.00000000000003
10
10.5283954946365
20
0.482443331916372
30
0
41
1.00000000000003
10
10.4658927430448
20
0.495764865162514
30
0
41
1.00000000000003
10
10.370183752941
20
0.515709891352017
30
0
41
1.00000000000003
10
10.2764376746047
20
0.534684725891011
30
0
41
1.00000000000003
10
10.1826902728269
20
0.55308089425496
30
0
41
1.00000000000003
10
10.1045619625525
20
0.567972398735618
30
0
41
1.00000000000003
10
9.98736879159
20
0.589523695343428
30
0
41
1.00000000000003
10
9.89362440574897
20
0.606029172965049
30
0
41
1.00000000000003
10
9.81550562631037
20
0.619269198641842
30
0
41
1.00000000000003
10
9.776442308742
20
0.625733659245878
30
0
41
1.00000000000003
10
9.71394046156252
20
0.635839909087945
30
0
41
1.00000000000003
10
9.65144073478877
20
0.645634392819925
30
0
41
1.00000000000003
10
9.58894235140228
20
0.655108726010421
30
0
41
1.00000000000003
10
9.54011419372911
20
0.662304276504851
30
0
41
1.00000000000003
10
9.49323964567965
20
0.669028690742844
30
0
41
1.00000000000003
10
9.4483179058566
20
0.675303006537585
30
0
41
1.00000000000003
10
9.40339509742585
20
0.681415955972037
30
0
41
1.00000000000003
10
9.34089236291637
20
0.689655400065371
30
0
41
1.00000000000003
10
9.24518342473157
20
0.701656225864676
30
0
41
1.00000000000003
10
9.15143742270598
20
0.712587029502125
30
0
41
1.00000000000003
10
9.05769009936284
20
0.722746452620194
30
0
41
1.00000000000003
10
8.97956185427697
20
0.730666420882706
30
0
41
1.00000000000003
10
8.86236877610833
20
0.741548365053895
30
0
41
1.00000000000003
10
8.76862445054199
20
0.749274252635054
30
0
41
1.00000000000003
10
8.69050570438209
20
0.755066396826301
30
0
41
1.00000000000003
10
8.65144239867608
20
0.757792663854054
30
0
41
1.00000000000003
10
8.59870761740295
20
0.761248861900959
30
0
41
1.00000000000003
10
8.55183352419318
20
0.764092247646296
30
0
41
1.00000000000003
10
8.5108186907613
20
0.766405485671761
30
0
41
1.00000000000003
10
8.4698016415196
20
0.768584885523956
30
0
41
1.00000000000003
10
8.40729888918718
20
0.771621054685375
30
0
41
1.00000000000003
10
8.35456732922338
20
0.773841388175732
30
0
41
1.00000000000003
10
8.32331915974955
20
0.775023829919213
30
0
0
SPLINE
5
CD
100
AcDbEntity
8
1
62
256
6
ByLayer
370
18
48
1
60
0
100
AcDbSpline
70
4
71
3
72
8
73
4
40
0
40
0
40
0
40
0
40
1
40
1
40
1
40
1
41
1
10
25.9996104995799
20
0.0702738154795384
30
0
41
1
10
26.0001298334733
20
0.0234246051645925
30
0
41
1
10
26.0001298334733
20
-0.0234246051503533
30
0
41
1
10
25.9996104995801
20
-0.0702738154652991
30
0
0
SPLINE
5
CE
100
AcDbEntity
8
1
62
256
6
ByLayer
370
18
48
1
60
0
100
AcDbSpline
70
4
71
3
72
14
73
10
40
0
40
0
40
0
40
0
40
0.25
40
0.25
40
0.5
40
0.5
40
0.75
40
0.75
40
1
40
1
40
1
40
1
41
1
10
25.7357437948079
20
-0.368598235231559
30
0
41
1
10
25.7537821845177
20
-0.364947789645527
30
0
41
1
10
25.7735370070947
20
-0.351223854932613
30
0
41
1
10
25.8171569499344
20
-0.30394014314362
30
0
41
1
10
25.8398558650391
20
-0.271639662838737
30
0
41
1
10
25.8870360781855
20
-0.191377071697644
30
0
41
1
10
25.9104850499427
20
-0.145149673436208
30
0
41
1
10
25.9567608672391
20
-0.0423509585214106
30
0
41
1
10
25.978868948332
20
0.0126794748895804
30
0
41
1
10
25.9996104995799
20
0.0702738154795384
30
0
0
SPLINE
5
CF
100
AcDbEntity
8
1
62
256
6
ByLayer
370
18
48
1
60
0
100
AcDbSpline
70
4
71
4
72
10
73
5
40
0
40
0
40
0
40
0
40
0
40
1
40
1
40
1
40
1
40
1
41
1
10
8.55438148038209
20
1.51714091508768
30
0
41
1
10
8.49661590022396
20
1.33161164379555
30
0
41
1
10
8.43885032006582
20
1.14608237250343
30
0
41
1
10
8.38108473990769
20
0.960553101211303
30
0
41
1
10
8.32331915974953
20
0.775023829919178
30
0
0
SPLINE
5
D0
100
AcDbEntity
8
1
62
256
6
ByLayer
370
18
48
1
60
0
100
AcDbSpline
70
4
71
3
72
8
73
4
40
0
40
0
40
0
40
0
40
1
40
1
40
1
40
1
41
1
10
25.7985543273738
20
0.433381016386477
30
0
41
1
10
25.8238662313746
20
0.441801910870282
30
0
41
1
10
25.8488842581559
20
0.451174932878729
30
0
41
1
10
25.8734287544812
20
0.462082137705664
30
0
0
SPLINE
5
D1
100
AcDbEntity
8
1
62
256
6
ByLayer
370
18
48
1
60
0
100
AcDbSpline
70
4
71
3
72
8
73
4
40
0
40
0
40
0
40
0
40
1
40
1
40
1
40
1
41
1
10
25.9996104995799
20
0.0702738154795099
30
0
41
1
10
25.9730247054797
20
0.148073540292359
30
0
41
1
10
25.9472610099928
20
0.226772103445228
30
0
41
1
10
25.9222366080529
20
0.306411854781885
30
0
0
SPLINE
5
D2
100
AcDbEntity
8
1
62
256
6
ByLayer
370
18
48
1
60
0
100
AcDbSpline
70
4
71
3
72
8
73
4
40
0
40
0
40
0
40
0
40
1
40
1
40
1
40
1
41
1
10
7.56237924367335
20
0.169093819548237
30
0
41
1
10
7.54767341245511
20
0.176710172703935
30
0
41
1
10
7.53295362282068
20
0.184336317519069
30
0
41
1
10
7.51823800438763
20
0.191979270942312
30
0
0
LINE
5
76
100
AcDbEntity
8
81
62
256
6
ByLayer
370
18
48
1
60
0
100
AcDbLine
10
26
20
0
30
0
11
31
21
0
31
0
39
0
210
0
220
0
230
1
0
LINE
5
77
100
AcDbEntity
8
1
62
256
6
ByLayer
370
18
48
1
60
0
100
AcDbLine
10
4.502298
20
1.547266
30
0
11
1.684189
21
1.542194
31
0
39
0
210
0
220
0
230
1
0
LINE
5
79
100
AcDbEntity
8
1
62
256
6
ByLayer
370
18
48
1
60
0
100
AcDbLine
10
8.510632
20
1.554481
30
0
11
7.82265
21
1.553243
31
0
39
0
210
0
220
0
230
1
0
LINE
5
7A
100
AcDbEntity
8
1
62
256
6
ByLayer
370
18
48
1
60
0
100
AcDbLine
10
17.509323
20
1.570679
30
0
11
16.925899
21
1.569629
31
0
39
0
210
0
220
0
230
1
0
LINE
5
7B
100
AcDbEntity
8
1
62
256
6
ByLayer
370
18
48
1
60
0
100
AcDbLine
10
16.925899
20
-1.569629
30
0
11
17.509323
21
-1.570679
31
0
39
0
210
0
220
0
230
1
0
LINE
5
7C
100
AcDbEntity
8
1
62
256
6
ByLayer
370
18
48
1
60
0
100
AcDbLine
10
1.684189
20
-1.542194
30
0
11
4.502298
21
-1.547266
31
0
39
0
210
0
220
0
230
1
0
LINE
5
7D
100
AcDbEntity
8
SK1
62
256
6
ByLayer
370
18
48
1
60
0
100
AcDbLine
10
0
20
3
30
0
11
-34.989637
21
3
31
0
39
0
210
0
220
0
230
1
0
LINE
5
7F
100
AcDbEntity
8
SK1
62
256
6
ByLayer
370
18
48
1
60
0
100
AcDbLine
10
-34.989637
20
-3
30
0
11
0
21
-3
31
0
39
0
210
0
220
0
230
1
0
LINE
5
80
100
AcDbEntity
8
SK1
62
256
6
ByLayer
370
18
48
1
60
0
100
AcDbLine
10
-34.989637
20
3
30
0
11
-36
21
1.25
31
0
39
0
210
0
220
0
230
1
0
LINE
5
81
100
AcDbEntity
8
SK1
62
256
6
ByLayer
370
18
48
1
60
0
100
AcDbLine
10
-36
20
-1.25
30
0
11
-34.989637
21
-3
31
0
39
0
210
0
220
0
230
1
0
LINE
5
82
100
AcDbEntity
8
1
62
256
6
ByLayer
370
18
48
1
60
0
100
AcDbLine
10
7.82265
20
-1.553243
30
0
11
8.510632
21
-1.554481
31
0
39
0
210
0
220
0
230
1
0
LINE
5
83
100
AcDbEntity
8
SK4
62
256
6
ByLayer
370
18
48
0.05
60
0
100
AcDbLine
10
31
20
0
30
0
11
-41
21
0
31
0
39
0
210
0
220
0
230
1
0
LINE
5
85
100
AcDbEntity
8
4
62
256
6
ByLayer
370
18
48
0.05
60
0
100
AcDbLine
10
26
20
0
30
0
11
0
21
0
31
0
39
0
210
0
220
0
230
1
0
LINE
5
87
100
AcDbEntity
8
80
62
256
6
ByLayer
370
18
48
1
60
0
100
AcDbLine
10
0
20
0
30
0
11
-5
21
0
31
0
39
0
210
0
220
0
230
1
0
LINE
5
88
100
AcDbEntity
8
1
62
256
6
ByLayer
370
18
48
1
60
0
100
AcDbLine
10
25.298323
20
-0.712645
30
0
11
25.71398
21
-0.362612
31
0
39
0
210
0
220
0
230
1
0
LINE
5
89
100
AcDbEntity
8
1
62
256
6
ByLayer
370
18
48
1
60
0
100
AcDbLine
10
0
20
-3
30
0
11
0
21
3
31
0
39
0
210
0
220
0
230
1
0
LINE
5
8A
100
AcDbEntity
8
1
62
256
6
ByLayer
370
13
48
1
60
0
100
AcDbLine
10
1.684189
20
1.542194
30
0
11
1.684189
21
-1.542194
31
0
39
0
210
0
220
0
230
1
0
LINE
5
8B
100
AcDbEntity
8
1
62
256
6
ByLayer
370
13
48
1
60
0
100
AcDbLine
10
0.84133
20
2.271096
30
0
11
0.84133
21
-2.271096
31
0
39
0
210
0
220
0
230
1
0
LINE
5
8C
100
AcDbEntity
8
SK1
62
256
6
ByLayer
370
18
48
1
60
0
100
AcDbLine
10
-34.989637
20
3
30
0
11
-34.989637
21
-3
31
0
39
0
210
0
220
0
230
1
0
LINE
5
8D
100
AcDbEntity
8
SK1
62
256
6
ByLayer
370
18
48
1
60
0
100
AcDbLine
10
0
20
-3
30
0
11
0
21
3
31
0
39
0
210
0
220
0
230
1
0
LINE
5
8E
100
AcDbEntity
8
SK1
62
256
6
ByLayer
370
18
48
1
60
0
100
AcDbLine
10
-36
20
1.25
30
0
11
-36
21
-1.25
31
0
39
0
210
0
220
0
230
1
0
MTEXT
5
D3
100
AcDbEntity
8
SK6
62
256
6
ByLayer
370
13
48
1
60
0
100
AcDbMText
10
-2.870831
20
33.967694
30
0
210
0
220
0
230
1
1
\W0.7246;860.1-0317-016A1-PM 4234
40
3.5
41
0
44
1.084337
50
0
71
8
72
5
7
iso_b_vert
0
DIMENSION
5
E0
100
AcDbEntity
8
2
62
256
6
ByLayer
370
13
48
1
60
0
100
AcDbDimension
2
DimnDraft3D1
10
25.4655
20
-11.798398
30
0
11
11.715559
21
-11.798398
31
0
70
32
71
5
72
1
41
1
210
0
220
0
230
1
3
Standard
100
AcDbAlignedDimension
13
0
23
-1.5875
33
0
14
25.4655
24
-3.1725
34
0
50
0
100
AcDbRotatedDimension
1001
ACAD
1000
DSTYLE
1002
{
1070
   279
1070
     0
1070
   172
1070
     1
1070
   173
1070
     1
1070
   340
1005
D4
1070
   271
1070
     2
1070
   272
1070
     2
1070
    77
1070
     1
1070
    73
1070
     0
1070
   171
1070
     3
1070
   274
1070
     4
1070
   177
1070
    35
1070
   176
1070
    35
1070
   178
1070
    35
1070
    48
1040
-0.005
1070
    41
1041
3.5
1070
   147
1041
1.75
1070
    42
1041
1.5875
1070
    44
1041
2.0
1070
   140
1041
3.5
1070
   343
1005
0
1070
   344
1005
0
1002
}
0
DIMENSION
5
EA
100
AcDbEntity
8
SK2
62
256
6
ByLayer
370
13
48
1
60
0
100
AcDbDimension
2
DimnDraft3D2
10
26
20
-31.692985
30
0
11
-4.1932
21
-31.692985
31
0
70
32
71
5
72
1
41
1
210
0
220
0
230
1
3
Standard
100
AcDbAlignedDimension
13
-36
23
-4.5875
33
0
14
26
24
-1.5875
34
0
50
0
100
AcDbRotatedDimension
1001
ACAD
1000
DSTYLE
1002
{
1070
   279
1070
     0
1070
   172
1070
     1
1070
   173
1070
     1
1070
   340
1005
D4
1070
   271
1070
     2
1070
   272
1070
     2
1070
    77
1070
     1
1070
    73
1070
     0
1070
   171
1070
     3
1070
   274
1070
     4
1070
   177
1070
    35
1070
   176
1070
    35
1070
   178
1070
    35
1070
    48
1040
-0.005
1070
    41
1041
3.5
1070
   147
1041
1.75
1070
    42
1041
1.5875
1070
    44
1041
2.0
1070
   140
1041
3.5
1070
   343
1005
0
1070
   344
1005
0
1002
}
0
DIMENSION
5
F4
100
AcDbEntity
8
SK2
62
256
6
ByLayer
370
13
48
1
60
0
100
AcDbDimension
2
DimnDraft3D3
10
26
20
13.194119
30
0
11
20.98
21
13.194119
31
0
70
32
71
5
72
1
41
1
210
0
220
0
230
1
3
Standard
100
AcDbAlignedDimension
13
15.96
23
3.1725
33
0
14
26
24
1.5875
34
0
50
0
100
AcDbRotatedDimension
1001
ACAD
1000
DSTYLE
1002
{
1070
   279
1070
     0
1070
   172
1070
     1
1070
   173
1070
     1
1070
   340
1005
D4
1070
   271
1070
     2
1070
   272
1070
     2
1070
    77
1070
     1
1070
    73
1070
     0
1070
   171
1070
     3
1070
   274
1070
     4
1070
   177
1070
    35
1070
   176
1070
    35
1070
   178
1070
    35
1070
    48
1040
-0.005
1070
    41
1041
3.5
1070
   147
1041
1.75
1070
    42
1041
1.5875
1070
    44
1041
2.0
1070
   140
1041
3.5
1070
   343
1005
0
1070
   344
1005
0
1002
}
0
DIMENSION
5
FE
100
AcDbEntity
8
SK2
62
256
6
ByLayer
370
13
48
1
60
0
100
AcDbDimension
2
DimnDraft3D4
10
25.4655
20
-14.387503
30
0
11
35.981425
21
-14.387503
31
0
70
32
71
5
72
1
41
1
210
0
220
0
230
1
3
Standard
100
AcDbAlignedDimension
13
26
23
-1.5875
33
0
14
25.4655
24
-3.1725
34
0
50
0
100
AcDbRotatedDimension
1001
ACAD
1000
DSTYLE
1002
{
1070
   279
1070
     0
1070
   172
1070
     1
1070
   173
1070
     1
1070
   340
1005
D4
1070
   271
1070
     2
1070
   272
1070
     2
1070
    77
1070
     1
1070
    73
1070
     0
1070
   171
1070
     3
1070
   274
1070
     4
1070
   177
1070
    35
1070
   176
1070
    35
1070
   178
1070
    35
1070
    48
1040
-0.005
1070
    41
1041
3.5
1070
   147
1041
1.75
1070
    42
1041
1.5875
1070
    44
1041
2.0
1070
   140
1041
3.5
1070
   343
1005
0
1070
   344
1005
0
1002
}
0
DIMENSION
5
108
100
AcDbEntity
8
SK2
62
256
6
ByLayer
370
13
48
1
60
0
100
AcDbDimension
2
DimnDraft3D5
10
25.4655
20
-21.343428
30
0
11
-7.273824
21
-21.343428
31
0
70
32
71
5
72
1
41
1
210
0
220
0
230
1
3
Standard
100
AcDbAlignedDimension
13
-36
23
-4.5875
33
0
14
25.4655
24
-3.1725
34
0
50
0
100
AcDbRotatedDimension
1001
ACAD
1000
DSTYLE
1002
{
1070
   279
1070
     0
1070
   172
1070
     1
1070
   173
1070
     1
1070
   340
1005
D4
1070
   271
1070
     2
1070
   272
1070
     2
1070
    77
1070
     1
1070
    73
1070
     0
1070
   171
1070
     3
1070
   274
1070
     4
1070
   177
1070
    35
1070
   176
1070
    35
1070
   178
1070
    35
1070
    48
1040
-0.005
1070
    41
1041
3.5
1070
   147
1041
1.75
1070
    42
1041
1.5875
1070
    44
1041
2.0
1070
   140
1041
3.5
1070
   343
1005
0
1070
   344
1005
0
1002
}
0
DIMENSION
5
113
100
AcDbEntity
8
SK2
62
256
6
ByLayer
370
13
48
1
60
0
100
AcDbDimension
2
DimnDraft3D6
10
-46.625163
20
3
30
0
11
-47.250163
21
21.47418
31
0
70
33
71
5
72
1
41
1
210
0
220
0
230
1
3
Standard
100
AcDbAlignedDimension
13
-37.5875
23
-3
33
0
14
-37.5875
24
3
34
0
1001
ACAD
1000
DSTYLE
1002
{
1070
   279
1070
     0
1070
    74
1070
     0
1070
   173
1070
     1
1070
   340
1005
D4
1070
   271
1070
     3
1070
   272
1070
     2
1070
    77
1070
     1
1070
    73
1070
     0
1070
   171
1070
     3
1070
   274
1070
     4
1070
   177
1070
    35
1070
   176
1070
    35
1070
   178
1070
    35
1070
    48
1040
-0.005
1070
    41
1041
3.5
1070
   147
1041
1.75
1070
    42
1041
1.5875
1070
    44
1041
2.0
1070
   140
1041
3.5
1070
   343
1005
0
1070
   344
1005
0
1002
}
0
DIMENSION
5
11E
100
AcDbEntity
8
2
62
256
6
ByLayer
370
13
48
1
60
0
100
AcDbDimension
2
DimnDraft3D7
10
40.083343
20
1.585
30
0
11
35.458343
21
18.652266
31
0
70
33
71
5
72
1
41
1
210
0
220
0
230
1
3
Standard
100
AcDbAlignedDimension
13
27.053
23
-1.585
33
0
14
27.053
24
1.585
34
0
1001
ACAD
1000
DSTYLE
1002
{
1070
   279
1070
     0
1070
    74
1070
     0
1070
   173
1070
     1
1070
   340
1005
D4
1070
   271
1070
     3
1070
   272
1070
     2
1070
    77
1070
     1
1070
    73
1070
     0
1070
   171
1070
     3
1070
   274
1070
     4
1070
   177
1070
    35
1070
   176
1070
    35
1070
   178
1070
    35
1070
    48
1040
-0.005
1070
    41
1041
3.5
1070
   147
1041
1.75
1070
    42
1041
1.5875
1070
    44
1041
2.0
1070
   140
1041
3.5
1070
   343
1005
0
1070
   344
1005
0
1002
}
0
ENDSEC
0
SECTION
2
OBJECTS
0
DICTIONARY
5
189
330
0
100
AcDbDictionary
280
0
281
1
3
ACAD_GROUP
350
18a
3
ACAD_MLINESTYLE
350
18b
0
DICTIONARY
5
18a
330
0
100
AcDbDictionary
280
0
281
1
0
DICTIONARY
5
18b
330
0
100
AcDbDictionary
280
0
281
1
3
Standard
350
18
0
MLINESTYLE
5
18
330
18b
100
AcDbMlineStyle
2
Standard
70
0
3

62
256
51
90
52
90
71
2
49
-0.5
62
256
6
ByLayer
49
0.5
62
256
6
ByLayer
0
RASTERVARIABLES
5
177
330

100
AcDbRasterVariables
90
0
70
1
71
1
72
1
0
ENDSEC
0
EOF
