0
SECTION
2
HEADER
9
$ACADVER
1
AC1015
9
$DWGCODEPAGE
3
ANSI_1252
9
$HANDSEED
5
17e
9
$ANGBASE
50
0
9
$ANGDIR
70
0
9
$ATTMODE
70
1
9
$AUNITS
70
0
9
$AUPREC
70
0
9
$CECOLOR
62
256
9
$CELTSCALE
40
1
9
$CELTYPE
6
ByLayer
9
$CELWEIGHT
370
-1
9
$CLAYER
8
0
9
$CMLJUST
70
0
9
$CMLSCALE
40
1
9
$CMLSTYLE
2
Standard
9
$DIMSTYLE
2
Standard
9
$TEXTSIZE
40
0.2
9
$TEXTSTYLE
7
Standard
9
$LUNITS
70
2
9
$LUPREC
70
4
9
$EXTNAMES
290
1
9
$INSUNITS
70
4
9
$LTSCALE
40
1
9
$LWDISPLAY
290
0
9
$PDMODE
70
0
9
$PDSIZE
40
0
9
$PLINEGEN
70
0
0
ENDSEC
0
SECTION
2
CLASSES
0
CLASS
1
RASTERVARIABLES
2
AcDbRasterVariables
3
ISM
90
0
280
0
281
0
0
ENDSEC
0
SECTION
2
TABLES
0
TABLE
2
VPORT
5
174
100
AcDbSymbolTable
0
VPORT
5
1
100
AcDbSymbolTableRecord
100
AcDbViewportTableRecord
2
*Active
70
0
10
0
20
0
11
1
21
1
12
-1
22
1
13
0
23
0
14
0.5
24
0.5
15
10
25
10
16
0
26
0
36
1
17
0
27
0
37
0
0
ENDTAB
0
TABLE
2
LTYPE
5
175
100
AcDbSymbolTable
0
LTYPE
5
14
100
AcDbSymbolTableRecord
100
AcDbLinetypeTableRecord
70
0
2
ByBlock
3

72
65
73
0
40
0
0
LTYPE
5
15
100
AcDbSymbolTableRecord
100
AcDbLinetypeTableRecord
70
0
2
ByLayer
3

72
65
73
0
40
0
0
LTYPE
5
16
100
AcDbSymbolTableRecord
100
AcDbLinetypeTableRecord
70
0
2
CONTINUOUS
3
Solid line
72
65
73
0
40
0
0
LTYPE
5
3B
100
AcDbSymbolTableRecord
100
AcDbLinetypeTableRecord
70
0
2
DASHED
3
__ __ __ __ __ __ __ __ __
72
65
73
2
40
25.72
49
12.86
74
0
49
-12.86
74
0
0
LTYPE
5
3C
100
AcDbSymbolTableRecord
100
AcDbLinetypeTableRecord
70
0
2
HIDDEN
3
_ _ _ _ _ _ _ _ _ _ _ _ _ _ _
72
65
73
2
40
0.5
49
0.25
74
0
49
-0.25
74
0
0
LTYPE
5
3D
100
AcDbSymbolTableRecord
100
AcDbLinetypeTableRecord
70
0
2
PHANTOM
3
____ _ _ ____ _ _ _____ _ _ ____
72
65
73
6
40
50.5
49
18
74
0
49
-6.5
74
0
49
6.5
74
0
49
-6.5
74
0
49
6.5
74
0
49
-6.5
74
0
0
LTYPE
5
3E
100
AcDbSymbolTableRecord
100
AcDbLinetypeTableRecord
70
0
2
CENTER
3
____ _ ____ _ ____ _ ____
72
65
73
4
40
47.5
49
22
74
0
49
-8.5
74
0
49
8.5
74
0
49
-8.5
74
0
0
LTYPE
5
3F
100
AcDbSymbolTableRecord
100
AcDbLinetypeTableRecord
70
0
2
DOT
3
.........................
72
65
73
2
40
10
49
0
74
0
49
-10
74
0
0
LTYPE
5
40
100
AcDbSymbolTableRecord
100
AcDbLinetypeTableRecord
70
0
2
DASHDOT
3
_._._._._._._._._._._._._._._._.
72
65
73
4
40
70
49
31
74
0
49
-13
74
0
49
13
74
0
49
-13
74
0
0
ENDTAB
0
TABLE
2
LAYER
5
176
100
AcDbSymbolTable
0
LAYER
5
10
100
AcDbSymbolTableRecord
100
AcDbLayerTableRecord
2
0
70
0
62
7
6
CONTINUOUS
290
1
370
-3
390
0
0
LAYER
5
42
100
AcDbSymbolTableRecord
100
AcDbLayerTableRecord
2
80
70
0
62
-6
6
CONTINUOUS
290
1
370
-3
390
0
0
LAYER
5
44
100
AcDbSymbolTableRecord
100
AcDbLayerTableRecord
2
81
70
0
62
-3
6
CONTINUOUS
290
1
370
-3
390
0
0
LAYER
5
46
100
AcDbSymbolTableRecord
100
AcDbLayerTableRecord
2
1
70
0
62
4
6
CONTINUOUS
290
1
370
-3
390
0
0
LAYER
5
48
100
AcDbSymbolTableRecord
100
AcDbLayerTableRecord
2
2
70
0
62
7
6
CONTINUOUS
290
1
370
-3
390
0
0
LAYER
5
5A
100
AcDbSymbolTableRecord
100
AcDbLayerTableRecord
2
4
70
0
62
-2
6
CENTER
290
1
370
-3
390
0
0
LAYER
5
160
100
AcDbSymbolTableRecord
100
AcDbLayerTableRecord
2
SK1
70
0
62
4
6
CONTINUOUS
290
1
370
-3
390
0
0
LAYER
5
161
100
AcDbSymbolTableRecord
100
AcDbLayerTableRecord
2
SK4
70
0
62
2
6
CENTER
290
1
370
-3
390
0
0
LAYER
5
162
100
AcDbSymbolTableRecord
100
AcDbLayerTableRecord
2
SK6
70
0
62
5
6
CONTINUOUS
290
1
370
-3
390
0
0
LAYER
5
163
100
AcDbSymbolTableRecord
100
AcDbLayerTableRecord
2
SK2
70
0
62
7
6
CONTINUOUS
290
1
370
-3
390
0
0
ENDTAB
0
TABLE
2
STYLE
5
177
100
AcDbSymbolTable
0
STYLE
5
11
100
AcDbSymbolTableRecord
100
AcDbTextStyleTableRecord
2
Standard
3
txt
70
0
71
0
40
0
41
1
42
0
50
0
0
STYLE
5
DC
100
AcDbSymbolTableRecord
100
AcDbTextStyleTableRecord
2
DEFAULT
3
simplex.shx
70
0
71
0
40
0
41
1
42
0
50
0
0
STYLE
5
FF
100
AcDbSymbolTableRecord
100
AcDbTextStyleTableRecord
2
DWGDirectTextStyle
3
SIMPLEX
70
0
71
0
40
0
41
1
42
0
50
0
0
ENDTAB
0
TABLE
2
DIMSTYLE
5
178
100
AcDbSymbolTable
100
AcDbDimStyleTable
0
DIMSTYLE
105
27
100
AcDbSymbolTableRecord
100
AcDbDimStyleTableRecord
2
Standard
70
0
3
<>
41
0.18
42
0.0625
44
0.18
140
0.18
147
0.09
73
0
74
0
77
1
271
2
275
0
278
52
280
0
340
11
0
ENDTAB
0
TABLE
2
VIEW
5
179
100
AcDbSymbolTable
0
ENDTAB
0
TABLE
2
UCS
5
17a
100
AcDbSymbolTable
0
ENDTAB
0
TABLE
2
APPID
5
17b
100
AcDbSymbolTable
0
APPID
5
12
100
AcDbSymbolTableRecord
100
AcDbRegAppTableRecord
2
ACAD
70
0
0
ENDTAB
0
TABLE
2
BLOCK_RECORD
5
17c
100
AcDbSymbolTable
0
BLOCK_RECORD
5
1F
100
AcDbSymbolTableRecord
100
AcDbBlockTableRecord
2
*Model_Space
340
0
70
0
0
BLOCK_RECORD
5
1B
100
AcDbSymbolTableRecord
100
AcDbBlockTableRecord
2
*Paper_Space
340
0
70
0
0
BLOCK_RECORD
5
23
100
AcDbSymbolTableRecord
100
AcDbBlockTableRecord
2
*Paper_Space0
340
0
70
0
0
BLOCK_RECORD
5
101
100
AcDbSymbolTableRecord
100
AcDbBlockTableRecord
2
DimnDraft3D1
340
0
70
0
0
BLOCK_RECORD
5
110
100
AcDbSymbolTableRecord
100
AcDbBlockTableRecord
2
_CLOSED
340
0
70
0
0
BLOCK_RECORD
5
117
100
AcDbSymbolTableRecord
100
AcDbBlockTableRecord
2
DimnDraft3D2
340
0
70
0
0
BLOCK_RECORD
5
125
100
AcDbSymbolTableRecord
100
AcDbBlockTableRecord
2
DimnDraft3D3
340
0
70
0
0
BLOCK_RECORD
5
133
100
AcDbSymbolTableRecord
100
AcDbBlockTableRecord
2
DimnDraft3D4
340
0
70
0
0
ENDTAB
0
ENDSEC
0
SECTION
2
BLOCKS
0
BLOCK
5
20
100
AcDbEntity
8
0
100
AcDbBlockBegin
2
*Model_Space
70
0
10
0
20
0
30
0
3
*Model_Space
0
ENDBLK
5
21
100
AcDbEntity
8
0
100
AcDbBlockEnd
0
BLOCK
5
1C
100
AcDbEntity
8
0
100
AcDbBlockBegin
2
*Paper_Space
70
0
10
0
20
0
30
0
3
*Paper_Space
0
ENDBLK
5
1D
100
AcDbEntity
8
0
100
AcDbBlockEnd
0
BLOCK
5
24
100
AcDbEntity
8
0
100
AcDbBlockBegin
2
*Paper_Space0
70
0
10
0
20
0
30
0
3
*Paper_Space0
0
ENDBLK
5
25
100
AcDbEntity
8
0
100
AcDbBlockEnd
0
BLOCK
5
10D
100
AcDbEntity
8
0
100
AcDbBlockBegin
2
DimnDraft3D1
70
0
10
0
20
0
30
0
3
DimnDraft3D1
0
MTEXT
5
102
100
AcDbEntity
8
SK2
62
256
6
ByLayer
370
-1
48
1
60
0
100
AcDbMText
10
-10.875
20
-3.096711
30
0
210
0
220
0
230
1
1
\W01.000;\fsimplex.shx,bigfont.shx;%%c16 
40
4.5
41
0
44
1.084337
50
90
71
7
72
5
7
DEFAULT
0
LINE
5
104
100
AcDbEntity
8
SK2
62
256
6
ByLayer
370
-1
48
1
60
0
100
AcDbLine
10
-2
20
8
30
0
11
-11.75
21
8
31
0
39
0
210
0
220
0
230
1
0
LINE
5
105
100
AcDbEntity
8
SK2
62
256
6
ByLayer
370
-1
48
1
60
0
100
AcDbLine
10
-2
20
-8
30
0
11
-11.75
21
-8
31
0
39
0
210
0
220
0
230
1
0
LINE
5
106
100
AcDbEntity
8
SK2
62
256
6
ByLayer
370
-1
48
1
60
0
100
AcDbLine
10
-9.75
20
19.25
30
0
11
-9.75
21
-19.25
31
0
39
0
210
0
220
0
230
1
0
LINE
5
107
100
AcDbEntity
8
SK2
62
256
6
ByLayer
370
-1
48
1
60
0
100
AcDbLine
10
-9.75
20
8
30
0
11
-10.167997
21
11.174998
31
0
39
0
210
0
220
0
230
1
0
LINE
5
108
100
AcDbEntity
8
SK2
62
256
6
ByLayer
370
-1
48
1
60
0
100
AcDbLine
10
-9.75
20
8
30
0
11
-9.332003
21
11.175002
31
0
39
0
210
0
220
0
230
1
0
LINE
5
109
100
AcDbEntity
8
SK2
62
256
6
ByLayer
370
-1
48
1
60
0
100
AcDbLine
10
-10.167997
20
11.174998
30
0
11
-9.332003
21
11.175002
31
0
39
0
210
0
220
0
230
1
0
LINE
5
10A
100
AcDbEntity
8
SK2
62
256
6
ByLayer
370
-1
48
1
60
0
100
AcDbLine
10
-9.75
20
-8
30
0
11
-9.332003
21
-11.174998
31
0
39
0
210
0
220
0
230
1
0
LINE
5
10B
100
AcDbEntity
8
SK2
62
256
6
ByLayer
370
-1
48
1
60
0
100
AcDbLine
10
-9.75
20
-8
30
0
11
-10.167997
21
-11.175002
31
0
39
0
210
0
220
0
230
1
0
LINE
5
10C
100
AcDbEntity
8
SK2
62
256
6
ByLayer
370
-1
48
1
60
0
100
AcDbLine
10
-9.332003
20
-11.174998
30
0
11
-10.167997
21
-11.175002
31
0
39
0
210
0
220
0
230
1
0
ENDBLK
5
10E
100
AcDbEntity
8
0
100
AcDbBlockEnd
0
BLOCK
5
111
100
AcDbEntity
8
0
100
AcDbBlockBegin
2
_CLOSED
70
0
10
0
20
0
30
0
3
_CLOSED
0
LINE
5
113
100
AcDbEntity
8
0
62
256
6
ByLayer
370
-2
48
1
60
0
100
AcDbLine
10
-1
20
0.166667
30
0
11
0
21
0
31
0
39
0
210
0
220
0
230
1
0
LINE
5
114
100
AcDbEntity
8
0
62
256
6
ByLayer
370
-2
48
1
60
0
100
AcDbLine
10
0
20
0
30
0
11
-1
21
-0.166667
31
0
39
0
210
0
220
0
230
1
0
LINE
5
115
100
AcDbEntity
8
0
62
256
6
ByLayer
370
-2
48
1
60
0
100
AcDbLine
10
-1
20
0.166667
30
0
11
-1
21
-0.166667
31
0
39
0
210
0
220
0
230
1
0
LINE
5
116
100
AcDbEntity
8
0
62
256
6
ByLayer
370
-2
48
1
60
0
100
AcDbLine
10
0
20
0
30
0
11
-1
21
0
31
0
39
0
210
0
220
0
230
1
0
ENDBLK
5
112
100
AcDbEntity
8
0
100
AcDbBlockEnd
0
BLOCK
5
122
100
AcDbEntity
8
0
100
AcDbBlockBegin
2
DimnDraft3D2
70
0
10
0
20
0
30
0
3
DimnDraft3D2
0
MTEXT
5
118
100
AcDbEntity
8
2
62
256
6
ByLayer
370
-1
48
1
60
0
100
AcDbMText
10
31.125
20
-28.106316
30
0
210
0
220
0
230
1
1
\W01.000;\fsimplex.shx,bigfont.shx;11.0 
40
4.5
41
0
44
1.084337
50
90
71
7
72
5
7
DEFAULT
0
LINE
5
119
100
AcDbEntity
8
2
62
256
6
ByLayer
370
-1
48
1
60
0
100
AcDbLine
10
22
20
0
30
0
11
34.25
21
0
31
0
39
0
210
0
220
0
230
1
0
LINE
5
11A
100
AcDbEntity
8
2
62
256
6
ByLayer
370
-1
48
1
60
0
100
AcDbLine
10
22
20
-10.9
30
0
11
34.25
21
-10.9
31
0
39
0
210
0
220
0
230
1
0
LINE
5
11B
100
AcDbEntity
8
2
62
256
6
ByLayer
370
-1
48
1
60
0
100
AcDbLine
10
32.25
20
0
30
0
11
32.25
21
-29.231316
31
0
39
0
210
0
220
0
230
1
0
LINE
5
11C
100
AcDbEntity
8
2
62
256
6
ByLayer
370
-1
48
1
60
0
100
AcDbLine
10
32.25
20
0
30
0
11
32.667997
21
-3.174998
31
0
39
0
210
0
220
0
230
1
0
LINE
5
11D
100
AcDbEntity
8
2
62
256
6
ByLayer
370
-1
48
1
60
0
100
AcDbLine
10
32.25
20
0
30
0
11
31.832003
21
-3.175002
31
0
39
0
210
0
220
0
230
1
0
LINE
5
11E
100
AcDbEntity
8
2
62
256
6
ByLayer
370
-1
48
1
60
0
100
AcDbLine
10
32.667997
20
-3.174998
30
0
11
31.832003
21
-3.175002
31
0
39
0
210
0
220
0
230
1
0
LINE
5
11F
100
AcDbEntity
8
2
62
256
6
ByLayer
370
-1
48
1
60
0
100
AcDbLine
10
32.25
20
-10.9
30
0
11
31.832003
21
-7.725002
31
0
39
0
210
0
220
0
230
1
0
LINE
5
120
100
AcDbEntity
8
2
62
256
6
ByLayer
370
-1
48
1
60
0
100
AcDbLine
10
32.25
20
-10.9
30
0
11
32.667997
21
-7.724998
31
0
39
0
210
0
220
0
230
1
0
LINE
5
121
100
AcDbEntity
8
2
62
256
6
ByLayer
370
-1
48
1
60
0
100
AcDbLine
10
31.832003
20
-7.725002
30
0
11
32.667997
21
-7.724998
31
0
39
0
210
0
220
0
230
1
0
ENDBLK
5
123
100
AcDbEntity
8
0
100
AcDbBlockEnd
0
BLOCK
5
130
100
AcDbEntity
8
0
100
AcDbBlockBegin
2
DimnDraft3D3
70
0
10
0
20
0
30
0
3
DimnDraft3D3
0
MTEXT
5
126
100
AcDbEntity
8
2
62
256
6
ByLayer
370
-1
48
1
60
0
100
AcDbMText
10
5.961842
20
-27.025
30
0
210
0
220
0
230
1
1
\W01.000;\fsimplex.shx,bigfont.shx;20.0 
40
4.5
41
0
44
1.084337
50
0
71
7
72
5
7
DEFAULT
0
LINE
5
127
100
AcDbEntity
8
2
62
256
6
ByLayer
370
-1
48
1
60
0
100
AcDbLine
10
0
20
-10
30
0
11
0
21
-30.15
31
0
39
0
210
0
220
0
230
1
0
LINE
5
128
100
AcDbEntity
8
2
62
256
6
ByLayer
370
-1
48
1
60
0
100
AcDbLine
10
20
20
-12.9
30
0
11
20
21
-30.15
31
0
39
0
210
0
220
0
230
1
0
LINE
5
129
100
AcDbEntity
8
2
62
256
6
ByLayer
370
-1
48
1
60
0
100
AcDbLine
10
-11.25
20
-28.15
30
0
11
31.25
21
-28.15
31
0
39
0
210
0
220
0
230
1
0
LINE
5
12A
100
AcDbEntity
8
2
62
256
6
ByLayer
370
-1
48
1
60
0
100
AcDbLine
10
0
20
-28.15
30
0
11
-3.174998
21
-28.567997
31
0
39
0
210
0
220
0
230
1
0
LINE
5
12B
100
AcDbEntity
8
2
62
256
6
ByLayer
370
-1
48
1
60
0
100
AcDbLine
10
0
20
-28.15
30
0
11
-3.175002
21
-27.732003
31
0
39
0
210
0
220
0
230
1
0
LINE
5
12C
100
AcDbEntity
8
2
62
256
6
ByLayer
370
-1
48
1
60
0
100
AcDbLine
10
-3.174998
20
-28.567997
30
0
11
-3.175002
21
-27.732003
31
0
39
0
210
0
220
0
230
1
0
LINE
5
12D
100
AcDbEntity
8
2
62
256
6
ByLayer
370
-1
48
1
60
0
100
AcDbLine
10
20
20
-28.15
30
0
11
23.174998
21
-27.732003
31
0
39
0
210
0
220
0
230
1
0
LINE
5
12E
100
AcDbEntity
8
2
62
256
6
ByLayer
370
-1
48
1
60
0
100
AcDbLine
10
20
20
-28.15
30
0
11
23.175002
21
-28.567997
31
0
39
0
210
0
220
0
230
1
0
LINE
5
12F
100
AcDbEntity
8
2
62
256
6
ByLayer
370
-1
48
1
60
0
100
AcDbLine
10
23.174998
20
-27.732003
30
0
11
23.175002
21
-28.567997
31
0
39
0
210
0
220
0
230
1
0
ENDBLK
5
131
100
AcDbEntity
8
0
100
AcDbBlockEnd
0
BLOCK
5
13E
100
AcDbEntity
8
0
100
AcDbBlockBegin
2
DimnDraft3D4
70
0
10
0
20
0
30
0
3
DimnDraft3D4
0
MTEXT
5
134
100
AcDbEntity
8
2
62
256
6
ByLayer
370
-1
48
1
60
0
100
AcDbMText
10
42.504618
20
31.938034
30
0
210
0
220
0
230
1
1
\W01.000;\fsimplex.shx,bigfont.shx;93%%d0' 
40
4.5
41
0
44
1.084337
50
316.5
71
7
72
5
7
DEFAULT
0
LINE
5
135
100
AcDbEntity
8
2
62
256
6
ByLayer
370
-1
48
1
60
0
100
AcDbLine
10
19.528976
20
-1.912334
30
0
11
17.339169
21
39.871689
31
0
39
0
210
0
220
0
230
1
0
LINE
5
136
100
AcDbEntity
8
2
62
256
6
ByLayer
370
-1
48
1
60
0
100
AcDbLine
10
22
20
0
30
0
11
59.355162
21
0
31
0
39
0
210
0
220
0
230
1
0
ARC
5
137
100
AcDbEntity
8
2
62
256
6
ByLayer
370
-1
48
1
60
0
100
AcDbCircle
39
0
10
19.428755
20
0
30
0
40
37.9264068640929
210
0
220
0
230
1
100
AcDbArc
50
0
51
93
0
LINE
5
138
100
AcDbEntity
8
2
62
256
6
ByLayer
370
-1
48
1
60
0
100
AcDbLine
10
17.44384
20
37.87443
30
0
11
20.604128
21
38.392036
31
0
39
0
210
0
220
0
230
1
0
LINE
5
139
100
AcDbEntity
8
2
62
256
6
ByLayer
370
-1
48
1
60
0
100
AcDbLine
10
17.44384
20
37.87443
30
0
11
20.630414
21
37.556456
31
0
39
0
210
0
220
0
230
1
0
LINE
5
13A
100
AcDbEntity
8
2
62
256
6
ByLayer
370
-1
48
1
60
0
100
AcDbLine
10
20.604128
20
38.392036
30
0
11
20.630414
21
37.556456
31
0
39
0
210
0
220
0
230
1
0
LINE
5
13B
100
AcDbEntity
8
2
62
256
6
ByLayer
370
-1
48
1
60
0
100
AcDbLine
10
57.355162
20
0
30
0
11
56.870852
21
3.165562
31
0
39
0
210
0
220
0
230
1
0
LINE
5
13C
100
AcDbEntity
8
2
62
256
6
ByLayer
370
-1
48
1
60
0
100
AcDbLine
10
57.355162
20
0
30
0
11
57.706662
21
3.183049
31
0
39
0
210
0
220
0
230
1
0
LINE
5
13D
100
AcDbEntity
8
2
62
256
6
ByLayer
370
-1
48
1
60
0
100
AcDbLine
10
56.870852
20
3.165562
30
0
11
57.706662
21
3.183049
31
0
39
0
210
0
220
0
230
1
0
ENDBLK
5
13F
100
AcDbEntity
8
0
100
AcDbBlockEnd
0
ENDSEC
0
SECTION
2
ENTITIES
0
ARC
5
80
100
AcDbEntity
8
1
62
256
6
ByLayer
370
-1
48
1
60
0
100
AcDbCircle
39
0
10
-15.026522
20
0.334941
30
0
40
4.19989025997443
210
0
220
0
230
-1
100
AcDbArc
50
158.37767
51
177
0
ARC
5
81
100
AcDbEntity
8
1
62
256
6
ByLayer
370
-1
48
1
60
0
100
AcDbCircle
39
0
10
-11.640547
20
12.534831
30
0
40
8.00000000001289
210
0
220
0
230
-1
100
AcDbArc
50
295.654087
51
311.687291
0
ELLIPSE
5
82
100
AcDbEntity
8
1
62
256
6
ByLayer
370
-1
48
1
60
0
100
AcDbEllipse
10
13.474412
20
0.065733
30
0
11
-1.0485610114923
21
-0.0549527540550897
31
0
210
0
220
0
230
1
40
0.995133
41
2.7153037502551
42
2.78398620744039
0
ELLIPSE
5
83
100
AcDbEntity
8
1
62
256
6
ByLayer
370
-1
48
1
60
0
100
AcDbEllipse
10
13.474412
20
0.065733
30
0
11
-1.0485610114923
21
-0.0549527540550897
31
0
210
0
220
0
230
1
40
0.995133
41
0.0889120777820907
42
1.19431395890738
0
ELLIPSE
5
84
100
AcDbEntity
8
1
62
256
6
ByLayer
370
-1
48
1
60
0
100
AcDbEllipse
10
13.296781
20
-0.982116
30
0
11
-1.24828691844322
21
-0.0654199453036779
31
0
210
0
220
0
230
1
40
0.995133
41
0.0853629551487183
42
0.95993108859688
0
ELLIPSE
5
85
100
AcDbEntity
8
1
62
256
6
ByLayer
370
-1
48
1
60
0
100
AcDbEllipse
10
13.472092
20
0.110016
30
0
11
-1.0485610114923
21
-0.0549527540550897
31
0
210
0
220
0
230
1
40
0.995133
41
2.67998073193663
42
3.01848759371239
0
ELLIPSE
5
86
100
AcDbEntity
8
1
62
256
6
ByLayer
370
-1
48
1
60
0
100
AcDbEllipse
10
13.472092
20
0.110016
30
0
11
-1.0485610114923
21
-0.0549527540550897
31
0
210
0
220
0
230
1
40
0.995133
41
0.123018851866413
42
1.19430231459724
0
ELLIPSE
5
87
100
AcDbEntity
8
1
62
256
6
ByLayer
370
-1
48
1
60
0
100
AcDbEllipse
10
7.663147
20
-8.764068
30
0
11
-1.06717006007135
21
12.1382224462847
31
0
210
0
220
0
230
-1
40
0.098481
41
-1.49103866934788
42
-1.42123596348628
0
ELLIPSE
5
88
100
AcDbEntity
8
1
62
256
6
ByLayer
370
-1
48
1
60
0
100
AcDbEllipse
10
5.695401
20
0
30
0
11
0.70058989294521
21
-7.9999996346706
31
0
210
0
220
0
230
-1
40
0.003451
41
0.169031047930032
42
2.77512745096138
0
ELLIPSE
5
89
100
AcDbEntity
8
1
62
256
6
ByLayer
370
-1
48
1
60
0
100
AcDbEllipse
10
23.304402
20
-4.759942
30
0
11
-4.19424404596921
21
-0.219811016220357
31
0
210
0
220
0
230
1
40
0.995133
41
-0.43997595479093
42
-0.391928592698304
0
ELLIPSE
5
8A
100
AcDbEntity
8
1
62
256
6
ByLayer
370
-1
48
1
60
0
100
AcDbEllipse
10
12.779036
20
-10.931598
30
0
11
-4.19424404596922
21
-0.21981101622036
31
0
210
0
220
0
230
1
40
0.995133
41
-1.78283328500183
42
-0.901966469606479
0
ELLIPSE
5
8B
100
AcDbEntity
8
1
62
256
6
ByLayer
370
-1
48
1
60
0
100
AcDbEllipse
10
12.773577
20
-10.827441
30
0
11
0.220886098939318
21
-4.21475784628024
31
0
210
0
220
0
230
1
40
0.995133
41
-2.43383746840361
42
-2.40855436775218
0
ELLIPSE
5
8C
100
AcDbEntity
8
1
62
256
6
ByLayer
370
-1
48
1
60
0
100
AcDbEllipse
10
5.389586
20
3.358757
30
0
11
0.240827775699983
21
-2.74999987441878
31
0
210
0
220
0
230
-1
40
0.003451
41
-0.429741246103294
42
-2.90928556218514
0
ELLIPSE
5
8D
100
AcDbEntity
8
1
62
256
6
ByLayer
370
-1
48
1
60
0
100
AcDbEllipse
10
-400.596539
20
3.358757
30
0
11
533.217127104146
21
0.270630661560364
31
0
210
0
220
0
230
-1
40
0.005132
41
0.665215600885187
42
0.701433100925717
0
ELLIPSE
5
8E
100
AcDbEntity
8
1
62
256
6
ByLayer
370
-1
48
1
60
0
100
AcDbEllipse
10
-400.598201
20
3.358749
30
0
11
533.218847728658
21
0.270636965695998
31
0
210
0
220
0
230
-1
40
0.005132
41
-0.702329289921699
42
-0.697236073196325
0
ELLIPSE
5
8F
100
AcDbEntity
8
1
62
256
6
ByLayer
370
-1
48
1
60
0
100
AcDbEllipse
10
13.307886
20
-1.193997
30
0
11
-1.24828691844322
21
-0.0654199453036779
31
0
210
0
220
0
230
1
40
0.995133
41
-0.862027290779756
42
0.959931088596866
0
ELLIPSE
5
90
100
AcDbEntity
8
1
62
256
6
ByLayer
370
-1
48
1
60
0
100
AcDbEllipse
10
13.485517
20
-0.146148
30
0
11
1.0485610114923
21
0.0549527540551054
31
0
210
0
220
0
230
1
40
0.995133
41
-0.263164752213138
42
-3.05268057580772
0
ELLIPSE
5
91
100
AcDbEntity
8
1
62
256
6
ByLayer
370
-1
48
1
60
0
100
AcDbEllipse
10
5.977857
20
-3.358757
30
0
11
0.240827775699944
21
-2.74999987441834
31
0
210
0
220
0
230
-1
40
0.003451
41
-0.700962572472125
42
-2.638064235816
0
ELLIPSE
5
92
100
AcDbEntity
8
1
62
256
6
ByLayer
370
-1
48
1
60
0
100
AcDbEllipse
10
16.54762
20
-5.284975
30
0
11
1.87243037766483
21
0.0981299179555455
31
0
210
0
220
0
230
1
40
0.995133
41
3.08897737462185
42
-9.52023814250757E-16
0
ELLIPSE
5
93
100
AcDbEntity
8
1
62
256
6
ByLayer
370
-1
48
1
60
0
100
AcDbEllipse
10
16.54762
20
-5.284975
30
0
11
1.87243037766483
21
0.0981299179555455
31
0
210
0
220
0
230
1
40
0.995133
41
0
42
0.784029739749576
0
ELLIPSE
5
94
100
AcDbEntity
8
1
62
256
6
ByLayer
370
-1
48
1
60
0
100
AcDbEllipse
10
16.54762
20
-5.284975
30
0
11
1.87243037766483
21
0.0981299179555455
31
0
210
0
220
0
230
1
40
0.995133
41
2.35747687415699
42
3.08897683868728
0
ELLIPSE
5
95
100
AcDbEntity
8
1
62
256
6
ByLayer
370
-1
48
1
60
0
100
AcDbEllipse
10
16.550869
20
-5.346971
30
0
11
1.91642389486198
21
0.100435520494699
31
0
210
0
220
0
230
1
40
0.995133
41
0
42
6.28318530717959
0
ELLIPSE
5
96
100
AcDbEntity
8
1
62
256
6
ByLayer
370
-1
48
1
60
0
100
AcDbEllipse
10
13.498608
20
-0.188892
30
0
11
0.396331096605776
21
0.0207708326339266
31
0
210
0
220
0
230
1
40
0.995133
41
0.959931088596827
42
3.14159265358975
0
ELLIPSE
5
97
100
AcDbEntity
8
1
62
256
6
ByLayer
370
-1
48
1
60
0
100
AcDbEllipse
10
19.249867
20
-3.764386
30
0
11
0.396331096605728
21
0.0207708326339241
31
0
210
0
220
0
230
1
40
0.995133
41
0
42
0.959931088596878
0
ELLIPSE
5
98
100
AcDbEntity
8
1
62
256
6
ByLayer
370
-1
48
1
60
0
100
AcDbEllipse
10
13.851871
20
-6.929556
30
0
11
0.396331096605728
21
0.0207708326339241
31
0
210
0
220
0
230
1
40
0.995133
41
3.14159265358978
42
-2.18166156499293
0
ELLIPSE
5
99
100
AcDbEntity
8
1
62
256
6
ByLayer
370
-1
48
1
60
0
100
AcDbEllipse
10
19.60313
20
-10.505051
30
0
11
0.396331096605776
21
0.0207708326339266
31
0
210
0
220
0
230
1
40
0.995133
41
-2.18166156499288
42
5.84707539461015E-14
0
ELLIPSE
5
9A
100
AcDbEntity
8
1
62
256
6
ByLayer
370
-1
48
1
60
0
100
AcDbEllipse
10
16.546865
20
-5.270572
30
0
11
1.82225885974135
21
0.0955005401179159
31
0
210
0
220
0
230
1
40
0.995133
41
0
42
6.28318530717959
0
ELLIPSE
5
9B
100
AcDbEntity
8
1
62
256
6
ByLayer
370
-1
48
1
60
0
100
AcDbEllipse
10
16.545518
20
-5.244862
30
0
11
-0.746974891996421
21
-0.0391472952697208
31
0
210
0
220
0
230
1
40
0.995133
41
-2.55094684546905
42
-1.88208040887663
0
ELLIPSE
5
9C
100
AcDbEntity
8
1
62
256
6
ByLayer
370
-1
48
1
60
0
100
AcDbEllipse
10
17.552489
20
-4.654414
30
0
11
-0.42142166366643
21
-0.0220857735345216
31
0
210
0
220
0
230
1
40
0.995133
41
-0.297120655593513
42
8.7251603862844E-06
0
ELLIPSE
5
9D
100
AcDbEntity
8
1
62
256
6
ByLayer
370
-1
48
1
60
0
100
AcDbEllipse
10
16.550675
20
-5.343269
30
0
11
1.03358156847098
21
0.054167714711461
31
0
210
0
220
0
230
1
40
0.995133
41
-2.13717035403315
42
-1.09083078249645
0
ELLIPSE
5
9E
100
AcDbEntity
8
1
62
256
6
ByLayer
370
-1
48
1
60
0
100
AcDbEllipse
10
16.549821
20
-5.326963
30
0
11
0.74697489199642
21
0.0391472952697322
31
0
210
0
220
0
230
1
40
0.995133
41
0.442234192381432
42
0.517696896215458
0
ELLIPSE
5
9F
100
AcDbEntity
8
1
62
256
6
ByLayer
370
-1
48
1
60
0
100
AcDbEllipse
10
16.545518
20
-5.244862
30
0
11
-0.746974891996421
21
-0.0391472952697208
31
0
210
0
220
0
230
1
40
0.995133
41
2.57393165686168
42
-2.87531664864299
0
ELLIPSE
5
A0
100
AcDbEntity
8
1
62
256
6
ByLayer
370
-1
48
1
60
0
100
AcDbEllipse
10
15.695554
20
-5.251734
30
0
11
-0.184746463929596
21
-0.00968215190494439
31
0
210
0
220
0
230
1
40
0.995133
41
0.258923625829011
42
1.25705174419038
0
ELLIPSE
5
A1
100
AcDbEntity
8
1
62
256
6
ByLayer
370
-1
48
1
60
0
100
AcDbEllipse
10
16.550675
20
-5.343269
30
0
11
1.03358156847098
21
0.054167714711461
31
0
210
0
220
0
230
1
40
0.995133
41
2.05076187109334
42
3.09710144263003
0
ELLIPSE
5
A2
100
AcDbEntity
8
1
62
256
6
ByLayer
370
-1
48
1
60
0
100
AcDbEllipse
10
16.545518
20
-5.244862
30
0
11
0.74697489199642
21
0.0391472952697322
31
0
210
0
220
0
230
1
40
0.995133
41
-2.69935846120843
42
-2.62389575737428
0
ELLIPSE
5
A3
100
AcDbEntity
8
1
62
256
6
ByLayer
370
-1
48
1
60
0
100
AcDbEllipse
10
16.976733
20
-5.973582
30
0
11
-0.184746463929596
21
-0.00968215190494439
31
0
210
0
220
0
230
1
40
0.995133
41
0.752692357472488
42
2.82043725001552
0
ELLIPSE
5
A4
100
AcDbEntity
8
1
62
256
6
ByLayer
370
-1
48
1
60
0
100
AcDbEllipse
10
16.549778
20
-5.326154
30
0
11
1.72263594745164
21
0.0902795245191019
31
0
210
0
220
0
230
1
40
0.995133
41
0
42
6.28318530717959
0
ELLIPSE
5
A5
100
AcDbEntity
8
1
62
256
6
ByLayer
370
-1
48
1
60
0
100
AcDbEllipse
10
16.545518
20
-5.244862
30
0
11
0.74697489199642
21
0.0391472952697322
31
0
210
0
220
0
230
1
40
0.995133
41
-1.6140005682648
42
-0.567660996728109
0
ELLIPSE
5
A6
100
AcDbEntity
8
1
62
256
6
ByLayer
370
-1
48
1
60
0
100
AcDbEllipse
10
16.550675
20
-5.343269
30
0
11
1.03358156847098
21
0.054167714711461
31
0
210
0
220
0
230
1
40
0.995133
41
1.00442229955664
42
2.05076187109334
0
ELLIPSE
5
A7
100
AcDbEntity
8
1
62
256
6
ByLayer
370
-1
48
1
60
0
100
AcDbEllipse
10
16.550675
20
-5.343269
30
0
11
1.03358156847098
21
0.054167714711461
31
0
210
0
220
0
230
1
40
0.995133
41
-1.09083078249645
42
-0.044491210959755
0
ELLIPSE
5
A8
100
AcDbEntity
8
1
62
256
6
ByLayer
370
-1
48
1
60
0
100
AcDbEllipse
10
17.563427
20
-5.818377
30
0
11
-0.42142166366643
21
-0.0220857735345216
31
0
210
0
220
0
230
1
40
0.995133
41
-0.567660996728105
42
-1.10700842423724E-05
0
ELLIPSE
5
A9
100
AcDbEntity
8
1
62
256
6
ByLayer
370
-1
48
1
60
0
100
AcDbEllipse
10
16.546034
20
-5.254703
30
0
11
1.72263594745164
21
0.0902795245191018
31
0
210
0
220
0
230
1
40
0.995133
41
3.08897695519479
42
-3.14158667478013
0
ELLIPSE
5
AA
100
AcDbEntity
8
1
62
256
6
ByLayer
370
-1
48
1
60
0
100
AcDbEllipse
10
16.546034
20
-5.254703
30
0
11
1.72263594745164
21
0.0902795245191018
31
0
210
0
220
0
230
1
40
0.995133
41
0
42
3.08897723102667
0
ELLIPSE
5
AB
100
AcDbEntity
8
1
62
256
6
ByLayer
370
-1
48
1
60
0
100
AcDbEllipse
10
16.550675
20
-5.343269
30
0
11
1.03358156847098
21
0.054167714711461
31
0
210
0
220
0
230
1
40
0.995133
41
3.09710144263003
42
-2.13717035403315
0
ELLIPSE
5
AC
100
AcDbEntity
8
1
62
256
6
ByLayer
370
-1
48
1
60
0
100
AcDbEllipse
10
15.538547
20
-5.83531
30
0
11
-0.42142166366643
21
-0.0220857735345216
31
0
210
0
220
0
230
1
40
0.995133
41
-3.14158458646613
42
-2.72854043160756
0
ELLIPSE
5
AD
100
AcDbEntity
8
1
62
256
6
ByLayer
370
-1
48
1
60
0
100
AcDbEllipse
10
16.549821
20
-5.326963
30
0
11
0.74697489199642
21
0.0391472952697322
31
0
210
0
220
0
230
1
40
0.995133
41
-2.69935846120842
42
-2.6238957573743
0
ELLIPSE
5
AE
100
AcDbEntity
8
1
62
256
6
ByLayer
370
-1
48
1
60
0
100
AcDbEllipse
10
16.545518
20
-5.244862
30
0
11
-0.746974891996421
21
-0.0391472952697208
31
0
210
0
220
0
230
1
40
0.995133
41
-1.34451874736037
42
-0.678229401639541
0
ELLIPSE
5
AF
100
AcDbEntity
8
1
62
256
6
ByLayer
370
-1
48
1
60
0
100
AcDbEllipse
10
16.545518
20
-5.244862
30
0
11
-0.746974891996421
21
-0.0391472952697208
31
0
210
0
220
0
230
1
40
0.995133
41
-0.320567504765883
42
0.442234192381366
0
ELLIPSE
5
B0
100
AcDbEntity
8
1
62
256
6
ByLayer
370
-1
48
1
60
0
100
AcDbEllipse
10
16.550675
20
-5.343269
30
0
11
1.03358156847098
21
0.054167714711461
31
0
210
0
220
0
230
1
40
0.995133
41
-0.044491210959755
42
1.00442229955664
0
ELLIPSE
5
B1
100
AcDbEntity
8
1
62
256
6
ByLayer
370
-1
48
1
60
0
100
AcDbEllipse
10
16.550675
20
-5.343269
30
0
11
1.29821839518094
21
0.0680367431158446
31
0
210
0
220
0
230
1
40
0.995133
41
0
42
6.28318530717959
0
ELLIPSE
5
B2
100
AcDbEntity
8
1
62
256
6
ByLayer
370
-1
48
1
60
0
100
AcDbEllipse
10
16.555932
20
-6.409132
30
0
11
-0.42142166366643
21
-0.0220857735345216
31
0
210
0
220
0
230
1
40
0.995133
41
-1.6140005682648
42
-0.83910084041235
0
ELLIPSE
5
B3
100
AcDbEntity
8
1
62
256
6
ByLayer
370
-1
48
1
60
0
100
AcDbEllipse
10
17.563427
20
-5.818377
30
0
11
-0.42142166366643
21
-0.0220857735345216
31
0
210
0
220
0
230
1
40
0.995133
41
-1.34256072458056
42
-0.567660996728105
0
ELLIPSE
5
B4
100
AcDbEntity
8
1
62
256
6
ByLayer
370
-1
48
1
60
0
100
AcDbEllipse
10
16.555932
20
-6.409132
30
0
11
-0.42142166366643
21
-0.0220857735345216
31
0
210
0
220
0
230
1
40
0.995133
41
-2.38890029611725
42
-1.6140005682648
0
ELLIPSE
5
B5
100
AcDbEntity
8
1
62
256
6
ByLayer
370
-1
48
1
60
0
100
AcDbEllipse
10
16.12741
20
-5.981537
30
0
11
-0.184746463929596
21
-0.00968215190494439
31
0
210
0
220
0
230
1
40
0.995133
41
0.243925005224612
42
2.30249181317745
0
ELLIPSE
5
B6
100
AcDbEntity
8
1
62
256
6
ByLayer
370
-1
48
1
60
0
100
AcDbEllipse
10
17.395482
20
-5.23799
30
0
11
-0.184746463929596
21
-0.00968215190494439
31
0
210
0
220
0
230
1
40
0.995133
41
1.79903192900927
42
2.8749441530177
0
ELLIPSE
5
B7
100
AcDbEntity
8
1
62
256
6
ByLayer
370
-1
48
1
60
0
100
AcDbEllipse
10
15.538547
20
-5.83531
30
0
11
-0.42142166366643
21
-0.0220857735345216
31
0
210
0
220
0
230
1
40
0.995133
41
-2.59471378697514
42
-1.8845409093994
0
ELLIPSE
5
B8
100
AcDbEntity
8
1
62
256
6
ByLayer
370
-1
48
1
60
0
100
AcDbEllipse
10
16.545518
20
-5.244862
30
0
11
-0.746974891996421
21
-0.0391472952697208
31
0
210
0
220
0
230
1
40
0.995133
41
0.51769689621551
42
1.52759208532499
0
POINT
5
41
100
AcDbEntity
8
80
62
256
6
ByLayer
370
-1
48
1
60
0
100
AcDbPoint
10
0
20
0
30
0
39
0
210
0
220
0
230
1
50
360
0
POINT
5
43
100
AcDbEntity
8
81
62
256
6
ByLayer
370
-1
48
1
60
0
100
AcDbPoint
10
20
20
-10.9
30
0
39
0
210
0
220
0
230
1
50
360
0
POINT
5
45
100
AcDbEntity
8
1
62
256
6
ByLayer
370
-1
48
1
60
0
100
AcDbPoint
10
0
20
0
30
0
39
0
210
0
220
0
230
1
50
360
0
POINT
5
47
100
AcDbEntity
8
2
62
256
6
ByLayer
370
-1
48
1
60
0
100
AcDbPoint
10
20
20
10.9
30
0
39
0
210
0
220
0
230
1
50
360
0
POINT
5
49
100
AcDbEntity
8
2
62
256
6
ByLayer
370
-1
48
1
60
0
100
AcDbPoint
10
19.76821
20
9.893206
30
0
39
0
210
0
220
0
230
1
50
360
0
SPLINE
5
B9
100
AcDbEntity
8
SK1
62
256
6
ByLayer
370
-1
48
1
60
0
100
AcDbSpline
70
4
71
3
72
8
73
4
40
0
40
0
40
0
40
0
40
1
40
1
40
1
40
1
41
1
10
-0.221233999999981
20
7.14142842854284
30
0
41
1
10
-0.14750629404989
20
7.21627702129805
30
0
41
1
10
-0.0737611142940295
20
7.29110840525999
30
0
41
1
10
0
20
7.36592407527772
30
0
0
SPLINE
5
BA
100
AcDbEntity
8
SK1
62
256
6
ByLayer
370
-1
48
1
60
0
100
AcDbSpline
70
4
71
3
72
10
73
6
40
0
40
0
40
0
40
0
40
0.265445249642566
40
0.265445249642566
40
1
40
1
40
1
40
1
41
1
10
0
20
-7.36592407527775
30
0
41
1
10
-0.0195795483390953
20
-7.34606459997488
30
0
41
1
10
-0.0391579727970566
20
-7.32620401656658
30
0
41
1
10
-0.112910515899557
20
-7.25137989643352
30
0
41
1
10
-0.167076973944916
20
-7.19640880716432
30
0
41
1
10
-0.221233999999981
20
-7.14142842854284
30
0
0
SPLINE
5
BB
100
AcDbEntity
8
1
62
256
6
ByLayer
370
-1
48
1
60
0
100
AcDbSpline
70
4
71
3
72
10
73
6
40
0
40
0
40
0
40
0
40
0.396484703026676
40
0.396484703026676
40
1
40
1
40
1
40
1
41
1
10
0
20
7.36592407527772
30
0
41
1
10
0.0698488733131057
20
7.43677157137262
30
0
41
1
10
0.139712041447069
20
7.50760497653425
30
0
41
1
10
0.315951672363269
20
7.68622589310061
30
0
41
1
10
0.422345412779293
20
7.79399636661481
30
0
41
1
10
0.528766000000019
20
7.90174031463954
30
0
0
SPLINE
5
BC
100
AcDbEntity
8
1
62
256
6
ByLayer
370
-1
48
1
60
0
100
AcDbSpline
70
4
71
3
72
8
73
4
40
0
40
0
40
0
40
0
40
1
40
1
40
1
40
1
41
1
10
6.38653369462941
20
-7.90174031463957
30
0
41
1
10
6.38365942900146
20
-7.89682180224489
30
0
41
1
10
6.38193526879337
20
-7.89169951171658
30
0
41
1
10
6.38136215599576
20
-7.88639223252272
30
0
0
SPLINE
5
BD
100
AcDbEntity
8
1
62
256
6
ByLayer
370
-1
48
1
60
0
100
AcDbSpline
70
4
71
3
72
10
73
6
40
0
40
0
40
0
40
0
40
0.506730064230434
40
0.506730064230434
40
1
40
1
40
1
40
1
41
1
10
5.03143842975373
20
7.46793140128284
30
0
41
1
10
5.02764247075771
20
7.51627497099233
30
0
41
1
10
5.04590731221356
20
7.56217441192243
30
0
41
1
10
5.12494958661136
20
7.64127655898764
30
0
41
1
10
5.18564856381562
20
7.67585045201903
30
0
41
1
10
5.26357685351542
20
7.70427681740301
30
0
0
SPLINE
5
BE
100
AcDbEntity
8
1
62
256
6
ByLayer
370
-1
48
1
60
0
100
AcDbSpline
70
4
71
3
72
12
73
8
40
0
40
0
40
0
40
0
40
0.389110552292425
40
0.389110552292425
40
0.891001681853679
40
0.891001681853679
40
1
40
1
40
1
40
1
41
1
10
5.26357685351576
20
7.70427681740335
30
0
41
1
10
5.36785446657609
20
7.56661658438969
30
0
41
1
10
5.48858849359385
20
7.41691172143712
30
0
41
1
10
5.78899713786143
20
7.07356638665519
30
0
41
1
10
5.97995848947517
20
6.87484713169906
30
0
41
1
10
6.2285129510293
20
6.64300331106207
30
0
41
1
10
6.2739888643589
20
6.60154722335858
30
0
41
1
10
6.32002905087631
20
6.56054522867956
30
0
0
SPLINE
5
BF
100
AcDbEntity
8
1
62
256
6
ByLayer
370
-1
48
1
60
0
100
AcDbSpline
70
4
71
3
72
8
73
4
40
0
40
0
40
0
40
0
40
1
40
1
40
1
40
1
41
1
10
5.2635768535161
20
7.70427681740293
30
0
41
1
10
5.20122870562659
20
7.78658461401
30
0
41
1
10
5.15343865894425
20
7.85284155804996
30
0
41
1
10
5.1187011959459
20
7.90174031463954
30
0
0
SPLINE
5
C0
100
AcDbEntity
8
1
62
256
6
ByLayer
370
-1
48
1
60
0
100
AcDbSpline
70
4
71
3
72
24
73
20
40
0
40
0
40
0
40
0
40
0.105905359253648
40
0.105905359253648
40
0.250598337063467
40
0.250598337063467
40
0.466821506771236
40
0.466821506771236
40
0.503891582783839
40
0.503891582783839
40
0.532219810172771
40
0.532219810172771
40
0.593952222350124
40
0.593952222350124
40
0.787395586840522
40
0.787395586840522
40
0.907120391152978
40
0.907120391152978
40
1
40
1
40
1
40
1
41
1
10
5.77149847784369
20
-0.949671212796346
30
0
41
1
10
5.78070772766262
20
-1.04775724093477
30
0
41
1
10
5.82712768121132
20
-1.16642724245364
30
0
41
1
10
5.98171911958707
20
-1.4676146672266
30
0
41
1
10
6.10833623558631
20
-1.66297422860265
30
0
41
1
10
6.45309863445789
20
-2.16665129587145
30
0
41
1
10
6.71558154289534
20
-2.48092515008489
30
0
41
1
10
6.93993228853458
20
-2.90388644953711
30
0
41
1
10
6.96976691287341
20
-2.97010706529898
30
0
41
1
10
6.99423212277651
20
-3.09319373183291
30
0
41
1
10
6.99414612531871
20
-3.14943446768731
30
0
41
1
10
6.9656765165887
20
-3.3202783220579
30
0
41
1
10
6.91499174063949
20
-3.43125034414385
30
0
41
1
10
6.71164457049554
20
-3.87392524012336
30
0
41
1
10
6.53596545518343
20
-4.20169628007085
30
0
41
1
10
6.32035296232306
20
-4.70898938710195
30
0
41
1
10
6.25011879144103
20
-4.90044155246923
30
0
41
1
10
6.17485683445767
20
-5.21404893702623
30
0
41
1
10
6.15841817316755
20
-5.34473619392986
30
0
41
1
10
6.16802336905465
20
-5.45983085378728
30
0
0
SPLINE
5
C1
100
AcDbEntity
8
1
62
256
6
ByLayer
370
-1
48
1
60
0
100
AcDbSpline
70
4
71
3
72
16
73
12
40
0
40
0
40
0
40
0
40
0.151782267503982
40
0.151782267503982
40
0.301651458766873
40
0.301651458766873
40
0.528646204114348
40
0.528646204114348
40
0.760891649095423
40
0.760891649095423
40
1
40
1
40
1
40
1
41
1
10
6.73861133470791
20
1.79950004635708
30
0
41
1
10
6.63595293912016
20
1.79882422577029
30
0
41
1
10
6.53190155285677
20
1.78021530359373
30
0
41
1
10
6.34286193985042
20
1.71679633819787
30
0
41
1
10
6.25481528994999
20
1.67215278779531
30
0
41
1
10
6.05731985234121
20
1.54637528424183
30
0
41
1
10
5.95551357462995
20
1.45650423790525
30
0
41
1
10
5.78807452599551
20
1.27583955706714
30
0
41
1
10
5.72102952600028
20
1.18227460375633
30
0
41
1
10
5.63037162431817
20
1.00857590791597
30
0
41
1
10
5.60709097689733
20
0.926398316269683
30
0
41
1
10
5.61247015600804
20
0.859151221344092
30
0
0
SPLINE
5
C2
100
AcDbEntity
8
1
62
256
6
ByLayer
370
-1
48
1
60
0
100
AcDbSpline
70
4
71
3
72
16
73
12
40
0
40
0
40
0
40
0
40
0.212289092348406
40
0.212289092348406
40
0.422603747824286
40
0.422603747824286
40
0.67077900462777
40
0.67077900462777
40
0.848082065932348
40
0.848082065932348
40
1
40
1
40
1
40
1
41
1
10
5.15741229545836
20
6.03507748085039
30
0
41
1
10
5.16091334221352
20
6.00085123991155
30
0
41
1
10
5.19098038611759
20
5.95403175103067
30
0
41
1
10
5.28929815908634
20
5.84704209533157
30
0
41
1
10
5.35812652727753
20
5.78578674163882
30
0
41
1
10
5.5380952574921
20
5.64923413762816
30
0
41
1
10
5.65687744835407
20
5.5711470033917
30
0
41
1
10
5.88984214317207
20
5.45363176075955
30
0
41
1
10
5.9982005257317
20
5.40856861855781
30
0
41
1
10
6.21343847623342
20
5.35049977039435
30
0
41
1
10
6.32122260050579
20
5.33380489867699
30
0
41
1
10
6.42793392633001
20
5.33321190074909
30
0
0
SPLINE
5
C3
100
AcDbEntity
8
1
62
256
6
ByLayer
370
-1
48
1
60
0
100
AcDbSpline
70
4
71
3
72
19
73
15
40
0
40
0
40
0
40
0
40
0.0533707331362272
40
0.0533707331362272
40
0.218925012305488
40
0.218925012305488
40
0.38975739083037
40
0.38975739083037
40
0.64930133495391
40
0.64930133495391
40
0.913755531743035
40
0.913755531743035
40
0.913755531743035
40
1
40
1
40
1
40
1
41
1
10
18.9308779351698
20
1.88254521320539
30
0
41
1
10
18.9020367257573
20
1.95530692941949
30
0
41
1
10
18.8702423250497
20
2.02954650776977
30
0
41
1
10
18.7283571008504
20
2.33498381368867
30
0
41
1
10
18.5902359298276
20
2.57447284061371
30
0
41
1
10
18.2602632905875
20
3.03008111129839
30
0
41
1
10
18.0635088283682
20
3.25039292354069
30
0
41
1
10
17.5243608757206
20
3.73961064779621
30
0
41
1
10
17.1503051164423
20
3.98427166899378
30
0
41
1
10
16.3503616485555
20
4.34526189771128
30
0
41
1
10
15.9112961953939
20
4.46471539496542
30
0
41
1
10
15.4679101283872
20
4.51157265549662
30
0
41
1
10
15.3215203520382
20
4.52704320001732
30
0
41
1
10
15.1738997743142
20
4.53483097712748
30
0
41
1
10
15.0265215836359
20
4.53483097712748
30
0
0
SPLINE
5
C4
100
AcDbEntity
8
1
62
256
6
ByLayer
370
-1
48
1
60
0
100
AcDbSpline
70
4
71
3
72
8
73
4
40
0
40
0
40
0
40
0
40
1
40
1
40
1
40
1
41
1
10
0.528766000000019
20
-7.90174031463957
30
0
41
1
10
0.352431500249054
20
-7.72321306091621
30
0
41
1
10
0.176170448695245
20
-7.54461321633266
30
0
41
1
10
0
20
-7.36592407527775
30
0
0
SPLINE
5
C5
100
AcDbEntity
8
1
62
256
6
ByLayer
370
-1
48
1
60
0
100
AcDbSpline
70
4
71
3
72
8
73
4
40
0
40
0
40
0
40
0
40
1
40
1
40
1
40
1
41
1
10
8.17705185130365
20
5.323437055038
30
0
41
1
10
9.18032276717975
20
4.84158516195097
30
0
41
1
10
10.416834623408
20
4.53483097712748
30
0
41
1
10
11.640546863636
20
4.53483097712748
30
0
0
SPLINE
5
C6
100
AcDbEntity
8
1
62
256
6
ByLayer
370
-1
48
1
60
0
100
AcDbSpline
70
4
71
3
72
8
73
4
40
0
40
0
40
0
40
0
40
1
40
1
40
1
40
1
41
1
10
8.08006700342094
20
5.37172636945448
30
0
41
1
10
8.14732200139082
20
5.33823629473648
30
0
41
1
10
8.21609305220272
20
5.30511386828653
30
0
41
1
10
8.28609159194133
20
5.27263299132215
30
0
0
SPLINE
5
C7
100
AcDbEntity
8
1
62
256
6
ByLayer
370
-1
48
1
60
0
100
AcDbSpline
70
4
71
3
72
14
73
10
40
0
40
0
40
0
40
0
40
0.0511231219248105
40
0.0511231219248105
40
0.387790582089176
40
0.387790582089176
40
0.835355865366703
40
0.835355865366703
40
1
40
1
40
1
40
1
41
1
10
17.1796339400614
20
-4.92508201088356
30
0
41
1
10
17.177200497463
20
-4.92028702018567
30
0
41
1
10
17.1748629913406
20
-4.91545785284671
30
0
41
1
10
17.1580090319122
20
-4.87890155042837
30
0
41
1
10
17.1475919404275
20
-4.84574945281739
30
0
41
1
10
17.1336701013216
20
-4.77053756227585
30
0
41
1
10
17.1331804594647
20
-4.72784037739305
30
0
41
1
10
17.1411054479204
20
-4.67312463794974
30
0
41
1
10
17.1441056017189
20
-4.65860741601057
30
0
41
1
10
17.1479032117198
20
-4.64444138536348
30
0
0
SPLINE
5
C8
100
AcDbEntity
8
1
62
256
6
ByLayer
370
-1
48
1
60
0
100
AcDbSpline
70
4
71
3
72
18
73
14
40
0
40
0
40
0
40
0
40
0.204914692947067
40
0.204914692947067
40
0.382005454660964
40
0.382005454660964
40
0.560833569188911
40
0.560833569188911
40
0.716048978439801
40
0.716048978439801
40
0.920786371107035
40
0.920786371107035
40
1
40
1
40
1
40
1
41
1
10
16.2628208079409
20
-6.20357831744295
30
0
41
1
10
16.2921969580618
20
-6.17220196292439
30
0
41
1
10
16.3269336428585
20
-6.14441041897115
30
0
41
1
10
16.3993374127245
20
-6.10380636341114
30
0
41
1
10
16.4368461306432
20
-6.08910892128668
30
0
41
1
10
16.5152815942504
20
-6.07179762537049
30
0
41
1
10
16.5574327695662
20
-6.06918098757438
30
0
41
1
10
16.6332123413082
20
-6.07655322473505
30
0
41
1
10
16.6681402416277
20
-6.08495009842972
30
0
41
1
10
16.7428498039733
20
-6.11330505554994
30
0
41
1
10
16.7819639793929
20
-6.13642515997032
30
0
41
1
10
16.8289927088221
20
-6.17455639304734
30
0
41
1
10
16.8415199544742
20
-6.18600370961789
30
0
41
1
10
16.8532894654006
20
-6.19804802862626
30
0
0
SPLINE
5
C9
100
AcDbEntity
8
1
62
256
6
ByLayer
370
-1
48
1
60
0
100
AcDbSpline
70
4
71
3
72
16
73
12
40
0
40
0
40
0
40
0
40
0.0460452398607706
40
0.0460452398607706
40
0.270998723112009
40
0.270998723112009
40
0.497753198086055
40
0.497753198086055
40
0.738112877011361
40
0.738112877011361
40
1
40
1
40
1
40
1
41
1
10
16.0256068463398
20
-4.45594536869669
30
0
41
1
10
16.0289530090167
20
-4.45398331194298
30
0
41
1
10
16.0323630065129
20
-4.45211931478588
30
0
41
1
10
16.0525912607183
20
-4.44183791992523
30
0
41
1
10
16.0708687002733
20
-4.4357111725721
30
0
41
1
10
16.1075706269627
20
-4.42899432252943
30
0
41
1
10
16.1264612404831
20
-4.42834952606202
30
0
41
1
10
16.1634655406037
20
-4.43225713987167
30
0
41
1
10
16.1819312320638
20
-4.43715358291317
30
0
41
1
10
16.2168307826815
20
-4.45207190490106
30
0
41
1
10
16.2333797736639
20
-4.46267808841981
30
0
41
1
10
16.2473600088782
20
-4.47511628727852
30
0
0
SPLINE
5
CA
100
AcDbEntity
8
1
62
256
6
ByLayer
370
-1
48
1
60
0
100
AcDbSpline
70
4
71
3
72
16
73
12
40
0
40
0
40
0
40
0
40
0.0471205840967029
40
0.0471205840967029
40
0.271416752230258
40
0.271416752230258
40
0.497577495029597
40
0.497577495029597
40
0.737361115607332
40
0.737361115607332
40
1
40
1
40
1
40
1
41
1
10
17.0597829871408
20
-4.44625934612338
30
0
41
1
10
17.063251932967
20
-4.44820797041081
30
0
41
1
10
17.0666593635488
20
-4.45026354689298
30
0
41
1
10
17.0857248969869
20
-4.46258796580386
30
0
41
1
10
17.1000011287721
20
-4.47519317880861
30
0
41
1
10
17.1235928196017
20
-4.50318849296178
30
0
41
1
10
17.1331782297275
20
-4.51894943779371
30
0
41
1
10
17.1472381447956
20
-4.55230098418036
30
0
41
1
10
17.1515646598615
20
-4.57035568555958
30
0
41
1
10
17.1545570805119
20
-4.60728300025193
30
0
41
1
10
17.1527043215482
20
-4.62653205055679
30
0
41
1
10
17.1479032117199
20
-4.64444138536305
30
0
0
SPLINE
5
CB
100
AcDbEntity
8
1
62
256
6
ByLayer
370
-1
48
1
60
0
100
AcDbSpline
70
4
71
3
72
14
73
10
40
0
40
0
40
0
40
0
40
0.282590978366166
40
0.282590978366166
40
0.569485545517832
40
0.569485545517832
40
0.829404839797144
40
0.829404839797144
40
1
40
1
40
1
40
1
41
1
10
15.6525067314817
20
-5.52128242591897
30
0
41
1
10
15.6322081476754
20
-5.51693870302685
30
0
41
1
10
15.6122221667646
20
-5.50882470684692
30
0
41
1
10
15.5761909102048
20
-5.48543068870595
30
0
41
1
10
15.5596752085627
20
-5.46964757283297
30
0
41
1
10
15.5351577475817
20
-5.43421793602744
30
0
41
1
10
15.526163103041
20
-5.41451848809831
30
0
41
1
10
15.5176346377319
20
-5.38020684794949
30
0
41
1
10
15.5158281875942
20
-5.36591160320805
30
0
41
1
10
15.5157189661975
20
-5.35163709757632
30
0
0
SPLINE
5
CC
100
AcDbEntity
8
1
62
256
6
ByLayer
370
-1
48
1
60
0
100
AcDbSpline
70
4
71
3
72
18
73
14
40
0
40
0
40
0
40
0
40
0.0404512052144428
40
0.0404512052144428
40
0.265551297205624
40
0.265551297205624
40
0.492132330871814
40
0.492132330871814
40
0.732059424515074
40
0.732059424515074
40
0.994727183093964
40
0.994727183093964
40
1
40
1
40
1
40
1
41
1
10
17.0757435516819
20
-6.23059336895054
30
0
41
1
10
17.0728023996246
20
-6.23231794357966
30
0
41
1
10
17.0698116720358
20
-6.23395785163709
30
0
41
1
10
17.0500623020174
20
-6.24405918140943
30
0
41
1
10
17.0317930648969
20
-6.24994893127007
30
0
41
1
10
16.9950575534383
20
-6.25568766927458
30
0
41
1
10
16.9761240102047
20
-6.25558416524598
30
0
41
1
10
16.9389870523918
20
-6.24973014730327
30
0
41
1
10
16.9204241517642
20
-6.24359384642602
30
0
41
1
10
16.8851722577299
20
-6.22571789663107
30
0
41
1
10
16.8683751887034
20
-6.21329834868823
30
0
41
1
10
16.8538639580015
20
-6.19863408860948
30
0
41
1
10
16.8535762257165
20
-6.19834148455189
30
0
41
1
10
16.8532894654006
20
-6.19804802862626
30
0
0
SPLINE
5
CD
100
AcDbEntity
8
1
62
256
6
ByLayer
370
-1
48
1
60
0
100
AcDbSpline
70
4
71
3
72
20
73
16
40
0
40
0
40
0
40
0
40
0.0757905046229772
40
0.0757905046229772
40
0.279356921086241
40
0.279356921086241
40
0.443989619324647
40
0.443989619324647
40
0.609480373340816
40
0.609480373340816
40
0.763932594347649
40
0.763932594347649
40
0.982415684104524
40
0.982415684104524
40
1
40
1
40
1
40
1
41
1
10
15.9402982638859
20
-4.65516508607669
30
0
41
1
10
15.944224388204
20
-4.66925898861115
30
0
41
1
10
15.9473617613505
20
-4.68371632924669
30
0
41
1
10
15.9557626045016
20
-4.73785298836691
30
0
41
1
10
15.9558007305081
20
-4.7800467452403
30
0
41
1
10
15.9427983454208
20
-4.85695869550605
30
0
41
1
10
15.932014275315
20
-4.89241234950052
30
0
41
1
10
15.9010304498336
20
-4.9600605858692
30
0
41
1
10
15.8803315358898
20
-4.99310769831172
30
0
41
1
10
15.8341430277857
20
-5.04963253056724
30
0
41
1
10
15.8085740010749
20
-5.07429876352049
30
0
41
1
10
15.743646343864
20
-5.12454995953368
30
0
41
1
10
15.7018746323135
20
-5.14729890474115
30
0
41
1
10
15.656097093325
20
-5.16415928327763
30
0
41
1
10
15.6526394224678
20
-5.16538479551573
30
0
41
1
10
15.6491749240949
20
-5.1665652932397
30
0
0
SPLINE
5
CE
100
AcDbEntity
8
1
62
256
6
ByLayer
370
-1
48
1
60
0
100
AcDbSpline
70
4
71
3
72
14
73
10
40
0
40
0
40
0
40
0
40
0.256958313436397
40
0.256958313436397
40
0.547622507120784
40
0.547622507120784
40
0.810673608756216
40
0.810673608756216
40
1
40
1
40
1
40
1
41
1
10
16.837828666337
20
-4.46958599846286
30
0
41
1
10
16.8514196797075
20
-4.45711676295971
30
0
41
1
10
16.8675093489572
20
-4.44636891947414
30
0
41
1
10
16.9052366759808
20
-4.42920560103855
30
0
41
1
10
16.9279578938874
20
-4.4233141217459
30
0
41
1
10
16.9723663586973
20
-4.42033315917058
30
0
41
1
10
16.9946233644022
20
-4.422453576994
30
0
41
1
10
17.0309862335245
20
-4.43237716277412
30
0
41
1
10
17.0459678032844
20
-4.43849888973477
30
0
41
1
10
17.0597829871408
20
-4.44625934612338
30
0
0
SPLINE
5
CF
100
AcDbEntity
8
1
62
256
6
ByLayer
370
-1
48
1
60
0
100
AcDbSpline
70
4
71
3
72
16
73
12
40
0
40
0
40
0
40
0
40
0.051194955226936
40
0.051194955226936
40
0.276040919584089
40
0.276040919584089
40
0.502980860232611
40
0.502980860232611
40
0.743764416602041
40
0.743764416602041
40
1
40
1
40
1
40
1
41
1
10
17.585631431824
20
-5.33490164007091
30
0
41
1
10
17.5856642862313
20
-5.33919549124386
30
0
41
1
10
17.5855455721042
20
-5.34348671722785
30
0
41
1
10
17.5841018069586
20
-5.36635837605309
30
0
41
1
10
17.5799598570653
20
-5.38483674209127
30
0
41
1
10
17.5665779055039
20
-5.41878337127258
30
0
41
1
10
17.5571336227454
20
-5.43466053024562
30
0
41
1
10
17.5339160468465
20
-5.46280411097172
30
0
41
1
10
17.5196384493209
20
-5.47515663078997
30
0
41
1
10
17.4878545956937
20
-5.49496361981878
30
0
41
1
10
17.4698345130605
20
-5.50230958877066
30
0
41
1
10
17.4514745501839
20
-5.50659902266517
30
0
0
SPLINE
5
D0
100
AcDbEntity
8
1
62
256
6
ByLayer
370
-1
48
1
60
0
100
AcDbSpline
70
4
71
3
72
16
73
12
40
0
40
0
40
0
40
0
40
0.065206700222473
40
0.065206700222473
40
0.289127534717516
40
0.289127534717516
40
0.515935964757232
40
0.515935964757232
40
0.757196971650071
40
0.757196971650071
40
1
40
1
40
1
40
1
41
1
10
16.0415674108808
20
-6.24027939152384
30
0
41
1
10
16.0367749446643
20
-6.23758730103461
30
0
41
1
10
16.0320972566187
20
-6.23466691931873
30
0
41
1
10
16.0121152771976
20
-6.22087184723662
30
0
41
1
10
15.9981767943219
20
-6.20755012844558
30
0
41
1
10
15.9752336957914
20
-6.17772680904827
30
0
41
1
10
15.9659911264444
20
-6.16081616775793
30
0
41
1
10
15.9526232050495
20
-6.12479174453748
30
0
41
1
10
15.9486751670164
20
-6.10516242099285
30
0
41
1
10
15.9465693866875
20
-6.06649935420816
30
0
41
1
10
15.9483999233219
20
-6.04705589386992
30
0
41
1
10
15.9527428449535
20
-6.02865771874107
30
0
0
SPLINE
5
D1
100
AcDbEntity
8
1
62
256
6
ByLayer
370
-1
48
1
60
0
100
AcDbSpline
70
4
71
3
72
12
73
8
40
0
40
0
40
0
40
0
40
0.450723035789885
40
0.450723035789885
40
0.834437483165044
40
0.834437483165044
40
1
40
1
40
1
40
1
41
1
10
15.6525067314817
20
-5.52128242591897
30
0
41
1
10
15.6931500072591
20
-5.52997973845501
30
0
41
1
10
15.7334638215425
20
-5.54532165917362
30
0
41
1
10
15.8026407731216
20
-5.58649388742495
30
0
41
1
10
15.8330512496933
20
-5.6109938411405
30
0
41
1
10
15.8707986094705
20
-5.65268527945301
30
0
41
1
10
15.8815363536368
20
-5.66621705388141
30
0
41
1
10
15.8913783173025
20
-5.68046388832505
30
0
0
SPLINE
5
D2
100
AcDbEntity
8
1
62
256
6
ByLayer
370
-1
48
1
60
0
100
AcDbSpline
70
4
71
3
72
14
73
10
40
0
40
0
40
0
40
0
40
0.239186417563789
40
0.239186417563789
40
0.539118228351082
40
0.539118228351082
40
0.803463463753887
40
0.803463463753887
40
1
40
1
40
1
40
1
41
1
10
17.1603512103946
20
-6.01799922982693
30
0
41
1
10
17.1649545113573
20
-6.03598667598126
30
0
41
1
10
17.1671500958307
20
-6.05501439652616
30
0
41
1
10
17.1658266759086
20
-6.09789196596623
30
0
41
1
10
17.1606008122861
20
-6.1224760924909
30
0
41
1
10
17.1422459743618
20
-6.16499107399949
30
0
41
1
10
17.1298107742183
20
-6.18399332407216
30
0
41
1
10
17.1031509402039
20
-6.21180542997703
30
0
41
1
10
17.0899493061239
20
-6.22226367935221
30
0
41
1
10
17.0757435516819
20
-6.23059336895054
30
0
0
SPLINE
5
D3
100
AcDbEntity
8
1
62
256
6
ByLayer
370
-1
48
1
60
0
100
AcDbSpline
70
4
71
3
72
18
73
14
40
0
40
0
40
0
40
0
40
0.205333735185251
40
0.205333735185251
40
0.382350621904467
40
0.382350621904467
40
0.561099987333734
40
0.561099987333734
40
0.716299780721602
40
0.716299780721602
40
0.921110538721985
40
0.921110538721985
40
1
40
1
40
1
40
1
41
1
10
17.1603512103927
20
-6.01799922982727
30
0
41
1
10
17.1495415757575
20
-5.9757604706133
30
0
41
1
10
17.1444590853122
20
-5.93074975433709
30
0
41
1
10
17.1480324408927
20
-5.8463402220363
30
0
41
1
10
17.1550351994591
20
-5.80607102012044
30
0
41
1
10
17.1804519321495
20
-5.72916047563621
30
0
41
1
10
17.1994696180501
20
-5.69146892875315
30
0
41
1
10
17.2433185628419
20
-5.63028095325319
30
0
41
1
10
17.2675338779908
20
-5.60479867320919
30
0
41
1
10
17.3277467266633
20
-5.55589093255617
30
0
41
1
10
17.365977688861
20
-5.53474753085024
30
0
41
1
10
17.4203649030408
20
-5.51485059419062
30
0
41
1
10
17.4358595285828
20
-5.51024715656231
30
0
41
1
10
17.4514745501839
20
-5.5065990226652
30
0
0
SPLINE
5
D4
100
AcDbEntity
8
1
62
256
6
ByLayer
370
-1
48
1
60
0
100
AcDbSpline
70
4
71
3
72
16
73
12
40
0
40
0
40
0
40
0
40
0.0641694543775944
40
0.0641694543775944
40
0.288776631108577
40
0.288776631108577
40
0.516210810427174
40
0.516210810427174
40
0.758084382679617
40
0.758084382679617
40
1
40
1
40
1
40
1
41
1
10
15.5157189661975
20
-5.35163709757632
30
0
41
1
10
15.5156778383657
20
-5.34626196517945
30
0
41
1
10
15.5158732950271
20
-5.34086757020253
30
0
41
1
10
15.5177987694713
20
-5.316799028215
30
0
41
1
10
15.5222374718323
20
-5.29801987917244
30
0
41
1
10
15.5361311256897
20
-5.26301827874622
30
0
41
1
10
15.5458116806251
20
-5.24638003838334
30
0
41
1
10
15.5694444693626
20
-5.21631326145561
30
0
41
1
10
15.5839094345968
20
-5.20276661301637
30
0
41
1
10
15.6149923555315
20
-5.18095622491225
30
0
41
1
10
15.631928506451
20
-5.17244186022984
30
0
41
1
10
15.6491749240949
20
-5.1665652932397
30
0
0
SPLINE
5
D5
100
AcDbEntity
8
1
62
256
6
ByLayer
370
-1
48
1
60
0
100
AcDbSpline
70
4
71
3
72
18
73
14
40
0
40
0
40
0
40
0
40
0.212696939477601
40
0.212696939477601
40
0.388421206405174
40
0.388421206405174
40
0.565791800767775
40
0.565791800767775
40
0.720732211085729
40
0.720732211085729
40
0.926842998532445
40
0.926842998532445
40
1
40
1
40
1
40
1
41
1
10
16.8378286663371
20
-4.46958599846286
30
0
41
1
10
16.8071053522563
20
-4.4977734653036
30
0
41
1
10
16.7705894781853
20
-4.52237011866197
30
0
41
1
10
16.6960135489263
20
-4.5567762216391
30
0
41
1
10
16.6584380419401
20
-4.56872540706428
30
0
41
1
10
16.5802093654991
20
-4.58252171674596
30
0
41
1
10
16.5383600596419
20
-4.58438397365978
30
0
41
1
10
16.4631433409376
20
-4.57780497247583
30
0
41
1
10
16.4284703173761
20
-4.57060341035276
30
0
41
1
10
16.354087165967
20
-4.54624857793735
30
0
41
1
10
16.3151500815302
20
-4.52629239218976
30
0
41
1
10
16.269580751149
20
-4.4938377889759
30
0
41
1
10
16.2581471644685
20
-4.48471360694413
30
0
41
1
10
16.2473600088782
20
-4.47511628727852
30
0
0
SPLINE
5
D6
100
AcDbEntity
8
1
62
256
6
ByLayer
370
-1
48
1
60
0
100
AcDbSpline
70
4
71
3
72
14
73
10
40
0
40
0
40
0
40
0
40
0.0432409239881691
40
0.0432409239881691
40
0.38060283941928
40
0.38060283941928
40
0.826355235208091
40
0.826355235208091
40
1
40
1
40
1
40
1
41
1
10
15.9200073319331
20
-5.72884465942366
30
0
41
1
10
15.9220683528998
20
-5.73295468030375
30
0
41
1
10
15.9240613701645
20
-5.73710217248788
30
0
41
1
10
15.940850456305
20
-5.77359294928004
30
0
41
1
10
15.9515642725386
20
-5.80821185347324
30
0
41
1
10
15.9661321630376
20
-5.8878595678118
30
0
41
1
10
15.9670755321315
20
-5.93398917721615
30
0
41
1
10
15.9597154996227
20
-5.99499495274821
30
0
41
1
10
15.9566744556089
20
-6.0120020045666
30
0
41
1
10
15.9527428449535
20
-6.02865771874107
30
0
0
SPLINE
5
D7
100
AcDbEntity
8
1
62
256
6
ByLayer
370
-1
48
1
60
0
100
AcDbSpline
70
4
71
3
72
14
73
10
40
0
40
0
40
0
40
0
40
0.255265303343054
40
0.255265303343054
40
0.546141296361418
40
0.546141296361418
40
0.809366762365004
40
0.809366762365004
40
1
40
1
40
1
40
1
41
1
10
15.9402982638859
20
-4.65516508607669
30
0
41
1
10
15.9354781051697
20
-4.63786180129944
30
0
41
1
10
15.9334082343436
20
-4.61926220478225
30
0
41
1
10
15.9358115983155
20
-4.57924901539511
30
0
41
1
10
15.941332137749
20
-4.55715994814142
30
0
41
1
10
15.9598961148206
20
-4.51802883321335
30
0
41
1
10
15.9724918262608
20
-4.50012883352559
30
0
41
1
10
15.9990058966312
20
-4.47388846422211
30
0
41
1
10
16.0118388189255
20
-4.46401839256956
30
0
41
1
10
16.0256068463398
20
-4.45594536869669
30
0
0
SPLINE
5
D8
100
AcDbEntity
8
1
62
256
6
ByLayer
370
-1
48
1
60
0
100
AcDbSpline
70
4
71
3
72
12
73
8
40
0
40
0
40
0
40
0
40
0.463021723990065
40
0.463021723990065
40
0.844666302259636
40
0.844666302259636
40
1
40
1
40
1
40
1
41
1
10
17.4481393251912
20
-5.15181667818553
30
0
41
1
10
17.4061625214897
20
-5.13848189870896
30
0
41
1
10
17.3645256921699
20
-5.11837815649781
30
0
41
1
10
17.2944655585201
20
-5.06992572000598
30
0
41
1
10
17.2642695838049
20
-5.04302887361047
30
0
41
1
10
17.2275544263615
20
-5.00013478843636
30
0
41
1
10
17.2175107428186
20
-4.98702932945741
30
0
41
1
10
17.208262954692
20
-4.97346278198208
30
0
0
SPLINE
5
D9
100
AcDbEntity
8
1
62
256
6
ByLayer
370
-1
48
1
60
0
100
AcDbSpline
70
4
71
3
72
14
73
10
40
0
40
0
40
0
40
0
40
0.264573489423197
40
0.264573489423197
40
0.553722229188857
40
0.553722229188857
40
0.815460757434172
40
0.815460757434172
40
1
40
1
40
1
40
1
41
1
10
17.4481393251912
20
-5.1518166781855
30
0
41
1
10
17.4672527497081
20
-5.15788844350587
30
0
41
1
10
17.4860695442194
20
-5.16715790713832
30
0
41
1
10
17.5217449386167
20
-5.19254548381687
30
0
41
1
10
17.5387990826125
20
-5.20966490034766
30
0
41
1
10
17.5643372410545
20
-5.24713565618603
30
0
41
1
10
17.5738349574939
20
-5.26761520903301
30
0
41
1
10
17.5833943697272
20
-5.3038091922713
30
0
41
1
10
17.5855133198746
20
-5.31946519869331
30
0
41
1
10
17.585631431824
20
-5.33490164007091
30
0
0
SPLINE
5
DA
100
AcDbEntity
8
1
62
256
6
ByLayer
370
-1
48
1
60
0
100
AcDbSpline
70
4
71
3
72
14
73
10
40
0
40
0
40
0
40
0
40
0.282258915997218
40
0.282258915997218
40
0.56975562859057
40
0.56975562859057
40
0.83024374028883
40
0.83024374028883
40
1
40
1
40
1
40
1
41
1
10
16.2628208079409
20
-6.20357831744295
30
0
41
1
10
16.2480078742565
20
-6.21939985487452
30
0
41
1
10
16.230140734339
20
-6.23305108257742
30
0
41
1
10
16.1903153178296
20
-6.25333009961071
30
0
41
1
10
16.1676526191302
20
-6.26009985858903
30
0
41
1
10
16.1235912040802
20
-6.26414753277336
30
0
41
1
10
16.1016073673625
20
-6.26228033617409
30
0
41
1
10
16.0672694258552
20
-6.25272807172598
30
0
41
1
10
16.0539601302367
20
-6.24724080145486
30
0
41
1
10
16.0415674108808
20
-6.24027939152384
30
0
0
LINE
5
4A
100
AcDbEntity
8
80
62
256
6
ByLayer
370
-1
48
1
60
0
100
AcDbLine
10
0
20
0
30
0
11
-10
21
0
31
0
39
0
210
0
220
0
230
1
0
LINE
5
4B
100
AcDbEntity
8
81
62
256
6
ByLayer
370
-1
48
1
60
0
100
AcDbLine
10
20
20
-10.9
30
0
11
30
21
-10.9
31
0
39
0
210
0
220
0
230
1
0
LINE
5
4C
100
AcDbEntity
8
SK1
62
256
6
ByLayer
370
-1
48
1
60
0
100
AcDbLine
10
-0.221242
20
1.955
30
0
11
-1.49
21
1.955
31
0
39
0
210
0
220
0
230
1
0
LINE
5
4E
100
AcDbEntity
8
SK1
62
256
6
ByLayer
370
-1
48
1
60
0
100
AcDbLine
10
-1.49
20
-1.955
30
0
11
-0.221242
21
-1.955
31
0
39
0
210
0
220
0
230
1
0
LINE
5
4F
100
AcDbEntity
8
1
62
256
6
ByLayer
370
-1
48
1
60
0
100
AcDbLine
10
15.953636
20
-4.737124
30
0
11
15.949031
21
-4.649262
31
0
39
0
210
0
220
0
230
1
0
LINE
5
50
100
AcDbEntity
8
1
62
256
6
ByLayer
370
-1
48
1
60
0
100
AcDbLine
10
17.131067
20
-4.6765
30
0
11
17.135593
21
-4.762847
31
0
39
0
210
0
220
0
230
1
0
LINE
5
51
100
AcDbEntity
8
1
62
256
6
ByLayer
370
-1
48
1
60
0
100
AcDbLine
10
14.823398
20
-5.344982
30
0
11
14.827142
21
-5.416433
31
0
39
0
210
0
220
0
230
1
0
LINE
5
52
100
AcDbEntity
8
1
62
256
6
ByLayer
370
-1
48
1
60
0
100
AcDbLine
10
18.272414
20
-5.235874
30
0
11
18.26867
21
-5.164423
31
0
39
0
210
0
220
0
230
1
0
LINE
5
53
100
AcDbEntity
8
1
62
256
6
ByLayer
370
-1
48
1
60
0
100
AcDbLine
10
17.142005
20
-5.840463
30
0
11
17.146607
21
-5.928285
31
0
39
0
210
0
220
0
230
1
0
LINE
5
54
100
AcDbEntity
8
1
62
256
6
ByLayer
370
-1
48
1
60
0
100
AcDbLine
10
15.964494
20
-5.899575
30
0
11
15.959968
21
-5.813224
31
0
39
0
210
0
220
0
230
1
0
LINE
5
55
100
AcDbEntity
8
SK1
62
256
6
ByLayer
370
-1
48
1
60
0
100
AcDbLine
10
-1.49
20
1.955
30
0
11
-1.99
21
1.821025
31
0
39
0
210
0
220
0
230
1
0
LINE
5
56
100
AcDbEntity
8
SK1
62
256
6
ByLayer
370
-1
48
1
60
0
100
AcDbLine
10
-1.99
20
-1.821025
30
0
11
-1.49
21
-1.955
31
0
39
0
210
0
220
0
230
1
0
LINE
5
57
100
AcDbEntity
8
SK4
62
256
6
ByLayer
370
-1
48
0.05
60
0
100
AcDbLine
10
-10
20
0
30
0
11
24.76821
21
0
31
0
39
0
210
0
220
0
230
1
0
LINE
5
59
100
AcDbEntity
8
4
62
256
6
ByLayer
370
-1
48
0.05
60
0
100
AcDbLine
10
0
20
0
30
0
11
29.76821
21
0
31
0
39
0
210
0
220
0
230
1
0
LINE
5
5B
100
AcDbEntity
8
SK1
62
256
6
ByLayer
370
-1
48
1
60
0
100
AcDbLine
10
-1.99
20
1.821025
30
0
11
-1.99
21
-1.821025
31
0
39
0
210
0
220
0
230
1
0
LINE
5
5C
100
AcDbEntity
8
SK1
62
256
6
ByLayer
370
-1
48
1
60
0
100
AcDbLine
10
-1.49
20
1.955
30
0
11
-1.49
21
-1.955
31
0
39
0
210
0
220
0
230
1
0
LINE
5
5D
100
AcDbEntity
8
SK1
62
256
6
ByLayer
370
-1
48
1
60
0
100
AcDbLine
10
-0.221234
20
7.141428
30
0
11
-0.221234
21
-7.141428
31
0
39
0
210
0
220
0
230
1
0
LINE
5
5E
100
AcDbEntity
8
SK1
62
256
6
ByLayer
370
-1
48
1
60
0
100
AcDbLine
10
0
20
7.365924
30
0
11
0
21
-7.365924
31
0
39
0
210
0
220
0
230
1
0
LINE
5
5F
100
AcDbEntity
8
1
62
256
6
ByLayer
370
-1
48
1
60
0
100
AcDbLine
10
0
20
7.365924
30
0
11
0
21
-7.365924
31
0
39
0
210
0
220
0
230
1
0
LINE
5
60
100
AcDbEntity
8
1
62
256
6
ByLayer
370
-1
48
1
60
0
100
AcDbLine
10
12.634121
20
-2.0372
30
0
11
12.645226
21
-2.24908
31
0
39
0
210
0
220
0
230
1
0
LINE
5
61
100
AcDbEntity
8
1
62
256
6
ByLayer
370
-1
48
1
60
0
100
AcDbLine
10
13.217039
20
-2.399593
30
0
11
12.634121
21
-2.0372
31
0
39
0
210
0
220
0
230
1
0
LINE
5
62
100
AcDbEntity
8
1
62
256
6
ByLayer
370
-1
48
1
60
0
100
AcDbLine
10
12.436242
20
-0.108231
30
0
11
12.445953
21
-0.293537
31
0
39
0
210
0
220
0
230
1
0
LINE
5
63
100
AcDbEntity
8
1
62
256
6
ByLayer
370
-1
48
1
60
0
100
AcDbLine
10
14.480253
20
-0.33338
30
0
11
14.47578
21
-0.248035
31
0
39
0
210
0
220
0
230
1
0
LINE
5
64
100
AcDbEntity
8
1
62
256
6
ByLayer
370
-1
48
1
60
0
100
AcDbLine
10
0.528766
20
7.90174
30
0
11
0.528766
21
-7.90174
31
0
39
0
210
0
220
0
230
1
0
LINE
5
65
100
AcDbEntity
8
1
62
256
6
ByLayer
370
-1
48
1
60
0
100
AcDbLine
10
7.538773
20
-7.301717
30
0
11
10.006705
21
-7.793326
31
0
39
0
210
0
220
0
230
1
0
LINE
5
66
100
AcDbEntity
8
1
62
256
6
ByLayer
370
-1
48
1
60
0
100
AcDbLine
10
7.538773
20
-7.301717
30
0
11
6.738611
21
1.7995
31
0
39
0
210
0
220
0
230
1
0
LINE
5
67
100
AcDbEntity
8
1
62
256
6
ByLayer
370
-1
48
1
60
0
100
AcDbLine
10
6.427934
20
5.333212
30
0
11
6.320029
21
6.560545
31
0
39
0
210
0
220
0
230
1
0
LINE
5
68
100
AcDbEntity
8
1
62
256
6
ByLayer
370
-1
48
1
60
0
100
AcDbLine
10
6.381362
20
-7.886392
30
0
11
6.168023
21
-5.459831
31
0
39
0
210
0
220
0
230
1
0
LINE
5
69
100
AcDbEntity
8
1
62
256
6
ByLayer
370
-1
48
1
60
0
100
AcDbLine
10
5.771498
20
-0.949671
30
0
11
5.61247
21
0.859151
31
0
39
0
210
0
220
0
230
1
0
LINE
5
6A
100
AcDbEntity
8
1
62
256
6
ByLayer
370
-1
48
1
60
0
100
AcDbLine
10
5.157412
20
6.035077
30
0
11
5.031438
21
7.467931
31
0
39
0
210
0
220
0
230
1
0
LINE
5
6B
100
AcDbEntity
8
1
62
256
6
ByLayer
370
-1
48
1
60
0
100
AcDbLine
10
6.38652
20
-7.90174
30
0
11
9.743825
21
-7.90174
31
0
39
0
210
0
220
0
230
1
0
LINE
5
6C
100
AcDbEntity
8
1
62
256
6
ByLayer
370
-1
48
1
60
0
100
AcDbLine
10
6.322091
20
-7.059355
30
0
11
7.538773
21
-7.301717
31
0
39
0
210
0
220
0
230
1
0
LINE
5
6D
100
AcDbEntity
8
1
62
256
6
ByLayer
370
-1
48
1
60
0
100
AcDbLine
10
0.528766
20
7.90174
30
0
11
5.118701
21
7.90174
31
0
39
0
210
0
220
0
230
1
0
LINE
5
6E
100
AcDbEntity
8
1
62
256
6
ByLayer
370
-1
48
1
60
0
100
AcDbLine
10
19.416444
20
-3.18111
30
0
11
19.220656
21
0.554746
31
0
39
0
210
0
220
0
230
1
0
LINE
5
6F
100
AcDbEntity
8
1
62
256
6
ByLayer
370
-1
48
1
60
0
100
AcDbLine
10
11.640547
20
4.534831
30
0
11
15.026522
21
4.534831
31
0
39
0
210
0
220
0
230
1
0
LINE
5
70
100
AcDbEntity
8
1
62
256
6
ByLayer
370
-1
48
1
60
0
100
AcDbLine
10
6.386534
20
-7.90174
30
0
11
0.528766
21
-7.90174
31
0
39
0
210
0
220
0
230
1
0
LINE
5
71
100
AcDbEntity
8
1
62
256
6
ByLayer
370
-1
48
1
60
0
100
AcDbLine
10
13.228147
20
-2.611476
30
0
11
12.645226
21
-2.24908
31
0
39
0
210
0
220
0
230
1
0
LINE
5
72
100
AcDbEntity
8
1
62
256
6
ByLayer
370
-1
48
1
60
0
100
AcDbLine
10
9.743825
20
-7.90174
30
0
11
9.80293
21
-7.842348
31
0
39
0
210
0
220
0
230
1
0
LINE
5
73
100
AcDbEntity
8
1
62
256
6
ByLayer
370
-1
48
1
60
0
100
AcDbLine
10
19.646198
20
-3.743616
30
0
11
19.999461
21
-10.484281
31
0
39
0
210
0
220
0
230
1
0
LINE
5
74
100
AcDbEntity
8
1
62
256
6
ByLayer
370
-1
48
1
60
0
100
AcDbLine
10
13.45554
20
-6.950327
30
0
11
13.102277
21
-0.209662
31
0
39
0
210
0
220
0
230
1
0
LINE
5
75
100
AcDbEntity
8
1
62
256
6
ByLayer
370
-1
48
1
60
0
100
AcDbLine
10
13.709003
20
0.146097
30
0
11
19.460262
21
-3.429398
31
0
39
0
210
0
220
0
230
1
0
LINE
5
76
100
AcDbEntity
8
1
62
256
6
ByLayer
370
-1
48
1
60
0
100
AcDbLine
10
19.392736
20
-10.84004
30
0
11
13.641477
21
-7.264545
31
0
39
0
210
0
220
0
230
1
0
LINE
5
77
100
AcDbEntity
8
1
62
256
6
ByLayer
370
-1
48
1
60
0
100
AcDbLine
10
16.258014
20
-6.111858
30
0
11
16.262821
21
-6.203578
31
0
39
0
210
0
220
0
230
1
0
LINE
5
78
100
AcDbEntity
8
1
62
256
6
ByLayer
370
-1
48
1
60
0
100
AcDbLine
10
15.936946
20
-4.591209
30
0
11
15.940298
21
-4.655165
31
0
39
0
210
0
220
0
230
1
0
LINE
5
79
100
AcDbEntity
8
1
62
256
6
ByLayer
370
-1
48
1
60
0
100
AcDbLine
10
17.446668
20
-5.414879
30
0
11
17.451475
21
-5.506599
31
0
39
0
210
0
220
0
230
1
0
LINE
5
7A
100
AcDbEntity
8
1
62
256
6
ByLayer
370
-1
48
1
60
0
100
AcDbLine
10
16.848483
20
-6.106328
30
0
11
16.853289
21
-6.198048
31
0
39
0
210
0
220
0
230
1
0
LINE
5
7B
100
AcDbEntity
8
1
62
256
6
ByLayer
370
-1
48
1
60
0
100
AcDbLine
10
17.143098
20
-4.552754
30
0
11
17.147903
21
-4.644441
31
0
39
0
210
0
220
0
230
1
0
LINE
5
7C
100
AcDbEntity
8
1
62
256
6
ByLayer
370
-1
48
1
60
0
100
AcDbLine
10
15.915705
20
-5.646743
30
0
11
15.920007
21
-5.728845
31
0
39
0
210
0
220
0
230
1
0
LINE
5
7D
100
AcDbEntity
8
1
62
256
6
ByLayer
370
-1
48
1
60
0
100
AcDbLine
10
15.891378
20
-5.680464
30
0
11
15.887076
21
-5.598363
31
0
39
0
210
0
220
0
230
1
0
LINE
5
7E
100
AcDbEntity
8
1
62
256
6
ByLayer
370
-1
48
1
60
0
100
AcDbLine
10
15.647702
20
-5.429595
30
0
11
15.652507
21
-5.521282
31
0
39
0
210
0
220
0
230
1
0
LINE
5
7F
100
AcDbEntity
8
2
62
256
6
ByLayer
370
-1
48
1
60
1
100
AcDbLine
10
20
20
0
30
0
11
20.001
21
0.001
31
0
39
0
210
0
220
0
230
1
0
MTEXT
5
DB
100
AcDbEntity
8
SK6
62
256
6
ByLayer
370
-1
48
1
60
0
100
AcDbMText
10
10.875
20
15.675
30
0
210
0
220
0
230
1
1
\W00.715;\fsimplex.shx,bigfont.shx;570-SDUCL-16-07 
40
3.5
41
0
44
1.084337
50
0
71
7
72
5
7
DEFAULT
0
DIMENSION
5
10F
100
AcDbEntity
8
SK2
62
256
6
ByLayer
370
-3
48
1
60
0
100
AcDbDimension
2
DimnDraft3D1
10
-9.75
20
-8
30
0
11
-9.75
21
-4.221711
31
0
70
32
71
5
72
1
41
1
210
0
220
0
230
1
3
Standard
100
AcDbAlignedDimension
13
-2
23
8
33
0
14
-2
24
-8
34
0
50
90
100
AcDbRotatedDimension
1001
ACAD
1000
DSTYLE
1002
{
1070
    74
1070
     0
1070
   279
1070
     0
1070
   172
1070
     1
1070
   173
1070
     1
1070
   340
1005
DC
1070
    77
1070
     1
1070
    73
1070
     0
1070
   171
1070
     4
1070
   274
1070
     4
1070
   177
1070
     2
1070
   176
1070
     2
1070
   178
1070
     7
1070
    78
1070
     8
1070
    41
1041
3.175
1070
   147
1041
2.25
1070
    42
1041
2.0
1070
    44
1041
2.0
1070
   140
1041
4.5
1070
   343
1005
110
1070
   344
1005
110
1002
}
0
DIMENSION
5
124
100
AcDbEntity
8
2
62
256
6
ByLayer
370
-3
48
1
60
0
100
AcDbDimension
2
DimnDraft3D2
10
32.25
20
-10.9
30
0
11
32.25
21
-29.231316
31
0
70
32
71
5
72
1
41
1
210
0
220
0
230
1
3
Standard
100
AcDbAlignedDimension
13
22
23
0
33
0
14
22
24
-10.9
34
0
50
90
100
AcDbRotatedDimension
1001
ACAD
1000
DSTYLE
1002
{
1070
    74
1070
     0
1070
   279
1070
     0
1070
   172
1070
     1
1070
   173
1070
     1
1070
   340
1005
DC
1070
    77
1070
     1
1070
    73
1070
     0
1070
   171
1070
     4
1070
   274
1070
     4
1070
   177
1070
     2
1070
   176
1070
     2
1070
   178
1070
     7
1070
    78
1070
     8
1070
    41
1041
3.175
1070
   147
1041
2.25
1070
    42
1041
2.0
1070
    44
1041
2.0
1070
   140
1041
4.5
1070
   343
1005
110
1070
   344
1005
110
1002
}
0
DIMENSION
5
132
100
AcDbEntity
8
2
62
256
6
ByLayer
370
-3
48
1
60
0
100
AcDbDimension
2
DimnDraft3D3
10
20
20
-28.15
30
0
11
4.836842
21
-28.15
31
0
70
32
71
5
72
1
41
1
210
0
220
0
230
1
3
Standard
100
AcDbAlignedDimension
13
0
23
-10
33
0
14
20
24
-12.9
34
0
50
0
100
AcDbRotatedDimension
1001
ACAD
1000
DSTYLE
1002
{
1070
   279
1070
     0
1070
   172
1070
     1
1070
   173
1070
     1
1070
   340
1005
DC
1070
    77
1070
     1
1070
    73
1070
     0
1070
   171
1070
     4
1070
   274
1070
     4
1070
   177
1070
     2
1070
   176
1070
     2
1070
   178
1070
     7
1070
    78
1070
     8
1070
    41
1041
3.175
1070
   147
1041
2.25
1070
    42
1041
2.0
1070
    44
1041
2.0
1070
   140
1041
4.5
1070
   343
1005
110
1070
   344
1005
110
1002
}
0
DIMENSION
5
140
100
AcDbEntity
8
2
62
256
6
ByLayer
370
-3
48
1
60
0
100
AcDbDimension
2
DimnDraft3D4
10
59.355162
20
0
30
0
11
42.46297
21
33.528479
31
0
70
34
71
5
72
1
41
1
210
0
220
0
230
1
3
Standard
100
AcDb2LineAngularDimension
13
19.528976
23
-1.912334
33
0
14
17.339169
24
39.871689
34
0
15
22
25
0
35
0
16
48.633167
26
30.775028
36
0
40
0
0
ENDSEC
0
SECTION
2
OBJECTS
0
DICTIONARY
5
171
330
0
100
AcDbDictionary
280
0
281
1
3
ACAD_GROUP
350
172
3
ACAD_MLINESTYLE
350
173
0
DICTIONARY
5
172
330
0
100
AcDbDictionary
280
0
281
1
0
DICTIONARY
5
173
330
0
100
AcDbDictionary
280
0
281
1
3
Standard
350
18
0
MLINESTYLE
5
18
330
173
100
AcDbMlineStyle
2
Standard
70
0
3

62
256
51
90
52
90
71
2
49
-0.5
62
256
6
ByLayer
49
0.5
62
256
6
ByLayer
0
RASTERVARIABLES
5
15f
330

100
AcDbRasterVariables
90
0
70
1
71
1
72
1
0
ENDSEC
0
EOF
