0
SECTION
2
HEADER
9
$ACADVER
1
AC1015
9
$DWGCODEPAGE
3
ANSI_1252
9
$HANDSEED
5
2d4
9
$ANGBASE
50
0
9
$ANGDIR
70
0
9
$ATTMODE
70
1
9
$AUNITS
70
0
9
$AUPREC
70
0
9
$CECOLOR
62
256
9
$CELTSCALE
40
1
9
$CELTYPE
6
ByLayer
9
$CELWEIGHT
370
18
9
$CLAYER
8
0
9
$CMLJUST
70
0
9
$CMLSCALE
40
1
9
$CMLSTYLE
2
Standard
9
$DIMSTYLE
2
Standard
9
$TEXTSIZE
40
0.2
9
$TEXTSTYLE
7
Standard
9
$LUNITS
70
2
9
$LUPREC
70
4
9
$EXTNAMES
290
1
9
$INSUNITS
70
4
9
$LTSCALE
40
1
9
$LWDISPLAY
290
1
9
$PDMODE
70
0
9
$PDSIZE
40
0
9
$PLINEGEN
70
0
0
ENDSEC
0
SECTION
2
CLASSES
0
CLASS
1
RASTERVARIABLES
2
AcDbRasterVariables
3
ISM
90
0
280
0
281
0
0
ENDSEC
0
SECTION
2
TABLES
0
TABLE
2
VPORT
5
2ca
100
AcDbSymbolTable
0
VPORT
5
1
100
AcDbSymbolTableRecord
100
AcDbViewportTableRecord
2
*Active
70
0
10
0
20
0
11
1
21
1
12
-1
22
1
13
0
23
0
14
0.5
24
0.5
15
10
25
10
16
0
26
0
36
1
17
0
27
0
37
0
0
ENDTAB
0
TABLE
2
LTYPE
5
2cb
100
AcDbSymbolTable
0
LTYPE
5
14
100
AcDbSymbolTableRecord
100
AcDbLinetypeTableRecord
70
0
2
ByBlock
3

72
65
73
0
40
0
0
LTYPE
5
15
100
AcDbSymbolTableRecord
100
AcDbLinetypeTableRecord
70
0
2
ByLayer
3

72
65
73
0
40
0
0
LTYPE
5
16
100
AcDbSymbolTableRecord
100
AcDbLinetypeTableRecord
70
0
2
CONTINUOUS
3
Solid line
72
65
73
0
40
0
0
LTYPE
5
6A
100
AcDbSymbolTableRecord
100
AcDbLinetypeTableRecord
70
0
2
CENTER
3
____ _ ____ _ ____ _ ____
72
65
73
4
40
47.5
49
22
74
0
49
-8.5
74
0
49
8.5
74
0
49
-8.5
74
0
0
LTYPE
5
6B
100
AcDbSymbolTableRecord
100
AcDbLinetypeTableRecord
70
0
2
DASHED
3
__ __ __ __ __ __ __ __ __
72
65
73
2
40
25.72
49
12.86
74
0
49
-12.86
74
0
0
ENDTAB
0
TABLE
2
LAYER
5
2cc
100
AcDbSymbolTable
0
LAYER
5
10
100
AcDbSymbolTableRecord
100
AcDbLayerTableRecord
2
0
70
0
62
7
6
CONTINUOUS
290
1
370
-3
390
0
0
LAYER
5
6D
100
AcDbSymbolTableRecord
100
AcDbLayerTableRecord
2
80
70
0
62
-6
6
CONTINUOUS
290
1
370
-3
390
0
0
LAYER
5
6F
100
AcDbSymbolTableRecord
100
AcDbLayerTableRecord
2
81
70
0
62
-3
6
CONTINUOUS
290
1
370
-3
390
0
0
LAYER
5
71
100
AcDbSymbolTableRecord
100
AcDbLayerTableRecord
2
1
70
0
62
4
6
CONTINUOUS
290
1
370
-3
390
0
0
LAYER
5
117
100
AcDbSymbolTableRecord
100
AcDbLayerTableRecord
2
4
70
0
62
-2
6
CENTER
290
1
370
-3
390
0
0
LAYER
5
233
100
AcDbSymbolTableRecord
100
AcDbLayerTableRecord
2
2
70
0
62
7
6
CONTINUOUS
290
1
370
-3
390
0
0
LAYER
5
2b6
100
AcDbSymbolTableRecord
100
AcDbLayerTableRecord
2
SK1
70
0
62
4
6
CONTINUOUS
290
1
370
-3
390
0
0
LAYER
5
2b7
100
AcDbSymbolTableRecord
100
AcDbLayerTableRecord
2
SK4
70
0
62
2
6
CENTER
290
1
370
-3
390
0
0
LAYER
5
2b8
100
AcDbSymbolTableRecord
100
AcDbLayerTableRecord
2
SK6
70
0
62
5
6
CONTINUOUS
290
1
370
-3
390
0
0
LAYER
5
2b9
100
AcDbSymbolTableRecord
100
AcDbLayerTableRecord
2
SK2
70
0
62
7
6
CONTINUOUS
290
1
370
-3
390
0
0
ENDTAB
0
TABLE
2
STYLE
5
2cd
100
AcDbSymbolTable
0
STYLE
5
11
100
AcDbSymbolTableRecord
100
AcDbTextStyleTableRecord
2
Standard
3
txt
70
0
71
0
40
0
41
1
42
0
50
0
0
STYLE
5
22E
100
AcDbSymbolTableRecord
100
AcDbTextStyleTableRecord
2
blockfont
3
simplex.shx
70
0
71
0
40
0
41
1
42
0
50
0
0
STYLE
5
22F
100
AcDbSymbolTableRecord
100
AcDbTextStyleTableRecord
2
DWGDirectTextStyle
3
simplex
70
0
71
0
40
0
41
1
42
0
50
0
0
ENDTAB
0
TABLE
2
DIMSTYLE
5
2ce
100
AcDbSymbolTable
100
AcDbDimStyleTable
0
DIMSTYLE
105
27
100
AcDbSymbolTableRecord
100
AcDbDimStyleTableRecord
2
Standard
70
0
3
<>
41
0.18
42
0.0625
44
0.18
140
0.18
147
0.09
73
0
74
0
77
1
271
2
275
0
278
52
280
0
340
11
0
ENDTAB
0
TABLE
2
VIEW
5
2cf
100
AcDbSymbolTable
0
ENDTAB
0
TABLE
2
UCS
5
2d0
100
AcDbSymbolTable
0
ENDTAB
0
TABLE
2
APPID
5
2d1
100
AcDbSymbolTable
0
APPID
5
12
100
AcDbSymbolTableRecord
100
AcDbRegAppTableRecord
2
ACAD
70
0
0
ENDTAB
0
TABLE
2
BLOCK_RECORD
5
2d2
100
AcDbSymbolTable
0
BLOCK_RECORD
5
1F
100
AcDbSymbolTableRecord
100
AcDbBlockTableRecord
2
*Model_Space
340
0
70
0
0
BLOCK_RECORD
5
1B
100
AcDbSymbolTableRecord
100
AcDbBlockTableRecord
2
*Paper_Space
340
0
70
0
0
BLOCK_RECORD
5
23
100
AcDbSymbolTableRecord
100
AcDbBlockTableRecord
2
*Paper_Space0
340
0
70
0
0
BLOCK_RECORD
5
231
100
AcDbSymbolTableRecord
100
AcDbBlockTableRecord
2
DimnDraft3D1
340
0
70
0
0
BLOCK_RECORD
5
23C
100
AcDbSymbolTableRecord
100
AcDbBlockTableRecord
2
DimnDraft3D2
340
0
70
0
0
BLOCK_RECORD
5
246
100
AcDbSymbolTableRecord
100
AcDbBlockTableRecord
2
DimnDraft3D3
340
0
70
0
0
BLOCK_RECORD
5
252
100
AcDbSymbolTableRecord
100
AcDbBlockTableRecord
2
DimnDraft3D4
340
0
70
0
0
ENDTAB
0
ENDSEC
0
SECTION
2
BLOCKS
0
BLOCK
5
20
100
AcDbEntity
8
0
100
AcDbBlockBegin
2
*Model_Space
70
0
10
0
20
0
30
0
3
*Model_Space
0
ENDBLK
5
21
100
AcDbEntity
8
0
100
AcDbBlockEnd
0
BLOCK
5
1C
100
AcDbEntity
8
0
100
AcDbBlockBegin
2
*Paper_Space
70
0
10
0
20
0
30
0
3
*Paper_Space
0
ENDBLK
5
1D
100
AcDbEntity
8
0
100
AcDbBlockEnd
0
BLOCK
5
24
100
AcDbEntity
8
0
100
AcDbBlockBegin
2
*Paper_Space0
70
0
10
0
20
0
30
0
3
*Paper_Space0
0
ENDBLK
5
25
100
AcDbEntity
8
0
100
AcDbBlockEnd
0
BLOCK
5
239
100
AcDbEntity
8
0
100
AcDbBlockBegin
2
DimnDraft3D1
70
0
10
0
20
0
30
0
3
DimnDraft3D1
0
MTEXT
5
232
100
AcDbEntity
8
2
62
256
6
ByLayer
370
13
48
1
60
0
100
AcDbMText
10
68.239435
20
-16.006927
30
0
210
0
220
0
230
1
1
\W1.1795;27
40
3.175
41
0
44
0.903614
50
90
71
7
72
5
7
blockfont
0
LINE
5
234
100
AcDbEntity
8
2
62
256
6
ByLayer
370
13
48
1
60
0
100
AcDbLine
10
1.5875
20
0
30
0
11
71.976674
21
0
31
0
39
0
210
0
220
0
230
1
0
LINE
5
235
100
AcDbEntity
8
2
62
256
6
ByLayer
370
13
48
1
60
0
100
AcDbLine
10
39.5875
20
-27
30
0
11
71.976674
21
-27
31
0
39
0
210
0
220
0
230
1
0
LINE
5
236
100
AcDbEntity
8
2
62
256
6
ByLayer
370
13
48
1
60
0
100
AcDbLine
10
68.801674
20
0
30
0
11
68.801674
21
-27
31
0
39
0
210
0
220
0
230
1
0
SOLID
5
237
100
AcDbEntity
8
2
62
256
6
ByLayer
370
13
48
1
60
0
100
AcDbTrace
10
68.801674
20
0
30
0
11
69.219671
21
-3.174998
31
0
12
68.383678
22
-3.175002
32
0
13
68.801674
23
0
33
0
39
0
210
0
220
0
230
1
0
SOLID
5
238
100
AcDbEntity
8
2
62
256
6
ByLayer
370
13
48
1
60
0
100
AcDbTrace
10
68.801674
20
-27
30
0
11
68.383678
21
-23.825002
31
0
12
69.219671
22
-23.824998
32
0
13
68.801674
23
-27
33
0
39
0
210
0
220
0
230
1
0
ENDBLK
5
23A
100
AcDbEntity
8
0
100
AcDbBlockEnd
0
BLOCK
5
243
100
AcDbEntity
8
0
100
AcDbBlockBegin
2
DimnDraft3D2
70
0
10
0
20
0
30
0
3
DimnDraft3D2
0
MTEXT
5
23D
100
AcDbEntity
8
2
62
256
6
ByLayer
370
13
48
1
60
0
100
AcDbMText
10
16.493073
20
-35.104925
30
0
210
0
220
0
230
1
1
\W1.1795;38
40
3.175
41
0
44
0.903614
50
0
71
7
72
5
7
blockfont
0
LINE
5
23E
100
AcDbEntity
8
2
62
256
6
ByLayer
370
13
48
1
60
0
100
AcDbLine
10
0
20
-1.5875
30
0
11
0
21
-38.842164
31
0
39
0
210
0
220
0
230
1
0
LINE
5
23F
100
AcDbEntity
8
2
62
256
6
ByLayer
370
13
48
1
60
0
100
AcDbLine
10
38
20
-28.5875
30
0
11
38
21
-38.842164
31
0
39
0
210
0
220
0
230
1
0
LINE
5
240
100
AcDbEntity
8
2
62
256
6
ByLayer
370
13
48
1
60
0
100
AcDbLine
10
0
20
-35.667164
30
0
11
38
21
-35.667164
31
0
39
0
210
0
220
0
230
1
0
SOLID
5
241
100
AcDbEntity
8
2
62
256
6
ByLayer
370
13
48
1
60
0
100
AcDbTrace
10
0
20
-35.667164
30
0
11
3.174998
21
-35.249168
31
0
12
3.175002
22
-36.085161
32
0
13
0
23
-35.667164
33
0
39
0
210
0
220
0
230
1
0
SOLID
5
242
100
AcDbEntity
8
2
62
256
6
ByLayer
370
13
48
1
60
0
100
AcDbTrace
10
38
20
-35.667164
30
0
11
34.825002
21
-36.085161
31
0
12
34.824998
22
-35.249168
32
0
13
38
23
-35.667164
33
0
39
0
210
0
220
0
230
1
0
ENDBLK
5
244
100
AcDbEntity
8
0
100
AcDbBlockEnd
0
BLOCK
5
24F
100
AcDbEntity
8
0
100
AcDbBlockBegin
2
DimnDraft3D3
70
0
10
0
20
0
30
0
3
DimnDraft3D3
0
MTEXT
5
247
100
AcDbEntity
8
SK2
62
256
6
ByLayer
370
13
48
1
60
0
100
AcDbMText
10
-20.967745
20
5.455209
30
0
210
0
220
0
230
1
1
\W1.1795;40
40
3.175
41
0
44
0.903614
50
90
71
7
72
5
7
blockfont
0
MTEXT
5
249
100
AcDbEntity
8
SK2
62
256
6
ByLayer
370
13
48
1
60
0
100
AcDbMText
10
-20.967745
20
-1.663736
30
0
210
0
220
0
230
1
1
%%c
40
3.175
41
0
44
0.903614
50
90
71
7
72
5
7
blockfont
0
LINE
5
24A
100
AcDbEntity
8
SK2
62
256
6
ByLayer
370
13
48
1
60
0
100
AcDbLine
10
-0.9125
20
-20
30
0
11
-22.786755
21
-20
31
0
39
0
210
0
220
0
230
1
0
LINE
5
24B
100
AcDbEntity
8
SK2
62
256
6
ByLayer
370
13
48
1
60
0
100
AcDbLine
10
-0.9125
20
20
30
0
11
-22.786755
21
20
31
0
39
0
210
0
220
0
230
1
0
LINE
5
24C
100
AcDbEntity
8
SK2
62
256
6
ByLayer
370
13
48
1
60
0
100
AcDbLine
10
-19.611755
20
-20
30
0
11
-19.611755
21
20
31
0
39
0
210
0
220
0
230
1
0
SOLID
5
24D
100
AcDbEntity
8
SK2
62
256
6
ByLayer
370
13
48
1
60
0
100
AcDbTrace
10
-19.611755
20
-20
30
0
11
-20.029752
21
-16.825002
31
0
12
-19.193759
22
-16.824998
32
0
13
-19.611755
23
-20
33
0
39
0
210
0
220
0
230
1
0
SOLID
5
24E
100
AcDbEntity
8
SK2
62
256
6
ByLayer
370
13
48
1
60
0
100
AcDbTrace
10
-19.611755
20
20
30
0
11
-19.193759
21
16.825002
31
0
12
-20.029752
22
16.824998
32
0
13
-19.611755
23
20
33
0
39
0
210
0
220
0
230
1
0
ENDBLK
5
250
100
AcDbEntity
8
0
100
AcDbBlockEnd
0
BLOCK
5
25A
100
AcDbEntity
8
0
100
AcDbBlockBegin
2
DimnDraft3D4
70
0
10
0
20
0
30
0
3
DimnDraft3D4
0
MTEXT
5
253
100
AcDbEntity
8
SK2
62
256
6
ByLayer
370
13
48
1
60
0
100
AcDbMText
10
46.477511
20
-12.764769
30
0
210
0
220
0
230
1
1
\W1.4729;95%%d
40
3.175
41
0
44
0.903614
50
54.8437704894361
71
7
72
5
7
blockfont
0
LINE
5
254
100
AcDbEntity
8
SK2
62
256
6
ByLayer
370
13
48
1
60
0
100
AcDbLine
10
43.5875
20
0
30
0
11
55.600769
21
0
31
0
39
0
210
0
220
0
230
1
0
LINE
5
255
100
AcDbEntity
8
SK2
62
256
6
ByLayer
370
13
48
1
60
0
100
AcDbLine
10
36.890215
20
-13.482481
30
0
11
33.977113
21
19.81443
31
0
39
0
210
0
220
0
230
1
0
ARC
5
256
100
AcDbEntity
8
SK2
62
256
6
ByLayer
370
13
48
1
60
0
100
AcDbCircle
39
0
10
35.710651
20
0
30
0
40
16.7151180792973
210
0
220
0
230
1
100
AcDbArc
50
308.094679
51
0
0
ARC
5
257
100
AcDbEntity
8
SK2
62
256
6
ByLayer
370
13
48
1
60
0
100
AcDbCircle
39
0
10
35.710651
20
0
30
0
40
16.7151180792973
210
0
220
0
230
1
100
AcDbArc
50
0
51
95
0
SOLID
5
258
100
AcDbEntity
8
SK2
62
256
6
ByLayer
370
13
48
1
60
0
100
AcDbTrace
10
52.425769
20
0
30
0
11
51.857976
21
3.151658
31
0
12
52.693033
22
3.191226
32
0
13
52.425769
23
0
33
0
39
0
210
0
220
0
230
1
0
SOLID
5
259
100
AcDbEntity
8
SK2
62
256
6
ByLayer
370
13
48
1
60
0
100
AcDbTrace
10
34.253832
20
16.651512
30
0
11
37.409618
21
17.195893
31
0
12
37.442987
22
16.360566
32
0
13
34.253832
23
16.651512
33
0
39
0
210
0
220
0
230
1
0
ENDBLK
5
25B
100
AcDbEntity
8
0
100
AcDbBlockEnd
0
ENDSEC
0
SECTION
2
ENTITIES
0
ARC
5
11C
100
AcDbEntity
8
1
62
256
6
ByLayer
370
18
48
1
60
0
100
AcDbCircle
39
0
10
29.132245
20
0.447086
30
0
40
5.99999999999979
210
0
220
0
230
1
100
AcDbArc
50
20.417216
51
66.836915
0
ELLIPSE
5
11D
100
AcDbEntity
8
1
62
256
6
ByLayer
370
18
48
1
60
0
100
AcDbEllipse
10
24.90979
20
-9.678315
30
0
11
-0.308211451246834
21
-0.222273933065785
31
0
210
0
220
0
230
1
40
0.979574
41
3.14159265358979
42
-2.2526191845255
0
ELLIPSE
5
11E
100
AcDbEntity
8
1
62
256
6
ByLayer
370
18
48
1
60
0
100
AcDbEllipse
10
22.426541
20
-9.940617
30
0
11
-0.30821145124195
21
-0.222273933073618
31
0
210
0
220
0
230
1
40
0.979574
41
0
42
0.88897346903983
0
ELLIPSE
5
11F
100
AcDbEntity
8
1
62
256
6
ByLayer
370
18
48
1
60
0
100
AcDbEllipse
10
22.236623
20
-9.172976
30
0
11
-0.344710175737637
21
-0.248595846189956
31
0
210
0
220
0
230
1
40
0.979574
41
1.19562423347462
42
2.98336857146311
0
ELLIPSE
5
120
100
AcDbEntity
8
1
62
256
6
ByLayer
370
18
48
1
60
0
100
AcDbEllipse
10
24.382265
20
-10.810167
30
0
11
-0.308211451248188
21
-0.222273933063431
31
0
210
0
220
0
230
1
40
0.979574
41
0.148426682279888
42
2.9833685714648
0
ELLIPSE
5
121
100
AcDbEntity
8
1
62
256
6
ByLayer
370
18
48
1
60
0
100
AcDbEllipse
10
37.211511
20
-26.216631
30
0
11
-0.643999716555426
21
-0.464435533821996
31
0
210
0
220
0
230
1
40
0.979574
41
0.867765926074608
42
2.61309517806897
0
ELLIPSE
5
122
100
AcDbEntity
8
1
62
256
6
ByLayer
370
18
48
1
60
0
100
AcDbEllipse
10
6.798334
20
-9.899495
30
0
11
-0.727784174842991
21
-5.2186034487855
31
0
210
0
220
0
230
1
40
0.78774
41
0.928391147934383
42
0.996318637432017
0
ELLIPSE
5
123
100
AcDbEntity
8
1
62
256
6
ByLayer
370
18
48
1
60
0
100
AcDbEllipse
10
22.952449
20
-10.680367
30
0
11
-0.30821145124934
21
-0.22227393306166
31
0
210
0
220
0
230
1
40
0.979574
41
0.446885874488773
42
1.93617102027399
0
ELLIPSE
5
124
100
AcDbEntity
8
1
62
256
6
ByLayer
370
18
48
1
60
0
100
AcDbEllipse
10
23.479974
20
-9.548514
30
0
11
-0.932745181415404
21
-0.672671113217955
31
0
210
0
220
0
230
1
40
0.979574
41
-1.87630866257237
42
-1.27855428266147
0
ELLIPSE
5
125
100
AcDbEntity
8
1
62
256
6
ByLayer
370
18
48
1
60
0
100
AcDbEllipse
10
35.683167
20
-14.370585
30
0
11
-0.643999716070876
21
-0.464435535198915
31
0
210
0
220
0
230
1
40
0.979574
41
3.14159265186262
42
-2.86885364430034
0
ELLIPSE
5
126
100
AcDbEntity
8
1
62
256
6
ByLayer
370
18
48
1
60
0
100
AcDbEllipse
10
23.14064
20
-10.941318
30
0
11
-0.308211451253042
21
-0.22227393305775
31
0
210
0
220
0
230
1
40
0.979574
41
-0.898770868896782
42
0
0
ELLIPSE
5
127
100
AcDbEntity
8
1
62
256
6
ByLayer
370
18
48
1
60
0
100
AcDbEllipse
10
24.007499
20
-8.416662
30
0
11
-0.308211451542999
21
-0.222273932707794
31
0
210
0
220
0
230
1
40
0.979574
41
2.24282178589802
42
2.6947067803031
0
ELLIPSE
5
128
100
AcDbEntity
8
1
62
256
6
ByLayer
370
18
48
1
60
0
100
AcDbEllipse
10
9.331972
20
-9.899495
30
0
11
-0.461632007182117
21
5.24999994332837
31
0
210
0
220
0
230
1
40
0.001675
41
3.14144539873313
42
-2.32276784233349
0
ELLIPSE
5
129
100
AcDbEntity
8
1
62
256
6
ByLayer
370
18
48
1
60
0
100
AcDbEllipse
10
24.774949
20
-8.624026
30
0
11
-0.344710175731269
21
-0.2485958461974
31
0
210
0
220
0
230
1
40
0.979574
41
-0.898770868941951
42
0
0
ELLIPSE
5
12A
100
AcDbEntity
8
1
62
256
6
ByLayer
370
18
48
1
60
0
100
AcDbEllipse
10
31.557964
20
-20.872881
30
0
11
-1.20399037844489
21
-1.93745444734723
31
0
210
0
220
0
230
1
40
0.718932
41
1.27857580950672
42
2.13378714298495
0
ELLIPSE
5
12B
100
AcDbEntity
8
1
62
256
6
ByLayer
370
18
48
1
60
0
100
AcDbEllipse
10
16.473608
20
-6.975918
30
0
11
-0.866863157633296
21
-1.80237295417414
31
0
210
0
220
0
230
1
40
0.7455
41
-1.96027307090748
42
-0.547597576647947
0
ELLIPSE
5
12C
100
AcDbEntity
8
1
62
256
6
ByLayer
370
18
48
1
60
0
100
AcDbEllipse
10
23.804733
20
-11.370443
30
0
11
-0.344710175738664
21
-0.248595846188521
31
0
210
0
220
0
230
1
40
0.979574
41
-2.99316597130764
42
-1.20542163331912
0
ELLIPSE
5
12D
100
AcDbEntity
8
1
62
256
6
ByLayer
370
18
48
1
60
0
100
AcDbEllipse
10
22.373191
20
-10.733954
30
0
11
-0.344710175744331
21
-0.248595846178819
31
0
210
0
220
0
230
1
40
0.979574
41
3.14159265358979
42
-2.25261918448879
0
ELLIPSE
5
12E
100
AcDbEntity
8
1
62
256
6
ByLayer
370
18
48
1
60
0
100
AcDbEllipse
10
36.243037
20
-15.146916
30
0
11
-0.643999716533941
21
-0.464435533844349
31
0
210
0
220
0
230
1
40
0.979574
41
2.6130951780296
42
3.14159265358979
0
ELLIPSE
5
12F
100
AcDbEntity
8
1
62
256
6
ByLayer
370
18
48
1
60
0
100
AcDbEllipse
10
22.185
20
-10.473002
30
0
11
-0.344710175734265
21
-0.248595846196058
31
0
210
0
220
0
230
1
40
0.979574
41
3.14159265358979
42
-2.25261918453674
0
ELLIPSE
5
130
100
AcDbEntity
8
1
62
256
6
ByLayer
370
18
48
1
60
0
100
AcDbEllipse
10
22.238349
20
-9.679665
30
0
11
-0.308211451105101
21
-0.222273933293484
31
0
210
0
220
0
230
1
40
0.979574
41
0.446885874283982
42
0.888973468353119
0
ELLIPSE
5
131
100
AcDbEntity
8
1
62
256
6
ByLayer
370
18
48
1
60
0
100
AcDbEllipse
10
24.96314
20
-8.884978
30
0
11
-0.344710175732999
21
-0.248595846197769
31
0
210
0
220
0
230
1
40
0.979574
41
0
42
0.888973469048181
0
ELLIPSE
5
132
100
AcDbEntity
8
1
62
256
6
ByLayer
370
18
48
1
60
0
100
AcDbEllipse
10
9.331972
20
-9.899495
30
0
11
-0.461632007160091
21
5.24999994307972
31
0
210
0
220
0
230
1
40
0.001675
41
0.152180464919662
42
3.14144539873292
0
ELLIPSE
5
133
100
AcDbEntity
8
1
62
256
6
ByLayer
370
18
48
1
60
0
100
AcDbEllipse
10
26.049764
20
-25.455632
30
0
11
-0.643999716565401
21
-0.46443553380523
31
0
210
0
220
0
230
1
40
0.979574
41
0
42
0.867765926099604
0
ELLIPSE
5
134
100
AcDbEntity
8
1
62
256
6
ByLayer
370
18
48
1
60
0
100
AcDbEllipse
10
24.721599
20
-9.417363
30
0
11
-0.308211451247211
21
-0.22227393306462
31
0
210
0
220
0
230
1
40
0.979574
41
1.19562423347224
42
2.69470677844926
0
ELLIPSE
5
135
100
AcDbEntity
8
1
62
256
6
ByLayer
370
18
48
1
60
0
100
AcDbEllipse
10
23.668166
20
-9.809466
30
0
11
-1.8654903628181
21
-1.34534222643638
31
0
210
0
220
0
230
1
40
0.979574
41
0
42
6.28318530717959
0
ELLIPSE
5
136
100
AcDbEntity
8
1
62
256
6
ByLayer
370
18
48
1
60
0
100
AcDbEllipse
10
20.474467
20
-18.546332
30
0
11
-3.57228543410419
21
2.77748719100468
31
0
210
0
220
0
230
1
40
0.330963
41
-1.13070198812382
42
-0.00405239426623792
0
ELLIPSE
5
137
100
AcDbEntity
8
1
62
256
6
ByLayer
370
18
48
1
60
0
100
AcDbEllipse
10
22.578012
20
-8.286159
30
0
11
-2.10941105198609
21
-1.5199950702799
31
0
210
0
220
0
230
1
40
0.975916
41
-1.72322062139252
42
-1.42728306093621
0
ELLIPSE
5
138
100
AcDbEntity
8
1
62
256
6
ByLayer
370
18
48
1
60
0
100
AcDbEllipse
10
23.479974
20
-9.548514
30
0
11
-0.932745181426936
21
-0.672671113184103
31
0
210
0
220
0
230
1
40
0.979574
41
3.14159265358979
42
-2.54375860664597
0
ELLIPSE
5
139
100
AcDbEntity
8
1
62
256
6
ByLayer
370
18
48
1
60
0
100
AcDbEllipse
10
31.1464
20
-20.301274
30
0
11
-2.09259353742188
21
-1.50912301922019
31
0
210
0
220
0
230
1
40
0.979574
41
0.239142007512109
42
2.89241565494381
0
ELLIPSE
5
13A
100
AcDbEntity
8
1
62
256
6
ByLayer
370
18
48
1
60
0
100
AcDbEllipse
10
24.90979
20
-9.678315
30
0
11
-0.308211451248189
21
-0.222273933063428
31
0
210
0
220
0
230
1
40
0.979574
41
1.19562423347647
42
3.14159265358979
0
ELLIPSE
5
13B
100
AcDbEntity
8
1
62
256
6
ByLayer
370
18
48
1
60
0
100
AcDbEllipse
10
22.954066
20
-8.808764
30
0
11
-0.308211451248267
21
-0.222273933063321
31
0
210
0
220
0
230
1
40
0.979574
41
-2.99316597130957
42
-0.158224082124618
0
ELLIPSE
5
13C
100
AcDbEntity
8
1
62
256
6
ByLayer
370
18
48
1
60
0
100
AcDbEllipse
10
23.531598
20
-8.248488
30
0
11
-0.34471017573811
21
-0.248595846189354
31
0
210
0
220
0
230
1
40
0.979574
41
0.148426682279876
42
1.93617102026826
0
ELLIPSE
5
13D
100
AcDbEntity
8
1
62
256
6
ByLayer
370
18
48
1
60
0
100
AcDbEllipse
10
24.911517
20
-10.185004
30
0
11
-0.344710175738004
21
-0.248595846189485
31
0
210
0
220
0
230
1
40
0.979574
41
-1.94596842011374
42
-0.158224082125278
0
ELLIPSE
5
13E
100
AcDbEntity
8
1
62
256
6
ByLayer
370
18
48
1
60
0
100
AcDbEllipse
10
18.130355
20
-9.276529
30
0
11
-4.23473976839583
21
1.58617642299768
31
0
210
0
220
0
230
1
40
0.435524
41
0.214509236978876
42
0.574124970335385
0
ELLIPSE
5
13F
100
AcDbEntity
8
1
62
256
6
ByLayer
370
18
48
1
60
0
100
AcDbEllipse
10
19.380431
20
-8.286354
30
0
11
-3.19567923706054
21
4.47634162367432
31
0
210
0
220
0
230
1
40
0.000985
41
-1.22653431121473
42
-0.784766572591465
0
ELLIPSE
5
140
100
AcDbEntity
8
1
62
256
6
ByLayer
370
18
48
1
60
0
100
AcDbEllipse
10
23.385879
20
-9.418038
30
0
11
-3.24433106577053
21
-2.33972561119381
31
0
210
0
220
0
230
1
40
0.979574
41
3.1366939536673
42
-1.36004796937259E-15
0
ELLIPSE
5
141
100
AcDbEntity
8
1
62
256
6
ByLayer
370
18
48
1
60
0
100
AcDbEllipse
10
24.194074
20
-10.549216
30
0
11
-0.308211451248179
21
-0.222273933063442
31
0
210
0
220
0
230
1
40
0.979574
41
0.148426682279839
42
2.98336857146478
0
ELLIPSE
5
142
100
AcDbEntity
8
1
62
256
6
ByLayer
370
18
48
1
60
0
100
AcDbEllipse
10
24.195691
20
-8.677613
30
0
11
-0.308211451248508
21
-0.222273933062954
31
0
210
0
220
0
230
1
40
0.979574
41
3.14159265358979
42
-1.20542163332001
0
ELLIPSE
5
143
100
AcDbEntity
8
1
62
256
6
ByLayer
370
18
48
1
60
0
100
AcDbEllipse
10
22.426541
20
-9.940617
30
0
11
-0.308211451247366
21
-0.222273933064487
31
0
210
0
220
0
230
1
40
0.979574
41
-1.94596842011701
42
0
0
ELLIPSE
5
144
100
AcDbEntity
8
1
62
256
6
ByLayer
370
18
48
1
60
0
100
AcDbEllipse
10
20.474467
20
-18.546332
30
0
11
-3.57228543410436
21
2.77748719100476
31
0
210
0
220
0
230
1
40
0.330963
41
-0.00405239426624251
42
1.51096006868053
0
ELLIPSE
5
145
100
AcDbEntity
8
1
62
256
6
ByLayer
370
18
48
1
60
0
100
AcDbEllipse
10
16.153771
20
-10.764456
30
0
11
-2.28298181565952
21
2.66829936688386
31
0
210
0
220
0
230
1
40
0.368468
41
-0.696803247981011
42
0.0264148584180955
0
ELLIPSE
5
146
100
AcDbEntity
8
1
62
256
6
ByLayer
370
18
48
1
60
0
100
AcDbEllipse
10
23.479974
20
-9.548514
30
0
11
-0.932745181409079
21
-0.67267111321815
31
0
210
0
220
0
230
1
40
0.979574
41
-0.00489869992242075
42
3.14159265358979
0
ELLIPSE
5
147
100
AcDbEntity
8
1
62
256
6
ByLayer
370
18
48
1
60
0
100
AcDbEllipse
10
11.203762
20
-4.744582
30
0
11
-4.06758152179157
21
5.6976578135408
31
0
210
0
220
0
230
1
40
0.000985
41
2.261156773618
42
2.27593690404292
0
ELLIPSE
5
148
100
AcDbEntity
8
1
62
256
6
ByLayer
370
18
48
1
60
0
100
AcDbEllipse
10
36.243037
20
-15.146916
30
0
11
-0.643999716544907
21
-0.464435533840019
31
0
210
0
220
0
230
1
40
0.979574
41
3.14159265358979
42
-2.27382672754198
0
ELLIPSE
5
149
100
AcDbEntity
8
1
62
256
6
ByLayer
370
18
48
1
60
0
100
AcDbEllipse
10
25.099708
20
-10.445955
30
0
11
-0.34471017573717
21
-0.248595846190554
31
0
210
0
220
0
230
1
40
0.979574
41
-1.94596842011704
42
-0.158224082128383
0
ELLIPSE
5
14A
100
AcDbEntity
8
1
62
256
6
ByLayer
370
18
48
1
60
0
100
AcDbEllipse
10
25.299527
20
-9.899495
30
0
11
-15.568532547227
21
-2.71387873848539
31
0
210
0
220
0
230
1
40
0.288669
41
-0.80245449450538
42
-0.647592244251782
0
ELLIPSE
5
14B
100
AcDbEntity
8
1
62
256
6
ByLayer
370
18
48
1
60
0
100
AcDbEllipse
10
24.96314
20
-8.884978
30
0
11
-0.344710175730282
21
-0.248595846198587
31
0
210
0
220
0
230
1
40
0.979574
41
-0.898770868945621
42
0
0
ELLIPSE
5
14C
100
AcDbEntity
8
1
62
256
6
ByLayer
370
18
48
1
60
0
100
AcDbEllipse
10
23.616542
20
-11.109491
30
0
11
-0.344710175738147
21
-0.248595846189311
31
0
210
0
220
0
230
1
40
0.979574
41
-2.99316597130977
42
-1.2054216333214
0
ELLIPSE
5
14D
100
AcDbEntity
8
1
62
256
6
ByLayer
370
18
48
1
60
0
100
AcDbEllipse
10
23.479974
20
-9.548514
30
0
11
-0.932745181412455
21
-0.67267111321517
31
0
210
0
220
0
230
1
40
0.979574
41
-0.608657822251302
42
-0.0048986999186651
0
ELLIPSE
5
14E
100
AcDbEntity
8
1
62
256
6
ByLayer
370
18
48
1
60
0
100
AcDbEllipse
10
23.421164
20
-9.466967
30
0
11
-0.932745181409026
21
-0.672671113218224
31
0
210
0
220
0
230
1
40
0.979574
41
0.0446399720554102
42
3.09695268152759
0
ELLIPSE
5
14F
100
AcDbEntity
8
1
62
256
6
ByLayer
370
18
48
1
60
0
100
AcDbEllipse
10
23.581828
20
-9.689747
30
0
11
-3.24433106577052
21
-2.33972561119383
31
0
210
0
220
0
230
1
40
0.979574
41
3.13669395366729
42
-1.36004796937259E-15
0
ELLIPSE
5
150
100
AcDbEntity
8
1
62
256
6
ByLayer
370
18
48
1
60
0
100
AcDbEllipse
10
20.474467
20
-18.546332
30
0
11
-3.57228543410421
21
2.77748719100472
31
0
210
0
220
0
230
1
40
0.330963
41
1.51096006868058
42
-2.16114769769607
0
ELLIPSE
5
151
100
AcDbEntity
8
1
62
256
6
ByLayer
370
18
48
1
60
0
100
AcDbEllipse
10
-19.437586
20
-9.899495
30
0
11
-44.3254633318042
21
-0.874157983851571
31
0
210
0
220
0
230
1
40
0.116789
41
2.29041046016821
42
2.51554107609007
0
ELLIPSE
5
152
100
AcDbEntity
8
1
62
256
6
ByLayer
370
18
48
1
60
0
100
AcDbEllipse
10
23.14064
20
-10.941318
30
0
11
-0.308211451248122
21
-0.222273933063528
31
0
210
0
220
0
230
1
40
0.979574
41
0
42
1.93617102026793
0
ELLIPSE
5
153
100
AcDbEntity
8
1
62
256
6
ByLayer
370
18
48
1
60
0
100
AcDbEllipse
10
22.373191
20
-10.733954
30
0
11
-0.344710175722389
21
-0.248595846207501
31
0
210
0
220
0
230
1
40
0.979574
41
2.24282178461553
42
3.14159265358979
0
ELLIPSE
5
154
100
AcDbEntity
8
1
62
256
6
ByLayer
370
18
48
1
60
0
100
AcDbEllipse
10
23.785433
20
-9.978239
30
0
11
-3.36694456375589
21
-2.42614597759382
31
0
210
0
220
0
230
1
40
0.975916
41
0.0249647662889169
42
3.13707716831166
0
ELLIPSE
5
155
100
AcDbEntity
8
1
62
256
6
ByLayer
370
18
48
1
60
0
100
AcDbEllipse
10
17.593445
20
-9.562091
30
0
11
-3.42452184360047
21
4.31247810919892
31
0
210
0
220
0
230
1
40
0.235821
41
-0.676471776637541
42
-0.623479473379972
0
ELLIPSE
5
156
100
AcDbEntity
8
1
62
256
6
ByLayer
370
18
48
1
60
0
100
AcDbEllipse
10
24.195691
20
-8.677613
30
0
11
-0.308211451238329
21
-0.2222739330749
31
0
210
0
220
0
230
1
40
0.979574
41
2.24282178463258
42
3.14159265358979
0
ELLIPSE
5
157
100
AcDbEntity
8
1
62
256
6
ByLayer
370
18
48
1
60
0
100
AcDbEllipse
10
26.049764
20
-25.455632
30
0
11
-0.643999716570809
21
-0.464435533807064
31
0
210
0
220
0
230
1
40
0.979574
41
-0.528497475493515
42
0
0
ELLIPSE
5
158
100
AcDbEntity
8
1
62
256
6
ByLayer
370
18
48
1
60
0
100
AcDbEllipse
10
15.948399
20
-6.238999
30
0
11
-2.42835107623817
21
-1.76156638261555
31
0
210
0
220
0
230
1
40
0.98693
41
-1.57848118550731
42
-0.526792122443057
0
ELLIPSE
5
159
100
AcDbEntity
8
1
62
256
6
ByLayer
370
18
48
1
60
0
100
AcDbEllipse
10
31.557964
20
-20.872881
30
0
11
-2.22318096282827
21
-0.519791568211226
31
0
210
0
220
0
230
1
40
0.719307
41
1.00212988011657
42
1.85734121359336
0
ELLIPSE
5
15A
100
AcDbEntity
8
1
62
256
6
ByLayer
370
18
48
1
60
0
100
AcDbEllipse
10
23.581828
20
-9.689747
30
0
11
-3.24433106577052
21
-2.33972561119383
31
0
210
0
220
0
230
1
40
0.979574
41
0
42
3.13669395366729
0
ELLIPSE
5
15B
100
AcDbEntity
8
1
62
256
6
ByLayer
370
18
48
1
60
0
100
AcDbEllipse
10
23.320824
20
-2.087662
30
0
11
-1.98575376866566
21
-0.238289677136843
31
0
210
0
220
0
230
1
40
0.746131
41
-2.59658826308541
42
-1.18391276882578
0
ELLIPSE
5
15C
100
AcDbEntity
8
1
62
256
6
ByLayer
370
18
48
1
60
0
100
AcDbEllipse
10
7.8336
20
9.899536
30
0
11
-0.727805657832991
21
-5.21856014479522
31
0
210
0
220
0
230
1
40
0.787742
41
-2.81127425637551
42
-2.79940953527294
0
ELLIPSE
5
15D
100
AcDbEntity
8
1
62
256
6
ByLayer
370
18
48
1
60
0
100
AcDbEllipse
10
23.419552
20
9.899495
30
0
11
-9.36311621701749
21
-4.49500572959177
31
0
210
0
220
0
230
1
40
0.289696
41
0.961295967544273
42
1.15982865936166
0
ELLIPSE
5
15E
100
AcDbEntity
8
1
62
256
6
ByLayer
370
18
48
1
60
0
100
AcDbEllipse
10
7.591053
20
9.899495
30
0
11
-0.46163200716019
21
5.24999994308085
31
0
210
0
220
0
230
1
40
0.001675
41
0.232611434211648
42
3.14144539873292
0
ELLIPSE
5
15F
100
AcDbEntity
8
1
62
256
6
ByLayer
370
18
48
1
60
0
100
AcDbEllipse
10
8.016265
20
9.899495
30
0
11
-44.3254633323531
21
-0.874157983829392
31
0
210
0
220
0
230
1
40
0.116789
41
1.57423632933408
42
1.82186329260377
0
ELLIPSE
5
160
100
AcDbEntity
8
1
62
256
6
ByLayer
370
18
48
1
60
0
100
AcDbEllipse
10
15.194963
20
-0.048344
30
0
11
-2.71897448433618
21
-19.9345723879393
31
0
210
0
220
0
230
1
40
0.787569
41
-2.43320279706224
42
-2.43077699262659
0
ELLIPSE
5
161
100
AcDbEntity
8
1
62
256
6
ByLayer
370
18
48
1
60
0
100
AcDbEllipse
10
7.833605
20
9.899495
30
0
11
-0.727784206948188
21
-5.21860338480624
31
0
210
0
220
0
230
1
40
0.78774
41
0.22720483420395
42
0.280144514696612
0
ELLIPSE
5
162
100
AcDbEntity
8
1
62
256
6
ByLayer
370
18
48
1
60
0
100
AcDbEllipse
10
17.086645
20
16.447086
30
0
11
-10.0000000321621
21
1.01063905833279E-14
31
0
210
0
220
0
230
1
40
1
41
0.087266462462987
42
0.143002445464139
0
ELLIPSE
5
163
100
AcDbEntity
8
1
62
256
6
ByLayer
370
18
48
1
60
0
100
AcDbEllipse
10
24.753141
20
4.152212
30
0
11
-3.21777831104345
21
4.51132332931966
31
0
210
0
220
0
230
1
40
0.72185
41
-3.14128789247337
42
-2.45021514221595
0
ELLIPSE
5
164
100
AcDbEntity
8
1
62
256
6
ByLayer
370
18
48
1
60
0
100
AcDbEllipse
10
8.016265
20
9.899495
30
0
11
-44.3254633262034
21
-0.874157984195432
31
0
210
0
220
0
230
1
40
0.116789
41
2.03103041601551
42
2.12665529318282
0
ELLIPSE
5
165
100
AcDbEntity
8
1
62
256
6
ByLayer
370
18
48
1
60
0
100
AcDbEllipse
10
8.478219
20
0
30
0
11
-1.75859812251859
21
19.9999997832047
31
0
210
0
220
0
230
1
40
0.001675
41
0.604344618524301
42
1.11962226014058
0
ELLIPSE
5
166
100
AcDbEntity
8
1
62
256
6
ByLayer
370
18
48
1
60
0
100
AcDbEllipse
10
22.78499
20
-1.358328
30
0
11
-2.42835107624463
21
-1.76156638260606
31
0
210
0
220
0
230
1
40
0.98693
41
-2.63017024856779
42
-1.57848118550343
0
ELLIPSE
5
167
100
AcDbEntity
8
1
62
256
6
ByLayer
370
18
48
1
60
0
100
AcDbEllipse
10
7.591053
20
9.899495
30
0
11
-0.46163199814889
21
5.24999984071454
31
0
210
0
220
0
230
1
40
0.001675
41
3.14144539873045
42
-3.02395416264456
0
ELLIPSE
5
168
100
AcDbEntity
8
1
62
256
6
ByLayer
370
18
48
1
60
0
100
AcDbEllipse
10
76.762736
20
0.007986
30
0
11
-168.898928297892
21
-3.3338928249033
31
0
210
0
220
0
230
1
40
0.116805
41
1.16470855624077
42
1.16765793073929
0
ELLIPSE
5
169
100
AcDbEntity
8
1
62
256
6
ByLayer
370
18
48
1
60
0
100
AcDbEllipse
10
25.399593
20
-3.989248
30
0
11
-2.96659957904058
21
4.63939961458938
31
0
210
0
220
0
230
1
40
0.233856
41
0.623367238194045
42
0.6763595426395
0
ELLIPSE
5
16A
100
AcDbEntity
8
1
62
256
6
ByLayer
370
18
48
1
60
0
100
AcDbEllipse
10
1155.522973
20
20.984849
30
0
11
-1215.6828609698
21
-23.7165524155678
31
0
210
0
220
0
230
1
40
0.053842
41
0.344925948241838
42
0.375666986259236
0
ELLIPSE
5
16B
100
AcDbEntity
8
1
62
256
6
ByLayer
370
18
48
1
60
0
100
AcDbEllipse
10
27.005488
20
-3.01737
30
0
11
-1.78254357663953
21
3.02559564547154
31
0
210
0
220
0
230
1
40
0.366515
41
-0.0266403329507119
42
0.696577773447756
0
ELLIPSE
5
16C
100
AcDbEntity
8
1
62
256
6
ByLayer
370
18
48
1
60
0
100
AcDbEllipse
10
8.478219
20
0
30
0
11
-1.75859812253124
21
19.9999997833519
31
0
210
0
220
0
230
1
40
0.001675
41
2.02167588373979
42
2.88749795907444
0
ELLIPSE
5
16D
100
AcDbEntity
8
1
62
256
6
ByLayer
370
18
48
1
60
0
100
AcDbEllipse
10
24.013149
20
-0.159727
30
0
11
-1.56844403144125
21
25.0554150841695
31
0
210
0
220
0
230
1
40
0.175615
41
3.03103618062725
42
3.05659965405918
0
ELLIPSE
5
16E
100
AcDbEntity
8
1
62
256
6
ByLayer
370
18
48
1
60
0
100
AcDbEllipse
10
22.293343
20
-0.293071
30
0
11
-2.82424420882843
21
24.8766884801866
31
0
210
0
220
0
230
1
40
0.112016
41
3.122497110425
42
-3.11066580327149
0
ELLIPSE
5
16F
100
AcDbEntity
8
1
62
256
6
ByLayer
370
18
48
1
60
0
100
AcDbEllipse
10
15.171069
20
2.3E-05
30
0
11
-2.77252125283071
21
-19.8804169441494
31
0
210
0
220
0
230
1
40
0.787739
41
-0.144528001662471
42
-0.129306603791376
0
ELLIPSE
5
170
100
AcDbEntity
8
1
62
256
6
ByLayer
370
18
48
1
60
0
100
AcDbEllipse
10
23.612607
20
-5.264986
30
0
11
-3.19567922713206
21
4.47634160975648
31
0
210
0
220
0
230
1
40
0.000985
41
-1.22653431287479
42
-0.784766573192437
0
ELLIPSE
5
171
100
AcDbEntity
8
1
62
256
6
ByLayer
370
18
48
1
60
0
100
AcDbEllipse
10
24.966946
20
-4.395858
30
0
11
-0.139429687027288
21
4.5132809635093
31
0
210
0
220
0
230
1
40
0.434482
41
-0.576686081452068
42
-0.217070348094413
0
POINT
5
6C
100
AcDbEntity
8
80
62
256
6
ByLayer
370
13
48
1
60
0
100
AcDbPoint
10
0
20
0
30
0
39
0
210
0
220
0
230
1
50
360
0
POINT
5
6E
100
AcDbEntity
8
81
62
256
6
ByLayer
370
13
48
1
60
0
100
AcDbPoint
10
38
20
-27
30
0
39
0
210
0
220
0
230
1
50
360
0
SPLINE
5
172
100
AcDbEntity
8
1
62
256
6
ByLayer
370
18
48
1
60
0
100
AcDbSpline
70
4
71
3
72
11
73
7
40
0
40
0
40
0
40
0
40
0.0827762312204047
40
0.29305346325524
40
0.635183827112998
40
1
40
1
40
1
40
1
41
1
10
8.84853027462644
20
-4.32421796292238
30
0
41
1
10
8.87990203821729
20
-4.28328343012615
30
0
41
1
10
8.99307403805687
20
-4.13982381134228
30
0
41
1
10
9.25133939159748
20
-3.83638312141165
30
0
41
1
10
9.68039099225105
20
-3.44280184809694
30
0
41
1
10
10.0300474844399
20
-3.1638863211873
30
0
41
1
10
10.2186961112968
20
-3.02815871741574
30
0
0
SPLINE
5
173
100
AcDbEntity
8
1
62
256
6
ByLayer
370
18
48
1
60
0
100
AcDbSpline
70
4
71
1
72
4
73
2
40
0
40
0
40
1
40
1
41
1
10
10.8606899450993
20
-19.4466670036716
30
0
41
1
10
11.8750000000001
20
-23.4667215691586
30
0
0
SPLINE
5
174
100
AcDbEntity
8
1
62
256
6
ByLayer
370
18
48
1
60
0
100
AcDbSpline
70
4
71
3
72
16
73
12
40
0
40
0
40
0
40
0
40
0.0641700032193825
40
0.219446058348589
40
0.348063994492939
40
0.476560294852741
40
0.606207021178468
40
0.735772622966988
40
0.845682895503514
40
0.955676922274975
40
1
40
1
40
1
40
1
41
1
10
9.21945722576121
20
-8.80651195461882
30
0
41
1
10
9.27203641434135
20
-8.85923163869125
30
0
41
1
10
9.45730552602609
20
-9.03312639404563
30
0
41
1
10
9.78188430406348
20
-9.28071436868216
30
0
41
1
10
10.2094614676404
20
-9.50691921752571
30
0
41
1
10
10.6397942160536
20
-9.65383916213587
30
0
41
1
10
11.0917459279546
20
-9.71700356426943
30
0
41
1
10
11.5260096192983
20
-9.69274981013344
30
0
41
1
10
11.9237828000552
20
-9.59064146761398
30
0
41
1
10
12.2086012177873
20
-9.46724238313405
30
0
41
1
10
12.36589520381
20
-9.37938734381775
30
0
41
1
10
12.410413322158
20
-9.3527432139517
30
0
0
SPLINE
5
175
100
AcDbEntity
8
1
62
256
6
ByLayer
370
18
48
1
60
0
100
AcDbSpline
70
4
71
1
72
4
73
2
40
0
40
0
40
1
40
1
41
1
10
-0.325
20
-18.7906850260974
30
0
41
1
10
0.3432785792575
20
-19.5180034570805
30
0
0
SPLINE
5
176
100
AcDbEntity
8
1
62
256
6
ByLayer
370
18
48
1
60
0
100
AcDbSpline
70
4
71
3
72
12
73
8
40
0
40
0
40
0
40
0
40
0.221017710060251
40
0.445221815289505
40
0.640283466943339
40
0.815181123865696
40
1
40
1
40
1
40
1
41
1
10
0.343278579257598
20
-16.2549231580667
30
0
41
1
10
0.355780802243388
20
-16.2653939407295
30
0
41
1
10
0.379419167562683
20
-16.2821081652447
30
0
41
1
10
0.411710899670392
20
-16.2962272487878
30
0
41
1
10
0.432943813173603
20
-16.2934457406884
30
0
41
1
10
0.443412393295545
20
-16.2789787859909
30
0
41
1
10
0.445528471921724
20
-16.2652063265165
30
0
41
1
10
0.445276461883389
20
-16.256703780519
30
0
0
SPLINE
5
177
100
AcDbEntity
8
1
62
256
6
ByLayer
370
18
48
1
60
0
100
AcDbSpline
70
4
71
1
72
4
73
2
40
0
40
0
40
1
40
1
41
1
10
-0.325
20
-13.177721493111
30
0
41
1
10
0.343278579257581
20
-13.7398159364995
30
0
0
SPLINE
5
178
100
AcDbEntity
8
1
62
256
6
ByLayer
370
18
48
1
60
0
100
AcDbSpline
70
4
71
1
72
4
73
2
40
0
40
0
40
1
40
1
41
1
10
19.3772296963791
20
-14.2647486278596
30
0
41
1
10
18.1164969970599
20
-14.4318726258861
30
0
0
SPLINE
5
179
100
AcDbEntity
8
1
62
256
6
ByLayer
370
18
48
1
60
0
100
AcDbSpline
70
4
71
3
72
15
73
11
40
0
40
0
40
0
40
0
40
0.166515919983871
40
0.332774473620625
40
0.501628500714136
40
0.630966776588327
40
0.722350043801145
40
0.814286437225678
40
0.896171486345309
40
1
40
1
40
1
40
1
41
1
10
30.0567364184165
20
-19.8375061690845
30
0
41
1
10
29.9632894185894
20
-19.7993480726128
30
0
41
1
10
29.7689872822984
20
-19.7282109603182
30
0
41
1
10
29.4559398543017
20
-19.6329434920241
30
0
41
1
10
29.1400309596389
20
-19.5655729825956
30
0
41
1
10
28.8527842783673
20
-19.541916874439
30
0
41
1
10
28.6248102373077
20
-19.5580802894411
30
0
41
1
10
28.4573363754375
20
-19.603414571473
30
0
41
1
10
28.3354014359963
20
-19.6769594134568
30
0
41
1
10
28.2875875885051
20
-19.7333255957158
30
0
41
1
10
28.2718259495381
20
-19.7681777300259
30
0
0
SPLINE
5
17A
100
AcDbEntity
8
1
62
256
6
ByLayer
370
18
48
1
60
0
100
AcDbSpline
70
4
71
2
72
6
73
3
40
0
40
0
40
0
40
1
40
1
40
1
41
1
10
21.3067730276366
20
-13.4963272369282
30
0
41
1
10
20.9901937495139
20
-13.2016684026504
30
0
41
1
10
20.7436312264788
20
-12.8569944758073
30
0
0
SPLINE
5
17B
100
AcDbEntity
8
1
62
256
6
ByLayer
370
18
48
1
60
0
100
AcDbSpline
70
4
71
2
72
6
73
3
40
0
40
0
40
0
40
1
40
1
40
1
41
1
10
27.9204067299513
20
-8.77482612794393
30
0
41
1
10
27.7448157706648
20
-8.38022354559456
30
0
41
1
10
27.498834386264
20
-8.0344263398684
30
0
0
SPLINE
5
17C
100
AcDbEntity
8
1
62
256
6
ByLayer
370
18
48
1
60
0
100
AcDbSpline
70
4
71
3
72
11
73
7
40
0
40
0
40
0
40
0
40
0.0822848866377002
40
0.373494860945847
40
0.834964888510736
40
1
40
1
40
1
40
1
41
1
10
0.445276765686926
20
-17.1983885503146
30
0
41
1
10
0.445168324943214
20
-17.1941243778263
30
0
41
1
10
0.443457663809864
20
-17.1738897308959
30
0
41
1
10
0.424022535927704
20
-17.1160615913482
30
0
41
1
10
0.384500073989137
20
-17.0431620131851
30
0
41
1
10
0.352279331621755
20
-16.9928897833176
30
0
41
1
10
0.343278579257528
20
-16.9794705811172
30
0
0
SPLINE
5
17D
100
AcDbEntity
8
1
62
256
6
ByLayer
370
18
48
1
60
0
100
AcDbSpline
70
4
71
3
72
12
73
8
40
0
40
0
40
0
40
0
40
0.0075008248747389
40
0.189388674565666
40
0.47277475765219
40
0.881491176975008
40
1
40
1
40
1
40
1
41
1
10
0.445278562274288
20
-19.0604443911285
30
0
41
1
10
0.445278088252719
20
-19.0602670062018
30
0
41
1
10
0.445198373785684
20
-19.0557255871976
30
0
41
1
10
0.440123064539765
20
-19.0396190503337
30
0
41
1
10
0.41421526364712
20
-18.9958101452315
30
0
41
1
10
0.376850745848032
20
-18.9459033340874
30
0
41
1
10
0.349626859814754
20
-18.9124701072047
30
0
41
1
10
0.343278579257506
20
-18.9048259409171
30
0
0
SPLINE
5
17E
100
AcDbEntity
8
1
62
256
6
ByLayer
370
18
48
1
60
0
100
AcDbSpline
70
4
71
3
72
10
73
6
40
0
40
0
40
0
40
0
40
0.428742614172458
40
0.739037394905401
40
1
40
1
40
1
40
1
41
1
10
0.343278579257523
20
-19.5586932485776
30
0
41
1
10
0.362954091454948
20
-19.5773714244807
30
0
41
1
10
0.392612987266278
20
-19.6045302825691
30
0
41
1
10
0.426565337928362
20
-19.633260325067
30
0
41
1
10
0.43763514316118
20
-19.6405616407436
30
0
41
1
10
0.441365738341565
20
-19.6424048608571
30
0
0
SPLINE
5
17F
100
AcDbEntity
8
1
62
256
6
ByLayer
370
18
48
1
60
0
100
AcDbSpline
70
4
71
1
72
4
73
2
40
0
40
0
40
1
40
1
41
1
10
-0.325
20
-18.0890807878676
30
0
41
1
10
0.343278579257498
20
-18.9048259409171
30
0
0
SPLINE
5
180
100
AcDbEntity
8
1
62
256
6
ByLayer
370
18
48
1
60
0
100
AcDbSpline
70
4
71
1
72
4
73
2
40
0
40
0
40
1
40
1
41
1
10
-0.325
20
-16.8327016176845
30
0
41
1
10
0.343278579257493
20
-17.7716749003053
30
0
0
SPLINE
5
181
100
AcDbEntity
8
1
62
256
6
ByLayer
370
18
48
1
60
0
100
AcDbSpline
70
4
71
3
72
16
73
12
40
0
40
0
40
0
40
0
40
0.193175194179159
40
0.386603933897724
40
0.49900769381081
40
0.611232808940374
40
0.703623602274012
40
0.795912588408085
40
0.868506640166581
40
0.94103684844427
40
1
40
1
40
1
40
1
41
1
10
13.845618089615
20
-8.11930569535164
30
0
41
1
10
13.83232377421
20
-7.97370361909398
30
0
41
1
10
13.8468669926859
20
-7.68096016861419
30
0
41
1
10
13.9790134736432
20
-7.32645483513397
30
0
41
1
10
14.1507938435255
20
-6.99160394264408
30
0
41
1
10
14.3264246612547
20
-6.71453343679656
30
0
41
1
10
14.5345169259331
20
-6.43571078586001
30
0
41
1
10
14.7506067663489
20
-6.18553564156297
30
0
41
1
10
14.979009475189
20
-5.95514506257307
30
0
41
1
10
15.1946101820914
20
-5.76102889997199
30
0
41
1
10
15.3401112783568
20
-5.64194423489564
30
0
41
1
10
15.4070133062986
20
-5.58948497152025
30
0
0
SPLINE
5
182
100
AcDbEntity
8
1
62
256
6
ByLayer
370
18
48
1
60
0
100
AcDbSpline
70
4
71
3
72
10
73
6
40
0
40
0
40
0
40
0
40
0.324059532807389
40
0.655488310967219
40
1
40
1
40
1
40
1
41
1
10
13.7897316764684
20
-8.37602554733756
30
0
41
1
10
13.6734915532215
20
-8.21928173764634
30
0
41
1
10
13.4564456480422
20
-7.8761276759309
30
0
41
1
10
13.1552140947514
20
-7.27002594109252
30
0
41
1
10
13.0261822777967
20
-6.8070136150126
30
0
41
1
10
12.9751984156632
20
-6.55681178730571
30
0
0
SPLINE
5
183
100
AcDbEntity
8
1
62
256
6
ByLayer
370
18
48
1
60
0
100
AcDbSpline
70
4
71
3
72
14
73
10
40
0
40
0
40
0
40
0
40
0.121523556149595
40
0.222387548357045
40
0.323386695988189
40
0.488282595064853
40
0.653577964344724
40
0.826693836492839
40
1
40
1
40
1
40
1
41
1
10
33.6069235248865
20
-18.8244266342627
30
0
41
1
10
33.5850959841989
20
-18.6517007662962
30
0
41
1
10
33.5249093547561
20
-18.3665248275228
30
0
41
1
10
33.3794251465696
20
-18.0323628833427
30
0
41
1
10
33.1682732480085
20
-17.7419914871878
30
0
41
1
10
32.8671373902457
20
-17.5182401077464
30
0
41
1
10
32.4724638799627
20
-17.3833453136153
30
0
41
1
10
32.0406756311795
20
-17.3527947032684
30
0
41
1
10
31.7383409481647
20
-17.3776531260189
30
0
41
1
10
31.583654106712
20
-17.4038495869968
30
0
0
SPLINE
5
184
100
AcDbEntity
8
1
62
256
6
ByLayer
370
18
48
1
60
0
100
AcDbSpline
70
4
71
2
72
6
73
3
40
0
40
0
40
0
40
1
40
1
40
1
41
1
10
0.445244632529134
20
-9.65254729666257
30
0
41
1
10
0.433518461432605
20
-9.39490209321676
30
0
41
1
10
0.343278579257493
20
-9.11879287402913
30
0
0
SPLINE
5
185
100
AcDbEntity
8
1
62
256
6
ByLayer
370
18
48
1
60
0
100
AcDbSpline
70
4
71
1
72
4
73
2
40
0
40
0
40
1
40
1
41
1
10
-0.325
20
-17.9642657448057
30
0
41
1
10
0.343278579257518
20
-18.5373273217393
30
0
0
SPLINE
5
186
100
AcDbEntity
8
1
62
256
6
ByLayer
370
18
48
1
60
0
100
AcDbSpline
70
4
71
1
72
4
73
2
40
0
40
0
40
1
40
1
41
1
10
-0.325
20
-18.4126951788705
30
0
41
1
10
0.343278579257515
20
-19.0026970897867
30
0
0
SPLINE
5
187
100
AcDbEntity
8
1
62
256
6
ByLayer
370
18
48
1
60
0
100
AcDbSpline
70
4
71
3
72
13
73
9
40
0
40
0
40
0
40
0
40
0.168954136267188
40
0.340479098198441
40
0.49714309945587
40
0.638017181574651
40
0.870970231941618
40
1
40
1
40
1
40
1
41
1
10
0.34327857925768
20
-13.7398159364996
30
0
41
1
10
0.35318219422251
20
-13.7484122271791
30
0
41
1
10
0.372478775083774
20
-13.7620998397518
30
0
41
1
10
0.400701213888407
20
-13.773709358311
30
0
41
1
10
0.421961934475899
20
-13.7707416975138
30
0
41
1
10
0.437888042990472
20
-13.7550923272346
30
0
41
1
10
0.444325624175568
20
-13.730370490845
30
0
41
1
10
0.44544532805759
20
-13.7101529863137
30
0
41
1
10
0.44527247993629
20
-13.7024163152615
30
0
0
SPLINE
5
188
100
AcDbEntity
8
1
62
256
6
ByLayer
370
18
48
1
60
0
100
AcDbSpline
70
4
71
1
72
4
73
2
40
0
40
0
40
1
40
1
41
1
10
33.7119474096397
20
-17.5951340010598
30
0
41
1
10
33.6069235248893
20
-18.8244266342853
30
0
0
SPLINE
5
189
100
AcDbEntity
8
1
62
256
6
ByLayer
370
18
48
1
60
0
100
AcDbSpline
70
4
71
3
72
13
73
9
40
0
40
0
40
0
40
0
40
0.141058671597443
40
0.284446137838746
40
0.416674820342799
40
0.533460827248103
40
0.732131058923322
40
1
40
1
40
1
40
1
41
1
10
0.343278579257763
20
-12.0130158376656
30
0
41
1
10
0.351792765470624
20
-12.0208777205064
30
0
41
1
10
0.368697627890076
20
-12.0334741648147
30
0
41
1
10
0.394325580498087
20
-12.0445651561464
30
0
41
1
10
0.414771598735632
20
-12.0421392326278
30
0
41
1
10
0.431483890535661
20
-12.0279012614121
30
0
41
1
10
0.44302774038185
20
-11.9966050620045
30
0
41
1
10
0.446113621374669
20
-11.9672404567428
30
0
41
1
10
0.445272647621935
20
-11.9478941621985
30
0
0
SPLINE
5
18A
100
AcDbEntity
8
1
62
256
6
ByLayer
370
18
48
1
60
0
100
AcDbSpline
70
4
71
1
72
4
73
2
40
0
40
0
40
1
40
1
41
1
10
-0.325
20
-15.9578301704837
30
0
41
1
10
0.343278579257492
20
-16.9794705811172
30
0
0
SPLINE
5
18B
100
AcDbEntity
8
1
62
256
6
ByLayer
370
18
48
1
60
0
100
AcDbSpline
70
4
71
3
72
14
73
10
40
0
40
0
40
0
40
0
40
0.130050724875516
40
0.222080484289218
40
0.314623370986083
40
0.398688185331312
40
0.539816298850526
40
0.80919652580801
40
1
40
1
40
1
40
1
41
1
10
0.343278579257924
20
-9.76435133857468
30
0
41
1
10
0.351707238390878
20
-9.7733003168278
30
0
41
1
10
0.366228526536323
20
-9.78502380812441
30
0
41
1
10
0.388148903898651
20
-9.7949329586786
30
0
41
1
10
0.405307877986721
20
-9.79401706043497
30
0
41
1
10
0.421172828385209
20
-9.78320986943704
30
0
41
1
10
0.437182348205408
20
-9.75380586371244
30
0
41
1
10
0.444198076057501
20
-9.70671247825488
30
0
41
1
10
0.445712592659902
20
-9.66898873573361
30
0
41
1
10
0.445244632529134
20
-9.65254729666257
30
0
0
SPLINE
5
18C
100
AcDbEntity
8
1
62
256
6
ByLayer
370
18
48
1
60
0
100
AcDbSpline
70
4
71
3
72
14
73
10
40
0
40
0
40
0
40
0
40
0.144402987238157
40
0.288816040396092
40
0.434645866304541
40
0.580466006356704
40
0.7895432288558
40
0.894806799335098
40
1
40
1
40
1
40
1
41
1
10
23.9586615217844
20
-19.5872167778366
30
0
41
1
10
23.6358831082
20
-19.3902678679378
30
0
41
1
10
23.0007222609546
20
-18.9816279801546
30
0
41
1
10
22.0756771013695
20
-18.3211597845027
30
0
41
1
10
21.1803137731474
20
-17.6161915826097
30
0
41
1
10
20.1996735987612
20
-16.7504175456004
30
0
41
1
10
19.3559440413488
20
-15.8947578504478
30
0
41
1
10
18.6210911913626
20
-15.0827957265034
30
0
41
1
10
18.2808621288652
20
-14.6519997911602
30
0
41
1
10
18.1164969970599
20
-14.4318726258861
30
0
0
SPLINE
5
18D
100
AcDbEntity
8
1
62
256
6
ByLayer
370
18
48
1
60
0
100
AcDbSpline
70
4
71
3
72
13
73
9
40
0
40
0
40
0
40
0
40
0.495007406069546
40
0.646058807279762
40
0.846661626289999
40
0.91520451399917
40
0.98443318373702
40
1
40
1
40
1
40
1
41
1
10
5.675
20
-7.83836717690617
30
0
41
1
10
5.66758105417694
20
-8.01331528528418
30
0
41
1
10
5.69898926806963
20
-8.23136401296492
30
0
41
1
10
5.79989631953047
20
-8.50268143974258
30
0
41
1
10
5.88113531503568
20
-8.62893847716368
30
0
41
1
10
5.98164955072361
20
-8.69947646212533
30
0
41
1
10
6.0376598698325
20
-8.71644162241379
30
0
41
1
10
6.06915457445951
20
-8.71777896612732
30
0
41
1
10
6.07500000000001
20
-8.71779788708135
30
0
0
SPLINE
5
18E
100
AcDbEntity
8
1
62
256
6
ByLayer
370
18
48
1
60
0
100
AcDbSpline
70
4
71
1
72
4
73
2
40
0
40
0
40
1
40
1
41
1
10
-0.325
20
-17.536457559895
30
0
41
1
10
0.343278579257496
20
-18.408216543415
30
0
0
SPLINE
5
18F
100
AcDbEntity
8
1
62
256
6
ByLayer
370
18
48
1
60
0
100
AcDbSpline
70
4
71
1
72
4
73
2
40
0
40
0
40
1
40
1
41
1
10
-0.325
20
-18.5041169405622
30
0
41
1
10
0.343278579257497
20
-19.2723234562802
30
0
0
SPLINE
5
190
100
AcDbEntity
8
1
62
256
6
ByLayer
370
18
48
1
60
0
100
AcDbSpline
70
4
71
1
72
4
73
2
40
0
40
0
40
1
40
1
41
1
10
-0.325
20
-11.8991530686011
30
0
41
1
10
0.34327857925749
20
-13.3683356695468
30
0
0
SPLINE
5
191
100
AcDbEntity
8
1
62
256
6
ByLayer
370
18
48
1
60
0
100
AcDbSpline
70
4
71
1
72
4
73
2
40
0
40
0
40
1
40
1
41
1
10
33.711966094083
20
-17.5950429632585
30
0
41
1
10
33.6278903152692
20
-15.6055942815897
30
0
0
SPLINE
5
192
100
AcDbEntity
8
1
62
256
6
ByLayer
370
18
48
1
60
0
100
AcDbSpline
70
4
71
3
72
15
73
11
40
0
40
0
40
0
40
0
40
0.113778849692651
40
0.227637065445285
40
0.353556241085223
40
0.479540283112238
40
0.630407924417345
40
0.785038004935358
40
0.892516908270899
40
1
40
1
40
1
40
1
41
1
10
25.5176597136986
20
-14.478429473651
30
0
41
1
10
25.3545833227779
20
-14.5356280396563
30
0
41
1
10
25.0238321126623
20
-14.6261992372748
30
0
41
1
10
24.4905597825694
20
-14.6919266693589
30
0
41
1
10
23.9359537201919
20
-14.6808170763005
30
0
41
1
10
23.3328108873333
20
-14.585896929812
30
0
41
1
10
22.7068199574564
20
-14.3931378196939
30
0
41
1
10
22.1421428857822
20
-14.1204477291849
30
0
41
1
10
21.6749426070081
20
-13.8135156326399
30
0
41
1
10
21.4259588952181
20
-13.6068521053224
30
0
41
1
10
21.3067730338345
20
-13.4963272427065
30
0
0
SPLINE
5
193
100
AcDbEntity
8
1
62
256
6
ByLayer
370
18
48
1
60
0
100
AcDbSpline
70
4
71
2
72
6
73
3
40
0
40
0
40
0
40
1
40
1
40
1
41
1
10
18.6853464960702
20
-7.42590371341173
30
0
41
1
10
18.5235891606879
20
-7.07417349692549
30
0
41
1
10
18.3060334129019
20
-6.77261571116957
30
0
0
SPLINE
5
194
100
AcDbEntity
8
1
62
256
6
ByLayer
370
18
48
1
60
0
100
AcDbSpline
70
4
71
3
72
10
73
6
40
0
40
0
40
0
40
0
40
0.276610294777512
40
0.775612231456882
40
1
40
1
40
1
40
1
41
1
10
0.445278565292449
20
-15.1095827087057
30
0
41
1
10
0.443846649876813
20
-15.0868273258237
30
0
41
1
10
0.433933666852963
20
-15.0205039516619
30
0
41
1
10
0.392435077215133
20
-14.9187271297532
30
0
41
1
10
0.355785436385338
20
-14.8464755087282
30
0
41
1
10
0.343278579267313
20
-14.8237109429757
30
0
0
SPLINE
5
195
100
AcDbEntity
8
1
62
256
6
ByLayer
370
18
48
1
60
0
100
AcDbSpline
70
4
71
1
72
4
73
2
40
0
40
0
40
1
40
1
41
1
10
-0.325
20
-11.416647658135
30
0
41
1
10
0.34327857925762
20
-12.0130158376655
30
0
0
SPLINE
5
196
100
AcDbEntity
8
1
62
256
6
ByLayer
370
18
48
1
60
0
100
AcDbSpline
70
4
71
3
72
11
73
7
40
0
40
0
40
0
40
0
40
0.277489935641325
40
0.563277494182936
40
0.780107031837098
40
1
40
1
40
1
40
1
41
1
10
33.5002567791381
20
-15.3345481804919
30
0
41
1
10
33.4203237094567
20
-15.1817600741361
30
0
41
1
10
33.2671202046416
20
-14.8485216070527
30
0
41
1
10
33.0721327191236
20
-14.3153066198923
30
0
41
1
10
32.9260280658592
20
-13.7788433139606
30
0
41
1
10
32.8460350254692
20
-13.4424541035649
30
0
41
1
10
32.8086909127982
20
-13.2691433263519
30
0
0
SPLINE
5
197
100
AcDbEntity
8
1
62
256
6
ByLayer
370
18
48
1
60
0
100
AcDbSpline
70
4
71
1
72
4
73
2
40
0
40
0
40
1
40
1
41
1
10
18.9385544647821
20
-8.54492178021632
30
0
41
1
10
18.9239279669883
20
-8.75734350020336
30
0
0
SPLINE
5
198
100
AcDbEntity
8
1
62
256
6
ByLayer
370
18
48
1
60
0
100
AcDbSpline
70
4
71
2
72
6
73
3
40
0
40
0
40
0
40
1
40
1
40
1
41
1
10
23.0332130357
20
-4.32194338277975
30
0
41
1
10
22.7529674851102
20
-4.05480240478531
30
0
41
1
10
22.5382088865022
20
-3.75124772238867
30
0
0
SPLINE
5
199
100
AcDbEntity
8
1
62
256
6
ByLayer
370
18
48
1
60
0
100
AcDbSpline
70
4
71
3
72
12
73
8
40
0
40
0
40
0
40
0
40
0.181429666134872
40
0.366867448225742
40
0.582033047866576
40
0.802198386802963
40
1
40
1
40
1
40
1
41
1
10
15.5597201993523
20
-5.69370128022744
30
0
41
1
10
15.6934686383139
20
-5.78742965792504
30
0
41
1
10
15.9878843261889
20
-5.98238336689777
30
0
41
1
10
16.5396683881031
20
-6.31208463604109
30
0
41
1
10
17.1996961620234
20
-6.67708852082091
30
0
41
1
10
17.9334312371618
20
-7.05724116675516
30
0
41
1
10
18.4396255531952
20
-7.30730648040261
30
0
41
1
10
18.6853464960702
20
-7.42590371341174
30
0
0
SPLINE
5
19A
100
AcDbEntity
8
1
62
256
6
ByLayer
370
18
48
1
60
0
100
AcDbSpline
70
4
71
3
72
11
73
7
40
0
40
0
40
0
40
0
40
0.133068213654051
40
0.429485520191792
40
0.880916308473794
40
1
40
1
40
1
40
1
41
1
10
0.445277651197064
20
-17.9663915368705
30
0
41
1
10
0.445033883102329
20
-17.9607299320629
30
0
41
1
10
0.442099807542715
20
-17.9408489875055
30
0
41
1
10
0.418332440063977
20
-17.8854800737444
30
0
41
1
10
0.379357715437441
20
-17.8225526302389
30
0
41
1
10
0.349713896671257
20
-17.7805402874376
30
0
41
1
10
0.343278579257496
20
-17.7716749003053
30
0
0
SPLINE
5
19B
100
AcDbEntity
8
1
62
256
6
ByLayer
370
18
48
1
60
0
100
AcDbSpline
70
4
71
3
72
11
73
7
40
0
40
0
40
0
40
0
40
0.433293403363951
40
0.682579817611381
40
0.93372452709161
40
1
40
1
40
1
40
1
41
1
10
0.343278579257517
20
-19.6599204994537
30
0
41
1
10
0.367688841006124
20
-19.6839911778003
30
0
41
1
10
0.3998766570147
20
-19.715289739629
30
0
41
1
10
0.434011736738081
20
-19.7475051765651
30
0
41
1
10
0.444324709850956
20
-19.7562398659291
30
0
41
1
10
0.445269977969878
20
-19.7562409055218
30
0
41
1
10
0.445278578826645
20
-19.7560480647569
30
0
0
SPLINE
5
19C
100
AcDbEntity
8
1
62
256
6
ByLayer
370
18
48
1
60
0
100
AcDbSpline
70
4
71
1
72
4
73
2
40
0
40
0
40
1
40
1
41
1
10
-0.325
20
-18.7307192534083
30
0
41
1
10
0.343278579257509
20
-19.340953677083
30
0
0
SPLINE
5
19D
100
AcDbEntity
8
1
62
256
6
ByLayer
370
18
48
1
60
0
100
AcDbSpline
70
4
71
3
72
12
73
8
40
0
40
0
40
0
40
0
40
0.24477980033371
40
0.453497524176647
40
0.663345002408866
40
0.84937271972174
40
1
40
1
40
1
40
1
41
1
10
0.343278579257574
20
-17.1811675775407
30
0
41
1
10
0.356965916918584
20
-17.1926663294973
30
0
41
1
10
0.380601599408362
20
-17.2097795686244
30
0
41
1
10
0.412711255836417
20
-17.2257698660344
30
0
41
1
10
0.434019983862976
20
-17.2265627857405
30
0
41
1
10
0.443727074202701
20
-17.2153129530243
30
0
41
1
10
0.445425492208069
20
-17.2042930790608
30
0
41
1
10
0.445276765686926
20
-17.1983885503146
30
0
0
SPLINE
5
19E
100
AcDbEntity
8
1
62
256
6
ByLayer
370
18
48
1
60
0
100
AcDbSpline
70
4
71
3
72
17
73
13
40
0
40
0
40
0
40
0
40
0.130238464790171
40
0.263334732062098
40
0.393954291856957
40
0.51637334869023
40
0.624775658810996
40
0.716205668354822
40
0.783807885365181
40
0.846432157703244
40
0.915848409145675
40
1
40
1
40
1
40
1
41
1
10
27.4813945167252
20
-13.0765107043572
30
0
41
1
10
27.6504224761826
20
-13.3608715775334
30
0
41
1
10
27.9869660346472
20
-13.9316855548536
30
0
41
1
10
28.4740479660415
20
-14.7732617716095
30
0
41
1
10
28.9371255594932
20
-15.5854855727169
30
0
41
1
10
29.358415174809
20
-16.3346356292002
30
0
41
1
10
29.722472206528
20
-16.9922408486376
30
0
41
1
10
30.0144042362432
20
-17.5264259785601
30
0
41
1
10
30.2673836205342
20
-17.9528694935869
30
0
41
1
10
30.5171824807728
20
-18.3166567148366
30
0
41
1
10
30.7877586896219
20
-18.6976015291555
30
0
41
1
10
30.9709211193335
20
-18.9676666945491
30
0
41
1
10
31.069426617411
20
-19.1145423484756
30
0
0
SPLINE
5
19F
100
AcDbEntity
8
1
62
256
6
ByLayer
370
18
48
1
60
0
100
AcDbSpline
70
4
71
1
72
4
73
2
40
0
40
0
40
1
40
1
41
1
10
25.9001389552271
20
-21.1225232716485
30
0
41
1
10
25.685789623498
20
-20.9133293677818
30
0
0
SPLINE
5
1A0
100
AcDbEntity
8
1
62
256
6
ByLayer
370
18
48
1
60
0
100
AcDbSpline
70
4
71
3
72
21
73
17
40
0
40
0
40
0
40
0
40
0.0387846401375007
40
0.0869206919816724
40
0.143208125785326
40
0.206285280139472
40
0.315676119316182
40
0.432650019756177
40
0.540774574242063
40
0.645946529723409
40
0.743522580543514
40
0.828841547104868
40
0.899151826997124
40
0.936215701474594
40
0.969831648827314
40
1
40
1
40
1
40
1
41
1
10
29.2700137008196
20
-7.20224824303668
30
0
41
1
10
29.3322877617668
20
-7.32596500480178
30
0
41
1
10
29.4619317089187
20
-7.60736272761608
30
0
41
1
10
29.6282982654458
20
-8.09206268876639
30
0
41
1
10
29.7983318674184
20
-8.66569342239792
30
0
41
1
10
30.0019338728063
20
-9.45739246778164
30
0
41
1
10
30.2265877529186
20
-10.4667675092792
30
0
41
1
10
30.4533220910106
20
-11.6390145762734
30
0
41
1
10
30.6517849672699
20
-12.797386006166
30
0
41
1
10
30.8220931641104
20
-13.8857200332949
30
0
41
1
10
30.9699400089542
20
-14.8900723732547
30
0
41
1
10
31.0929327643657
20
-15.7663041617502
30
0
41
1
10
31.1901636191282
20
-16.4231706951058
30
0
41
1
10
31.3063478566457
20
-16.8776702706936
30
0
41
1
10
31.4378120559795
20
-17.1661889975108
30
0
41
1
10
31.5340730329164
20
-17.330443549168
30
0
41
1
10
31.5836541066694
20
-17.4038495869299
30
0
0
SPLINE
5
1A1
100
AcDbEntity
8
1
62
256
6
ByLayer
370
18
48
1
60
0
100
AcDbSpline
70
4
71
3
72
13
73
9
40
0
40
0
40
0
40
0
40
0.0603494615803559
40
0.27638269619929
40
0.499079839575698
40
0.713063875371961
40
0.927138775344126
40
1
40
1
40
1
40
1
41
1
10
19.5748518516373
20
-11.2191287554788
30
0
41
1
10
19.5429354541835
20
-11.1744175351123
30
0
41
1
10
19.4017919416775
20
-10.9677093924945
30
0
41
1
10
19.1861243029282
20
-10.5747259442513
30
0
41
1
10
18.9965548198672
20
-10.037067583211
30
0
41
1
10
18.9011016361192
20
-9.48875542633066
30
0
41
1
10
18.8951237106101
20
-9.06273705960222
30
0
41
1
10
18.9167866554133
20
-8.81920624683603
30
0
41
1
10
18.9239279669883
20
-8.75734350020336
30
0
0
SPLINE
5
1A2
100
AcDbEntity
8
1
62
256
6
ByLayer
370
18
48
1
60
0
100
AcDbSpline
70
4
71
3
72
12
73
8
40
0
40
0
40
0
40
0
40
0.215960307136074
40
0.431849056886773
40
0.678782268959636
40
0.935223626101778
40
1
40
1
40
1
40
1
41
1
10
24.214716455771
20
-4.98022719792967
30
0
41
1
10
24.3954949551968
20
-5.01985705127662
30
0
41
1
10
24.7461828979763
20
-5.12631956273196
30
0
41
1
10
25.2668158087997
20
-5.37821279420912
30
0
41
1
10
25.7722054608238
20
-5.74451544886352
30
0
41
1
10
26.1217467383647
20
-6.11571455260463
30
0
41
1
10
26.2958098875946
20
-6.34855389579783
30
0
41
1
10
26.3300550114224
20
-6.39656061954008
30
0
0
SPLINE
5
1A3
100
AcDbEntity
8
1
62
256
6
ByLayer
370
18
48
1
60
0
100
AcDbSpline
70
4
71
3
72
11
73
7
40
0
40
0
40
0
40
0
40
0.061433930002467
40
0.498616089800575
40
0.935342336342404
40
1
40
1
40
1
40
1
41
1
10
0.445260365702212
20
-6.26086770321791
30
0
41
1
10
0.445090820838661
20
-6.24264183136495
30
0
41
1
10
0.442658175013206
20
-6.09445957226879
30
0
41
1
10
0.414855746010858
20
-5.80952616700117
30
0
41
1
10
0.373013203699202
20
-5.52292208492828
30
0
41
1
10
0.34673531218378
20
-5.36974425734235
30
0
41
1
10
0.343278579257492
20
-5.34998840487793
30
0
0
SPLINE
5
1A4
100
AcDbEntity
8
1
62
256
6
ByLayer
370
18
48
1
60
0
100
AcDbSpline
70
4
71
3
72
12
73
8
40
0
40
0
40
0
40
0
40
0.267974014480267
40
0.489564449436633
40
0.712449036195287
40
0.907929953647229
40
1
40
1
40
1
40
1
41
1
10
0.343278579257557
20
-17.9349522380301
30
0
41
1
10
0.358160142628831
20
-17.9476227165312
30
0
41
1
10
0.383201493506513
20
-17.9663844926868
30
0
41
1
10
0.416341109053705
20
-17.9845140184206
30
0
41
1
10
0.437126486793405
20
-17.9868081190549
30
0
41
1
10
0.444409843111253
20
-17.9775920618257
30
0
41
1
10
0.445327542670884
20
-17.9693819583734
30
0
41
1
10
0.445277651197064
20
-17.9663915368705
30
0
0
SPLINE
5
1A5
100
AcDbEntity
8
1
62
256
6
ByLayer
370
18
48
1
60
0
100
AcDbSpline
70
4
71
1
72
4
73
2
40
0
40
0
40
1
40
1
41
1
10
-0.325
20
-14.8816949219503
30
0
41
1
10
0.34327857925749
20
-16.008510663641
30
0
0
SPLINE
5
1A6
100
AcDbEntity
8
1
62
256
6
ByLayer
370
18
48
1
60
0
100
AcDbSpline
70
4
71
1
72
4
73
2
40
0
40
0
40
1
40
1
41
1
10
33.5002567791381
20
-15.3345481804919
30
0
41
1
10
33.6280677725834
20
-15.6055221704391
30
0
0
SPLINE
5
1A7
100
AcDbEntity
8
1
62
256
6
ByLayer
370
18
48
1
60
0
100
AcDbSpline
70
4
71
3
72
11
73
7
40
0
40
0
40
0
40
0
40
0.287267503471611
40
0.570601528946045
40
0.783593067567286
40
1
40
1
40
1
40
1
41
1
10
27.4813945916163
20
-13.0765108302469
30
0
41
1
10
27.3343321333381
20
-13.2605466172379
30
0
41
1
10
27.0177094382974
20
-13.5984519804047
30
0
41
1
10
26.5096761630349
20
-13.9922323949248
30
0
41
1
10
26.0048227994782
20
-14.2825254136642
30
0
41
1
10
25.6840318795837
20
-14.4190904550748
30
0
41
1
10
25.5176597136986
20
-14.478429473651
30
0
0
SPLINE
5
1A8
100
AcDbEntity
8
1
62
256
6
ByLayer
370
18
48
1
60
0
100
AcDbSpline
70
4
71
3
72
11
73
7
40
0
40
0
40
0
40
0
40
0.22897413689483
40
0.466571673620238
40
0.928121431217294
40
1
40
1
40
1
40
1
41
1
10
24.0091997060524
20
-4.92496667441747
30
0
41
1
10
23.9285757731583
20
-4.89914393142355
30
0
41
1
10
23.7663442685007
20
-4.83615323244394
30
0
41
1
10
23.4474196213863
20
-4.66548672555488
30
0
41
1
10
23.2039041529743
20
-4.47948072373931
30
0
41
1
10
23.0532453648036
20
-4.34090860139779
30
0
41
1
10
23.0332130357
20
-4.32194338277975
30
0
0
SPLINE
5
1A9
100
AcDbEntity
8
1
62
256
6
ByLayer
370
18
48
1
60
0
100
AcDbSpline
70
4
71
1
72
4
73
2
40
0
40
0
40
1
40
1
41
1
10
10.2665726149912
20
-3.09543394043818
30
0
41
1
10
10.2186961112967
20
-3.02815871741564
30
0
0
SPLINE
5
1AA
100
AcDbEntity
8
1
62
256
6
ByLayer
370
18
48
1
60
0
100
AcDbSpline
70
4
71
3
72
11
73
7
40
0
40
0
40
0
40
0
40
0.0604715205985607
40
0.362833791299748
40
0.863855617591757
40
1
40
1
40
1
40
1
41
1
10
0.445276461883389
20
-16.256703780519
30
0
41
1
10
0.445206936650359
20
-16.2528762742323
30
0
41
1
10
0.443911549010895
20
-16.2293187477691
30
0
41
1
10
0.424684989732747
20
-16.1608362533735
30
0
41
1
10
0.383955337211136
20
-16.0773558548656
30
0
41
1
10
0.350734310444419
20
-16.0207119015102
30
0
41
1
10
0.343278579257521
20
-16.008510663641
30
0
0
SPLINE
5
1AB
100
AcDbEntity
8
1
62
256
6
ByLayer
370
18
48
1
60
0
100
AcDbSpline
70
4
71
3
72
11
73
7
40
0
40
0
40
0
40
0
40
0.312808777433648
40
0.555315581411908
40
0.799487312494111
40
1
40
1
40
1
40
1
41
1
10
0.343278579257538
20
-19.0026970897867
30
0
41
1
10
0.360528591171695
20
-19.0180647195954
30
0
41
1
10
0.388076870400529
20
-19.0406348913393
30
0
41
1
10
0.42265888001201
20
-19.0640134608805
30
0
41
1
10
0.441668382079681
20
-19.0699909131271
30
0
41
1
10
0.445259235720245
20
-19.0646581632245
30
0
41
1
10
0.445278562274288
20
-19.0604443911285
30
0
0
SPLINE
5
1AC
100
AcDbEntity
8
1
62
256
6
ByLayer
370
18
48
1
60
0
100
AcDbSpline
70
4
71
1
72
4
73
2
40
0
40
0
40
1
40
1
41
1
10
-0.325
20
-9.74178339679137
30
0
41
1
10
0.343278579257488
20
-11.54046753934
30
0
0
SPLINE
5
1AD
100
AcDbEntity
8
1
62
256
6
ByLayer
370
18
48
1
60
0
100
AcDbSpline
70
4
71
3
72
12
73
8
40
0
40
0
40
0
40
0
40
0.290765544589969
40
0.523685084643961
40
0.758079576935363
40
0.961261815890465
40
1
40
1
40
1
40
1
41
1
10
0.343278579257546
20
-18.5373273217393
30
0
41
1
10
0.359343431903524
20
-18.5512817343647
30
0
41
1
10
0.38568141411117
20
-18.5718589878302
30
0
41
1
10
0.419638401458348
20
-18.5924392092314
30
0
41
1
10
0.439720660842261
20
-18.5965303289394
30
0
41
1
10
0.444944156933013
20
-18.5891509262954
30
0
41
1
10
0.445285693903682
20
-18.5832182180264
30
0
41
1
10
0.445278449568786
20
-18.5822039742274
30
0
0
SPLINE
5
1AE
100
AcDbEntity
8
1
62
256
6
ByLayer
370
18
48
1
60
0
100
AcDbSpline
70
4
71
2
72
6
73
3
40
0
40
0
40
0
40
1
40
1
40
1
41
1
10
31.0694266174205
20
-19.1145423484899
30
0
41
1
10
31.0957746847443
20
-19.7297703838769
30
0
41
1
10
31.1568312704889
20
-20.3091709046471
30
0
0
SPLINE
5
1AF
100
AcDbEntity
8
1
62
256
6
ByLayer
370
18
48
1
60
0
100
AcDbSpline
70
4
71
3
72
15
73
11
40
0
40
0
40
0
40
0
40
0.183386250218152
40
0.366943563477102
40
0.549390059741183
40
0.671720177562543
40
0.793783034007534
40
0.892517276558756
40
0.991241635182388
40
1
40
1
40
1
40
1
41
1
10
28.2718259495381
20
-19.7681777300259
30
0
41
1
10
28.1921533084424
20
-19.9144005504126
30
0
41
1
10
28.0647981736632
20
-20.2096685374892
30
0
41
1
10
27.9514592241363
20
-20.6603892494979
30
0
41
1
10
27.9690613594999
20
-21.0670950344929
30
0
41
1
10
28.0959585720766
20
-21.4198227898983
30
0
41
1
10
28.2906779041521
20
-21.6960943138729
30
0
41
1
10
28.5710360182994
20
-21.9356132518561
30
0
41
1
10
28.8047802036383
20
-22.0756328629766
30
0
41
1
10
28.9397503847903
20
-22.1429688716438
30
0
41
1
10
28.9508417011082
20
-22.1484231616519
30
0
0
SPLINE
5
1B0
100
AcDbEntity
8
1
62
256
6
ByLayer
370
18
48
1
60
0
100
AcDbSpline
70
4
71
1
72
4
73
2
40
0
40
0
40
1
40
1
41
1
10
27.7540845935624
20
-21.8484774905253
30
0
41
1
10
28.9508417011082
20
-22.1484231616519
30
0
0
SPLINE
5
1B1
100
AcDbEntity
8
1
62
256
6
ByLayer
370
18
48
1
60
0
100
AcDbSpline
70
4
71
3
72
17
73
13
40
0
40
0
40
0
40
0
40
0.13023846474231
40
0.263334731270984
40
0.393954289831345
40
0.51637334524818
40
0.624775654101447
40
0.716205662892977
40
0.783807881204232
40
0.846432154747479
40
0.915848407525955
40
1
40
1
40
1
40
1
41
1
10
25.5176597136986
20
-14.478429473651
30
0
41
1
10
25.7315194921459
20
-14.730784712478
30
0
41
1
10
26.1616805795649
20
-15.2347647194993
30
0
41
1
10
26.7987537393279
20
-15.9692615313534
30
0
41
1
10
27.4158131987889
20
-16.671556992494
30
0
41
1
10
27.9867872548294
20
-17.3138466601416
30
0
41
1
10
28.4898044059471
20
-17.8722476337067
30
0
41
1
10
28.8995961428229
20
-18.3222922031977
30
0
41
1
10
29.220222227456
20
-18.7004424455786
30
0
41
1
10
29.4826622543508
20
-19.0552050844314
30
0
41
1
10
29.7545171165946
20
-19.4352370626812
30
0
41
1
10
29.9500444318373
20
-19.6964748839457
30
0
41
1
10
30.0567364184104
20
-19.8375061690765
30
0
0
SPLINE
5
1B2
100
AcDbEntity
8
1
62
256
6
ByLayer
370
18
48
1
60
0
100
AcDbSpline
70
4
71
3
72
10
73
6
40
0
40
0
40
0
40
0
40
0.470923083159053
40
0.891368634980565
40
1
40
1
40
1
40
1
41
1
10
18.6853464960702
20
-7.42590371341173
30
0
41
1
10
18.7645113496678
20
-7.59501515425853
30
0
41
1
10
18.8780513992498
20
-7.91829638343824
30
0
41
1
10
18.9384533125339
20
-8.31067900054824
30
0
41
1
10
18.9394660413782
20
-8.50513112988276
30
0
41
1
10
18.9385544647821
20
-8.54492178021631
30
0
0
SPLINE
5
1B3
100
AcDbEntity
8
1
62
256
6
ByLayer
370
18
48
1
60
0
100
AcDbSpline
70
4
71
3
72
11
73
7
40
0
40
0
40
0
40
0
40
0.115869699240126
40
0.32331104248089
40
0.650767757014929
40
1
40
1
40
1
40
1
41
1
10
8.87007096189908
20
-4.55593587680748
30
0
41
1
10
8.91599284602043
20
-4.49436268178323
30
0
41
1
10
9.04751942971276
20
-4.32485954523671
30
0
41
1
10
9.32585139916615
20
-3.99114536602301
30
0
41
1
10
9.76589664702567
20
-3.58604163491329
30
0
41
1
10
10.121997974862
20
-3.30115701666975
30
0
41
1
10
10.3144491186856
20
-3.16270916346062
30
0
0
SPLINE
5
1B4
100
AcDbEntity
8
1
62
256
6
ByLayer
370
18
48
1
60
0
100
AcDbSpline
70
4
71
3
72
12
73
8
40
0
40
0
40
0
40
0
40
0.0438343335622021
40
0.236937390635222
40
0.505262177317792
40
0.87772864341794
40
1
40
1
40
1
40
1
41
1
10
0.445278478222283
20
-19.641804841135
30
0
41
1
10
0.445269161279868
20
-19.6413780792393
30
0
41
1
10
0.444748661114405
20
-19.638613748235
30
0
41
1
10
0.437570660098177
20
-19.6266640075728
30
0
41
1
10
0.410865346765
20
-19.5930694322719
30
0
41
1
10
0.375167016941433
20
-19.5526651402778
30
0
41
1
10
0.34977908234937
20
-19.5250146659593
30
0
41
1
10
0.343278579257352
20
-19.5180034570802
30
0
0
SPLINE
5
1B5
100
AcDbEntity
8
1
62
256
6
ByLayer
370
18
48
1
60
0
100
AcDbSpline
70
4
71
3
72
11
73
7
40
0
40
0
40
0
40
0
40
0.181024173720464
40
0.479311993593026
40
0.92011729235756
40
1
40
1
40
1
40
1
41
1
10
0.445278449568786
20
-18.5822039742274
30
0
41
1
10
0.444867724348169
20
-18.5759807093297
30
0
41
1
10
0.440658780706676
20
-18.5570632822934
30
0
41
1
10
0.412919556463235
20
-18.50416897711
30
0
41
1
10
0.374820664990341
20
-18.4492867238291
30
0
41
1
10
0.347563754346218
20
-18.413719487323
30
0
41
1
10
0.343278579257497
20
-18.408216543415
30
0
0
SPLINE
5
1B6
100
AcDbEntity
8
1
62
256
6
ByLayer
370
18
48
1
60
0
100
AcDbSpline
70
4
71
3
72
11
73
7
40
0
40
0
40
0
40
0
40
0.100374245368599
40
0.308921682213199
40
0.64333054307074
40
1
40
1
40
1
40
1
41
1
10
8.85942395312169
20
-4.43962783567508
30
0
41
1
10
8.89832216647998
20
-4.38814700510969
30
0
41
1
10
9.02079134519429
20
-4.23159446279337
30
0
41
1
10
9.28919528509923
20
-3.91311480203929
30
0
41
1
10
9.72345891978792
20
-3.51417253214081
30
0
41
1
10
10.0761287265208
20
-3.23244990281254
30
0
41
1
10
10.2665726149912
20
-3.09543394043818
30
0
0
SPLINE
5
1B7
100
AcDbEntity
8
1
62
256
6
ByLayer
370
18
48
1
60
0
100
AcDbSpline
70
4
71
1
72
4
73
2
40
0
40
0
40
1
40
1
41
1
10
-0.325
20
-18.9990748130008
30
0
41
1
10
0.343278579257504
20
-19.6599204994536
30
0
0
SPLINE
5
1B8
100
AcDbEntity
8
1
62
256
6
ByLayer
370
18
48
1
60
0
100
AcDbSpline
70
4
71
1
72
4
73
2
40
0
40
0
40
1
40
1
41
1
10
-0.325
20
-14.576173837808
30
0
41
1
10
0.343278579257558
20
-15.1245672474213
30
0
0
SPLINE
5
1B9
100
AcDbEntity
8
1
62
256
6
ByLayer
370
18
48
1
60
0
100
AcDbSpline
70
4
71
1
72
4
73
2
40
0
40
0
40
1
40
1
41
1
10
-0.325
20
-5.49680304814398
30
0
41
1
10
0.343278579257491
20
-6.47090137540591
30
0
0
SPLINE
5
1BA
100
AcDbEntity
8
1
62
256
6
ByLayer
370
18
48
1
60
0
100
AcDbSpline
70
4
71
1
72
4
73
2
40
0
40
0
40
1
40
1
41
1
10
-0.325
20
-13.5564502636199
30
0
41
1
10
0.343278579257489
20
-14.8237109429722
30
0
0
SPLINE
5
1BB
100
AcDbEntity
8
1
62
256
6
ByLayer
370
18
48
1
60
0
100
AcDbSpline
70
4
71
3
72
11
73
7
40
0
40
0
40
0
40
0
40
0.302293823441658
40
0.613181578417228
40
0.805254037931526
40
1
40
1
40
1
40
1
41
1
10
23.9586615217844
20
-19.5872167778366
30
0
41
1
10
24.1690414383334
20
-19.7129990895747
30
0
41
1
10
24.5740059184397
20
-19.9740992952493
30
0
41
1
10
25.0646703584427
20
-20.3303527650672
30
0
41
1
10
25.4249474037401
20
-20.6538256384959
30
0
41
1
10
25.6024902734077
20
-20.8267949380085
30
0
41
1
10
25.685789623498
20
-20.9133293677818
30
0
0
SPLINE
5
1BC
100
AcDbEntity
8
1
62
256
6
ByLayer
370
18
48
1
60
0
100
AcDbSpline
70
4
71
1
72
4
73
2
40
0
40
0
40
1
40
1
41
1
10
30.2246845877855
20
-22.383290226379
30
0
41
1
10
30.4556490279764
20
-22.455362762378
30
0
0
SPLINE
5
1BD
100
AcDbEntity
8
1
62
256
6
ByLayer
370
18
48
1
60
0
100
AcDbSpline
70
4
71
3
72
15
73
11
40
0
40
0
40
0
40
0
40
0.110693970968658
40
0.197429022413272
40
0.284502571994586
40
0.366456905974865
40
0.497678234412344
40
0.61543275515324
40
0.733526927695916
40
1
40
1
40
1
40
1
41
1
10
31.5836541067127
20
-17.4038495869978
30
0
41
1
10
31.5429617896696
20
-17.4073955706497
30
0
41
1
10
31.4699160222883
20
-17.4371327435751
30
0
41
1
10
31.3580087188938
20
-17.537174131229
30
0
41
1
10
31.2662544291251
20
-17.6801122143064
30
0
41
1
10
31.1812836643192
20
-17.8816626915225
30
0
41
1
10
31.1205415742261
20
-18.1193622543957
30
0
41
1
10
31.083222320756
20
-18.3744514400086
30
0
41
1
10
31.0595672376075
20
-18.7100466250232
30
0
41
1
10
31.0592501211983
20
-18.9531101345391
30
0
41
1
10
31.0694266174205
20
-19.1145423484899
30
0
0
SPLINE
5
1BE
100
AcDbEntity
8
1
62
256
6
ByLayer
370
18
48
1
60
0
100
AcDbSpline
70
4
71
1
72
4
73
2
40
0
40
0
40
1
40
1
41
1
10
15.4630419946747
20
-5.54744656805722
30
0
41
1
10
15.4070133062986
20
-5.58948497152025
30
0
0
SPLINE
5
1BF
100
AcDbEntity
8
1
62
256
6
ByLayer
370
18
48
1
60
0
100
AcDbSpline
70
4
71
1
72
4
73
2
40
0
40
0
40
1
40
1
41
1
10
24.214716455771
20
-4.98022719792967
30
0
41
1
10
24.0091997060524
20
-4.92496667441747
30
0
0
SPLINE
5
1C0
100
AcDbEntity
8
1
62
256
6
ByLayer
370
18
48
1
60
0
100
AcDbSpline
70
4
71
3
72
12
73
8
40
0
40
0
40
0
40
0
40
0.0105032361937524
40
0.196990273720403
40
0.466602141129806
40
0.846744914282879
40
1
40
1
40
1
40
1
41
1
10
0.445278557749301
20
-19.4113552248758
30
0
41
1
10
0.445277819605555
20
-19.4111833810617
30
0
41
1
10
0.445166575129702
20
-19.4078675462543
30
0
41
1
10
0.440028138996719
20
-19.3951646174866
30
0
41
1
10
0.415265967954135
20
-19.3584484081592
30
0
41
1
10
0.378705087398387
20
-19.3131815910777
30
0
41
1
10
0.351481485306915
20
-19.2816433297453
30
0
41
1
10
0.343278579257387
20
-19.2723234562796
30
0
0
SPLINE
5
1C1
100
AcDbEntity
8
1
62
256
6
ByLayer
370
18
48
1
60
0
100
AcDbSpline
70
4
71
1
72
4
73
2
40
0
40
0
40
1
40
1
41
1
10
-0.325
20
-16.6309904620861
30
0
41
1
10
0.343278579257532
20
-17.1811675775407
30
0
0
SPLINE
5
1C2
100
AcDbEntity
8
1
62
256
6
ByLayer
370
18
48
1
60
0
100
AcDbSpline
70
4
71
1
72
4
73
2
40
0
40
0
40
1
40
1
41
1
10
25.9002645282668
20
-21.1223791778081
30
0
41
1
10
27.7539645166317
20
-21.8484618917498
30
0
0
SPLINE
5
1C3
100
AcDbEntity
8
1
62
256
6
ByLayer
370
18
48
1
60
0
100
AcDbSpline
70
4
71
3
72
14
73
10
40
0
40
0
40
0
40
0
40
0.160803108009355
40
0.321601255345445
40
0.482749910744495
40
0.643860957374315
40
0.77768928768414
40
0.911384844347717
40
1
40
1
40
1
40
1
41
1
10
27.9204067361454
20
-8.77482614183517
30
0
41
1
10
28.0188191250208
20
-8.99860243911299
30
0
41
1
10
28.1773849422235
20
-9.45549185494043
30
0
41
1
10
28.3016195654796
20
-10.1786810968418
30
0
41
1
10
28.3087580140351
20
-10.9117790404249
30
0
41
1
10
28.2040861630453
20
-11.5965199974926
30
0
41
1
10
28.0032947417819
20
-12.2146868629602
30
0
41
1
10
27.7580152081887
20
-12.6979821593344
30
0
41
1
10
27.5648129790553
20
-12.9713111992789
30
0
41
1
10
27.4813945916165
20
-13.0765108302478
30
0
0
SPLINE
5
1C4
100
AcDbEntity
8
1
62
256
6
ByLayer
370
18
48
1
60
0
100
AcDbSpline
70
4
71
3
72
14
73
10
40
0
40
0
40
0
40
0
40
0.185711059847536
40
0.374949563145765
40
0.487831160120499
40
0.600699303269452
40
0.717935915300255
40
0.835152857895956
40
1
40
1
40
1
40
1
41
1
10
18.9385544647821
20
-8.54492178021631
30
0
41
1
10
18.6465668939435
20
-8.54540683982554
30
0
41
1
10
18.0706121051561
20
-8.53816474337753
30
0
41
1
10
17.3485964374116
20
-8.50799646867078
30
0
41
1
10
16.7700938566258
20
-8.46637489772377
30
0
41
1
10
16.3173167031409
20
-8.42180608804843
30
0
41
1
10
15.8912488242308
20
-8.36562509413385
30
0
41
1
10
15.4447930059759
20
-8.28782686562211
30
0
41
1
10
15.1760491020932
20
-8.22118041548055
30
0
41
1
10
15.0339343451042
20
-8.17828378920784
30
0
0
SPLINE
5
1C5
100
AcDbEntity
8
1
62
256
6
ByLayer
370
18
48
1
60
0
100
AcDbSpline
70
4
71
1
72
4
73
2
40
0
40
0
40
1
40
1
41
1
10
23.7349860049615
20
-25.0319911318136
30
0
41
1
10
25.0638642642654
20
-25.1712647532893
30
0
0
SPLINE
5
1C6
100
AcDbEntity
8
1
62
256
6
ByLayer
370
18
48
1
60
0
100
AcDbSpline
70
4
71
3
72
11
73
7
40
0
40
0
40
0
40
0
40
0.145966883633056
40
0.346355297614402
40
0.635219605063806
40
1
40
1
40
1
40
1
41
1
10
0.445278578826645
20
-19.7560480647569
30
0
41
1
10
0.445179945369049
20
-19.75548780352
30
0
41
1
10
0.442840478870627
20
-19.7520694640329
30
0
41
1
10
0.428323983480815
20
-19.7355756042465
30
0
41
1
10
0.394897040453733
20
-19.6998578095013
30
0
41
1
10
0.363451325624323
20
-19.667162165224
30
0
41
1
10
0.343278579257502
20
-19.6464364834369
30
0
0
SPLINE
5
1C7
100
AcDbEntity
8
1
62
256
6
ByLayer
370
18
48
1
60
0
100
AcDbSpline
70
4
71
1
72
4
73
2
40
0
40
0
40
1
40
1
41
1
10
-0.325
20
-17.3753372269432
30
0
41
1
10
0.343278579257525
20
-17.93495223803
30
0
0
SPLINE
5
1C8
100
AcDbEntity
8
1
62
256
6
ByLayer
370
18
48
1
60
0
100
AcDbSpline
70
4
71
1
72
4
73
2
40
0
40
0
40
1
40
1
41
1
10
-0.325
20
-18.9546127301509
30
0
41
1
10
0.343278579257503
20
-19.6464364834369
30
0
0
SPLINE
5
1C9
100
AcDbEntity
8
1
62
256
6
ByLayer
370
18
48
1
60
0
100
AcDbSpline
70
4
71
2
72
6
73
3
40
0
40
0
40
0
40
1
40
1
40
1
41
1
10
-0.325
20
-6.61172018086065
30
0
41
1
10
-0.0372120069985985
20
-7.88172906724867
30
0
41
1
10
0.343278579257491
20
-9.11879287402913
30
0
0
SPLINE
5
1CA
100
AcDbEntity
8
1
62
256
6
ByLayer
370
18
48
1
60
0
100
AcDbSpline
70
4
71
2
72
6
73
3
40
0
40
0
40
0
40
1
40
1
40
1
41
1
10
31.1568312704873
20
-20.3091709046318
30
0
41
1
10
30.6283166162909
20
-20.062992339693
30
0
41
1
10
30.0567364184165
20
-19.8375061690845
30
0
0
SPLINE
5
1CB
100
AcDbEntity
8
1
62
256
6
ByLayer
370
18
48
1
60
0
100
AcDbSpline
70
4
71
1
72
4
73
2
40
0
40
0
40
1
40
1
41
1
10
33.4076343223651
20
-20.3479279626033
30
0
41
1
10
33.4146914255768
20
-20.1059308390337
30
0
0
SPLINE
5
1CC
100
AcDbEntity
8
1
62
256
6
ByLayer
370
18
48
1
60
0
100
AcDbSpline
70
4
71
3
72
21
73
17
40
0
40
0
40
0
40
0
40
0.0387846401381885
40
0.0869206919828081
40
0.143208125786672
40
0.206285280140793
40
0.315676119316983
40
0.432650019755859
40
0.540774574240229
40
0.645946529719766
40
0.743522580537989
40
0.828841547097602
40
0.899151826988438
40
0.936215701465231
40
0.96983164881745
40
1
40
1
40
1
40
1
41
1
10
19.3772296963791
20
-14.2647486278596
30
0
41
1
10
19.4739941426038
20
-14.3638425575546
30
0
41
1
10
19.6979929951734
20
-14.5778799139208
30
0
41
1
10
20.102357525514
20
-14.8926721139436
30
0
41
1
10
20.5896444429958
20
-15.239814362458
30
0
41
1
10
21.2722702988057
20
-15.6895362529456
30
0
41
1
10
22.1539113336795
20
-16.229885383115
30
0
41
1
10
23.1888592564585
20
-16.8251453501897
30
0
41
1
10
24.219787309884
20
-17.3892163656082
30
0
41
1
10
25.1935657920068
20
-17.9039495543326
30
0
41
1
10
26.0951670623406
20
-18.3701934186779
30
0
41
1
10
26.8836392727418
20
-18.7713366067377
30
0
41
1
10
27.4730101906959
20
-19.0768622653492
30
0
41
1
10
27.8648259890401
20
-19.3345873026883
30
0
41
1
10
28.0947202769477
20
-19.5528363725752
30
0
41
1
10
28.2186041058717
20
-19.6973708532845
30
0
41
1
10
28.2718259495383
20
-19.7681777300262
30
0
0
SPLINE
5
1CD
100
AcDbEntity
8
1
62
256
6
ByLayer
370
18
48
1
60
0
100
AcDbSpline
70
4
71
3
72
14
73
10
40
0
40
0
40
0
40
0
40
0.0046371930015446
40
0.170530994167954
40
0.336424795334362
40
0.502318596500772
40
0.668212397667182
40
0.834106198833592
40
1
40
1
40
1
40
1
41
1
10
21.3067730122989
20
-13.4963272543099
30
0
41
1
10
21.3030109794894
20
-13.4983542386818
30
0
41
1
10
21.1647662973783
20
-13.5727666200461
30
0
41
1
10
20.8985532676217
20
-13.7106790225881
30
0
41
1
10
20.5289162978997
20
-13.8862880480779
30
0
41
1
10
20.1874715882284
20
-14.0315913419523
30
0
41
1
10
19.8783030075977
20
-14.1448600907831
30
0
41
1
10
19.6046675374255
20
-14.2248612725495
30
0
41
1
10
19.4487780311042
20
-14.2552360167555
30
0
41
1
10
19.3772296963791
20
-14.2647486278596
30
0
0
SPLINE
5
1CE
100
AcDbEntity
8
1
62
256
6
ByLayer
370
18
48
1
60
0
100
AcDbSpline
70
4
71
3
72
14
73
10
40
0
40
0
40
0
40
0
40
0.165893799697863
40
0.331787599395727
40
0.497681399093589
40
0.663575198791452
40
0.829468998489316
40
0.995362798187179
40
1
40
1
40
1
40
1
41
1
10
29.2700137008196
20
-7.20224824303668
30
0
41
1
10
29.2380420316806
20
-7.26663900097381
30
0
41
1
10
29.1591952860335
20
-7.40384346087377
30
0
41
1
10
28.9953874963122
20
-7.63613487439156
30
0
41
1
10
28.7885243827697
20
-7.89126333680487
30
0
41
1
10
28.5408230471811
20
-8.1665538989669
30
0
41
1
10
28.2552374759052
20
-8.45871101957533
30
0
41
1
10
28.0386672730734
20
-8.66545961215731
30
0
41
1
10
27.9235415562937
20
-8.77192943242906
30
0
41
1
10
27.9204067361454
20
-8.77482614183517
30
0
0
SPLINE
5
1CF
100
AcDbEntity
8
1
62
256
6
ByLayer
370
18
48
1
60
0
100
AcDbSpline
70
4
71
3
72
13
73
9
40
0
40
0
40
0
40
0
40
0.197050152784755
40
0.396981370436991
40
0.575605689930483
40
0.736700673248653
40
0.994362422489873
40
1
40
1
40
1
40
1
41
1
10
0.343278579257629
20
-15.1245672474213
30
0
41
1
10
0.354509339231674
20
-15.1340490649261
30
0
41
1
10
0.376048390698279
20
-15.1491338544769
30
0
41
1
10
0.406480497719692
20
-15.1617880420809
30
0
41
1
10
0.427956518581544
20
-15.1586912211568
30
0
41
1
10
0.442270778710984
20
-15.1423606773935
30
0
41
1
10
0.445242328943631
20
-15.1230605526022
30
0
41
1
10
0.44527883890382
20
-15.1098661808777
30
0
41
1
10
0.445278565292449
20
-15.1095827087057
30
0
0
SPLINE
5
1D0
100
AcDbEntity
8
1
62
256
6
ByLayer
370
18
48
1
60
0
100
AcDbSpline
70
4
71
3
72
11
73
7
40
0
40
0
40
0
40
0
40
0.334203165014054
40
0.584693294016771
40
0.797901593721769
40
1
40
1
40
1
40
1
41
1
10
0.343278579257529
20
-19.340953677083
30
0
41
1
10
0.361727935515897
20
-19.357886224579
30
0
41
1
10
0.390417253390712
20
-19.3826807297043
30
0
41
1
10
0.423809182723096
20
-19.4078808585394
30
0
41
1
10
0.441666854331884
20
-19.4168085916638
30
0
41
1
10
0.445199039479044
20
-19.4143504616077
30
0
41
1
10
0.445278557749301
20
-19.4113552248758
30
0
0
SPLINE
5
1D1
100
AcDbEntity
8
1
62
256
6
ByLayer
370
18
48
1
60
0
100
AcDbSpline
70
4
71
1
72
4
73
2
40
0
40
0
40
1
40
1
41
1
10
-0.325
20
-15.709148409446
30
0
41
1
10
0.343278579257544
20
-16.2549231580666
30
0
0
SPLINE
5
1D2
100
AcDbEntity
8
1
62
256
6
ByLayer
370
18
48
1
60
0
100
AcDbSpline
70
4
71
3
72
10
73
6
40
0
40
0
40
0
40
0
40
0.171320465767151
40
0.658767162674057
40
1
40
1
40
1
40
1
41
1
10
0.44527247993629
20
-13.7024163152615
30
0
41
1
10
0.44461404845817
20
-13.6855155928781
30
0
41
1
10
0.438706059453574
20
-13.6191190534705
30
0
41
1
10
0.402532531626223
20
-13.5031347444044
30
0
41
1
10
0.362577520261404
20
-13.4082636506737
30
0
41
1
10
0.34327857925749
20
-13.3683356695468
30
0
0
SPLINE
5
1D3
100
AcDbEntity
8
1
62
256
6
ByLayer
370
18
48
1
60
0
100
AcDbSpline
70
4
71
1
72
4
73
2
40
0
40
0
40
1
40
1
41
1
10
10.3144491186856
20
-3.16270916346062
30
0
41
1
10
10.2665726149911
20
-3.09543394043807
30
0
0
SPLINE
5
1D4
100
AcDbEntity
8
1
62
256
6
ByLayer
370
18
48
1
60
0
100
AcDbSpline
70
4
71
3
72
10
73
6
40
0
40
0
40
0
40
0
40
0.0550687869983886
40
0.500493573635717
40
1
40
1
40
1
40
1
41
1
10
0.445272647621935
20
-11.9478941621985
30
0
41
1
10
0.445177815964119
20
-11.9411096869194
30
0
41
1
10
0.443365595487266
20
-11.8790493140595
30
0
41
1
10
0.414620981690953
20
-11.7410587274259
30
0
41
1
10
0.372440600569546
20
-11.6112270761769
30
0
41
1
10
0.343278579257488
20
-11.54046753934
30
0
0
SPLINE
5
1D5
100
AcDbEntity
8
1
62
256
6
ByLayer
370
18
48
1
60
0
100
AcDbSpline
70
4
71
1
72
4
73
2
40
0
40
0
40
1
40
1
41
1
10
-0.325
20
-9.08445616148815
30
0
41
1
10
0.343278579257683
20
-9.76435133857445
30
0
0
SPLINE
5
1D6
100
AcDbEntity
8
1
62
256
6
ByLayer
370
18
48
1
60
0
100
AcDbSpline
70
4
71
1
72
4
73
2
40
0
40
0
40
1
40
1
41
1
10
-0.325
20
-18.9249133089164
30
0
41
1
10
0.343278579257508
20
-19.5586932485776
30
0
0
SPLINE
5
1D7
100
AcDbEntity
8
1
62
256
6
ByLayer
370
18
48
1
60
0
100
AcDbSpline
70
4
71
3
72
15
73
11
40
0
40
0
40
0
40
0
40
0.0498638050737796
40
0.122795903165644
40
0.166348082370445
40
0.210036144463428
40
0.270820664291874
40
0.330946498028945
40
0.60638511810414
40
1
40
1
40
1
40
1
41
1
10
0.343278579257491
20
-6.47090137540591
30
0
41
1
10
0.346711582564094
20
-6.47581867877686
30
0
41
1
10
0.35559706798653
20
-6.48685961831548
30
0
41
1
10
0.369132920455396
20
-6.49985290758525
30
0
41
1
10
0.383387883734876
20
-6.50664553034538
30
0
41
1
10
0.396392298455338
20
-6.50696367104626
30
0
41
1
10
0.408438019362648
20
-6.49911327722696
30
0
41
1
10
0.429073623753771
20
-6.46769521337465
30
0
41
1
10
0.442130806905395
20
-6.38453923335195
30
0
41
1
10
0.447948173822278
20
-6.30943861693232
30
0
41
1
10
0.445260365702212
20
-6.26086770321791
30
0
0
SPLINE
5
1D8
100
AcDbEntity
8
1
62
256
6
ByLayer
370
18
48
1
60
0
100
AcDbSpline
70
4
71
1
72
4
73
2
40
0
40
0
40
1
40
1
41
1
10
29.2700137008196
20
-7.20224824303668
30
0
41
1
10
29.8329060142331
20
-6.06747862361278
30
0
0
SPLINE
5
1D9
100
AcDbEntity
8
1
62
256
6
ByLayer
370
18
48
1
60
0
100
AcDbSpline
70
4
71
3
72
13
73
9
40
0
40
0
40
0
40
0
40
0.0949456310502642
40
0.189945938410663
40
0.381302979155934
40
0.576203035380222
40
0.772127636249983
40
1
40
1
40
1
40
1
41
1
10
29.832906014233
20
-6.06747862361278
30
0
41
1
10
29.9727235045801
20
-6.27219911045263
30
0
41
1
10
30.2416357673736
20
-6.68828781067883
30
0
41
1
10
30.728374043922
20
-7.55639005766238
30
0
41
1
10
31.2970477662396
20
-8.67680713693303
30
0
41
1
10
31.8883954155186
20
-10.0786068893043
30
0
41
1
10
32.399292657287
20
-11.614173019395
30
0
41
1
10
32.6796703359014
20
-12.6858649116528
30
0
41
1
10
32.8086909127982
20
-13.2691433263519
30
0
0
SPLINE
5
1DA
100
AcDbEntity
8
1
62
256
6
ByLayer
370
18
48
1
60
0
100
AcDbSpline
70
4
71
3
72
13
73
9
40
0
40
0
40
0
40
0
40
0.0725389561299515
40
0.282680251094777
40
0.494082831480981
40
0.681208669576188
40
0.932107707459367
40
1
40
1
40
1
40
1
41
1
10
0.445277610226232
20
17.1985207267192
30
0
41
1
10
0.445315706174884
20
17.2012941563013
30
0
41
1
10
0.444663865666179
20
17.2112835613887
30
0
41
1
10
0.438639345456732
20
17.2244257733822
30
0
41
1
10
0.419805231488421
20
17.2272672931153
30
0
41
1
10
0.390720195017948
20
17.2159538180705
30
0
41
1
10
0.363942825772078
20
17.1977599436425
30
0
41
1
10
0.346940535849683
20
17.1841955781061
30
0
41
1
10
0.343278579257063
20
17.1811675775405
30
0
0
SPLINE
5
1DB
100
AcDbEntity
8
1
62
256
6
ByLayer
370
18
48
1
60
0
100
AcDbSpline
70
4
71
3
72
15
73
11
40
0
40
0
40
0
40
0
40
0.129189753030104
40
0.267657390716857
40
0.419101253419896
40
0.560919521554052
40
0.667028662144069
40
0.772027395909127
40
0.885119423814029
40
1
40
1
40
1
40
1
41
1
10
25.5752131268895
20
6.26205037370778
30
0
41
1
10
25.4045913868674
20
6.26512941037968
30
0
41
1
10
25.0500058774939
20
6.25260550906416
30
0
41
1
10
24.487399220206
20
6.16896017516322
30
0
41
1
10
23.9122257295876
20
6.02022089105114
30
0
41
1
10
23.385706313515
20
5.85251865775835
30
0
41
1
10
22.9234094654218
20
5.68454794205298
30
0
41
1
10
22.5181076982789
20
5.4740735085229
30
0
41
1
10
22.1086628664174
20
5.24496110999455
30
0
41
1
10
21.841052406308
20
5.06627263007116
30
0
41
1
10
21.7087677014557
20
4.97174311402643
30
0
0
SPLINE
5
1DC
100
AcDbEntity
8
1
62
256
6
ByLayer
370
18
48
1
60
0
100
AcDbSpline
70
4
71
3
72
13
73
9
40
0
40
0
40
0
40
0
40
0.15052584051086
40
0.34336409563872
40
0.53786316194575
40
0.707003143519067
40
0.904731927639776
40
1
40
1
40
1
40
1
41
1
10
0.445271247476534
20
15.1081772198388
30
0
41
1
10
0.445493692840282
20
15.1160980823245
30
0
41
1
10
0.44408844018808
20
15.1322794347929
30
0
41
1
10
0.436110132222315
20
15.1528187255912
30
0
41
1
10
0.4176818927962
20
15.1621800135638
30
0
41
1
10
0.390595362704036
20
15.1566073928192
30
0
41
1
10
0.364832614366504
20
15.1413967685294
30
0
41
1
10
0.348617981250332
20
15.1290007126091
30
0
41
1
10
0.343278579220068
20
15.1245672474105
30
0
0
SPLINE
5
1DD
100
AcDbEntity
8
1
62
256
6
ByLayer
370
18
48
1
60
0
100
AcDbSpline
70
4
71
3
72
12
73
8
40
0
40
0
40
0
40
0
40
0.122848843627711
40
0.336149978943592
40
0.543025025044069
40
0.841058332127366
40
1
40
1
40
1
40
1
41
1
10
0.44527835540902
20
19.4113147311931
30
0
41
1
10
0.445289778783991
20
19.4131608740981
30
0
41
1
10
0.443585535530769
20
19.4163530517024
30
0
41
1
10
0.43253968495686
20
19.4130159911149
30
0
41
1
10
0.406866852291447
20
19.3957302191996
30
0
41
1
10
0.375135043575106
20
19.369509751375
30
0
41
1
10
0.351759257963139
20
19.3486988936523
30
0
41
1
10
0.343278579257509
20
19.340953677083
30
0
0
SPLINE
5
1DE
100
AcDbEntity
8
1
62
256
6
ByLayer
370
18
48
1
60
0
100
AcDbSpline
70
4
71
3
72
10
73
6
40
0
40
0
40
0
40
0
40
0.580284568404666
40
0.838666441712371
40
1
40
1
40
1
40
1
41
1
10
0.343278579257488
20
14.8237109429722
30
0
41
1
10
0.377090302260524
20
14.884008359038
30
0
41
1
10
0.413659739154465
20
14.9662710725392
30
0
41
1
10
0.441180671861756
20
15.0607808447926
30
0
41
1
10
0.444797017676922
20
15.0953823881382
30
0
41
1
10
0.445271247476534
20
15.1081772198388
30
0
0
SPLINE
5
1DF
100
AcDbEntity
8
1
62
256
6
ByLayer
370
18
48
1
60
0
100
AcDbSpline
70
4
71
2
72
6
73
3
40
0
40
0
40
0
40
1
40
1
40
1
41
1
10
0.343278579257489
20
13.3683356695468
30
0
41
1
10
0.43571631744088
20
13.551409608069
30
0
41
1
10
0.445276855443503
20
13.7031910539864
30
0
0
SPLINE
5
1E0
100
AcDbEntity
8
1
62
256
6
ByLayer
370
18
48
1
60
0
100
AcDbSpline
70
4
71
3
72
13
73
9
40
0
40
0
40
0
40
0
40
0.0568256757895495
40
0.127058506424862
40
0.239445856015406
40
0.462176278515689
40
0.730715672973125
40
1
40
1
40
1
40
1
41
1
10
6.075
20
8.71779788708134
30
0
41
1
10
6.05300818796202
20
8.71714473485522
30
0
41
1
10
6.0064639719782
20
8.70999991347303
30
0
41
1
10
5.92810391942657
20
8.66685305263448
30
0
41
1
10
5.82996461500185
20
8.56075310013786
30
0
41
1
10
5.74210431598983
20
8.36971959477676
30
0
41
1
10
5.68605047251049
20
8.11502484266073
30
0
41
1
10
5.67333393878528
20
7.93164011992938
30
0
41
1
10
5.675
20
7.83836717690616
30
0
0
SPLINE
5
1E1
100
AcDbEntity
8
1
62
256
6
ByLayer
370
18
48
1
60
0
100
AcDbSpline
70
4
71
1
72
4
73
2
40
0
40
0
40
1
40
1
41
1
10
0.343278579257532
20
17.1811675775407
30
0
41
1
10
-0.325
20
16.6309904620861
30
0
0
SPLINE
5
1E2
100
AcDbEntity
8
1
62
256
6
ByLayer
370
18
48
1
60
0
100
AcDbSpline
70
4
71
3
72
11
73
7
40
0
40
0
40
0
40
0
40
0.0439917929403039
40
0.363512012048185
40
0.680479780892119
40
1
40
1
40
1
40
1
41
1
10
20.8727678803524
20
5.6171546989779
30
0
41
1
10
20.8868041460572
20
5.61273295723646
30
0
41
1
10
21.0016936581138
20
5.57505575487501
30
0
41
1
10
21.2012189398436
20
5.48700693629598
30
0
41
1
10
21.4359929383458
20
5.31964206594403
30
0
41
1
10
21.5592435012809
20
5.18214140232018
30
0
41
1
10
21.6130146940669
20
5.10629356007131
30
0
0
SPLINE
5
1E3
100
AcDbEntity
8
1
62
256
6
ByLayer
370
18
48
1
60
0
100
AcDbSpline
70
4
71
3
72
10
73
6
40
0
40
0
40
0
40
0
40
0.256612092066302
40
0.613894761236727
40
1
40
1
40
1
40
1
41
1
10
0.401140596709719
20
12.0430068202671
30
0
41
1
10
0.396561385129385
20
12.0429111964262
30
0
41
1
10
0.385359181330464
20
12.0411372494102
30
0
41
1
10
0.365244349805065
20
12.0309208295936
30
0
41
1
10
0.350820716076593
20
12.0199244828521
30
0
41
1
10
0.343278579257631
20
12.0130158376655
30
0
0
SPLINE
5
1E4
100
AcDbEntity
8
1
62
256
6
ByLayer
370
18
48
1
60
0
100
AcDbSpline
70
4
71
3
72
11
73
7
40
0
40
0
40
0
40
0
40
0.399366846957669
40
0.689972984170768
40
0.91813202306892
40
1
40
1
40
1
40
1
41
1
10
0.343278579257505
20
19.2723234562802
30
0
41
1
10
0.365506942621378
20
19.2974655686201
30
0
41
1
10
0.398232877365646
20
19.3366531978227
30
0
41
1
10
0.432216406879366
20
19.3825135481715
30
0
41
1
10
0.443955397924073
20
19.403641171251
30
0
41
1
10
0.445229737069897
20
19.4099226571485
30
0
41
1
10
0.44527835540902
20
19.4113147311931
30
0
0
SPLINE
5
1E5
100
AcDbEntity
8
1
62
256
6
ByLayer
370
18
48
1
60
0
100
AcDbSpline
70
4
71
3
72
15
73
11
40
0
40
0
40
0
40
0
40
0.0745302288653177
40
0.149171951414589
40
0.296724807161809
40
0.404656164411197
40
0.512763632698053
40
0.690460902083303
40
0.87249499012328
40
1
40
1
40
1
40
1
41
1
10
22.35759435058
20
-0.627435736649053
30
0
41
1
10
22.4481469484284
20
-0.568909027288744
30
0
41
1
10
22.630075673562
20
-0.457939683257216
30
0
41
1
10
22.9980530096671
20
-0.258647845592574
30
0
41
1
10
23.400879856884
20
-0.0880024509909557
30
0
41
1
10
23.8021809041793
20
0.0372560265689127
30
0
41
1
10
24.1928137470982
20
0.125227289661092
30
0
41
1
10
24.5863056051049
20
0.167303913627948
30
0
41
1
10
24.9399612474163
20
0.141828959741251
30
0
41
1
10
25.1632273713873
20
0.0650408968314248
30
0
41
1
10
25.2531156105588
20
0.0245550818945665
30
0
0
SPLINE
5
1E6
100
AcDbEntity
8
1
62
256
6
ByLayer
370
18
48
1
60
0
100
AcDbSpline
70
4
71
1
72
4
73
2
40
0
40
0
40
1
40
1
41
1
10
0.343278579257543
20
16.2549231580666
30
0
41
1
10
-0.325
20
15.709148409446
30
0
0
SPLINE
5
1E7
100
AcDbEntity
8
1
62
256
6
ByLayer
370
18
48
1
60
0
100
AcDbSpline
70
4
71
1
72
4
73
2
40
0
40
0
40
1
40
1
41
1
10
0.343278579257496
20
18.9048259409171
30
0
41
1
10
-0.325
20
18.0890807878676
30
0
0
SPLINE
5
1E8
100
AcDbEntity
8
1
62
256
6
ByLayer
370
18
48
1
60
0
100
AcDbSpline
70
4
71
1
72
4
73
2
40
0
40
0
40
1
40
1
41
1
10
21.7087677014557
20
4.97174311402642
30
0
41
1
10
21.6608911977613
20
5.03901833704886
30
0
0
SPLINE
5
1E9
100
AcDbEntity
8
1
62
256
6
ByLayer
370
18
48
1
60
0
100
AcDbSpline
70
4
71
3
72
11
73
7
40
0
40
0
40
0
40
0
40
0.28403948112101
40
0.568078962242021
40
0.784039481121011
40
1
40
1
40
1
40
1
41
1
10
27.5263300408486
20
0.264887846844548
30
0
41
1
10
27.7419475937767
20
0.41915108667319
30
0
41
1
10
28.1479037618894
20
0.743366258773865
30
0
41
1
10
28.647544210652
20
1.24277316283261
30
0
41
1
10
29.0330345548408
20
1.71974589130968
30
0
41
1
10
29.2233278922448
20
2.01081738732878
30
0
41
1
10
29.3083574660231
20
2.15781637407039
30
0
0
SPLINE
5
1EA
100
AcDbEntity
8
1
62
256
6
ByLayer
370
18
48
1
60
0
100
AcDbSpline
70
4
71
3
72
14
73
10
40
0
40
0
40
0
40
0
40
0.396216813030936
40
0.55195990038071
40
0.655774236635627
40
0.742512754002385
40
0.82931943654148
40
0.945404531787637
40
1
40
1
40
1
40
1
41
1
10
0.445265694039052
20
9.65514361465894
30
0
41
1
10
0.447659318073445
20
9.69099032506779
30
0
41
1
10
0.4426037616862
20
9.73336800127919
30
0
41
1
10
0.426163735092141
20
9.77660396265473
30
0
41
1
10
0.410995308861833
20
9.79157686133128
30
0
41
1
10
0.394612814701963
20
9.79550685586631
30
0
41
1
10
0.375013708023388
20
9.79022608949932
30
0
41
1
10
0.357517420064974
20
9.77787859235874
30
0
41
1
10
0.346694849041434
20
9.76784870513451
30
0
41
1
10
0.343278579223282
20
9.764351338555
30
0
0
SPLINE
5
1EB
100
AcDbEntity
8
1
62
256
6
ByLayer
370
18
48
1
60
0
100
AcDbSpline
70
4
71
3
72
11
73
7
40
0
40
0
40
0
40
0
40
0.136472165417128
40
0.484255851405908
40
0.841978060266771
40
1
40
1
40
1
40
1
41
1
10
27.7952362824346
20
5.64969140113488
30
0
41
1
10
27.7063395297064
20
5.68879242282092
30
0
41
1
10
27.3843808290763
20
5.82250957866004
30
0
41
1
10
26.7761987630761
20
6.02989281995489
30
0
41
1
10
26.1093614124988
20
6.18393170658093
30
0
41
1
10
25.7014524111252
20
6.24576253409388
30
0
41
1
10
25.5752131268883
20
6.26205037370928
30
0
0
SPLINE
5
1EC
100
AcDbEntity
8
1
62
256
6
ByLayer
370
18
48
1
60
0
100
AcDbSpline
70
4
71
3
72
16
73
12
40
0
40
0
40
0
40
0
40
0.397594672322838
40
0.644385858082459
40
0.731359137348536
40
0.78754273045732
40
0.80069628056618
40
0.847631813387793
40
0.894211231441624
40
0.97350293769349
40
1
40
1
40
1
40
1
41
1
10
0.44514184450122
20
6.24627150010509
30
0
41
1
10
0.447985597365855
20
6.2971492581677
30
0
41
1
10
0.443351147418883
20
6.37376555267467
30
0
41
1
10
0.430614149572589
20
6.45949746575037
30
0
41
1
10
0.412258554033631
20
6.49537556539411
30
0
41
1
10
0.400963940108792
20
6.50425817984907
30
0
41
1
10
0.391250504760001
20
6.5070396092306
30
0
41
1
10
0.381337890190878
20
6.50623627816239
30
0
41
1
10
0.365475625959221
20
6.49716742685381
30
0
41
1
10
0.353001826590153
20
6.48379397189273
30
0
41
1
10
0.345183054693193
20
6.47357791898109
30
0
41
1
10
0.34327857925638
20
6.47090137540438
30
0
0
SPLINE
5
1ED
100
AcDbEntity
8
1
62
256
6
ByLayer
370
18
48
1
60
0
100
AcDbSpline
70
4
71
1
72
4
73
2
40
0
40
0
40
1
40
1
41
1
10
0.343278579257506
20
19.5586932485776
30
0
41
1
10
-0.325
20
18.9249133089164
30
0
0
SPLINE
5
1EE
100
AcDbEntity
8
1
62
256
6
ByLayer
370
18
48
1
60
0
100
AcDbSpline
70
4
71
1
72
4
73
2
40
0
40
0
40
1
40
1
41
1
10
0.343278579257488
20
11.54046753934
30
0
41
1
10
-0.325
20
9.74178339679137
30
0
0
SPLINE
5
1EF
100
AcDbEntity
8
1
62
256
6
ByLayer
370
18
48
1
60
0
100
AcDbSpline
70
4
71
1
72
4
73
2
40
0
40
0
40
1
40
1
41
1
10
0.343278579257582
20
13.7398159364995
30
0
41
1
10
-0.325
20
13.177721493111
30
0
0
SPLINE
5
1F0
100
AcDbEntity
8
1
62
256
6
ByLayer
370
18
48
1
60
0
100
AcDbSpline
70
4
71
1
72
4
73
2
40
0
40
0
40
1
40
1
41
1
10
0.343278579257513
20
19.0026970897867
30
0
41
1
10
-0.325
20
18.4126951788705
30
0
0
SPLINE
5
1F1
100
AcDbEntity
8
1
62
256
6
ByLayer
370
18
48
1
60
0
100
AcDbSpline
70
4
71
3
72
17
73
13
40
0
40
0
40
0
40
0
40
0.119959689389112
40
0.239919378778225
40
0.305322849737373
40
0.370037878967395
40
0.49998597837967
40
0.629934077791945
40
0.75988217720422
40
0.840135148658705
40
0.919747028545516
40
1
40
1
40
1
40
1
41
1
10
21.7087677014557
20
4.97174311402642
30
0
41
1
10
21.7899422367951
20
4.85767808113356
30
0
41
1
10
21.9114064546064
20
4.60732552158245
30
0
41
1
10
21.9614578737406
20
4.22475781721538
30
0
41
1
10
21.9371895901884
20
3.8849928219195
30
0
41
1
10
21.8635778118848
20
3.51418273146132
30
0
41
1
10
21.6796672560098
20
3.02493676408254
30
0
41
1
10
21.3288915508152
20
2.42255847816416
30
0
41
1
10
20.9149288333769
20
1.90490313431342
30
0
41
1
10
20.5052440434518
20
1.48475085773851
30
0
41
1
10
20.1321879004742
20
1.1546355683085
30
0
41
1
10
19.8674698762383
20
0.951666954205944
30
0
41
1
10
19.7299548715631
20
0.853607944622066
30
0
0
SPLINE
5
1F2
100
AcDbEntity
8
1
62
256
6
ByLayer
370
18
48
1
60
0
100
AcDbSpline
70
4
71
3
72
14
73
10
40
0
40
0
40
0
40
0
40
0.153090303781966
40
0.31466013577689
40
0.453857539153827
40
0.562985387082409
40
0.646611288093744
40
0.820135331609954
40
1
40
1
40
1
40
1
41
1
10
24.5672874637659
20
6.32582836810184
30
0
41
1
10
24.4089373058769
20
6.29757472285529
30
0
41
1
10
24.0846415072842
20
6.22931713003763
30
0
41
1
10
23.620413701144
20
6.0923340194823
30
0
41
1
10
23.2040880478276
20
5.95656432832777
30
0
41
1
10
22.8693022612179
20
5.83237506455419
30
0
41
1
10
22.5129035900051
20
5.65726890972095
30
0
41
1
10
22.0947935077351
20
5.43140452005499
30
0
41
1
10
21.7731724304065
20
5.22029440275955
30
0
41
1
10
21.6130146940669
20
5.10629356007131
30
0
0
SPLINE
5
1F3
100
AcDbEntity
8
1
62
256
6
ByLayer
370
18
48
1
60
0
100
AcDbSpline
70
4
71
3
72
20
73
16
40
0
40
0
40
0
40
0
40
0.095461157763399
40
0.190423686204096
40
0.2868910441645
40
0.385280336869946
40
0.485040453304319
40
0.585933952660488
40
0.641874070977274
40
0.702538367679674
40
0.76688903369734
40
0.820618933546103
40
0.860513065827667
40
0.928089036650723
40
1
40
1
40
1
40
1
41
1
10
27.5263300408486
20
0.264887846844538
30
0
41
1
10
27.3795270310768
20
0.470052032688302
30
0
41
1
10
27.054531560187
20
0.848487306693394
30
0
41
1
10
26.4614249405245
20
1.32998068311594
30
0
41
1
10
25.7780334075108
20
1.71422846991611
30
0
41
1
10
25.0063152588526
20
1.98489212885251
30
0
41
1
10
24.1672429113971
20
2.13419846425193
30
0
41
1
10
23.4163632860259
20
2.15857427825571
30
0
41
1
10
22.7696745974463
20
2.09679387240365
30
0
41
1
10
22.2308078998222
20
1.98534134994346
30
0
41
1
10
21.7044306901441
20
1.82972525658605
30
0
41
1
10
21.2416796361887
20
1.67855490515203
30
0
41
1
10
20.7776914202363
20
1.48949308726484
30
0
41
1
10
20.2830268719126
20
1.21986078362931
30
0
41
1
10
19.9148907334759
20
0.984637252121457
30
0
41
1
10
19.7299548715631
20
0.853607944622068
30
0
0
SPLINE
5
1F4
100
AcDbEntity
8
1
62
256
6
ByLayer
370
18
48
1
60
0
100
AcDbSpline
70
4
71
3
72
12
73
8
40
0
40
0
40
0
40
0
40
0.211806285218248
40
0.426370147777689
40
0.627327987084813
40
0.911199310430255
40
1
40
1
40
1
40
1
41
1
10
0.445278577788857
20
18.5822787769219
30
0
41
1
10
0.445329143777311
20
18.5880511318393
30
0
41
1
10
0.441803952828576
20
18.5955106549007
30
0
41
1
10
0.42506772728965
20
18.5942685614686
30
0
41
1
10
0.396479847318949
20
18.5792697899163
30
0
41
1
10
0.367434476576429
20
18.557622552608
30
0
41
1
10
0.3479970634026
20
18.5413818961241
30
0
41
1
10
0.343278579256521
20
18.5373273217389
30
0
0
SPLINE
5
1F5
100
AcDbEntity
8
1
62
256
6
ByLayer
370
18
48
1
60
0
100
AcDbSpline
70
4
71
1
72
4
73
2
40
0
40
0
40
1
40
1
41
1
10
0.343278579256245
20
6.47090137540456
30
0
41
1
10
-0.325
20
5.49680304813625
30
0
0
SPLINE
5
1F6
100
AcDbEntity
8
1
62
256
6
ByLayer
370
18
48
1
60
0
100
AcDbSpline
70
4
71
1
72
4
73
2
40
0
40
0
40
1
40
1
41
1
10
0.34327857925762
20
12.0130158376655
30
0
41
1
10
-0.325
20
11.416647658135
30
0
0
SPLINE
5
1F7
100
AcDbEntity
8
1
62
256
6
ByLayer
370
18
48
1
60
0
100
AcDbSpline
70
4
71
3
72
10
73
6
40
0
40
0
40
0
40
0
40
0.418880744083447
40
0.836007272118471
40
1
40
1
40
1
40
1
41
1
10
0.343278579257488
20
11.54046753934
30
0
41
1
10
0.367646124442615
20
11.5996586649314
30
0
41
1
10
0.407305102837413
20
11.7155254099057
30
0
41
1
10
0.439702028594875
20
11.8544885982318
30
0
41
1
10
0.444707457334753
20
11.9283755400227
30
0
41
1
10
0.445277056416185
20
11.9489131226792
30
0
0
SPLINE
5
1F8
100
AcDbEntity
8
1
62
256
6
ByLayer
370
18
48
1
60
0
100
AcDbSpline
70
4
71
3
72
10
73
6
40
0
40
0
40
0
40
0
40
0.711984173220707
40
0.953409073737072
40
1
40
1
40
1
40
1
41
1
10
0.343278579257491
20
9.11879287402912
30
0
41
1
10
0.386271508809642
20
9.2506026171077
30
0
41
1
10
0.424541293588027
20
9.42187471846173
30
0
41
1
10
0.444158287705444
20
9.59855317809598
30
0
41
1
10
0.445186470532633
20
9.6472928644065
30
0
41
1
10
0.445265694039052
20
9.65514361465895
30
0
0
SPLINE
5
1F9
100
AcDbEntity
8
1
62
256
6
ByLayer
370
18
48
1
60
0
100
AcDbSpline
70
4
71
1
72
4
73
2
40
0
40
0
40
1
40
1
41
1
10
0.343278579257559
20
15.1245672474213
30
0
41
1
10
-0.325
20
14.576173837808
30
0
0
SPLINE
5
1FA
100
AcDbEntity
8
1
62
256
6
ByLayer
370
18
48
1
60
0
100
AcDbSpline
70
4
71
1
72
4
73
2
40
0
40
0
40
1
40
1
41
1
10
0.343278579257496
20
18.408216543415
30
0
41
1
10
-0.325
20
17.536457559895
30
0
0
SPLINE
5
1FB
100
AcDbEntity
8
1
62
256
6
ByLayer
370
18
48
1
60
0
100
AcDbSpline
70
4
71
3
72
13
73
9
40
0
40
0
40
0
40
0
40
0.165264141808309
40
0.35843374156317
40
0.55275484412578
40
0.727546993264518
40
0.965108281587554
40
1
40
1
40
1
40
1
41
1
10
0.445272339247191
20
16.2562377321302
30
0
41
1
10
0.445517980673969
20
16.2638563716007
30
0
41
1
10
0.443720511192805
20
16.2779203083254
30
0
41
1
10
0.433909769846685
20
16.293210045122
30
0
41
1
10
0.413818252537006
20
16.2959851239125
30
0
41
1
10
0.384563741316729
20
16.285084671901
30
0
41
1
10
0.36002485544112
20
16.2683671159154
30
0
41
1
10
0.345186964217996
20
16.2564862444512
30
0
41
1
10
0.343278579257536
20
16.2549231580666
30
0
0
SPLINE
5
1FC
100
AcDbEntity
8
1
62
256
6
ByLayer
370
18
48
1
60
0
100
AcDbSpline
70
4
71
3
72
10
73
6
40
0
40
0
40
0
40
0
40
0.328819671011899
40
0.809260019245889
40
1
40
1
40
1
40
1
41
1
10
0.404964009974087
20
13.7718565842289
30
0
41
1
10
0.398822022784015
20
13.7713322930038
30
0
41
1
10
0.383279339755173
20
13.7677284076797
30
0
41
1
10
0.361448867423111
20
13.7543821152368
30
0
41
1
10
0.347318793765865
20
13.7432489949022
30
0
41
1
10
0.343278579247158
20
13.739815936496
30
0
0
SPLINE
5
1FD
100
AcDbEntity
8
1
62
256
6
ByLayer
370
18
48
1
60
0
100
AcDbSpline
70
4
71
3
72
11
73
7
40
0
40
0
40
0
40
0
40
0.232310553348462
40
0.536094697489104
40
0.950365975648619
40
1
40
1
40
1
40
1
41
1
10
0.443075011923054
20
19.7549550806109
30
0
41
1
10
0.44034414270574
20
19.7528121579454
30
0
41
1
10
0.431083161941642
20
19.7447872426324
30
0
41
1
10
0.399820527423174
20
19.7152161468
30
0
41
1
10
0.366701113435866
20
19.6829399920939
30
0
41
1
10
0.345563507925983
20
19.6621682551014
30
0
41
1
10
0.343278579257504
20
19.6599204994536
30
0
0
SPLINE
5
1FE
100
AcDbEntity
8
1
62
256
6
ByLayer
370
18
48
1
60
0
100
AcDbSpline
70
4
71
1
72
4
73
2
40
0
40
0
40
1
40
1
41
1
10
0.343278579257511
20
19.340953677083
30
0
41
1
10
-0.325
20
18.7307192534083
30
0
0
SPLINE
5
1FF
100
AcDbEntity
8
1
62
256
6
ByLayer
370
18
48
1
60
0
100
AcDbSpline
70
4
71
2
72
6
73
3
40
0
40
0
40
0
40
1
40
1
40
1
41
1
10
0.343278579257491
20
9.11879287402913
30
0
41
1
10
-0.0372097028531942
20
7.88173052791113
30
0
41
1
10
-0.325
20
6.61172018086065
30
0
0
SPLINE
5
200
100
AcDbEntity
8
1
62
256
6
ByLayer
370
18
48
1
60
0
100
AcDbSpline
70
4
71
3
72
10
73
6
40
0
40
0
40
0
40
0
40
0.613237183480034
40
0.863517810207947
40
1
40
1
40
1
40
1
41
1
10
0.343278579257492
20
16.008510663641
30
0
41
1
10
0.379336285524728
20
16.0660286492502
30
0
41
1
10
0.416331913505684
20
16.1404284310049
30
0
41
1
10
0.442097786540308
20
16.2212884059939
30
0
41
1
10
0.444948835383614
20
16.2474409921286
30
0
41
1
10
0.445272339247191
20
16.2562377321302
30
0
0
SPLINE
5
201
100
AcDbEntity
8
1
62
256
6
ByLayer
370
18
48
1
60
0
100
AcDbSpline
70
4
71
2
72
6
73
3
40
0
40
0
40
0
40
1
40
1
40
1
41
1
10
8.70430970176386
20
-2.72423726229025
30
0
41
1
10
8.69243451304608
20
-2.59513458778126
30
0
41
1
10
8.68919248220152
20
-2.5647505216545
30
0
0
SPLINE
5
202
100
AcDbEntity
8
1
62
256
6
ByLayer
370
18
48
1
60
0
100
AcDbSpline
70
4
71
1
72
4
73
2
40
0
40
0
40
1
40
1
41
1
10
0.3432785792575
20
19.5180034570805
30
0
41
1
10
-0.325
20
18.7906850260974
30
0
0
SPLINE
5
203
100
AcDbEntity
8
1
62
256
6
ByLayer
370
18
48
1
60
0
100
AcDbSpline
70
4
71
1
72
4
73
2
40
0
40
0
40
1
40
1
41
1
10
0.343278579257492
20
16.008510663641
30
0
41
1
10
-0.325
20
14.8816949219503
30
0
0
SPLINE
5
204
100
AcDbEntity
8
1
62
256
6
ByLayer
370
18
48
1
60
0
100
AcDbSpline
70
4
71
3
72
11
73
7
40
0
40
0
40
0
40
0
40
0.472554338454951
40
0.751071005135393
40
0.972275030172282
40
1
40
1
40
1
40
1
41
1
10
0.3432785792575
20
18.9048259409171
30
0
41
1
10
0.37008531864579
20
18.9368156971248
30
0
41
1
10
0.404710097932025
20
18.9821653406094
30
0
41
1
10
0.437159158864346
20
19.0336334711206
30
0
41
1
10
0.444894556825846
20
19.0535154435134
30
0
41
1
10
0.44527148047732
20
19.0597355047941
30
0
41
1
10
0.445278417781329
20
19.0603964690963
30
0
0
SPLINE
5
205
100
AcDbEntity
8
1
62
256
6
ByLayer
370
18
48
1
60
0
100
AcDbSpline
70
4
71
3
72
11
73
7
40
0
40
0
40
0
40
0
40
0.146514158003557
40
0.406962668036744
40
0.673666244299668
40
1
40
1
40
1
40
1
41
1
10
31.4923428594733
20
5.96341950221004
30
0
41
1
10
31.3898571884407
20
6.00749689417654
30
0
41
1
10
31.0988774638786
20
6.1222463119264
30
0
41
1
10
30.5834771037556
20
6.28080948600183
30
0
41
1
10
29.8949361705323
20
6.41365440717175
30
0
41
1
10
29.4060574782683
20
6.44645864768065
30
0
41
1
10
29.1322450422656
20
6.44708572938489
30
0
0
SPLINE
5
206
100
AcDbEntity
8
1
62
256
6
ByLayer
370
18
48
1
60
0
100
AcDbSpline
70
4
71
3
72
13
73
9
40
0
40
0
40
0
40
0
40
0.176080182657743
40
0.370171809594106
40
0.540140204286265
40
0.659490126857905
40
0.825037682672111
40
1
40
1
40
1
40
1
41
1
10
25.0496320206146
20
6.31383725524286
30
0
41
1
10
24.8418495796951
20
6.2946789681333
30
0
41
1
10
24.4062984695125
20
6.23342621588063
30
0
41
1
10
23.7736958806289
20
6.05900647087261
30
0
41
1
10
23.2125591306068
20
5.88100908904173
30
0
41
1
10
22.6949910667906
20
5.66763117129233
30
0
41
1
10
22.193899309144
20
5.39342741154601
30
0
41
1
10
21.8388143428252
20
5.16521904078406
30
0
41
1
10
21.6608911977613
20
5.03901833704887
30
0
0
SPLINE
5
207
100
AcDbEntity
8
1
62
256
6
ByLayer
370
18
48
1
60
0
100
AcDbSpline
70
4
71
3
72
10
73
6
40
0
40
0
40
0
40
0
40
0.310735587084613
40
0.65518404553112
40
1
40
1
40
1
40
1
41
1
10
25.0496320206147
20
6.31383725524279
30
0
41
1
10
24.9997806643593
20
6.31688941290964
30
0
41
1
10
24.8945962723138
20
6.322136497842
30
0
41
1
10
24.7337053356575
20
6.326148188681
30
0
41
1
10
24.622795383844
20
6.32637809987437
30
0
41
1
10
24.5672874637658
20
6.32582836810183
30
0
0
SPLINE
5
208
100
AcDbEntity
8
1
62
256
6
ByLayer
370
18
48
1
60
0
100
AcDbSpline
70
4
71
3
72
11
73
7
40
0
40
0
40
0
40
0
40
0.423042513347535
40
0.68472168002223
40
0.903143715132665
40
1
40
1
40
1
40
1
41
1
10
0.343278579257512
20
19.6464364834369
30
0
41
1
10
0.366991559256322
20
19.670796621246
30
0
41
1
10
0.399314608633818
20
19.7044744058551
30
0
41
1
10
0.432476270943627
20
19.7401359385698
30
0
41
1
10
0.443811834510608
20
19.753295520062
30
0
41
1
10
0.445241504723208
20
19.7557040139511
30
0
41
1
10
0.445278557000495
20
19.756043917547
30
0
0
SPLINE
5
209
100
AcDbEntity
8
1
62
256
6
ByLayer
370
18
48
1
60
0
100
AcDbSpline
70
4
71
3
72
10
73
6
40
0
40
0
40
0
40
0
40
0.568025568657178
40
0.835557018455666
40
1
40
1
40
1
40
1
41
1
10
0.343278579257493
20
16.9794705811172
30
0
41
1
10
0.376394461537536
20
17.027899449872
30
0
41
1
10
0.413055431958306
20
17.0927886150655
30
0
41
1
10
0.441333733119961
20
17.1651104474448
30
0
41
1
10
0.444891231229692
20
17.189782555176
30
0
41
1
10
0.445277610226232
20
17.1985207267192
30
0
0
SPLINE
5
20A
100
AcDbEntity
8
1
62
256
6
ByLayer
370
18
48
1
60
0
100
AcDbSpline
70
4
71
3
72
11
73
7
40
0
40
0
40
0
40
0
40
0.500029992240655
40
0.778555551908883
40
0.998301778555103
40
1
40
1
40
1
40
1
41
1
10
0.343278579257499
20
18.408216543415
30
0
41
1
10
0.371904905793196
20
18.4445026451893
30
0
41
1
10
0.407389915040914
20
18.4953438498348
30
0
41
1
10
0.439080715727119
20
18.553558948774
30
0
41
1
10
0.445256466885355
20
18.5752256561247
30
0
41
1
10
0.445278544476291
20
18.5822252182568
30
0
41
1
10
0.445278577788857
20
18.5822787769219
30
0
0
SPLINE
5
20B
100
AcDbEntity
8
1
62
256
6
ByLayer
370
18
48
1
60
0
100
AcDbSpline
70
4
71
3
72
12
73
8
40
0
40
0
40
0
40
0
40
0.0846010407987327
40
0.408156118325022
40
0.734357921950488
40
0.964233726009481
40
1
40
1
40
1
40
1
41
1
10
0.445276855443503
20
13.7031910539864
30
0
41
1
10
0.445301587366924
20
13.7063072973966
30
0
41
1
10
0.445010479270385
20
13.7210026732287
30
0
41
1
10
0.441667742708889
20
13.7454749093362
30
0
41
1
10
0.429081574309165
20
13.7668368692506
30
0
41
1
10
0.413937450367973
20
13.772035500305
30
0
41
1
10
0.406048790044683
20
13.7719134259553
30
0
41
1
10
0.404964009974087
20
13.7718565842289
30
0
0
SPLINE
5
20C
100
AcDbEntity
8
1
62
256
6
ByLayer
370
18
48
1
60
0
100
AcDbSpline
70
4
71
3
72
12
73
8
40
0
40
0
40
0
40
0
40
0.103069312804232
40
0.519078607659736
40
0.745750927371533
40
0.934614654146045
40
1
40
1
40
1
40
1
41
1
10
0.445277056416185
20
11.9489131226792
30
0
41
1
10
0.445320005692971
20
11.9536607259623
30
0
41
1
10
0.444824675845743
20
11.9769997665732
30
0
41
1
10
0.440598396440344
20
12.0087338058844
30
0
41
1
10
0.425962196672672
20
12.0343958895198
30
0
41
1
10
0.412199555549535
20
12.0422092999745
30
0
41
1
10
0.403484709391762
20
12.0429956042156
30
0
41
1
10
0.401140596709719
20
12.0430068202671
30
0
0
SPLINE
5
20D
100
AcDbEntity
8
1
62
256
6
ByLayer
370
18
48
1
60
0
100
AcDbSpline
70
4
71
3
72
12
73
8
40
0
40
0
40
0
40
0
40
0.167554715184294
40
0.336601131259185
40
0.50966426305562
40
0.685018614105293
40
1
40
1
40
1
40
1
41
1
10
24.5672874637659
20
6.32582836810184
30
0
41
1
10
24.3494711802725
20
6.32151436275564
30
0
41
1
10
23.9139034037408
20
6.30064099185844
30
0
41
1
10
23.2618595231143
20
6.2203612990638
30
0
41
1
10
22.6033019433766
20
6.12425573615931
30
0
41
1
10
21.7982884721197
20
5.91093791123102
30
0
41
1
10
21.2275544205556
20
5.74060101754894
30
0
41
1
10
20.8727448056715
20
5.61714131324573
30
0
0
SPLINE
5
20E
100
AcDbEntity
8
1
62
256
6
ByLayer
370
18
48
1
60
0
100
AcDbSpline
70
4
71
1
72
4
73
2
40
0
40
0
40
1
40
1
41
1
10
8.91346536290633
20
-2.55787885677873
30
0
41
1
10
8.70430970176385
20
-2.72423726229021
30
0
0
SPLINE
5
20F
100
AcDbEntity
8
1
62
256
6
ByLayer
370
18
48
1
60
0
100
AcDbSpline
70
4
71
3
72
14
73
10
40
0
40
0
40
0
40
0
40
0.165139245735055
40
0.330267073734153
40
0.498279471072371
40
0.666313467088119
40
0.833122348215021
40
0.999985600334931
40
1
40
1
40
1
40
1
41
1
10
29.3083574660232
20
2.1578163740704
30
0
41
1
10
29.3295010712902
20
2.37885385873932
30
0
41
1
10
29.3354445230318
20
2.81675988480187
30
0
41
1
10
29.2355531928701
20
3.47368872166751
30
0
41
1
10
29.0222083018872
20
4.10389082835872
30
0
41
1
10
28.7047001120074
20
4.69040108161582
30
0
41
1
10
28.2930886948083
20
5.21232308149017
30
0
41
1
10
27.9682664980701
20
5.51296269073156
30
0
41
1
10
27.7952512117954
20
5.64967960409647
30
0
41
1
10
27.7952362824346
20
5.64969140113488
30
0
0
SPLINE
5
210
100
AcDbEntity
8
1
62
256
6
ByLayer
370
18
48
1
60
0
100
AcDbSpline
70
4
71
3
72
12
73
8
40
0
40
0
40
0
40
0
40
0.180802035645071
40
0.393839994978011
40
0.59904187327289
40
0.895446603021873
40
1
40
1
40
1
40
1
41
1
10
0.445278417781329
20
19.0603964690963
30
0
41
1
10
0.445298305883855
20
19.0642106765189
30
0
41
1
10
0.442438649252757
20
19.0692905068261
30
0
41
1
10
0.427665952035787
20
19.0661111039543
30
0
41
1
10
0.399742013122194
20
19.0492546948184
30
0
41
1
10
0.369614119570057
20
19.0255261196715
30
0
41
1
10
0.348830089576871
20
19.0076021495112
30
0
41
1
10
0.343278579255608
20
19.0026970897858
30
0
0
SPLINE
5
211
100
AcDbEntity
8
1
62
256
6
ByLayer
370
18
48
1
60
0
100
AcDbSpline
70
4
71
3
72
10
73
6
40
0
40
0
40
0
40
0
40
0.282745639193713
40
0.56549041276944
40
1
40
1
40
1
40
1
41
1
10
25.5752131268804
20
6.26205037370784
30
0
41
1
10
25.5259772602545
20
6.26838577347958
30
0
41
1
10
25.4273350702326
20
6.28024994786353
30
0
41
1
10
25.2522739100154
20
6.29863648306474
30
0
41
1
10
25.1262002125011
20
6.30875781923683
30
0
41
1
10
25.049632020614
20
6.31383725524281
30
0
0
SPLINE
5
212
100
AcDbEntity
8
1
62
256
6
ByLayer
370
18
48
1
60
0
100
AcDbSpline
70
4
71
1
72
4
73
2
40
0
40
0
40
1
40
1
41
1
10
0.343278579257504
20
19.6599204994536
30
0
41
1
10
-0.325
20
18.9990748130008
30
0
0
SPLINE
5
213
100
AcDbEntity
8
1
62
256
6
ByLayer
370
18
48
1
60
0
100
AcDbSpline
70
4
71
1
72
4
73
2
40
0
40
0
40
1
40
1
41
1
10
0.343278579257493
20
17.7716749003053
30
0
41
1
10
-0.325
20
16.8327016176845
30
0
0
SPLINE
5
214
100
AcDbEntity
8
1
62
256
6
ByLayer
370
18
48
1
60
0
100
AcDbSpline
70
4
71
3
72
10
73
6
40
0
40
0
40
0
40
0
40
0.531464233650147
40
0.807144898535757
40
1
40
1
40
1
40
1
41
1
10
0.343278579257497
20
17.7716749003053
30
0
41
1
10
0.373973465716146
20
17.813287955515
30
0
41
1
10
0.410021226714187
20
17.8703663660249
30
0
41
1
10
0.44043890583543
20
17.9355091691614
30
0
41
1
10
0.44478778320157
20
17.9581672895366
30
0
41
1
10
0.445278424962078
20
17.9665597439123
30
0
0
SPLINE
5
215
100
AcDbEntity
8
1
62
256
6
ByLayer
370
18
48
1
60
0
100
AcDbSpline
70
4
71
3
72
11
73
7
40
0
40
0
40
0
40
0
40
0.485862076238337
40
0.734626339715591
40
0.984784925248196
40
1
40
1
40
1
40
1
41
1
10
10.1771397907445
20
-1.28727711424412
30
0
41
1
10
9.94194284286628
20
-1.46250416374091
30
0
41
1
10
9.60833958174841
20
-1.74973209874376
30
0
41
1
10
9.20385649561624
20
-2.18056522937412
30
0
41
1
10
9.01049859388522
20
-2.42084950101052
30
0
41
1
10
8.91870684361992
20
-2.55043310859848
30
0
41
1
10
8.91346536290667
20
-2.55787885677802
30
0
0
SPLINE
5
216
100
AcDbEntity
8
1
62
256
6
ByLayer
370
18
48
1
60
0
100
AcDbSpline
70
4
71
1
72
4
73
2
40
0
40
0
40
1
40
1
41
1
10
0.343278579257498
20
19.2723234562802
30
0
41
1
10
-0.325
20
18.5041169405622
30
0
0
SPLINE
5
217
100
AcDbEntity
8
1
62
256
6
ByLayer
370
18
48
1
60
0
100
AcDbSpline
70
4
71
1
72
4
73
2
40
0
40
0
40
1
40
1
41
1
10
0.343278579257519
20
18.5373273217393
30
0
41
1
10
-0.325
20
17.9642657448057
30
0
0
SPLINE
5
218
100
AcDbEntity
8
1
62
256
6
ByLayer
370
18
48
1
60
0
100
AcDbSpline
70
4
71
3
72
13
73
9
40
0
40
0
40
0
40
0
40
0.0329714944599708
40
0.246121471858309
40
0.46025591827974
40
0.655137633639884
40
0.923874807749928
40
1
40
1
40
1
40
1
41
1
10
0.445278424962078
20
17.9665597439123
30
0
41
1
10
0.445285010911419
20
17.9676108545771
30
0
41
1
10
0.445010244401659
20
17.9751256731034
30
0
41
1
10
0.440355507223614
20
17.985451102585
30
0
41
1
10
0.422419538668469
20
17.9861189268182
30
0
41
1
10
0.393428352388133
20
17.972981463754
30
0
41
1
10
0.365510265445413
20
17.9531562033175
30
0
41
1
10
0.34734608298007
20
17.9383693228934
30
0
41
1
10
0.343278579256951
20
17.9349522380298
30
0
0
SPLINE
5
219
100
AcDbEntity
8
1
62
256
6
ByLayer
370
18
48
1
60
0
100
AcDbSpline
70
4
71
2
72
6
73
3
40
0
40
0
40
0
40
1
40
1
40
1
41
1
10
0.34327857925749
20
5.34998840487793
30
0
41
1
10
0.432120620496623
20
5.80528643397124
30
0
41
1
10
0.44514184450122
20
6.24627150010509
30
0
0
SPLINE
5
21A
100
AcDbEntity
8
1
62
256
6
ByLayer
370
18
48
1
60
0
100
AcDbSpline
70
4
71
1
72
4
73
2
40
0
40
0
40
1
40
1
41
1
10
0.343278579257502
20
19.6464364834369
30
0
41
1
10
-0.325
20
18.9546127301509
30
0
0
SPLINE
5
21B
100
AcDbEntity
8
1
62
256
6
ByLayer
370
18
48
1
60
0
100
AcDbSpline
70
4
71
1
72
4
73
2
40
0
40
0
40
1
40
1
41
1
10
0.34327857925749
20
14.8237109429722
30
0
41
1
10
-0.325
20
13.5564502636199
30
0
0
SPLINE
5
21C
100
AcDbEntity
8
1
62
256
6
ByLayer
370
18
48
1
60
0
100
AcDbSpline
70
4
71
1
72
4
73
2
40
0
40
0
40
1
40
1
41
1
10
21.6608911977613
20
5.03901833704886
30
0
41
1
10
21.6130146940669
20
5.10629356007131
30
0
0
SPLINE
5
21D
100
AcDbEntity
8
1
62
256
6
ByLayer
370
18
48
1
60
0
100
AcDbSpline
70
4
71
3
72
26
73
22
40
0
40
0
40
0
40
0
40
0.0536079499926541
40
0.106465298949946
40
0.160932139864711
40
0.21241501474593
40
0.265480406373225
40
0.315580218278247
40
0.367011918947703
40
0.419716301371517
40
0.473534802505173
40
0.513888741153557
40
0.554561716100136
40
0.596085374973828
40
0.637850067083301
40
0.690751299340724
40
0.744028062463436
40
0.798427448589569
40
0.853246429780155
40
0.925845298049797
40
1
40
1
40
1
40
1
41
1
10
7.18971419305233
20
15.015038325878
30
0
41
1
10
7.19795930009851
20
14.9485159840027
30
0
41
1
10
7.22649801548216
20
14.7732078222266
30
0
41
1
10
7.30021822692469
20
14.3728395289695
30
0
41
1
10
7.42118170266809
20
13.8601904777687
30
0
41
1
10
7.60337476488147
20
13.2503928318485
30
0
41
1
10
7.85071287355926
20
12.5894679605766
30
0
41
1
10
8.17306516803114
20
11.8917671463223
30
0
41
1
10
8.56830620188519
20
11.1869714636945
30
0
41
1
10
9.04485725321221
20
10.4821817646356
30
0
41
1
10
9.54806219034626
20
9.86167390251881
30
0
41
1
10
10.0511913931261
20
9.33043467688249
30
0
41
1
10
10.5370385576907
20
8.8807363304668
30
0
41
1
10
11.0543682585166
20
8.46206469526565
30
0
41
1
10
11.648424733584
20
8.04369757092232
30
0
41
1
10
12.3226618918277
20
7.64132672979065
30
0
41
1
10
13.0861401078544
20
7.2688939964068
30
0
41
1
10
13.8891278526809
20
6.95880252462895
30
0
41
1
10
14.8188091934979
20
6.68967340004139
30
0
41
1
10
15.8883750124911
20
6.4952066731325
30
0
41
1
10
16.6809977731542
20
6.4476750961331
30
0
41
1
10
17.0866450422653
20
6.44708572938488
30
0
0
SPLINE
5
21E
100
AcDbEntity
8
1
62
256
6
ByLayer
370
18
48
1
60
0
100
AcDbSpline
70
4
71
1
72
4
73
2
40
0
40
0
40
1
40
1
41
1
10
0.343278579257489
20
13.3683356695468
30
0
41
1
10
-0.325
20
11.8991530686011
30
0
0
SPLINE
5
21F
100
AcDbEntity
8
1
62
256
6
ByLayer
370
18
48
1
60
0
100
AcDbSpline
70
4
71
3
72
10
73
6
40
0
40
0
40
0
40
0
40
0.324059532807388
40
0.655488310967215
40
1
40
1
40
1
40
1
41
1
10
25.5096022187462
20
-0.0091603476366046
30
0
41
1
10
25.3988541940051
20
0.151504294430331
30
0
41
1
10
25.1443205113093
20
0.467895673061072
30
0
41
1
10
24.6682985290418
20
0.949213780625535
30
0
41
1
10
24.2719757366816
20
1.2214059477074
30
0
41
1
10
24.051757532291
20
1.35079066197284
30
0
0
SPLINE
5
220
100
AcDbEntity
8
1
62
256
6
ByLayer
370
18
48
1
60
0
100
AcDbSpline
70
4
71
1
72
4
73
2
40
0
40
0
40
1
40
1
41
1
10
0.343278579257524
20
17.93495223803
30
0
41
1
10
-0.325
20
17.3753372269432
30
0
0
SPLINE
5
221
100
AcDbEntity
8
1
62
256
6
ByLayer
370
18
48
1
60
0
100
AcDbSpline
70
4
71
3
72
11
73
7
40
0
40
0
40
0
40
0
40
0.242846690834542
40
0.49243884221759
40
0.876781026496408
40
1
40
1
40
1
40
1
41
1
10
0.442488271357509
20
19.6428428615073
30
0
41
1
10
0.439460426477187
20
19.6416538970616
30
0
41
1
10
0.430513248260639
20
19.6361317740404
30
0
41
1
10
0.402667754206435
20
19.6133586755909
30
0
41
1
10
0.371256111107801
20
19.5849525119043
30
0
41
1
10
0.348860722571132
20
19.5639710331277
30
0
41
1
10
0.343278579256916
20
19.5586932485772
30
0
0
SPLINE
5
222
100
AcDbEntity
8
1
62
256
6
ByLayer
370
18
48
1
60
0
100
AcDbSpline
70
4
71
3
72
11
73
7
40
0
40
0
40
0
40
0
40
0.411970772124666
40
0.687463188453719
40
0.910646715084577
40
1
40
1
40
1
40
1
41
1
10
0.343278579257508
20
19.5180034570805
30
0
41
1
10
0.366268002847575
20
19.5427218373032
30
0
41
1
10
0.398767280366353
20
19.5790061678723
30
0
41
1
10
0.432326848076072
20
19.6196046838483
30
0
41
1
10
0.443869336809116
20
19.6365822470619
30
0
41
1
10
0.445231446392846
20
19.6408940196522
30
0
41
1
10
0.445278402664465
20
19.6417972739656
30
0
0
SPLINE
5
223
100
AcDbEntity
8
1
62
256
6
ByLayer
370
18
48
1
60
0
100
AcDbSpline
70
4
71
1
72
4
73
2
40
0
40
0
40
1
40
1
41
1
10
0.343278579257685
20
9.76435133857445
30
0
41
1
10
-0.325
20
9.08445616148815
30
0
0
SPLINE
5
224
100
AcDbEntity
8
1
62
256
6
ByLayer
370
18
48
1
60
0
100
AcDbSpline
70
4
71
1
72
4
73
2
40
0
40
0
40
1
40
1
41
1
10
0.343278579257491
20
16.9794705811172
30
0
41
1
10
-0.325
20
15.9578301704837
30
0
0
SPLINE
5
225
100
AcDbEntity
8
1
62
256
6
ByLayer
370
18
48
1
60
0
100
AcDbSpline
70
4
71
1
72
4
73
2
40
0
40
0
40
1
40
1
41
1
10
22.2996331443368
20
-0.666775201564971
30
0
41
1
10
22.35759435058
20
-0.627435736649097
30
0
0
SPLINE
5
226
100
AcDbEntity
8
1
62
256
6
ByLayer
370
18
48
1
60
0
100
AcDbSpline
70
4
71
3
72
13
73
9
40
0
40
0
40
0
40
0
40
0.207438039460519
40
0.416274474974626
40
0.629718048959345
40
0.737283553742757
40
0.844850323786195
40
1
40
1
40
1
40
1
41
1
10
0.343278579257494
20
5.34998840487793
30
0
41
1
10
0.214505649867321
20
4.61831987097275
30
0
41
1
10
0.0093632726892039
20
3.14355578497432
30
0
41
1
10
-0.142590593077835
20
0.886004580706265
30
0
41
1
10
-0.126728631207391
20
-1.01860707860908
30
0
41
1
10
-0.0266272122474295
20
-2.55327635307178
30
0
41
1
10
0.109554434618213
20
-3.87392140567373
30
0
41
1
10
0.247350709853288
20
-4.80340082885367
30
0
41
1
10
0.343278579257492
20
-5.34998840487793
30
0
0
SPLINE
5
227
100
AcDbEntity
8
1
62
256
6
ByLayer
370
18
48
1
60
0
100
AcDbSpline
70
4
71
3
72
13
73
9
40
0
40
0
40
0
40
0
40
0.185540237362049
40
0.376970379457783
40
0.562319576796754
40
0.751995910154692
40
0.875992618344022
40
1
40
1
40
1
40
1
41
1
10
24.9267183495447
20
-1.11578340438492
30
0
41
1
10
24.9204816845947
20
-1.28331808714517
30
0
41
1
10
24.8864770304391
20
-1.65478223967468
30
0
41
1
10
24.7665426710256
20
-2.31469020067823
30
0
41
1
10
24.5896595033676
20
-3.05124545971147
30
0
41
1
10
24.392082617312
20
-3.74672042442705
30
0
41
1
10
24.1939089081669
20
-4.37806575334799
30
0
41
1
10
24.0724133105629
20
-4.74149713617986
30
0
41
1
10
24.0091997060445
20
-4.92496667441387
30
0
0
SPLINE
5
228
100
AcDbEntity
8
1
62
256
6
ByLayer
370
18
48
1
60
0
100
AcDbSpline
70
4
71
3
72
20
73
16
40
0
40
0
40
0
40
0
40
0.0954125974396456
40
0.192380298716778
40
0.291003795884034
40
0.391046575741603
40
0.49171629915017
40
0.596557351136061
40
0.675000460584688
40
0.755355981380689
40
0.817404464456443
40
0.861644678266366
40
0.906431801948285
40
0.952947087191285
40
1
40
1
40
1
40
1
41
1
10
12.410413322158
20
-9.3527432139517
30
0
41
1
10
12.325797084252
20
-9.1468007020179
30
0
41
1
10
12.187478013635
20
-8.72056298209495
30
0
41
1
10
12.0732220875842
20
-8.03734027759723
30
0
41
1
10
12.0660859319825
20
-7.31872417729711
30
0
41
1
10
12.1635279484139
20
-6.57988859285839
30
0
41
1
10
12.3673450843744
20
-5.82832596461447
30
0
41
1
10
12.653793093928
20
-5.14299337816741
30
0
41
1
10
13.0219857358942
20
-4.54130796034694
30
0
41
1
10
13.373315282697
20
-4.06022563096989
30
0
41
1
10
13.6823455407497
20
-3.65934505891305
30
0
41
1
10
13.972320222469
20
-3.36345996104931
30
0
41
1
10
14.2445462397306
20
-3.1097059472025
30
0
41
1
10
14.5352020756643
20
-2.86324402412317
30
0
41
1
10
14.7409296136615
20
-2.70799490979994
30
0
41
1
10
14.8466754789474
20
-2.63258588858666
30
0
0
SPLINE
5
229
100
AcDbEntity
8
1
62
256
6
ByLayer
370
18
48
1
60
0
100
AcDbSpline
70
4
71
3
72
11
73
7
40
0
40
0
40
0
40
0
40
0.275159543132746
40
0.550319086265492
40
0.775816751956451
40
1
40
1
40
1
40
1
41
1
10
10.2186961112968
20
-3.02815871741574
30
0
41
1
10
10.1340451895926
20
-2.90920872739451
30
0
41
1
10
10.0092057488699
20
-2.64733557272712
30
0
41
1
10
9.95909396153571
20
-2.20223172123785
30
0
41
1
10
10.0179479973913
20
-1.74308791211959
30
0
41
1
10
10.1141542976406
20
-1.44211640635414
30
0
41
1
10
10.1768859281813
20
-1.28739914809245
30
0
0
SPLINE
5
22A
100
AcDbEntity
8
1
62
256
6
ByLayer
370
18
48
1
60
0
100
AcDbSpline
70
4
71
3
72
13
73
9
40
0
40
0
40
0
40
0
40
0.260822121799801
40
0.395252665390483
40
0.529665972265148
40
0.740111661383764
40
0.956233497746071
40
1
40
1
40
1
40
1
41
1
10
23.0332130357
20
-4.32194338277975
30
0
41
1
10
22.9903884759771
20
-3.96384261062732
30
0
41
1
10
22.9208216154286
20
-3.43704577685712
30
0
41
1
10
22.8180904596997
20
-2.759411962033
30
0
41
1
10
22.7193344958718
20
-2.17316797472736
30
0
41
1
10
22.5951164944366
20
-1.53556051607435
30
0
41
1
10
22.4824811014143
20
-1.06943041457164
30
0
41
1
10
22.4178872889695
20
-0.842829444969357
30
0
41
1
10
22.4069360886383
20
-0.805444867134728
30
0
0
SPLINE
5
22B
100
AcDbEntity
8
1
62
256
6
ByLayer
370
18
48
1
60
0
100
AcDbSpline
70
4
71
3
72
13
73
9
40
0
40
0
40
0
40
0
40
0.0960829987758715
40
0.205478670963181
40
0.334093341726234
40
0.466129161031339
40
0.73236741183414
40
1
40
1
40
1
40
1
41
1
10
8.68904369433796
20
-2.56384465407518
30
0
41
1
10
8.68883709293933
20
-2.56345551482677
30
0
41
1
10
8.6909175679959
20
-2.59110981591863
30
0
41
1
10
8.70456538345229
20
-2.75232104024452
30
0
41
1
10
8.72733201207686
20
-3.01652155632517
30
0
41
1
10
8.76326345089016
20
-3.43180332026432
30
0
41
1
10
8.81289059136797
20
-4.00340494403422
30
0
41
1
10
8.85348066937625
20
-4.47046859727302
30
0
41
1
10
8.87434218379472
20
-4.71028705207235
30
0
0
SPLINE
5
22C
100
AcDbEntity
8
1
62
256
6
ByLayer
370
18
48
1
60
0
100
AcDbSpline
70
4
71
3
72
15
73
11
40
0
40
0
40
0
40
0
40
0.125
40
0.25
40
0.375
40
0.5
40
0.625
40
0.75
40
0.874999999999988
40
1
40
1
40
1
40
1
41
1
10
14.8466754789474
20
-2.63258588858667
30
0
41
1
10
14.6308211090448
20
-2.78668523714399
30
0
41
1
10
14.1924853986547
20
-3.06572115717181
30
0
41
1
10
13.5029075928208
20
-3.40162532762591
30
0
41
1
10
12.8178355322193
20
-3.64036392347387
30
0
41
1
10
12.1619574128495
20
-3.76881203281451
30
0
41
1
10
11.5587552746629
20
-3.78763541796873
30
0
41
1
10
11.0351858457199
20
-3.69026861903797
30
0
41
1
10
10.6055132576934
20
-3.48528039077939
30
0
41
1
10
10.3991000403897
20
-3.28165915348175
30
0
41
1
10
10.3144491186856
20
-3.16270916346049
30
0
0
LINE
5
70
100
AcDbEntity
8
1
62
256
6
ByLayer
370
18
48
1
60
0
100
AcDbLine
10
0.343279
20
-19.518003
30
0
11
0.343279
21
-19.558693
31
0
39
0
210
0
220
0
230
1
0
LINE
5
72
100
AcDbEntity
8
1
62
256
6
ByLayer
370
18
48
1
60
0
100
AcDbLine
10
0.343279
20
-9.118793
30
0
11
0.343279
21
-9.764351
31
0
39
0
210
0
220
0
230
1
0
LINE
5
73
100
AcDbEntity
8
1
62
256
6
ByLayer
370
18
48
1
60
0
100
AcDbLine
10
24.532742
20
-10.377289
30
0
11
24.720934
21
-10.638241
31
0
39
0
210
0
220
0
230
1
0
LINE
5
74
100
AcDbEntity
8
1
62
256
6
ByLayer
370
18
48
1
60
0
100
AcDbLine
10
33.414691
20
-20.105931
30
0
11
33.469653
21
-19.873817
31
0
39
0
210
0
220
0
230
1
0
LINE
5
75
100
AcDbEntity
8
1
62
256
6
ByLayer
370
18
48
1
60
0
100
AcDbLine
10
0.343279
20
-19.646436
30
0
11
0.343279
21
-19.65992
31
0
39
0
210
0
220
0
230
1
0
LINE
5
76
100
AcDbEntity
8
1
62
256
6
ByLayer
370
18
48
1
60
0
100
AcDbLine
10
24.738779
20
-20.104935
30
0
11
25.202403
21
-25.148081
31
0
39
0
210
0
220
0
230
1
0
LINE
5
77
100
AcDbEntity
8
1
62
256
6
ByLayer
370
18
48
1
60
0
100
AcDbLine
10
10.171932
20
-19.358565
30
0
11
9.653725
21
-13.4851
31
0
39
0
210
0
220
0
230
1
0
LINE
5
78
100
AcDbEntity
8
1
62
256
6
ByLayer
370
18
48
1
60
0
100
AcDbLine
10
23.265934
20
-10.882935
30
0
11
23.454125
21
-11.143887
31
0
39
0
210
0
220
0
230
1
0
LINE
5
79
100
AcDbEntity
8
1
62
256
6
ByLayer
370
18
48
1
60
0
100
AcDbLine
10
0.343279
20
-16.008511
30
0
11
0.343279
21
-16.254923
31
0
39
0
210
0
220
0
230
1
0
LINE
5
7A
100
AcDbEntity
8
1
62
256
6
ByLayer
370
18
48
1
60
0
100
AcDbLine
10
26.282224
20
-6.332587
30
0
11
27.163035
21
-7.566955
31
0
39
0
210
0
220
0
230
1
0
LINE
5
7B
100
AcDbEntity
8
1
62
256
6
ByLayer
370
18
48
1
60
0
100
AcDbLine
10
22.538209
20
-3.751248
30
0
11
22.219452
21
-3.307502
31
0
39
0
210
0
220
0
230
1
0
LINE
5
7C
100
AcDbEntity
8
1
62
256
6
ByLayer
370
18
48
1
60
0
100
AcDbLine
10
-0.325
20
-13.55645
30
0
11
-0.325
21
-14.576174
31
0
39
0
210
0
220
0
230
1
0
LINE
5
7D
100
AcDbEntity
8
1
62
256
6
ByLayer
370
18
48
1
60
0
100
AcDbLine
10
25.980472
20
-26.237168
30
0
11
37.142219
21
-26.998168
31
0
39
0
210
0
220
0
230
1
0
LINE
5
7E
100
AcDbEntity
8
1
62
256
6
ByLayer
370
18
48
1
60
0
100
AcDbLine
10
0.343279
20
-19.272323
30
0
11
0.343279
21
-19.340954
31
0
39
0
210
0
220
0
230
1
0
LINE
5
7F
100
AcDbEntity
8
1
62
256
6
ByLayer
370
18
48
1
60
0
100
AcDbLine
10
30.675808
20
-22.500269
30
0
11
30.455649
21
-22.455363
31
0
39
0
210
0
220
0
230
1
0
LINE
5
80
100
AcDbEntity
8
1
62
256
6
ByLayer
370
18
48
1
60
0
100
AcDbLine
10
27.498834
20
-8.034426
30
0
11
27.163035
21
-7.566955
31
0
39
0
210
0
220
0
230
1
0
LINE
5
81
100
AcDbEntity
8
1
62
256
6
ByLayer
370
18
48
1
60
0
100
AcDbLine
10
20.743631
20
-12.856994
30
0
11
19.574852
21
-11.219129
31
0
39
0
210
0
220
0
230
1
0
LINE
5
82
100
AcDbEntity
8
1
62
256
6
ByLayer
370
18
48
1
60
0
100
AcDbLine
10
24.994006
20
-25.163912
30
0
11
25.264226
21
-25.538607
31
0
39
0
210
0
220
0
230
1
0
LINE
5
83
100
AcDbEntity
8
1
62
256
6
ByLayer
370
18
48
1
60
0
100
AcDbLine
10
26.330055
20
-6.396561
30
0
11
27.498834
21
-8.034426
31
0
39
0
210
0
220
0
230
1
0
LINE
5
84
100
AcDbEntity
8
1
62
256
6
ByLayer
370
18
48
1
60
0
100
AcDbLine
10
-0.325
20
-11.899153
30
0
11
-0.325
21
-13.177721
31
0
39
0
210
0
220
0
230
1
0
LINE
5
85
100
AcDbEntity
8
1
62
256
6
ByLayer
370
18
48
1
60
0
100
AcDbLine
10
24.792314
20
-20.144628
30
0
11
25.264226
21
-25.538607
31
0
39
0
210
0
220
0
230
1
0
LINE
5
86
100
AcDbEntity
8
1
62
256
6
ByLayer
370
18
48
1
60
0
100
AcDbLine
10
-0.325
20
-18.790685
30
0
11
-0.325
21
-18.924913
31
0
39
0
210
0
220
0
230
1
0
LINE
5
87
100
AcDbEntity
8
1
62
256
6
ByLayer
370
18
48
1
60
0
100
AcDbLine
10
0.675
20
-20
30
0
11
10.86069
21
-20
31
0
39
0
210
0
220
0
230
1
0
LINE
5
88
100
AcDbEntity
8
1
62
256
6
ByLayer
370
18
48
1
60
0
100
AcDbLine
10
15.018667
20
-10.094408
30
0
11
13.835853
21
-8.440518
31
0
39
0
210
0
220
0
230
1
0
LINE
5
89
100
AcDbEntity
8
1
62
256
6
ByLayer
370
18
48
1
60
0
100
AcDbLine
10
24.369774
20
-8.514548
30
0
11
24.557965
21
-8.7755
31
0
39
0
210
0
220
0
230
1
0
LINE
5
8A
100
AcDbEntity
8
1
62
256
6
ByLayer
370
18
48
1
60
0
100
AcDbLine
10
36.312329
20
-14.36538
30
0
11
36.210984
21
-14.224852
31
0
39
0
210
0
220
0
230
1
0
LINE
5
8B
100
AcDbEntity
8
1
62
256
6
ByLayer
370
18
48
1
60
0
100
AcDbLine
10
11.875
20
-23.785457
30
0
11
23.735381
21
-25.032033
31
0
39
0
210
0
220
0
230
1
0
LINE
5
8C
100
AcDbEntity
8
1
62
256
6
ByLayer
370
18
48
1
60
0
100
AcDbLine
10
15.463042
20
-5.547447
30
0
11
14.228569
21
-3.82892
31
0
39
0
210
0
220
0
230
1
0
LINE
5
8D
100
AcDbEntity
8
1
62
256
6
ByLayer
370
18
48
1
60
0
100
AcDbLine
10
24.81125
20
-9.779728
30
0
11
24.999441
21
-10.040679
31
0
39
0
210
0
220
0
230
1
0
LINE
5
8E
100
AcDbEntity
8
1
62
256
6
ByLayer
370
18
48
1
60
0
100
AcDbLine
10
33.469653
20
-19.873817
30
0
11
33.606924
21
-18.824427
31
0
39
0
210
0
220
0
230
1
0
LINE
5
8F
100
AcDbEntity
8
1
62
256
6
ByLayer
370
18
48
1
60
0
100
AcDbLine
10
0.343279
20
-18.904826
30
0
11
0.343279
21
-19.002697
31
0
39
0
210
0
220
0
230
1
0
LINE
5
90
100
AcDbEntity
8
1
62
256
6
ByLayer
370
18
48
1
60
0
100
AcDbLine
10
10.402315
20
-19.4328
30
0
11
9.853863
21
-13.216541
31
0
39
0
210
0
220
0
230
1
0
LINE
5
91
100
AcDbEntity
8
1
62
256
6
ByLayer
370
18
48
1
60
0
100
AcDbLine
10
36.312329
20
-14.36538
30
0
11
33.030035
21
-14.141595
31
0
39
0
210
0
220
0
230
1
0
LINE
5
92
100
AcDbEntity
8
1
62
256
6
ByLayer
370
18
48
1
60
0
100
AcDbLine
10
0.343279
20
-11.540468
30
0
11
0.343279
21
-12.013016
31
0
39
0
210
0
220
0
230
1
0
LINE
5
93
100
AcDbEntity
8
1
62
256
6
ByLayer
370
18
48
1
60
0
100
AcDbLine
10
29.987355
20
-22.359844
30
0
11
30.224685
21
-22.38329
31
0
39
0
210
0
220
0
230
1
0
LINE
5
94
100
AcDbEntity
8
1
62
256
6
ByLayer
370
18
48
1
60
0
100
AcDbLine
10
33.378477
20
-20.570822
30
0
11
33.407634
21
-20.347928
31
0
39
0
210
0
220
0
230
1
0
LINE
5
95
100
AcDbEntity
8
1
62
256
6
ByLayer
370
18
48
1
60
0
100
AcDbLine
10
0.343279
20
-16.979471
30
0
11
0.343279
21
-17.181168
31
0
39
0
210
0
220
0
230
1
0
LINE
5
96
100
AcDbEntity
8
1
62
256
6
ByLayer
370
18
48
1
60
0
100
AcDbLine
10
0.343279
20
-14.823711
30
0
11
0.343279
21
-15.124567
31
0
39
0
210
0
220
0
230
1
0
LINE
5
97
100
AcDbEntity
8
1
62
256
6
ByLayer
370
18
48
1
60
0
100
AcDbLine
10
-0.325
20
-15.95783
30
0
11
-0.325
21
-16.63099
31
0
39
0
210
0
220
0
230
1
0
LINE
5
98
100
AcDbEntity
8
1
62
256
6
ByLayer
370
18
48
1
60
0
100
AcDbLine
10
25.086547
20
-25.092565
30
0
11
24.619925
21
-20.016814
31
0
39
0
210
0
220
0
230
1
0
LINE
5
99
100
AcDbEntity
8
1
62
256
6
ByLayer
370
18
48
1
60
0
100
AcDbLine
10
-0.325
20
-18.954613
30
0
11
-0.325
21
-18.999075
31
0
39
0
210
0
220
0
230
1
0
LINE
5
9A
100
AcDbEntity
8
1
62
256
6
ByLayer
370
18
48
1
60
0
100
AcDbLine
10
24.845895
20
-25.143736
30
0
11
25.405764
21
-25.920067
31
0
39
0
210
0
220
0
230
1
0
LINE
5
9B
100
AcDbEntity
8
1
62
256
6
ByLayer
370
18
48
1
60
0
100
AcDbLine
10
37.997049
20
-26.133656
30
0
11
37.028575
21
-15.063941
31
0
39
0
210
0
220
0
230
1
0
LINE
5
9C
100
AcDbEntity
8
1
62
256
6
ByLayer
370
18
48
1
60
0
100
AcDbLine
10
36.165103
20
-14.285558
30
0
11
33.010202
21
-14.070459
31
0
39
0
210
0
220
0
230
1
0
LINE
5
9D
100
AcDbEntity
8
1
62
256
6
ByLayer
370
18
48
1
60
0
100
AcDbLine
10
-0.325
20
-18.089081
30
0
11
-0.325
21
-18.412695
31
0
39
0
210
0
220
0
230
1
0
LINE
5
9E
100
AcDbEntity
8
1
62
256
6
ByLayer
370
18
48
1
60
0
100
AcDbLine
10
-0.325
20
-6.61172
30
0
11
-0.325
21
-9.084456
31
0
39
0
210
0
220
0
230
1
0
LINE
5
9F
100
AcDbEntity
8
1
62
256
6
ByLayer
370
18
48
1
60
0
100
AcDbLine
10
0.343279
20
-5.349988
30
0
11
0.343279
21
-6.470901
31
0
39
0
210
0
220
0
230
1
0
LINE
5
A0
100
AcDbEntity
8
1
62
256
6
ByLayer
370
18
48
1
60
0
100
AcDbLine
10
-0.325
20
-19
30
0
11
0.675
21
-20
31
0
39
0
210
0
220
0
230
1
0
LINE
5
A1
100
AcDbEntity
8
1
62
256
6
ByLayer
370
18
48
1
60
0
100
AcDbLine
10
14.199396
20
-8.946325
30
0
11
13.789732
21
-8.376026
31
0
39
0
210
0
220
0
230
1
0
LINE
5
A2
100
AcDbEntity
8
1
62
256
6
ByLayer
370
18
48
1
60
0
100
AcDbLine
10
26.826159
20
-7.350022
30
0
11
26.63021
21
-7.078313
31
0
39
0
210
0
220
0
230
1
0
LINE
5
A3
100
AcDbEntity
8
1
62
256
6
ByLayer
370
18
48
1
60
0
100
AcDbLine
10
15.033934
20
-8.178284
30
0
11
19.37723
21
-14.264749
31
0
39
0
210
0
220
0
230
1
0
LINE
5
A4
100
AcDbEntity
8
1
62
256
6
ByLayer
370
18
48
1
60
0
100
AcDbLine
10
-0.325
20
-18.504117
30
0
11
-0.325
21
-18.730719
31
0
39
0
210
0
220
0
230
1
0
LINE
5
A5
100
AcDbEntity
8
1
62
256
6
ByLayer
370
18
48
1
60
0
100
AcDbLine
10
23.92145
20
-10.813694
30
0
11
24.109642
21
-11.074645
31
0
39
0
210
0
220
0
230
1
0
LINE
5
A6
100
AcDbEntity
8
1
62
256
6
ByLayer
370
18
48
1
60
0
100
AcDbLine
10
-0.325
20
-16.832702
30
0
11
-0.325
21
-17.375337
31
0
39
0
210
0
220
0
230
1
0
LINE
5
A7
100
AcDbEntity
8
1
62
256
6
ByLayer
370
18
48
1
60
0
100
AcDbLine
10
-0.325
20
-9.741783
30
0
11
-0.325
21
-11.416648
31
0
39
0
210
0
220
0
230
1
0
LINE
5
A8
100
AcDbEntity
8
1
62
256
6
ByLayer
370
18
48
1
60
0
100
AcDbLine
10
15.018667
20
-10.094408
30
0
11
15.023563
21
-10.097599
31
0
39
0
210
0
220
0
230
1
0
LINE
5
A9
100
AcDbEntity
8
1
62
256
6
ByLayer
370
18
48
1
60
0
100
AcDbLine
10
20.141547
20
-11.757764
30
0
11
20.337497
21
-12.029473
31
0
39
0
210
0
220
0
230
1
0
LINE
5
AA
100
AcDbEntity
8
1
62
256
6
ByLayer
370
18
48
1
60
0
100
AcDbLine
10
-0.325
20
-14.881695
30
0
11
-0.325
21
-15.709148
31
0
39
0
210
0
220
0
230
1
0
LINE
5
AB
100
AcDbEntity
8
1
62
256
6
ByLayer
370
18
48
1
60
0
100
AcDbLine
10
9.214395
20
-8.717798
30
0
11
6.075
21
-8.717798
31
0
39
0
210
0
220
0
230
1
0
LINE
5
AC
100
AcDbEntity
8
1
62
256
6
ByLayer
370
18
48
1
60
0
100
AcDbLine
10
18.116497
20
-14.431873
30
0
11
15.023563
21
-10.097599
31
0
39
0
210
0
220
0
230
1
0
LINE
5
AD
100
AcDbEntity
8
1
62
256
6
ByLayer
370
18
48
1
60
0
100
AcDbLine
10
29.987355
20
-22.359844
30
0
11
28.950842
21
-22.148423
31
0
39
0
210
0
220
0
230
1
0
LINE
5
AE
100
AcDbEntity
8
1
62
256
6
ByLayer
370
18
48
1
60
0
100
AcDbLine
10
22.213166
20
-10.05416
30
0
11
22.401357
21
-10.315111
31
0
39
0
210
0
220
0
230
1
0
LINE
5
AF
100
AcDbEntity
8
1
62
256
6
ByLayer
370
18
48
1
60
0
100
AcDbLine
10
-0.325
20
-17.536458
30
0
11
-0.325
21
-17.964266
31
0
39
0
210
0
220
0
230
1
0
LINE
5
B0
100
AcDbEntity
8
1
62
256
6
ByLayer
370
18
48
1
60
0
100
AcDbLine
10
10.86069
20
-20
30
0
11
11.875
21
-23.785457
31
0
39
0
210
0
220
0
230
1
0
LINE
5
B1
100
AcDbEntity
8
1
62
256
6
ByLayer
370
18
48
1
60
0
100
AcDbLine
10
36.220912
20
-14.211716
30
0
11
36.165103
21
-14.285558
31
0
39
0
210
0
220
0
230
1
0
LINE
5
B2
100
AcDbEntity
8
1
62
256
6
ByLayer
370
18
48
1
60
0
100
AcDbLine
10
14.199396
20
-8.946325
30
0
11
15.018667
21
-10.094408
31
0
39
0
210
0
220
0
230
1
0
LINE
5
B3
100
AcDbEntity
8
1
62
256
6
ByLayer
370
18
48
1
60
0
100
AcDbLine
10
31.156831
20
-20.309171
30
0
11
32.544968
21
-22.259914
31
0
39
0
210
0
220
0
230
1
0
LINE
5
B4
100
AcDbEntity
8
1
62
256
6
ByLayer
370
18
48
1
60
0
100
AcDbLine
10
0.343279
20
-17.771675
30
0
11
0.343279
21
-17.934952
31
0
39
0
210
0
220
0
230
1
0
LINE
5
B5
100
AcDbEntity
8
1
62
256
6
ByLayer
370
18
48
1
60
0
100
AcDbLine
10
36.887036
20
-14.68248
30
0
11
36.327167
21
-13.906149
31
0
39
0
210
0
220
0
230
1
0
LINE
5
B6
100
AcDbEntity
8
1
62
256
6
ByLayer
370
18
48
1
60
0
100
AcDbLine
10
36.220912
20
-14.211716
30
0
11
32.988134
21
-13.991307
31
0
39
0
210
0
220
0
230
1
0
LINE
5
B7
100
AcDbEntity
8
1
62
256
6
ByLayer
370
18
48
1
60
0
100
AcDbLine
10
0.343279
20
-13.368336
30
0
11
0.343279
21
-13.739816
31
0
39
0
210
0
220
0
230
1
0
LINE
5
B8
100
AcDbEntity
8
1
62
256
6
ByLayer
370
18
48
1
60
0
100
AcDbLine
10
0.343279
20
-18.408217
30
0
11
0.343279
21
-18.537327
31
0
39
0
210
0
220
0
230
1
0
LINE
5
B9
100
AcDbEntity
8
1
62
256
6
ByLayer
370
18
48
1
60
0
100
AcDbLine
10
24.430239
20
-8.872622
30
0
11
24.61843
21
-9.133574
31
0
39
0
210
0
220
0
230
1
0
LINE
5
BA
100
AcDbEntity
8
1
62
256
6
ByLayer
370
18
48
1
60
0
100
AcDbLine
10
22.717901
20
-10.485358
30
0
11
22.52971
21
-10.224406
31
0
39
0
210
0
220
0
230
1
0
LINE
5
BB
100
AcDbEntity
8
1
62
256
6
ByLayer
370
18
48
1
60
0
100
AcDbLine
10
0.343279
20
19.65992
30
0
11
0.343279
21
19.646436
31
0
39
0
210
0
220
0
230
1
0
LINE
5
BC
100
AcDbEntity
8
1
62
256
6
ByLayer
370
18
48
1
60
0
100
AcDbLine
10
8.70431
20
-2.724237
30
0
11
8.050527
21
4.685871
31
0
39
0
210
0
220
0
230
1
0
LINE
5
BD
100
AcDbEntity
8
1
62
256
6
ByLayer
370
18
48
1
60
0
100
AcDbLine
10
6.075
20
8.717798
30
0
11
7.681289
21
8.717798
31
0
39
0
210
0
220
0
230
1
0
LINE
5
BE
100
AcDbEntity
8
1
62
256
6
ByLayer
370
18
48
1
60
0
100
AcDbLine
10
26.738538
20
-1.727543
30
0
11
26.739972
21
-1.733205
31
0
39
0
210
0
220
0
230
1
0
LINE
5
BF
100
AcDbEntity
8
SK1
62
256
6
ByLayer
370
18
48
1
60
0
100
AcDbLine
10
-3.225
20
3
30
0
11
-3.825
21
2.65359
31
0
39
0
210
0
220
0
230
1
0
LINE
5
C1
100
AcDbEntity
8
1
62
256
6
ByLayer
370
18
48
1
60
0
100
AcDbLine
10
0.343279
20
17.934952
30
0
11
0.343279
21
17.771675
31
0
39
0
210
0
220
0
230
1
0
LINE
5
C2
100
AcDbEntity
8
1
62
256
6
ByLayer
370
18
48
1
60
0
100
AcDbLine
10
14.846675
20
-2.632586
30
0
11
19.729955
21
0.853608
31
0
39
0
210
0
220
0
230
1
0
LINE
5
C3
100
AcDbEntity
8
1
62
256
6
ByLayer
370
18
48
1
60
0
100
AcDbLine
10
-0.325
20
14.576174
30
0
11
-0.325
21
13.55645
31
0
39
0
210
0
220
0
230
1
0
LINE
5
C4
100
AcDbEntity
8
1
62
256
6
ByLayer
370
18
48
1
60
0
100
AcDbLine
10
0.343279
20
19.340954
30
0
11
0.343279
21
19.272323
31
0
39
0
210
0
220
0
230
1
0
LINE
5
C5
100
AcDbEntity
8
1
62
256
6
ByLayer
370
18
48
1
60
0
100
AcDbLine
10
7.045271
20
16.483386
30
0
11
6.737607
21
20
31
0
39
0
210
0
220
0
230
1
0
LINE
5
C6
100
AcDbEntity
8
1
62
256
6
ByLayer
370
18
48
1
60
0
100
AcDbLine
10
-0.325
20
18.999075
30
0
11
-0.325
21
19
31
0
39
0
210
0
220
0
230
1
0
LINE
5
C7
100
AcDbEntity
8
1
62
256
6
ByLayer
370
18
48
1
60
0
100
AcDbLine
10
-0.325
20
17.375337
30
0
11
-0.325
21
17.536458
31
0
39
0
210
0
220
0
230
1
0
LINE
5
C8
100
AcDbEntity
8
1
62
256
6
ByLayer
370
18
48
1
60
0
100
AcDbLine
10
17.086645
20
6.447086
30
0
11
29.132245
21
6.447086
31
0
39
0
210
0
220
0
230
1
0
LINE
5
C9
100
AcDbEntity
8
1
62
256
6
ByLayer
370
18
48
1
60
0
100
AcDbLine
10
0.343279
20
19.002697
30
0
11
0.343279
21
18.904826
31
0
39
0
210
0
220
0
230
1
0
LINE
5
CA
100
AcDbEntity
8
1
62
256
6
ByLayer
370
18
48
1
60
0
100
AcDbLine
10
0.343279
20
19.558693
30
0
11
0.343279
21
19.518003
31
0
39
0
210
0
220
0
230
1
0
LINE
5
CB
100
AcDbEntity
8
1
62
256
6
ByLayer
370
18
48
1
60
0
100
AcDbLine
10
-0.325
20
18.412695
30
0
11
-0.325
21
18.089081
31
0
39
0
210
0
220
0
230
1
0
LINE
5
CC
100
AcDbEntity
8
1
62
256
6
ByLayer
370
18
48
1
60
0
100
AcDbLine
10
-0.325
20
9.084456
30
0
11
-0.325
21
6.61172
31
0
39
0
210
0
220
0
230
1
0
LINE
5
CD
100
AcDbEntity
8
1
62
256
6
ByLayer
370
18
48
1
60
0
100
AcDbLine
10
0.675
20
20
30
0
11
-0.325
21
19
31
0
39
0
210
0
220
0
230
1
0
LINE
5
CE
100
AcDbEntity
8
1
62
256
6
ByLayer
370
18
48
1
60
0
100
AcDbLine
10
-0.325
20
9.084456
30
0
11
-0.325
21
9.741783
31
0
39
0
210
0
220
0
230
1
0
LINE
5
CF
100
AcDbEntity
8
SK1
62
256
6
ByLayer
370
18
48
1
60
0
100
AcDbLine
10
-0.325
20
3
30
0
11
-3.225
21
3
31
0
39
0
210
0
220
0
230
1
0
LINE
5
D0
100
AcDbEntity
8
1
62
256
6
ByLayer
370
18
48
1
60
0
100
AcDbLine
10
-0.325
20
18.730719
30
0
11
-0.325
21
18.504117
31
0
39
0
210
0
220
0
230
1
0
LINE
5
D1
100
AcDbEntity
8
1
62
256
6
ByLayer
370
18
48
1
60
0
100
AcDbLine
10
22.299633
20
-0.666775
30
0
11
21.06516
21
1.051752
31
0
39
0
210
0
220
0
230
1
0
LINE
5
D2
100
AcDbEntity
8
SK1
62
256
6
ByLayer
370
18
48
1
60
0
100
AcDbLine
10
-3.825
20
-2.65359
30
0
11
-3.225
21
-3
31
0
39
0
210
0
220
0
230
1
0
LINE
5
D3
100
AcDbEntity
8
1
62
256
6
ByLayer
370
18
48
1
60
0
100
AcDbLine
10
19.127268
20
5.102257
30
0
11
10.176852
21
-1.287483
31
0
39
0
210
0
220
0
230
1
0
LINE
5
D4
100
AcDbEntity
8
1
62
256
6
ByLayer
370
18
48
1
60
0
100
AcDbLine
10
0.343279
20
18.537327
30
0
11
0.343279
21
18.408217
31
0
39
0
210
0
220
0
230
1
0
LINE
5
D5
100
AcDbEntity
8
1
62
256
6
ByLayer
370
18
48
1
60
0
100
AcDbLine
10
27.971912
20
-0.358404
30
0
11
27.52633
21
0.264888
31
0
39
0
210
0
220
0
230
1
0
LINE
5
D6
100
AcDbEntity
8
1
62
256
6
ByLayer
370
18
48
1
60
0
100
AcDbLine
10
6.737607
20
20
30
0
11
0.675
21
20
31
0
39
0
210
0
220
0
230
1
0
LINE
5
D7
100
AcDbEntity
8
1
62
256
6
ByLayer
370
18
48
1
60
0
100
AcDbLine
10
26.738538
20
-1.727543
30
0
11
25.919267
21
-0.57946
31
0
39
0
210
0
220
0
230
1
0
LINE
5
D8
100
AcDbEntity
8
SK1
62
256
6
ByLayer
370
18
48
1
60
0
100
AcDbLine
10
-3.225
20
-3
30
0
11
-0.325
21
-3
31
0
39
0
210
0
220
0
230
1
0
LINE
5
D9
100
AcDbEntity
8
1
62
256
6
ByLayer
370
18
48
1
60
0
100
AcDbLine
10
0.343279
20
6.470901
30
0
11
0.343279
21
5.349988
31
0
39
0
210
0
220
0
230
1
0
LINE
5
DA
100
AcDbEntity
8
1
62
256
6
ByLayer
370
18
48
1
60
0
100
AcDbLine
10
-0.325
20
18.412695
30
0
11
-0.325
21
18.504117
31
0
39
0
210
0
220
0
230
1
0
LINE
5
DB
100
AcDbEntity
8
SK1
62
256
6
ByLayer
370
18
48
1
60
0
100
AcDbLine
10
-3.825
20
0
30
0
11
-3.825
21
2.65359
31
0
39
0
210
0
220
0
230
1
0
LINE
5
DC
100
AcDbEntity
8
1
62
256
6
ByLayer
370
18
48
1
60
0
100
AcDbLine
10
-0.325
20
16.63099
30
0
11
-0.325
21
15.95783
31
0
39
0
210
0
220
0
230
1
0
LINE
5
DD
100
AcDbEntity
8
1
62
256
6
ByLayer
370
18
48
1
60
0
100
AcDbLine
10
27.971912
20
-0.358404
30
0
11
26.507535
21
-1.403828
31
0
39
0
210
0
220
0
230
1
0
LINE
5
DE
100
AcDbEntity
8
1
62
256
6
ByLayer
370
18
48
1
60
0
100
AcDbLine
10
0.343279
20
9.764351
30
0
11
0.343279
21
9.118793
31
0
39
0
210
0
220
0
230
1
0
LINE
5
DF
100
AcDbEntity
8
1
62
256
6
ByLayer
370
18
48
1
60
0
100
AcDbLine
10
-0.325
20
18.730719
30
0
11
-0.325
21
18.790685
31
0
39
0
210
0
220
0
230
1
0
LINE
5
E0
100
AcDbEntity
8
1
62
256
6
ByLayer
370
18
48
1
60
0
100
AcDbLine
10
-0.325
20
11.416648
30
0
11
-0.325
21
11.899153
31
0
39
0
210
0
220
0
230
1
0
LINE
5
E1
100
AcDbEntity
8
1
62
256
6
ByLayer
370
18
48
1
60
0
100
AcDbLine
10
0.343279
20
15.124567
30
0
11
0.343279
21
14.823711
31
0
39
0
210
0
220
0
230
1
0
LINE
5
E2
100
AcDbEntity
8
1
62
256
6
ByLayer
370
18
48
1
60
0
100
AcDbLine
10
0.343279
20
16.254923
30
0
11
0.343279
21
16.008511
31
0
39
0
210
0
220
0
230
1
0
LINE
5
E3
100
AcDbEntity
8
1
62
256
6
ByLayer
370
18
48
1
60
0
100
AcDbLine
10
-0.325
20
13.177721
30
0
11
-0.325
21
13.55645
31
0
39
0
210
0
220
0
230
1
0
LINE
5
E4
100
AcDbEntity
8
SK1
62
256
6
ByLayer
370
18
48
1
60
0
100
AcDbLine
10
-3.225
20
0
30
0
11
-3.225
21
-3
31
0
39
0
210
0
220
0
230
1
0
LINE
5
E5
100
AcDbEntity
8
1
62
256
6
ByLayer
370
18
48
1
60
0
100
AcDbLine
10
0.343279
20
12.013016
30
0
11
0.343279
21
11.540468
31
0
39
0
210
0
220
0
230
1
0
LINE
5
E6
100
AcDbEntity
8
1
62
256
6
ByLayer
370
18
48
1
60
0
100
AcDbLine
10
25.919267
20
-0.57946
30
0
11
25.509602
21
-0.00916
31
0
39
0
210
0
220
0
230
1
0
LINE
5
E7
100
AcDbEntity
8
1
62
256
6
ByLayer
370
18
48
1
60
0
100
AcDbLine
10
7.124698
20
15.575528
30
0
11
7.045271
21
16.483386
31
0
39
0
210
0
220
0
230
1
0
LINE
5
E8
100
AcDbEntity
8
1
62
256
6
ByLayer
370
18
48
1
60
0
100
AcDbLine
10
-0.325
20
13.177721
30
0
11
-0.325
21
11.899153
31
0
39
0
210
0
220
0
230
1
0
LINE
5
E9
100
AcDbEntity
8
1
62
256
6
ByLayer
370
18
48
1
60
0
100
AcDbLine
10
-0.325
20
18.924913
30
0
11
-0.325
21
18.790685
31
0
39
0
210
0
220
0
230
1
0
LINE
5
EA
100
AcDbEntity
8
1
62
256
6
ByLayer
370
18
48
1
60
0
100
AcDbLine
10
-0.325
20
5.496803
30
0
11
-0.325
21
6.61172
31
0
39
0
210
0
220
0
230
1
0
LINE
5
EB
100
AcDbEntity
8
1
62
256
6
ByLayer
370
18
48
1
60
0
100
AcDbLine
10
-0.325
20
15.709148
30
0
11
-0.325
21
15.95783
31
0
39
0
210
0
220
0
230
1
0
LINE
5
EC
100
AcDbEntity
8
1
62
256
6
ByLayer
370
18
48
1
60
0
100
AcDbLine
10
0.343279
20
13.739816
30
0
11
0.343279
21
13.368336
31
0
39
0
210
0
220
0
230
1
0
LINE
5
ED
100
AcDbEntity
8
1
62
256
6
ByLayer
370
18
48
1
60
0
100
AcDbLine
10
-0.325
20
16.63099
30
0
11
-0.325
21
16.832702
31
0
39
0
210
0
220
0
230
1
0
LINE
5
EE
100
AcDbEntity
8
SK1
62
256
6
ByLayer
370
18
48
1
60
0
100
AcDbLine
10
-3.825
20
-2.65359
30
0
11
-3.825
21
0
31
0
39
0
210
0
220
0
230
1
0
LINE
5
EF
100
AcDbEntity
8
1
62
256
6
ByLayer
370
18
48
1
60
0
100
AcDbLine
10
0.343279
20
17.181168
30
0
11
0.343279
21
16.979471
31
0
39
0
210
0
220
0
230
1
0
LINE
5
F0
100
AcDbEntity
8
1
62
256
6
ByLayer
370
18
48
1
60
0
100
AcDbLine
10
-0.325
20
15.709148
30
0
11
-0.325
21
14.881695
31
0
39
0
210
0
220
0
230
1
0
LINE
5
F1
100
AcDbEntity
8
1
62
256
6
ByLayer
370
18
48
1
60
0
100
AcDbLine
10
8.913465
20
-2.557879
30
0
11
8.270835
21
4.725821
31
0
39
0
210
0
220
0
230
1
0
LINE
5
F2
100
AcDbEntity
8
1
62
256
6
ByLayer
370
18
48
1
60
0
100
AcDbLine
10
-0.325
20
18.999075
30
0
11
-0.325
21
18.954613
31
0
39
0
210
0
220
0
230
1
0
LINE
5
F3
100
AcDbEntity
8
1
62
256
6
ByLayer
370
18
48
1
60
0
100
AcDbLine
10
-0.325
20
11.416648
30
0
11
-0.325
21
9.741783
31
0
39
0
210
0
220
0
230
1
0
LINE
5
F4
100
AcDbEntity
8
1
62
256
6
ByLayer
370
18
48
1
60
0
100
AcDbLine
10
-0.325
20
18.924913
30
0
11
-0.325
21
18.954613
31
0
39
0
210
0
220
0
230
1
0
LINE
5
F5
100
AcDbEntity
8
1
62
256
6
ByLayer
370
18
48
1
60
0
100
AcDbLine
10
-0.325
20
14.576174
30
0
11
-0.325
21
14.881695
31
0
39
0
210
0
220
0
230
1
0
LINE
5
F6
100
AcDbEntity
8
1
62
256
6
ByLayer
370
18
48
1
60
0
100
AcDbLine
10
-0.325
20
17.375337
30
0
11
-0.325
21
16.832702
31
0
39
0
210
0
220
0
230
1
0
LINE
5
F7
100
AcDbEntity
8
1
62
256
6
ByLayer
370
18
48
1
60
0
100
AcDbLine
10
-0.325
20
17.964266
30
0
11
-0.325
21
17.536458
31
0
39
0
210
0
220
0
230
1
0
LINE
5
F8
100
AcDbEntity
8
1
62
256
6
ByLayer
370
18
48
1
60
0
100
AcDbLine
10
7.139828
20
15.007922
30
0
11
7.012082
21
16.45582
31
0
39
0
210
0
220
0
230
1
0
LINE
5
F9
100
AcDbEntity
8
1
62
256
6
ByLayer
370
18
48
1
60
0
100
AcDbLine
10
-0.325
20
17.964266
30
0
11
-0.325
21
18.089081
31
0
39
0
210
0
220
0
230
1
0
LINE
5
FA
100
AcDbEntity
8
SK1
62
256
6
ByLayer
370
18
48
1
60
0
100
AcDbLine
10
-3.225
20
3
30
0
11
-3.225
21
0
31
0
39
0
210
0
220
0
230
1
0
LINE
5
FB
100
AcDbEntity
8
1
62
256
6
ByLayer
370
18
48
1
60
0
100
AcDbLine
10
-0.325
20
-15.95783
30
0
11
-0.325
21
-15.709148
31
0
39
0
210
0
220
0
230
1
0
LINE
5
FC
100
AcDbEntity
8
1
62
256
6
ByLayer
370
18
48
1
60
0
100
AcDbLine
10
21.354609
20
-2.095511
30
0
11
17.122434
21
-5.116879
31
0
39
0
210
0
220
0
230
1
0
LINE
5
FD
100
AcDbEntity
8
1
62
256
6
ByLayer
370
18
48
1
60
0
100
AcDbLine
10
-0.325
20
-6.61172
30
0
11
-0.325
21
-5.496803
31
0
39
0
210
0
220
0
230
1
0
LINE
5
FE
100
AcDbEntity
8
1
62
256
6
ByLayer
370
18
48
1
60
0
100
AcDbLine
10
22.299633
20
-0.666775
30
0
11
15.463042
21
-5.547447
31
0
39
0
210
0
220
0
230
1
0
LINE
5
FF
100
AcDbEntity
8
1
62
256
6
ByLayer
370
18
48
1
60
0
100
AcDbLine
10
29.832906
20
-6.067479
30
0
11
26.739972
21
-1.733205
31
0
39
0
210
0
220
0
230
1
0
LINE
5
100
100
AcDbEntity
8
1
62
256
6
ByLayer
370
18
48
1
60
0
100
AcDbLine
10
11.875
20
-23.785457
30
0
11
11.875
21
-23.466722
31
0
39
0
210
0
220
0
230
1
0
LINE
5
101
100
AcDbEntity
8
1
62
256
6
ByLayer
370
18
48
1
60
0
100
AcDbLine
10
14.228569
20
-3.82892
30
0
11
21.06516
21
1.051752
31
0
39
0
210
0
220
0
230
1
0
LINE
5
102
100
AcDbEntity
8
1
62
256
6
ByLayer
370
18
48
1
60
0
100
AcDbLine
10
-0.325
20
-13.55645
30
0
11
-0.325
21
-13.177721
31
0
39
0
210
0
220
0
230
1
0
LINE
5
103
100
AcDbEntity
8
1
62
256
6
ByLayer
370
18
48
1
60
0
100
AcDbLine
10
-0.325
20
5.496803
30
0
11
-0.325
21
-5.496803
31
0
39
0
210
0
220
0
230
1
0
LINE
5
104
100
AcDbEntity
8
1
62
256
6
ByLayer
370
18
48
1
60
0
100
AcDbLine
10
-0.325
20
-18.504117
30
0
11
-0.325
21
-18.412695
31
0
39
0
210
0
220
0
230
1
0
LINE
5
105
100
AcDbEntity
8
1
62
256
6
ByLayer
370
18
48
1
60
0
100
AcDbLine
10
-0.325
20
-11.899153
30
0
11
-0.325
21
-11.416648
31
0
39
0
210
0
220
0
230
1
0
LINE
5
106
100
AcDbEntity
8
1
62
256
6
ByLayer
370
18
48
1
60
0
100
AcDbLine
10
0.675
20
-20
30
0
11
0.675
21
20
31
0
39
0
210
0
220
0
230
1
0
LINE
5
107
100
AcDbEntity
8
1
62
256
6
ByLayer
370
18
48
1
60
0
100
AcDbLine
10
7.681289
20
8.717798
30
0
11
9.214395
21
-8.717798
31
0
39
0
210
0
220
0
230
1
0
LINE
5
108
100
AcDbEntity
8
1
62
256
6
ByLayer
370
18
48
1
60
0
100
AcDbLine
10
-0.325
20
-18.954613
30
0
11
-0.325
21
-18.924913
31
0
39
0
210
0
220
0
230
1
0
LINE
5
109
100
AcDbEntity
8
1
62
256
6
ByLayer
370
18
48
1
60
0
100
AcDbLine
10
-0.325
20
-18.790685
30
0
11
-0.325
21
-18.730719
31
0
39
0
210
0
220
0
230
1
0
LINE
5
10A
100
AcDbEntity
8
1
62
256
6
ByLayer
370
18
48
1
60
0
100
AcDbLine
10
5.675
20
-7.838367
30
0
11
5.675
21
7.838367
31
0
39
0
210
0
220
0
230
1
0
LINE
5
10B
100
AcDbEntity
8
1
62
256
6
ByLayer
370
18
48
1
60
0
100
AcDbLine
10
-0.325
20
-19
30
0
11
-0.325
21
-18.999075
31
0
39
0
210
0
220
0
230
1
0
LINE
5
10C
100
AcDbEntity
8
1
62
256
6
ByLayer
370
18
48
1
60
0
100
AcDbLine
10
10.86069
20
-20
30
0
11
10.86069
21
-19.446667
31
0
39
0
210
0
220
0
230
1
0
LINE
5
10D
100
AcDbEntity
8
1
62
256
6
ByLayer
370
18
48
1
60
0
100
AcDbLine
10
6.075
20
-8.717798
30
0
11
6.075
21
8.717798
31
0
39
0
210
0
220
0
230
1
0
LINE
5
10E
100
AcDbEntity
8
1
62
256
6
ByLayer
370
18
48
1
60
0
100
AcDbLine
10
-0.325
20
-17.536458
30
0
11
-0.325
21
-17.375337
31
0
39
0
210
0
220
0
230
1
0
LINE
5
10F
100
AcDbEntity
8
1
62
256
6
ByLayer
370
18
48
1
60
0
100
AcDbLine
10
-0.325
20
-16.832702
30
0
11
-0.325
21
-16.63099
31
0
39
0
210
0
220
0
230
1
0
LINE
5
110
100
AcDbEntity
8
1
62
256
6
ByLayer
370
18
48
1
60
0
100
AcDbLine
10
-0.325
20
-9.741783
30
0
11
-0.325
21
-9.084456
31
0
39
0
210
0
220
0
230
1
0
LINE
5
111
100
AcDbEntity
8
1
62
256
6
ByLayer
370
18
48
1
60
0
100
AcDbLine
10
36.220912
20
-14.211716
30
0
11
34.755308
21
2.540208
31
0
39
0
210
0
220
0
230
1
0
LINE
5
112
100
AcDbEntity
8
1
62
256
6
ByLayer
370
18
48
1
60
0
100
AcDbLine
10
-0.325
20
-18.089081
30
0
11
-0.325
21
-17.964266
31
0
39
0
210
0
220
0
230
1
0
LINE
5
113
100
AcDbEntity
8
1
62
256
6
ByLayer
370
18
48
1
60
0
100
AcDbLine
10
24.926718
20
-1.115783
30
0
11
29.270014
21
-7.202248
31
0
39
0
210
0
220
0
230
1
0
LINE
5
114
100
AcDbEntity
8
1
62
256
6
ByLayer
370
18
48
1
60
0
100
AcDbLine
10
-0.325
20
-14.881695
30
0
11
-0.325
21
-14.576174
31
0
39
0
210
0
220
0
230
1
0
LINE
5
115
100
AcDbEntity
8
1
62
256
6
ByLayer
370
18
48
1
60
0
100
AcDbLine
10
22.219452
20
-3.307502
30
0
11
21.354609
21
-2.095511
31
0
39
0
210
0
220
0
230
1
0
LINE
5
116
100
AcDbEntity
8
4
62
256
6
ByLayer
370
13
48
0.05
60
0
100
AcDbLine
10
0
20
0
30
0
11
38
21
0
31
0
39
0
210
0
220
0
230
1
0
LINE
5
118
100
AcDbEntity
8
SK4
62
256
6
ByLayer
370
13
48
0.05
60
0
100
AcDbLine
10
-5
20
0
30
0
11
42
21
0
31
0
39
0
210
0
220
0
230
1
0
LINE
5
11A
100
AcDbEntity
8
80
62
256
6
ByLayer
370
13
48
1
60
0
100
AcDbLine
10
0
20
0
30
0
11
-4
21
0
31
0
39
0
210
0
220
0
230
1
0
LINE
5
11B
100
AcDbEntity
8
81
62
256
6
ByLayer
370
13
48
1
60
0
100
AcDbLine
10
38
20
-27
30
0
11
42
21
-27
31
0
39
0
210
0
220
0
230
1
0
MTEXT
5
22D
100
AcDbEntity
8
SK6
62
256
6
ByLayer
370
13
48
1
60
0
100
AcDbMText
10
-8.2241
20
-48.638789
30
0
210
0
220
0
230
1
1
\W1.0806;570-DCLNL-40-12-L
40
3.175
41
0
44
0.903614
50
0
71
7
72
5
7
blockfont
0
DIMENSION
5
23B
100
AcDbEntity
8
2
62
256
6
ByLayer
370
13
48
1
60
0
100
AcDbDimension
2
DimnDraft3D1
10
-27
20
-68.801674
30
0
11
-16.800677
21
-68.801674
31
0
70
32
71
5
72
1
41
1
210
0
220
0
230
1
3
Standard
100
AcDbAlignedDimension
13
0
23
-1.5875
33
0
14
-27
24
-39.5875
34
0
50
0
100
AcDbRotatedDimension
1001
ACAD
1000
DSTYLE
1002
{
1070
   279
1070
     0
1070
   173
1070
     1
1070
   340
1005
22E
1070
   271
1070
     3
1070
   272
1070
     3
1070
    77
1070
     1
1070
    73
1070
     0
1070
   171
1070
     4
1070
   274
1070
     4
1070
   177
1070
     7
1070
   176
1070
     7
1070
   178
1070
     7
1070
    78
1070
     8
1070
    48
1040
-0.005
1070
    41
1041
3.175
1070
   147
1041
1.5875
1070
    42
1041
1.5875
1070
    44
1041
3.175
1070
   140
1041
3.175
1070
   343
1005
0
1070
   344
1005
0
1002
}
0
DIMENSION
5
245
100
AcDbEntity
8
2
62
256
6
ByLayer
370
13
48
1
60
0
100
AcDbDimension
2
DimnDraft3D2
10
35.667164
20
38
30
0
11
35.667164
21
15.699323
31
0
70
32
71
5
72
1
41
1
210
0
220
0
230
1
3
Standard
100
AcDbAlignedDimension
13
1.5875
23
0
33
0
14
28.5875
24
38
34
0
50
90
100
AcDbRotatedDimension
1001
ACAD
1000
DSTYLE
1002
{
1070
    74
1070
     0
1070
   279
1070
     0
1070
   173
1070
     1
1070
   340
1005
22E
1070
   271
1070
     3
1070
   272
1070
     3
1070
    77
1070
     1
1070
    73
1070
     0
1070
   171
1070
     4
1070
   274
1070
     4
1070
   177
1070
     7
1070
   176
1070
     7
1070
   178
1070
     7
1070
    78
1070
     8
1070
    48
1040
-0.005
1070
    41
1041
3.175
1070
   147
1041
1.5875
1070
    42
1041
1.5875
1070
    44
1041
3.175
1070
   140
1041
3.175
1070
   343
1005
0
1070
   344
1005
0
1002
}
0
DIMENSION
5
251
100
AcDbEntity
8
SK2
62
256
6
ByLayer
370
13
48
1
60
0
100
AcDbDimension
2
DimnDraft3D3
10
-22.786755
20
20
30
0
11
-21.993005
21
4.661459
31
0
70
33
71
5
72
1
41
1
210
0
220
0
230
1
3
Standard
100
AcDbAlignedDimension
13
-0.9125
23
-20
33
0
14
-0.9125
24
20
34
0
1001
ACAD
1000
DSTYLE
1002
{
1070
   279
1070
     0
1070
    74
1070
     0
1070
   173
1070
     1
1070
   340
1005
22E
1070
   271
1070
     3
1070
   272
1070
     3
1070
    77
1070
     1
1070
    73
1070
     0
1070
   171
1070
     4
1070
   274
1070
     4
1070
   177
1070
     7
1070
   176
1070
     7
1070
   178
1070
     7
1070
    78
1070
     8
1070
    48
1040
-0.005
1070
    41
1041
3.175
1070
   147
1041
1.5875
1070
    42
1041
1.5875
1070
    44
1041
3.175
1070
   140
1041
3.175
1070
   343
1005
0
1070
   344
1005
0
1002
}
0
DIMENSION
5
25C
100
AcDbEntity
8
SK2
62
256
6
ByLayer
370
13
48
1
60
0
100
AcDbDimension
2
DimnDraft3D4
10
37.028575
20
-15.063941
30
0
11
-7.796507
21
-46.780848
31
0
70
34
71
5
72
1
41
1
210
0
220
0
230
1
3
Standard
100
AcDb2LineAngularDimension
13
-5
23
0
33
0
14
42
24
0
34
0
15
37.997049
25
-26.133656
35
0
16
12.323678
26
-47.003221
36
0
40
0
0
ENDSEC
0
SECTION
2
OBJECTS
0
DICTIONARY
5
2c7
330
0
100
AcDbDictionary
280
0
281
1
3
ACAD_GROUP
350
2c8
3
ACAD_MLINESTYLE
350
2c9
0
DICTIONARY
5
2c8
330
0
100
AcDbDictionary
280
0
281
1
0
DICTIONARY
5
2c9
330
0
100
AcDbDictionary
280
0
281
1
3
Standard
350
18
0
MLINESTYLE
5
18
330
2c9
100
AcDbMlineStyle
2
Standard
70
0
3

62
256
51
90
52
90
71
2
49
-0.5
62
256
6
ByLayer
49
0.5
62
256
6
ByLayer
0
RASTERVARIABLES
5
2b5
330

100
AcDbRasterVariables
90
0
70
1
71
1
72
1
0
ENDSEC
0
EOF
