0
SECTION
2
HEADER
9
$ACADVER
1
AC1015
9
$DWGCODEPAGE
3
ANSI_1252
9
$HANDSEED
5
2d3
9
$ANGBASE
50
0
9
$ANGDIR
70
0
9
$ATTMODE
70
1
9
$AUNITS
70
0
9
$AUPREC
70
0
9
$CECOLOR
62
256
9
$CELTSCALE
40
1
9
$CELTYPE
6
ByLayer
9
$CELWEIGHT
370
18
9
$CLAYER
8
0
9
$CMLJUST
70
0
9
$CMLSCALE
40
1
9
$CMLSTYLE
2
Standard
9
$DIMSTYLE
2
Standard
9
$TEXTSIZE
40
0.2
9
$TEXTSTYLE
7
Standard
9
$LUNITS
70
2
9
$LUPREC
70
4
9
$EXTNAMES
290
1
9
$INSUNITS
70
4
9
$LTSCALE
40
1
9
$LWDISPLAY
290
1
9
$PDMODE
70
0
9
$PDSIZE
40
0
9
$PLINEGEN
70
0
0
ENDSEC
0
SECTION
2
CLASSES
0
CLASS
1
RASTERVARIABLES
2
AcDbRasterVariables
3
ISM
90
0
280
0
281
0
0
ENDSEC
0
SECTION
2
TABLES
0
TABLE
2
VPORT
5
2c9
100
AcDbSymbolTable
0
VPORT
5
1
100
AcDbSymbolTableRecord
100
AcDbViewportTableRecord
2
*Active
70
0
10
0
20
0
11
1
21
1
12
-1
22
1
13
0
23
0
14
0.5
24
0.5
15
10
25
10
16
0
26
0
36
1
17
0
27
0
37
0
0
ENDTAB
0
TABLE
2
LTYPE
5
2ca
100
AcDbSymbolTable
0
LTYPE
5
14
100
AcDbSymbolTableRecord
100
AcDbLinetypeTableRecord
70
0
2
ByBlock
3

72
65
73
0
40
0
0
LTYPE
5
15
100
AcDbSymbolTableRecord
100
AcDbLinetypeTableRecord
70
0
2
ByLayer
3

72
65
73
0
40
0
0
LTYPE
5
16
100
AcDbSymbolTableRecord
100
AcDbLinetypeTableRecord
70
0
2
CONTINUOUS
3
Solid line
72
65
73
0
40
0
0
LTYPE
5
6A
100
AcDbSymbolTableRecord
100
AcDbLinetypeTableRecord
70
0
2
CENTER
3
____ _ ____ _ ____ _ ____
72
65
73
4
40
47.5
49
22
74
0
49
-8.5
74
0
49
8.5
74
0
49
-8.5
74
0
0
LTYPE
5
6B
100
AcDbSymbolTableRecord
100
AcDbLinetypeTableRecord
70
0
2
DASHED
3
__ __ __ __ __ __ __ __ __
72
65
73
2
40
25.72
49
12.86
74
0
49
-12.86
74
0
0
ENDTAB
0
TABLE
2
LAYER
5
2cb
100
AcDbSymbolTable
0
LAYER
5
10
100
AcDbSymbolTableRecord
100
AcDbLayerTableRecord
2
0
70
0
62
7
6
CONTINUOUS
290
1
370
-3
390
0
0
LAYER
5
6D
100
AcDbSymbolTableRecord
100
AcDbLayerTableRecord
2
80
70
0
62
-6
6
CONTINUOUS
290
1
370
-3
390
0
0
LAYER
5
6F
100
AcDbSymbolTableRecord
100
AcDbLayerTableRecord
2
81
70
0
62
-3
6
CONTINUOUS
290
1
370
-3
390
0
0
LAYER
5
72
100
AcDbSymbolTableRecord
100
AcDbLayerTableRecord
2
4
70
0
62
-2
6
CENTER
290
1
370
-3
390
0
0
LAYER
5
77
100
AcDbSymbolTableRecord
100
AcDbLayerTableRecord
2
1
70
0
62
4
6
CONTINUOUS
290
1
370
-3
390
0
0
LAYER
5
21E
100
AcDbSymbolTableRecord
100
AcDbLayerTableRecord
2
2
70
0
62
7
6
CONTINUOUS
290
1
370
-3
390
0
0
LAYER
5
2b5
100
AcDbSymbolTableRecord
100
AcDbLayerTableRecord
2
SK4
70
0
62
2
6
CENTER
290
1
370
-3
390
0
0
LAYER
5
2b6
100
AcDbSymbolTableRecord
100
AcDbLayerTableRecord
2
SK1
70
0
62
4
6
CONTINUOUS
290
1
370
-3
390
0
0
LAYER
5
2b7
100
AcDbSymbolTableRecord
100
AcDbLayerTableRecord
2
SK6
70
0
62
5
6
CONTINUOUS
290
1
370
-3
390
0
0
LAYER
5
2b8
100
AcDbSymbolTableRecord
100
AcDbLayerTableRecord
2
SK2
70
0
62
7
6
CONTINUOUS
290
1
370
-3
390
0
0
ENDTAB
0
TABLE
2
STYLE
5
2cc
100
AcDbSymbolTable
0
STYLE
5
11
100
AcDbSymbolTableRecord
100
AcDbTextStyleTableRecord
2
Standard
3
txt
70
0
71
0
40
0
41
1
42
0
50
0
0
STYLE
5
219
100
AcDbSymbolTableRecord
100
AcDbTextStyleTableRecord
2
iso_b_vert
3
simplex.shx
70
0
71
0
40
0
41
1
42
0
50
0
0
STYLE
5
21A
100
AcDbSymbolTableRecord
100
AcDbTextStyleTableRecord
2
DWGDirectTextStyle
3
simplex
70
0
71
0
40
0
41
1
42
0
50
0
0
ENDTAB
0
TABLE
2
DIMSTYLE
5
2cd
100
AcDbSymbolTable
100
AcDbDimStyleTable
0
DIMSTYLE
105
27
100
AcDbSymbolTableRecord
100
AcDbDimStyleTableRecord
2
Standard
70
0
3
<>
41
0.18
42
0.0625
44
0.18
140
0.18
147
0.09
73
0
74
0
77
1
271
2
275
0
278
52
280
0
340
11
0
ENDTAB
0
TABLE
2
VIEW
5
2ce
100
AcDbSymbolTable
0
ENDTAB
0
TABLE
2
UCS
5
2cf
100
AcDbSymbolTable
0
ENDTAB
0
TABLE
2
APPID
5
2d0
100
AcDbSymbolTable
0
APPID
5
12
100
AcDbSymbolTableRecord
100
AcDbRegAppTableRecord
2
ACAD
70
0
0
ENDTAB
0
TABLE
2
BLOCK_RECORD
5
2d1
100
AcDbSymbolTable
0
BLOCK_RECORD
5
1F
100
AcDbSymbolTableRecord
100
AcDbBlockTableRecord
2
*Model_Space
340
0
70
0
0
BLOCK_RECORD
5
1B
100
AcDbSymbolTableRecord
100
AcDbBlockTableRecord
2
*Paper_Space
340
0
70
0
0
BLOCK_RECORD
5
23
100
AcDbSymbolTableRecord
100
AcDbBlockTableRecord
2
*Paper_Space0
340
0
70
0
0
BLOCK_RECORD
5
21C
100
AcDbSymbolTableRecord
100
AcDbBlockTableRecord
2
DimnDraft3D1
340
0
70
0
0
BLOCK_RECORD
5
227
100
AcDbSymbolTableRecord
100
AcDbBlockTableRecord
2
DimnDraft3D22
340
0
70
0
0
BLOCK_RECORD
5
231
100
AcDbSymbolTableRecord
100
AcDbBlockTableRecord
2
DimnDraft3D3
340
0
70
0
0
BLOCK_RECORD
5
23D
100
AcDbSymbolTableRecord
100
AcDbBlockTableRecord
2
DimnDraft3D4
340
0
70
0
0
BLOCK_RECORD
5
248
100
AcDbSymbolTableRecord
100
AcDbBlockTableRecord
2
DimnDraft3D5
340
0
70
0
0
BLOCK_RECORD
5
252
100
AcDbSymbolTableRecord
100
AcDbBlockTableRecord
2
DimnDraft3D66
340
0
70
0
0
ENDTAB
0
ENDSEC
0
SECTION
2
BLOCKS
0
BLOCK
5
20
100
AcDbEntity
8
0
100
AcDbBlockBegin
2
*Model_Space
70
0
10
0
20
0
30
0
3
*Model_Space
0
ENDBLK
5
21
100
AcDbEntity
8
0
100
AcDbBlockEnd
0
BLOCK
5
1C
100
AcDbEntity
8
0
100
AcDbBlockBegin
2
*Paper_Space
70
0
10
0
20
0
30
0
3
*Paper_Space
0
ENDBLK
5
1D
100
AcDbEntity
8
0
100
AcDbBlockEnd
0
BLOCK
5
24
100
AcDbEntity
8
0
100
AcDbBlockBegin
2
*Paper_Space0
70
0
10
0
20
0
30
0
3
*Paper_Space0
0
ENDBLK
5
25
100
AcDbEntity
8
0
100
AcDbBlockEnd
0
BLOCK
5
224
100
AcDbEntity
8
0
100
AcDbBlockBegin
2
DimnDraft3D1
70
0
10
0
20
0
30
0
3
DimnDraft3D1
0
MTEXT
5
21D
100
AcDbEntity
8
2
62
256
6
ByLayer
370
13
48
1
60
0
100
AcDbMText
10
10.397105
20
59.460561
30
0
210
0
220
0
230
1
1
\W0.6740;23
40
3.175
41
0
44
1.084337
50
0
71
7
72
5
7
iso_b_vert
0
LINE
5
21F
100
AcDbEntity
8
2
62
256
6
ByLayer
370
13
48
1
60
0
100
AcDbLine
10
0
20
1.5875
30
0
11
0
21
61.841811
31
0
39
0
210
0
220
0
230
1
0
LINE
5
220
100
AcDbEntity
8
2
62
256
6
ByLayer
370
13
48
1
60
0
100
AcDbLine
10
23
20
31.5875
30
0
11
23
21
61.841811
31
0
39
0
210
0
220
0
230
1
0
LINE
5
221
100
AcDbEntity
8
2
62
256
6
ByLayer
370
13
48
1
60
0
100
AcDbLine
10
0
20
58.666811
30
0
11
23
21
58.666811
31
0
39
0
210
0
220
0
230
1
0
SOLID
5
222
100
AcDbEntity
8
2
62
256
6
ByLayer
370
13
48
1
60
0
100
AcDbTrace
10
0
20
58.666811
30
0
11
3.174998
21
59.084807
31
0
12
3.175002
22
58.248814
32
0
13
0
23
58.666811
33
0
39
0
210
0
220
0
230
1
0
SOLID
5
223
100
AcDbEntity
8
2
62
256
6
ByLayer
370
13
48
1
60
0
100
AcDbTrace
10
23
20
58.666811
30
0
11
19.825002
21
58.248814
31
0
12
19.824998
22
59.084807
32
0
13
23
23
58.666811
33
0
39
0
210
0
220
0
230
1
0
ENDBLK
5
225
100
AcDbEntity
8
0
100
AcDbBlockEnd
0
BLOCK
5
228
100
AcDbEntity
8
0
100
AcDbBlockBegin
2
DimnDraft3D22
70
0
10
0
20
0
30
0
3
DimnDraft3D22
0
LINE
5
22A
100
AcDbEntity
8
2
62
256
6
ByLayer
370
25
48
1
60
0
100
AcDbLine
10
24.5875
20
30
30
0
11
52.447434
21
30
31
0
39
0
210
0
220
0
230
1
0
LINE
5
22B
100
AcDbEntity
8
2
62
256
6
ByLayer
370
25
48
1
60
0
100
AcDbLine
10
29.5875
20
0
30
0
11
52.447434
21
0
31
0
39
0
210
0
220
0
230
1
0
LINE
5
22C
100
AcDbEntity
8
2
62
256
6
ByLayer
370
25
48
1
60
0
100
AcDbLine
10
49.272434
20
30
30
0
11
49.272434
21
0
31
0
39
0
210
0
220
0
230
1
0
SOLID
5
22D
100
AcDbEntity
8
2
62
256
6
ByLayer
370
25
48
1
60
0
100
AcDbTrace
10
49.272434
20
30
30
0
11
49.690431
21
26.825002
31
0
12
48.854437
22
26.824998
32
0
13
49.272434
23
30
33
0
39
0
210
0
220
0
230
1
0
SOLID
5
22E
100
AcDbEntity
8
2
62
256
6
ByLayer
370
25
48
1
60
0
100
AcDbTrace
10
49.272434
20
0
30
0
11
48.854437
21
3.174998
31
0
12
49.690431
22
3.175002
32
0
13
49.272434
23
0
33
0
39
0
210
0
220
0
230
1
0
MTEXT
5
22F
100
AcDbEntity
8
2
62
256
6
ByLayer
370
13
48
1
60
0
100
AcDbMText
10
48.478684
20
11.844657
30
0
210
0
220
0
230
1
1
\W0.6740;30
40
3.175
41
0
44
1.084337
50
90
71
7
72
5
7
iso_b_vert
0
ENDBLK
5
229
100
AcDbEntity
8
0
100
AcDbBlockEnd
0
BLOCK
5
23A
100
AcDbEntity
8
0
100
AcDbBlockBegin
2
DimnDraft3D3
70
0
10
0
20
0
30
0
3
DimnDraft3D3
0
MTEXT
5
232
100
AcDbEntity
8
SK2
62
256
6
ByLayer
370
13
48
1
60
0
100
AcDbMText
10
40.635303
20
33.095625
30
0
210
0
220
0
230
1
1
\W0.7361;40
40
3.175
41
0
44
1.084337
50
90
71
7
72
5
7
iso_b_vert
0
MTEXT
5
234
100
AcDbEntity
8
SK2
62
256
6
ByLayer
370
13
48
1
60
0
100
AcDbMText
10
40.635303
20
25.97668
30
0
210
0
220
0
230
1
1
%%c
40
3.175
41
0
44
1.084337
50
90
71
7
72
5
7
iso_b_vert
0
LINE
5
235
100
AcDbEntity
8
SK2
62
256
6
ByLayer
370
13
48
1
60
0
100
AcDbLine
10
23.9125
20
10
30
0
11
45.397803
21
10
31
0
39
0
210
0
220
0
230
1
0
LINE
5
236
100
AcDbEntity
8
SK2
62
256
6
ByLayer
370
13
48
1
60
0
100
AcDbLine
10
23.9125
20
50
30
0
11
45.397803
21
50
31
0
39
0
210
0
220
0
230
1
0
LINE
5
237
100
AcDbEntity
8
SK2
62
256
6
ByLayer
370
13
48
1
60
0
100
AcDbLine
10
42.222803
20
10
30
0
11
42.222803
21
50
31
0
39
0
210
0
220
0
230
1
0
SOLID
5
238
100
AcDbEntity
8
SK2
62
256
6
ByLayer
370
13
48
1
60
0
100
AcDbTrace
10
42.222803
20
10
30
0
11
41.804806
21
13.174998
31
0
12
42.640799
22
13.175002
32
0
13
42.222803
23
10
33
0
39
0
210
0
220
0
230
1
0
SOLID
5
239
100
AcDbEntity
8
SK2
62
256
6
ByLayer
370
13
48
1
60
0
100
AcDbTrace
10
42.222803
20
50
30
0
11
42.640799
21
46.825002
31
0
12
41.804806
22
46.824998
32
0
13
42.222803
23
50
33
0
39
0
210
0
220
0
230
1
0
ENDBLK
5
23B
100
AcDbEntity
8
0
100
AcDbBlockEnd
0
BLOCK
5
245
100
AcDbEntity
8
0
100
AcDbBlockBegin
2
DimnDraft3D4
70
0
10
0
20
0
30
0
3
DimnDraft3D4
0
MTEXT
5
23E
100
AcDbEntity
8
SK2
62
256
6
ByLayer
370
13
48
1
60
0
100
AcDbMText
10
-27.207887
20
18.950135
30
0
210
0
220
0
230
1
1
\W0.6740;77
40
3.175
41
0
44
1.084337
50
90
71
7
72
5
7
iso_b_vert
0
MTEXT
5
23F
100
AcDbEntity
8
SK2
62
256
6
ByLayer
370
13
48
1
60
0
100
AcDbMText
10
-27.207887
20
11.831189
30
0
210
0
220
0
230
1
1
%%c
40
3.175
41
0
44
1.084337
50
90
71
7
72
5
7
iso_b_vert
0
LINE
5
240
100
AcDbEntity
8
SK2
62
256
6
ByLayer
370
13
48
1
60
0
100
AcDbLine
10
-0.9125
20
38.5
30
0
11
-28.795387
21
38.5
31
0
39
0
210
0
220
0
230
1
0
LINE
5
241
100
AcDbEntity
8
SK2
62
256
6
ByLayer
370
13
48
1
60
0
100
AcDbLine
10
-0.9125
20
-38.382939
30
0
11
-28.795387
21
-38.382939
31
0
39
0
210
0
220
0
230
1
0
LINE
5
242
100
AcDbEntity
8
SK2
62
256
6
ByLayer
370
13
48
1
60
0
100
AcDbLine
10
-25.620387
20
38.5
30
0
11
-25.620387
21
-38.382939
31
0
39
0
210
0
220
0
230
1
0
SOLID
5
243
100
AcDbEntity
8
SK2
62
256
6
ByLayer
370
13
48
1
60
0
100
AcDbTrace
10
-25.620387
20
38.5
30
0
11
-25.20239
21
35.325002
31
0
12
-26.038384
22
35.324998
32
0
13
-25.620387
23
38.5
33
0
39
0
210
0
220
0
230
1
0
SOLID
5
244
100
AcDbEntity
8
SK2
62
256
6
ByLayer
370
13
48
1
60
0
100
AcDbTrace
10
-25.620387
20
-38.382939
30
0
11
-26.038384
21
-35.20794
31
0
12
-25.20239
22
-35.207937
32
0
13
-25.620387
23
-38.382939
33
0
39
0
210
0
220
0
230
1
0
ENDBLK
5
246
100
AcDbEntity
8
0
100
AcDbBlockEnd
0
BLOCK
5
24F
100
AcDbEntity
8
0
100
AcDbBlockBegin
2
DimnDraft3D5
70
0
10
0
20
0
30
0
3
DimnDraft3D5
0
MTEXT
5
249
100
AcDbEntity
8
SK2
62
256
6
ByLayer
370
13
48
1
60
0
100
AcDbMText
10
7.464408
20
-56.112306
30
0
210
0
220
0
230
1
1
\W0.7317;23,65
40
3.175
41
0
44
1.084337
50
0
71
7
72
5
7
iso_b_vert
0
LINE
5
24A
100
AcDbEntity
8
SK2
62
256
6
ByLayer
370
13
48
1
60
0
100
AcDbLine
10
-0.325
20
-38.793378
30
0
11
-0.325
21
-60.081056
31
0
39
0
210
0
220
0
230
1
0
LINE
5
24B
100
AcDbEntity
8
SK2
62
256
6
ByLayer
370
13
48
1
60
0
100
AcDbLine
10
23.325
20
9.569485
30
0
11
23.325
21
-60.081056
31
0
39
0
210
0
220
0
230
1
0
LINE
5
24C
100
AcDbEntity
8
SK2
62
256
6
ByLayer
370
13
48
1
60
0
100
AcDbLine
10
-0.325
20
-56.906056
30
0
11
23.325
21
-56.906056
31
0
39
0
210
0
220
0
230
1
0
SOLID
5
24D
100
AcDbEntity
8
SK2
62
256
6
ByLayer
370
13
48
1
60
0
100
AcDbTrace
10
-0.325
20
-56.906056
30
0
11
2.849998
21
-56.488059
31
0
12
2.850002
22
-57.324052
32
0
13
-0.325
23
-56.906056
33
0
39
0
210
0
220
0
230
1
0
SOLID
5
24E
100
AcDbEntity
8
SK2
62
256
6
ByLayer
370
13
48
1
60
0
100
AcDbTrace
10
23.325
20
-56.906056
30
0
11
20.150002
21
-57.324052
31
0
12
20.149998
22
-56.488059
32
0
13
23.325
23
-56.906056
33
0
39
0
210
0
220
0
230
1
0
ENDBLK
5
250
100
AcDbEntity
8
0
100
AcDbBlockEnd
0
BLOCK
5
253
100
AcDbEntity
8
0
100
AcDbBlockBegin
2
DimnDraft3D66
70
0
10
0
20
0
30
0
3
DimnDraft3D66
0
LINE
5
255
100
AcDbEntity
8
SK2
62
256
6
ByLayer
370
25
48
1
60
0
100
AcDbLine
10
-0.325
20
-38.793378
30
0
11
-0.325
21
-50.600631
31
0
39
0
210
0
220
0
230
1
0
LINE
5
256
100
AcDbEntity
8
SK2
62
256
6
ByLayer
370
25
48
1
60
0
100
AcDbLine
10
14.325
20
-39.068295
30
0
11
14.325
21
-50.600631
31
0
39
0
210
0
220
0
230
1
0
LINE
5
257
100
AcDbEntity
8
SK2
62
256
6
ByLayer
370
25
48
1
60
0
100
AcDbLine
10
-0.325
20
-47.425631
30
0
11
14.325
21
-47.425631
31
0
39
0
210
0
220
0
230
1
0
SOLID
5
258
100
AcDbEntity
8
SK2
62
256
6
ByLayer
370
25
48
1
60
0
100
AcDbTrace
10
-0.325
20
-47.425631
30
0
11
2.849998
21
-47.007635
31
0
12
2.850002
22
-47.843628
32
0
13
-0.325
23
-47.425631
33
0
39
0
210
0
220
0
230
1
0
SOLID
5
259
100
AcDbEntity
8
SK2
62
256
6
ByLayer
370
25
48
1
60
0
100
AcDbTrace
10
14.325
20
-47.425631
30
0
11
11.150002
21
-47.843628
31
0
12
11.149998
22
-47.007635
32
0
13
14.325
23
-47.425631
33
0
39
0
210
0
220
0
230
1
0
MTEXT
5
25A
100
AcDbEntity
8
SK2
62
256
6
ByLayer
370
13
48
1
60
0
100
AcDbMText
10
2.879274
20
-46.631881
30
0
210
0
220
0
230
1
1
\W0.6977;14,65
40
3.175
41
0
44
1.084337
50
0
71
7
72
5
7
iso_b_vert
0
ENDBLK
5
254
100
AcDbEntity
8
0
100
AcDbBlockEnd
0
ENDSEC
0
SECTION
2
ENTITIES
0
ARC
5
146
100
AcDbEntity
8
1
62
256
6
ByLayer
370
18
48
1
60
0
100
AcDbCircle
39
0
10
-6.8
20
39.7
30
0
40
1.2
210
0
220
0
230
-1
100
AcDbArc
50
180
51
264.856999
0
ARC
5
147
100
AcDbEntity
8
1
62
256
6
ByLayer
370
18
48
1
60
0
100
AcDbCircle
39
0
10
-6.8
20
39.7
30
0
40
1.2
210
0
220
0
230
-1
100
AcDbArc
50
264.856999
51
270.021569
0
ARC
5
148
100
AcDbEntity
8
1
62
256
6
ByLayer
370
18
48
1
60
0
100
AcDbCircle
39
0
10
-17.325
20
7
30
0
40
3
210
0
220
0
230
-1
100
AcDbArc
50
0
51
90
0
ELLIPSE
5
149
100
AcDbEntity
8
1
62
256
6
ByLayer
370
18
48
1
60
0
100
AcDbEllipse
10
22.174994
20
2E-06
30
0
11
35.0301278490765
21
15.9731037514715
31
0
210
0
220
0
230
1
40
1
41
1.5573314848135
42
1.58589005576683
0
ELLIPSE
5
14A
100
AcDbEntity
8
1
62
256
6
ByLayer
370
18
48
1
60
0
100
AcDbEllipse
10
22.174995
20
-2E-06
30
0
11
-35.0258749322315
21
15.9824281118429
31
0
210
0
220
0
230
1
40
1
41
1.55596879180267
42
1.58452736253883
0
POINT
5
6C
100
AcDbEntity
8
80
62
256
6
ByLayer
370
18
48
1
60
0
100
AcDbPoint
10
0
20
0
30
0
39
0
210
0
220
0
230
1
50
360
0
POINT
5
6E
100
AcDbEntity
8
81
62
256
6
ByLayer
370
18
48
1
60
0
100
AcDbPoint
10
23
20
30
30
0
39
0
210
0
220
0
230
1
50
360
0
SPLINE
5
14B
100
AcDbEntity
8
1
62
256
6
ByLayer
370
18
48
1
60
0
100
AcDbSpline
70
4
71
2
72
6
73
3
40
0
40
0
40
0
40
1
40
1
40
1
41
1
10
6.47187304442978
20
42.6
30
0
41
1
10
6.37344217247021
20
42.698308540884
30
0
41
1
10
6.275
20
42.7966057653984
30
0
0
SPLINE
5
14C
100
AcDbEntity
8
1
62
256
6
ByLayer
370
18
48
1
60
0
100
AcDbSpline
70
4
71
3
72
12
73
8
40
0
40
0
40
0
40
0
40
0.0814684080197926
40
0.282954387161682
40
0.496494800032544
40
0.831758491132808
40
1
40
1
40
1
40
1
41
1
10
22.555
20
49.77
30
0
41
1
10
22.5550155823288
20
49.7699841495472
30
0
41
1
10
22.5560773939437
20
49.7689115960186
30
0
41
1
10
22.5647606372549
20
49.7601387505969
30
0
41
1
10
22.589381414209
20
49.7352841727275
30
0
41
1
10
22.6226281000259
20
49.7017721569451
30
0
41
1
10
22.648254823464
20
49.6759963201806
30
0
41
1
10
22.6572500000053
20
49.6669526077322
30
0
0
SPLINE
5
14D
100
AcDbEntity
8
1
62
256
6
ByLayer
370
18
48
1
60
0
100
AcDbSpline
70
4
71
1
72
4
73
2
40
0
40
0
40
1
40
1
41
1
10
22.65725
20
49.6669526077377
30
0
41
1
10
23.325
20
48.991667907708
30
0
0
SPLINE
5
14E
100
AcDbEntity
8
1
62
256
6
ByLayer
370
18
48
1
60
0
100
AcDbSpline
70
4
71
1
72
4
73
2
40
0
40
0
40
1
40
1
41
1
10
23.325
20
48.9768631082337
30
0
41
1
10
22.65725
20
49.6232090000648
30
0
0
SPLINE
5
14F
100
AcDbEntity
8
1
62
256
6
ByLayer
370
18
48
1
60
0
100
AcDbSpline
70
4
71
3
72
10
73
6
40
0
40
0
40
0
40
0
40
0.420813233720261
40
0.709275987469717
40
1
40
1
40
1
40
1
41
1
10
22.65725
20
49.6232090000647
30
0
41
1
10
22.6365075872115
20
49.6432655346522
30
0
41
1
10
22.6062474110389
20
49.6718183371001
30
0
41
1
10
22.5706459373646
20
49.7037065058532
30
0
41
1
10
22.5600879474978
20
49.7114894215746
30
0
41
1
10
22.5567604321173
20
49.7132672240649
30
0
0
SPLINE
5
150
100
AcDbEntity
8
1
62
256
6
ByLayer
370
18
48
1
60
0
100
AcDbSpline
70
4
71
1
72
4
73
2
40
0
40
0
40
1
40
1
41
1
10
22.65725
20
49.5961148774388
30
0
41
1
10
23.325
20
48.8877094006841
30
0
0
SPLINE
5
151
100
AcDbEntity
8
1
62
256
6
ByLayer
370
18
48
1
60
0
100
AcDbSpline
70
4
71
1
72
4
73
2
40
0
40
0
40
1
40
1
41
1
10
23.325
20
48.8430150703283
30
0
41
1
10
22.65725
20
49.4641115400998
30
0
0
SPLINE
5
152
100
AcDbEntity
8
1
62
256
6
ByLayer
370
18
48
1
60
0
100
AcDbSpline
70
4
71
3
72
11
73
7
40
0
40
0
40
0
40
0
40
0.304632312554643
40
0.566084194491744
40
0.784880098668182
40
1
40
1
40
1
40
1
41
1
10
22.65725
20
49.4641115400997
30
0
41
1
10
22.64055915088
20
49.4796684885192
30
0
41
1
10
22.6125581444716
20
49.5047063539096
30
0
41
1
10
22.578899199237
20
49.5321569777169
30
0
41
1
10
22.5591532285323
20
49.5445727998412
30
0
41
1
10
22.5551545306368
20
49.5435466217527
30
0
41
1
10
22.555000003065
20
49.5410513391963
30
0
0
SPLINE
5
153
100
AcDbEntity
8
1
62
256
6
ByLayer
370
18
48
1
60
0
100
AcDbSpline
70
4
71
1
72
4
73
2
40
0
40
0
40
1
40
1
41
1
10
22.65725
20
49.4094413032565
30
0
41
1
10
23.325
20
48.6630030512968
30
0
0
SPLINE
5
154
100
AcDbEntity
8
1
62
256
6
ByLayer
370
18
48
1
60
0
100
AcDbSpline
70
4
71
1
72
4
73
2
40
0
40
0
40
1
40
1
41
1
10
23.325
20
48.587552298584
30
0
41
1
10
22.65725
20
49.1867908893245
30
0
0
SPLINE
5
155
100
AcDbEntity
8
1
62
256
6
ByLayer
370
18
48
1
60
0
100
AcDbSpline
70
4
71
3
72
12
73
8
40
0
40
0
40
0
40
0
40
0.282977018566775
40
0.536553999364167
40
0.750837094272263
40
0.96561343547642
40
1
40
1
40
1
40
1
41
1
10
22.65725
20
49.1867908893245
30
0
41
1
10
22.6417601865223
20
49.2007697381244
30
0
41
1
10
22.6149432252081
20
49.2235385350738
30
0
41
1
10
22.5816920393331
20
49.248055497566
30
0
41
1
10
22.5610245006969
20
49.2581756177889
30
0
41
1
10
22.5553403703913
20
49.2556494640045
30
0
41
1
10
22.5549967319752
20
49.2516310044636
30
0
41
1
10
22.5550000301275
20
49.2510233429179
30
0
0
SPLINE
5
156
100
AcDbEntity
8
1
62
256
6
ByLayer
370
18
48
1
60
0
100
AcDbSpline
70
4
71
1
72
4
73
2
40
0
40
0
40
1
40
1
41
1
10
22.65725
20
49.1035364558329
30
0
41
1
10
23.325
20
48.3131045806204
30
0
0
SPLINE
5
157
100
AcDbEntity
8
1
62
256
6
ByLayer
370
18
48
1
60
0
100
AcDbSpline
70
4
71
1
72
4
73
2
40
0
40
0
40
1
40
1
41
1
10
23.325
20
48.2053559142514
30
0
41
1
10
22.65725
20
48.786012115824
30
0
0
SPLINE
5
158
100
AcDbEntity
8
1
62
256
6
ByLayer
370
18
48
1
60
0
100
AcDbSpline
70
4
71
3
72
12
73
8
40
0
40
0
40
0
40
0
40
0.26119213942642
40
0.505956728872232
40
0.752535483089836
40
0.961563574781976
40
1
40
1
40
1
40
1
41
1
10
22.6572500000001
20
48.786012115824
30
0
41
1
10
22.6429543326599
20
48.7985553899809
30
0
41
1
10
22.6173800619525
20
48.8192714267596
30
0
41
1
10
22.5830043808133
20
48.8423427456429
30
0
41
1
10
22.5610850041166
20
48.8496710722452
30
0
41
1
10
22.555355221632
20
48.8437531907419
30
0
41
1
10
22.5549941038384
20
48.8383826837502
30
0
41
1
10
22.5550000751142
20
48.8374837408245
30
0
0
SPLINE
5
159
100
AcDbEntity
8
1
62
256
6
ByLayer
370
18
48
1
60
0
100
AcDbSpline
70
4
71
1
72
4
73
2
40
0
40
0
40
1
40
1
41
1
10
22.65725
20
48.6725412982303
30
0
41
1
10
23.325
20
47.8306454136905
30
0
0
SPLINE
5
15A
100
AcDbEntity
8
1
62
256
6
ByLayer
370
18
48
1
60
0
100
AcDbSpline
70
4
71
1
72
4
73
2
40
0
40
0
40
1
40
1
41
1
10
23.325
20
47.6882126704918
30
0
41
1
10
22.65725
20
48.2536450551968
30
0
0
SPLINE
5
15B
100
AcDbEntity
8
1
62
256
6
ByLayer
370
18
48
1
60
0
100
AcDbSpline
70
4
71
3
72
12
73
8
40
0
40
0
40
0
40
0
40
0.23838363777637
40
0.472578322840744
40
0.708422830413732
40
0.909970655360706
40
1
40
1
40
1
40
1
41
1
10
22.6572500000001
20
48.2536450551967
30
0
41
1
10
22.6441543531436
20
48.264869634683
30
0
41
1
10
22.6199087682258
20
48.2837252912934
30
0
41
1
10
22.5864113181658
20
48.3043177379196
30
0
41
1
10
22.5637443853065
20
48.3097189328798
30
0
41
1
10
22.5559008892812
20
48.3020816888986
30
0
41
1
10
22.5549576928675
20
48.2945959471498
30
0
41
1
10
22.5550007247028
20
48.2919300405605
30
0
0
SPLINE
5
15C
100
AcDbEntity
8
1
62
256
6
ByLayer
370
18
48
1
60
0
100
AcDbSpline
70
4
71
1
72
4
73
2
40
0
40
0
40
1
40
1
41
1
10
22.65725
20
48.1075258373112
30
0
41
1
10
23.325
20
47.204477102103
30
0
0
SPLINE
5
15D
100
AcDbEntity
8
1
62
256
6
ByLayer
370
18
48
1
60
0
100
AcDbSpline
70
4
71
1
72
4
73
2
40
0
40
0
40
1
40
1
41
1
10
23.325
20
47.0238289168013
30
0
41
1
10
22.65725
20
47.57773774939
30
0
0
SPLINE
5
15E
100
AcDbEntity
8
1
62
256
6
ByLayer
370
18
48
1
60
0
100
AcDbSpline
70
4
71
3
72
12
73
8
40
0
40
0
40
0
40
0
40
0.215086515550397
40
0.437438636714388
40
0.661293538621379
40
0.853843971396833
40
1
40
1
40
1
40
1
41
1
10
22.6572500000002
20
47.5777377493899
30
0
41
1
10
22.6453736783046
20
47.5877389163178
30
0
41
1
10
22.622562049811
20
47.6048994976594
30
0
41
1
10
22.5901473186544
20
47.6233332368948
30
0
41
1
10
22.5668886808846
20
47.6271121694884
30
0
41
1
10
22.5565917268992
20
47.6176023962012
30
0
41
1
10
22.5548739549844
20
47.607528238927
30
0
41
1
10
22.5550014723199
20
47.6022405721771
30
0
0
SPLINE
5
15F
100
AcDbEntity
8
1
62
256
6
ByLayer
370
18
48
1
60
0
100
AcDbSpline
70
4
71
1
72
4
73
2
40
0
40
0
40
1
40
1
41
1
10
22.6572499999999
20
47.3954357623968
30
0
41
1
10
23.325
20
46.4181652094505
30
0
0
SPLINE
5
160
100
AcDbEntity
8
1
62
256
6
ByLayer
370
18
48
1
60
0
100
AcDbSpline
70
4
71
1
72
4
73
2
40
0
40
0
40
1
40
1
41
1
10
23.325
20
46.1940925803361
30
0
41
1
10
22.65725
20
46.7409130865539
30
0
0
SPLINE
5
161
100
AcDbEntity
8
1
62
256
6
ByLayer
370
18
48
1
60
0
100
AcDbSpline
70
4
71
3
72
12
73
8
40
0
40
0
40
0
40
0
40
0.191366235578471
40
0.400705424394771
40
0.611426159911788
40
0.793354321085323
40
1
40
1
40
1
40
1
41
1
10
22.6572500000004
20
46.7409130865538
30
0
41
1
10
22.6466275037214
20
46.7497667997621
30
0
41
1
10
22.625380799525
20
46.7653795144078
30
0
41
1
10
22.5942885059191
20
46.7819777186297
30
0
41
1
10
22.5706244387888
20
46.7844723098296
30
0
41
1
10
22.5574676763647
20
46.772957705561
30
0
41
1
10
22.5547351116933
20
46.7597810462402
30
0
41
1
10
22.5550007259367
20
46.7508635079356
30
0
0
SPLINE
5
162
100
AcDbEntity
8
1
62
256
6
ByLayer
370
18
48
1
60
0
100
AcDbSpline
70
4
71
1
72
4
73
2
40
0
40
0
40
1
40
1
41
1
10
22.6572499999999
20
46.5172600263619
30
0
41
1
10
23.325
20
45.4472737184539
30
0
0
SPLINE
5
163
100
AcDbEntity
8
1
62
256
6
ByLayer
370
18
48
1
60
0
100
AcDbSpline
70
4
71
1
72
4
73
2
40
0
40
0
40
1
40
1
41
1
10
23.325
20
45.1718989586826
30
0
41
1
10
22.65725
20
45.7174895437145
30
0
0
SPLINE
5
164
100
AcDbEntity
8
1
62
256
6
ByLayer
370
18
48
1
60
0
100
AcDbSpline
70
4
71
3
72
13
73
9
40
0
40
0
40
0
40
0
40
0.166242911183141
40
0.360375890725282
40
0.555799720089359
40
0.724316208407391
40
0.963610848020828
40
1
40
1
40
1
40
1
41
1
10
22.6572500000008
20
45.7174895437142
30
0
41
1
10
22.6479342698615
20
45.7252528119712
30
0
41
1
10
22.6284189107909
20
45.739446680958
30
0
41
1
10
22.5989237905551
20
45.7545791493185
30
0
41
1
10
22.5751306936176
20
45.756077901086
30
0
41
1
10
22.5592494718837
20
45.7435020486445
30
0
41
1
10
22.5552571480978
20
45.7256644826508
30
0
41
1
10
22.5549890850926
20
45.712940665717
30
0
41
1
10
22.5550004727641
20
45.7112166191105
30
0
0
SPLINE
5
165
100
AcDbEntity
8
1
62
256
6
ByLayer
370
18
48
1
60
0
100
AcDbSpline
70
4
71
1
72
4
73
2
40
0
40
0
40
1
40
1
41
1
10
22.6572499999999
20
45.4446939818576
30
0
41
1
10
23.325
20
44.2541356041276
30
0
0
SPLINE
5
166
100
AcDbEntity
8
1
62
256
6
ByLayer
370
18
48
1
60
0
100
AcDbSpline
70
4
71
1
72
4
73
2
40
0
40
0
40
1
40
1
41
1
10
23.325
20
43.9148985452446
30
0
41
1
10
22.65725
20
44.4679225924801
30
0
0
SPLINE
5
167
100
AcDbEntity
8
1
62
256
6
ByLayer
370
18
48
1
60
0
100
AcDbSpline
70
4
71
3
72
13
73
9
40
0
40
0
40
0
40
0
40
0.138853390640422
40
0.341511995921873
40
0.518494759973612
40
0.66926017208905
40
0.905494557461819
40
1
40
1
40
1
40
1
41
1
10
22.6572500000017
20
44.4679225924795
30
0
41
1
10
22.6493036017301
20
44.4746550714136
30
0
41
1
10
22.6302552743803
20
44.4886415791471
30
0
41
1
10
22.6010940594097
20
44.5028441627021
30
0
41
1
10
22.5773805613633
20
44.5015211440536
30
0
41
1
10
22.561214372378
20
44.4866340293345
30
0
41
1
10
22.5556911514299
20
44.4645423845891
30
0
41
1
10
22.5549158503974
20
44.4472215794256
30
0
41
1
10
22.5550034124628
20
44.4419827618974
30
0
0
SPLINE
5
168
100
AcDbEntity
8
1
62
256
6
ByLayer
370
18
48
1
60
0
100
AcDbSpline
70
4
71
1
72
4
73
2
40
0
40
0
40
1
40
1
41
1
10
22.6572499999999
20
44.1335510614993
30
0
41
1
10
23.325
20
42.7766387719495
30
0
0
SPLINE
5
169
100
AcDbEntity
8
1
62
256
6
ByLayer
370
18
48
1
60
0
100
AcDbSpline
70
4
71
1
72
4
73
2
40
0
40
0
40
1
40
1
41
1
10
23.325
20
42.3516106251948
30
0
41
1
10
22.65725
20
42.9267973886504
30
0
0
SPLINE
5
16A
100
AcDbEntity
8
1
62
256
6
ByLayer
370
18
48
1
60
0
100
AcDbSpline
70
4
71
3
72
13
73
9
40
0
40
0
40
0
40
0
40
0.110242213151853
40
0.282557275529734
40
0.412606166269276
40
0.542428032766063
40
0.733732087688843
40
1
40
1
40
1
40
1
41
1
10
22.6572500000038
20
42.9267973886487
30
0
41
1
10
22.6508030502412
20
42.9324740321066
30
0
41
1
10
22.6344606704169
20
42.9449728016787
30
0
41
1
10
22.6097690491833
20
42.9576961890999
30
0
41
1
10
22.5874370630474
20
42.9584727781846
30
0
41
1
10
22.5699857169609
20
42.9480918057827
30
0
41
1
10
22.5575009139424
20
42.9211431497263
30
0
41
1
10
22.554230160885
20
42.8950860188414
30
0
41
1
10
22.5550024252984
20
42.8772250208738
30
0
0
SPLINE
5
16B
100
AcDbEntity
8
1
62
256
6
ByLayer
370
18
48
1
60
0
100
AcDbSpline
70
4
71
1
72
4
73
2
40
0
40
0
40
1
40
1
41
1
10
22.6572499999999
20
42.5090350955934
30
0
41
1
10
23.325
20
40.899752969536
30
0
0
SPLINE
5
16C
100
AcDbEntity
8
1
62
256
6
ByLayer
370
18
48
1
60
0
100
AcDbSpline
70
4
71
1
72
4
73
2
40
0
40
0
40
1
40
1
41
1
10
23.325
20
40.3440885798799
30
0
41
1
10
22.65725
20
40.9719368077126
30
0
0
SPLINE
5
16D
100
AcDbEntity
8
1
62
256
6
ByLayer
370
18
48
1
60
0
100
AcDbSpline
70
4
71
3
72
14
73
10
40
0
40
0
40
0
40
0
40
0.0783829871390045
40
0.215707446421125
40
0.317812290823301
40
0.419869148103632
40
0.563517127420516
40
0.809794822448458
40
1
40
1
40
1
40
1
41
1
10
22.6572500000099
20
40.9719368077072
30
0
41
1
10
22.6524441519962
20
40.9765324929058
30
0
41
1
10
22.6391516914859
20
40.9877108997616
30
0
41
1
10
22.618336548231
20
41.0001173756792
30
0
41
1
10
22.5974445542726
20
41.0028007933594
30
0
41
1
10
22.5801497150478
20
40.995355575134
30
0
41
1
10
22.5639260188984
20
40.9720067645134
30
0
41
1
10
22.5562598951613
20
40.9328510655051
30
0
41
1
10
22.5545874804667
20
40.9011800376172
30
0
41
1
10
22.5550172443988
20
40.8864398912318
30
0
0
SPLINE
5
16E
100
AcDbEntity
8
1
62
256
6
ByLayer
370
18
48
1
60
0
100
AcDbSpline
70
4
71
1
72
4
73
2
40
0
40
0
40
1
40
1
41
1
10
22.6572499999998
20
40.4256727570727
30
0
41
1
10
23.325
20
38.3586321419795
30
0
0
SPLINE
5
16F
100
AcDbEntity
8
1
62
256
6
ByLayer
370
18
48
1
60
0
100
AcDbSpline
70
4
71
1
72
4
73
2
40
0
40
0
40
1
40
1
41
1
10
23.325
20
37.5457307174572
30
0
41
1
10
22.65725
20
38.3165319633644
30
0
0
SPLINE
5
170
100
AcDbEntity
8
1
62
256
6
ByLayer
370
18
48
1
60
0
100
AcDbSpline
70
4
71
3
72
14
73
10
40
0
40
0
40
0
40
0
40
0.108418701022096
40
0.180167597011197
40
0.252422528712352
40
0.317844072553453
40
0.4186494791878
40
0.607004012533998
40
1
40
1
40
1
40
1
41
1
10
22.6572500000273
20
38.3165319633417
30
0
41
1
10
22.6499714158597
20
38.3252661533819
30
0
41
1
10
22.6374234889153
20
38.3367232035546
30
0
41
1
10
22.6181585044997
20
38.3474656485805
30
0
41
1
10
22.6025273810333
20
38.3486467044096
30
0
41
1
10
22.5877278046893
20
38.3412071876313
30
0
41
1
10
22.5720435388207
20
38.3193318484155
30
0
41
1
10
22.5572585811844
20
38.261358631706
30
0
41
1
10
22.5525493839676
20
38.208024994444
30
0
41
1
10
22.5550381280828
20
38.1675712688109
30
0
0
SPLINE
5
171
100
AcDbEntity
8
1
62
256
6
ByLayer
370
18
48
1
60
0
100
AcDbSpline
70
4
71
2
72
6
73
3
40
0
40
0
40
0
40
1
40
1
40
1
41
1
10
22.6572499999999
20
37.5108818292092
30
0
41
1
10
23.0838948027451
20
35.8059612581618
30
0
41
1
10
23.325
20
34.0532515062548
30
0
0
SPLINE
5
172
100
AcDbEntity
8
1
62
256
6
ByLayer
370
18
48
1
60
0
100
AcDbSpline
70
4
71
2
72
6
73
3
40
0
40
0
40
0
40
1
40
1
40
1
41
1
10
23.325
20
31.5414070106084
30
0
41
1
10
23.1038602434496
20
32.6512945594196
30
0
41
1
10
22.6572499999998
20
33.6668802111467
30
0
0
SPLINE
5
173
100
AcDbEntity
8
1
62
256
6
ByLayer
370
18
48
1
60
0
100
AcDbSpline
70
4
71
3
72
18
73
14
40
0
40
0
40
0
40
0
40
0.0092762999037939
40
0.0685629895047172
40
0.0951304196522112
40
0.117592414041078
40
0.133540352750867
40
0.149529937945309
40
0.169950422043785
40
0.205700982088366
40
0.318776697949791
40
0.839906372197989
40
1
40
1
40
1
40
1
41
1
10
22.6572499999993
20
33.6668802111464
30
0
41
1
10
22.6565304884875
20
33.6685631789282
30
0
41
1
10
22.6510900516961
20
33.6808852222394
30
0
41
1
10
22.642732472879
20
33.6976015414621
30
0
41
1
10
22.6306916244164
20
33.7135695448213
30
0
41
1
10
22.6221133103926
20
33.7207104323247
30
0
41
1
10
22.6142121813074
20
33.723112776467
30
0
41
1
10
22.6068746793648
20
33.7215233840358
30
0
41
1
10
22.5984652964634
20
33.7143767022246
30
0
41
1
10
22.5845960866484
20
33.688883314597
30
0
41
1
10
22.5583609756228
20
33.5639060542452
30
0
41
1
10
22.5562192314164
20
33.4050532787706
30
0
41
1
10
22.554724613401
20
33.2697515585734
30
0
41
1
10
22.5550227561859
20
33.237748237267
30
0
0
SPLINE
5
174
100
AcDbEntity
8
1
62
256
6
ByLayer
370
18
48
1
60
0
100
AcDbSpline
70
4
71
2
72
6
73
3
40
0
40
0
40
0
40
1
40
1
40
1
41
1
10
22.65725
20
26.3331197888551
30
0
41
1
10
23.1037018449101
20
27.3486368297955
30
0
41
1
10
23.325
20
28.4585929893916
30
0
0
SPLINE
5
175
100
AcDbEntity
8
1
62
256
6
ByLayer
370
18
48
1
60
0
100
AcDbSpline
70
4
71
2
72
6
73
3
40
0
40
0
40
0
40
1
40
1
40
1
41
1
10
23.325
20
25.9467484937452
30
0
41
1
10
23.0839048370316
20
24.1940495235235
30
0
41
1
10
22.6572499999999
20
22.4891181707908
30
0
0
SPLINE
5
176
100
AcDbEntity
8
1
62
256
6
ByLayer
370
18
48
1
60
0
100
AcDbSpline
70
4
71
3
72
10
73
6
40
0
40
0
40
0
40
0
40
0.532327471743713
40
0.833599534487812
40
1
40
1
40
1
40
1
41
1
10
22.6572499999999
20
22.4891181707908
30
0
41
1
10
22.6273115469272
20
22.3705241093761
30
0
41
1
10
22.591106560034
20
22.1867674435767
30
0
41
1
10
22.5583715625594
20
21.9660765132829
30
0
41
1
10
22.5551204865301
20
21.8666810065204
30
0
41
1
10
22.55503138987
20
21.8316060267773
30
0
0
SPLINE
5
177
100
AcDbEntity
8
1
62
256
6
ByLayer
370
18
48
1
60
0
100
AcDbSpline
70
4
71
1
72
4
73
2
40
0
40
0
40
1
40
1
41
1
10
22.65725
20
21.6834680366356
30
0
41
1
10
23.325
20
22.4542692825428
30
0
0
SPLINE
5
178
100
AcDbEntity
8
1
62
256
6
ByLayer
370
18
48
1
60
0
100
AcDbSpline
70
4
71
1
72
4
73
2
40
0
40
0
40
1
40
1
41
1
10
23.325
20
21.6413678580205
30
0
41
1
10
22.6572499999998
20
19.5743272429273
30
0
0
SPLINE
5
179
100
AcDbEntity
8
1
62
256
6
ByLayer
370
18
48
1
60
0
100
AcDbSpline
70
4
71
2
72
6
73
3
40
0
40
0
40
0
40
1
40
1
40
1
41
1
10
22.6572499999998
20
19.5743272429273
30
0
41
1
10
22.5642481203745
20
19.3312052252332
30
0
41
1
10
22.5550113605066
20
19.1127912850237
30
0
0
SPLINE
5
17A
100
AcDbEntity
8
1
62
256
6
ByLayer
370
18
48
1
60
0
100
AcDbSpline
70
4
71
1
72
4
73
2
40
0
40
0
40
1
40
1
41
1
10
22.65725
20
19.0280631922874
30
0
41
1
10
23.325
20
19.6559114201201
30
0
0
SPLINE
5
17B
100
AcDbEntity
8
1
62
256
6
ByLayer
370
18
48
1
60
0
100
AcDbSpline
70
4
71
1
72
4
73
2
40
0
40
0
40
1
40
1
41
1
10
23.325
20
19.100247030464
30
0
41
1
10
22.6572499999999
20
17.4909649044066
30
0
0
SPLINE
5
17C
100
AcDbEntity
8
1
62
256
6
ByLayer
370
18
48
1
60
0
100
AcDbSpline
70
4
71
2
72
6
73
3
40
0
40
0
40
0
40
1
40
1
40
1
41
1
10
22.6572499999999
20
17.4909649044066
30
0
41
1
10
22.5644945242596
20
17.2923637309574
30
0
41
1
10
22.5550024025219
20
17.1227694834113
30
0
0
SPLINE
5
17D
100
AcDbEntity
8
1
62
256
6
ByLayer
370
18
48
1
60
0
100
AcDbSpline
70
4
71
1
72
4
73
2
40
0
40
0
40
1
40
1
41
1
10
22.65725
20
17.0732026113496
30
0
41
1
10
23.325
20
17.6483893748052
30
0
0
SPLINE
5
17E
100
AcDbEntity
8
1
62
256
6
ByLayer
370
18
48
1
60
0
100
AcDbSpline
70
4
71
1
72
4
73
2
40
0
40
0
40
1
40
1
41
1
10
23.325
20
17.2233612280505
30
0
41
1
10
22.6572499999999
20
15.8664489385007
30
0
0
SPLINE
5
17F
100
AcDbEntity
8
1
62
256
6
ByLayer
370
18
48
1
60
0
100
AcDbSpline
70
4
71
3
72
10
73
6
40
0
40
0
40
0
40
0
40
0.613007207669488
40
0.839592277897999
40
1
40
1
40
1
40
1
41
1
10
22.6572499999999
20
15.8664489385007
30
0
41
1
10
22.6211424602313
20
15.798038074188
30
0
41
1
10
22.5848937437171
20
15.7092557212069
30
0
41
1
10
22.5587126466541
20
15.6073938007837
30
0
41
1
10
22.5554297092013
20
15.5721375222364
30
0
41
1
10
22.5550034231479
20
15.5580189800306
30
0
0
SPLINE
5
180
100
AcDbEntity
8
1
62
256
6
ByLayer
370
18
48
1
60
0
100
AcDbSpline
70
4
71
1
72
4
73
2
40
0
40
0
40
1
40
1
41
1
10
22.65725
20
15.5320774075199
30
0
41
1
10
23.325
20
16.0851014547554
30
0
0
SPLINE
5
181
100
AcDbEntity
8
1
62
256
6
ByLayer
370
18
48
1
60
0
100
AcDbSpline
70
4
71
1
72
4
73
2
40
0
40
0
40
1
40
1
41
1
10
23.325
20
15.7458643958723
30
0
41
1
10
22.6572499999999
20
14.5553060181424
30
0
0
SPLINE
5
182
100
AcDbEntity
8
1
62
256
6
ByLayer
370
18
48
1
60
0
100
AcDbSpline
70
4
71
3
72
10
73
6
40
0
40
0
40
0
40
0
40
0.547301222737363
40
0.825627972936566
40
1
40
1
40
1
40
1
41
1
10
22.6572499999999
20
14.5553060181424
30
0
41
1
10
22.6255424037474
20
14.5017292048665
30
0
41
1
10
22.5889372401839
20
14.4255981619292
30
0
41
1
10
22.5597373603167
20
14.3367340342678
30
0
41
1
10
22.5555699170549
20
14.3024821057929
30
0
41
1
10
22.5550085355327
20
14.2898848779645
30
0
0
SPLINE
5
183
100
AcDbEntity
8
1
62
256
6
ByLayer
370
18
48
1
60
0
100
AcDbSpline
70
4
71
1
72
4
73
2
40
0
40
0
40
1
40
1
41
1
10
22.65725
20
14.2825104562855
30
0
41
1
10
23.325
20
14.8281010413174
30
0
0
SPLINE
5
184
100
AcDbEntity
8
1
62
256
6
ByLayer
370
18
48
1
60
0
100
AcDbSpline
70
4
71
1
72
4
73
2
40
0
40
0
40
1
40
1
41
1
10
23.325
20
14.5527262815461
30
0
41
1
10
22.6572499999999
20
13.4827399736382
30
0
0
SPLINE
5
185
100
AcDbEntity
8
1
62
256
6
ByLayer
370
18
48
1
60
0
100
AcDbSpline
70
4
71
3
72
10
73
6
40
0
40
0
40
0
40
0
40
0.538057462057166
40
0.818130138821796
40
1
40
1
40
1
40
1
41
1
10
22.6572499999999
20
13.4827399736382
30
0
41
1
10
22.6260270335546
20
13.4349333365939
30
0
41
1
10
22.5895235722853
20
13.3675203476806
30
0
41
1
10
22.5596906587304
20
13.2892436682408
30
0
41
1
10
22.5554998210602
20
13.2599764582985
30
0
41
1
10
22.5550009298753
20
13.2491817464193
30
0
0
SPLINE
5
186
100
AcDbEntity
8
1
62
256
6
ByLayer
370
18
48
1
60
0
100
AcDbSpline
70
4
71
1
72
4
73
2
40
0
40
0
40
1
40
1
41
1
10
22.65725
20
13.2590869134461
30
0
41
1
10
23.325
20
13.8059074196639
30
0
0
SPLINE
5
187
100
AcDbEntity
8
1
62
256
6
ByLayer
370
18
48
1
60
0
100
AcDbSpline
70
4
71
1
72
4
73
2
40
0
40
0
40
1
40
1
41
1
10
23.325
20
13.5818347905495
30
0
41
1
10
22.6572499999999
20
12.6045642376032
30
0
0
SPLINE
5
188
100
AcDbEntity
8
1
62
256
6
ByLayer
370
18
48
1
60
0
100
AcDbSpline
70
4
71
3
72
10
73
6
40
0
40
0
40
0
40
0
40
0.500655634822148
40
0.790172015434921
40
1
40
1
40
1
40
1
41
1
10
22.6572499999999
20
12.6045642376032
30
0
41
1
10
22.6284594007278
20
12.5639486640168
30
0
41
1
10
22.5925930649228
20
12.504945899408
30
0
41
1
10
22.560646526087
20
12.434589306841
30
0
41
1
10
22.5556174954672
20
12.4077286685261
30
0
41
1
10
22.5550000813957
20
12.397454374255
30
0
0
SPLINE
5
189
100
AcDbEntity
8
1
62
256
6
ByLayer
370
18
48
1
60
0
100
AcDbSpline
70
4
71
1
72
4
73
2
40
0
40
0
40
1
40
1
41
1
10
22.65725
20
12.42226225061
30
0
41
1
10
23.325
20
12.9761710831987
30
0
0
SPLINE
5
18A
100
AcDbEntity
8
1
62
256
6
ByLayer
370
18
48
1
60
0
100
AcDbSpline
70
4
71
1
72
4
73
2
40
0
40
0
40
1
40
1
41
1
10
23.325
20
12.795522897897
30
0
41
1
10
22.65725
20
11.8924741626888
30
0
0
SPLINE
5
18B
100
AcDbEntity
8
1
62
256
6
ByLayer
370
18
48
1
60
0
100
AcDbSpline
70
4
71
3
72
11
73
7
40
0
40
0
40
0
40
0
40
0.469351758654513
40
0.761993777863454
40
0.988709287791774
40
1
40
1
40
1
40
1
41
1
10
22.65725
20
11.8924741626888
30
0
41
1
10
22.6305141366209
20
11.8573767851618
30
0
41
1
10
22.5952525070338
20
11.8050515061557
30
0
41
1
10
22.5625090081441
20
11.742913661869
30
0
41
1
10
22.5551605676642
20
11.7170098486795
30
0
41
1
10
22.5550016804428
20
11.7083205762954
30
0
41
1
10
22.5550000660855
20
11.707913424513
30
0
0
SPLINE
5
18C
100
AcDbEntity
8
1
62
256
6
ByLayer
370
18
48
1
60
0
100
AcDbSpline
70
4
71
1
72
4
73
2
40
0
40
0
40
1
40
1
41
1
10
22.65725
20
11.7463549448032
30
0
41
1
10
23.325
20
12.3117873295082
30
0
0
SPLINE
5
18D
100
AcDbEntity
8
1
62
256
6
ByLayer
370
18
48
1
60
0
100
AcDbSpline
70
4
71
1
72
4
73
2
40
0
40
0
40
1
40
1
41
1
10
23.325
20
12.1693545863095
30
0
41
1
10
22.65725
20
11.3274587017697
30
0
0
SPLINE
5
18E
100
AcDbEntity
8
1
62
256
6
ByLayer
370
18
48
1
60
0
100
AcDbSpline
70
4
71
3
72
11
73
7
40
0
40
0
40
0
40
0
40
0.441839920560062
40
0.734050487715009
40
0.961867500839303
40
1
40
1
40
1
40
1
41
1
10
22.65725
20
11.3274587017697
30
0
41
1
10
22.6323093266153
20
11.2967542834552
30
0
41
1
10
22.5979790015202
20
11.2502610142974
30
0
41
1
10
22.5645946255961
20
11.1953516829617
30
0
41
1
10
22.555573313104
20
11.1714773030451
30
0
41
1
10
22.5550150210586
20
11.1636405282645
30
0
41
1
10
22.5550003123253
20
11.1625745225807
30
0
0
SPLINE
5
18F
100
AcDbEntity
8
1
62
256
6
ByLayer
370
18
48
1
60
0
100
AcDbSpline
70
4
71
1
72
4
73
2
40
0
40
0
40
1
40
1
41
1
10
22.65725
20
11.213987884176
30
0
41
1
10
23.325
20
11.7946440857486
30
0
0
SPLINE
5
190
100
AcDbEntity
8
1
62
256
6
ByLayer
370
18
48
1
60
0
100
AcDbSpline
70
4
71
1
72
4
73
2
40
0
40
0
40
1
40
1
41
1
10
23.325
20
11.6868954193796
30
0
41
1
10
22.65725
20
10.8964635441671
30
0
0
SPLINE
5
191
100
AcDbEntity
8
1
62
256
6
ByLayer
370
18
48
1
60
0
100
AcDbSpline
70
4
71
3
72
11
73
7
40
0
40
0
40
0
40
0
40
0.329250067109454
40
0.64731335341814
40
0.887590104473812
40
1
40
1
40
1
40
1
41
1
10
22.65725
20
10.8964635441671
30
0
41
1
10
22.6391258260069
20
10.8753593682386
30
0
41
1
10
22.6076055730104
20
10.8366594428587
30
0
41
1
10
22.5723797032144
20
10.7880924001635
30
0
41
1
10
22.5570867973667
20
10.7603109923007
30
0
41
1
10
22.5551092832442
20
10.7513988631014
30
0
41
1
10
22.5550002418615
20
10.749024448624
30
0
0
SPLINE
5
192
100
AcDbEntity
8
1
62
256
6
ByLayer
370
18
48
1
60
0
100
AcDbSpline
70
4
71
1
72
4
73
2
40
0
40
0
40
1
40
1
41
1
10
22.65725
20
10.8132091106755
30
0
41
1
10
23.325
20
11.412447701416
30
0
0
SPLINE
5
193
100
AcDbEntity
8
1
62
256
6
ByLayer
370
18
48
1
60
0
100
AcDbSpline
70
4
71
1
72
4
73
2
40
0
40
0
40
1
40
1
41
1
10
23.325
20
11.3369969487032
30
0
41
1
10
22.65725
20
10.5905586967435
30
0
0
SPLINE
5
194
100
AcDbEntity
8
1
62
256
6
ByLayer
370
18
48
1
60
0
100
AcDbSpline
70
4
71
3
72
11
73
7
40
0
40
0
40
0
40
0
40
0.342011787836873
40
0.642198228721808
40
0.876725351047486
40
1
40
1
40
1
40
1
41
1
10
22.65725
20
10.5905586967435
30
0
41
1
10
22.6384059627043
20
10.5697684783118
30
0
41
1
10
22.6072464541784
20
10.5340216764636
30
0
41
1
10
22.5724786986523
20
10.4906187455129
30
0
41
1
10
22.5572387121169
20
10.4673783082405
30
0
41
1
10
22.5551073778712
20
10.4606887573625
30
0
41
1
10
22.5550000745878
20
10.4589701127379
30
0
0
SPLINE
5
195
100
AcDbEntity
8
1
62
256
6
ByLayer
370
18
48
1
60
0
100
AcDbSpline
70
4
71
1
72
4
73
2
40
0
40
0
40
1
40
1
41
1
10
22.65725
20
10.5358884599002
30
0
41
1
10
23.325
20
11.1569849296717
30
0
0
SPLINE
5
196
100
AcDbEntity
8
1
62
256
6
ByLayer
370
18
48
1
60
0
100
AcDbSpline
70
4
71
1
72
4
73
2
40
0
40
0
40
1
40
1
41
1
10
23.325
20
11.1122905993159
30
0
41
1
10
22.65725
20
10.4038851225612
30
0
0
SPLINE
5
197
100
AcDbEntity
8
1
62
256
6
ByLayer
370
18
48
1
60
0
100
AcDbSpline
70
4
71
3
72
11
73
7
40
0
40
0
40
0
40
0
40
0.35354489500488
40
0.637649992213706
40
0.866481616419204
40
1
40
1
40
1
40
1
41
1
10
22.65725
20
10.4038851225612
30
0
41
1
10
22.6377362319312
20
10.3833787988892
30
0
41
1
10
22.6068770054136
20
10.350237579192
30
0
41
1
10
22.5725329580446
20
10.3115658507701
30
0
41
1
10
22.5573769655669
20
10.2924864609902
30
0
41
1
10
22.5551025720383
20
10.2879504279173
30
0
41
1
10
22.5550000290886
20
10.2869948608991
30
0
0
SPLINE
5
198
100
AcDbEntity
8
1
62
256
6
ByLayer
370
18
48
1
60
0
100
AcDbSpline
70
4
71
1
72
4
73
2
40
0
40
0
40
1
40
1
41
1
10
22.65725
20
10.3767909999352
30
0
41
1
10
23.325
20
11.0231368917663
30
0
0
SPLINE
5
199
100
AcDbEntity
8
1
62
256
6
ByLayer
370
18
48
1
60
0
100
AcDbSpline
70
4
71
1
72
4
73
2
40
0
40
0
40
1
40
1
41
1
10
23.325
20
11.008332092292
30
0
41
1
10
22.65725
20
10.3330473922623
30
0
0
SPLINE
5
19A
100
AcDbEntity
8
1
62
256
6
ByLayer
370
18
48
1
60
0
100
AcDbSpline
70
4
71
3
72
11
73
7
40
0
40
0
40
0
40
0
40
0.363787721950117
40
0.63310982466854
40
0.856330372739885
40
1
40
1
40
1
40
1
41
1
10
22.65725
20
10.3330473922623
30
0
41
1
10
22.6371065030782
20
10.3127880030686
30
0
41
1
10
22.6064997232845
20
10.2819841576406
30
0
41
1
10
22.5725495910261
20
10.2477275080199
30
0
41
1
10
22.5574914761184
20
10.232517059279
30
0
41
1
10
22.555088777225
20
10.2300902590813
30
0
41
1
10
22.555
20
10.23
30
0
0
SPLINE
5
19B
100
AcDbEntity
8
1
62
256
6
ByLayer
370
18
48
1
60
0
100
AcDbSpline
70
4
71
3
72
12
73
8
40
0
40
0
40
0
40
0
40
0.253468287858173
40
0.507738386531535
40
0.738472274037448
40
0.941297583778102
40
1
40
1
40
1
40
1
41
1
10
15.675
20
12.565551342242
30
0
41
1
10
15.6751127628713
20
12.4937174426882
30
0
41
1
10
15.6292797418652
20
12.3611214580995
30
0
41
1
10
15.4251434120544
20
12.1900627055039
30
0
41
1
10
15.1214485316025
20
12.0797905946026
30
0
41
1
10
14.8525359217985
20
12.0434706228789
30
0
41
1
10
14.707883061105
20
12.0400591258938
30
0
41
1
10
14.675
20
12.0400445434851
30
0
0
SPLINE
5
19C
100
AcDbEntity
8
1
62
256
6
ByLayer
370
18
48
1
60
0
100
AcDbSpline
70
4
71
2
72
6
73
3
40
0
40
0
40
0
40
1
40
1
40
1
41
1
10
15.4838369070265
20
47.7521735219804
30
0
41
1
10
15.6753366884384
20
47.6117435863129
30
0
41
1
10
15.675
20
47.434448657758
30
0
0
SPLINE
5
19D
100
AcDbEntity
8
1
62
256
6
ByLayer
370
18
48
1
60
0
100
AcDbSpline
70
4
71
3
72
18
73
14
40
0
40
0
40
0
40
0
40
0.0395444285496098
40
0.678020344593416
40
0.738430857534784
40
0.801710634762176
40
0.823803287785749
40
0.84610095830411
40
0.862570653674196
40
0.879008358519691
40
0.905141278316234
40
0.957073783456967
40
1
40
1
40
1
40
1
41
1
10
22.5550271483702
20
26.7240623206483
30
0
41
1
10
22.5531408360755
20
26.7167801463655
30
0
41
1
10
22.5224764805777
20
26.592133634041
30
0
41
1
10
22.5557774722511
20
26.450085586816
30
0
41
1
10
22.5835297988697
20
26.319272942746
30
0
41
1
10
22.5920100132799
20
26.2957898021697
30
0
41
1
10
22.6016433298096
20
26.2824848629624
30
0
41
1
10
22.6087166987417
20
26.2775993517705
30
0
41
1
10
22.6161674973696
20
26.2771710410011
30
0
41
1
10
22.6241050747427
20
26.2805553027025
30
0
41
1
10
22.6354180467882
20
26.2913024327536
30
0
41
1
10
22.6466583833223
20
26.3101420275177
30
0
41
1
10
22.6542184638659
20
26.3256523804439
30
0
41
1
10
22.65725
20
26.3331197888551
30
0
0
SPLINE
5
19E
100
AcDbEntity
8
1
62
256
6
ByLayer
370
18
48
1
60
0
100
AcDbSpline
70
4
71
3
72
13
73
9
40
0
40
0
40
0
40
0
40
0.0811644644505051
40
0.177297495013398
40
0.433856160875572
40
0.690627755605663
40
0.946967123453999
40
1
40
1
40
1
40
1
41
1
10
22.5550227561859
20
33.237748237267
30
0
41
1
10
22.5566853546271
20
33.0629443615118
30
0
41
1
10
22.5634328270209
20
32.6803535592396
30
0
41
1
10
22.6155816145736
20
31.7386196864322
30
0
41
1
10
22.6375440899978
20
30.4124671722194
30
0
41
1
10
22.6127746828139
20
28.7361192542947
30
0
41
1
10
22.5659576767689
20
27.5047794464758
30
0
41
1
10
22.5565123885584
20
26.8382162432085
30
0
41
1
10
22.5550271483702
20
26.7240623206483
30
0
0
SPLINE
5
19F
100
AcDbEntity
8
1
62
256
6
ByLayer
370
18
48
1
60
0
100
AcDbSpline
70
4
71
3
72
14
73
10
40
0
40
0
40
0
40
0
40
0.287575987652745
40
0.590056088248519
40
0.679730591769876
40
0.750554707084306
40
0.821712627379397
40
0.902192848596984
40
1
40
1
40
1
40
1
41
1
10
22.55503138987
20
21.8316060267773
30
0
41
1
10
22.5537504693084
20
21.8027415038919
30
0
41
1
10
22.5572339092614
20
21.7482752801731
30
0
41
1
10
22.5677135073825
20
21.6861430856819
30
0
41
1
10
22.588436644206
20
21.658307857314
30
0
41
1
10
22.6028706344902
20
21.651208772416
30
0
41
1
10
22.6194721938048
20
21.652860776523
30
0
41
1
10
22.638437550163
20
21.6641908228329
30
0
41
1
10
22.6507361206803
20
21.6757007862976
30
0
41
1
10
22.65725
20
21.6834680366355
30
0
0
SPLINE
5
1A0
100
AcDbEntity
8
1
62
256
6
ByLayer
370
18
48
1
60
0
100
AcDbSpline
70
4
71
3
72
10
73
6
40
0
40
0
40
0
40
0
40
0.0927554397792582
40
0.545697818068017
40
1
40
1
40
1
40
1
41
1
10
22.5550381280828
20
38.1675712688109
30
0
41
1
10
22.5553889897013
20
38.1479841945517
30
0
41
1
10
22.5590399563519
20
38.0323212615759
30
0
41
1
10
22.5886936400066
20
37.8116779316107
30
0
41
1
10
22.6307582818687
20
37.6119288053598
30
0
41
1
10
22.6572499999998
20
37.5108818292092
30
0
0
SPLINE
5
1A1
100
AcDbEntity
8
1
62
256
6
ByLayer
370
18
48
1
60
0
100
AcDbSpline
70
4
71
3
72
14
73
10
40
0
40
0
40
0
40
0
40
0.134830546589819
40
0.432278571174962
40
0.556416845271836
40
0.681679785607153
40
0.793859150360418
40
0.921826329766461
40
1
40
1
40
1
40
1
41
1
10
22.5550113605066
20
19.1127912850237
30
0
41
1
10
22.5547949108314
20
19.1024786461103
30
0
41
1
10
22.5559178576365
20
19.0708833545108
30
0
41
1
10
22.5620182688931
20
19.0321612034763
30
0
41
1
10
22.5791607607492
20
19.0056384151302
30
0
41
1
10
22.596635088183
20
18.9967400910235
30
0
41
1
10
22.6191577663937
20
19.0002477317946
30
0
41
1
10
22.6398120865083
20
19.0128454343452
30
0
41
1
10
22.6524780516362
20
19.0235061596985
30
0
41
1
10
22.65725
20
19.0280631922873
30
0
0
SPLINE
5
1A2
100
AcDbEntity
8
1
62
256
6
ByLayer
370
18
48
1
60
0
100
AcDbSpline
70
4
71
3
72
10
73
6
40
0
40
0
40
0
40
0
40
0.183048331563903
40
0.859515705816051
40
1
40
1
40
1
40
1
41
1
10
22.5550172443988
20
40.8864398912318
30
0
41
1
10
22.5559424723273
20
40.8599843976353
30
0
41
1
10
22.5644649886364
20
40.7346650724019
30
0
41
1
10
22.6065098137934
20
40.5749695797473
30
0
41
1
10
22.6494018468165
20
40.4476588174966
30
0
41
1
10
22.6572499999997
20
40.4256727570729
30
0
0
SPLINE
5
1A3
100
AcDbEntity
8
1
62
256
6
ByLayer
370
18
48
1
60
0
100
AcDbSpline
70
4
71
1
72
4
73
2
40
0
40
0
40
1
40
1
41
1
10
0.190104359425135
20
34.4770154133838
30
0
41
1
10
0.674999999999999
20
34.7850542618522
30
0
0
SPLINE
5
1A4
100
AcDbEntity
8
1
62
256
6
ByLayer
370
18
48
1
60
0
100
AcDbSpline
70
4
71
1
72
4
73
2
40
0
40
0
40
1
40
1
41
1
10
0.343278579257494
20
34.6865780736453
30
0
41
1
10
0.190104359425135
20
34.4770154133838
30
0
0
SPLINE
5
1A5
100
AcDbEntity
8
1
62
256
6
ByLayer
370
18
48
1
60
0
100
AcDbSpline
70
4
71
3
72
10
73
6
40
0
40
0
40
0
40
0
40
0.479674972673515
40
0.773402572312454
40
1
40
1
40
1
40
1
41
1
10
0.343278579257491
20
34.6865780736453
30
0
41
1
10
0.370681782807336
20
34.7234285463606
30
0
41
1
10
0.406050011499798
20
34.7779081779764
30
0
41
1
10
0.439057080337956
20
34.8439159348275
30
0
41
1
10
0.44458681337966
20
34.8692606791767
30
0
41
1
10
0.445278579251762
20
34.8791008129065
30
0
0
SPLINE
5
1A6
100
AcDbEntity
8
1
62
256
6
ByLayer
370
18
48
1
60
0
100
AcDbSpline
70
4
71
1
72
4
73
2
40
0
40
0
40
1
40
1
41
1
10
0.34327857925731
20
34.8466477146442
30
0
41
1
10
-0.325
20
34.2868756778742
30
0
0
SPLINE
5
1A7
100
AcDbEntity
8
1
62
256
6
ByLayer
370
18
48
1
60
0
100
AcDbSpline
70
4
71
1
72
4
73
2
40
0
40
0
40
1
40
1
41
1
10
0.343278579257493
20
35.3367896958142
30
0
41
1
10
-0.325
20
34.4505419950108
30
0
0
SPLINE
5
1A8
100
AcDbEntity
8
1
62
256
6
ByLayer
370
18
48
1
60
0
100
AcDbSpline
70
4
71
3
72
11
73
7
40
0
40
0
40
0
40
0
40
0.464769367896896
40
0.759177385284929
40
0.986649224204284
40
1
40
1
40
1
40
1
41
1
10
0.343278579257494
20
35.3367896958142
30
0
41
1
10
0.369686434913066
20
35.3710676262855
30
0
41
1
10
0.404817512712402
20
35.4224725819043
30
0
41
1
10
0.437603710708796
20
35.4835524428105
30
0
41
1
10
0.445088505443519
20
35.5092011014582
30
0
41
1
10
0.445276301278036
20
35.5177853735919
30
0
41
1
10
0.445278493565498
20
35.5182542778883
30
0
0
SPLINE
5
1A9
100
AcDbEntity
8
1
62
256
6
ByLayer
370
18
48
1
60
0
100
AcDbSpline
70
4
71
1
72
4
73
2
40
0
40
0
40
1
40
1
41
1
10
0.343278579257354
20
35.4789916626925
30
0
41
1
10
-0.325
20
34.9127819537487
30
0
0
SPLINE
5
1AA
100
AcDbEntity
8
1
62
256
6
ByLayer
370
18
48
1
60
0
100
AcDbSpline
70
4
71
1
72
4
73
2
40
0
40
0
40
1
40
1
41
1
10
0.34327857925749
20
35.912653947506
30
0
41
1
10
-0.325
20
35.0574862725496
30
0
0
SPLINE
5
1AB
100
AcDbEntity
8
1
62
256
6
ByLayer
370
18
48
1
60
0
100
AcDbSpline
70
4
71
3
72
11
73
7
40
0
40
0
40
0
40
0
40
0.45058387862232
40
0.744733605837678
40
0.97283093679732
40
1
40
1
40
1
40
1
41
1
10
0.343278579257491
20
35.912653947506
30
0
41
1
10
0.368754888694341
20
35.9446371701672
30
0
41
1
10
0.403403167234339
20
35.9929802969363
30
0
41
1
10
0.436533859950432
20
36.0502608414973
30
0
41
1
10
0.444880060904847
20
36.0748474016601
30
0
41
1
10
0.445270266459771
20
36.0830062373687
30
0
41
1
10
0.445278350687797
20
36.0838456622775
30
0
0
SPLINE
5
1AC
100
AcDbEntity
8
1
62
256
6
ByLayer
370
18
48
1
60
0
100
AcDbSpline
70
4
71
1
72
4
73
2
40
0
40
0
40
1
40
1
41
1
10
0.343278579257386
20
36.0378806515351
30
0
41
1
10
-0.325
20
35.4642755988332
30
0
0
SPLINE
5
1AD
100
AcDbEntity
8
1
62
256
6
ByLayer
370
18
48
1
60
0
100
AcDbSpline
70
4
71
1
72
4
73
2
40
0
40
0
40
1
40
1
41
1
10
0.343278579257494
20
36.4176979105
30
0
41
1
10
-0.325
20
35.5909376632592
30
0
0
SPLINE
5
1AE
100
AcDbEntity
8
1
62
256
6
ByLayer
370
18
48
1
60
0
100
AcDbSpline
70
4
71
3
72
11
73
7
40
0
40
0
40
0
40
0
40
0.436988589685065
40
0.730157458019587
40
0.958717148295728
40
1
40
1
40
1
40
1
41
1
10
0.343278579257496
20
36.4176979105
30
0
41
1
10
0.367876905564452
20
36.4476186148714
30
0
41
1
10
0.402024726076814
20
36.4931556102895
30
0
41
1
10
0.435439524545811
20
36.5469336397632
30
0
41
1
10
0.444656228839911
20
36.5704770194046
30
0
41
1
10
0.445261630430033
20
36.5781675588072
30
0
41
1
10
0.445278255536309
20
36.5792772009512
30
0
0
SPLINE
5
1AF
100
AcDbEntity
8
1
62
256
6
ByLayer
370
18
48
1
60
0
100
AcDbSpline
70
4
71
1
72
4
73
2
40
0
40
0
40
1
40
1
41
1
10
0.343278579257411
20
36.5266866045522
30
0
41
1
10
-0.325
20
35.9447818709476
30
0
0
SPLINE
5
1B0
100
AcDbEntity
8
1
62
256
6
ByLayer
370
18
48
1
60
0
100
AcDbSpline
70
4
71
1
72
4
73
2
40
0
40
0
40
1
40
1
41
1
10
0.34327857925749
20
36.8548331789407
30
0
41
1
10
-0.325
20
36.0541584806801
30
0
0
SPLINE
5
1B1
100
AcDbEntity
8
1
62
256
6
ByLayer
370
18
48
1
60
0
100
AcDbSpline
70
4
71
3
72
11
73
7
40
0
40
0
40
0
40
0
40
0.423885794967926
40
0.715512221532234
40
0.944335607093217
40
1
40
1
40
1
40
1
41
1
10
0.343278579257491
20
36.8548331789407
30
0
41
1
10
0.3670441747601
20
36.8828874497458
30
0
41
1
10
0.400678265221648
20
36.9258438997202
30
0
41
1
10
0.434322309124258
20
36.9763809753362
30
0
41
1
10
0.444417853847625
20
36.9988979861418
30
0
41
1
10
0.445251303740122
20
37.0060744582754
30
0
41
1
10
0.445278240709926
20
37.0073566898862
30
0
0
SPLINE
5
1B2
100
AcDbEntity
8
1
62
256
6
ByLayer
370
18
48
1
60
0
100
AcDbSpline
70
4
71
1
72
4
73
2
40
0
40
0
40
1
40
1
41
1
10
0.34327857925743
20
36.9481911162111
30
0
41
1
10
-0.325
20
36.3571154486986
30
0
0
SPLINE
5
1B3
100
AcDbEntity
8
1
62
256
6
ByLayer
370
18
48
1
60
0
100
AcDbSpline
70
4
71
1
72
4
73
2
40
0
40
0
40
1
40
1
41
1
10
0.343278579257494
20
37.2264521032379
30
0
41
1
10
-0.325
20
36.4498263884754
30
0
0
SPLINE
5
1B4
100
AcDbEntity
8
1
62
256
6
ByLayer
370
18
48
1
60
0
100
AcDbSpline
70
4
71
3
72
11
73
7
40
0
40
0
40
0
40
0
40
0.331931956820434
40
0.64715689829886
40
0.886886969936208
40
1
40
1
40
1
40
1
41
1
10
0.343278579257494
20
37.2264521032379
30
0
41
1
10
0.361523557519152
20
37.2474258575394
30
0
41
1
10
0.392948919942651
20
37.2854459364518
30
0
41
1
10
0.428033282961559
20
37.3328919267813
30
0
41
1
10
0.443199089554979
20
37.3596770166
30
0
41
1
10
0.445172402945105
20
37.3681548466114
30
0
41
1
10
0.445278366967024
20
37.3704007229406
30
0
0
SPLINE
5
1B5
100
AcDbEntity
8
1
62
256
6
ByLayer
370
18
48
1
60
0
100
AcDbSpline
70
4
71
1
72
4
73
2
40
0
40
0
40
1
40
1
41
1
10
0.343278579257443
20
37.3046755677213
30
0
41
1
10
-0.325
20
36.7035739915066
30
0
0
SPLINE
5
1B6
100
AcDbEntity
8
1
62
256
6
ByLayer
370
18
48
1
60
0
100
AcDbSpline
70
4
71
1
72
4
73
2
40
0
40
0
40
1
40
1
41
1
10
0.343278579257492
20
37.5345007125682
30
0
41
1
10
-0.325
20
36.7801215842199
30
0
0
SPLINE
5
1B7
100
AcDbEntity
8
1
62
256
6
ByLayer
370
18
48
1
60
0
100
AcDbSpline
70
4
71
3
72
11
73
7
40
0
40
0
40
0
40
0
40
0.338546364903148
40
0.644445002198674
40
0.881201350039234
40
1
40
1
40
1
40
1
41
1
10
0.343278579257491
20
37.5345007125682
30
0
41
1
10
0.361893969109879
20
37.5553123505471
30
0
41
1
10
0.393127139076653
20
37.5918005028974
30
0
41
1
10
0.427973365842074
20
37.6365708959145
30
0
41
1
10
0.443118585702284
20
37.6610096221746
30
0
41
1
10
0.445172989588854
20
37.6683450222425
30
0
41
1
10
0.445278458905951
20
37.6702630966248
30
0
0
SPLINE
5
1B8
100
AcDbEntity
8
1
62
256
6
ByLayer
370
18
48
1
60
0
100
AcDbSpline
70
4
71
1
72
4
73
2
40
0
40
0
40
1
40
1
41
1
10
0.343278579257456
20
37.5979894630794
30
0
41
1
10
-0.325
20
36.9860087566907
30
0
0
SPLINE
5
1B9
100
AcDbEntity
8
1
62
256
6
ByLayer
370
18
48
1
60
0
100
AcDbSpline
70
4
71
1
72
4
73
2
40
0
40
0
40
1
40
1
41
1
10
0.343278579257492
20
37.7805340259888
30
0
41
1
10
-0.325
20
37.0467926243285
30
0
0
SPLINE
5
1BA
100
AcDbEntity
8
1
62
256
6
ByLayer
370
18
48
1
60
0
100
AcDbSpline
70
4
71
3
72
11
73
7
40
0
40
0
40
0
40
0
40
0.344801102334757
40
0.64187042819677
40
0.87563747572262
40
1
40
1
40
1
40
1
41
1
10
0.343278579257487
20
37.7805340259888
30
0
41
1
10
0.362250357323497
20
37.801191041741
30
0
41
1
10
0.393309160353863
20
37.8362472256672
30
0
41
1
10
0.427926765050509
20
37.8784676549364
30
0
41
1
10
0.443043538451387
20
37.9006717421135
30
0
41
1
10
0.445175096573327
20
37.9068839038958
30
0
41
1
10
0.445278522852648
20
37.9084439846047
30
0
0
SPLINE
5
1BB
100
AcDbEntity
8
1
62
256
6
ByLayer
370
18
48
1
60
0
100
AcDbSpline
70
4
71
1
72
4
73
2
40
0
40
0
40
1
40
1
41
1
10
0.343278579257465
20
37.8296022199376
30
0
41
1
10
-0.325
20
37.2058778118458
30
0
0
SPLINE
5
1BC
100
AcDbEntity
8
1
62
256
6
ByLayer
370
18
48
1
60
0
100
AcDbSpline
70
4
71
1
72
4
73
2
40
0
40
0
40
1
40
1
41
1
10
0.343278579257493
20
37.9657577144987
30
0
41
1
10
-0.325
20
37.2512059368553
30
0
0
SPLINE
5
1BD
100
AcDbEntity
8
1
62
256
6
ByLayer
370
18
48
1
60
0
100
AcDbSpline
70
4
71
3
72
11
73
7
40
0
40
0
40
0
40
0
40
0.350833332955681
40
0.639613204816553
40
0.870480216480281
40
1
40
1
40
1
40
1
41
1
10
0.34327857925749
20
37.9657577144987
30
0
41
1
10
0.362594197694775
20
37.9862685595151
30
0
41
1
10
0.393494320797132
20
38.019979759018
30
0
41
1
10
0.427892423287029
20
38.0597579443552
30
0
41
1
10
0.442965652750516
20
38.0798120843567
30
0
41
1
10
0.445174839868559
20
38.0849184140808
30
0
41
1
10
0.44527850831484
20
38.0860924891445
30
0
0
SPLINE
5
1BE
100
AcDbEntity
8
1
62
256
6
ByLayer
370
18
48
1
60
0
100
AcDbSpline
70
4
71
1
72
4
73
2
40
0
40
0
40
1
40
1
41
1
10
0.343278579257471
20
38.0006420547284
30
0
41
1
10
-0.325
20
37.3642856716143
30
0
0
SPLINE
5
1BF
100
AcDbEntity
8
1
62
256
6
ByLayer
370
18
48
1
60
0
100
AcDbSpline
70
4
71
1
72
4
73
2
40
0
40
0
40
1
40
1
41
1
10
0.343278579257496
20
38.0910588771582
30
0
41
1
10
-0.325
20
37.3943825159609
30
0
0
SPLINE
5
1C0
100
AcDbEntity
8
1
62
256
6
ByLayer
370
18
48
1
60
0
100
AcDbSpline
70
4
71
3
72
11
73
7
40
0
40
0
40
0
40
0
40
0.356364068234579
40
0.637100499988698
40
0.864982066065063
40
1
40
1
40
1
40
1
41
1
10
0.343278579257488
20
38.0910588771582
30
0
41
1
10
0.362926862161246
20
38.1114329318602
30
0
41
1
10
0.393682247499354
20
38.1438753054962
30
0
41
1
10
0.42786906936015
20
38.1813026176842
30
0
41
1
10
0.44290466717342
20
38.1993046289717
30
0
41
1
10
0.445181951409081
20
38.2033166552778
30
0
41
1
10
0.445278567911194
20
38.2040759014786
30
0
0
SPLINE
5
1C1
100
AcDbEntity
8
1
62
256
6
ByLayer
370
18
48
1
60
0
100
AcDbSpline
70
4
71
1
72
4
73
2
40
0
40
0
40
1
40
1
41
1
10
0.343278579257477
20
38.1119244990919
30
0
41
1
10
-0.325
20
37.4620120088337
30
0
0
SPLINE
5
1C2
100
AcDbEntity
8
1
62
256
6
ByLayer
370
18
48
1
60
0
100
AcDbSpline
70
4
71
1
72
4
73
2
40
0
40
0
40
1
40
1
41
1
10
0.343278579257491
20
38.1570278445564
30
0
41
1
10
-0.325
20
37.4770242115086
30
0
0
SPLINE
5
1C3
100
AcDbEntity
8
1
62
256
6
ByLayer
370
18
48
1
60
0
100
AcDbSpline
70
4
71
3
72
11
73
7
40
0
40
0
40
0
40
0
40
0.361589321536247
40
0.634640273611578
40
0.859589929788742
40
1
40
1
40
1
40
1
41
1
10
0.343278579257483
20
38.1570278445563
30
0
41
1
10
0.363249645643777
20
38.1772754211273
30
0
41
1
10
0.393872604655403
20
38.2085157912714
30
0
41
1
10
0.427855860622261
20
38.2436694352307
30
0
41
1
10
0.442847724048268
20
38.2596863130903
30
0
41
1
10
0.445190506111384
20
38.2626132270284
30
0
41
1
10
0.445278578176187
20
38.2629292391071
30
0
0
SPLINE
5
1C4
100
AcDbEntity
8
1
62
256
6
ByLayer
370
18
48
1
60
0
100
AcDbSpline
70
4
71
1
72
4
73
2
40
0
40
0
40
1
40
1
41
1
10
0.343278579257481
20
38.1639722968845
30
0
41
1
10
-0.325
20
37.4995312470703
30
0
0
SPLINE
5
1C5
100
AcDbEntity
8
1
62
256
6
ByLayer
370
18
48
1
60
0
100
AcDbSpline
70
4
71
3
72
24
73
20
40
0
40
0
40
0
40
0
40
0.0265233897533456
40
0.0881447490451449
40
0.147446596431942
40
0.208404401562022
40
0.268939469558984
40
0.331108484479741
40
0.393931425207755
40
0.458453876747036
40
0.523524568575171
40
0.590405487623538
40
0.656818851469332
40
0.725150553225077
40
0.791629580580802
40
0.860107593566333
40
0.925291986644075
40
0.992506484326894
40
1
40
1
40
1
40
1
41
1
10
0.725000000000053
20
38.5
30
0
41
1
10
0.725017410123268
20
38.499994823561
30
0
41
1
10
0.734110158634738
20
38.4992955957506
30
0
41
1
10
0.800333620242067
20
38.4941448047032
30
0
41
1
10
0.965112185740191
20
38.4818341488073
30
0
41
1
10
1.2056136359025
20
38.4650190030479
30
0
41
1
10
1.52056903236993
20
38.4451007681571
30
0
41
1
10
1.90115178707589
20
38.4241976575644
30
0
41
1
10
2.34338704881027
20
38.4042928759481
30
0
41
1
10
2.83511794926266
20
38.3877092300316
30
0
41
1
10
3.36763757471409
20
38.376360366415
30
0
41
1
10
3.9219585260937
20
38.3718827251707
30
0
41
1
10
4.48677254150547
20
38.3750051735861
30
0
41
1
10
5.03634783212415
20
38.3855205802911
30
0
41
1
10
5.56091243150443
20
38.4023915055839
30
0
41
1
10
6.0321371002431
20
38.4232656497798
30
0
41
1
10
6.44461024279367
20
38.4459184775865
30
0
41
1
10
6.68125362085153
20
38.4610563953639
30
0
41
1
10
6.78932917246463
20
38.4683318486924
30
0
41
1
10
6.8
20
38.4690564070432
30
0
0
SPLINE
5
1C6
100
AcDbEntity
8
1
62
256
6
ByLayer
370
18
48
1
60
0
100
AcDbSpline
70
4
71
2
72
6
73
3
40
0
40
0
40
0
40
1
40
1
40
1
41
1
10
6.675
20
37.2318412115222
30
0
41
1
10
6.67638136270989
20
37.2999441136591
30
0
41
1
10
6.79999999999654
20
37.3559156519833
30
0
0
SPLINE
5
1C7
100
AcDbEntity
8
1
62
256
6
ByLayer
370
18
48
1
60
0
100
AcDbSpline
70
4
71
1
72
4
73
2
40
0
40
0
40
1
40
1
41
1
10
0.190104359425139
20
-34.4770154133838
30
0
41
1
10
0.674999999999997
20
-34.7850542618522
30
0
0
SPLINE
5
1C8
100
AcDbEntity
8
1
62
256
6
ByLayer
370
18
48
1
60
0
100
AcDbSpline
70
4
71
3
72
12
73
8
40
0
40
0
40
0
40
0
40
0.207092615126507
40
0.414107419503757
40
0.62336116586728
40
0.837950974769184
40
1
40
1
40
1
40
1
41
1
10
7.67500000000001
20
-37.4807950822818
30
0
41
1
10
7.56083101026503
20
-37.480597264843
30
0
41
1
10
7.34638253828513
20
-37.4722760921492
30
0
41
1
10
7.05008698676925
20
-37.434434647384
30
0
41
1
10
6.82348442795133
20
-37.3748374743167
30
0
41
1
10
6.69893860775027
20
-37.3036577650104
30
0
41
1
10
6.67524787769847
20
-37.2541769936923
30
0
41
1
10
6.67500000000001
20
-37.2318412115222
30
0
0
SPLINE
5
1C9
100
AcDbEntity
8
1
62
256
6
ByLayer
370
18
48
1
60
0
100
AcDbSpline
70
4
71
3
72
10
73
6
40
0
40
0
40
0
40
0
40
0.426305641392932
40
0.712090242333142
40
1
40
1
40
1
40
1
41
1
10
0.343278579257443
20
-38.0006420547284
30
0
41
1
10
0.3641710226775
20
-38.0205820491145
30
0
41
1
10
0.394331668648956
20
-38.0484307974958
30
0
41
1
10
0.429623853962707
20
-38.0787289961445
30
0
41
1
10
0.440069962765399
20
-38.0855931498825
30
0
41
1
10
0.44339135793083
20
-38.0869287751336
30
0
0
SPLINE
5
1CA
100
AcDbEntity
8
1
62
256
6
ByLayer
370
18
48
1
60
0
100
AcDbSpline
70
4
71
1
72
4
73
2
40
0
40
0
40
1
40
1
41
1
10
-0.325
20
-37.2512059368553
30
0
41
1
10
0.343278579257493
20
-37.9657577144987
30
0
0
SPLINE
5
1CB
100
AcDbEntity
8
1
62
256
6
ByLayer
370
18
48
1
60
0
100
AcDbSpline
70
4
71
1
72
4
73
2
40
0
40
0
40
1
40
1
41
1
10
-0.325
20
-37.2058778118458
30
0
41
1
10
0.343278579257463
20
-37.8296022199376
30
0
0
SPLINE
5
1CC
100
AcDbEntity
8
1
62
256
6
ByLayer
370
18
48
1
60
0
100
AcDbSpline
70
4
71
3
72
11
73
7
40
0
40
0
40
0
40
0
40
0.307833683615438
40
0.570790968082397
40
0.790648514051593
40
1
40
1
40
1
40
1
41
1
10
0.343278579257425
20
-37.8296022199376
30
0
41
1
10
0.360118546205642
20
-37.8453685804014
30
0
41
1
10
0.388252784435987
20
-37.8707272136292
30
0
41
1
10
0.421918103789013
20
-37.8986108970097
30
0
41
1
10
0.441279950462624
20
-37.9112913588392
30
0
41
1
10
0.44513178785086
20
-37.9106351779922
30
0
41
1
10
0.445278562967608
20
-37.908453744138
30
0
0
SPLINE
5
1CD
100
AcDbEntity
8
1
62
256
6
ByLayer
370
18
48
1
60
0
100
AcDbSpline
70
4
71
1
72
4
73
2
40
0
40
0
40
1
40
1
41
1
10
-0.325
20
-37.0467926243285
30
0
41
1
10
0.343278579257492
20
-37.7805340259888
30
0
0
SPLINE
5
1CE
100
AcDbEntity
8
1
62
256
6
ByLayer
370
18
48
1
60
0
100
AcDbSpline
70
4
71
1
72
4
73
2
40
0
40
0
40
1
40
1
41
1
10
-0.325
20
-36.9860087566907
30
0
41
1
10
0.343278579257453
20
-37.5979894630794
30
0
0
SPLINE
5
1CF
100
AcDbEntity
8
1
62
256
6
ByLayer
370
18
48
1
60
0
100
AcDbSpline
70
4
71
3
72
12
73
8
40
0
40
0
40
0
40
0
40
0.296883461379816
40
0.556100419139237
40
0.773951071267905
40
0.992410235893898
40
1
40
1
40
1
40
1
41
1
10
0.343278579257408
20
-37.5979894630793
30
0
41
1
10
0.359496717975065
20
-37.6129118888749
30
0
41
1
10
0.387026795406126
20
-37.6370501383013
30
0
41
1
10
0.420528109070598
20
-37.6633578083012
30
0
41
1
10
0.440589025534383
20
-37.6749453980004
30
0
41
1
10
0.44520731317986
20
-37.6734147810367
30
0
41
1
10
0.445278686179191
20
-37.6704041805839
30
0
41
1
10
0.445278578813398
20
-37.6703005135421
30
0
0
SPLINE
5
1D0
100
AcDbEntity
8
1
62
256
6
ByLayer
370
18
48
1
60
0
100
AcDbSpline
70
4
71
1
72
4
73
2
40
0
40
0
40
1
40
1
41
1
10
-0.325
20
-36.7801215842199
30
0
41
1
10
0.343278579257492
20
-37.5345007125682
30
0
0
SPLINE
5
1D1
100
AcDbEntity
8
1
62
256
6
ByLayer
370
18
48
1
60
0
100
AcDbSpline
70
4
71
1
72
4
73
2
40
0
40
0
40
1
40
1
41
1
10
-0.325
20
-36.7035739915066
30
0
41
1
10
0.343278579257443
20
-37.3046755677213
30
0
0
SPLINE
5
1D2
100
AcDbEntity
8
1
62
256
6
ByLayer
370
18
48
1
60
0
100
AcDbSpline
70
4
71
3
72
12
73
8
40
0
40
0
40
0
40
0
40
0.285657363221496
40
0.54066935438815
40
0.756081864073592
40
0.972005870661759
40
1
40
1
40
1
40
1
41
1
10
0.343278579257386
20
-37.3046755677212
30
0
41
1
10
0.358878883357131
20
-37.3187967893953
30
0
41
1
10
0.385797931833846
20
-37.3417819113424
30
0
41
1
10
0.41906277362096
20
-37.3665920389357
30
0
41
1
10
0.439581732844616
20
-37.376982079683
30
0
41
1
10
0.44500514004424
20
-37.3746798621706
30
0
41
1
10
0.44528058035092
20
-37.3709149068727
30
0
41
1
10
0.445278562888165
20
-37.3704478544374
30
0
0
SPLINE
5
1D3
100
AcDbEntity
8
1
62
256
6
ByLayer
370
18
48
1
60
0
100
AcDbSpline
70
4
71
1
72
4
73
2
40
0
40
0
40
1
40
1
41
1
10
-0.325
20
-36.4498263884754
30
0
41
1
10
0.343278579257491
20
-37.2264521032379
30
0
0
SPLINE
5
1D4
100
AcDbEntity
8
1
62
256
6
ByLayer
370
18
48
1
60
0
100
AcDbSpline
70
4
71
1
72
4
73
2
40
0
40
0
40
1
40
1
41
1
10
-0.325
20
-36.3571154486986
30
0
41
1
10
0.343278579257429
20
-36.9481911162111
30
0
0
SPLINE
5
1D5
100
AcDbEntity
8
1
62
256
6
ByLayer
370
18
48
1
60
0
100
AcDbSpline
70
4
71
3
72
12
73
8
40
0
40
0
40
0
40
0
40
0.274323439428705
40
0.524813610733149
40
0.737467110322297
40
0.950539757981766
40
1
40
1
40
1
40
1
41
1
10
0.343278579257355
20
-36.948191116211
30
0
41
1
10
0.358263288657817
20
-36.9615496884444
30
0
41
1
10
0.38455370691322
20
-36.9834406560233
30
0
41
1
10
0.41754088211091
20
-37.006839962174
30
0
41
1
10
0.438489934708561
20
-37.0160962684199
30
0
41
1
10
0.444776651018909
20
-37.012989656125
30
0
41
1
10
0.445286249995463
20
-37.0083832509284
30
0
41
1
10
0.445278497413985
20
-37.0074067302649
30
0
0
SPLINE
5
1D6
100
AcDbEntity
8
1
62
256
6
ByLayer
370
18
48
1
60
0
100
AcDbSpline
70
4
71
1
72
4
73
2
40
0
40
0
40
1
40
1
41
1
10
-0.325
20
-36.0541584806801
30
0
41
1
10
0.34327857925749
20
-36.8548331789407
30
0
0
SPLINE
5
1D7
100
AcDbEntity
8
1
62
256
6
ByLayer
370
18
48
1
60
0
100
AcDbSpline
70
4
71
1
72
4
73
2
40
0
40
0
40
1
40
1
41
1
10
-0.325
20
-35.9447818709476
30
0
41
1
10
0.343278579257411
20
-36.5266866045522
30
0
0
SPLINE
5
1D8
100
AcDbEntity
8
1
62
256
6
ByLayer
370
18
48
1
60
0
100
AcDbSpline
70
4
71
3
72
12
73
8
40
0
40
0
40
0
40
0
40
0.263226281975131
40
0.509202505905936
40
0.756999023025065
40
0.967096776498376
40
1
40
1
40
1
40
1
41
1
10
0.343278579257316
20
-36.5266866045521
30
0
41
1
10
0.357648204987097
20
-36.5393173465977
30
0
41
1
10
0.383291430606386
20
-36.560164633916
30
0
41
1
10
0.417676914180964
20
-36.5834191060158
30
0
41
1
10
0.439473413076383
20
-36.5909332261112
30
0
41
1
10
0.444978055483589
20
-36.5852241022361
30
0
41
1
10
0.445282730356294
20
-36.5800875682203
30
0
41
1
10
0.445278528253159
20
-36.5793448936898
30
0
0
SPLINE
5
1D9
100
AcDbEntity
8
1
62
256
6
ByLayer
370
18
48
1
60
0
100
AcDbSpline
70
4
71
1
72
4
73
2
40
0
40
0
40
1
40
1
41
1
10
-0.325
20
-35.5909376632592
30
0
41
1
10
0.343278579257491
20
-36.4176979105
30
0
0
SPLINE
5
1DA
100
AcDbEntity
8
1
62
256
6
ByLayer
370
18
48
1
60
0
100
AcDbSpline
70
4
71
1
72
4
73
2
40
0
40
0
40
1
40
1
41
1
10
-0.325
20
-35.4642755988332
30
0
41
1
10
0.343278579257386
20
-36.0378806515351
30
0
0
SPLINE
5
1DB
100
AcDbEntity
8
1
62
256
6
ByLayer
370
18
48
1
60
0
100
AcDbSpline
70
4
71
3
72
12
73
8
40
0
40
0
40
0
40
0
40
0.251613398364354
40
0.492388573521496
40
0.734897105984727
40
0.941419460958977
40
1
40
1
40
1
40
1
41
1
10
0.343278579257265
20
-36.037880651535
30
0
41
1
10
0.357031896186089
20
-36.0498150093521
30
0
41
1
10
0.382004822025737
20
-36.0696732374121
30
0
41
1
10
0.415968383564088
20
-36.0915940115108
30
0
41
1
10
0.438175957841473
20
-36.0980623258874
30
0
41
1
10
0.444716305351769
20
-36.0914982612988
30
0
41
1
10
0.445293397970973
20
-36.0853601105581
30
0
41
1
10
0.445278387250219
20
-36.0838547073395
30
0
0
SPLINE
5
1DC
100
AcDbEntity
8
1
62
256
6
ByLayer
370
18
48
1
60
0
100
AcDbSpline
70
4
71
1
72
4
73
2
40
0
40
0
40
1
40
1
41
1
10
-0.325
20
-35.0574862725496
30
0
41
1
10
0.343278579257493
20
-35.912653947506
30
0
0
SPLINE
5
1DD
100
AcDbEntity
8
1
62
256
6
ByLayer
370
18
48
1
60
0
100
AcDbSpline
70
4
71
1
72
4
73
2
40
0
40
0
40
1
40
1
41
1
10
-0.325
20
-34.9127819537487
30
0
41
1
10
0.343278579257354
20
-35.4789916626925
30
0
0
SPLINE
5
1DE
100
AcDbEntity
8
1
62
256
6
ByLayer
370
18
48
1
60
0
100
AcDbSpline
70
4
71
3
72
12
73
8
40
0
40
0
40
0
40
0
40
0.239871929633562
40
0.475112703198848
40
0.712003656153946
40
0.914573834596006
40
1
40
1
40
1
40
1
41
1
10
0.343278579257202
20
-35.4789916626924
30
0
41
1
10
0.35641258557336
20
-35.4902580016254
30
0
41
1
10
0.380690624926148
20
-35.5091744681747
30
0
41
1
10
0.414182100211007
20
-35.5298479454701
30
0
41
1
10
0.436762546998786
20
-35.5353484588314
30
0
41
1
10
0.44441755450286
20
-35.5278897317158
30
0
41
1
10
0.445312817577119
20
-35.5206355272561
30
0
41
1
10
0.445278180407778
20
-35.5181671117702
30
0
0
SPLINE
5
1DF
100
AcDbEntity
8
1
62
256
6
ByLayer
370
18
48
1
60
0
100
AcDbSpline
70
4
71
1
72
4
73
2
40
0
40
0
40
1
40
1
41
1
10
-0.325
20
-34.4505419950108
30
0
41
1
10
0.343278579257493
20
-35.3367896958142
30
0
0
SPLINE
5
1E0
100
AcDbEntity
8
1
62
256
6
ByLayer
370
18
48
1
60
0
100
AcDbSpline
70
4
71
1
72
4
73
2
40
0
40
0
40
1
40
1
41
1
10
-0.325
20
-34.2868756778742
30
0
41
1
10
0.34327857925731
20
-34.8466477146442
30
0
0
SPLINE
5
1E1
100
AcDbEntity
8
1
62
256
6
ByLayer
370
18
48
1
60
0
100
AcDbSpline
70
4
71
3
72
12
73
8
40
0
40
0
40
0
40
0
40
0.227799264744242
40
0.456969291675117
40
0.687709517029687
40
0.885754224410548
40
1
40
1
40
1
40
1
41
1
10
0.343278579257112
20
-34.8466477146441
30
0
41
1
10
0.355788419958968
20
-34.8572715481345
30
0
41
1
10
0.379344095989137
20
-34.8752904953052
30
0
41
1
10
0.412309597204987
20
-34.8948019294897
30
0
41
1
10
0.435221837468328
20
-34.8994158011932
30
0
41
1
10
0.444092858414505
20
-34.8910083837683
30
0
41
1
10
0.445350552045541
20
-34.8824829729581
30
0
41
1
10
0.445277467401476
20
-34.8787961507936
30
0
0
SPLINE
5
1E2
100
AcDbEntity
8
1
62
256
6
ByLayer
370
18
48
1
60
0
100
AcDbSpline
70
4
71
1
72
4
73
2
40
0
40
0
40
1
40
1
41
1
10
0.190104359425139
20
-34.4770154133838
30
0
41
1
10
0.343278579257494
20
-34.6865780736453
30
0
0
SPLINE
5
1E3
100
AcDbEntity
8
1
62
256
6
ByLayer
370
18
48
1
60
0
100
AcDbSpline
70
4
71
1
72
4
73
2
40
0
40
0
40
1
40
1
41
1
10
0.190104359425144
20
-37.8550348280422
30
0
41
1
10
0.675
20
-38.3829389182225
30
0
0
SPLINE
5
1E4
100
AcDbEntity
8
1
62
256
6
ByLayer
370
18
48
1
60
0
100
AcDbSpline
70
4
71
1
72
4
73
2
40
0
40
0
40
1
40
1
41
1
10
0.190104359425144
20
-37.8550348280422
30
0
41
1
10
0.343278579257471
20
-38.0006420547284
30
0
0
SPLINE
5
1E5
100
AcDbEntity
8
1
62
256
6
ByLayer
370
18
48
1
60
0
100
AcDbSpline
70
4
71
3
72
13
73
9
40
0
40
0
40
0
40
0
40
0.0002078014776667
40
0.218828549814237
40
0.438615321640891
40
0.63513168196256
40
0.898325820841131
40
1
40
1
40
1
40
1
41
1
10
0.445278579251762
20
34.8791008129065
30
0
41
1
10
0.445278579499385
20
34.8791072834153
30
0
41
1
10
0.445277043873158
20
34.8859193519085
30
0
41
1
10
0.441867250043286
20
34.8965947277902
30
0
41
1
10
0.424817427954779
20
34.8986395693276
30
0
41
1
10
0.396534015400127
20
34.8865725154378
30
0
41
1
10
0.367836338888354
20
34.8666551628886
30
0
41
1
10
0.348716955166287
20
34.8512261854755
30
0
41
1
10
0.343278579252113
20
34.8466477146424
30
0
0
SPLINE
5
1E6
100
AcDbEntity
8
1
62
256
6
ByLayer
370
18
48
1
60
0
100
AcDbSpline
70
4
71
3
72
11
73
7
40
0
40
0
40
0
40
0
40
0.109829104691957
40
0.393872565331843
40
0.824890203981653
40
1
40
1
40
1
40
1
41
1
10
0.445277467401476
20
-34.8787961507936
30
0
41
1
10
0.445115752878722
20
-34.8742595394964
30
0
41
1
10
0.442849824169207
20
-34.8567057288783
30
0
41
1
10
0.42239270151591
20
-34.8068120801143
30
0
41
1
10
0.383790665699123
20
-34.7435326191293
30
0
41
1
10
0.352794137994223
20
-34.6995254846238
30
0
41
1
10
0.343278579257499
20
-34.6865780736453
30
0
0
SPLINE
5
1E7
100
AcDbEntity
8
1
62
256
6
ByLayer
370
18
48
1
60
0
100
AcDbSpline
70
4
71
3
72
12
73
8
40
0
40
0
40
0
40
0
40
0.0979770994024766
40
0.41776134808449
40
0.739992192872036
40
0.956420333148075
40
1
40
1
40
1
40
1
41
1
10
22.5550024025219
20
17.1227694834113
30
0
41
1
10
22.5549694218776
20
17.1188554497118
30
0
41
1
10
22.5552914633421
20
17.1025286568589
30
0
41
1
10
22.5586058805538
20
17.0754368504681
30
0
41
1
10
22.5704283227144
20
17.0509962936928
30
0
41
1
10
22.5851308500773
20
17.0431962033953
30
0
41
1
10
22.5929323322925
20
17.0423701441686
30
0
41
1
10
22.5942772647586
20
17.0422965703124
30
0
0
SPLINE
5
1E8
100
AcDbEntity
8
1
62
256
6
ByLayer
370
18
48
1
60
0
100
AcDbSpline
70
4
71
3
72
10
73
6
40
0
40
0
40
0
40
0
40
0.296083748072332
40
0.646553452433697
40
1
40
1
40
1
40
1
41
1
10
22.5942772647586
20
17.0422965703124
30
0
41
1
10
22.5998417113175
20
17.0421492528151
30
0
41
1
10
22.6124298742757
20
17.0439169400217
30
0
41
1
10
22.6344534424181
20
17.0551422520786
30
0
41
1
10
22.6495644549837
20
17.0664237725381
30
0
41
1
10
22.65725
20
17.0732026113496
30
0
0
SPLINE
5
1E9
100
AcDbEntity
8
1
62
256
6
ByLayer
370
18
48
1
60
0
100
AcDbSpline
70
4
71
3
72
10
73
6
40
0
40
0
40
0
40
0
40
0.0340274245099547
40
0.415044787858673
40
1
40
1
40
1
40
1
41
1
10
22.5550024252984
20
42.8772250208738
30
0
41
1
10
22.5550369006514
20
42.873539106952
30
0
41
1
10
22.55598463012
20
42.8283224309489
30
0
41
1
10
22.5808968856401
20
42.7052962332345
30
0
41
1
10
22.6223220508464
20
42.585293665942
30
0
41
1
10
22.6572499999999
20
42.5090350955934
30
0
0
SPLINE
5
1EA
100
AcDbEntity
8
1
62
256
6
ByLayer
370
18
48
1
60
0
100
AcDbSpline
70
4
71
3
72
12
73
8
40
0
40
0
40
0
40
0
40
0.202031522822141
40
0.421407264664403
40
0.620527374618572
40
0.890958570463514
40
1
40
1
40
1
40
1
41
1
10
0.445278493565498
20
35.5182542778883
30
0
41
1
10
0.44537535685569
20
35.524276198403
30
0
41
1
10
0.442140148713933
20
35.5329106113496
30
0
41
1
10
0.426189096859787
20
35.5340115272995
30
0
41
1
10
0.398173770603295
20
35.5209919305005
30
0
41
1
10
0.36890929079061
20
35.50015021936
30
0
41
1
10
0.349103695347655
20
35.483949434177
30
0
41
1
10
0.343278579250975
20
35.4789916626902
30
0
0
SPLINE
5
1EB
100
AcDbEntity
8
1
62
256
6
ByLayer
370
18
48
1
60
0
100
AcDbSpline
70
4
71
3
72
11
73
7
40
0
40
0
40
0
40
0
40
0.0987524026186712
40
0.368364745296504
40
0.769586414358889
40
1
40
1
40
1
40
1
41
1
10
0.445278180407778
20
-35.5181671117702
30
0
41
1
10
0.445166571741257
20
-35.5145785214367
30
0
41
1
10
0.443286379991183
20
-35.5000238433827
30
0
41
1
10
0.425362346965981
20
-35.4574727095266
30
0
41
1
10
0.387582755020565
20
-35.3970687055103
30
0
41
1
10
0.355853245248197
20
-35.3532539960085
30
0
41
1
10
0.343278579257521
20
-35.3367896958142
30
0
0
SPLINE
5
1EC
100
AcDbEntity
8
1
62
256
6
ByLayer
370
18
48
1
60
0
100
AcDbSpline
70
4
71
3
72
13
73
9
40
0
40
0
40
0
40
0
40
0.106322020951491
40
0.308092026541295
40
0.511861720183895
40
0.687387669813485
40
0.838178876361289
40
1
40
1
40
1
40
1
41
1
10
22.5550034231479
20
15.5580189800306
30
0
41
1
10
22.5549027484839
20
15.5521192565157
30
0
41
1
10
22.5557309423002
20
15.5360471426196
30
0
41
1
10
22.5614492008334
20
15.5126640004504
30
0
41
1
10
22.5783911047513
20
15.4971551660537
30
0
41
1
10
22.6034248666647
20
15.498510838091
30
0
41
1
10
22.6304778302768
20
15.5116498242942
30
0
41
1
10
22.6479589039351
20
15.5241983869655
30
0
41
1
10
22.65725
20
15.5320774075199
30
0
0
SPLINE
5
1ED
100
AcDbEntity
8
1
62
256
6
ByLayer
370
18
48
1
60
0
100
AcDbSpline
70
4
71
3
72
10
73
6
40
0
40
0
40
0
40
0
40
0.192958189275763
40
0.662877134872597
40
1
40
1
40
1
40
1
41
1
10
22.5550034124628
20
44.4419827618974
30
0
41
1
10
22.5557753575789
20
44.4247468535211
30
0
41
1
10
22.562247184345
20
44.3638370838714
30
0
41
1
10
22.5990823288147
20
44.2562196219807
30
0
41
1
10
22.6381776614175
20
44.1703207309281
30
0
41
1
10
22.6572499999999
20
44.1335510614993
30
0
0
SPLINE
5
1EE
100
AcDbEntity
8
1
62
256
6
ByLayer
370
18
48
1
60
0
100
AcDbSpline
70
4
71
3
72
12
73
8
40
0
40
0
40
0
40
0
40
0.185352051626912
40
0.403983143277918
40
0.605403269951344
40
0.882592529645552
40
1
40
1
40
1
40
1
41
1
10
0.445278350687797
20
36.0838456622775
30
0
41
1
10
0.445349276120374
20
36.0887709604554
30
0
41
1
10
0.442459639437548
20
36.0960801721604
30
0
41
1
10
0.427539042973058
20
36.0960770951821
30
0
41
1
10
0.399879930265542
20
36.0821598988651
30
0
41
1
10
0.370057142767898
20
36.060313533921
30
0
41
1
10
0.349544887146974
20
36.0432805909074
30
0
41
1
10
0.343278579249325
20
36.037880651532
30
0
0
SPLINE
5
1EF
100
AcDbEntity
8
1
62
256
6
ByLayer
370
18
48
1
60
0
100
AcDbSpline
70
4
71
3
72
11
73
7
40
0
40
0
40
0
40
0
40
0.124401334269709
40
0.396453253713199
40
0.795465027675847
40
1
40
1
40
1
40
1
41
1
10
0.445278387250219
20
-36.0838547073395
30
0
41
1
10
0.445110608386002
20
-36.079838676315
30
0
41
1
10
0.442642152488639
20
-36.0654690338844
30
0
41
1
10
0.422575074427395
20
-36.02341717562
30
0
41
1
10
0.384912148139581
20
-35.96703134056
30
0
41
1
10
0.354382082233658
20
-35.9267065163604
30
0
41
1
10
0.343278579257651
20
-35.9126539475058
30
0
0
SPLINE
5
1F0
100
AcDbEntity
8
1
62
256
6
ByLayer
370
18
48
1
60
0
100
AcDbSpline
70
4
71
3
72
10
73
6
40
0
40
0
40
0
40
0
40
0.176391837535742
40
0.664525925611977
40
1
40
1
40
1
40
1
41
1
10
15.3336320016928
20
42.249848934477
30
0
41
1
10
15.3021631888092
20
42.2395950429648
30
0
41
1
10
15.1788436626172
20
42.2037158058578
30
0
41
1
10
14.9544154750085
20
42.1561593520243
30
0
41
1
10
14.7584358522598
20
42.1456344276429
30
0
41
1
10
14.675
20
42.1447367686568
30
0
0
SPLINE
5
1F1
100
AcDbEntity
8
1
62
256
6
ByLayer
370
18
48
1
60
0
100
AcDbSpline
70
4
71
3
72
10
73
6
40
0
40
0
40
0
40
0
40
0.437821289229251
40
0.874576397544893
40
1
40
1
40
1
40
1
41
1
10
14.675
20
37.6542531045665
30
0
41
1
10
14.7847887307788
20
37.6524396425054
30
0
41
1
10
14.9908660691893
20
37.6379890598192
30
0
41
1
10
15.2069022118941
20
37.5874502325455
30
0
41
1
10
15.3097395327797
20
37.5568193020468
30
0
41
1
10
15.3320073104192
20
37.54965578441
30
0
0
SPLINE
5
1F2
100
AcDbEntity
8
1
62
256
6
ByLayer
370
18
48
1
60
0
100
AcDbSpline
70
4
71
3
72
10
73
6
40
0
40
0
40
0
40
0
40
0.176391837535734
40
0.664525925611978
40
1
40
1
40
1
40
1
41
1
10
15.3336320016928
20
22.4508590612537
30
0
41
1
10
15.3021631888092
20
22.4406051697415
30
0
41
1
10
15.1788436626172
20
22.4047259326344
30
0
41
1
10
14.9544154750085
20
22.357169478801
30
0
41
1
10
14.7584358522598
20
22.3466445544196
30
0
41
1
10
14.675
20
22.3457468954335
30
0
0
SPLINE
5
1F3
100
AcDbEntity
8
1
62
256
6
ByLayer
370
18
48
1
60
0
100
AcDbSpline
70
4
71
3
72
10
73
6
40
0
40
0
40
0
40
0
40
0.437821289229248
40
0.874576397544888
40
1
40
1
40
1
40
1
41
1
10
14.675
20
17.8552632313432
30
0
41
1
10
14.7847887307788
20
17.8534497692821
30
0
41
1
10
14.9908660691893
20
17.8389991865958
30
0
41
1
10
15.2069022118941
20
17.7884603593222
30
0
41
1
10
15.3097395327797
20
17.7578294288235
30
0
41
1
10
15.3320073104192
20
17.7506659111866
30
0
0
SPLINE
5
1F4
100
AcDbEntity
8
1
62
256
6
ByLayer
370
18
48
1
60
0
100
AcDbSpline
70
4
71
3
72
13
73
9
40
0
40
0
40
0
40
0
40
0.156938698583168
40
0.349316531427358
40
0.543113493975516
40
0.714312677860213
40
0.930589975771707
40
1
40
1
40
1
40
1
41
1
10
22.5550085355327
20
14.2898848779645
30
0
41
1
10
22.5547644240769
20
14.2821174257573
30
0
41
1
10
22.5563268402313
20
14.2669800476196
30
0
41
1
10
22.5651172356623
20
14.2489808300096
30
0
41
1
10
22.58431428651
20
14.2428903650227
30
0
41
1
10
22.6123721941966
20
14.25100435094
30
0
41
1
10
22.6376792261596
20
14.2670639651283
30
0
41
1
10
22.6533967439839
20
14.27933946344
30
0
41
1
10
22.6572500000019
20
14.2825104562861
30
0
0
SPLINE
5
1F5
100
AcDbEntity
8
1
62
256
6
ByLayer
370
18
48
1
60
0
100
AcDbSpline
70
4
71
3
72
10
73
6
40
0
40
0
40
0
40
0
40
0.230543928052974
40
0.67024936846078
40
1
40
1
40
1
40
1
41
1
10
22.5550004727641
20
45.7112166191106
30
0
41
1
10
22.5559738700879
20
45.6941926951023
30
0
41
1
10
22.5633903709974
20
45.6424094026312
30
0
41
1
10
22.6012801347672
20
45.548398000889
30
0
41
1
10
22.6386775034048
20
45.4764629670545
30
0
41
1
10
22.6572499999999
20
45.4446939818576
30
0
0
SPLINE
5
1F6
100
AcDbEntity
8
1
62
256
6
ByLayer
370
18
48
1
60
0
100
AcDbSpline
70
4
71
3
72
12
73
8
40
0
40
0
40
0
40
0
40
0.168782708275881
40
0.386388531160922
40
0.589821361122561
40
0.873356622621384
40
1
40
1
40
1
40
1
41
1
10
0.445278255536309
20
36.5792772009512
30
0
41
1
10
0.445327710102251
20
36.5832234869953
30
0
41
1
10
0.442769201629346
20
36.5892951693852
30
0
41
1
10
0.428873298013798
20
36.5882660601016
30
0
41
1
10
0.401632001787812
20
36.5734345973913
30
0
41
1
10
0.371269646202401
20
36.5505174078137
30
0
41
1
10
0.350033778863615
20
36.5325886209914
30
0
41
1
10
0.343278579247126
20
36.5266866045479
30
0
0
SPLINE
5
1F7
100
AcDbEntity
8
1
62
256
6
ByLayer
370
18
48
1
60
0
100
AcDbSpline
70
4
71
3
72
11
73
7
40
0
40
0
40
0
40
0
40
0.149602709018636
40
0.423430879552423
40
0.819948749951805
40
1
40
1
40
1
40
1
41
1
10
0.445278528253159
20
-36.5793448936898
30
0
41
1
10
0.445044633474142
20
-36.5750915393548
30
0
41
1
10
0.441958044433636
20
-36.5610451174173
30
0
41
1
10
0.419786025313964
20
-36.5195380362022
30
0
41
1
10
0.382350555572701
20
-36.4668049913678
30
0
41
1
10
0.353005953871314
20
-36.4296179711252
30
0
41
1
10
0.343278579257687
20
-36.4176979104996
30
0
0
SPLINE
5
1F8
100
AcDbEntity
8
1
62
256
6
ByLayer
370
18
48
1
60
0
100
AcDbSpline
70
4
71
3
72
13
73
9
40
0
40
0
40
0
40
0
40
0.0632694644458506
40
0.276663840458616
40
0.491667190860403
40
0.67629728529171
40
0.911346290098131
40
1
40
1
40
1
40
1
41
1
10
22.5550009298753
20
13.2491817464193
30
0
41
1
10
22.5549699852339
20
13.2465702976565
30
0
41
1
10
22.5555009199399
20
13.2358170876902
30
0
41
1
10
22.5609353267273
20
13.220525187416
30
0
41
1
10
22.5794254269284
20
13.2148521681156
30
0
41
1
10
22.6079609064025
20
13.224072597563
30
0
41
1
10
22.6350437457227
20
13.2415197800503
30
0
41
1
10
22.6524199390306
20
13.2551033197341
30
0
41
1
10
22.6572500000055
20
13.2590869134477
30
0
0
SPLINE
5
1F9
100
AcDbEntity
8
1
62
256
6
ByLayer
370
18
48
1
60
0
100
AcDbSpline
70
4
71
3
72
11
73
7
40
0
40
0
40
0
40
0
40
0.0302362271658345
40
0.300567593954879
40
0.74059675379025
40
1
40
1
40
1
40
1
41
1
10
22.5550007259367
20
46.7508635079356
30
0
41
1
10
22.5550173611352
20
46.7491477519593
30
0
41
1
10
22.5555755686726
20
46.7318046022458
30
0
41
1
10
22.5691492549636
20
46.6789954170123
30
0
41
1
10
22.6078370498724
20
46.5985027415873
30
0
41
1
10
22.6428673966019
20
46.5396035419022
30
0
41
1
10
22.6572499999999
20
46.5172600263619
30
0
0
SPLINE
5
1FA
100
AcDbEntity
8
1
62
256
6
ByLayer
370
18
48
1
60
0
100
AcDbSpline
70
4
71
3
72
12
73
8
40
0
40
0
40
0
40
0
40
0.152333692743852
40
0.368663241465817
40
0.573832048533341
40
0.863349353867466
40
1
40
1
40
1
40
1
41
1
10
0.445278240709926
20
37.0073566898862
30
0
41
1
10
0.445310247960636
20
37.0104371752651
30
0
41
1
10
0.443067752144328
20
37.0153568678585
30
0
41
1
10
0.430185962243718
20
37.0133719435534
30
0
41
1
10
0.403418779929422
20
36.9976042493625
30
0
41
1
10
0.372539031773195
20
36.9735447946846
30
0
41
1
10
0.35056552044
20
36.9546539888071
30
0
41
1
10
0.343278579244401
20
36.9481911162052
30
0
0
SPLINE
5
1FB
100
AcDbEntity
8
1
62
256
6
ByLayer
370
18
48
1
60
0
100
AcDbSpline
70
4
71
3
72
11
73
7
40
0
40
0
40
0
40
0
40
0.136610458340416
40
0.397262595924652
40
0.768394553593821
40
1
40
1
40
1
40
1
41
1
10
0.445278497413985
20
-37.0074067302649
30
0
41
1
10
0.445102477834806
20
-37.0041122110255
30
0
41
1
10
0.442453072189148
20
-36.9926910411119
30
0
41
1
10
0.422852138011758
20
-36.9574188643074
30
0
41
1
10
0.386025024623903
20
-36.9069856333036
30
0
41
1
10
0.355840759760353
20
-36.8697373026896
30
0
41
1
10
0.343278579258002
20
-36.8548331789392
30
0
0
SPLINE
5
1FC
100
AcDbEntity
8
1
62
256
6
ByLayer
370
18
48
1
60
0
100
AcDbSpline
70
4
71
3
72
11
73
7
40
0
40
0
40
0
40
0
40
0.295225823678582
40
0.591349879628843
40
0.868606555656547
40
1
40
1
40
1
40
1
41
1
10
7.675
20
37.8697877761223
30
0
41
1
10
7.58903504330376
20
37.7817323552625
30
0
41
1
10
7.41336359750511
20
37.6289151606832
30
0
41
1
10
7.11580044661463
20
37.4771301504575
30
0
41
1
10
6.91232186924693
20
37.4032349791133
30
0
41
1
10
6.82538505807845
20
37.3664999497512
30
0
41
1
10
6.7999999999968
20
37.3559156519834
30
0
0
SPLINE
5
1FD
100
AcDbEntity
8
1
62
256
6
ByLayer
370
18
48
1
60
0
100
AcDbSpline
70
4
71
3
72
10
73
6
40
0
40
0
40
0
40
0
40
0.458306023498899
40
0.916783210442003
40
1
40
1
40
1
40
1
41
1
10
8
20
38.712401113855
30
0
41
1
10
7.99884086745763
20
38.5660011793738
30
0
41
1
10
7.95305240143312
20
38.2915998098439
30
0
41
1
10
7.80027829160399
20
38.0143454240846
30
0
41
1
10
7.69227119979113
20
37.8886998133339
30
0
41
1
10
7.675
20
37.8697877761223
30
0
0
SPLINE
5
1FE
100
AcDbEntity
8
1
62
256
6
ByLayer
370
18
48
1
60
0
100
AcDbSpline
70
4
71
1
72
4
73
2
40
0
40
0
40
1
40
1
41
1
10
6.79999999999999
20
38.4690564070432
30
0
41
1
10
7.0061822374903
20
38.5
30
0
0
SPLINE
5
1FF
100
AcDbEntity
8
1
62
256
6
ByLayer
370
18
48
1
60
0
100
AcDbSpline
70
4
71
3
72
13
73
9
40
0
40
0
40
0
40
0
40
0.021280937738116
40
0.238561386112174
40
0.457168607694629
40
0.649648659773512
40
0.903508497126277
40
1
40
1
40
1
40
1
41
1
10
22.5550000813957
20
12.397454374255
30
0
41
1
10
22.5549971224397
20
12.3967147678614
30
0
41
1
10
22.5551619875854
20
12.3886227607168
30
0
41
1
10
22.5592530035968
20
12.3763952306242
30
0
41
1
10
22.5768815602402
20
12.3730755548279
30
0
41
1
10
22.6053495654341
20
12.3841419552066
30
0
41
1
10
22.633524661658
20
12.4031670719227
30
0
41
1
10
22.6520524285892
20
12.4179268037044
30
0
41
1
10
22.657250000005
20
12.4222622506116
30
0
0
SPLINE
5
200
100
AcDbEntity
8
1
62
256
6
ByLayer
370
18
48
1
60
0
100
AcDbSpline
70
4
71
3
72
11
73
7
40
0
40
0
40
0
40
0
40
0.08123299222847
40
0.361133281663046
40
0.796537058091987
40
1
40
1
40
1
40
1
41
1
10
22.5550014723199
20
47.6022405721771
30
0
41
1
10
22.5550994623717
20
47.5984504549655
30
0
41
1
10
22.5567190740779
20
47.580709703447
30
0
41
1
10
22.5748021793984
20
47.5294836558492
30
0
41
1
10
22.6136325170659
20
47.4603267694139
30
0
41
1
10
22.6461154826423
20
47.4113458694242
30
0
41
1
10
22.6572499999997
20
47.3954357623967
30
0
0
SPLINE
5
201
100
AcDbEntity
8
1
62
256
6
ByLayer
370
18
48
1
60
0
100
AcDbSpline
70
4
71
3
72
18
73
14
40
0
40
0
40
0
40
0
40
0.0567274984005608
40
0.171556585059798
40
0.286307023954807
40
0.364065555743624
40
0.441577224496596
40
0.500627459925403
40
0.559679509003248
40
0.647114913857102
40
0.734902298422196
40
0.867408460022733
40
1
40
1
40
1
40
1
41
1
10
11.325
20
17.8552632313432
30
0
41
1
10
11.2750012944428
20
17.9345167106393
30
0
41
1
10
11.1256684684875
20
18.175325278043
30
0
41
1
10
10.8814543922024
20
18.5803657197653
30
0
41
1
10
10.6424542182221
20
19.0287801441229
30
0
41
1
10
10.4641553189894
20
19.4380670891637
30
0
41
1
10
10.365069445656
20
19.77999151794
30
0
41
1
10
10.3363400511803
20
20.1035764862149
30
0
41
1
10
10.3679256963894
20
20.4434232754157
30
0
41
1
10
10.4819366433592
20
20.8159413908365
30
0
41
1
10
10.6945860738268
20
21.2780744970604
30
0
41
1
10
10.9785931177173
20
21.7876859269889
30
0
41
1
10
11.2059339283487
20
22.1616901096867
30
0
41
1
10
11.325
20
22.3457468954335
30
0
0
SPLINE
5
202
100
AcDbEntity
8
1
62
256
6
ByLayer
370
18
48
1
60
0
100
AcDbSpline
70
4
71
3
72
16
73
12
40
0
40
0
40
0
40
0
40
0.119963041746574
40
0.239923134746423
40
0.360041210193037
40
0.480115796954048
40
0.596406144682071
40
0.712622598824117
40
0.818402357664967
40
0.924137302770126
40
1
40
1
40
1
40
1
41
1
10
14.325
20
8.75005882361083
30
0
41
1
10
14.3254338352786
20
8.9492724776925
30
0
41
1
10
14.3586622862583
20
9.341317163189
30
0
41
1
10
14.506088006276
20
9.91844874157097
30
0
41
1
10
14.7498988827456
20
10.4606840121968
30
0
41
1
10
15.0792688194236
20
10.9491367245428
30
0
41
1
10
15.4873928131644
20
11.3648493852997
30
0
41
1
10
15.9451042302613
20
11.6867473506349
30
0
41
1
10
16.4393618116651
20
11.9076748944999
30
0
41
1
10
16.9021253293392
20
12.0195220703174
30
0
41
1
10
17.1993052475459
20
12.0399211078671
30
0
41
1
10
17.325
20
12.0400445434851
30
0
0
SPLINE
5
203
100
AcDbEntity
8
1
62
256
6
ByLayer
370
18
48
1
60
0
100
AcDbSpline
70
4
71
3
72
18
73
14
40
0
40
0
40
0
40
0
40
0.0567274984005594
40
0.171556585059796
40
0.286307023954807
40
0.364065555743624
40
0.441577224496596
40
0.500627459925404
40
0.559679509003249
40
0.647114913857103
40
0.7349022984222
40
0.867408460022736
40
1
40
1
40
1
40
1
41
1
10
11.325
20
37.6542531045665
30
0
41
1
10
11.2750012944428
20
37.7335065838626
30
0
41
1
10
11.1256684684875
20
37.9743151512663
30
0
41
1
10
10.8814543922024
20
38.3793555929886
30
0
41
1
10
10.6424542182221
20
38.8277700173462
30
0
41
1
10
10.4641553189895
20
39.237056962387
30
0
41
1
10
10.365069445656
20
39.5789813911634
30
0
41
1
10
10.3363400511803
20
39.9025663594382
30
0
41
1
10
10.3679256963894
20
40.242413148639
30
0
41
1
10
10.4819366433592
20
40.6149312640599
30
0
41
1
10
10.6945860738268
20
41.0770643702837
30
0
41
1
10
10.9785931177173
20
41.5866758002122
30
0
41
1
10
11.2059339283487
20
41.96067998291
30
0
41
1
10
11.325
20
42.1447367686568
30
0
0
SPLINE
5
204
100
AcDbEntity
8
1
62
256
6
ByLayer
370
18
48
1
60
0
100
AcDbSpline
70
4
71
3
72
12
73
8
40
0
40
0
40
0
40
0
40
0.0933237086725257
40
0.313931078533389
40
0.51969527057167
40
0.801767141424186
40
1
40
1
40
1
40
1
41
1
10
0.445278366967024
20
37.3704007229406
30
0
41
1
10
0.445295439608252
20
37.3719853030646
30
0
41
1
10
0.444113610500612
20
37.3759979651468
30
0
41
1
10
0.434830778172001
20
37.3752861623203
30
0
41
1
10
0.410519935498625
20
37.3607739164568
30
0
41
1
10
0.378337950933759
20
37.3354934092956
30
0
41
1
10
0.353929420448006
20
37.3142903547565
30
0
41
1
10
0.343278579257433
20
37.3046755677213
30
0
0
SPLINE
5
205
100
AcDbEntity
8
1
62
256
6
ByLayer
370
18
48
1
60
0
100
AcDbSpline
70
4
71
3
72
11
73
7
40
0
40
0
40
0
40
0
40
0.158834820510317
40
0.420040764020668
40
0.788018679321872
40
1
40
1
40
1
40
1
41
1
10
0.445278562888165
20
-37.3704478544374
30
0
41
1
10
0.445048056929267
20
-37.3671876854544
30
0
41
1
10
0.441861418672336
20
-37.3563013124179
30
0
41
1
10
0.420529508694448
20
-37.3217377635113
30
0
41
1
10
0.383919137690801
20
-37.2743434374597
30
0
41
1
10
0.354727453791093
20
-37.2396457195308
30
0
41
1
10
0.343278579257708
20
-37.2264521032354
30
0
0
SPLINE
5
206
100
AcDbEntity
8
1
62
256
6
ByLayer
370
18
48
1
60
0
100
AcDbSpline
70
4
71
3
72
12
73
8
40
0
40
0
40
0
40
0
40
0.203982101215652
40
0.422892038300923
40
0.621225759785406
40
0.89037948877213
40
1
40
1
40
1
40
1
41
1
10
22.5550000660855
20
11.707913424513
30
0
41
1
10
22.5548979639519
20
11.7016996214789
30
0
41
1
10
22.5581765291768
20
11.6928264246306
30
0
41
1
10
22.5742431240859
20
11.6915264706824
30
0
41
1
10
22.6022753937412
20
11.7044012526695
30
0
41
1
10
22.6315539760179
20
11.7251754035024
30
0
41
1
10
22.6513775262333
20
11.741361528236
30
0
41
1
10
22.6572500000069
20
11.7463549448057
30
0
0
SPLINE
5
207
100
AcDbEntity
8
1
62
256
6
ByLayer
370
18
48
1
60
0
100
AcDbSpline
70
4
71
3
72
11
73
7
40
0
40
0
40
0
40
0
40
0.130632392229574
40
0.415548682631218
40
0.843413418810532
40
1
40
1
40
1
40
1
41
1
10
22.5550007247028
20
48.2919300405605
30
0
41
1
10
22.5552194449836
20
48.2869735895815
30
0
41
1
10
22.5579951254502
20
48.2695849031443
30
0
41
1
10
22.5802497256452
20
48.2201944449455
30
0
41
1
10
22.618700276632
20
48.1601189387495
30
0
41
1
10
22.6487618926944
20
48.1187907830027
30
0
41
1
10
22.6572499999999
20
48.1075258373112
30
0
0
SPLINE
5
208
100
AcDbEntity
8
1
62
256
6
ByLayer
370
18
48
1
60
0
100
AcDbSpline
70
4
71
3
72
12
73
8
40
0
40
0
40
0
40
0
40
0.0863725590983236
40
0.303358927795932
40
0.5099645679571
40
0.799707243581989
40
1
40
1
40
1
40
1
41
1
10
0.445278458905951
20
37.6702630966248
30
0
41
1
10
0.445287657563224
20
37.6714647988305
30
0
41
1
10
0.444203017734129
20
37.6745083969406
30
0
41
1
10
0.435322148420999
20
37.6725194142515
30
0
41
1
10
0.411282639669686
20
37.6565893396415
30
0
41
1
10
0.378863331064783
20
37.6299622522836
30
0
41
1
10
0.354028170357656
20
37.6078564197718
30
0
41
1
10
0.343278579257444
20
37.5979894630793
30
0
0
SPLINE
5
209
100
AcDbEntity
8
1
62
256
6
ByLayer
370
18
48
1
60
0
100
AcDbSpline
70
4
71
3
72
11
73
7
40
0
40
0
40
0
40
0
40
0.180613765251931
40
0.441979396983957
40
0.806700329248858
40
1
40
1
40
1
40
1
41
1
10
0.445278578813398
20
-37.6703005135421
30
0
41
1
10
0.444985691373177
20
-37.6672193672768
30
0
41
1
10
0.441242362226422
20
-37.6569616251937
30
0
41
1
10
0.418212470840448
20
-37.6231290260935
30
0
41
1
10
0.381889477486395
20
-37.5785267527128
30
0
41
1
10
0.353676244905988
20
-37.5461542784171
30
0
41
1
10
0.34327857925707
20
-37.5345007125654
30
0
0
SPLINE
5
20A
100
AcDbEntity
8
1
62
256
6
ByLayer
370
18
48
1
60
0
100
AcDbSpline
70
4
71
3
72
12
73
8
40
0
40
0
40
0
40
0
40
0.17182038550636
40
0.389124108028731
40
0.591678114719549
40
0.87362273935013
40
1
40
1
40
1
40
1
41
1
10
22.5550003123253
20
11.1625745225807
30
0
41
1
10
22.5549459519188
20
11.1584140578766
30
0
41
1
10
22.5575660854965
20
11.1520543491583
30
0
41
1
10
22.5716456443644
20
11.1528452124043
30
0
41
1
10
22.598948282838
20
11.1674753899351
30
0
41
1
10
22.6292893034145
20
11.1902482659474
30
0
41
1
10
22.6504908933407
20
11.2080944526623
30
0
41
1
10
22.6572500000108
20
11.2139878841805
30
0
0
SPLINE
5
20B
100
AcDbEntity
8
1
62
256
6
ByLayer
370
18
48
1
60
0
100
AcDbSpline
70
4
71
3
72
11
73
7
40
0
40
0
40
0
40
0
40
0.143406160135602
40
0.416179409660957
40
0.813457131819978
40
1
40
1
40
1
40
1
41
1
10
22.5550000751142
20
48.8374837408245
30
0
41
1
10
22.5552187348146
20
48.8332559112073
30
0
41
1
10
22.5581584212442
20
48.8190743086719
30
0
41
1
10
22.5798648716347
20
48.7772067985676
30
0
41
1
10
22.6174276022265
20
48.7232747229728
30
0
41
1
10
22.647143977536
20
48.685075854437
30
0
41
1
10
22.6572499999998
20
48.6725412982299
30
0
0
SPLINE
5
20C
100
AcDbEntity
8
1
62
256
6
ByLayer
370
18
48
1
60
0
100
AcDbSpline
70
4
71
3
72
11
73
7
40
0
40
0
40
0
40
0
40
0.232014331693128
40
0.457514177668039
40
0.780809079873133
40
1
40
1
40
1
40
1
41
1
10
0.444445065976529
20
37.9101703996065
30
0
41
1
10
0.442657522704868
20
37.9107353384911
30
0
41
1
10
0.435905833730407
20
37.9082941704686
30
0
41
1
10
0.411938379054462
20
37.8907593146737
30
0
41
1
10
0.379347871075472
20
37.8627579896964
30
0
41
1
10
0.354094393719163
20
37.8397079268285
30
0
41
1
10
0.343278579257458
20
37.8296022199376
30
0
0
SPLINE
5
20D
100
AcDbEntity
8
1
62
256
6
ByLayer
370
18
48
1
60
0
100
AcDbSpline
70
4
71
3
72
12
73
8
40
0
40
0
40
0
40
0
40
0.0105615316562666
40
0.201802387027746
40
0.463055721709618
40
0.824551918691044
40
1
40
1
40
1
40
1
41
1
10
0.445278562967608
20
-37.908453744138
30
0
41
1
10
0.4452779429256
20
-37.9083313324781
30
0
41
1
10
0.445166772089238
20
-37.905896358247
30
0
41
1
10
0.440054599794763
20
-37.8954607375747
30
0
41
1
10
0.415993114774749
20
-37.8631791298042
30
0
41
1
10
0.379909834591297
20
-37.8210167874894
30
0
41
1
10
0.352677012465545
20
-37.7907910617129
30
0
41
1
10
0.343278579256607
20
-37.7805340259864
30
0
0
SPLINE
5
20E
100
AcDbEntity
8
1
62
256
6
ByLayer
370
18
48
1
60
0
100
AcDbSpline
70
4
71
3
72
12
73
8
40
0
40
0
40
0
40
0
40
0.093775004352073
40
0.315079293964364
40
0.520086113400834
40
0.799364997268566
40
1
40
1
40
1
40
1
41
1
10
22.5550002418615
20
10.749024448624
30
0
41
1
10
22.5549807231182
20
10.747339669448
30
0
41
1
10
22.5561666734407
20
10.7430179539045
30
0
41
1
10
22.5654704509602
20
10.743281847733
30
0
41
1
10
22.5897754118507
20
10.7573480687048
30
0
41
1
10
22.6219870587054
20
10.7823613321357
30
0
41
1
10
22.6464362809834
20
10.8034774817195
30
0
41
1
10
22.65725
20
10.8132091106755
30
0
0
SPLINE
5
20F
100
AcDbEntity
8
1
62
256
6
ByLayer
370
18
48
1
60
0
100
AcDbSpline
70
4
71
3
72
11
73
7
40
0
40
0
40
0
40
0
40
0.151510210552017
40
0.41184709287587
40
0.780628591293155
40
1
40
1
40
1
40
1
41
1
10
22.5550000301275
20
49.2510233429179
30
0
41
1
10
22.5552132917129
20
49.2477351167947
30
0
41
1
10
22.5582266510576
20
49.2366590343581
30
0
41
1
10
22.5790173271306
20
49.2017481251855
30
0
41
1
10
22.6157624875805
20
49.1531383553434
30
0
41
1
10
22.6453642870787
20
49.1174078722661
30
0
41
1
10
22.6572499999998
20
49.1035364558304
30
0
0
SPLINE
5
210
100
AcDbEntity
8
1
62
256
6
ByLayer
370
18
48
1
60
0
100
AcDbSpline
70
4
71
3
72
11
73
7
40
0
40
0
40
0
40
0
40
0.235810647288348
40
0.473302952375466
40
0.832199452706625
40
1
40
1
40
1
40
1
41
1
10
0.443665158532629
20
38.0870007104598
30
0
41
1
10
0.441263774460806
20
38.0862373841979
30
0
41
1
10
0.433445463748788
20
38.0814597803953
30
0
41
1
10
0.407393209513945
20
38.0599737779962
30
0
41
1
10
0.375201049744443
20
38.0307539332173
30
0
41
1
10
0.351230157555393
20
38.0082079027497
30
0
41
1
10
0.343278579251027
20
38.0006420547239
30
0
0
SPLINE
5
211
100
AcDbEntity
8
1
62
256
6
ByLayer
370
18
48
1
60
0
100
AcDbSpline
70
4
71
3
72
12
73
8
40
0
40
0
40
0
40
0
40
0.0942998054340026
40
0.290954265641431
40
0.574805148801211
40
0.969919486189316
40
1
40
1
40
1
40
1
41
1
10
0.44527850317133
20
-38.0860918873191
30
0
41
1
10
0.445235504972758
20
-38.0852752575058
30
0
41
1
10
0.443915957239315
20
-38.0816090134175
30
0
41
1
10
0.43314397925592
20
-38.0663203585154
30
0
41
1
10
0.401997368920357
20
-38.0293804077561
30
0
41
1
10
0.367137736316002
20
-37.9912116950981
30
0
41
1
10
0.344866439280148
20
-37.9674485842086
30
0
41
1
10
0.343278579257494
20
-37.9657577144987
30
0
0
SPLINE
5
212
100
AcDbEntity
8
1
62
256
6
ByLayer
370
18
48
1
60
0
100
AcDbSpline
70
4
71
3
72
12
73
8
40
0
40
0
40
0
40
0
40
0.0805814427706069
40
0.294856636486399
40
0.501424598236021
40
0.795507813486158
40
1
40
1
40
1
40
1
41
1
10
22.5550000745878
20
10.4589701127379
30
0
41
1
10
22.5549949095866
20
10.4580019437966
30
0
41
1
10
22.5559979099482
20
10.4555340801189
30
0
41
1
10
22.564538790173
20
10.458258422437
30
0
41
1
10
22.5883226524163
20
10.475099493875
30
0
41
1
10
22.6209837206085
20
10.5027662164135
30
0
41
1
10
22.6462517114639
20
10.5256600493063
30
0
41
1
10
22.65725
20
10.5358884599002
30
0
0
SPLINE
5
213
100
AcDbEntity
8
1
62
256
6
ByLayer
370
18
48
1
60
0
100
AcDbSpline
70
4
71
3
72
12
73
8
40
0
40
0
40
0
40
0
40
0.0040678379005607
40
0.193259184993743
40
0.453930994611812
40
0.816503936930129
40
1
40
1
40
1
40
1
41
1
10
22.555000003065
20
49.5410513391963
30
0
41
1
10
22.5550001023458
20
49.540998898705
30
0
41
1
10
22.5550419080868
20
49.5384715788754
30
0
41
1
10
22.5597633662107
20
49.5278958526445
30
0
41
1
10
22.583394766297
20
49.4949534400491
30
0
41
1
10
22.6196817999296
20
49.4515850423524
30
0
41
1
10
22.6473850751896
20
49.4203496943217
30
0
41
1
10
22.6572500000008
20
49.4094413032536
30
0
0
SPLINE
5
214
100
AcDbEntity
8
1
62
256
6
ByLayer
370
18
48
1
60
0
100
AcDbSpline
70
4
71
3
72
11
73
7
40
0
40
0
40
0
40
0
40
0.229281345374112
40
0.465108174010718
40
0.826541206656581
40
1
40
1
40
1
40
1
41
1
10
0.443947694270772
20
38.2041098045279
30
0
41
1
10
0.441756516426584
20
38.2028886729675
30
0
41
1
10
0.43434728324032
20
38.1972999753571
30
0
41
1
10
0.408763078723744
20
38.1744671568517
30
0
41
1
10
0.376199340227686
20
38.1437225064632
30
0
41
1
10
0.351607806426159
20
38.1200117357852
30
0
41
1
10
0.34327857925139
20
38.111924499087
30
0
0
SPLINE
5
215
100
AcDbEntity
8
1
62
256
6
ByLayer
370
18
48
1
60
0
100
AcDbSpline
70
4
71
3
72
11
73
7
40
0
40
0
40
0
40
0
40
0.231131739999587
40
0.466628672010464
40
0.825968942986475
40
1
40
1
40
1
40
1
41
1
10
22.5564203726923
20
10.2865948268164
30
0
41
1
10
22.5586795332705
20
10.2876058991113
30
0
41
1
10
22.5662175446125
20
10.29282337062
30
0
41
1
10
22.5919217263936
20
10.3150804359833
30
0
41
1
10
22.6244226066899
20
10.3453382686397
30
0
41
1
10
22.648908641859
20
10.3687455292278
30
0
41
1
10
22.6572500000071
20
10.3767909999407
30
0
0
SPLINE
5
216
100
AcDbEntity
8
1
62
256
6
ByLayer
370
18
48
1
60
0
100
AcDbSpline
70
4
71
3
72
12
73
8
40
0
40
0
40
0
40
0
40
0.101523682145547
40
0.298670259603632
40
0.579960061486459
40
0.971009684658972
40
1
40
1
40
1
40
1
41
1
10
22.5550000447584
20
49.7130031276509
30
0
41
1
10
22.5550467336755
20
49.7123126748356
30
0
41
1
10
22.5564921579327
20
49.7090003075641
30
0
41
1
10
22.5677196908972
20
49.6941913394474
30
0
41
1
10
22.5990473957854
20
49.6582641268285
30
0
41
1
10
22.6336795054049
20
49.6209690724057
30
0
41
1
10
22.6557177224434
20
49.5977282863562
30
0
41
1
10
22.65725
20
49.5961148774388
30
0
0
SPLINE
5
217
100
AcDbEntity
8
1
62
256
6
ByLayer
370
18
48
1
60
0
100
AcDbSpline
70
4
71
3
72
11
73
7
40
0
40
0
40
0
40
0
40
0.223188773033973
40
0.457469779324241
40
0.821822831474829
40
1
40
1
40
1
40
1
41
1
10
0.444195063660238
20
38.2622509317116
30
0
41
1
10
0.442202527456614
20
38.2605721056902
30
0
41
1
10
0.435186262502396
20
38.2541435275481
30
0
41
1
10
0.410040834784915
20
38.2298548320579
30
0
41
1
10
0.377130850975984
20
38.1974913377067
30
0
41
1
10
0.35194347105856
20
38.1725660506721
30
0
41
1
10
0.343278579252193
20
38.1639722968795
30
0
0
INSERT
5
230
100
AcDbEntity
8
2
62
256
6
ByLayer
370
25
48
1
60
0
100
AcDbBlockReference
2
DimnDraft3D22
10
0
20
0
30
0
41
1
42
1
43
1
50
0
210
0
220
0
230
1
0
INSERT
5
25B
100
AcDbEntity
8
SK2
62
256
6
ByLayer
370
25
48
1
60
0
100
AcDbBlockReference
2
DimnDraft3D66
10
0
20
0
30
0
41
1
42
1
43
1
50
0
210
0
220
0
230
1
0
LINE
5
70
100
AcDbEntity
8
81
62
256
6
ByLayer
370
18
48
1
60
0
100
AcDbLine
10
23
20
30
30
0
11
25.3
21
30
31
0
39
0
210
0
220
0
230
1
0
LINE
5
71
100
AcDbEntity
8
4
62
256
6
ByLayer
370
18
48
0.05
60
0
100
AcDbLine
10
0
20
0
30
0
11
23
21
0
31
0
39
0
210
0
220
0
230
1
0
LINE
5
73
100
AcDbEntity
8
SK4
62
256
6
ByLayer
370
18
48
0.05
60
0
100
AcDbLine
10
-5
20
0
30
0
11
28
21
0
31
0
39
0
210
0
220
0
230
1
0
LINE
5
75
100
AcDbEntity
8
80
62
256
6
ByLayer
370
18
48
1
60
0
100
AcDbLine
10
0
20
0
30
0
11
-2.3
21
0
31
0
39
0
210
0
220
0
230
1
0
LINE
5
76
100
AcDbEntity
8
1
62
256
6
ByLayer
370
18
48
1
60
0
100
AcDbLine
10
6.275
20
42.8
30
0
11
6.075
21
43
31
0
39
0
210
0
220
0
230
1
0
LINE
5
78
100
AcDbEntity
8
1
62
256
6
ByLayer
370
18
48
1
60
0
100
AcDbLine
10
1.875
20
43
30
0
11
1.475
21
42.6
31
0
39
0
210
0
220
0
230
1
0
LINE
5
79
100
AcDbEntity
8
1
62
256
6
ByLayer
370
18
48
1
60
0
100
AcDbLine
10
1.475
20
42.6
30
0
11
1.475
21
38.448451
31
0
39
0
210
0
220
0
230
1
0
LINE
5
7A
100
AcDbEntity
8
1
62
256
6
ByLayer
370
18
48
1
60
0
100
AcDbLine
10
6.471873
20
38.448253
30
0
11
6.471873
21
42.6
31
0
39
0
210
0
220
0
230
1
0
LINE
5
7B
100
AcDbEntity
8
1
62
256
6
ByLayer
370
18
48
1
60
0
100
AcDbLine
10
6.275
20
42.8
30
0
11
6.525
21
42.55
31
0
39
0
210
0
220
0
230
1
0
LINE
5
7C
100
AcDbEntity
8
1
62
256
6
ByLayer
370
18
48
1
60
0
100
AcDbLine
10
6.525
20
42.55
30
0
11
6.525
21
38.451598
31
0
39
0
210
0
220
0
230
1
0
LINE
5
7D
100
AcDbEntity
8
1
62
256
6
ByLayer
370
18
48
1
60
0
100
AcDbLine
10
6.275
20
42.796606
30
0
11
6.275
21
42.8
31
0
39
0
210
0
220
0
230
1
0
LINE
5
7E
100
AcDbEntity
8
SK1
62
256
6
ByLayer
370
18
48
1
60
0
100
AcDbLine
10
33.325
20
44.899495
30
0
11
27.325
21
44.899495
31
0
39
0
210
0
220
0
230
1
0
LINE
5
80
100
AcDbEntity
8
SK1
62
256
6
ByLayer
370
18
48
1
60
0
100
AcDbLine
10
27.325
20
34.899495
30
0
11
33.325
21
34.899495
31
0
39
0
210
0
220
0
230
1
0
LINE
5
81
100
AcDbEntity
8
SK1
62
256
6
ByLayer
370
18
48
1
60
0
100
AcDbLine
10
27.325
20
42.899495
30
0
11
23.325
21
42.899495
31
0
39
0
210
0
220
0
230
1
0
LINE
5
82
100
AcDbEntity
8
SK1
62
256
6
ByLayer
370
18
48
1
60
0
100
AcDbLine
10
23.325
20
36.899495
30
0
11
27.325
21
36.899495
31
0
39
0
210
0
220
0
230
1
0
LINE
5
83
100
AcDbEntity
8
1
62
256
6
ByLayer
370
18
48
1
60
0
100
AcDbLine
10
15.675
20
42.749495
30
0
11
15.325
21
42.399495
31
0
39
0
210
0
220
0
230
1
0
LINE
5
84
100
AcDbEntity
8
1
62
256
6
ByLayer
370
18
48
1
60
0
100
AcDbLine
10
15.325
20
37.399495
30
0
11
15.675
21
37.049495
31
0
39
0
210
0
220
0
230
1
0
LINE
5
85
100
AcDbEntity
8
SK1
62
256
6
ByLayer
370
18
48
1
60
0
100
AcDbLine
10
33.325
20
25.100505
30
0
11
27.325
21
25.100505
31
0
39
0
210
0
220
0
230
1
0
LINE
5
86
100
AcDbEntity
8
SK1
62
256
6
ByLayer
370
18
48
1
60
0
100
AcDbLine
10
27.325
20
15.100505
30
0
11
33.325
21
15.100505
31
0
39
0
210
0
220
0
230
1
0
LINE
5
87
100
AcDbEntity
8
1
62
256
6
ByLayer
370
18
48
1
60
0
100
AcDbLine
10
15.675
20
22.950505
30
0
11
15.325
21
22.600505
31
0
39
0
210
0
220
0
230
1
0
LINE
5
88
100
AcDbEntity
8
1
62
256
6
ByLayer
370
18
48
1
60
0
100
AcDbLine
10
15.325
20
17.600505
30
0
11
15.675
21
17.250505
31
0
39
0
210
0
220
0
230
1
0
LINE
5
89
100
AcDbEntity
8
SK1
62
256
6
ByLayer
370
18
48
1
60
0
100
AcDbLine
10
27.325
20
23.100505
30
0
11
23.325
21
23.100505
31
0
39
0
210
0
220
0
230
1
0
LINE
5
8A
100
AcDbEntity
8
SK1
62
256
6
ByLayer
370
18
48
1
60
0
100
AcDbLine
10
23.325
20
17.100505
30
0
11
27.325
21
17.100505
31
0
39
0
210
0
220
0
230
1
0
LINE
5
8B
100
AcDbEntity
8
1
62
256
6
ByLayer
370
18
48
1
60
0
100
AcDbLine
10
22.325
20
10
30
0
11
22.556678
21
10.231678
31
0
39
0
210
0
220
0
230
1
0
LINE
5
8C
100
AcDbEntity
8
1
62
256
6
ByLayer
370
18
48
1
60
0
100
AcDbLine
10
22.556678
20
49.768322
30
0
11
22.325
21
50
31
0
39
0
210
0
220
0
230
1
0
LINE
5
8D
100
AcDbEntity
8
1
62
256
6
ByLayer
370
18
48
1
60
0
100
AcDbLine
10
17.325
20
10
30
0
11
22.325
21
10
31
0
39
0
210
0
220
0
230
1
0
LINE
5
8E
100
AcDbEntity
8
1
62
256
6
ByLayer
370
18
48
1
60
0
100
AcDbLine
10
22.325
20
50
30
0
11
18.466803
21
50
31
0
39
0
210
0
220
0
230
1
0
LINE
5
8F
100
AcDbEntity
8
1
62
256
6
ByLayer
370
18
48
1
60
0
100
AcDbLine
10
14.675
20
12.040045
30
0
11
17.325
21
12.040045
31
0
39
0
210
0
220
0
230
1
0
LINE
5
90
100
AcDbEntity
8
1
62
256
6
ByLayer
370
18
48
1
60
0
100
AcDbLine
10
22.65725
20
33.66688
30
0
11
22.65725
21
26.33312
31
0
39
0
210
0
220
0
230
1
0
LINE
5
91
100
AcDbEntity
8
1
62
256
6
ByLayer
370
18
48
1
60
0
100
AcDbLine
10
23.325
20
31.541407
30
0
11
23.325
21
28.458593
31
0
39
0
210
0
220
0
230
1
0
LINE
5
92
100
AcDbEntity
8
1
62
256
6
ByLayer
370
18
48
1
60
0
100
AcDbLine
10
22.65725
20
38.316532
30
0
11
22.65725
21
37.510882
31
0
39
0
210
0
220
0
230
1
0
LINE
5
93
100
AcDbEntity
8
1
62
256
6
ByLayer
370
18
48
1
60
0
100
AcDbLine
10
22.65725
20
22.489118
30
0
11
22.65725
21
21.683468
31
0
39
0
210
0
220
0
230
1
0
LINE
5
94
100
AcDbEntity
8
1
62
256
6
ByLayer
370
18
48
1
60
0
100
AcDbLine
10
23.325
20
37.545731
30
0
11
23.325
21
34.053252
31
0
39
0
210
0
220
0
230
1
0
LINE
5
95
100
AcDbEntity
8
1
62
256
6
ByLayer
370
18
48
1
60
0
100
AcDbLine
10
23.325
20
25.946748
30
0
11
23.325
21
22.454269
31
0
39
0
210
0
220
0
230
1
0
LINE
5
96
100
AcDbEntity
8
1
62
256
6
ByLayer
370
18
48
1
60
0
100
AcDbLine
10
22.65725
20
40.971937
30
0
11
22.65725
21
40.425673
31
0
39
0
210
0
220
0
230
1
0
LINE
5
97
100
AcDbEntity
8
1
62
256
6
ByLayer
370
18
48
1
60
0
100
AcDbLine
10
22.65725
20
19.574327
30
0
11
22.65725
21
19.028063
31
0
39
0
210
0
220
0
230
1
0
LINE
5
98
100
AcDbEntity
8
1
62
256
6
ByLayer
370
18
48
1
60
0
100
AcDbLine
10
0.675
20
38.5
30
0
11
-0.325
21
37.5
31
0
39
0
210
0
220
0
230
1
0
LINE
5
99
100
AcDbEntity
8
1
62
256
6
ByLayer
370
18
48
1
60
0
100
AcDbLine
10
0.735383
20
38.5
30
0
11
0.675
21
38.5
31
0
39
0
210
0
220
0
230
1
0
LINE
5
9A
100
AcDbEntity
8
1
62
256
6
ByLayer
370
18
48
1
60
0
100
AcDbLine
10
5.674995
20
34.785054
30
0
11
0.675
21
34.785054
31
0
39
0
210
0
220
0
230
1
0
LINE
5
9B
100
AcDbEntity
8
1
62
256
6
ByLayer
370
18
48
1
60
0
100
AcDbLine
10
0.190104
20
-34.477015
30
0
11
0.190104
21
34.477015
31
0
39
0
210
0
220
0
230
1
0
LINE
5
9C
100
AcDbEntity
8
1
62
256
6
ByLayer
370
18
48
1
60
0
100
AcDbLine
10
0.675
20
-34.785054
30
0
11
0.675
21
34.785054
31
0
39
0
210
0
220
0
230
1
0
LINE
5
9D
100
AcDbEntity
8
1
62
256
6
ByLayer
370
18
48
1
60
0
100
AcDbLine
10
7.275
20
-38.5
30
0
11
14.325
21
-38.5
31
0
39
0
210
0
220
0
230
1
0
LINE
5
9E
100
AcDbEntity
8
1
62
256
6
ByLayer
370
18
48
1
60
0
100
AcDbLine
10
0.675
20
-38.382939
30
0
11
7.275
21
-38.382939
31
0
39
0
210
0
220
0
230
1
0
LINE
5
9F
100
AcDbEntity
8
1
62
256
6
ByLayer
370
18
48
1
60
0
100
AcDbLine
10
5.674995
20
-34.785054
30
0
11
0.675
21
-34.785054
31
0
39
0
210
0
220
0
230
1
0
LINE
5
A0
100
AcDbEntity
8
1
62
256
6
ByLayer
370
18
48
1
60
0
100
AcDbLine
10
14.325
20
-37.480795
30
0
11
7.675
21
-37.480795
31
0
39
0
210
0
220
0
230
1
0
LINE
5
A1
100
AcDbEntity
8
1
62
256
6
ByLayer
370
18
48
1
60
0
100
AcDbLine
10
5.674995
20
-34.785054
30
0
11
5.674995
21
34.785054
31
0
39
0
210
0
220
0
230
1
0
LINE
5
A2
100
AcDbEntity
8
1
62
256
6
ByLayer
370
18
48
1
60
0
100
AcDbLine
10
6.675
20
-35.242022
30
0
11
6.675
21
35.242022
31
0
39
0
210
0
220
0
230
1
0
LINE
5
A3
100
AcDbEntity
8
1
62
256
6
ByLayer
370
18
48
1
60
0
100
AcDbLine
10
23.325
20
40.344089
30
0
11
23.325
21
38.358632
31
0
39
0
210
0
220
0
230
1
0
LINE
5
A4
100
AcDbEntity
8
1
62
256
6
ByLayer
370
18
48
1
60
0
100
AcDbLine
10
23.325
20
21.641368
30
0
11
23.325
21
19.655911
31
0
39
0
210
0
220
0
230
1
0
LINE
5
A5
100
AcDbEntity
8
1
62
256
6
ByLayer
370
18
48
1
60
0
100
AcDbLine
10
0.343279
20
-34.846648
30
0
11
0.343279
21
-34.686578
31
0
39
0
210
0
220
0
230
1
0
LINE
5
A6
100
AcDbEntity
8
1
62
256
6
ByLayer
370
18
48
1
60
0
100
AcDbLine
10
0.343279
20
34.686578
30
0
11
0.343279
21
34.846648
31
0
39
0
210
0
220
0
230
1
0
LINE
5
A7
100
AcDbEntity
8
1
62
256
6
ByLayer
370
18
48
1
60
0
100
AcDbLine
10
-0.325
20
-34.286876
30
0
11
-0.325
21
34.286876
31
0
39
0
210
0
220
0
230
1
0
LINE
5
A8
100
AcDbEntity
8
1
62
256
6
ByLayer
370
18
48
1
60
0
100
AcDbLine
10
22.65725
20
42.926797
30
0
11
22.65725
21
42.509035
31
0
39
0
210
0
220
0
230
1
0
LINE
5
A9
100
AcDbEntity
8
1
62
256
6
ByLayer
370
18
48
1
60
0
100
AcDbLine
10
22.65725
20
17.490965
30
0
11
22.65725
21
17.073203
31
0
39
0
210
0
220
0
230
1
0
LINE
5
AA
100
AcDbEntity
8
1
62
256
6
ByLayer
370
18
48
1
60
0
100
AcDbLine
10
23.325
20
42.351611
30
0
11
23.325
21
40.899753
31
0
39
0
210
0
220
0
230
1
0
LINE
5
AB
100
AcDbEntity
8
1
62
256
6
ByLayer
370
18
48
1
60
0
100
AcDbLine
10
23.325
20
19.100247
30
0
11
23.325
21
17.648389
31
0
39
0
210
0
220
0
230
1
0
LINE
5
AC
100
AcDbEntity
8
1
62
256
6
ByLayer
370
18
48
1
60
0
100
AcDbLine
10
0.343279
20
-35.478992
30
0
11
0.343279
21
-35.33679
31
0
39
0
210
0
220
0
230
1
0
LINE
5
AD
100
AcDbEntity
8
1
62
256
6
ByLayer
370
18
48
1
60
0
100
AcDbLine
10
0.343279
20
35.33679
30
0
11
0.343279
21
35.478992
31
0
39
0
210
0
220
0
230
1
0
LINE
5
AE
100
AcDbEntity
8
1
62
256
6
ByLayer
370
18
48
1
60
0
100
AcDbLine
10
-0.325
20
-34.912782
30
0
11
-0.325
21
-34.450542
31
0
39
0
210
0
220
0
230
1
0
LINE
5
AF
100
AcDbEntity
8
1
62
256
6
ByLayer
370
18
48
1
60
0
100
AcDbLine
10
-0.325
20
34.450542
30
0
11
-0.325
21
34.912782
31
0
39
0
210
0
220
0
230
1
0
LINE
5
B0
100
AcDbEntity
8
1
62
256
6
ByLayer
370
18
48
1
60
0
100
AcDbLine
10
22.65725
20
44.467923
30
0
11
22.65725
21
44.133551
31
0
39
0
210
0
220
0
230
1
0
LINE
5
B1
100
AcDbEntity
8
1
62
256
6
ByLayer
370
18
48
1
60
0
100
AcDbLine
10
22.65725
20
15.866449
30
0
11
22.65725
21
15.532077
31
0
39
0
210
0
220
0
230
1
0
LINE
5
B2
100
AcDbEntity
8
1
62
256
6
ByLayer
370
18
48
1
60
0
100
AcDbLine
10
23.325
20
17.223361
30
0
11
23.325
21
16.085101
31
0
39
0
210
0
220
0
230
1
0
LINE
5
B3
100
AcDbEntity
8
1
62
256
6
ByLayer
370
18
48
1
60
0
100
AcDbLine
10
23.325
20
43.914899
30
0
11
23.325
21
42.776639
31
0
39
0
210
0
220
0
230
1
0
LINE
5
B4
100
AcDbEntity
8
1
62
256
6
ByLayer
370
18
48
1
60
0
100
AcDbLine
10
0.343279
20
-36.037881
30
0
11
0.343279
21
-35.912654
31
0
39
0
210
0
220
0
230
1
0
LINE
5
B5
100
AcDbEntity
8
1
62
256
6
ByLayer
370
18
48
1
60
0
100
AcDbLine
10
0.343279
20
35.912654
30
0
11
0.343279
21
36.037881
31
0
39
0
210
0
220
0
230
1
0
LINE
5
B6
100
AcDbEntity
8
1
62
256
6
ByLayer
370
18
48
1
60
0
100
AcDbLine
10
-0.325
20
-35.464276
30
0
11
-0.325
21
-35.057486
31
0
39
0
210
0
220
0
230
1
0
LINE
5
B7
100
AcDbEntity
8
1
62
256
6
ByLayer
370
18
48
1
60
0
100
AcDbLine
10
-0.325
20
35.057486
30
0
11
-0.325
21
35.464276
31
0
39
0
210
0
220
0
230
1
0
LINE
5
B8
100
AcDbEntity
8
1
62
256
6
ByLayer
370
18
48
1
60
0
100
AcDbLine
10
11.325
20
42.144737
30
0
11
14.675
21
42.144737
31
0
39
0
210
0
220
0
230
1
0
LINE
5
B9
100
AcDbEntity
8
1
62
256
6
ByLayer
370
18
48
1
60
0
100
AcDbLine
10
14.675
20
37.654253
30
0
11
11.325
21
37.654253
31
0
39
0
210
0
220
0
230
1
0
LINE
5
BA
100
AcDbEntity
8
1
62
256
6
ByLayer
370
18
48
1
60
0
100
AcDbLine
10
11.325
20
22.345747
30
0
11
14.675
21
22.345747
31
0
39
0
210
0
220
0
230
1
0
LINE
5
BB
100
AcDbEntity
8
1
62
256
6
ByLayer
370
18
48
1
60
0
100
AcDbLine
10
14.675
20
17.855263
30
0
11
11.325
21
17.855263
31
0
39
0
210
0
220
0
230
1
0
LINE
5
BC
100
AcDbEntity
8
1
62
256
6
ByLayer
370
18
48
1
60
0
100
AcDbLine
10
22.65725
20
14.555306
30
0
11
22.65725
21
14.28251
31
0
39
0
210
0
220
0
230
1
0
LINE
5
BD
100
AcDbEntity
8
1
62
256
6
ByLayer
370
18
48
1
60
0
100
AcDbLine
10
22.65725
20
45.71749
30
0
11
22.65725
21
45.444694
31
0
39
0
210
0
220
0
230
1
0
LINE
5
BE
100
AcDbEntity
8
1
62
256
6
ByLayer
370
18
48
1
60
0
100
AcDbLine
10
23.325
20
15.745864
30
0
11
23.325
21
14.828101
31
0
39
0
210
0
220
0
230
1
0
LINE
5
BF
100
AcDbEntity
8
1
62
256
6
ByLayer
370
18
48
1
60
0
100
AcDbLine
10
23.325
20
45.171899
30
0
11
23.325
21
44.254136
31
0
39
0
210
0
220
0
230
1
0
LINE
5
C0
100
AcDbEntity
8
1
62
256
6
ByLayer
370
18
48
1
60
0
100
AcDbLine
10
0.343279
20
-36.526687
30
0
11
0.343279
21
-36.417698
31
0
39
0
210
0
220
0
230
1
0
LINE
5
C1
100
AcDbEntity
8
1
62
256
6
ByLayer
370
18
48
1
60
0
100
AcDbLine
10
0.343279
20
36.417698
30
0
11
0.343279
21
36.526687
31
0
39
0
210
0
220
0
230
1
0
LINE
5
C2
100
AcDbEntity
8
1
62
256
6
ByLayer
370
18
48
1
60
0
100
AcDbLine
10
-0.325
20
-35.944782
30
0
11
-0.325
21
-35.590938
31
0
39
0
210
0
220
0
230
1
0
LINE
5
C3
100
AcDbEntity
8
1
62
256
6
ByLayer
370
18
48
1
60
0
100
AcDbLine
10
-0.325
20
35.590938
30
0
11
-0.325
21
35.944782
31
0
39
0
210
0
220
0
230
1
0
LINE
5
C4
100
AcDbEntity
8
1
62
256
6
ByLayer
370
18
48
1
60
0
100
AcDbLine
10
22.65725
20
13.48274
30
0
11
22.65725
21
13.259087
31
0
39
0
210
0
220
0
230
1
0
LINE
5
C5
100
AcDbEntity
8
1
62
256
6
ByLayer
370
18
48
1
60
0
100
AcDbLine
10
22.65725
20
46.740913
30
0
11
22.65725
21
46.51726
31
0
39
0
210
0
220
0
230
1
0
LINE
5
C6
100
AcDbEntity
8
1
62
256
6
ByLayer
370
18
48
1
60
0
100
AcDbLine
10
23.325
20
14.552726
30
0
11
23.325
21
13.805907
31
0
39
0
210
0
220
0
230
1
0
LINE
5
C7
100
AcDbEntity
8
1
62
256
6
ByLayer
370
18
48
1
60
0
100
AcDbLine
10
23.325
20
46.194093
30
0
11
23.325
21
45.447274
31
0
39
0
210
0
220
0
230
1
0
LINE
5
C8
100
AcDbEntity
8
1
62
256
6
ByLayer
370
18
48
1
60
0
100
AcDbLine
10
0.343279
20
-36.948191
30
0
11
0.343279
21
-36.854833
31
0
39
0
210
0
220
0
230
1
0
LINE
5
C9
100
AcDbEntity
8
1
62
256
6
ByLayer
370
18
48
1
60
0
100
AcDbLine
10
0.343279
20
36.854833
30
0
11
0.343279
21
36.948191
31
0
39
0
210
0
220
0
230
1
0
LINE
5
CA
100
AcDbEntity
8
1
62
256
6
ByLayer
370
18
48
1
60
0
100
AcDbLine
10
14.675
20
12.040045
30
0
11
14.675
21
17.855263
31
0
39
0
210
0
220
0
230
1
0
LINE
5
CB
100
AcDbEntity
8
1
62
256
6
ByLayer
370
18
48
1
60
0
100
AcDbLine
10
14.675
20
42.144737
30
0
11
14.675
21
47.142671
31
0
39
0
210
0
220
0
230
1
0
LINE
5
CC
100
AcDbEntity
8
1
62
256
6
ByLayer
370
18
48
1
60
0
100
AcDbLine
10
14.675
20
22.345747
30
0
11
14.675
21
37.654253
31
0
39
0
210
0
220
0
230
1
0
LINE
5
CD
100
AcDbEntity
8
1
62
256
6
ByLayer
370
18
48
1
60
0
100
AcDbLine
10
7.675
20
37.869788
30
0
11
7.675
21
-37.480795
31
0
39
0
210
0
220
0
230
1
0
LINE
5
CE
100
AcDbEntity
8
1
62
256
6
ByLayer
370
18
48
1
60
0
100
AcDbLine
10
-0.325
20
-36.357115
30
0
11
-0.325
21
-36.054158
31
0
39
0
210
0
220
0
230
1
0
LINE
5
CF
100
AcDbEntity
8
1
62
256
6
ByLayer
370
18
48
1
60
0
100
AcDbLine
10
-0.325
20
36.054158
30
0
11
-0.325
21
36.357115
31
0
39
0
210
0
220
0
230
1
0
LINE
5
D0
100
AcDbEntity
8
1
62
256
6
ByLayer
370
18
48
1
60
0
100
AcDbLine
10
22.65725
20
12.604564
30
0
11
22.65725
21
12.422262
31
0
39
0
210
0
220
0
230
1
0
LINE
5
D1
100
AcDbEntity
8
1
62
256
6
ByLayer
370
18
48
1
60
0
100
AcDbLine
10
22.65725
20
47.577738
30
0
11
22.65725
21
47.395436
31
0
39
0
210
0
220
0
230
1
0
LINE
5
D2
100
AcDbEntity
8
1
62
256
6
ByLayer
370
18
48
1
60
0
100
AcDbLine
10
23.325
20
47.023829
30
0
11
23.325
21
46.418165
31
0
39
0
210
0
220
0
230
1
0
LINE
5
D3
100
AcDbEntity
8
1
62
256
6
ByLayer
370
18
48
1
60
0
100
AcDbLine
10
23.325
20
13.581835
30
0
11
23.325
21
12.976171
31
0
39
0
210
0
220
0
230
1
0
LINE
5
D4
100
AcDbEntity
8
1
62
256
6
ByLayer
370
18
48
1
60
0
100
AcDbLine
10
8
20
42.112698
30
0
11
8
21
38.712401
31
0
39
0
210
0
220
0
230
1
0
LINE
5
D5
100
AcDbEntity
8
1
62
256
6
ByLayer
370
18
48
1
60
0
100
AcDbLine
10
14.325
20
8.750059
30
0
11
14.325
21
-37.480795
31
0
39
0
210
0
220
0
230
1
0
LINE
5
D6
100
AcDbEntity
8
1
62
256
6
ByLayer
370
18
48
1
60
0
100
AcDbLine
10
8
20
42.112698
30
0
11
14.675
21
47.142671
31
0
39
0
210
0
220
0
230
1
0
LINE
5
D7
100
AcDbEntity
8
1
62
256
6
ByLayer
370
18
48
1
60
0
100
AcDbLine
10
0.343279
20
-37.304676
30
0
11
0.343279
21
-37.226452
31
0
39
0
210
0
220
0
230
1
0
LINE
5
D8
100
AcDbEntity
8
1
62
256
6
ByLayer
370
18
48
1
60
0
100
AcDbLine
10
0.343279
20
37.226452
30
0
11
0.343279
21
37.304676
31
0
39
0
210
0
220
0
230
1
0
LINE
5
D9
100
AcDbEntity
8
1
62
256
6
ByLayer
370
18
48
1
60
0
100
AcDbLine
10
-0.325
20
-36.703574
30
0
11
-0.325
21
-36.449826
31
0
39
0
210
0
220
0
230
1
0
LINE
5
DA
100
AcDbEntity
8
1
62
256
6
ByLayer
370
18
48
1
60
0
100
AcDbLine
10
-0.325
20
36.449826
30
0
11
-0.325
21
36.703574
31
0
39
0
210
0
220
0
230
1
0
LINE
5
DB
100
AcDbEntity
8
1
62
256
6
ByLayer
370
18
48
1
60
0
100
AcDbLine
10
22.65725
20
11.892474
30
0
11
22.65725
21
11.746355
31
0
39
0
210
0
220
0
230
1
0
LINE
5
DC
100
AcDbEntity
8
1
62
256
6
ByLayer
370
18
48
1
60
0
100
AcDbLine
10
22.65725
20
48.253645
30
0
11
22.65725
21
48.107526
31
0
39
0
210
0
220
0
230
1
0
LINE
5
DD
100
AcDbEntity
8
1
62
256
6
ByLayer
370
18
48
1
60
0
100
AcDbLine
10
23.325
20
47.688213
30
0
11
23.325
21
47.204477
31
0
39
0
210
0
220
0
230
1
0
LINE
5
DE
100
AcDbEntity
8
1
62
256
6
ByLayer
370
18
48
1
60
0
100
AcDbLine
10
23.325
20
12.795523
30
0
11
23.325
21
12.311787
31
0
39
0
210
0
220
0
230
1
0
LINE
5
DF
100
AcDbEntity
8
1
62
256
6
ByLayer
370
18
48
1
60
0
100
AcDbLine
10
0.343279
20
-37.597989
30
0
11
0.343279
21
-37.534501
31
0
39
0
210
0
220
0
230
1
0
LINE
5
E0
100
AcDbEntity
8
1
62
256
6
ByLayer
370
18
48
1
60
0
100
AcDbLine
10
0.343279
20
37.534501
30
0
11
0.343279
21
37.597989
31
0
39
0
210
0
220
0
230
1
0
LINE
5
E1
100
AcDbEntity
8
1
62
256
6
ByLayer
370
18
48
1
60
0
100
AcDbLine
10
-0.325
20
-36.986009
30
0
11
-0.325
21
-36.780122
31
0
39
0
210
0
220
0
230
1
0
LINE
5
E2
100
AcDbEntity
8
1
62
256
6
ByLayer
370
18
48
1
60
0
100
AcDbLine
10
-0.325
20
36.780122
30
0
11
-0.325
21
36.986009
31
0
39
0
210
0
220
0
230
1
0
LINE
5
E3
100
AcDbEntity
8
1
62
256
6
ByLayer
370
18
48
1
60
0
100
AcDbLine
10
22.65725
20
48.786012
30
0
11
22.65725
21
48.672541
31
0
39
0
210
0
220
0
230
1
0
LINE
5
E4
100
AcDbEntity
8
1
62
256
6
ByLayer
370
18
48
1
60
0
100
AcDbLine
10
22.65725
20
11.327459
30
0
11
22.65725
21
11.213988
31
0
39
0
210
0
220
0
230
1
0
LINE
5
E5
100
AcDbEntity
8
1
62
256
6
ByLayer
370
18
48
1
60
0
100
AcDbLine
10
23.325
20
48.205356
30
0
11
23.325
21
47.830645
31
0
39
0
210
0
220
0
230
1
0
LINE
5
E6
100
AcDbEntity
8
1
62
256
6
ByLayer
370
18
48
1
60
0
100
AcDbLine
10
23.325
20
12.169355
30
0
11
23.325
21
11.794644
31
0
39
0
210
0
220
0
230
1
0
LINE
5
E7
100
AcDbEntity
8
1
62
256
6
ByLayer
370
18
48
1
60
0
100
AcDbLine
10
0.343279
20
37.780534
30
0
11
0.343279
21
37.829602
31
0
39
0
210
0
220
0
230
1
0
LINE
5
E8
100
AcDbEntity
8
1
62
256
6
ByLayer
370
18
48
1
60
0
100
AcDbLine
10
0.343279
20
-37.829602
30
0
11
0.343279
21
-37.780534
31
0
39
0
210
0
220
0
230
1
0
LINE
5
E9
100
AcDbEntity
8
1
62
256
6
ByLayer
370
18
48
1
60
0
100
AcDbLine
10
-0.325
20
37.046793
30
0
11
-0.325
21
37.205878
31
0
39
0
210
0
220
0
230
1
0
LINE
5
EA
100
AcDbEntity
8
1
62
256
6
ByLayer
370
18
48
1
60
0
100
AcDbLine
10
-0.325
20
-37.205878
30
0
11
-0.325
21
-37.046793
31
0
39
0
210
0
220
0
230
1
0
LINE
5
EB
100
AcDbEntity
8
1
62
256
6
ByLayer
370
18
48
1
60
0
100
AcDbLine
10
22.65725
20
10.896464
30
0
11
22.65725
21
10.813209
31
0
39
0
210
0
220
0
230
1
0
LINE
5
EC
100
AcDbEntity
8
1
62
256
6
ByLayer
370
18
48
1
60
0
100
AcDbLine
10
22.65725
20
49.186791
30
0
11
22.65725
21
49.103536
31
0
39
0
210
0
220
0
230
1
0
LINE
5
ED
100
AcDbEntity
8
1
62
256
6
ByLayer
370
18
48
1
60
0
100
AcDbLine
10
23.325
20
48.587552
30
0
11
23.325
21
48.313105
31
0
39
0
210
0
220
0
230
1
0
LINE
5
EE
100
AcDbEntity
8
1
62
256
6
ByLayer
370
18
48
1
60
0
100
AcDbLine
10
23.325
20
11.686895
30
0
11
23.325
21
11.412448
31
0
39
0
210
0
220
0
230
1
0
LINE
5
EF
100
AcDbEntity
8
1
62
256
6
ByLayer
370
18
48
1
60
0
100
AcDbLine
10
0.343279
20
37.965758
30
0
11
0.343279
21
38.000642
31
0
39
0
210
0
220
0
230
1
0
LINE
5
F0
100
AcDbEntity
8
1
62
256
6
ByLayer
370
18
48
1
60
0
100
AcDbLine
10
0.343279
20
-38.000642
30
0
11
0.343279
21
-37.965758
31
0
39
0
210
0
220
0
230
1
0
LINE
5
F1
100
AcDbEntity
8
1
62
256
6
ByLayer
370
18
48
1
60
0
100
AcDbLine
10
-0.325
20
37.251206
30
0
11
-0.325
21
37.364286
31
0
39
0
210
0
220
0
230
1
0
LINE
5
F2
100
AcDbEntity
8
1
62
256
6
ByLayer
370
18
48
1
60
0
100
AcDbLine
10
0.190104
20
-37.801977
30
0
11
0.190104
21
-37.855035
31
0
39
0
210
0
220
0
230
1
0
LINE
5
F3
100
AcDbEntity
8
1
62
256
6
ByLayer
370
18
48
1
60
0
100
AcDbLine
10
22.65725
20
10.590559
30
0
11
22.65725
21
10.535888
31
0
39
0
210
0
220
0
230
1
0
LINE
5
F4
100
AcDbEntity
8
1
62
256
6
ByLayer
370
18
48
1
60
0
100
AcDbLine
10
22.65725
20
49.464112
30
0
11
22.65725
21
49.409441
31
0
39
0
210
0
220
0
230
1
0
LINE
5
F5
100
AcDbEntity
8
1
62
256
6
ByLayer
370
18
48
1
60
0
100
AcDbLine
10
23.325
20
48.843015
30
0
11
23.325
21
48.663003
31
0
39
0
210
0
220
0
230
1
0
LINE
5
F6
100
AcDbEntity
8
1
62
256
6
ByLayer
370
18
48
1
60
0
100
AcDbLine
10
23.325
20
11.336997
30
0
11
23.325
21
11.156985
31
0
39
0
210
0
220
0
230
1
0
LINE
5
F7
100
AcDbEntity
8
1
62
256
6
ByLayer
370
18
48
1
60
0
100
AcDbLine
10
0.343279
20
38.091059
30
0
11
0.343279
21
38.111924
31
0
39
0
210
0
220
0
230
1
0
LINE
5
F8
100
AcDbEntity
8
1
62
256
6
ByLayer
370
18
48
1
60
0
100
AcDbLine
10
-0.325
20
37.394383
30
0
11
-0.325
21
37.462012
31
0
39
0
210
0
220
0
230
1
0
LINE
5
F9
100
AcDbEntity
8
1
62
256
6
ByLayer
370
18
48
1
60
0
100
AcDbLine
10
22.65725
20
10.403885
30
0
11
22.65725
21
10.376791
31
0
39
0
210
0
220
0
230
1
0
LINE
5
FA
100
AcDbEntity
8
1
62
256
6
ByLayer
370
18
48
1
60
0
100
AcDbLine
10
22.65725
20
49.623209
30
0
11
22.65725
21
49.596115
31
0
39
0
210
0
220
0
230
1
0
LINE
5
FB
100
AcDbEntity
8
1
62
256
6
ByLayer
370
18
48
1
60
0
100
AcDbLine
10
23.325
20
48.976863
30
0
11
23.325
21
48.887709
31
0
39
0
210
0
220
0
230
1
0
LINE
5
FC
100
AcDbEntity
8
1
62
256
6
ByLayer
370
18
48
1
60
0
100
AcDbLine
10
23.325
20
11.112291
30
0
11
23.325
21
11.023137
31
0
39
0
210
0
220
0
230
1
0
LINE
5
FD
100
AcDbEntity
8
1
62
256
6
ByLayer
370
18
48
1
60
0
100
AcDbLine
10
0.343279
20
38.157028
30
0
11
0.343279
21
38.163972
31
0
39
0
210
0
220
0
230
1
0
LINE
5
FE
100
AcDbEntity
8
1
62
256
6
ByLayer
370
18
48
1
60
0
100
AcDbLine
10
-0.325
20
37.477024
30
0
11
-0.325
21
37.499531
31
0
39
0
210
0
220
0
230
1
0
LINE
5
FF
100
AcDbEntity
8
1
62
256
6
ByLayer
370
18
48
1
60
0
100
AcDbLine
10
1.475
20
42.6
30
0
11
6.471873
21
42.6
31
0
39
0
210
0
220
0
230
1
0
LINE
5
100
100
AcDbEntity
8
1
62
256
6
ByLayer
370
18
48
1
60
0
100
AcDbLine
10
1.875
20
43
30
0
11
6.075
21
43
31
0
39
0
210
0
220
0
230
1
0
LINE
5
101
100
AcDbEntity
8
SK1
62
256
6
ByLayer
370
18
48
1
60
0
100
AcDbLine
10
33.325
20
44.899495
30
0
11
33.325
21
39.899495
31
0
39
0
210
0
220
0
230
1
0
LINE
5
102
100
AcDbEntity
8
SK1
62
256
6
ByLayer
370
18
48
1
60
0
100
AcDbLine
10
27.325
20
44.899495
30
0
11
27.325
21
39.899495
31
0
39
0
210
0
220
0
230
1
0
LINE
5
103
100
AcDbEntity
8
SK1
62
256
6
ByLayer
370
18
48
1
60
0
100
AcDbLine
10
27.325
20
39.899495
30
0
11
27.325
21
34.899495
31
0
39
0
210
0
220
0
230
1
0
LINE
5
104
100
AcDbEntity
8
SK1
62
256
6
ByLayer
370
18
48
1
60
0
100
AcDbLine
10
33.325
20
39.899495
30
0
11
33.325
21
34.899495
31
0
39
0
210
0
220
0
230
1
0
LINE
5
105
100
AcDbEntity
8
1
62
256
6
ByLayer
370
18
48
1
60
0
100
AcDbLine
10
15.325
20
37.399495
30
0
11
15.325
21
42.399495
31
0
39
0
210
0
220
0
230
1
0
LINE
5
106
100
AcDbEntity
8
SK1
62
256
6
ByLayer
370
18
48
1
60
0
100
AcDbLine
10
33.325
20
25.100505
30
0
11
33.325
21
15.100505
31
0
39
0
210
0
220
0
230
1
0
LINE
5
107
100
AcDbEntity
8
SK1
62
256
6
ByLayer
370
18
48
1
60
0
100
AcDbLine
10
27.325
20
25.100505
30
0
11
27.325
21
15.100505
31
0
39
0
210
0
220
0
230
1
0
LINE
5
108
100
AcDbEntity
8
1
62
256
6
ByLayer
370
18
48
1
60
0
100
AcDbLine
10
15.325
20
17.600505
30
0
11
15.325
21
22.600505
31
0
39
0
210
0
220
0
230
1
0
LINE
5
109
100
AcDbEntity
8
1
62
256
6
ByLayer
370
18
48
1
60
0
100
AcDbLine
10
22.325
20
10
30
0
11
22.325
21
30
31
0
39
0
210
0
220
0
230
1
0
LINE
5
10A
100
AcDbEntity
8
1
62
256
6
ByLayer
370
18
48
1
60
0
100
AcDbLine
10
23.325
20
48.976863
30
0
11
23.325
21
48.991668
31
0
39
0
210
0
220
0
230
1
0
LINE
5
10B
100
AcDbEntity
8
1
62
256
6
ByLayer
370
18
48
1
60
0
100
AcDbLine
10
23.325
20
48.843015
30
0
11
23.325
21
48.887709
31
0
39
0
210
0
220
0
230
1
0
LINE
5
10C
100
AcDbEntity
8
1
62
256
6
ByLayer
370
18
48
1
60
0
100
AcDbLine
10
23.325
20
48.587552
30
0
11
23.325
21
48.663003
31
0
39
0
210
0
220
0
230
1
0
LINE
5
10D
100
AcDbEntity
8
1
62
256
6
ByLayer
370
18
48
1
60
0
100
AcDbLine
10
23.325
20
48.205356
30
0
11
23.325
21
48.313105
31
0
39
0
210
0
220
0
230
1
0
LINE
5
10E
100
AcDbEntity
8
1
62
256
6
ByLayer
370
18
48
1
60
0
100
AcDbLine
10
23.325
20
47.688213
30
0
11
23.325
21
47.830645
31
0
39
0
210
0
220
0
230
1
0
LINE
5
10F
100
AcDbEntity
8
1
62
256
6
ByLayer
370
18
48
1
60
0
100
AcDbLine
10
23.325
20
47.023829
30
0
11
23.325
21
47.204477
31
0
39
0
210
0
220
0
230
1
0
LINE
5
110
100
AcDbEntity
8
1
62
256
6
ByLayer
370
18
48
1
60
0
100
AcDbLine
10
23.325
20
46.194093
30
0
11
23.325
21
46.418165
31
0
39
0
210
0
220
0
230
1
0
LINE
5
111
100
AcDbEntity
8
1
62
256
6
ByLayer
370
18
48
1
60
0
100
AcDbLine
10
23.325
20
45.171899
30
0
11
23.325
21
45.447274
31
0
39
0
210
0
220
0
230
1
0
LINE
5
112
100
AcDbEntity
8
1
62
256
6
ByLayer
370
18
48
1
60
0
100
AcDbLine
10
23.325
20
43.914899
30
0
11
23.325
21
44.254136
31
0
39
0
210
0
220
0
230
1
0
LINE
5
113
100
AcDbEntity
8
1
62
256
6
ByLayer
370
18
48
1
60
0
100
AcDbLine
10
23.325
20
42.351611
30
0
11
23.325
21
42.776639
31
0
39
0
210
0
220
0
230
1
0
LINE
5
114
100
AcDbEntity
8
1
62
256
6
ByLayer
370
18
48
1
60
0
100
AcDbLine
10
23.325
20
40.344089
30
0
11
23.325
21
40.899753
31
0
39
0
210
0
220
0
230
1
0
LINE
5
115
100
AcDbEntity
8
1
62
256
6
ByLayer
370
18
48
1
60
0
100
AcDbLine
10
23.325
20
37.545731
30
0
11
23.325
21
38.358632
31
0
39
0
210
0
220
0
230
1
0
LINE
5
116
100
AcDbEntity
8
1
62
256
6
ByLayer
370
18
48
1
60
0
100
AcDbLine
10
23.325
20
31.541407
30
0
11
23.325
21
34.053252
31
0
39
0
210
0
220
0
230
1
0
LINE
5
117
100
AcDbEntity
8
1
62
256
6
ByLayer
370
18
48
1
60
0
100
AcDbLine
10
23.325
20
25.946748
30
0
11
23.325
21
28.458593
31
0
39
0
210
0
220
0
230
1
0
LINE
5
118
100
AcDbEntity
8
1
62
256
6
ByLayer
370
18
48
1
60
0
100
AcDbLine
10
23.325
20
21.641368
30
0
11
23.325
21
22.454269
31
0
39
0
210
0
220
0
230
1
0
LINE
5
119
100
AcDbEntity
8
1
62
256
6
ByLayer
370
18
48
1
60
0
100
AcDbLine
10
23.325
20
19.100247
30
0
11
23.325
21
19.655911
31
0
39
0
210
0
220
0
230
1
0
LINE
5
11A
100
AcDbEntity
8
1
62
256
6
ByLayer
370
18
48
1
60
0
100
AcDbLine
10
23.325
20
17.223361
30
0
11
23.325
21
17.648389
31
0
39
0
210
0
220
0
230
1
0
LINE
5
11B
100
AcDbEntity
8
1
62
256
6
ByLayer
370
18
48
1
60
0
100
AcDbLine
10
23.325
20
15.745864
30
0
11
23.325
21
16.085101
31
0
39
0
210
0
220
0
230
1
0
LINE
5
11C
100
AcDbEntity
8
1
62
256
6
ByLayer
370
18
48
1
60
0
100
AcDbLine
10
23.325
20
14.552726
30
0
11
23.325
21
14.828101
31
0
39
0
210
0
220
0
230
1
0
LINE
5
11D
100
AcDbEntity
8
1
62
256
6
ByLayer
370
18
48
1
60
0
100
AcDbLine
10
23.325
20
13.581835
30
0
11
23.325
21
13.805907
31
0
39
0
210
0
220
0
230
1
0
LINE
5
11E
100
AcDbEntity
8
1
62
256
6
ByLayer
370
18
48
1
60
0
100
AcDbLine
10
23.325
20
12.795523
30
0
11
23.325
21
12.976171
31
0
39
0
210
0
220
0
230
1
0
LINE
5
11F
100
AcDbEntity
8
1
62
256
6
ByLayer
370
18
48
1
60
0
100
AcDbLine
10
23.325
20
12.169355
30
0
11
23.325
21
12.311787
31
0
39
0
210
0
220
0
230
1
0
LINE
5
120
100
AcDbEntity
8
1
62
256
6
ByLayer
370
18
48
1
60
0
100
AcDbLine
10
23.325
20
11.686895
30
0
11
23.325
21
11.794644
31
0
39
0
210
0
220
0
230
1
0
LINE
5
121
100
AcDbEntity
8
1
62
256
6
ByLayer
370
18
48
1
60
0
100
AcDbLine
10
23.325
20
11.336997
30
0
11
23.325
21
11.412448
31
0
39
0
210
0
220
0
230
1
0
LINE
5
122
100
AcDbEntity
8
1
62
256
6
ByLayer
370
18
48
1
60
0
100
AcDbLine
10
23.325
20
11.112291
30
0
11
23.325
21
11.156985
31
0
39
0
210
0
220
0
230
1
0
LINE
5
123
100
AcDbEntity
8
1
62
256
6
ByLayer
370
18
48
1
60
0
100
AcDbLine
10
23.325
20
11.008332
30
0
11
23.325
21
11.023137
31
0
39
0
210
0
220
0
230
1
0
LINE
5
124
100
AcDbEntity
8
1
62
256
6
ByLayer
370
18
48
1
60
0
100
AcDbLine
10
22.325
20
30
30
0
11
22.325
21
50
31
0
39
0
210
0
220
0
230
1
0
LINE
5
125
100
AcDbEntity
8
1
62
256
6
ByLayer
370
18
48
1
60
0
100
AcDbLine
10
17.325
20
12.040045
30
0
11
17.325
21
10
31
0
39
0
210
0
220
0
230
1
0
LINE
5
126
100
AcDbEntity
8
1
62
256
6
ByLayer
370
18
48
1
60
0
100
AcDbLine
10
15.675
20
12.565551
30
0
11
15.675
21
47.434449
31
0
39
0
210
0
220
0
230
1
0
LINE
5
127
100
AcDbEntity
8
1
62
256
6
ByLayer
370
18
48
1
60
0
100
AcDbLine
10
0.675
20
38.5
30
0
11
0.675
21
34.785054
31
0
39
0
210
0
220
0
230
1
0
LINE
5
128
100
AcDbEntity
8
1
62
256
6
ByLayer
370
18
48
1
60
0
100
AcDbLine
10
-0.325
20
37.5
30
0
11
-0.325
21
37.499531
31
0
39
0
210
0
220
0
230
1
0
LINE
5
129
100
AcDbEntity
8
1
62
256
6
ByLayer
370
18
48
1
60
0
100
AcDbLine
10
-0.325
20
34.450542
30
0
11
-0.325
21
34.286876
31
0
39
0
210
0
220
0
230
1
0
LINE
5
12A
100
AcDbEntity
8
1
62
256
6
ByLayer
370
18
48
1
60
0
100
AcDbLine
10
-0.325
20
35.057486
30
0
11
-0.325
21
34.912782
31
0
39
0
210
0
220
0
230
1
0
LINE
5
12B
100
AcDbEntity
8
1
62
256
6
ByLayer
370
18
48
1
60
0
100
AcDbLine
10
-0.325
20
35.590938
30
0
11
-0.325
21
35.464276
31
0
39
0
210
0
220
0
230
1
0
LINE
5
12C
100
AcDbEntity
8
1
62
256
6
ByLayer
370
18
48
1
60
0
100
AcDbLine
10
-0.325
20
36.054158
30
0
11
-0.325
21
35.944782
31
0
39
0
210
0
220
0
230
1
0
LINE
5
12D
100
AcDbEntity
8
1
62
256
6
ByLayer
370
18
48
1
60
0
100
AcDbLine
10
-0.325
20
36.449826
30
0
11
-0.325
21
36.357115
31
0
39
0
210
0
220
0
230
1
0
LINE
5
12E
100
AcDbEntity
8
1
62
256
6
ByLayer
370
18
48
1
60
0
100
AcDbLine
10
-0.325
20
36.780122
30
0
11
-0.325
21
36.703574
31
0
39
0
210
0
220
0
230
1
0
LINE
5
12F
100
AcDbEntity
8
1
62
256
6
ByLayer
370
18
48
1
60
0
100
AcDbLine
10
-0.325
20
37.046793
30
0
11
-0.325
21
36.986009
31
0
39
0
210
0
220
0
230
1
0
LINE
5
130
100
AcDbEntity
8
1
62
256
6
ByLayer
370
18
48
1
60
0
100
AcDbLine
10
-0.325
20
37.251206
30
0
11
-0.325
21
37.205878
31
0
39
0
210
0
220
0
230
1
0
LINE
5
131
100
AcDbEntity
8
1
62
256
6
ByLayer
370
18
48
1
60
0
100
AcDbLine
10
-0.325
20
37.394383
30
0
11
-0.325
21
37.364286
31
0
39
0
210
0
220
0
230
1
0
LINE
5
132
100
AcDbEntity
8
1
62
256
6
ByLayer
370
18
48
1
60
0
100
AcDbLine
10
-0.325
20
37.477024
30
0
11
-0.325
21
37.462012
31
0
39
0
210
0
220
0
230
1
0
LINE
5
133
100
AcDbEntity
8
1
62
256
6
ByLayer
370
18
48
1
60
0
100
AcDbLine
10
6.8
20
37.355916
30
0
11
6.8
21
38.469056
31
0
39
0
210
0
220
0
230
1
0
LINE
5
134
100
AcDbEntity
8
1
62
256
6
ByLayer
370
18
48
1
60
0
100
AcDbLine
10
6.675
20
37.231841
30
0
11
6.675
21
35.242022
31
0
39
0
210
0
220
0
230
1
0
LINE
5
135
100
AcDbEntity
8
1
62
256
6
ByLayer
370
18
48
1
60
0
100
AcDbLine
10
0.675
20
-34.785054
30
0
11
0.675
21
-38.382939
31
0
39
0
210
0
220
0
230
1
0
LINE
5
136
100
AcDbEntity
8
1
62
256
6
ByLayer
370
18
48
1
60
0
100
AcDbLine
10
6.675
20
-35.242022
30
0
11
6.675
21
-37.231841
31
0
39
0
210
0
220
0
230
1
0
LINE
5
137
100
AcDbEntity
8
1
62
256
6
ByLayer
370
18
48
1
60
0
100
AcDbLine
10
14.325
20
-37.480795
30
0
11
14.325
21
-38.5
31
0
39
0
210
0
220
0
230
1
0
LINE
5
138
100
AcDbEntity
8
1
62
256
6
ByLayer
370
18
48
1
60
0
100
AcDbLine
10
7.275
20
-38.382939
30
0
11
7.275
21
-38.5
31
0
39
0
210
0
220
0
230
1
0
LINE
5
139
100
AcDbEntity
8
1
62
256
6
ByLayer
370
18
48
1
60
0
100
AcDbLine
10
-0.325
20
-37.205878
30
0
11
-0.325
21
-37.251206
31
0
39
0
210
0
220
0
230
1
0
LINE
5
13A
100
AcDbEntity
8
1
62
256
6
ByLayer
370
18
48
1
60
0
100
AcDbLine
10
-0.325
20
-36.986009
30
0
11
-0.325
21
-37.046793
31
0
39
0
210
0
220
0
230
1
0
LINE
5
13B
100
AcDbEntity
8
1
62
256
6
ByLayer
370
18
48
1
60
0
100
AcDbLine
10
-0.325
20
-36.703574
30
0
11
-0.325
21
-36.780122
31
0
39
0
210
0
220
0
230
1
0
LINE
5
13C
100
AcDbEntity
8
1
62
256
6
ByLayer
370
18
48
1
60
0
100
AcDbLine
10
-0.325
20
-36.357115
30
0
11
-0.325
21
-36.449826
31
0
39
0
210
0
220
0
230
1
0
LINE
5
13D
100
AcDbEntity
8
1
62
256
6
ByLayer
370
18
48
1
60
0
100
AcDbLine
10
-0.325
20
-35.944782
30
0
11
-0.325
21
-36.054158
31
0
39
0
210
0
220
0
230
1
0
LINE
5
13E
100
AcDbEntity
8
1
62
256
6
ByLayer
370
18
48
1
60
0
100
AcDbLine
10
-0.325
20
-35.464276
30
0
11
-0.325
21
-35.590938
31
0
39
0
210
0
220
0
230
1
0
LINE
5
13F
100
AcDbEntity
8
1
62
256
6
ByLayer
370
18
48
1
60
0
100
AcDbLine
10
-0.325
20
-34.912782
30
0
11
-0.325
21
-35.057486
31
0
39
0
210
0
220
0
230
1
0
LINE
5
140
100
AcDbEntity
8
1
62
256
6
ByLayer
370
18
48
1
60
0
100
AcDbLine
10
-0.325
20
-34.286876
30
0
11
-0.325
21
-34.450542
31
0
39
0
210
0
220
0
230
1
0
LINE
5
141
100
AcDbEntity
8
1
62
256
6
ByLayer
370
18
48
1
60
0
100
AcDbLine
10
11.325
20
37.654253
30
0
11
11.325
21
42.144737
31
0
39
0
210
0
220
0
230
1
0
LINE
5
142
100
AcDbEntity
8
1
62
256
6
ByLayer
370
18
48
1
60
0
100
AcDbLine
10
11.325
20
17.855263
30
0
11
11.325
21
22.345747
31
0
39
0
210
0
220
0
230
1
0
LINE
5
143
100
AcDbEntity
8
1
62
256
6
ByLayer
370
18
48
1
60
0
100
AcDbLine
10
18.466803
20
50
30
0
11
15.483837
21
47.752174
31
0
39
0
210
0
220
0
230
1
0
LINE
5
144
100
AcDbEntity
8
1
62
256
6
ByLayer
370
18
48
1
60
0
100
AcDbLine
10
15.483837
20
47.752174
30
0
11
14.675
21
47.142671
31
0
39
0
210
0
220
0
230
1
0
LINE
5
145
100
AcDbEntity
8
1
62
256
6
ByLayer
370
18
48
1
60
0
100
AcDbLine
10
7.006182
20
38.5
30
0
11
6.8
21
38.5
31
0
39
0
210
0
220
0
230
1
0
MTEXT
5
218
100
AcDbEntity
8
SK6
62
256
6
ByLayer
370
13
48
1
60
0
100
AcDbMText
10
55.460105
20
-57.054623
30
0
210
0
220
0
230
1
1
\W0.7337;570-80 23-40R
40
3.5
41
0
44
1.084337
50
0
71
7
72
5
7
iso_b_vert
0
DIMENSION
5
226
100
AcDbEntity
8
2
62
256
6
ByLayer
370
13
48
1
60
0
100
AcDbDimension
2
DimnDraft3D1
10
23
20
58.666811
30
0
11
9.603355
21
58.666811
31
0
70
32
71
5
72
1
41
1
210
0
220
0
230
1
3
Standard
100
AcDbAlignedDimension
13
0
23
1.5875
33
0
14
23
24
31.5875
34
0
50
0
100
AcDbRotatedDimension
1001
ACAD
1000
DSTYLE
1002
{
1070
   279
1070
     0
1070
   173
1070
     1
1070
   340
1005
219
1070
   271
1070
     1
1070
   272
1070
     2
1070
    77
1070
     1
1070
    73
1070
     0
1070
   171
1070
     3
1070
   274
1070
     4
1070
   177
1070
     7
1070
   176
1070
     7
1070
   178
1070
     7
1070
    78
1070
     8
1070
    48
1040
-0.005
1070
    41
1041
3.175
1070
   147
1041
1.5875
1070
    42
1041
1.5875
1070
    44
1041
3.175
1070
   140
1041
3.175
1070
   343
1005
0
1070
   344
1005
0
1002
}
0
DIMENSION
5
23C
100
AcDbEntity
8
SK2
62
256
6
ByLayer
370
13
48
1
60
0
100
AcDbDimension
2
DimnDraft3D3
10
45.397803
20
50
30
0
11
39.841553
21
32.301875
31
0
70
33
71
5
72
1
41
1
210
0
220
0
230
1
3
Standard
100
AcDbAlignedDimension
13
23.9125
23
10
33
0
14
23.9125
24
50
34
0
1001
ACAD
1000
DSTYLE
1002
{
1070
   279
1070
     0
1070
    74
1070
     0
1070
   173
1070
     1
1070
   340
1005
219
1070
   271
1070
     1
1070
   272
1070
     2
1070
    77
1070
     1
1070
    73
1070
     0
1070
   171
1070
     3
1070
   274
1070
     4
1070
   177
1070
     7
1070
   176
1070
     7
1070
   178
1070
     7
1070
    78
1070
     8
1070
    48
1040
-0.005
1070
    41
1041
3.175
1070
   147
1041
1.5875
1070
    42
1041
1.5875
1070
    44
1041
3.175
1070
   140
1041
3.175
1070
   343
1005
0
1070
   344
1005
0
1002
}
0
DIMENSION
5
247
100
AcDbEntity
8
SK2
62
256
6
ByLayer
370
13
48
1
60
0
100
AcDbDimension
2
DimnDraft3D4
10
-28.795387
20
-38.382939
30
0
11
-28.001637
21
18.156385
31
0
70
33
71
5
72
1
41
1
210
0
220
0
230
1
3
Standard
100
AcDbAlignedDimension
13
-0.9125
23
38.5
33
0
14
-0.9125
24
-38.382939
34
0
1001
ACAD
1000
DSTYLE
1002
{
1070
   279
1070
     0
1070
    74
1070
     0
1070
   173
1070
     1
1070
   340
1005
219
1070
   271
1070
     0
1070
   272
1070
     2
1070
    77
1070
     1
1070
    73
1070
     0
1070
   171
1070
     3
1070
   274
1070
     4
1070
   177
1070
     7
1070
   176
1070
     7
1070
   178
1070
     7
1070
    78
1070
     8
1070
    48
1040
-0.005
1070
    41
1041
3.175
1070
   147
1041
1.5875
1070
    42
1041
1.5875
1070
    44
1041
3.175
1070
   140
1041
3.175
1070
   343
1005
0
1070
   344
1005
0
1002
}
0
DIMENSION
5
251
100
AcDbEntity
8
SK2
62
256
6
ByLayer
370
13
48
1
60
0
100
AcDbDimension
2
DimnDraft3D5
10
23.325
20
-56.906056
30
0
11
6.670658
21
-56.906056
31
0
70
32
71
5
72
1
41
1
210
0
220
0
230
1
3
Standard
100
AcDbAlignedDimension
13
-0.325
23
-38.793378
33
0
14
23.325
24
9.569485
34
0
50
0
100
AcDbRotatedDimension
1001
ACAD
1000
DSTYLE
1002
{
1070
   279
1070
     0
1070
   173
1070
     1
1070
   340
1005
219
1070
   271
1070
     3
1070
   272
1070
     2
1070
    77
1070
     1
1070
    73
1070
     0
1070
   171
1070
     3
1070
   274
1070
     4
1070
   177
1070
     7
1070
   176
1070
     7
1070
   178
1070
     7
1070
    78
1070
     8
1070
    48
1040
-0.005
1070
    41
1041
3.175
1070
   147
1041
1.5875
1070
    42
1041
1.5875
1070
    44
1041
3.175
1070
   140
1041
3.175
1070
   343
1005
0
1070
   344
1005
0
1002
}
0
ENDSEC
0
SECTION
2
OBJECTS
0
DICTIONARY
5
2c6
330
0
100
AcDbDictionary
280
0
281
1
3
ACAD_GROUP
350
2c7
3
ACAD_MLINESTYLE
350
2c8
0
DICTIONARY
5
2c7
330
0
100
AcDbDictionary
280
0
281
1
0
DICTIONARY
5
2c8
330
0
100
AcDbDictionary
280
0
281
1
3
Standard
350
18
0
MLINESTYLE
5
18
330
2c8
100
AcDbMlineStyle
2
Standard
70
0
3

62
256
51
90
52
90
71
2
49
-0.5
62
256
6
ByLayer
49
0.5
62
256
6
ByLayer
0
RASTERVARIABLES
5
2b4
330

100
AcDbRasterVariables
90
0
70
1
71
1
72
1
0
ENDSEC
0
EOF
