0
SECTION
2
HEADER
9
$ACADVER
1
AC1015
9
$DWGCODEPAGE
3
ANSI_1252
9
$HANDSEED
5
222
9
$ANGBASE
50
0
9
$ANGDIR
70
0
9
$ATTMODE
70
1
9
$AUNITS
70
0
9
$AUPREC
70
0
9
$CECOLOR
62
256
9
$CELTSCALE
40
1
9
$CELTYPE
6
ByLayer
9
$CELWEIGHT
370
18
9
$CLAYER
8
0
9
$CMLJUST
70
0
9
$CMLSCALE
40
1
9
$CMLSTYLE
2
Standard
9
$DIMSTYLE
2
Standard
9
$TEXTSIZE
40
0.2
9
$TEXTSTYLE
7
Standard
9
$LUNITS
70
2
9
$LUPREC
70
4
9
$EXTNAMES
290
1
9
$INSUNITS
70
4
9
$LTSCALE
40
1
9
$LWDISPLAY
290
1
9
$PDMODE
70
0
9
$PDSIZE
40
0
9
$PLINEGEN
70
0
0
ENDSEC
0
SECTION
2
CLASSES
0
CLASS
1
RASTERVARIABLES
2
AcDbRasterVariables
3
ISM
90
0
280
0
281
0
0
ENDSEC
0
SECTION
2
TABLES
0
TABLE
2
VPORT
5
218
100
AcDbSymbolTable
0
VPORT
5
1
100
AcDbSymbolTableRecord
100
AcDbViewportTableRecord
2
*Active
70
0
10
0
20
0
11
1
21
1
12
-1
22
1
13
0
23
0
14
0.5
24
0.5
15
10
25
10
16
0
26
0
36
1
17
0
27
0
37
0
0
ENDTAB
0
TABLE
2
LTYPE
5
219
100
AcDbSymbolTable
0
LTYPE
5
14
100
AcDbSymbolTableRecord
100
AcDbLinetypeTableRecord
70
0
2
ByBlock
3

72
65
73
0
40
0
0
LTYPE
5
15
100
AcDbSymbolTableRecord
100
AcDbLinetypeTableRecord
70
0
2
ByLayer
3

72
65
73
0
40
0
0
LTYPE
5
16
100
AcDbSymbolTableRecord
100
AcDbLinetypeTableRecord
70
0
2
CONTINUOUS
3
Solid line
72
65
73
0
40
0
0
LTYPE
5
6A
100
AcDbSymbolTableRecord
100
AcDbLinetypeTableRecord
70
0
2
CENTER
3
____ _ ____ _ ____ _ ____
72
65
73
4
40
47.5
49
22
74
0
49
-8.5
74
0
49
8.5
74
0
49
-8.5
74
0
0
LTYPE
5
6B
100
AcDbSymbolTableRecord
100
AcDbLinetypeTableRecord
70
0
2
DASHED
3
__ __ __ __ __ __ __ __ __
72
65
73
2
40
25.72
49
12.86
74
0
49
-12.86
74
0
0
ENDTAB
0
TABLE
2
LAYER
5
21a
100
AcDbSymbolTable
0
LAYER
5
10
100
AcDbSymbolTableRecord
100
AcDbLayerTableRecord
2
0
70
0
62
7
6
CONTINUOUS
290
1
370
-3
390
0
0
LAYER
5
6D
100
AcDbSymbolTableRecord
100
AcDbLayerTableRecord
2
80
70
0
62
-6
6
CONTINUOUS
290
1
370
-3
390
0
0
LAYER
5
6F
100
AcDbSymbolTableRecord
100
AcDbLayerTableRecord
2
81
70
0
62
-3
6
CONTINUOUS
290
1
370
-3
390
0
0
LAYER
5
72
100
AcDbSymbolTableRecord
100
AcDbLayerTableRecord
2
4
70
0
62
-2
6
CENTER
290
1
370
-3
390
0
0
LAYER
5
77
100
AcDbSymbolTableRecord
100
AcDbLayerTableRecord
2
1
70
0
62
4
6
CONTINUOUS
290
1
370
-3
390
0
0
LAYER
5
178
100
AcDbSymbolTableRecord
100
AcDbLayerTableRecord
2
2
70
0
62
7
6
CONTINUOUS
290
1
370
-3
390
0
0
LAYER
5
204
100
AcDbSymbolTableRecord
100
AcDbLayerTableRecord
2
SK4
70
0
62
2
6
CENTER
290
1
370
-3
390
0
0
LAYER
5
205
100
AcDbSymbolTableRecord
100
AcDbLayerTableRecord
2
SK3
70
0
62
1
6
DASHED
290
1
370
-3
390
0
0
LAYER
5
206
100
AcDbSymbolTableRecord
100
AcDbLayerTableRecord
2
SK6
70
0
62
5
6
CONTINUOUS
290
1
370
-3
390
0
0
LAYER
5
207
100
AcDbSymbolTableRecord
100
AcDbLayerTableRecord
2
SK2
70
0
62
7
6
CONTINUOUS
290
1
370
-3
390
0
0
ENDTAB
0
TABLE
2
STYLE
5
21b
100
AcDbSymbolTable
0
STYLE
5
11
100
AcDbSymbolTableRecord
100
AcDbTextStyleTableRecord
2
Standard
3
txt
70
0
71
0
40
0
41
1
42
0
50
0
0
STYLE
5
173
100
AcDbSymbolTableRecord
100
AcDbTextStyleTableRecord
2
iso_b_vert
3
simplex.shx
70
0
71
0
40
0
41
1
42
0
50
0
0
STYLE
5
174
100
AcDbSymbolTableRecord
100
AcDbTextStyleTableRecord
2
DWGDirectTextStyle
3
simplex
70
0
71
0
40
0
41
1
42
0
50
0
0
ENDTAB
0
TABLE
2
DIMSTYLE
5
21c
100
AcDbSymbolTable
100
AcDbDimStyleTable
0
DIMSTYLE
105
27
100
AcDbSymbolTableRecord
100
AcDbDimStyleTableRecord
2
Standard
70
0
3
<>
41
0.18
42
0.0625
44
0.18
140
0.18
147
0.09
73
0
74
0
77
1
271
2
275
0
278
52
280
0
340
11
0
ENDTAB
0
TABLE
2
VIEW
5
21d
100
AcDbSymbolTable
0
ENDTAB
0
TABLE
2
UCS
5
21e
100
AcDbSymbolTable
0
ENDTAB
0
TABLE
2
APPID
5
21f
100
AcDbSymbolTable
0
APPID
5
12
100
AcDbSymbolTableRecord
100
AcDbRegAppTableRecord
2
ACAD
70
0
0
ENDTAB
0
TABLE
2
BLOCK_RECORD
5
220
100
AcDbSymbolTable
0
BLOCK_RECORD
5
1F
100
AcDbSymbolTableRecord
100
AcDbBlockTableRecord
2
*Model_Space
340
0
70
0
0
BLOCK_RECORD
5
1B
100
AcDbSymbolTableRecord
100
AcDbBlockTableRecord
2
*Paper_Space
340
0
70
0
0
BLOCK_RECORD
5
23
100
AcDbSymbolTableRecord
100
AcDbBlockTableRecord
2
*Paper_Space0
340
0
70
0
0
BLOCK_RECORD
5
176
100
AcDbSymbolTableRecord
100
AcDbBlockTableRecord
2
DimnDraft3D1
340
0
70
0
0
BLOCK_RECORD
5
181
100
AcDbSymbolTableRecord
100
AcDbBlockTableRecord
2
DimnDraft3D2
340
0
70
0
0
BLOCK_RECORD
5
18D
100
AcDbSymbolTableRecord
100
AcDbBlockTableRecord
2
DimnDraft3D33
340
0
70
0
0
BLOCK_RECORD
5
197
100
AcDbSymbolTableRecord
100
AcDbBlockTableRecord
2
DimnDraft3D4
340
0
70
0
0
BLOCK_RECORD
5
1A1
100
AcDbSymbolTableRecord
100
AcDbBlockTableRecord
2
DimnDraft3D55
340
0
70
0
0
ENDTAB
0
ENDSEC
0
SECTION
2
BLOCKS
0
BLOCK
5
20
100
AcDbEntity
8
0
100
AcDbBlockBegin
2
*Model_Space
70
0
10
0
20
0
30
0
3
*Model_Space
0
ENDBLK
5
21
100
AcDbEntity
8
0
100
AcDbBlockEnd
0
BLOCK
5
1C
100
AcDbEntity
8
0
100
AcDbBlockBegin
2
*Paper_Space
70
0
10
0
20
0
30
0
3
*Paper_Space
0
ENDBLK
5
1D
100
AcDbEntity
8
0
100
AcDbBlockEnd
0
BLOCK
5
24
100
AcDbEntity
8
0
100
AcDbBlockBegin
2
*Paper_Space0
70
0
10
0
20
0
30
0
3
*Paper_Space0
0
ENDBLK
5
25
100
AcDbEntity
8
0
100
AcDbBlockEnd
0
BLOCK
5
17E
100
AcDbEntity
8
0
100
AcDbBlockBegin
2
DimnDraft3D1
70
0
10
0
20
0
30
0
3
DimnDraft3D1
0
MTEXT
5
177
100
AcDbEntity
8
2
62
256
6
ByLayer
370
13
48
1
60
0
100
AcDbMText
10
13.897105
20
59.460561
30
0
210
0
220
0
230
1
1
\W0.6740;30
40
3.175
41
0
44
1.084337
50
0
71
7
72
5
7
iso_b_vert
0
LINE
5
179
100
AcDbEntity
8
2
62
256
6
ByLayer
370
13
48
1
60
0
100
AcDbLine
10
0
20
1.5875
30
0
11
0
21
61.841811
31
0
39
0
210
0
220
0
230
1
0
LINE
5
17A
100
AcDbEntity
8
2
62
256
6
ByLayer
370
13
48
1
60
0
100
AcDbLine
10
30
20
40.0875
30
0
11
30
21
61.841811
31
0
39
0
210
0
220
0
230
1
0
LINE
5
17B
100
AcDbEntity
8
2
62
256
6
ByLayer
370
13
48
1
60
0
100
AcDbLine
10
0
20
58.666811
30
0
11
30
21
58.666811
31
0
39
0
210
0
220
0
230
1
0
SOLID
5
17C
100
AcDbEntity
8
2
62
256
6
ByLayer
370
13
48
1
60
0
100
AcDbTrace
10
0
20
58.666811
30
0
11
3.174998
21
59.084807
31
0
12
3.175002
22
58.248814
32
0
13
0
23
58.666811
33
0
39
0
210
0
220
0
230
1
0
SOLID
5
17D
100
AcDbEntity
8
2
62
256
6
ByLayer
370
13
48
1
60
0
100
AcDbTrace
10
30
20
58.666811
30
0
11
26.825002
21
58.248814
31
0
12
26.824998
22
59.084807
32
0
13
30
23
58.666811
33
0
39
0
210
0
220
0
230
1
0
ENDBLK
5
17F
100
AcDbEntity
8
0
100
AcDbBlockEnd
0
BLOCK
5
18A
100
AcDbEntity
8
0
100
AcDbBlockBegin
2
DimnDraft3D2
70
0
10
0
20
0
30
0
3
DimnDraft3D2
0
MTEXT
5
182
100
AcDbEntity
8
SK2
62
256
6
ByLayer
370
13
48
1
60
0
100
AcDbMText
10
-19.794509
20
3.321261
30
0
210
0
220
0
230
1
1
\W0.6740;77
40
3.175
41
0
44
1.084337
50
90
71
7
72
5
7
iso_b_vert
0
MTEXT
5
184
100
AcDbEntity
8
SK2
62
256
6
ByLayer
370
13
48
1
60
0
100
AcDbMText
10
-19.794509
20
-3.797685
30
0
210
0
220
0
230
1
1
%%c
40
3.175
41
0
44
1.084337
50
90
71
7
72
5
7
iso_b_vert
0
LINE
5
185
100
AcDbEntity
8
SK2
62
256
6
ByLayer
370
13
48
1
60
0
100
AcDbLine
10
-0.9125
20
38.5
30
0
11
-21.382009
21
38.5
31
0
39
0
210
0
220
0
230
1
0
LINE
5
186
100
AcDbEntity
8
SK2
62
256
6
ByLayer
370
13
48
1
60
0
100
AcDbLine
10
-0.9125
20
-38.382939
30
0
11
-21.382009
21
-38.382939
31
0
39
0
210
0
220
0
230
1
0
LINE
5
187
100
AcDbEntity
8
SK2
62
256
6
ByLayer
370
13
48
1
60
0
100
AcDbLine
10
-18.207009
20
38.5
30
0
11
-18.207009
21
-38.382939
31
0
39
0
210
0
220
0
230
1
0
SOLID
5
188
100
AcDbEntity
8
SK2
62
256
6
ByLayer
370
13
48
1
60
0
100
AcDbTrace
10
-18.207009
20
38.5
30
0
11
-17.789012
21
35.325002
31
0
12
-18.625005
22
35.324998
32
0
13
-18.207009
23
38.5
33
0
39
0
210
0
220
0
230
1
0
SOLID
5
189
100
AcDbEntity
8
SK2
62
256
6
ByLayer
370
13
48
1
60
0
100
AcDbTrace
10
-18.207009
20
-38.382939
30
0
11
-18.625005
21
-35.20794
31
0
12
-17.789012
22
-35.207937
32
0
13
-18.207009
23
-38.382939
33
0
39
0
210
0
220
0
230
1
0
ENDBLK
5
18B
100
AcDbEntity
8
0
100
AcDbBlockEnd
0
BLOCK
5
18E
100
AcDbEntity
8
0
100
AcDbBlockBegin
2
DimnDraft3D33
70
0
10
0
20
0
30
0
3
DimnDraft3D33
0
LINE
5
190
100
AcDbEntity
8
SK2
62
256
6
ByLayer
370
25
48
1
60
0
100
AcDbLine
10
0
20
-1.5875
30
0
11
0
21
-61.682661
31
0
39
0
210
0
220
0
230
1
0
LINE
5
191
100
AcDbEntity
8
SK2
62
256
6
ByLayer
370
25
48
1
60
0
100
AcDbLine
10
40
20
-36.372554
30
0
11
40
21
-61.682661
31
0
39
0
210
0
220
0
230
1
0
LINE
5
192
100
AcDbEntity
8
SK2
62
256
6
ByLayer
370
25
48
1
60
0
100
AcDbLine
10
0
20
-58.507661
30
0
11
40
21
-58.507661
31
0
39
0
210
0
220
0
230
1
0
SOLID
5
193
100
AcDbEntity
8
SK2
62
256
6
ByLayer
370
25
48
1
60
0
100
AcDbTrace
10
0
20
-58.507661
30
0
11
3.174998
21
-58.089664
31
0
12
3.175002
22
-58.925658
32
0
13
0
23
-58.507661
33
0
39
0
210
0
220
0
230
1
0
SOLID
5
194
100
AcDbEntity
8
SK2
62
256
6
ByLayer
370
25
48
1
60
0
100
AcDbTrace
10
40
20
-58.507661
30
0
11
36.825002
21
-58.925658
31
0
12
36.824998
22
-58.089664
32
0
13
40
23
-58.507661
33
0
39
0
210
0
220
0
230
1
0
MTEXT
5
195
100
AcDbEntity
8
SK2
62
256
6
ByLayer
370
13
48
1
60
0
100
AcDbMText
10
18.73
20
-57.713911
30
0
210
0
220
0
230
1
1
\W0.7361;40
40
3.175
41
0
44
1.084337
50
0
71
7
72
5
7
iso_b_vert
0
ENDBLK
5
18F
100
AcDbEntity
8
0
100
AcDbBlockEnd
0
BLOCK
5
19E
100
AcDbEntity
8
0
100
AcDbBlockBegin
2
DimnDraft3D4
70
0
10
0
20
0
30
0
3
DimnDraft3D4
0
MTEXT
5
198
100
AcDbEntity
8
2
62
256
6
ByLayer
370
13
48
1
60
0
100
AcDbMText
10
61.971276
20
15.110667
30
0
210
0
220
0
230
1
1
\W0.7150;38,5
40
3.175
41
0
44
1.084337
50
90
71
7
72
5
7
iso_b_vert
0
LINE
5
199
100
AcDbEntity
8
2
62
256
6
ByLayer
370
13
48
1
60
0
100
AcDbLine
10
1.5875
20
0
30
0
11
65.940026
21
0
31
0
39
0
210
0
220
0
230
1
0
LINE
5
19A
100
AcDbEntity
8
2
62
256
6
ByLayer
370
13
48
1
60
0
100
AcDbLine
10
31.5875
20
38.5
30
0
11
65.940026
21
38.5
31
0
39
0
210
0
220
0
230
1
0
LINE
5
19B
100
AcDbEntity
8
2
62
256
6
ByLayer
370
13
48
1
60
0
100
AcDbLine
10
62.765026
20
0
30
0
11
62.765026
21
38.5
31
0
39
0
210
0
220
0
230
1
0
SOLID
5
19C
100
AcDbEntity
8
2
62
256
6
ByLayer
370
13
48
1
60
0
100
AcDbTrace
10
62.765026
20
0
30
0
11
62.34703
21
3.174998
31
0
12
63.183023
22
3.175002
32
0
13
62.765026
23
0
33
0
39
0
210
0
220
0
230
1
0
SOLID
5
19D
100
AcDbEntity
8
2
62
256
6
ByLayer
370
13
48
1
60
0
100
AcDbTrace
10
62.765026
20
38.5
30
0
11
63.183023
21
35.325002
31
0
12
62.34703
22
35.324998
32
0
13
62.765026
23
38.5
33
0
39
0
210
0
220
0
230
1
0
ENDBLK
5
19F
100
AcDbEntity
8
0
100
AcDbBlockEnd
0
BLOCK
5
1A2
100
AcDbEntity
8
0
100
AcDbBlockBegin
2
DimnDraft3D55
70
0
10
0
20
0
30
0
3
DimnDraft3D55
0
LINE
5
1A4
100
AcDbEntity
8
SK2
62
256
6
ByLayer
370
25
48
1
60
0
100
AcDbLine
10
0
20
-1.5875
30
0
11
0
21
-51.009731
31
0
39
0
210
0
220
0
230
1
0
LINE
5
1A5
100
AcDbEntity
8
SK2
62
256
6
ByLayer
370
25
48
1
60
0
100
AcDbLine
10
20
20
-40.0875
30
0
11
20
21
-51.009731
31
0
39
0
210
0
220
0
230
1
0
LINE
5
1A6
100
AcDbEntity
8
SK2
62
256
6
ByLayer
370
25
48
1
60
0
100
AcDbLine
10
0
20
-47.834731
30
0
11
20
21
-47.834731
31
0
39
0
210
0
220
0
230
1
0
SOLID
5
1A7
100
AcDbEntity
8
SK2
62
256
6
ByLayer
370
25
48
1
60
0
100
AcDbTrace
10
0
20
-47.834731
30
0
11
3.174998
21
-47.416734
31
0
12
3.175002
22
-48.252728
32
0
13
0
23
-47.834731
33
0
39
0
210
0
220
0
230
1
0
SOLID
5
1A8
100
AcDbEntity
8
SK2
62
256
6
ByLayer
370
25
48
1
60
0
100
AcDbTrace
10
20
20
-47.834731
30
0
11
16.825002
21
-48.252728
31
0
12
16.824998
22
-47.416734
32
0
13
20
23
-47.834731
33
0
39
0
210
0
220
0
230
1
0
MTEXT
5
1A9
100
AcDbEntity
8
SK2
62
256
6
ByLayer
370
13
48
1
60
0
100
AcDbMText
10
8.897105
20
-47.040981
30
0
210
0
220
0
230
1
1
\W0.6740;20
40
3.175
41
0
44
1.084337
50
0
71
7
72
5
7
iso_b_vert
0
ENDBLK
5
1A3
100
AcDbEntity
8
0
100
AcDbBlockEnd
0
ENDSEC
0
SECTION
2
ENTITIES
0
ARC
5
115
100
AcDbEntity
8
1
62
256
6
ByLayer
370
18
48
1
60
0
100
AcDbCircle
39
0
10
11.175
20
22
30
0
40
4.5
210
0
220
0
230
1
100
AcDbArc
50
0
51
170.382235
0
ARC
5
116
100
AcDbEntity
8
1
62
256
6
ByLayer
370
18
48
1
60
0
100
AcDbCircle
39
0
10
-11.175
20
22
30
0
40
3.5
210
0
220
0
230
-1
100
AcDbArc
50
0
51
180
0
ARC
5
117
100
AcDbEntity
8
1
62
256
6
ByLayer
370
18
48
1
60
0
100
AcDbCircle
39
0
10
11.175
20
22
30
0
40
4.50000000073276
210
0
220
0
230
1
100
AcDbArc
50
170.382235
51
180
0
CIRCLE
5
10C
100
AcDbEntity
8
1
62
256
6
ByLayer
370
18
48
1
60
0
100
AcDbCircle
10
29
20
-25
30
0
40
4.7
39
0
210
0
220
0
230
1
0
CIRCLE
5
10D
100
AcDbEntity
8
1
62
256
6
ByLayer
370
18
48
1
60
0
100
AcDbCircle
10
-29
20
-25
30
0
40
5
39
0
210
0
220
0
230
-1
0
CIRCLE
5
10E
100
AcDbEntity
8
1
62
256
6
ByLayer
370
18
48
1
60
0
100
AcDbCircle
10
-29
20
25
30
0
40
5
39
0
210
0
220
0
230
-1
0
CIRCLE
5
10F
100
AcDbEntity
8
1
62
256
6
ByLayer
370
18
48
1
60
0
100
AcDbCircle
10
29
20
25
30
0
40
4.7
39
0
210
0
220
0
230
1
0
CIRCLE
5
110
100
AcDbEntity
8
1
62
256
6
ByLayer
370
18
48
1
60
0
100
AcDbCircle
10
29
20
0
30
0
40
4.7
39
0
210
0
220
0
230
1
0
CIRCLE
5
111
100
AcDbEntity
8
1
62
256
6
ByLayer
370
18
48
1
60
0
100
AcDbCircle
10
-29
20
0
30
0
40
5
39
0
210
0
220
0
230
-1
0
CIRCLE
5
112
100
AcDbEntity
8
1
62
256
6
ByLayer
370
18
48
1
60
0
100
AcDbCircle
10
29
20
25
30
0
40
5.25
39
0
210
0
220
0
230
1
0
CIRCLE
5
113
100
AcDbEntity
8
1
62
256
6
ByLayer
370
18
48
1
60
0
100
AcDbCircle
10
-29
20
0
30
0
40
5.25
39
0
210
0
220
0
230
-1
0
CIRCLE
5
114
100
AcDbEntity
8
1
62
256
6
ByLayer
370
18
48
1
60
0
100
AcDbCircle
10
-29
20
-25
30
0
40
5.25
39
0
210
0
220
0
230
-1
0
ELLIPSE
5
118
100
AcDbEntity
8
1
62
256
6
ByLayer
370
18
48
1
60
0
100
AcDbEllipse
10
22.174995
20
-1E-06
30
0
11
-34.9604624962179
21
16.1250117883407
31
0
210
0
220
0
230
1
40
1
41
1.56004339785782
42
1.58860196840126
0
ELLIPSE
5
119
100
AcDbEntity
8
1
62
256
6
ByLayer
370
18
48
1
60
0
100
AcDbEllipse
10
35.244405
20
2E-06
30
0
11
35.7292674576388
21
14.3411937135573
31
0
210
0
220
0
230
1
40
1
41
3.12810760518262
42
-3.1305959646708
0
ELLIPSE
5
11A
100
AcDbEntity
8
1
62
256
6
ByLayer
370
18
48
1
60
0
100
AcDbEllipse
10
35.244391
20
4E-06
30
0
11
14.3252671536705
21
35.7356452988367
31
0
210
0
220
0
230
1
40
1
41
1.55935402248246
42
1.58383576452551
0
POINT
5
6C
100
AcDbEntity
8
80
62
256
6
ByLayer
370
18
48
1
60
0
100
AcDbPoint
10
0
20
0
30
0
39
0
210
0
220
0
230
1
50
360
0
POINT
5
6E
100
AcDbEntity
8
81
62
256
6
ByLayer
370
18
48
1
60
0
100
AcDbPoint
10
30
20
38.5
30
0
39
0
210
0
220
0
230
1
50
360
0
SPLINE
5
11B
100
AcDbEntity
8
1
62
256
6
ByLayer
370
18
48
1
60
0
100
AcDbSpline
70
4
71
1
72
4
73
2
40
0
40
0
40
1
40
1
41
1
10
0.190104359432337
20
34.4770154133884
30
0
41
1
10
0.343278579257491
20
34.6865780736453
30
0
0
SPLINE
5
11C
100
AcDbEntity
8
1
62
256
6
ByLayer
370
18
48
1
60
0
100
AcDbSpline
70
4
71
3
72
12
73
8
40
0
40
0
40
0
40
0
40
0.2277992647433
40
0.456969291674464
40
0.687709517029324
40
0.885754224410433
40
1
40
1
40
1
40
1
41
1
10
0.34327857925731
20
34.8466477146442
30
0
41
1
10
0.355788419959095
20
34.8572715481346
30
0
41
1
10
0.379344095989196
20
34.8752904953052
30
0
41
1
10
0.412309597204987
20
34.8948019294897
30
0
41
1
10
0.435221837468328
20
34.8994158011932
30
0
41
1
10
0.444092858414504
20
34.8910083837683
30
0
41
1
10
0.445350552045541
20
34.8824829729581
30
0
41
1
10
0.445277467401476
20
34.8787961507936
30
0
0
SPLINE
5
11D
100
AcDbEntity
8
1
62
256
6
ByLayer
370
18
48
1
60
0
100
AcDbSpline
70
4
71
1
72
4
73
2
40
0
40
0
40
1
40
1
41
1
10
-0.324999999999999
20
34.2868756778742
30
0
41
1
10
0.343278579257491
20
34.8466477146443
30
0
0
SPLINE
5
11E
100
AcDbEntity
8
1
62
256
6
ByLayer
370
18
48
1
60
0
100
AcDbSpline
70
4
71
1
72
4
73
2
40
0
40
0
40
1
40
1
41
1
10
-0.324999999999998
20
34.4505419950108
30
0
41
1
10
0.343278579257493
20
35.3367896958142
30
0
0
SPLINE
5
11F
100
AcDbEntity
8
1
62
256
6
ByLayer
370
18
48
1
60
0
100
AcDbSpline
70
4
71
3
72
12
73
8
40
0
40
0
40
0
40
0
40
0.239871929632822
40
0.475112703198333
40
0.712003656153657
40
0.91457383459591
40
1
40
1
40
1
40
1
41
1
10
0.343278579257355
20
35.4789916626925
30
0
41
1
10
0.356412585573457
20
35.4902580016255
30
0
41
1
10
0.380690624926195
20
35.5091744681747
30
0
41
1
10
0.414182100211006
20
35.5298479454701
30
0
41
1
10
0.436762546998786
20
35.5353484588314
30
0
41
1
10
0.44441755450286
20
35.5278897317158
30
0
41
1
10
0.445312817577119
20
35.5206355272561
30
0
41
1
10
0.445278180407778
20
35.5181671117702
30
0
0
SPLINE
5
120
100
AcDbEntity
8
1
62
256
6
ByLayer
370
18
48
1
60
0
100
AcDbSpline
70
4
71
1
72
4
73
2
40
0
40
0
40
1
40
1
41
1
10
-0.324999999999999
20
34.9127819537487
30
0
41
1
10
0.343278579257491
20
35.4789916626926
30
0
0
SPLINE
5
121
100
AcDbEntity
8
1
62
256
6
ByLayer
370
18
48
1
60
0
100
AcDbSpline
70
4
71
1
72
4
73
2
40
0
40
0
40
1
40
1
41
1
10
-0.324999999999999
20
35.0574862725496
30
0
41
1
10
0.343278579257492
20
35.912653947506
30
0
0
SPLINE
5
122
100
AcDbEntity
8
1
62
256
6
ByLayer
370
18
48
1
60
0
100
AcDbSpline
70
4
71
3
72
12
73
8
40
0
40
0
40
0
40
0
40
0.251613398363792
40
0.492388573521131
40
0.734897105984562
40
0.941419460958981
40
1
40
1
40
1
40
1
41
1
10
0.343278579257386
20
36.0378806515351
30
0
41
1
10
0.357031896186166
20
36.0498150093521
30
0
41
1
10
0.382004822025774
20
36.0696732374122
30
0
41
1
10
0.415968383564088
20
36.0915940115108
30
0
41
1
10
0.438175957841473
20
36.0980623258873
30
0
41
1
10
0.444716305351769
20
36.0914982612988
30
0
41
1
10
0.445293397970973
20
36.0853601105581
30
0
41
1
10
0.445278387250219
20
36.0838547073395
30
0
0
SPLINE
5
123
100
AcDbEntity
8
1
62
256
6
ByLayer
370
18
48
1
60
0
100
AcDbSpline
70
4
71
1
72
4
73
2
40
0
40
0
40
1
40
1
41
1
10
-0.324999999999999
20
35.4642755988333
30
0
41
1
10
0.343278579257491
20
36.0378806515352
30
0
0
SPLINE
5
124
100
AcDbEntity
8
1
62
256
6
ByLayer
370
18
48
1
60
0
100
AcDbSpline
70
4
71
1
72
4
73
2
40
0
40
0
40
1
40
1
41
1
10
-0.324999999999996
20
35.5909376632592
30
0
41
1
10
0.343278579257491
20
36.4176979105
30
0
0
SPLINE
5
125
100
AcDbEntity
8
1
62
256
6
ByLayer
370
18
48
1
60
0
100
AcDbSpline
70
4
71
3
72
12
73
8
40
0
40
0
40
0
40
0
40
0.263226281974693
40
0.509202505905655
40
0.756999023024941
40
0.967096776498385
40
1
40
1
40
1
40
1
41
1
10
0.343278579257412
20
36.5266866045522
30
0
41
1
10
0.357648204987157
20
36.5393173465978
30
0
41
1
10
0.383291430606414
20
36.560164633916
30
0
41
1
10
0.417676914180964
20
36.5834191060158
30
0
41
1
10
0.439473413076382
20
36.5909332261112
30
0
41
1
10
0.44497805548359
20
36.585224102236
30
0
41
1
10
0.445282730356294
20
36.5800875682204
30
0
41
1
10
0.445278528253159
20
36.5793448936898
30
0
0
SPLINE
5
126
100
AcDbEntity
8
1
62
256
6
ByLayer
370
18
48
1
60
0
100
AcDbSpline
70
4
71
1
72
4
73
2
40
0
40
0
40
1
40
1
41
1
10
-0.324999999999999
20
35.9447818709476
30
0
41
1
10
0.343278579257492
20
36.5266866045523
30
0
0
SPLINE
5
127
100
AcDbEntity
8
1
62
256
6
ByLayer
370
18
48
1
60
0
100
AcDbSpline
70
4
71
1
72
4
73
2
40
0
40
0
40
1
40
1
41
1
10
-0.324999999999998
20
36.0541584806801
30
0
41
1
10
0.343278579257492
20
36.8548331789407
30
0
0
SPLINE
5
128
100
AcDbEntity
8
1
62
256
6
ByLayer
370
18
48
1
60
0
100
AcDbSpline
70
4
71
3
72
12
73
8
40
0
40
0
40
0
40
0
40
0.274323439428374
40
0.524813610732935
40
0.737467110322182
40
0.950539757981751
40
1
40
1
40
1
40
1
41
1
10
0.343278579257429
20
36.9481911162111
30
0
41
1
10
0.358263288657862
20
36.9615496884444
30
0
41
1
10
0.38455370691324
20
36.9834406560233
30
0
41
1
10
0.417540882110909
20
37.006839962174
30
0
41
1
10
0.438489934708561
20
37.0160962684199
30
0
41
1
10
0.444776651018908
20
37.012989656125
30
0
41
1
10
0.445286249995463
20
37.0083832509285
30
0
41
1
10
0.445278497413985
20
37.0074067302649
30
0
0
SPLINE
5
129
100
AcDbEntity
8
1
62
256
6
ByLayer
370
18
48
1
60
0
100
AcDbSpline
70
4
71
1
72
4
73
2
40
0
40
0
40
1
40
1
41
1
10
-0.324999999999999
20
36.3571154486986
30
0
41
1
10
0.343278579257494
20
36.9481911162111
30
0
0
SPLINE
5
12A
100
AcDbEntity
8
1
62
256
6
ByLayer
370
18
48
1
60
0
100
AcDbSpline
70
4
71
1
72
4
73
2
40
0
40
0
40
1
40
1
41
1
10
-0.324999999999999
20
36.4498263884754
30
0
41
1
10
0.343278579257492
20
37.2264521032379
30
0
0
SPLINE
5
12B
100
AcDbEntity
8
1
62
256
6
ByLayer
370
18
48
1
60
0
100
AcDbSpline
70
4
71
3
72
12
73
8
40
0
40
0
40
0
40
0
40
0.28565736322123
40
0.540669354387979
40
0.756081864073502
40
0.972005870661749
40
1
40
1
40
1
40
1
41
1
10
0.343278579257444
20
37.3046755677213
30
0
41
1
10
0.358878883357167
20
37.3187967893954
30
0
41
1
10
0.385797931833863
20
37.3417819113424
30
0
41
1
10
0.41906277362096
20
37.3665920389357
30
0
41
1
10
0.439581732844616
20
37.376982079683
30
0
41
1
10
0.44500514004424
20
37.3746798621706
30
0
41
1
10
0.44528058035092
20
37.3709149068727
30
0
41
1
10
0.445278562888165
20
37.3704478544374
30
0
0
SPLINE
5
12C
100
AcDbEntity
8
1
62
256
6
ByLayer
370
18
48
1
60
0
100
AcDbSpline
70
4
71
1
72
4
73
2
40
0
40
0
40
1
40
1
41
1
10
-0.324999999999999
20
36.7035739915066
30
0
41
1
10
0.343278579257491
20
37.3046755677213
30
0
0
SPLINE
5
12D
100
AcDbEntity
8
1
62
256
6
ByLayer
370
18
48
1
60
0
100
AcDbSpline
70
4
71
1
72
4
73
2
40
0
40
0
40
1
40
1
41
1
10
-0.325
20
36.7801215842199
30
0
41
1
10
0.343278579257491
20
37.5345007125682
30
0
0
SPLINE
5
12E
100
AcDbEntity
8
1
62
256
6
ByLayer
370
18
48
1
60
0
100
AcDbSpline
70
4
71
3
72
12
73
8
40
0
40
0
40
0
40
0
40
0.296883461379582
40
0.556100419139092
40
0.773951071267826
40
0.992410235893881
40
1
40
1
40
1
40
1
41
1
10
0.343278579257454
20
37.5979894630794
30
0
41
1
10
0.359496717975093
20
37.6129118888749
30
0
41
1
10
0.387026795406137
20
37.6370501383013
30
0
41
1
10
0.420528109070598
20
37.6633578083013
30
0
41
1
10
0.44058902553438
20
37.6749453980002
30
0
41
1
10
0.445207313179866
20
37.673414781037
30
0
41
1
10
0.445278686179191
20
37.6704041805839
30
0
41
1
10
0.445278578813398
20
37.6703005135421
30
0
0
SPLINE
5
12F
100
AcDbEntity
8
1
62
256
6
ByLayer
370
18
48
1
60
0
100
AcDbSpline
70
4
71
1
72
4
73
2
40
0
40
0
40
1
40
1
41
1
10
-0.324999999999999
20
36.9860087566907
30
0
41
1
10
0.343278579257492
20
37.5979894630794
30
0
0
SPLINE
5
130
100
AcDbEntity
8
1
62
256
6
ByLayer
370
18
48
1
60
0
100
AcDbSpline
70
4
71
1
72
4
73
2
40
0
40
0
40
1
40
1
41
1
10
-0.325
20
37.0467926243285
30
0
41
1
10
0.34327857925749
20
37.7805340259888
30
0
0
SPLINE
5
131
100
AcDbEntity
8
1
62
256
6
ByLayer
370
18
48
1
60
0
100
AcDbSpline
70
4
71
3
72
11
73
7
40
0
40
0
40
0
40
0
40
0.307833683615278
40
0.570790968082299
40
0.790648514051548
40
1
40
1
40
1
40
1
41
1
10
0.343278579257462
20
37.8296022199376
30
0
41
1
10
0.360118546205665
20
37.8453685804014
30
0
41
1
10
0.388252784435997
20
37.8707272136292
30
0
41
1
10
0.421918103789013
20
37.8986108970097
30
0
41
1
10
0.441279950462624
20
37.9112913588392
30
0
41
1
10
0.445131787850859
20
37.9106351779922
30
0
41
1
10
0.445278562967608
20
37.908453744138
30
0
0
SPLINE
5
132
100
AcDbEntity
8
1
62
256
6
ByLayer
370
18
48
1
60
0
100
AcDbSpline
70
4
71
1
72
4
73
2
40
0
40
0
40
1
40
1
41
1
10
-0.324999999999999
20
37.2058778118458
30
0
41
1
10
0.34327857925749
20
37.8296022199377
30
0
0
SPLINE
5
133
100
AcDbEntity
8
1
62
256
6
ByLayer
370
18
48
1
60
0
100
AcDbSpline
70
4
71
1
72
4
73
2
40
0
40
0
40
1
40
1
41
1
10
-0.324999999999997
20
37.2512059368553
30
0
41
1
10
0.343278579257493
20
37.9657577144987
30
0
0
SPLINE
5
134
100
AcDbEntity
8
1
62
256
6
ByLayer
370
18
48
1
60
0
100
AcDbSpline
70
4
71
3
72
11
73
7
40
0
40
0
40
0
40
0
40
0.375731138550855
40
0.627611862298124
40
0.881365626134431
40
1
40
1
40
1
40
1
41
1
10
0.343278579257471
20
38.0006420547284
30
0
41
1
10
0.364171022677521
20
38.0205820491145
30
0
41
1
10
0.394456163297987
20
38.048539651567
30
0
41
1
10
0.429339115614269
20
38.0784800301954
30
0
41
1
10
0.443358610886897
20
38.0879361362053
30
0
41
1
10
0.445257036074708
20
38.0869995886358
30
0
41
1
10
0.44527850317133
20
38.0860918873191
30
0
0
SPLINE
5
135
100
AcDbEntity
8
1
62
256
6
ByLayer
370
18
48
1
60
0
100
AcDbSpline
70
4
71
1
72
4
73
2
40
0
40
0
40
1
40
1
41
1
10
-0.324999999999999
20
37.3642856716143
30
0
41
1
10
0.34327857925749
20
38.0006420547285
30
0
0
SPLINE
5
136
100
AcDbEntity
8
1
62
256
6
ByLayer
370
18
48
1
60
0
100
AcDbSpline
70
4
71
1
72
4
73
2
40
0
40
0
40
1
40
1
41
1
10
-0.324999999999996
20
37.3943825159609
30
0
41
1
10
0.343278579257486
20
38.0910588771582
30
0
0
SPLINE
5
137
100
AcDbEntity
8
1
62
256
6
ByLayer
370
18
48
1
60
0
100
AcDbSpline
70
4
71
3
72
11
73
7
40
0
40
0
40
0
40
0
40
0.371166177917311
40
0.629759243764612
40
0.849049768172279
40
1
40
1
40
1
40
1
41
1
10
0.343278579257477
20
38.1119244990919
30
0
41
1
10
0.363870512575088
20
38.1319539735988
30
0
41
1
10
0.394260285568822
20
38.1609602059444
30
0
41
1
10
0.427856403663698
20
38.1917466817597
30
0
41
1
10
0.442744652947313
20
38.2039508805035
30
0
41
1
10
0.445211977671064
20
38.2047238244124
30
0
41
1
10
0.445278519087804
20
38.2040706317442
30
0
0
SPLINE
5
138
100
AcDbEntity
8
1
62
256
6
ByLayer
370
18
48
1
60
0
100
AcDbSpline
70
4
71
1
72
4
73
2
40
0
40
0
40
1
40
1
41
1
10
-0.324999999999999
20
37.4620120088337
30
0
41
1
10
0.343278579257492
20
38.1119244990919
30
0
0
SPLINE
5
139
100
AcDbEntity
8
1
62
256
6
ByLayer
370
18
48
1
60
0
100
AcDbSpline
70
4
71
1
72
4
73
2
40
0
40
0
40
1
40
1
41
1
10
-0.325
20
37.4770242115086
30
0
41
1
10
0.343278579257487
20
38.1570278445563
30
0
0
SPLINE
5
13A
100
AcDbEntity
8
1
62
256
6
ByLayer
370
18
48
1
60
0
100
AcDbSpline
70
4
71
3
72
11
73
7
40
0
40
0
40
0
40
0
40
0.366520402710746
40
0.632202806246322
40
0.85428581373481
40
1
40
1
40
1
40
1
41
1
10
0.343278579257481
20
38.1639722968845
30
0
41
1
10
0.363563790854078
20
38.1841046715202
30
0
41
1
10
0.394065271031271
20
38.2142019334042
30
0
41
1
10
0.427851902363388
20
38.2471460024479
30
0
41
1
10
0.442794491194182
20
38.2612336514823
30
0
41
1
10
0.445200508501491
20
38.2630818418278
30
0
41
1
10
0.44527855660755
20
38.2629269214281
30
0
0
SPLINE
5
13B
100
AcDbEntity
8
1
62
256
6
ByLayer
370
18
48
1
60
0
100
AcDbSpline
70
4
71
1
72
4
73
2
40
0
40
0
40
1
40
1
41
1
10
-0.324999999999999
20
37.4995312470703
30
0
41
1
10
0.343278579257491
20
38.1639722968845
30
0
0
SPLINE
5
13C
100
AcDbEntity
8
1
62
256
6
ByLayer
370
18
48
1
60
0
100
AcDbSpline
70
4
71
1
72
4
73
2
40
0
40
0
40
1
40
1
41
1
10
0.190104359432337
20
34.4770154133884
30
0
41
1
10
0.675000000000002
20
34.7850542618522
30
0
0
SPLINE
5
13D
100
AcDbEntity
8
1
62
256
6
ByLayer
370
18
48
1
60
0
100
AcDbSpline
70
4
71
3
72
12
73
8
40
0
40
0
40
0
40
0
40
0.223277085885497
40
0.446702579099624
40
0.665970213112035
40
0.878840620038111
40
1
40
1
40
1
40
1
41
1
10
6.675
20
-37.2318412115222
30
0
41
1
10
6.67584503938869
20
-37.2630749852181
30
0
41
1
10
6.71443893141203
20
-37.3209731055376
30
0
41
1
10
6.88902230821327
20
-37.3974388422496
30
0
41
1
10
7.15465483269592
20
-37.4518656620013
30
0
41
1
10
7.43469485839891
20
-37.4768321332958
30
0
41
1
10
7.60970693444196
20
-37.4807648636079
30
0
41
1
10
7.67500000000001
20
-37.4807950822818
30
0
0
SPLINE
5
13E
100
AcDbEntity
8
1
62
256
6
ByLayer
370
18
48
1
60
0
100
AcDbSpline
70
4
71
3
72
12
73
8
40
0
40
0
40
0
40
0
40
0.207092615126504
40
0.414107419503754
40
0.623361165867272
40
0.837950974769174
40
1
40
1
40
1
40
1
41
1
10
14.675
20
-37.4807950822818
30
0
41
1
10
14.789168989735
20
-37.4805972648429
30
0
41
1
10
15.0036174617149
20
-37.4722760921492
30
0
41
1
10
15.2999130132307
20
-37.4344346473839
30
0
41
1
10
15.5265155720487
20
-37.3748374743167
30
0
41
1
10
15.6510613922497
20
-37.3036577650104
30
0
41
1
10
15.6747521223015
20
-37.2541769936923
30
0
41
1
10
15.675
20
-37.2318412115222
30
0
0
SPLINE
5
13F
100
AcDbEntity
8
1
62
256
6
ByLayer
370
18
48
1
60
0
100
AcDbSpline
70
4
71
3
72
16
73
12
40
0
40
0
40
0
40
0
40
0.107222106487636
40
0.214445478002296
40
0.321655892359022
40
0.4288676385397
40
0.536311764650011
40
0.643755203995603
40
0.751299355828649
40
0.858841602188612
40
1
40
1
40
1
40
1
41
1
10
20
20
-38.4979220218443
30
0
41
1
10
20.0004070690965
20
-38.4960642930802
30
0
41
1
10
20.0288606780134
20
-38.4904027053734
30
0
41
1
10
20.15502317386
20
-38.4756804081053
30
0
41
1
10
20.3629542141824
20
-38.4559050943337
30
0
41
1
10
20.6441241564768
20
-38.4330869289637
30
0
41
1
10
20.9935301429082
20
-38.4092662054168
30
0
41
1
10
21.399256320278
20
-38.3867856641545
30
0
41
1
10
21.8512889465427
20
-38.3681141466618
30
0
41
1
10
22.3877410809461
20
-38.3534171509138
30
0
41
1
10
22.7746722124647
20
-38.3497274984068
30
0
41
1
10
23
20
-38.3495762688455
30
0
0
SPLINE
5
140
100
AcDbEntity
8
1
62
256
6
ByLayer
370
18
48
1
60
0
100
AcDbSpline
70
4
71
1
72
4
73
2
40
0
40
0
40
1
40
1
41
1
10
0.190104359425141
20
-34.4770154133838
30
0
41
1
10
0.675000000000001
20
-34.7850542618522
30
0
0
SPLINE
5
141
100
AcDbEntity
8
1
62
256
6
ByLayer
370
18
48
1
60
0
100
AcDbSpline
70
4
71
3
72
16
73
12
40
0
40
0
40
0
40
0
40
0.107096813680648
40
0.214194763763295
40
0.321278935531621
40
0.4283648614672
40
0.535708317730804
40
0.643051696937688
40
0.750613419455253
40
0.85817350781294
40
1
40
1
40
1
40
1
41
1
10
23
20
38.3495762688455
30
0
41
1
10
22.8301454535296
20
38.3496723316937
30
0
41
1
10
22.4959206421179
20
38.3521566017329
30
0
41
1
10
22.0042695776292
20
38.363090911286
30
0
41
1
10
21.5426742182356
20
38.3802367123825
30
0
41
1
10
21.1208644277119
20
38.4015877755848
30
0
41
1
10
20.7530837363727
20
38.4251911941061
30
0
41
1
10
20.44712370914
20
38.4486802027601
30
0
41
1
10
20.2148790252085
20
38.4696133358449
30
0
41
1
10
20.0436385237048
20
38.4881372589179
30
0
41
1
10
20.00048369679
20
38.495423325647
30
0
41
1
10
20
20
38.4979220218443
30
0
0
SPLINE
5
142
100
AcDbEntity
8
1
62
256
6
ByLayer
370
18
48
1
60
0
100
AcDbSpline
70
4
71
3
72
11
73
7
40
0
40
0
40
0
40
0
40
0.350833332955714
40
0.639613204816571
40
0.870480216480288
40
1
40
1
40
1
40
1
41
1
10
0.343278579257481
20
-37.9657577144987
30
0
41
1
10
0.362594197694769
20
-37.9862685595151
30
0
41
1
10
0.393494320797131
20
-38.019979759018
30
0
41
1
10
0.427892423287029
20
-38.0597579443551
30
0
41
1
10
0.442965652750516
20
-38.0798120843567
30
0
41
1
10
0.44517483986856
20
-38.0849184140807
30
0
41
1
10
0.44527850831484
20
-38.0860924891445
30
0
0
SPLINE
5
143
100
AcDbEntity
8
1
62
256
6
ByLayer
370
18
48
1
60
0
100
AcDbSpline
70
4
71
1
72
4
73
2
40
0
40
0
40
1
40
1
41
1
10
0.343278579257489
20
-37.9657577144987
30
0
41
1
10
-0.325
20
-37.2512059368553
30
0
0
SPLINE
5
144
100
AcDbEntity
8
1
62
256
6
ByLayer
370
18
48
1
60
0
100
AcDbSpline
70
4
71
1
72
4
73
2
40
0
40
0
40
1
40
1
41
1
10
0.343278579257493
20
-37.8296022199377
30
0
41
1
10
-0.324999999999999
20
-37.2058778118458
30
0
0
SPLINE
5
145
100
AcDbEntity
8
1
62
256
6
ByLayer
370
18
48
1
60
0
100
AcDbSpline
70
4
71
3
72
11
73
7
40
0
40
0
40
0
40
0
40
0.344801102334788
40
0.64187042819679
40
0.875637475722631
40
1
40
1
40
1
40
1
41
1
10
0.343278579257485
20
-37.7805340259888
30
0
41
1
10
0.362250357323496
20
-37.801191041741
30
0
41
1
10
0.39330916035386
20
-37.8362472256671
30
0
41
1
10
0.427926765050509
20
-37.8784676549364
30
0
41
1
10
0.443043538451387
20
-37.9006717421135
30
0
41
1
10
0.445175096573327
20
-37.9068839038958
30
0
41
1
10
0.445278522852648
20
-37.9084439846047
30
0
0
SPLINE
5
146
100
AcDbEntity
8
1
62
256
6
ByLayer
370
18
48
1
60
0
100
AcDbSpline
70
4
71
1
72
4
73
2
40
0
40
0
40
1
40
1
41
1
10
0.343278579257487
20
-37.7805340259888
30
0
41
1
10
-0.325
20
-37.0467926243285
30
0
0
SPLINE
5
147
100
AcDbEntity
8
1
62
256
6
ByLayer
370
18
48
1
60
0
100
AcDbSpline
70
4
71
1
72
4
73
2
40
0
40
0
40
1
40
1
41
1
10
0.343278579257495
20
-37.5979894630794
30
0
41
1
10
-0.324999999999999
20
-36.9860087566907
30
0
0
SPLINE
5
148
100
AcDbEntity
8
1
62
256
6
ByLayer
370
18
48
1
60
0
100
AcDbSpline
70
4
71
3
72
11
73
7
40
0
40
0
40
0
40
0
40
0.338546364903161
40
0.644445002198681
40
0.881201350039236
40
1
40
1
40
1
40
1
41
1
10
0.343278579257485
20
-37.5345007125682
30
0
41
1
10
0.361893969109876
20
-37.5553123505471
30
0
41
1
10
0.393127139076653
20
-37.5918005028974
30
0
41
1
10
0.427973365842073
20
-37.6365708959145
30
0
41
1
10
0.443118585702284
20
-37.6610096221745
30
0
41
1
10
0.445172989588855
20
-37.6683450222425
30
0
41
1
10
0.445278458905951
20
-37.6702630966248
30
0
0
SPLINE
5
149
100
AcDbEntity
8
1
62
256
6
ByLayer
370
18
48
1
60
0
100
AcDbSpline
70
4
71
1
72
4
73
2
40
0
40
0
40
1
40
1
41
1
10
0.343278579257491
20
-37.5345007125682
30
0
41
1
10
-0.324999999999997
20
-36.7801215842199
30
0
0
SPLINE
5
14A
100
AcDbEntity
8
1
62
256
6
ByLayer
370
18
48
1
60
0
100
AcDbSpline
70
4
71
1
72
4
73
2
40
0
40
0
40
1
40
1
41
1
10
0.343278579257491
20
-37.3046755677213
30
0
41
1
10
-0.324999999999999
20
-36.7035739915066
30
0
0
SPLINE
5
14B
100
AcDbEntity
8
1
62
256
6
ByLayer
370
18
48
1
60
0
100
AcDbSpline
70
4
71
3
72
11
73
7
40
0
40
0
40
0
40
0
40
0.331931956820446
40
0.647156898298866
40
0.886886969936209
40
1
40
1
40
1
40
1
41
1
10
0.343278579257489
20
-37.2264521032379
30
0
41
1
10
0.361523557519149
20
-37.2474258575394
30
0
41
1
10
0.392948919942651
20
-37.2854459364518
30
0
41
1
10
0.428033282961559
20
-37.3328919267813
30
0
41
1
10
0.443199089554979
20
-37.3596770166
30
0
41
1
10
0.445172402945105
20
-37.3681548466114
30
0
41
1
10
0.445278366967024
20
-37.3704007229406
30
0
0
SPLINE
5
14C
100
AcDbEntity
8
1
62
256
6
ByLayer
370
18
48
1
60
0
100
AcDbSpline
70
4
71
1
72
4
73
2
40
0
40
0
40
1
40
1
41
1
10
0.343278579257495
20
-37.2264521032379
30
0
41
1
10
-0.324999999999996
20
-36.4498263884754
30
0
0
SPLINE
5
14D
100
AcDbEntity
8
1
62
256
6
ByLayer
370
18
48
1
60
0
100
AcDbSpline
70
4
71
1
72
4
73
2
40
0
40
0
40
1
40
1
41
1
10
0.343278579257494
20
-36.9481911162111
30
0
41
1
10
-0.324999999999999
20
-36.3571154486986
30
0
0
SPLINE
5
14E
100
AcDbEntity
8
1
62
256
6
ByLayer
370
18
48
1
60
0
100
AcDbSpline
70
4
71
3
72
11
73
7
40
0
40
0
40
0
40
0
40
0.423885794967927
40
0.715512221532235
40
0.944335607093217
40
1
40
1
40
1
40
1
41
1
10
0.34327857925749
20
-36.8548331789407
30
0
41
1
10
0.367044174760099
20
-36.8828874497458
30
0
41
1
10
0.400678265221649
20
-36.9258438997202
30
0
41
1
10
0.434322309124258
20
-36.9763809753362
30
0
41
1
10
0.444417853847626
20
-36.9988979861418
30
0
41
1
10
0.445251303740121
20
-37.0060744582754
30
0
41
1
10
0.445278240709926
20
-37.0073566898862
30
0
0
SPLINE
5
14F
100
AcDbEntity
8
1
62
256
6
ByLayer
370
18
48
1
60
0
100
AcDbSpline
70
4
71
1
72
4
73
2
40
0
40
0
40
1
40
1
41
1
10
0.343278579257492
20
-36.8548331789407
30
0
41
1
10
-0.324999999999998
20
-36.0541584806802
30
0
0
SPLINE
5
150
100
AcDbEntity
8
1
62
256
6
ByLayer
370
18
48
1
60
0
100
AcDbSpline
70
4
71
1
72
4
73
2
40
0
40
0
40
1
40
1
41
1
10
0.343278579257492
20
-36.5266866045523
30
0
41
1
10
-0.324999999999999
20
-35.9447818709476
30
0
0
SPLINE
5
151
100
AcDbEntity
8
1
62
256
6
ByLayer
370
18
48
1
60
0
100
AcDbSpline
70
4
71
3
72
11
73
7
40
0
40
0
40
0
40
0
40
0.436988589685055
40
0.730157458019561
40
0.958717148295724
40
1
40
1
40
1
40
1
41
1
10
0.343278579257491
20
-36.4176979105
30
0
41
1
10
0.367876905564449
20
-36.4476186148714
30
0
41
1
10
0.402024726076812
20
-36.4931556102895
30
0
41
1
10
0.435439524545811
20
-36.5469336397632
30
0
41
1
10
0.444656228839911
20
-36.5704770194047
30
0
41
1
10
0.445261630430033
20
-36.5781675588072
30
0
41
1
10
0.445278255536309
20
-36.5792772009512
30
0
0
SPLINE
5
152
100
AcDbEntity
8
1
62
256
6
ByLayer
370
18
48
1
60
0
100
AcDbSpline
70
4
71
1
72
4
73
2
40
0
40
0
40
1
40
1
41
1
10
0.343278579257494
20
-36.4176979105
30
0
41
1
10
-0.324999999999997
20
-35.5909376632592
30
0
0
SPLINE
5
153
100
AcDbEntity
8
1
62
256
6
ByLayer
370
18
48
1
60
0
100
AcDbSpline
70
4
71
1
72
4
73
2
40
0
40
0
40
1
40
1
41
1
10
0.343278579257493
20
-36.0378806515352
30
0
41
1
10
-0.324999999999999
20
-35.4642755988333
30
0
0
SPLINE
5
154
100
AcDbEntity
8
1
62
256
6
ByLayer
370
18
48
1
60
0
100
AcDbSpline
70
4
71
3
72
11
73
7
40
0
40
0
40
0
40
0
40
0.450583878622314
40
0.744733605837669
40
0.972830936797308
40
1
40
1
40
1
40
1
41
1
10
0.343278579257491
20
-35.912653947506
30
0
41
1
10
0.368754888694341
20
-35.9446371701672
30
0
41
1
10
0.403403167234339
20
-35.9929802969363
30
0
41
1
10
0.436533859950431
20
-36.0502608414973
30
0
41
1
10
0.444880060904848
20
-36.0748474016601
30
0
41
1
10
0.445270266459771
20
-36.0830062373687
30
0
41
1
10
0.445278350687797
20
-36.0838456622775
30
0
0
SPLINE
5
155
100
AcDbEntity
8
1
62
256
6
ByLayer
370
18
48
1
60
0
100
AcDbSpline
70
4
71
1
72
4
73
2
40
0
40
0
40
1
40
1
41
1
10
0.343278579257491
20
-35.912653947506
30
0
41
1
10
-0.324999999999999
20
-35.0574862725496
30
0
0
SPLINE
5
156
100
AcDbEntity
8
1
62
256
6
ByLayer
370
18
48
1
60
0
100
AcDbSpline
70
4
71
1
72
4
73
2
40
0
40
0
40
1
40
1
41
1
10
0.343278579257494
20
-35.4789916626926
30
0
41
1
10
-0.324999999999999
20
-34.9127819537487
30
0
0
SPLINE
5
157
100
AcDbEntity
8
1
62
256
6
ByLayer
370
18
48
1
60
0
100
AcDbSpline
70
4
71
3
72
11
73
7
40
0
40
0
40
0
40
0
40
0.464769367896896
40
0.759177385284929
40
0.986649224204284
40
1
40
1
40
1
40
1
41
1
10
0.343278579257494
20
-35.3367896958142
30
0
41
1
10
0.369686434913065
20
-35.3710676262856
30
0
41
1
10
0.404817512712402
20
-35.4224725819043
30
0
41
1
10
0.437603710708797
20
-35.4835524428105
30
0
41
1
10
0.445088505443518
20
-35.5092011014581
30
0
41
1
10
0.445276301278036
20
-35.5177853735919
30
0
41
1
10
0.445278493565498
20
-35.5182542778883
30
0
0
SPLINE
5
158
100
AcDbEntity
8
1
62
256
6
ByLayer
370
18
48
1
60
0
100
AcDbSpline
70
4
71
1
72
4
73
2
40
0
40
0
40
1
40
1
41
1
10
0.343278579257493
20
-35.3367896958142
30
0
41
1
10
-0.324999999999998
20
-34.4505419950108
30
0
0
SPLINE
5
159
100
AcDbEntity
8
1
62
256
6
ByLayer
370
18
48
1
60
0
100
AcDbSpline
70
4
71
1
72
4
73
2
40
0
40
0
40
1
40
1
41
1
10
0.343278579257491
20
-34.8466477146443
30
0
41
1
10
-0.324999999999999
20
-34.2868756778742
30
0
0
SPLINE
5
15A
100
AcDbEntity
8
1
62
256
6
ByLayer
370
18
48
1
60
0
100
AcDbSpline
70
4
71
3
72
10
73
6
40
0
40
0
40
0
40
0
40
0.479674972673508
40
0.77340257231247
40
1
40
1
40
1
40
1
41
1
10
0.343278579257491
20
-34.6865780736453
30
0
41
1
10
0.370681782807336
20
-34.7234285463606
30
0
41
1
10
0.4060500114998
20
-34.7779081779763
30
0
41
1
10
0.439057080337955
20
-34.8439159348276
30
0
41
1
10
0.444586813379659
20
-34.8692606791766
30
0
41
1
10
0.445278579251762
20
-34.8791008129065
30
0
0
SPLINE
5
15B
100
AcDbEntity
8
1
62
256
6
ByLayer
370
18
48
1
60
0
100
AcDbSpline
70
4
71
1
72
4
73
2
40
0
40
0
40
1
40
1
41
1
10
0.343278579257491
20
-34.6865780736453
30
0
41
1
10
0.190104359425141
20
-34.4770154133838
30
0
0
SPLINE
5
15C
100
AcDbEntity
8
1
62
256
6
ByLayer
370
18
48
1
60
0
100
AcDbSpline
70
4
71
1
72
4
73
2
40
0
40
0
40
1
40
1
41
1
10
0.190104359425149
20
-37.8550348280422
30
0
41
1
10
0.675
20
-38.3829389182225
30
0
0
SPLINE
5
15D
100
AcDbEntity
8
1
62
256
6
ByLayer
370
18
48
1
60
0
100
AcDbSpline
70
4
71
1
72
4
73
2
40
0
40
0
40
1
40
1
41
1
10
0.343278579257491
20
-38.0006420547285
30
0
41
1
10
0.190104359425149
20
-37.8550348280422
30
0
0
SPLINE
5
15E
100
AcDbEntity
8
1
62
256
6
ByLayer
370
18
48
1
60
0
100
AcDbSpline
70
4
71
3
72
11
73
7
40
0
40
0
40
0
40
0
40
0.109829104691977
40
0.393872565331856
40
0.824890203981656
40
1
40
1
40
1
40
1
41
1
10
0.445277467401476
20
34.8787961507936
30
0
41
1
10
0.445115752878722
20
34.8742595394964
30
0
41
1
10
0.442849824169208
20
34.8567057288783
30
0
41
1
10
0.42239270151591
20
34.8068120801143
30
0
41
1
10
0.383790665699123
20
34.7435326191293
30
0
41
1
10
0.352794137994222
20
34.6995254846238
30
0
41
1
10
0.343278579257498
20
34.6865780736452
30
0
0
SPLINE
5
15F
100
AcDbEntity
8
1
62
256
6
ByLayer
370
18
48
1
60
0
100
AcDbSpline
70
4
71
3
72
13
73
9
40
0
40
0
40
0
40
0
40
0.0002078014776398
40
0.218828549814461
40
0.43861532164138
40
0.635131681963307
40
0.898325820842196
40
1
40
1
40
1
40
1
41
1
10
0.445278579251762
20
-34.8791008129065
30
0
41
1
10
0.445278579499385
20
-34.8791072834153
30
0
41
1
10
0.445277043873196
20
-34.8859193519054
30
0
41
1
10
0.441867250043273
20
-34.8965947277916
30
0
41
1
10
0.424817427954791
20
-34.8986395693273
30
0
41
1
10
0.396534015400134
20
-34.8865725154379
30
0
41
1
10
0.367836338888431
20
-34.8666551628887
30
0
41
1
10
0.34871695516642
20
-34.8512261854756
30
0
41
1
10
0.343278579252309
20
-34.8466477146426
30
0
0
SPLINE
5
160
100
AcDbEntity
8
1
62
256
6
ByLayer
370
18
48
1
60
0
100
AcDbSpline
70
4
71
3
72
11
73
7
40
0
40
0
40
0
40
0
40
0.0987524026186609
40
0.368364745296497
40
0.769586414358886
40
1
40
1
40
1
40
1
41
1
10
0.445278180407778
20
35.5181671117702
30
0
41
1
10
0.445166571741257
20
35.5145785214367
30
0
41
1
10
0.443286379991183
20
35.5000238433827
30
0
41
1
10
0.425362346965981
20
35.4574727095266
30
0
41
1
10
0.387582755020565
20
35.3970687055103
30
0
41
1
10
0.355853245248197
20
35.3532539960085
30
0
41
1
10
0.34327857925752
20
35.3367896958142
30
0
0
SPLINE
5
161
100
AcDbEntity
8
1
62
256
6
ByLayer
370
18
48
1
60
0
100
AcDbSpline
70
4
71
3
72
12
73
8
40
0
40
0
40
0
40
0
40
0.202031522822332
40
0.421407264664802
40
0.62052737461916
40
0.890958570464357
40
1
40
1
40
1
40
1
41
1
10
0.445278493565498
20
-35.5182542778883
30
0
41
1
10
0.44537535685569
20
-35.524276198403
30
0
41
1
10
0.442140148713933
20
-35.5329106113496
30
0
41
1
10
0.426189096859787
20
-35.5340115272995
30
0
41
1
10
0.398173770603296
20
-35.5209919305005
30
0
41
1
10
0.368909290790655
20
-35.5001502193601
30
0
41
1
10
0.349103695347756
20
-35.4839494341771
30
0
41
1
10
0.343278579251129
20
-35.4789916626903
30
0
0
SPLINE
5
162
100
AcDbEntity
8
1
62
256
6
ByLayer
370
18
48
1
60
0
100
AcDbSpline
70
4
71
3
72
11
73
7
40
0
40
0
40
0
40
0
40
0.124401334269746
40
0.396453253713226
40
0.79546502767586
40
1
40
1
40
1
40
1
41
1
10
0.445278387250219
20
36.0838547073395
30
0
41
1
10
0.445110608386002
20
36.079838676315
30
0
41
1
10
0.44264215248864
20
36.0654690338844
30
0
41
1
10
0.422575074427394
20
36.02341717562
30
0
41
1
10
0.384912148139584
20
35.96703134056
30
0
41
1
10
0.354382082233655
20
35.9267065163604
30
0
41
1
10
0.343278579257646
20
35.9126539475058
30
0
0
SPLINE
5
163
100
AcDbEntity
8
1
62
256
6
ByLayer
370
18
48
1
60
0
100
AcDbSpline
70
4
71
3
72
12
73
8
40
0
40
0
40
0
40
0
40
0.185352051627036
40
0.403983143278206
40
0.605403269951784
40
0.882592529646199
40
1
40
1
40
1
40
1
41
1
10
0.445278350687797
20
-36.0838456622775
30
0
41
1
10
0.445349276120374
20
-36.0887709604554
30
0
41
1
10
0.442459639437547
20
-36.0960801721604
30
0
41
1
10
0.427539042973058
20
-36.0960770951821
30
0
41
1
10
0.399879930265542
20
-36.0821598988651
30
0
41
1
10
0.370057142767934
20
-36.060313533921
30
0
41
1
10
0.34954488714705
20
-36.0432805909075
30
0
41
1
10
0.343278579249442
20
-36.0378806515321
30
0
0
SPLINE
5
164
100
AcDbEntity
8
1
62
256
6
ByLayer
370
18
48
1
60
0
100
AcDbSpline
70
4
71
3
72
11
73
7
40
0
40
0
40
0
40
0
40
0.149602709018655
40
0.423430879552434
40
0.819948749951805
40
1
40
1
40
1
40
1
41
1
10
0.445278528253159
20
36.5793448936897
30
0
41
1
10
0.445044633474142
20
36.5750915393548
30
0
41
1
10
0.441958044433637
20
36.5610451174172
30
0
41
1
10
0.419786025313964
20
36.5195380362022
30
0
41
1
10
0.382350555572701
20
36.4668049913677
30
0
41
1
10
0.353005953871313
20
36.4296179711252
30
0
41
1
10
0.343278579257686
20
36.4176979104996
30
0
0
SPLINE
5
165
100
AcDbEntity
8
1
62
256
6
ByLayer
370
18
48
1
60
0
100
AcDbSpline
70
4
71
3
72
12
73
8
40
0
40
0
40
0
40
0
40
0.168782708275975
40
0.386388531161137
40
0.589821361122907
40
0.873356622621877
40
1
40
1
40
1
40
1
41
1
10
0.445278255536309
20
-36.5792772009512
30
0
41
1
10
0.445327710102251
20
-36.5832234869953
30
0
41
1
10
0.442769201629346
20
-36.5892951693851
30
0
41
1
10
0.428873298013798
20
-36.5882660601016
30
0
41
1
10
0.401632001787814
20
-36.5734345973913
30
0
41
1
10
0.37126964620243
20
-36.5505174078137
30
0
41
1
10
0.350033778863675
20
-36.5325886209915
30
0
41
1
10
0.343278579247218
20
-36.526686604548
30
0
0
SPLINE
5
166
100
AcDbEntity
8
1
62
256
6
ByLayer
370
18
48
1
60
0
100
AcDbSpline
70
4
71
3
72
11
73
7
40
0
40
0
40
0
40
0
40
0.13661045834042
40
0.397262595924653
40
0.768394553593818
40
1
40
1
40
1
40
1
41
1
10
0.445278497413985
20
37.0074067302649
30
0
41
1
10
0.445102477834806
20
37.0041122110256
30
0
41
1
10
0.442453072189148
20
36.9926910411119
30
0
41
1
10
0.422852138011758
20
36.9574188643074
30
0
41
1
10
0.386025024623903
20
36.9069856333036
30
0
41
1
10
0.355840759760352
20
36.8697373026896
30
0
41
1
10
0.343278579258001
20
36.8548331789392
30
0
0
SPLINE
5
167
100
AcDbEntity
8
1
62
256
6
ByLayer
370
18
48
1
60
0
100
AcDbSpline
70
4
71
3
72
12
73
8
40
0
40
0
40
0
40
0
40
0.152333692743925
40
0.368663241465994
40
0.573832048533616
40
0.86334935386788
40
1
40
1
40
1
40
1
41
1
10
0.445278240709926
20
-37.0073566898862
30
0
41
1
10
0.445310247960636
20
-37.0104371752651
30
0
41
1
10
0.443067752144328
20
-37.0153568678585
30
0
41
1
10
0.430185962243719
20
-37.0133719435534
30
0
41
1
10
0.403418779929421
20
-36.9976042493625
30
0
41
1
10
0.37253903177322
20
-36.9735447946846
30
0
41
1
10
0.350565520440048
20
-36.9546539888072
30
0
41
1
10
0.343278579244474
20
-36.9481911162052
30
0
0
SPLINE
5
168
100
AcDbEntity
8
1
62
256
6
ByLayer
370
18
48
1
60
0
100
AcDbSpline
70
4
71
3
72
11
73
7
40
0
40
0
40
0
40
0
40
0.158834820510311
40
0.420040764020652
40
0.788018679321843
40
1
40
1
40
1
40
1
41
1
10
0.445278562888165
20
37.3704478544374
30
0
41
1
10
0.445048056929267
20
37.3671876854544
30
0
41
1
10
0.441861418672336
20
37.3563013124179
30
0
41
1
10
0.420529508694448
20
37.3217377635113
30
0
41
1
10
0.383919137690799
20
37.2743434374597
30
0
41
1
10
0.35472745379109
20
37.2396457195308
30
0
41
1
10
0.343278579257703
20
37.2264521032354
30
0
0
SPLINE
5
169
100
AcDbEntity
8
1
62
256
6
ByLayer
370
18
48
1
60
0
100
AcDbSpline
70
4
71
3
72
12
73
8
40
0
40
0
40
0
40
0
40
0.0933237086725612
40
0.313931078533509
40
0.519695270571868
40
0.801767141424492
40
1
40
1
40
1
40
1
41
1
10
0.445278366967024
20
-37.3704007229406
30
0
41
1
10
0.445295439608252
20
-37.3719853030646
30
0
41
1
10
0.444113610500612
20
-37.3759979651468
30
0
41
1
10
0.434830778172001
20
-37.3752861623203
30
0
41
1
10
0.410519935498624
20
-37.3607739164568
30
0
41
1
10
0.378337950933778
20
-37.3354934092956
30
0
41
1
10
0.353929420448042
20
-37.3142903547565
30
0
41
1
10
0.343278579257491
20
-37.3046755677213
30
0
0
SPLINE
5
16A
100
AcDbEntity
8
1
62
256
6
ByLayer
370
18
48
1
60
0
100
AcDbSpline
70
4
71
3
72
11
73
7
40
0
40
0
40
0
40
0
40
0.180613765251911
40
0.441979396983922
40
0.806700329248865
40
1
40
1
40
1
40
1
41
1
10
0.445278578813398
20
37.6703005135421
30
0
41
1
10
0.444985691373177
20
37.6672193672768
30
0
41
1
10
0.441242362226423
20
37.6569616251937
30
0
41
1
10
0.418212470840445
20
37.6231290260936
30
0
41
1
10
0.381889477486393
20
37.5785267527128
30
0
41
1
10
0.353676244905982
20
37.5461542784171
30
0
41
1
10
0.343278579257064
20
37.5345007125654
30
0
0
SPLINE
5
16B
100
AcDbEntity
8
1
62
256
6
ByLayer
370
18
48
1
60
0
100
AcDbSpline
70
4
71
3
72
12
73
8
40
0
40
0
40
0
40
0
40
0.0863725590983497
40
0.303358927796024
40
0.509964567957254
40
0.799707243582231
40
1
40
1
40
1
40
1
41
1
10
0.445278458905951
20
-37.6702630966248
30
0
41
1
10
0.445287657563224
20
-37.6714647988305
30
0
41
1
10
0.444203017734129
20
-37.6745083969406
30
0
41
1
10
0.435322148420998
20
-37.6725194142515
30
0
41
1
10
0.411282639669686
20
-37.6565893396415
30
0
41
1
10
0.378863331064797
20
-37.6299622522837
30
0
41
1
10
0.354028170357687
20
-37.6078564197719
30
0
41
1
10
0.343278579257493
20
-37.5979894630794
30
0
0
SPLINE
5
16C
100
AcDbEntity
8
1
62
256
6
ByLayer
370
18
48
1
60
0
100
AcDbSpline
70
4
71
3
72
12
73
8
40
0
40
0
40
0
40
0
40
0.0105615316562696
40
0.201802387027741
40
0.4630557217096
40
0.824551918691011
40
1
40
1
40
1
40
1
41
1
10
0.445278562967608
20
37.908453744138
30
0
41
1
10
0.4452779429256
20
37.9083313324781
30
0
41
1
10
0.445166772089239
20
37.9058963582471
30
0
41
1
10
0.440054599794763
20
37.8954607375747
30
0
41
1
10
0.41599311477475
20
37.8631791298042
30
0
41
1
10
0.379909834591295
20
37.8210167874894
30
0
41
1
10
0.352677012465541
20
37.7907910617129
30
0
41
1
10
0.3432785792566
20
37.7805340259864
30
0
0
SPLINE
5
16D
100
AcDbEntity
8
1
62
256
6
ByLayer
370
18
48
1
60
0
100
AcDbSpline
70
4
71
3
72
12
73
8
40
0
40
0
40
0
40
0
40
0.0798333862016966
40
0.293325228148499
40
0.500822657831328
40
0.798307833251724
40
1
40
1
40
1
40
1
41
1
10
0.445278522852648
20
-37.9084439846047
30
0
41
1
10
0.445281662600366
20
-37.9093092521318
30
0
41
1
10
0.444287134609663
20
-37.9114382694295
30
0
41
1
10
0.435783864696982
20
-37.9082103578963
30
0
41
1
10
0.411987217692014
20
-37.8907928747646
30
0
41
1
10
0.379337234974097
20
-37.8627506809641
30
0
41
1
10
0.354094393719186
20
-37.8397079268285
30
0
41
1
10
0.343278579257495
20
-37.8296022199377
30
0
0
SPLINE
5
16E
100
AcDbEntity
8
1
62
256
6
ByLayer
370
18
48
1
60
0
100
AcDbSpline
70
4
71
3
72
12
73
8
40
0
40
0
40
0
40
0
40
0.0942998054340396
40
0.290954265641467
40
0.574805148801257
40
0.969919486189367
40
1
40
1
40
1
40
1
41
1
10
0.44527850317133
20
38.0860918873191
30
0
41
1
10
0.445235504972758
20
38.0852752575058
30
0
41
1
10
0.443915957239314
20
38.0816090134175
30
0
41
1
10
0.433143979255915
20
38.0663203585154
30
0
41
1
10
0.401997368920354
20
38.029380407756
30
0
41
1
10
0.367137736315991
20
37.9912116950982
30
0
41
1
10
0.344866439280145
20
37.9674485842086
30
0
41
1
10
0.343278579257494
20
37.9657577144987
30
0
0
SPLINE
5
16F
100
AcDbEntity
8
1
62
256
6
ByLayer
370
18
48
1
60
0
100
AcDbSpline
70
4
71
3
72
12
73
8
40
0
40
0
40
0
40
0
40
0.10959585954654
40
0.31956263625514
40
0.531026768030588
40
0.850589697919773
40
1
40
1
40
1
40
1
41
1
10
0.44527850831484
20
-38.0860924891445
30
0
41
1
10
0.445268108816477
20
-38.0869389078916
30
0
41
1
10
0.44374971090231
20
-38.0878607609086
30
0
41
1
10
0.433294124250994
20
-38.0813324435027
30
0
41
1
10
0.407458875428312
20
-38.0600290292267
30
0
41
1
10
0.375191186142597
20
-38.0307456339932
30
0
41
1
10
0.35123015755541
20
-38.0082079027497
30
0
41
1
10
0.343278579251054
20
-38.0006420547239
30
0
0
SPLINE
5
170
100
AcDbEntity
8
1
62
256
6
ByLayer
370
18
48
1
60
0
100
AcDbSpline
70
4
71
3
72
12
73
8
40
0
40
0
40
0
40
0
40
0.067726977915397
40
0.265640191793424
40
0.532285882597969
40
0.898220691445956
40
1
40
1
40
1
40
1
41
1
10
0.445278519087804
20
38.2040706317442
30
0
41
1
10
0.445261318951541
20
38.203725412264
30
0
41
1
10
0.444399668100734
20
38.201589079276
30
0
41
1
10
0.435712815861105
20
38.1903628026376
30
0
41
1
10
0.407759562781554
20
38.1589901899091
30
0
41
1
10
0.372775604642076
20
38.1217972444498
30
0
41
1
10
0.348672541732412
20
38.0966600097994
30
0
41
1
10
0.343278579257396
20
38.0910588771581
30
0
0
SPLINE
5
171
100
AcDbEntity
8
1
62
256
6
ByLayer
370
18
48
1
60
0
100
AcDbSpline
70
4
71
3
72
12
73
8
40
0
40
0
40
0
40
0
40
0.0773938426002497
40
0.278162804133163
40
0.540639938754322
40
0.898072151234399
40
1
40
1
40
1
40
1
41
1
10
0.44527855660755
20
38.262926921428
30
0
41
1
10
0.445260563033796
20
38.2627851075127
30
0
41
1
10
0.444254986858271
20
38.2613360633311
30
0
41
1
10
0.435001840765184
20
38.2511995052823
30
0
41
1
10
0.406882466086702
20
38.2218799789615
30
0
41
1
10
0.372340524135387
20
38.1865404777508
30
0
41
1
10
0.348675827581892
20
38.1625017645325
30
0
41
1
10
0.343278579257348
20
38.1570278445562
30
0
0
INSERT
5
196
100
AcDbEntity
8
SK2
62
256
6
ByLayer
370
25
48
1
60
0
100
AcDbBlockReference
2
DimnDraft3D33
10
0
20
0
30
0
41
1
42
1
43
1
50
0
210
0
220
0
230
1
0
INSERT
5
1AA
100
AcDbEntity
8
SK2
62
256
6
ByLayer
370
25
48
1
60
0
100
AcDbBlockReference
2
DimnDraft3D55
10
0
20
0
30
0
41
1
42
1
43
1
50
0
210
0
220
0
230
1
0
LINE
5
70
100
AcDbEntity
8
81
62
256
6
ByLayer
370
18
48
1
60
0
100
AcDbLine
10
30
20
38.5
30
0
11
30
21
41.5
31
0
39
0
210
0
220
0
230
1
0
LINE
5
71
100
AcDbEntity
8
4
62
256
6
ByLayer
370
18
48
0.05
60
0
100
AcDbLine
10
0
20
0
30
0
11
30
21
0
31
0
39
0
210
0
220
0
230
1
0
LINE
5
73
100
AcDbEntity
8
SK4
62
256
6
ByLayer
370
18
48
0.05
60
0
100
AcDbLine
10
-5
20
0
30
0
11
45
21
0
31
0
39
0
210
0
220
0
230
1
0
LINE
5
75
100
AcDbEntity
8
80
62
256
6
ByLayer
370
18
48
1
60
0
100
AcDbLine
10
0
20
0
30
0
11
-3
21
0
31
0
39
0
210
0
220
0
230
1
0
LINE
5
76
100
AcDbEntity
8
1
62
256
6
ByLayer
370
18
48
1
60
0
100
AcDbLine
10
29
20
-27.886751
30
0
11
31.5
21
-26.443376
31
0
39
0
210
0
220
0
230
1
0
LINE
5
78
100
AcDbEntity
8
1
62
256
6
ByLayer
370
18
48
1
60
0
100
AcDbLine
10
31.5
20
-26.443376
30
0
11
31.5
21
-23.556624
31
0
39
0
210
0
220
0
230
1
0
LINE
5
79
100
AcDbEntity
8
1
62
256
6
ByLayer
370
18
48
1
60
0
100
AcDbLine
10
31.5
20
-23.556624
30
0
11
29
21
-22.113249
31
0
39
0
210
0
220
0
230
1
0
LINE
5
7A
100
AcDbEntity
8
1
62
256
6
ByLayer
370
18
48
1
60
0
100
AcDbLine
10
29
20
-22.113249
30
0
11
26.4
21
-23.614359
31
0
39
0
210
0
220
0
230
1
0
LINE
5
7B
100
AcDbEntity
8
1
62
256
6
ByLayer
370
18
48
1
60
0
100
AcDbLine
10
26.4
20
-26.385641
30
0
11
26.4
21
-23.614359
31
0
39
0
210
0
220
0
230
1
0
LINE
5
7C
100
AcDbEntity
8
1
62
256
6
ByLayer
370
18
48
1
60
0
100
AcDbLine
10
26.4
20
-26.385641
30
0
11
29
21
-27.886751
31
0
39
0
210
0
220
0
230
1
0
LINE
5
7D
100
AcDbEntity
8
1
62
256
6
ByLayer
370
18
48
1
60
0
100
AcDbLine
10
26.5
20
-23.556624
30
0
11
26.5
21
-26.443376
31
0
39
0
210
0
220
0
230
1
0
LINE
5
7E
100
AcDbEntity
8
1
62
256
6
ByLayer
370
18
48
1
60
0
100
AcDbLine
10
31.4
20
-23.614359
30
0
11
29
21
-22.228719
31
0
39
0
210
0
220
0
230
1
0
LINE
5
7F
100
AcDbEntity
8
1
62
256
6
ByLayer
370
18
48
1
60
0
100
AcDbLine
10
29
20
-22.228719
30
0
11
29
21
-22.113249
31
0
39
0
210
0
220
0
230
1
0
LINE
5
80
100
AcDbEntity
8
1
62
256
6
ByLayer
370
18
48
1
60
0
100
AcDbLine
10
31.5
20
-23.556624
30
0
11
31.4
21
-23.614359
31
0
39
0
210
0
220
0
230
1
0
LINE
5
81
100
AcDbEntity
8
1
62
256
6
ByLayer
370
18
48
1
60
0
100
AcDbLine
10
26.6
20
-26.385641
30
0
11
29
21
-27.771281
31
0
39
0
210
0
220
0
230
1
0
LINE
5
82
100
AcDbEntity
8
1
62
256
6
ByLayer
370
18
48
1
60
0
100
AcDbLine
10
29
20
-27.886751
30
0
11
29
21
-27.771281
31
0
39
0
210
0
220
0
230
1
0
LINE
5
83
100
AcDbEntity
8
1
62
256
6
ByLayer
370
18
48
1
60
0
100
AcDbLine
10
26.6
20
-26.385641
30
0
11
26.5
21
-26.443376
31
0
39
0
210
0
220
0
230
1
0
LINE
5
84
100
AcDbEntity
8
1
62
256
6
ByLayer
370
18
48
1
60
0
100
AcDbLine
10
26.6
20
-23.614359
30
0
11
26.6
21
-26.385641
31
0
39
0
210
0
220
0
230
1
0
LINE
5
85
100
AcDbEntity
8
1
62
256
6
ByLayer
370
18
48
1
60
0
100
AcDbLine
10
26.6
20
-23.614359
30
0
11
26.5
21
-23.556624
31
0
39
0
210
0
220
0
230
1
0
LINE
5
86
100
AcDbEntity
8
1
62
256
6
ByLayer
370
18
48
1
60
0
100
AcDbLine
10
31.5
20
-26.443376
30
0
11
31.4
21
-26.385641
31
0
39
0
210
0
220
0
230
1
0
LINE
5
87
100
AcDbEntity
8
1
62
256
6
ByLayer
370
18
48
1
60
0
100
AcDbLine
10
31.4
20
-26.385641
30
0
11
31.4
21
-23.614359
31
0
39
0
210
0
220
0
230
1
0
LINE
5
88
100
AcDbEntity
8
1
62
256
6
ByLayer
370
18
48
1
60
0
100
AcDbLine
10
29
20
-27.771281
30
0
11
31.4
21
-26.385641
31
0
39
0
210
0
220
0
230
1
0
LINE
5
89
100
AcDbEntity
8
1
62
256
6
ByLayer
370
18
48
1
60
0
100
AcDbLine
10
29
20
-22.228719
30
0
11
26.6
21
-23.614359
31
0
39
0
210
0
220
0
230
1
0
LINE
5
8A
100
AcDbEntity
8
1
62
256
6
ByLayer
370
18
48
1
60
0
100
AcDbLine
10
26.5
20
26.443376
30
0
11
26.5
21
23.556624
31
0
39
0
210
0
220
0
230
1
0
LINE
5
8B
100
AcDbEntity
8
1
62
256
6
ByLayer
370
18
48
1
60
0
100
AcDbLine
10
29
20
22.113249
30
0
11
31.5
21
23.556624
31
0
39
0
210
0
220
0
230
1
0
LINE
5
8C
100
AcDbEntity
8
1
62
256
6
ByLayer
370
18
48
1
60
0
100
AcDbLine
10
31.5
20
23.556624
30
0
11
31.5
21
26.443376
31
0
39
0
210
0
220
0
230
1
0
LINE
5
8D
100
AcDbEntity
8
1
62
256
6
ByLayer
370
18
48
1
60
0
100
AcDbLine
10
31.5
20
26.443376
30
0
11
29
21
27.886751
31
0
39
0
210
0
220
0
230
1
0
LINE
5
8E
100
AcDbEntity
8
1
62
256
6
ByLayer
370
18
48
1
60
0
100
AcDbLine
10
29
20
27.886751
30
0
11
26.4
21
26.385641
31
0
39
0
210
0
220
0
230
1
0
LINE
5
8F
100
AcDbEntity
8
1
62
256
6
ByLayer
370
18
48
1
60
0
100
AcDbLine
10
26.4
20
23.614359
30
0
11
26.4
21
26.385641
31
0
39
0
210
0
220
0
230
1
0
LINE
5
90
100
AcDbEntity
8
1
62
256
6
ByLayer
370
18
48
1
60
0
100
AcDbLine
10
26.4
20
23.614359
30
0
11
29
21
22.113249
31
0
39
0
210
0
220
0
230
1
0
LINE
5
91
100
AcDbEntity
8
1
62
256
6
ByLayer
370
18
48
1
60
0
100
AcDbLine
10
31.5
20
23.556624
30
0
11
31.4
21
23.614359
31
0
39
0
210
0
220
0
230
1
0
LINE
5
92
100
AcDbEntity
8
1
62
256
6
ByLayer
370
18
48
1
60
0
100
AcDbLine
10
31.4
20
23.614359
30
0
11
31.4
21
26.385641
31
0
39
0
210
0
220
0
230
1
0
LINE
5
93
100
AcDbEntity
8
1
62
256
6
ByLayer
370
18
48
1
60
0
100
AcDbLine
10
26.6
20
26.385641
30
0
11
26.6
21
23.614359
31
0
39
0
210
0
220
0
230
1
0
LINE
5
94
100
AcDbEntity
8
1
62
256
6
ByLayer
370
18
48
1
60
0
100
AcDbLine
10
26.6
20
26.385641
30
0
11
26.5
21
26.443376
31
0
39
0
210
0
220
0
230
1
0
LINE
5
95
100
AcDbEntity
8
1
62
256
6
ByLayer
370
18
48
1
60
0
100
AcDbLine
10
31.4
20
26.385641
30
0
11
29
21
27.771281
31
0
39
0
210
0
220
0
230
1
0
LINE
5
96
100
AcDbEntity
8
1
62
256
6
ByLayer
370
18
48
1
60
0
100
AcDbLine
10
29
20
27.771281
30
0
11
29
21
27.886751
31
0
39
0
210
0
220
0
230
1
0
LINE
5
97
100
AcDbEntity
8
1
62
256
6
ByLayer
370
18
48
1
60
0
100
AcDbLine
10
31.5
20
26.443376
30
0
11
31.4
21
26.385641
31
0
39
0
210
0
220
0
230
1
0
LINE
5
98
100
AcDbEntity
8
1
62
256
6
ByLayer
370
18
48
1
60
0
100
AcDbLine
10
26.6
20
23.614359
30
0
11
29
21
22.228719
31
0
39
0
210
0
220
0
230
1
0
LINE
5
99
100
AcDbEntity
8
1
62
256
6
ByLayer
370
18
48
1
60
0
100
AcDbLine
10
29
20
22.113249
30
0
11
29
21
22.228719
31
0
39
0
210
0
220
0
230
1
0
LINE
5
9A
100
AcDbEntity
8
1
62
256
6
ByLayer
370
18
48
1
60
0
100
AcDbLine
10
26.6
20
23.614359
30
0
11
26.5
21
23.556624
31
0
39
0
210
0
220
0
230
1
0
LINE
5
9B
100
AcDbEntity
8
1
62
256
6
ByLayer
370
18
48
1
60
0
100
AcDbLine
10
29
20
27.771281
30
0
11
26.6
21
26.385641
31
0
39
0
210
0
220
0
230
1
0
LINE
5
9C
100
AcDbEntity
8
1
62
256
6
ByLayer
370
18
48
1
60
0
100
AcDbLine
10
29
20
22.228719
30
0
11
31.4
21
23.614359
31
0
39
0
210
0
220
0
230
1
0
LINE
5
9D
100
AcDbEntity
8
1
62
256
6
ByLayer
370
18
48
1
60
0
100
AcDbLine
10
26.5
20
1.443376
30
0
11
26.5
21
-1.443376
31
0
39
0
210
0
220
0
230
1
0
LINE
5
9E
100
AcDbEntity
8
1
62
256
6
ByLayer
370
18
48
1
60
0
100
AcDbLine
10
29
20
-2.886751
30
0
11
31.5
21
-1.443376
31
0
39
0
210
0
220
0
230
1
0
LINE
5
9F
100
AcDbEntity
8
1
62
256
6
ByLayer
370
18
48
1
60
0
100
AcDbLine
10
31.5
20
-1.443376
30
0
11
31.5
21
1.443376
31
0
39
0
210
0
220
0
230
1
0
LINE
5
A0
100
AcDbEntity
8
1
62
256
6
ByLayer
370
18
48
1
60
0
100
AcDbLine
10
31.5
20
1.443376
30
0
11
29
21
2.886751
31
0
39
0
210
0
220
0
230
1
0
LINE
5
A1
100
AcDbEntity
8
1
62
256
6
ByLayer
370
18
48
1
60
0
100
AcDbLine
10
29
20
2.886751
30
0
11
26.4
21
1.385641
31
0
39
0
210
0
220
0
230
1
0
LINE
5
A2
100
AcDbEntity
8
1
62
256
6
ByLayer
370
18
48
1
60
0
100
AcDbLine
10
26.4
20
-1.385641
30
0
11
26.4
21
1.385641
31
0
39
0
210
0
220
0
230
1
0
LINE
5
A3
100
AcDbEntity
8
1
62
256
6
ByLayer
370
18
48
1
60
0
100
AcDbLine
10
26.4
20
-1.385641
30
0
11
29
21
-2.886751
31
0
39
0
210
0
220
0
230
1
0
LINE
5
A4
100
AcDbEntity
8
1
62
256
6
ByLayer
370
18
48
1
60
0
100
AcDbLine
10
26.6
20
1.385641
30
0
11
26.6
21
-1.385641
31
0
39
0
210
0
220
0
230
1
0
LINE
5
A5
100
AcDbEntity
8
1
62
256
6
ByLayer
370
18
48
1
60
0
100
AcDbLine
10
26.6
20
1.385641
30
0
11
26.5
21
1.443376
31
0
39
0
210
0
220
0
230
1
0
LINE
5
A6
100
AcDbEntity
8
1
62
256
6
ByLayer
370
18
48
1
60
0
100
AcDbLine
10
31.5
20
-1.443376
30
0
11
31.4
21
-1.385641
31
0
39
0
210
0
220
0
230
1
0
LINE
5
A7
100
AcDbEntity
8
1
62
256
6
ByLayer
370
18
48
1
60
0
100
AcDbLine
10
31.4
20
-1.385641
30
0
11
31.4
21
1.385641
31
0
39
0
210
0
220
0
230
1
0
LINE
5
A8
100
AcDbEntity
8
1
62
256
6
ByLayer
370
18
48
1
60
0
100
AcDbLine
10
29
20
-2.771281
30
0
11
31.4
21
-1.385641
31
0
39
0
210
0
220
0
230
1
0
LINE
5
A9
100
AcDbEntity
8
1
62
256
6
ByLayer
370
18
48
1
60
0
100
AcDbLine
10
26.6
20
-1.385641
30
0
11
29
21
-2.771281
31
0
39
0
210
0
220
0
230
1
0
LINE
5
AA
100
AcDbEntity
8
1
62
256
6
ByLayer
370
18
48
1
60
0
100
AcDbLine
10
29
20
-2.886751
30
0
11
29
21
-2.771281
31
0
39
0
210
0
220
0
230
1
0
LINE
5
AB
100
AcDbEntity
8
1
62
256
6
ByLayer
370
18
48
1
60
0
100
AcDbLine
10
26.6
20
-1.385641
30
0
11
26.5
21
-1.443376
31
0
39
0
210
0
220
0
230
1
0
LINE
5
AC
100
AcDbEntity
8
1
62
256
6
ByLayer
370
18
48
1
60
0
100
AcDbLine
10
31.4
20
1.385641
30
0
11
29
21
2.771281
31
0
39
0
210
0
220
0
230
1
0
LINE
5
AD
100
AcDbEntity
8
1
62
256
6
ByLayer
370
18
48
1
60
0
100
AcDbLine
10
29
20
2.771281
30
0
11
29
21
2.886751
31
0
39
0
210
0
220
0
230
1
0
LINE
5
AE
100
AcDbEntity
8
1
62
256
6
ByLayer
370
18
48
1
60
0
100
AcDbLine
10
31.5
20
1.443376
30
0
11
31.4
21
1.385641
31
0
39
0
210
0
220
0
230
1
0
LINE
5
AF
100
AcDbEntity
8
1
62
256
6
ByLayer
370
18
48
1
60
0
100
AcDbLine
10
29
20
2.771281
30
0
11
26.6
21
1.385641
31
0
39
0
210
0
220
0
230
1
0
LINE
5
B0
100
AcDbEntity
8
1
62
256
6
ByLayer
370
18
48
1
60
0
100
AcDbLine
10
0.675
20
38.5
30
0
11
-0.325
21
37.5
31
0
39
0
210
0
220
0
230
1
0
LINE
5
B1
100
AcDbEntity
8
1
62
256
6
ByLayer
370
18
48
1
60
0
100
AcDbLine
10
7.275
20
-38.5
30
0
11
20
21
-38.5
31
0
39
0
210
0
220
0
230
1
0
LINE
5
B2
100
AcDbEntity
8
1
62
256
6
ByLayer
370
18
48
1
60
0
100
AcDbLine
10
5.674995
20
-34.785054
30
0
11
0.675
21
-34.785054
31
0
39
0
210
0
220
0
230
1
0
LINE
5
B3
100
AcDbEntity
8
1
62
256
6
ByLayer
370
18
48
1
60
0
100
AcDbLine
10
14.675
20
-37.480795
30
0
11
7.675
21
-37.480795
31
0
39
0
210
0
220
0
230
1
0
LINE
5
B4
100
AcDbEntity
8
1
62
256
6
ByLayer
370
18
48
1
60
0
100
AcDbLine
10
40
20
-34.785054
30
0
11
15.675
21
-34.785054
31
0
39
0
210
0
220
0
230
1
0
LINE
5
B5
100
AcDbEntity
8
1
62
256
6
ByLayer
370
18
48
1
60
0
100
AcDbLine
10
40
20
-38.349576
30
0
11
23
21
-38.349576
31
0
39
0
210
0
220
0
230
1
0
LINE
5
B6
100
AcDbEntity
8
1
62
256
6
ByLayer
370
18
48
1
60
0
100
AcDbLine
10
7.275
20
-38.382939
30
0
11
0.675
21
-38.382939
31
0
39
0
210
0
220
0
230
1
0
LINE
5
B7
100
AcDbEntity
8
1
62
256
6
ByLayer
370
18
48
1
60
0
100
AcDbLine
10
6.675
20
22
30
0
11
5.674995
21
22
31
0
39
0
210
0
220
0
230
1
0
LINE
5
B8
100
AcDbEntity
8
1
62
256
6
ByLayer
370
18
48
1
60
0
100
AcDbLine
10
6.675
20
-35.242022
30
0
11
6.675
21
22
31
0
39
0
210
0
220
0
230
1
0
LINE
5
B9
100
AcDbEntity
8
1
62
256
6
ByLayer
370
18
48
1
60
0
100
AcDbLine
10
5.674995
20
22
30
0
11
5.674995
21
-34.785054
31
0
39
0
210
0
220
0
230
1
0
LINE
5
BA
100
AcDbEntity
8
1
62
256
6
ByLayer
370
18
48
1
60
0
100
AcDbLine
10
0.675
20
-34.785054
30
0
11
0.675
21
34.785054
31
0
39
0
210
0
220
0
230
1
0
LINE
5
BB
100
AcDbEntity
8
1
62
256
6
ByLayer
370
18
48
1
60
0
100
AcDbLine
10
40
20
34.785054
30
0
11
0.675
21
34.785054
31
0
39
0
210
0
220
0
230
1
0
LINE
5
BC
100
AcDbEntity
8
1
62
256
6
ByLayer
370
18
48
1
60
0
100
AcDbLine
10
6.738251
20
22.751835
30
0
11
5.674995
21
22
31
0
39
0
210
0
220
0
230
1
0
LINE
5
BD
100
AcDbEntity
8
1
62
256
6
ByLayer
370
18
48
1
60
0
100
AcDbLine
10
40
20
-34.785054
30
0
11
40
21
34.785054
31
0
39
0
210
0
220
0
230
1
0
LINE
5
BE
100
AcDbEntity
8
1
62
256
6
ByLayer
370
18
48
1
60
0
100
AcDbLine
10
15.675
20
22
30
0
11
15.675
21
-34.785054
31
0
39
0
210
0
220
0
230
1
0
LINE
5
BF
100
AcDbEntity
8
1
62
256
6
ByLayer
370
18
48
1
60
0
100
AcDbLine
10
0.190104
20
34.477015
30
0
11
0.190104
21
-34.477015
31
0
39
0
210
0
220
0
230
1
0
LINE
5
C0
100
AcDbEntity
8
1
62
256
6
ByLayer
370
18
48
1
60
0
100
AcDbLine
10
20
20
38.5
30
0
11
0.675
21
38.5
31
0
39
0
210
0
220
0
230
1
0
LINE
5
C1
100
AcDbEntity
8
1
62
256
6
ByLayer
370
18
48
1
60
0
100
AcDbLine
10
23
20
38.349576
30
0
11
40
21
38.349576
31
0
39
0
210
0
220
0
230
1
0
LINE
5
C2
100
AcDbEntity
8
1
62
256
6
ByLayer
370
18
48
1
60
0
100
AcDbLine
10
0.343279
20
34.846648
30
0
11
0.343279
21
34.686578
31
0
39
0
210
0
220
0
230
1
0
LINE
5
C3
100
AcDbEntity
8
1
62
256
6
ByLayer
370
18
48
1
60
0
100
AcDbLine
10
0.343279
20
-34.686578
30
0
11
0.343279
21
-34.846648
31
0
39
0
210
0
220
0
230
1
0
LINE
5
C4
100
AcDbEntity
8
1
62
256
6
ByLayer
370
18
48
1
60
0
100
AcDbLine
10
-0.325
20
34.286876
30
0
11
-0.325
21
-34.286876
31
0
39
0
210
0
220
0
230
1
0
LINE
5
C5
100
AcDbEntity
8
1
62
256
6
ByLayer
370
18
48
1
60
0
100
AcDbLine
10
0.343279
20
35.478992
30
0
11
0.343279
21
35.33679
31
0
39
0
210
0
220
0
230
1
0
LINE
5
C6
100
AcDbEntity
8
1
62
256
6
ByLayer
370
18
48
1
60
0
100
AcDbLine
10
0.343279
20
-35.33679
30
0
11
0.343279
21
-35.478992
31
0
39
0
210
0
220
0
230
1
0
LINE
5
C7
100
AcDbEntity
8
1
62
256
6
ByLayer
370
18
48
1
60
0
100
AcDbLine
10
-0.325
20
34.912782
30
0
11
-0.325
21
34.450542
31
0
39
0
210
0
220
0
230
1
0
LINE
5
C8
100
AcDbEntity
8
1
62
256
6
ByLayer
370
18
48
1
60
0
100
AcDbLine
10
-0.325
20
-34.450542
30
0
11
-0.325
21
-34.912782
31
0
39
0
210
0
220
0
230
1
0
LINE
5
C9
100
AcDbEntity
8
1
62
256
6
ByLayer
370
18
48
1
60
0
100
AcDbLine
10
0.343279
20
36.037881
30
0
11
0.343279
21
35.912654
31
0
39
0
210
0
220
0
230
1
0
LINE
5
CA
100
AcDbEntity
8
1
62
256
6
ByLayer
370
18
48
1
60
0
100
AcDbLine
10
0.343279
20
-35.912654
30
0
11
0.343279
21
-36.037881
31
0
39
0
210
0
220
0
230
1
0
LINE
5
CB
100
AcDbEntity
8
1
62
256
6
ByLayer
370
18
48
1
60
0
100
AcDbLine
10
-0.325
20
35.464276
30
0
11
-0.325
21
35.057486
31
0
39
0
210
0
220
0
230
1
0
LINE
5
CC
100
AcDbEntity
8
1
62
256
6
ByLayer
370
18
48
1
60
0
100
AcDbLine
10
-0.325
20
-35.057486
30
0
11
-0.325
21
-35.464276
31
0
39
0
210
0
220
0
230
1
0
LINE
5
CD
100
AcDbEntity
8
1
62
256
6
ByLayer
370
18
48
1
60
0
100
AcDbLine
10
0.343279
20
36.526687
30
0
11
0.343279
21
36.417698
31
0
39
0
210
0
220
0
230
1
0
LINE
5
CE
100
AcDbEntity
8
1
62
256
6
ByLayer
370
18
48
1
60
0
100
AcDbLine
10
0.343279
20
-36.417698
30
0
11
0.343279
21
-36.526687
31
0
39
0
210
0
220
0
230
1
0
LINE
5
CF
100
AcDbEntity
8
1
62
256
6
ByLayer
370
18
48
1
60
0
100
AcDbLine
10
-0.325
20
35.944782
30
0
11
-0.325
21
35.590938
31
0
39
0
210
0
220
0
230
1
0
LINE
5
D0
100
AcDbEntity
8
1
62
256
6
ByLayer
370
18
48
1
60
0
100
AcDbLine
10
-0.325
20
-35.590938
30
0
11
-0.325
21
-35.944782
31
0
39
0
210
0
220
0
230
1
0
LINE
5
D1
100
AcDbEntity
8
1
62
256
6
ByLayer
370
18
48
1
60
0
100
AcDbLine
10
0.343279
20
36.948191
30
0
11
0.343279
21
36.854833
31
0
39
0
210
0
220
0
230
1
0
LINE
5
D2
100
AcDbEntity
8
1
62
256
6
ByLayer
370
18
48
1
60
0
100
AcDbLine
10
0.343279
20
-36.854833
30
0
11
0.343279
21
-36.948191
31
0
39
0
210
0
220
0
230
1
0
LINE
5
D3
100
AcDbEntity
8
1
62
256
6
ByLayer
370
18
48
1
60
0
100
AcDbLine
10
7.675
20
-37.480795
30
0
11
7.675
21
22
31
0
39
0
210
0
220
0
230
1
0
LINE
5
D4
100
AcDbEntity
8
1
62
256
6
ByLayer
370
18
48
1
60
0
100
AcDbLine
10
14.675
20
22
30
0
11
14.675
21
-37.480795
31
0
39
0
210
0
220
0
230
1
0
LINE
5
D5
100
AcDbEntity
8
1
62
256
6
ByLayer
370
18
48
1
60
0
100
AcDbLine
10
-0.325
20
36.357115
30
0
11
-0.325
21
36.054158
31
0
39
0
210
0
220
0
230
1
0
LINE
5
D6
100
AcDbEntity
8
1
62
256
6
ByLayer
370
18
48
1
60
0
100
AcDbLine
10
-0.325
20
-36.054158
30
0
11
-0.325
21
-36.357115
31
0
39
0
210
0
220
0
230
1
0
LINE
5
D7
100
AcDbEntity
8
1
62
256
6
ByLayer
370
18
48
1
60
0
100
AcDbLine
10
0.343279
20
37.304676
30
0
11
0.343279
21
37.226452
31
0
39
0
210
0
220
0
230
1
0
LINE
5
D8
100
AcDbEntity
8
1
62
256
6
ByLayer
370
18
48
1
60
0
100
AcDbLine
10
0.343279
20
-37.226452
30
0
11
0.343279
21
-37.304676
31
0
39
0
210
0
220
0
230
1
0
LINE
5
D9
100
AcDbEntity
8
1
62
256
6
ByLayer
370
18
48
1
60
0
100
AcDbLine
10
-0.325
20
36.703574
30
0
11
-0.325
21
36.449826
31
0
39
0
210
0
220
0
230
1
0
LINE
5
DA
100
AcDbEntity
8
1
62
256
6
ByLayer
370
18
48
1
60
0
100
AcDbLine
10
-0.325
20
-36.449826
30
0
11
-0.325
21
-36.703574
31
0
39
0
210
0
220
0
230
1
0
LINE
5
DB
100
AcDbEntity
8
1
62
256
6
ByLayer
370
18
48
1
60
0
100
AcDbLine
10
0.343279
20
37.597989
30
0
11
0.343279
21
37.534501
31
0
39
0
210
0
220
0
230
1
0
LINE
5
DC
100
AcDbEntity
8
1
62
256
6
ByLayer
370
18
48
1
60
0
100
AcDbLine
10
0.343279
20
-37.534501
30
0
11
0.343279
21
-37.597989
31
0
39
0
210
0
220
0
230
1
0
LINE
5
DD
100
AcDbEntity
8
1
62
256
6
ByLayer
370
18
48
1
60
0
100
AcDbLine
10
-0.325
20
36.986009
30
0
11
-0.325
21
36.780122
31
0
39
0
210
0
220
0
230
1
0
LINE
5
DE
100
AcDbEntity
8
1
62
256
6
ByLayer
370
18
48
1
60
0
100
AcDbLine
10
-0.325
20
-36.780122
30
0
11
-0.325
21
-36.986009
31
0
39
0
210
0
220
0
230
1
0
LINE
5
DF
100
AcDbEntity
8
1
62
256
6
ByLayer
370
18
48
1
60
0
100
AcDbLine
10
0.343279
20
37.829602
30
0
11
0.343279
21
37.780534
31
0
39
0
210
0
220
0
230
1
0
LINE
5
E0
100
AcDbEntity
8
1
62
256
6
ByLayer
370
18
48
1
60
0
100
AcDbLine
10
0.343279
20
-37.780534
30
0
11
0.343279
21
-37.829602
31
0
39
0
210
0
220
0
230
1
0
LINE
5
E1
100
AcDbEntity
8
1
62
256
6
ByLayer
370
18
48
1
60
0
100
AcDbLine
10
-0.325
20
37.205878
30
0
11
-0.325
21
37.046793
31
0
39
0
210
0
220
0
230
1
0
LINE
5
E2
100
AcDbEntity
8
1
62
256
6
ByLayer
370
18
48
1
60
0
100
AcDbLine
10
-0.325
20
-37.046793
30
0
11
-0.325
21
-37.205878
31
0
39
0
210
0
220
0
230
1
0
LINE
5
E3
100
AcDbEntity
8
1
62
256
6
ByLayer
370
18
48
1
60
0
100
AcDbLine
10
0.343279
20
38.000642
30
0
11
0.343279
21
37.965758
31
0
39
0
210
0
220
0
230
1
0
LINE
5
E4
100
AcDbEntity
8
1
62
256
6
ByLayer
370
18
48
1
60
0
100
AcDbLine
10
0.343279
20
-37.965758
30
0
11
0.343279
21
-38.000642
31
0
39
0
210
0
220
0
230
1
0
LINE
5
E5
100
AcDbEntity
8
1
62
256
6
ByLayer
370
18
48
1
60
0
100
AcDbLine
10
-0.325
20
37.364286
30
0
11
-0.325
21
37.251206
31
0
39
0
210
0
220
0
230
1
0
LINE
5
E6
100
AcDbEntity
8
1
62
256
6
ByLayer
370
18
48
1
60
0
100
AcDbLine
10
0.190104
20
-37.855035
30
0
11
0.190104
21
-37.801977
31
0
39
0
210
0
220
0
230
1
0
LINE
5
E7
100
AcDbEntity
8
1
62
256
6
ByLayer
370
18
48
1
60
0
100
AcDbLine
10
0.343279
20
38.111924
30
0
11
0.343279
21
38.091059
31
0
39
0
210
0
220
0
230
1
0
LINE
5
E8
100
AcDbEntity
8
1
62
256
6
ByLayer
370
18
48
1
60
0
100
AcDbLine
10
-0.325
20
37.462012
30
0
11
-0.325
21
37.394383
31
0
39
0
210
0
220
0
230
1
0
LINE
5
E9
100
AcDbEntity
8
1
62
256
6
ByLayer
370
18
48
1
60
0
100
AcDbLine
10
0.343279
20
38.163972
30
0
11
0.343279
21
38.157028
31
0
39
0
210
0
220
0
230
1
0
LINE
5
EA
100
AcDbEntity
8
1
62
256
6
ByLayer
370
18
48
1
60
0
100
AcDbLine
10
-0.325
20
37.499531
30
0
11
-0.325
21
37.477024
31
0
39
0
210
0
220
0
230
1
0
LINE
5
EB
100
AcDbEntity
8
1
62
256
6
ByLayer
370
18
48
1
60
0
100
AcDbLine
10
-0.675
20
13.858092
30
0
11
-0.675
21
-13.858092
31
0
39
0
210
0
220
0
230
1
0
LINE
5
EC
100
AcDbEntity
8
1
62
256
6
ByLayer
370
18
48
1
60
0
100
AcDbLine
10
0.675
20
38.5
30
0
11
0.675
21
34.785054
31
0
39
0
210
0
220
0
230
1
0
LINE
5
ED
100
AcDbEntity
8
1
62
256
6
ByLayer
370
18
48
1
60
0
100
AcDbLine
10
-0.325
20
34.286876
30
0
11
-0.325
21
34.450542
31
0
39
0
210
0
220
0
230
1
0
LINE
5
EE
100
AcDbEntity
8
1
62
256
6
ByLayer
370
18
48
1
60
0
100
AcDbLine
10
-0.325
20
34.912782
30
0
11
-0.325
21
35.057486
31
0
39
0
210
0
220
0
230
1
0
LINE
5
EF
100
AcDbEntity
8
1
62
256
6
ByLayer
370
18
48
1
60
0
100
AcDbLine
10
-0.325
20
35.464276
30
0
11
-0.325
21
35.590938
31
0
39
0
210
0
220
0
230
1
0
LINE
5
F0
100
AcDbEntity
8
1
62
256
6
ByLayer
370
18
48
1
60
0
100
AcDbLine
10
-0.325
20
35.944782
30
0
11
-0.325
21
36.054158
31
0
39
0
210
0
220
0
230
1
0
LINE
5
F1
100
AcDbEntity
8
1
62
256
6
ByLayer
370
18
48
1
60
0
100
AcDbLine
10
-0.325
20
36.357115
30
0
11
-0.325
21
36.449826
31
0
39
0
210
0
220
0
230
1
0
LINE
5
F2
100
AcDbEntity
8
1
62
256
6
ByLayer
370
18
48
1
60
0
100
AcDbLine
10
-0.325
20
36.703574
30
0
11
-0.325
21
36.780122
31
0
39
0
210
0
220
0
230
1
0
LINE
5
F3
100
AcDbEntity
8
1
62
256
6
ByLayer
370
18
48
1
60
0
100
AcDbLine
10
-0.325
20
36.986009
30
0
11
-0.325
21
37.046793
31
0
39
0
210
0
220
0
230
1
0
LINE
5
F4
100
AcDbEntity
8
1
62
256
6
ByLayer
370
18
48
1
60
0
100
AcDbLine
10
-0.325
20
37.205878
30
0
11
-0.325
21
37.251206
31
0
39
0
210
0
220
0
230
1
0
LINE
5
F5
100
AcDbEntity
8
1
62
256
6
ByLayer
370
18
48
1
60
0
100
AcDbLine
10
-0.325
20
37.364286
30
0
11
-0.325
21
37.394383
31
0
39
0
210
0
220
0
230
1
0
LINE
5
F6
100
AcDbEntity
8
1
62
256
6
ByLayer
370
18
48
1
60
0
100
AcDbLine
10
-0.325
20
37.462012
30
0
11
-0.325
21
37.477024
31
0
39
0
210
0
220
0
230
1
0
LINE
5
F7
100
AcDbEntity
8
1
62
256
6
ByLayer
370
18
48
1
60
0
100
AcDbLine
10
-0.325
20
37.499531
30
0
11
-0.325
21
37.5
31
0
39
0
210
0
220
0
230
1
0
LINE
5
F8
100
AcDbEntity
8
1
62
256
6
ByLayer
370
18
48
1
60
0
100
AcDbLine
10
0.675
20
-34.785054
30
0
11
0.675
21
-38.382939
31
0
39
0
210
0
220
0
230
1
0
LINE
5
F9
100
AcDbEntity
8
1
62
256
6
ByLayer
370
18
48
1
60
0
100
AcDbLine
10
6.675
20
-35.242022
30
0
11
6.675
21
-37.231841
31
0
39
0
210
0
220
0
230
1
0
LINE
5
FA
100
AcDbEntity
8
1
62
256
6
ByLayer
370
18
48
1
60
0
100
AcDbLine
10
15.675
20
-37.231841
30
0
11
15.675
21
-34.785054
31
0
39
0
210
0
220
0
230
1
0
LINE
5
FB
100
AcDbEntity
8
1
62
256
6
ByLayer
370
18
48
1
60
0
100
AcDbLine
10
40
20
-34.785054
30
0
11
40
21
-38.349576
31
0
39
0
210
0
220
0
230
1
0
LINE
5
FC
100
AcDbEntity
8
1
62
256
6
ByLayer
370
18
48
1
60
0
100
AcDbLine
10
20
20
-38.497922
30
0
11
20
21
-38.5
31
0
39
0
210
0
220
0
230
1
0
LINE
5
FD
100
AcDbEntity
8
1
62
256
6
ByLayer
370
18
48
1
60
0
100
AcDbLine
10
7.275
20
-38.382939
30
0
11
7.275
21
-38.5
31
0
39
0
210
0
220
0
230
1
0
LINE
5
FE
100
AcDbEntity
8
1
62
256
6
ByLayer
370
18
48
1
60
0
100
AcDbLine
10
20
20
38.5
30
0
11
20
21
38.497922
31
0
39
0
210
0
220
0
230
1
0
LINE
5
FF
100
AcDbEntity
8
1
62
256
6
ByLayer
370
18
48
1
60
0
100
AcDbLine
10
40
20
38.349576
30
0
11
40
21
34.785054
31
0
39
0
210
0
220
0
230
1
0
LINE
5
100
100
AcDbEntity
8
1
62
256
6
ByLayer
370
18
48
1
60
0
100
AcDbLine
10
-0.325
20
-37.251206
30
0
11
-0.325
21
-37.205878
31
0
39
0
210
0
220
0
230
1
0
LINE
5
101
100
AcDbEntity
8
1
62
256
6
ByLayer
370
18
48
1
60
0
100
AcDbLine
10
-0.325
20
-37.046793
30
0
11
-0.325
21
-36.986009
31
0
39
0
210
0
220
0
230
1
0
LINE
5
102
100
AcDbEntity
8
1
62
256
6
ByLayer
370
18
48
1
60
0
100
AcDbLine
10
-0.325
20
-36.780122
30
0
11
-0.325
21
-36.703574
31
0
39
0
210
0
220
0
230
1
0
LINE
5
103
100
AcDbEntity
8
1
62
256
6
ByLayer
370
18
48
1
60
0
100
AcDbLine
10
-0.325
20
-36.449826
30
0
11
-0.325
21
-36.357115
31
0
39
0
210
0
220
0
230
1
0
LINE
5
104
100
AcDbEntity
8
1
62
256
6
ByLayer
370
18
48
1
60
0
100
AcDbLine
10
-0.325
20
-36.054158
30
0
11
-0.325
21
-35.944782
31
0
39
0
210
0
220
0
230
1
0
LINE
5
105
100
AcDbEntity
8
1
62
256
6
ByLayer
370
18
48
1
60
0
100
AcDbLine
10
-0.325
20
-35.590938
30
0
11
-0.325
21
-35.464276
31
0
39
0
210
0
220
0
230
1
0
LINE
5
106
100
AcDbEntity
8
1
62
256
6
ByLayer
370
18
48
1
60
0
100
AcDbLine
10
-0.325
20
-35.057486
30
0
11
-0.325
21
-34.912782
31
0
39
0
210
0
220
0
230
1
0
LINE
5
107
100
AcDbEntity
8
1
62
256
6
ByLayer
370
18
48
1
60
0
100
AcDbLine
10
-0.325
20
-34.450542
30
0
11
-0.325
21
-34.286876
31
0
39
0
210
0
220
0
230
1
0
LINE
5
108
100
AcDbEntity
8
1
62
256
6
ByLayer
370
18
48
1
60
0
100
AcDbLine
10
6.675
20
22
30
0
11
7.675
21
22
31
0
39
0
210
0
220
0
230
1
0
LINE
5
109
100
AcDbEntity
8
1
62
256
6
ByLayer
370
18
48
1
60
0
100
AcDbLine
10
15.675
20
22
30
0
11
14.675
21
22
31
0
39
0
210
0
220
0
230
1
0
LINE
5
10A
100
AcDbEntity
8
SK3
62
256
6
ByLayer
370
18
48
0.05
60
0
100
AcDbLine
10
20
20
-38.5
30
0
11
20
21
38.5
31
0
39
0
210
0
220
0
230
1
0
MTEXT
5
172
100
AcDbEntity
8
SK6
62
256
6
ByLayer
370
13
48
1
60
0
100
AcDbMText
10
49.604346
20
-14.249235
30
0
210
0
220
0
230
1
1
\W0.7356;570-80 20 2020R
40
3.5
41
0
44
1.084337
50
0
71
7
72
5
7
iso_b_vert
0
DIMENSION
5
180
100
AcDbEntity
8
2
62
256
6
ByLayer
370
13
48
1
60
0
100
AcDbDimension
2
DimnDraft3D1
10
30
20
58.666811
30
0
11
13.103355
21
58.666811
31
0
70
32
71
5
72
1
41
1
210
0
220
0
230
1
3
Standard
100
AcDbAlignedDimension
13
0
23
1.5875
33
0
14
30
24
40.0875
34
0
50
0
100
AcDbRotatedDimension
1001
ACAD
1000
DSTYLE
1002
{
1070
   279
1070
     0
1070
   173
1070
     1
1070
   340
1005
173
1070
   271
1070
     1
1070
   272
1070
     2
1070
    77
1070
     1
1070
    73
1070
     0
1070
   171
1070
     3
1070
   274
1070
     4
1070
   177
1070
     7
1070
   176
1070
     7
1070
   178
1070
     7
1070
    78
1070
     8
1070
    48
1040
-0.005
1070
    41
1041
3.175
1070
   147
1041
1.5875
1070
    42
1041
1.5875
1070
    44
1041
3.175
1070
   140
1041
3.175
1070
   343
1005
0
1070
   344
1005
0
1002
}
0
DIMENSION
5
18C
100
AcDbEntity
8
SK2
62
256
6
ByLayer
370
13
48
1
60
0
100
AcDbDimension
2
DimnDraft3D2
10
-21.382009
20
-38.382939
30
0
11
-20.588259
21
2.527511
31
0
70
33
71
5
72
1
41
1
210
0
220
0
230
1
3
Standard
100
AcDbAlignedDimension
13
-0.9125
23
38.5
33
0
14
-0.9125
24
-38.382939
34
0
1001
ACAD
1000
DSTYLE
1002
{
1070
   279
1070
     0
1070
    74
1070
     0
1070
   173
1070
     1
1070
   340
1005
173
1070
   271
1070
     0
1070
   272
1070
     2
1070
    77
1070
     1
1070
    73
1070
     0
1070
   171
1070
     3
1070
   274
1070
     4
1070
   177
1070
     7
1070
   176
1070
     7
1070
   178
1070
     7
1070
    78
1070
     8
1070
    48
1040
-0.005
1070
    41
1041
3.175
1070
   147
1041
1.5875
1070
    42
1041
1.5875
1070
    44
1041
3.175
1070
   140
1041
3.175
1070
   343
1005
0
1070
   344
1005
0
1002
}
0
DIMENSION
5
1A0
100
AcDbEntity
8
2
62
256
6
ByLayer
370
13
48
1
60
0
100
AcDbDimension
2
DimnDraft3D4
10
62.765026
20
38.5
30
0
11
62.765026
21
14.316917
31
0
70
32
71
5
72
1
41
1
210
0
220
0
230
1
3
Standard
100
AcDbAlignedDimension
13
1.5875
23
0
33
0
14
31.5875
24
38.5
34
0
50
90
100
AcDbRotatedDimension
1001
ACAD
1000
DSTYLE
1002
{
1070
    74
1070
     0
1070
   279
1070
     0
1070
   173
1070
     1
1070
   340
1005
173
1070
   271
1070
     1
1070
   272
1070
     2
1070
    77
1070
     1
1070
    73
1070
     0
1070
   171
1070
     3
1070
   274
1070
     4
1070
   177
1070
     7
1070
   176
1070
     7
1070
   178
1070
     7
1070
    78
1070
     8
1070
    48
1040
-0.005
1070
    41
1041
3.175
1070
   147
1041
1.5875
1070
    42
1041
1.5875
1070
    44
1041
3.175
1070
   140
1041
3.175
1070
   343
1005
0
1070
   344
1005
0
1002
}
0
ENDSEC
0
SECTION
2
OBJECTS
0
DICTIONARY
5
215
330
0
100
AcDbDictionary
280
0
281
1
3
ACAD_GROUP
350
216
3
ACAD_MLINESTYLE
350
217
0
DICTIONARY
5
216
330
0
100
AcDbDictionary
280
0
281
1
0
DICTIONARY
5
217
330
0
100
AcDbDictionary
280
0
281
1
3
Standard
350
18
0
MLINESTYLE
5
18
330
217
100
AcDbMlineStyle
2
Standard
70
0
3

62
256
51
90
52
90
71
2
49
-0.5
62
256
6
ByLayer
49
0.5
62
256
6
ByLayer
0
RASTERVARIABLES
5
203
330

100
AcDbRasterVariables
90
0
70
1
71
1
72
1
0
ENDSEC
0
EOF
