0
SECTION
2
HEADER
9
$ACADVER
1
AC1015
9
$DWGCODEPAGE
3
ANSI_1252
9
$HANDSEED
5
31c
9
$ANGBASE
50
0
9
$ANGDIR
70
0
9
$ATTMODE
70
1
9
$AUNITS
70
0
9
$AUPREC
70
0
9
$CECOLOR
62
256
9
$CELTSCALE
40
1
9
$CELTYPE
6
ByLayer
9
$CELWEIGHT
370
18
9
$CLAYER
8
0
9
$CMLJUST
70
0
9
$CMLSCALE
40
1
9
$CMLSTYLE
2
Standard
9
$DIMSTYLE
2
Standard
9
$TEXTSIZE
40
0.2
9
$TEXTSTYLE
7
Standard
9
$LUNITS
70
2
9
$LUPREC
70
4
9
$EXTNAMES
290
1
9
$INSUNITS
70
4
9
$LTSCALE
40
1
9
$LWDISPLAY
290
1
9
$PDMODE
70
0
9
$PDSIZE
40
0
9
$PLINEGEN
70
0
0
ENDSEC
0
SECTION
2
CLASSES
0
CLASS
1
RASTERVARIABLES
2
AcDbRasterVariables
3
ISM
90
0
280
0
281
0
0
ENDSEC
0
SECTION
2
TABLES
0
TABLE
2
VPORT
5
312
100
AcDbSymbolTable
0
VPORT
5
1
100
AcDbSymbolTableRecord
100
AcDbViewportTableRecord
2
*Active
70
0
10
0
20
0
11
1
21
1
12
-1
22
1
13
0
23
0
14
0.5
24
0.5
15
10
25
10
16
0
26
0
36
1
17
0
27
0
37
0
0
ENDTAB
0
TABLE
2
LTYPE
5
313
100
AcDbSymbolTable
0
LTYPE
5
14
100
AcDbSymbolTableRecord
100
AcDbLinetypeTableRecord
70
0
2
ByBlock
3

72
65
73
0
40
0
0
LTYPE
5
15
100
AcDbSymbolTableRecord
100
AcDbLinetypeTableRecord
70
0
2
ByLayer
3

72
65
73
0
40
0
0
LTYPE
5
16
100
AcDbSymbolTableRecord
100
AcDbLinetypeTableRecord
70
0
2
CONTINUOUS
3
Solid line
72
65
73
0
40
0
0
LTYPE
5
6A
100
AcDbSymbolTableRecord
100
AcDbLinetypeTableRecord
70
0
2
CENTER
3
____ _ ____ _ ____ _ ____
72
65
73
4
40
47.5
49
22
74
0
49
-8.5
74
0
49
8.5
74
0
49
-8.5
74
0
0
LTYPE
5
6B
100
AcDbSymbolTableRecord
100
AcDbLinetypeTableRecord
70
0
2
DASHED
3
__ __ __ __ __ __ __ __ __
72
65
73
2
40
25.72
49
12.86
74
0
49
-12.86
74
0
0
ENDTAB
0
TABLE
2
LAYER
5
314
100
AcDbSymbolTable
0
LAYER
5
10
100
AcDbSymbolTableRecord
100
AcDbLayerTableRecord
2
0
70
0
62
7
6
CONTINUOUS
290
1
370
-3
390
0
0
LAYER
5
6D
100
AcDbSymbolTableRecord
100
AcDbLayerTableRecord
2
80
70
0
62
-6
6
CONTINUOUS
290
1
370
-3
390
0
0
LAYER
5
6F
100
AcDbSymbolTableRecord
100
AcDbLayerTableRecord
2
81
70
0
62
-3
6
CONTINUOUS
290
1
370
-3
390
0
0
LAYER
5
72
100
AcDbSymbolTableRecord
100
AcDbLayerTableRecord
2
4
70
0
62
-2
6
CENTER
290
1
370
-3
390
0
0
LAYER
5
77
100
AcDbSymbolTableRecord
100
AcDbLayerTableRecord
2
1
70
0
62
4
6
CONTINUOUS
290
1
370
-3
390
0
0
LAYER
5
271
100
AcDbSymbolTableRecord
100
AcDbLayerTableRecord
2
2
70
0
62
7
6
CONTINUOUS
290
1
370
-3
390
0
0
LAYER
5
2fe
100
AcDbSymbolTableRecord
100
AcDbLayerTableRecord
2
SK4
70
0
62
2
6
CENTER
290
1
370
-3
390
0
0
LAYER
5
2ff
100
AcDbSymbolTableRecord
100
AcDbLayerTableRecord
2
SK1
70
0
62
4
6
CONTINUOUS
290
1
370
-3
390
0
0
LAYER
5
300
100
AcDbSymbolTableRecord
100
AcDbLayerTableRecord
2
SK6
70
0
62
5
6
CONTINUOUS
290
1
370
-3
390
0
0
LAYER
5
301
100
AcDbSymbolTableRecord
100
AcDbLayerTableRecord
2
SK2
70
0
62
7
6
CONTINUOUS
290
1
370
-3
390
0
0
ENDTAB
0
TABLE
2
STYLE
5
315
100
AcDbSymbolTable
0
STYLE
5
11
100
AcDbSymbolTableRecord
100
AcDbTextStyleTableRecord
2
Standard
3
txt
70
0
71
0
40
0
41
1
42
0
50
0
0
STYLE
5
26C
100
AcDbSymbolTableRecord
100
AcDbTextStyleTableRecord
2
iso_b_vert
3
simplex.shx
70
0
71
0
40
0
41
1
42
0
50
0
0
STYLE
5
26D
100
AcDbSymbolTableRecord
100
AcDbTextStyleTableRecord
2
DWGDirectTextStyle
3
simplex
70
0
71
0
40
0
41
1
42
0
50
0
0
ENDTAB
0
TABLE
2
DIMSTYLE
5
316
100
AcDbSymbolTable
100
AcDbDimStyleTable
0
DIMSTYLE
105
27
100
AcDbSymbolTableRecord
100
AcDbDimStyleTableRecord
2
Standard
70
0
3
<>
41
0.18
42
0.0625
44
0.18
140
0.18
147
0.09
73
0
74
0
77
1
271
2
275
0
278
52
280
0
340
11
0
ENDTAB
0
TABLE
2
VIEW
5
317
100
AcDbSymbolTable
0
ENDTAB
0
TABLE
2
UCS
5
318
100
AcDbSymbolTable
0
ENDTAB
0
TABLE
2
APPID
5
319
100
AcDbSymbolTable
0
APPID
5
12
100
AcDbSymbolTableRecord
100
AcDbRegAppTableRecord
2
ACAD
70
0
0
ENDTAB
0
TABLE
2
BLOCK_RECORD
5
31a
100
AcDbSymbolTable
0
BLOCK_RECORD
5
1F
100
AcDbSymbolTableRecord
100
AcDbBlockTableRecord
2
*Model_Space
340
0
70
0
0
BLOCK_RECORD
5
1B
100
AcDbSymbolTableRecord
100
AcDbBlockTableRecord
2
*Paper_Space
340
0
70
0
0
BLOCK_RECORD
5
23
100
AcDbSymbolTableRecord
100
AcDbBlockTableRecord
2
*Paper_Space0
340
0
70
0
0
BLOCK_RECORD
5
26F
100
AcDbSymbolTableRecord
100
AcDbBlockTableRecord
2
DimnDraft3D1
340
0
70
0
0
BLOCK_RECORD
5
27A
100
AcDbSymbolTableRecord
100
AcDbBlockTableRecord
2
DimnDraft3D22
340
0
70
0
0
BLOCK_RECORD
5
285
100
AcDbSymbolTableRecord
100
AcDbBlockTableRecord
2
DimnDraft3D3
340
0
70
0
0
BLOCK_RECORD
5
28F
100
AcDbSymbolTableRecord
100
AcDbBlockTableRecord
2
DimnDraft3D4
340
0
70
0
0
BLOCK_RECORD
5
29A
100
AcDbSymbolTableRecord
100
AcDbBlockTableRecord
2
DimnDraft3D5
340
0
70
0
0
ENDTAB
0
ENDSEC
0
SECTION
2
BLOCKS
0
BLOCK
5
20
100
AcDbEntity
8
0
100
AcDbBlockBegin
2
*Model_Space
70
0
10
0
20
0
30
0
3
*Model_Space
0
ENDBLK
5
21
100
AcDbEntity
8
0
100
AcDbBlockEnd
0
BLOCK
5
1C
100
AcDbEntity
8
0
100
AcDbBlockBegin
2
*Paper_Space
70
0
10
0
20
0
30
0
3
*Paper_Space
0
ENDBLK
5
1D
100
AcDbEntity
8
0
100
AcDbBlockEnd
0
BLOCK
5
24
100
AcDbEntity
8
0
100
AcDbBlockBegin
2
*Paper_Space0
70
0
10
0
20
0
30
0
3
*Paper_Space0
0
ENDBLK
5
25
100
AcDbEntity
8
0
100
AcDbBlockEnd
0
BLOCK
5
277
100
AcDbEntity
8
0
100
AcDbBlockBegin
2
DimnDraft3D1
70
0
10
0
20
0
30
0
3
DimnDraft3D1
0
MTEXT
5
270
100
AcDbEntity
8
2
62
256
6
ByLayer
370
13
48
1
60
0
100
AcDbMText
10
8.897105
20
59.460561
30
0
210
0
220
0
230
1
1
\W0.6740;20
40
3.175
41
0
44
1.084337
50
0
71
7
72
5
7
iso_b_vert
0
LINE
5
272
100
AcDbEntity
8
2
62
256
6
ByLayer
370
13
48
1
60
0
100
AcDbLine
10
0
20
1.5875
30
0
11
0
21
61.841811
31
0
39
0
210
0
220
0
230
1
0
LINE
5
273
100
AcDbEntity
8
2
62
256
6
ByLayer
370
13
48
1
60
0
100
AcDbLine
10
20
20
21.5875
30
0
11
20
21
61.841811
31
0
39
0
210
0
220
0
230
1
0
LINE
5
274
100
AcDbEntity
8
2
62
256
6
ByLayer
370
13
48
1
60
0
100
AcDbLine
10
0
20
58.666811
30
0
11
20
21
58.666811
31
0
39
0
210
0
220
0
230
1
0
SOLID
5
275
100
AcDbEntity
8
2
62
256
6
ByLayer
370
13
48
1
60
0
100
AcDbTrace
10
0
20
58.666811
30
0
11
3.174998
21
59.084807
31
0
12
3.175002
22
58.248814
32
0
13
0
23
58.666811
33
0
39
0
210
0
220
0
230
1
0
SOLID
5
276
100
AcDbEntity
8
2
62
256
6
ByLayer
370
13
48
1
60
0
100
AcDbTrace
10
20
20
58.666811
30
0
11
16.825002
21
58.248814
31
0
12
16.824998
22
59.084807
32
0
13
20
23
58.666811
33
0
39
0
210
0
220
0
230
1
0
ENDBLK
5
278
100
AcDbEntity
8
0
100
AcDbBlockEnd
0
BLOCK
5
27B
100
AcDbEntity
8
0
100
AcDbBlockBegin
2
DimnDraft3D22
70
0
10
0
20
0
30
0
3
DimnDraft3D22
0
LINE
5
27D
100
AcDbEntity
8
SK2
62
256
6
ByLayer
370
25
48
1
60
0
100
AcDbLine
10
-1.099075
20
-1.5875
30
0
11
-1.099075
21
-54.783305
31
0
39
0
210
0
220
0
230
1
0
LINE
5
27F
100
AcDbEntity
8
SK2
62
256
6
ByLayer
370
25
48
1
60
0
100
AcDbLine
10
16.325
20
-41.5875
30
0
11
16.325
21
-54.783305
31
0
39
0
210
0
220
0
230
1
0
LINE
5
280
100
AcDbEntity
8
SK2
62
256
6
ByLayer
370
25
48
1
60
0
100
AcDbLine
10
-1.099075
20
-51.608305
30
0
11
16.325
21
-51.608305
31
0
39
0
210
0
220
0
230
1
0
SOLID
5
281
100
AcDbEntity
8
SK2
62
256
6
ByLayer
370
25
48
1
60
0
100
AcDbTrace
10
-1.099075
20
-51.608305
30
0
11
2.075924
21
-51.190308
31
0
12
2.075927
22
-52.026301
32
0
13
-1.099075
23
-51.608305
33
0
39
0
210
0
220
0
230
1
0
SOLID
5
282
100
AcDbEntity
8
SK2
62
256
6
ByLayer
370
25
48
1
60
0
100
AcDbTrace
10
16.325
20
-51.608305
30
0
11
13.150002
21
-52.026301
31
0
12
13.149998
22
-51.190308
32
0
13
16.325
23
-51.608305
33
0
39
0
210
0
220
0
230
1
0
MTEXT
5
283
100
AcDbEntity
8
SK2
62
256
6
ByLayer
370
13
48
1
60
0
100
AcDbMText
10
4.993588
20
-50.814555
30
0
210
0
220
0
230
1
1
\W0.6611;17,4
40
3.175
41
0
44
1.084337
50
0
71
7
72
5
7
iso_b_vert
0
ENDBLK
5
27C
100
AcDbEntity
8
0
100
AcDbBlockEnd
0
BLOCK
5
28C
100
AcDbEntity
8
0
100
AcDbBlockBegin
2
DimnDraft3D3
70
0
10
0
20
0
30
0
3
DimnDraft3D3
0
MTEXT
5
286
100
AcDbEntity
8
SK2
62
256
6
ByLayer
370
13
48
1
60
0
100
AcDbMText
10
40.196173
20
8.897319
30
0
210
0
220
0
230
1
1
\W0.6740;20
40
3.175
41
0
44
1.084337
50
90
71
7
72
5
7
iso_b_vert
0
LINE
5
287
100
AcDbEntity
8
SK2
62
256
6
ByLayer
370
13
48
1
60
0
100
AcDbLine
10
26.940444
20
0.000427
30
0
11
44.164923
21
0.000427
31
0
39
0
210
0
220
0
230
1
0
LINE
5
288
100
AcDbEntity
8
SK2
62
256
6
ByLayer
370
13
48
1
60
0
100
AcDbLine
10
21.5875
20
20
30
0
11
44.164923
21
20
31
0
39
0
210
0
220
0
230
1
0
LINE
5
289
100
AcDbEntity
8
SK2
62
256
6
ByLayer
370
13
48
1
60
0
100
AcDbLine
10
40.989923
20
0.000427
30
0
11
40.989923
21
20
31
0
39
0
210
0
220
0
230
1
0
SOLID
5
28A
100
AcDbEntity
8
SK2
62
256
6
ByLayer
370
13
48
1
60
0
100
AcDbTrace
10
40.989923
20
0.000427
30
0
11
40.571926
21
3.175426
31
0
12
41.40792
22
3.175429
32
0
13
40.989923
23
0.000427
33
0
39
0
210
0
220
0
230
1
0
SOLID
5
28B
100
AcDbEntity
8
SK2
62
256
6
ByLayer
370
13
48
1
60
0
100
AcDbTrace
10
40.989923
20
20
30
0
11
41.40792
21
16.825002
31
0
12
40.571926
22
16.824998
32
0
13
40.989923
23
20
33
0
39
0
210
0
220
0
230
1
0
ENDBLK
5
28D
100
AcDbEntity
8
0
100
AcDbBlockEnd
0
BLOCK
5
297
100
AcDbEntity
8
0
100
AcDbBlockBegin
2
DimnDraft3D4
70
0
10
0
20
0
30
0
3
DimnDraft3D4
0
MTEXT
5
290
100
AcDbEntity
8
SK2
62
256
6
ByLayer
370
13
48
1
60
0
100
AcDbMText
10
-34.241798
20
3.26273
30
0
210
0
220
0
230
1
1
\W0.6740;80
40
3.175
41
0
44
1.084337
50
90
71
7
72
5
7
iso_b_vert
0
MTEXT
5
291
100
AcDbEntity
8
SK2
62
256
6
ByLayer
370
13
48
1
60
0
100
AcDbMText
10
-34.241798
20
-3.856215
30
0
210
0
220
0
230
1
1
%%c
40
3.175
41
0
44
1.084337
50
90
71
7
72
5
7
iso_b_vert
0
LINE
5
292
100
AcDbEntity
8
SK2
62
256
6
ByLayer
370
13
48
1
60
0
100
AcDbLine
10
-1.9125
20
40
30
0
11
-35.829298
21
40
31
0
39
0
210
0
220
0
230
1
0
LINE
5
293
100
AcDbEntity
8
SK2
62
256
6
ByLayer
370
13
48
1
60
0
100
AcDbLine
10
-1.9125
20
-40
30
0
11
-35.829298
21
-40
31
0
39
0
210
0
220
0
230
1
0
LINE
5
294
100
AcDbEntity
8
SK2
62
256
6
ByLayer
370
13
48
1
60
0
100
AcDbLine
10
-32.654298
20
40
30
0
11
-32.654298
21
-40
31
0
39
0
210
0
220
0
230
1
0
SOLID
5
295
100
AcDbEntity
8
SK2
62
256
6
ByLayer
370
13
48
1
60
0
100
AcDbTrace
10
-32.654298
20
40
30
0
11
-32.236301
21
36.825002
31
0
12
-33.072295
22
36.824998
32
0
13
-32.654298
23
40
33
0
39
0
210
0
220
0
230
1
0
SOLID
5
296
100
AcDbEntity
8
SK2
62
256
6
ByLayer
370
13
48
1
60
0
100
AcDbTrace
10
-32.654298
20
-40
30
0
11
-33.072295
21
-36.825002
31
0
12
-32.236301
22
-36.824998
32
0
13
-32.654298
23
-40
33
0
39
0
210
0
220
0
230
1
0
ENDBLK
5
298
100
AcDbEntity
8
0
100
AcDbBlockEnd
0
BLOCK
5
2A2
100
AcDbEntity
8
0
100
AcDbBlockBegin
2
DimnDraft3D5
70
0
10
0
20
0
30
0
3
DimnDraft3D5
0
MTEXT
5
29B
100
AcDbEntity
8
SK2
62
256
6
ByLayer
370
13
48
1
60
0
100
AcDbMText
10
57.312671
20
23.341734
30
0
210
0
220
0
230
1
1
\W0.7361;40
40
3.175
41
0
44
1.084337
50
90
71
7
72
5
7
iso_b_vert
0
MTEXT
5
29C
100
AcDbEntity
8
SK2
62
256
6
ByLayer
370
13
48
1
60
0
100
AcDbMText
10
57.312671
20
16.222789
30
0
210
0
220
0
230
1
1
%%c
40
3.175
41
0
44
1.084337
50
90
71
7
72
5
7
iso_b_vert
0
LINE
5
29D
100
AcDbEntity
8
SK2
62
256
6
ByLayer
370
13
48
1
60
0
100
AcDbLine
10
21.145038
20
40
30
0
11
62.075171
21
40
31
0
39
0
210
0
220
0
230
1
0
LINE
5
29E
100
AcDbEntity
8
SK2
62
256
6
ByLayer
370
13
48
1
60
0
100
AcDbLine
10
21.145038
20
0
30
0
11
62.075171
21
0
31
0
39
0
210
0
220
0
230
1
0
LINE
5
29F
100
AcDbEntity
8
SK2
62
256
6
ByLayer
370
13
48
1
60
0
100
AcDbLine
10
58.900171
20
40
30
0
11
58.900171
21
0
31
0
39
0
210
0
220
0
230
1
0
SOLID
5
2A0
100
AcDbEntity
8
SK2
62
256
6
ByLayer
370
13
48
1
60
0
100
AcDbTrace
10
58.900171
20
40
30
0
11
59.318168
21
36.825002
31
0
12
58.482174
22
36.824998
32
0
13
58.900171
23
40
33
0
39
0
210
0
220
0
230
1
0
SOLID
5
2A1
100
AcDbEntity
8
SK2
62
256
6
ByLayer
370
13
48
1
60
0
100
AcDbTrace
10
58.900171
20
0
30
0
11
58.482174
21
3.174998
31
0
12
59.318168
22
3.175002
32
0
13
58.900171
23
0
33
0
39
0
210
0
220
0
230
1
0
ENDBLK
5
2A3
100
AcDbEntity
8
0
100
AcDbBlockEnd
0
ENDSEC
0
SECTION
2
ENTITIES
0
ARC
5
154
100
AcDbEntity
8
1
62
256
6
ByLayer
370
18
48
1
60
0
100
AcDbCircle
39
0
10
-17.325
20
-1
30
0
40
1
210
0
220
0
230
-1
100
AcDbArc
50
0
51
90
0
ARC
5
155
100
AcDbEntity
8
1
62
256
6
ByLayer
370
18
48
1
60
0
100
AcDbCircle
39
0
10
21
20
0
30
0
40
39.9999999964927
210
0
220
0
230
1
100
AcDbArc
50
120
51
123.209173
0
ELLIPSE
5
156
100
AcDbEntity
8
1
62
256
6
ByLayer
370
18
48
1
60
0
100
AcDbEllipse
10
6.718476
20
-19.895046
30
0
11
-2.44609916454046
21
0.516332138380839
31
0
210
0
220
0
230
1
40
0.85957
41
3.03706310191821
42
-3.0133706054407
0
ELLIPSE
5
157
100
AcDbEntity
8
1
62
256
6
ByLayer
370
18
48
1
60
0
100
AcDbEllipse
10
6.718476
20
-19.895046
30
0
11
-2.44609916456155
21
0.516332138387012
31
0
210
0
220
0
230
1
40
0.85957
41
0.0294453005512378
42
3.03706310191924
0
ELLIPSE
5
158
100
AcDbEntity
8
1
62
256
6
ByLayer
370
18
48
1
60
0
100
AcDbEllipse
10
6.774989
20
21.035737
30
0
11
2.4679335218351
21
0.399129216852662
31
0
210
0
220
0
230
1
40
0.792683
41
-0.294602597667237
42
0.00337095109964861
0
ELLIPSE
5
159
100
AcDbEntity
8
1
62
256
6
ByLayer
370
18
48
1
60
0
100
AcDbEllipse
10
6.774989
20
21.035737
30
0
11
2.46793352184641
21
0.399129216854391
31
0
210
0
220
0
230
1
40
0.792683
41
0.00337095109968517
42
3.09051794210561
0
ELLIPSE
5
15A
100
AcDbEntity
8
1
62
256
6
ByLayer
370
18
48
1
60
0
100
AcDbEllipse
10
6.774989
20
21.035737
30
0
11
2.46793352181538
21
0.399129216804885
31
0
210
0
220
0
230
1
40
0.792683
41
-1.96256789461732
42
-1.70577466092827
0
ELLIPSE
5
15B
100
AcDbEntity
8
1
62
256
6
ByLayer
370
18
48
1
60
0
100
AcDbEllipse
10
6.774989
20
21.035737
30
0
11
2.46793352184655
21
0.399129216854212
31
0
210
0
220
0
230
1
40
0.792683
41
-1.70577466094861
42
-0.294602597666474
0
ELLIPSE
5
15C
100
AcDbEntity
8
1
62
256
6
ByLayer
370
18
48
1
60
0
100
AcDbEllipse
10
-1.099075
20
0
30
0
11
4.68581336926509E-14
21
39.9999999999999
31
0
210
0
220
0
230
1
40
0.008727
41
-2.56198323665583
42
-0.57960941693378
0
ELLIPSE
5
15D
100
AcDbEntity
8
1
62
256
6
ByLayer
370
18
48
1
60
0
100
AcDbEllipse
10
-0.88963
20
0
30
0
11
6.15013004700061E-15
21
5.24999999986356
31
0
210
0
220
0
230
1
40
0.008727
41
0
42
0.309844639745822
0
ELLIPSE
5
15E
100
AcDbEntity
8
1
62
256
6
ByLayer
370
18
48
1
60
0
100
AcDbEllipse
10
-15
20
0
30
0
11
4.68581338156647E-14
21
40.0000001050095
31
0
210
0
220
0
230
1
40
1
41
-2.76338820812443
42
-2.73007580795508
0
ELLIPSE
5
15F
100
AcDbEntity
8
1
62
256
6
ByLayer
370
18
48
1
60
0
100
AcDbEllipse
10
21
20
0
30
0
11
39.9999999239293
21
0
31
0
210
0
220
0
230
1
40
1
41
-2.15040574421898
42
-2.0943951027621
0
ELLIPSE
5
160
100
AcDbEntity
8
1
62
256
6
ByLayer
370
18
48
1
60
0
100
AcDbEllipse
10
-15
20
0
30
0
11
4.68581339267326E-14
21
40.0000001998215
31
0
210
0
220
0
230
1
40
1
41
-0.411516845238483
42
-0.3782044451184
0
ELLIPSE
5
161
100
AcDbEntity
8
1
62
256
6
ByLayer
370
18
48
1
60
0
100
AcDbEllipse
10
25.352651
20
4E-06
30
0
11
69.2820284472704
21
1.97936152557161E-06
31
0
210
0
220
0
230
1
40
0.57735
41
1.94011400324872
42
1.94900074023877
0
ELLIPSE
5
162
100
AcDbEntity
8
1
62
256
6
ByLayer
370
18
48
1
60
0
100
AcDbEllipse
10
-24.054071
20
4E-05
30
0
11
-69.2819912148432
21
2.06536876550022E-05
31
0
210
0
220
0
230
1
40
0.57735
41
-1.93065872753196
42
-1.92037253098117
0
ELLIPSE
5
163
100
AcDbEntity
8
1
62
256
6
ByLayer
370
18
48
1
60
0
100
AcDbEllipse
10
22.754636
20
-9.9E-05
30
0
11
-69.2821324604453
21
4.85234166257809E-05
31
0
210
0
220
0
230
1
40
0.577351
41
-1.24139140635629
42
-1.23117957806954
0
ELLIPSE
5
164
100
AcDbEntity
8
1
62
256
6
ByLayer
370
18
48
1
60
0
100
AcDbEllipse
10
-21.455993
20
4.7E-05
30
0
11
-69.2819856323181
21
2.17625112799519E-05
31
0
210
0
220
0
230
1
40
0.57735
41
-1.89087941382473
42
-1.88073438979415
0
ELLIPSE
5
165
100
AcDbEntity
8
1
62
256
6
ByLayer
370
18
48
1
60
0
100
AcDbEllipse
10
20.156407
20
0.000179
30
0
11
69.2818563840654
21
7.80402550089917E-05
31
0
210
0
220
0
230
1
40
0.577349
41
1.86082319718526
42
1.87090473394227
0
ELLIPSE
5
166
100
AcDbEntity
8
1
62
256
6
ByLayer
370
18
48
1
60
0
100
AcDbEllipse
10
-18.857986
20
-8.7E-05
30
0
11
69.2821159312558
21
3.52787881775155E-05
31
0
210
0
220
0
230
1
40
0.577351
41
1.28997350805636
42
1.29999819136137
0
ELLIPSE
5
167
100
AcDbEntity
8
1
62
256
6
ByLayer
370
18
48
1
60
0
100
AcDbEllipse
10
17.55858
20
-0.000342
30
0
11
-69.2823581355376
21
0.00012998644758998
31
0
210
0
220
0
230
1
40
0.577352
41
-1.31968421012621
42
-1.30971325355002
0
ELLIPSE
5
168
100
AcDbEntity
8
1
62
256
6
ByLayer
370
18
48
1
60
0
100
AcDbEllipse
10
-16.259982
20
-0.000273
30
0
11
69.2822886661532
21
9.61398465607867E-05
31
0
210
0
220
0
230
1
40
0.577352
41
1.32879376790987
42
1.3387170233709
0
ELLIPSE
5
169
100
AcDbEntity
8
1
62
256
6
ByLayer
370
18
48
1
60
0
100
AcDbEllipse
10
14.96041
20
-0.00016
30
0
11
-69.2821811306437
21
5.18015203393814E-05
31
0
210
0
220
0
230
1
40
0.577351
41
-1.35821882361466
42
-1.34834026060324
0
ELLIPSE
5
16A
100
AcDbEntity
8
1
62
256
6
ByLayer
370
18
48
1
60
0
100
AcDbEllipse
10
-13.661817
20
-7.3E-05
30
0
11
69.2820995276972
21
2.18837753780869E-05
31
0
210
0
220
0
230
1
40
0.577351
41
1.36724753460845
42
1.37708679375588
0
ELLIPSE
5
16B
100
AcDbEntity
8
1
62
256
6
ByLayer
370
18
48
1
60
0
100
AcDbEllipse
10
12.362203
20
0.000223
30
0
11
69.2818303015641
21
5.92877649953906E-05
31
0
210
0
220
0
230
1
40
0.577349
41
1.74515670015524
42
1.75495962440038
0
ELLIPSE
5
16C
100
AcDbEntity
8
1
62
256
6
ByLayer
370
18
48
1
60
0
100
AcDbEllipse
10
-11.063613
20
0.000366
30
0
11
-69.2817032337519
21
8.76064440909106E-05
31
0
210
0
220
0
230
1
40
0.577348
41
-1.73619375985975
42
-1.72642229811085
0
ELLIPSE
5
16D
100
AcDbEntity
8
1
62
256
6
ByLayer
370
18
48
1
60
0
100
AcDbEllipse
10
9.764253
20
-0.000233
30
0
11
-69.2822398387514
21
4.91206570979803E-05
31
0
210
0
220
0
230
1
40
0.577352
41
-1.43439368814022
42
-1.42465084501695
0
ELLIPSE
5
16E
100
AcDbEntity
8
1
62
256
6
ByLayer
370
18
48
1
60
0
100
AcDbEllipse
10
-8.465644
20
-2.3E-05
30
0
11
69.2820531046853
21
4.29805300952481E-06
31
0
210
0
220
0
230
1
40
0.57735
41
1.44330539580144
42
1.4530241877236
0
ELLIPSE
5
16F
100
AcDbEntity
8
1
62
256
6
ByLayer
370
18
48
1
60
0
100
AcDbEllipse
10
7.166193
20
-0.000411
30
0
11
-69.2823936366174
21
6.35261318380915E-05
31
0
210
0
220
0
230
1
40
0.577353
41
-1.47215613776454
42
-1.46245849594351
0
ELLIPSE
5
170
100
AcDbEntity
8
1
62
256
6
ByLayer
370
18
48
1
60
0
100
AcDbEllipse
10
-5.867575
20
-8.5E-05
30
0
11
69.2821064544934
21
1.05825732374103E-05
31
0
210
0
220
0
230
1
40
0.577351
41
1.48102987947789
42
1.49071056691344
0
ELLIPSE
5
171
100
AcDbEntity
8
1
62
256
6
ByLayer
370
18
48
1
60
0
100
AcDbEllipse
10
4.568022
20
0.000187
30
0
11
69.2818696197054
21
1.82966694478792E-05
31
0
210
0
220
0
230
1
40
0.577349
41
1.63181309608266
42
1.64147987801521
0
ELLIPSE
5
172
100
AcDbEntity
8
1
62
256
6
ByLayer
370
18
48
1
60
0
100
AcDbEllipse
10
-3.269481
20
5.9E-05
30
0
11
-69.2819807909925
21
4.30039004701719E-06
31
0
210
0
220
0
230
1
40
0.57735
41
-1.62296568963317
42
-1.61330905544533
0
ELLIPSE
5
173
100
AcDbEntity
8
1
62
256
6
ByLayer
370
18
48
1
60
0
100
AcDbEllipse
10
1.969969
20
-3.3E-05
30
0
11
-69.2820612933683
21
1.21902770030654E-06
31
0
210
0
220
0
230
1
40
0.577351
41
-1.54731491879233
42
-1.53766524935775
0
ELLIPSE
5
174
100
AcDbEntity
8
1
62
256
6
ByLayer
370
18
48
1
60
0
100
AcDbEllipse
10
-0.67141
20
7E-06
30
0
11
69.2820266134606
21
0
31
0
210
0
220
0
230
1
40
0.57735
41
1.55615003151859
42
1.56579630555134
0
ELLIPSE
5
175
100
AcDbEntity
8
1
62
256
6
ByLayer
370
18
48
1
60
0
100
AcDbEllipse
10
-0.67141
20
-8E-06
30
0
11
69.2820250895622
21
0
31
0
210
0
220
0
230
1
40
0.57735
41
-1.56579630544142
42
-1.55615003119647
0
ELLIPSE
5
176
100
AcDbEntity
8
1
62
256
6
ByLayer
370
18
48
1
60
0
100
AcDbEllipse
10
1.969983
20
0.000312
30
0
11
69.2823030928785
21
1.33109437343649E-05
31
0
210
0
220
0
230
1
40
0.577353
41
-1.6039275910493
42
-1.59427795526482
0
ELLIPSE
5
177
100
AcDbEntity
8
1
62
256
6
ByLayer
370
18
48
1
60
0
100
AcDbEllipse
10
-3.269487
20
1.1E-05
30
0
11
-69.2820419064949
21
5.67282232964806E-07
31
0
210
0
220
0
230
1
40
0.57735
41
1.6133091397726
42
1.62296576546008
0
ELLIPSE
5
178
100
AcDbEntity
8
1
62
256
6
ByLayer
370
18
48
1
60
0
100
AcDbEllipse
10
4.568046
20
1.9E-05
30
0
11
69.2820485501857
21
1.84343126285713E-06
31
0
210
0
220
0
230
1
40
0.57735
41
-1.64148020022379
42
-1.6318134431509
0
ELLIPSE
5
179
100
AcDbEntity
8
1
62
256
6
ByLayer
370
18
48
1
60
0
100
AcDbEllipse
10
-5.867574
20
7.7E-05
30
0
11
-69.282099832535
21
9.63147777732298E-06
31
0
210
0
220
0
230
1
40
0.577351
41
1.65088207046295
42
1.66056275881733
0
ELLIPSE
5
17A
100
AcDbEntity
8
1
62
256
6
ByLayer
370
18
48
1
60
0
100
AcDbEllipse
10
7.166193
20
0.00041
30
0
11
69.282393363627
21
6.34771622329597E-05
31
0
210
0
220
0
230
1
40
0.577353
41
-1.67913415684123
42
-1.66943651498241
0
ELLIPSE
5
17B
100
AcDbEntity
8
1
62
256
6
ByLayer
370
18
48
1
60
0
100
AcDbEllipse
10
-8.465643
20
2.2E-05
30
0
11
-69.2820518499515
21
4.03889493410674E-06
31
0
210
0
220
0
230
1
40
0.57735
41
1.68856846146741
42
1.69828725356302
0
ELLIPSE
5
17C
100
AcDbEntity
8
1
62
256
6
ByLayer
370
18
48
1
60
0
100
AcDbEllipse
10
9.764208
20
4.8E-05
30
0
11
69.2820753183482
21
1.02826972251264E-05
31
0
210
0
220
0
230
1
40
0.577351
41
-1.71694117365174
42
-1.70719830783952
0
ELLIPSE
5
17D
100
AcDbEntity
8
1
62
256
6
ByLayer
370
18
48
1
60
0
100
AcDbEllipse
10
-11.063686
20
-0.000103
30
0
11
69.281939286592
21
2.49195947098788E-05
31
0
210
0
220
0
230
1
40
0.57735
41
-1.41516929641351
42
-1.40539786713419
0
ELLIPSE
5
17E
100
AcDbEntity
8
1
62
256
6
ByLayer
370
18
48
1
60
0
100
AcDbEllipse
10
12.362282
20
3.1E-05
30
0
11
69.2820608917109
21
8.41789434864425E-06
31
0
210
0
220
0
230
1
40
0.57735
41
-1.75496073503953
42
-1.74515784242279
0
ELLIPSE
5
17F
100
AcDbEntity
8
1
62
256
6
ByLayer
370
18
48
1
60
0
100
AcDbEllipse
10
-13.661795
20
1E-05
30
0
11
-69.2820417130704
21
2.94516932293895E-06
31
0
210
0
220
0
230
1
40
0.57735
41
1.76450553736939
42
1.77434480440932
0
ELLIPSE
5
180
100
AcDbEntity
8
1
62
256
6
ByLayer
370
18
48
1
60
0
100
AcDbEllipse
10
14.960312
20
-9.4E-05
30
0
11
-69.2819447041796
21
3.04749130015902E-05
31
0
210
0
220
0
230
1
40
0.57735
41
1.34834161399208
42
1.35822020922154
0
ELLIPSE
5
181
100
AcDbEntity
8
1
62
256
6
ByLayer
370
18
48
1
60
0
100
AcDbEllipse
10
-16.25996
20
0.000221
30
0
11
-69.2822398514818
21
7.75605015022634E-05
31
0
210
0
220
0
230
1
40
0.577352
41
1.80287531422014
42
1.81279857629447
0
ELLIPSE
5
182
100
AcDbEntity
8
1
62
256
6
ByLayer
370
18
48
1
60
0
100
AcDbEllipse
10
17.558569
20
0.000319
30
0
11
69.2823362799248
21
0.000121273964943682
31
0
210
0
220
0
230
1
40
0.577352
41
-1.83187925636289
42
-1.82190829683068
0
ELLIPSE
5
183
100
AcDbEntity
8
1
62
256
6
ByLayer
370
18
48
1
60
0
100
AcDbEllipse
10
-18.857905
20
-7.9E-05
30
0
11
69.2819564117896
21
3.20082274706228E-05
31
0
210
0
220
0
230
1
40
0.57735
41
-1.29999932224331
42
-1.28997461744378
0
ELLIPSE
5
184
100
AcDbEntity
8
1
62
256
6
ByLayer
370
18
48
1
60
0
100
AcDbEllipse
10
20.156503
20
5E-06
30
0
11
69.28203685215
21
2.0044120879934E-06
31
0
210
0
220
0
230
1
40
0.57735
41
-1.87090605414611
42
-1.86082454161149
0
ELLIPSE
5
185
100
AcDbEntity
8
1
62
256
6
ByLayer
370
18
48
1
60
0
100
AcDbEllipse
10
-21.455818
20
-0.000357
30
0
11
69.2816754506574
21
0.000166165214553796
31
0
210
0
220
0
230
1
40
0.577348
41
-1.26086069124436
42
-1.25071562577124
0
ELLIPSE
5
186
100
AcDbEntity
8
1
62
256
6
ByLayer
370
18
48
1
60
0
100
AcDbEllipse
10
22.754599
20
3.7E-05
30
0
11
69.2820696998215
21
1.80580315236128E-05
31
0
210
0
220
0
230
1
40
0.57735
41
-1.91041257146482
42
-1.90020073483018
0
ELLIPSE
5
187
100
AcDbEntity
8
1
62
256
6
ByLayer
370
18
48
1
60
0
100
AcDbEllipse
10
-24.054061
20
-5.5E-05
30
0
11
69.2819753001393
21
2.86715504036341E-05
31
0
210
0
220
0
230
1
40
0.57735
41
-1.221220257383
42
-1.21093405872425
0
ELLIPSE
5
188
100
AcDbEntity
8
1
62
256
6
ByLayer
370
18
48
1
60
0
100
AcDbEllipse
10
25.352944
20
0.000427
30
0
11
69.2824829586404
21
0.000234093197994663
31
0
210
0
220
0
230
1
40
0.577353
41
-1.94900464828926
42
-1.94011796274498
0
ELLIPSE
5
189
100
AcDbEntity
8
1
62
256
6
ByLayer
370
18
48
1
60
0
100
AcDbEllipse
10
-0.88963
20
0
30
0
11
6.15013004714062E-15
21
5.24999999998308
31
0
210
0
220
0
230
1
40
0.008727
41
2.83174801384777
42
3.14159265358978
0
ELLIPSE
5
18A
100
AcDbEntity
8
1
62
256
6
ByLayer
370
18
48
1
60
0
100
AcDbEllipse
10
-0.88963
20
0
30
0
11
6.15013004716045E-15
21
5.25
31
0
210
0
220
0
230
1
40
0.008727
41
3.14159265358978
42
-2.80647726325742E-14
0
POINT
5
6C
100
AcDbEntity
8
80
62
256
6
ByLayer
370
18
48
1
60
0
100
AcDbPoint
10
0
20
0
30
0
39
0
210
0
220
0
230
1
50
360
0
POINT
5
6E
100
AcDbEntity
8
81
62
256
6
ByLayer
370
18
48
1
60
0
100
AcDbPoint
10
20
20
20
30
0
39
0
210
0
220
0
230
1
50
360
0
SPLINE
5
18B
100
AcDbEntity
8
SK1
62
256
6
ByLayer
370
18
48
1
60
0
100
AcDbSpline
70
4
71
3
72
20
73
16
40
0
40
0
40
0
40
0
40
0.043213215104576
40
0.125436832884187
40
0.207693745466449
40
0.289960330180519
40
0.372243641272623
40
0.45455318137525
40
0.536902848626921
40
0.619314588543973
40
0.701825812416547
40
0.784506074022199
40
0.867499623623279
40
0.951154961384413
40
1
40
1
40
1
40
1
41
1
10
-2.49695022764608
20
16
30
0
41
1
10
-2.4969501841386
20
15.9261731632336
30
0
41
1
10
-2.49689675350424
20
15.7124140361512
30
0
41
1
10
-2.49655076398228
20
15.3594661711917
30
0
41
1
10
-2.49574376459075
20
14.9480405051295
30
0
41
1
10
-2.49454982725496
20
14.5489162828264
30
0
41
1
10
-2.49298279932627
20
14.1669373380073
30
0
41
1
10
-2.49106050677673
20
13.8065563389871
30
0
41
1
10
-2.48880438881637
20
13.4719801744562
30
0
41
1
10
-2.48623895940041
20
13.1670645769831
30
0
41
1
10
-2.48338964516776
20
12.8952370155473
30
0
41
1
10
-2.48028281094044
20
12.6594307762546
30
0
41
1
10
-2.47692665487294
20
12.4617170379453
30
0
41
1
10
-2.47384800471028
20
12.3263457688505
30
0
41
1
10
-2.47178927739571
20
12.2593831700609
30
0
41
1
10
-2.47101196299047
20
12.2369666631364
30
0
0
SPLINE
5
18C
100
AcDbEntity
8
SK1
62
256
6
ByLayer
370
18
48
1
60
0
100
AcDbSpline
70
4
71
3
72
81
73
77
40
0
40
0
40
0
40
0
40
0.010408289810431
40
0.0263876436520525
40
0.0380387874258139
40
0.0446229886506353
40
0.0491613303170055
40
0.0549963386524907
40
0.0617407065601448
40
0.0695925416045291
40
0.0782195029706065
40
0.0876792536509734
40
0.0975752116242854
40
0.107660181490328
40
0.118313881350129
40
0.127895303378461
40
0.136635757401995
40
0.144654928392319
40
0.151977471487146
40
0.158558722683664
40
0.164250477624711
40
0.168955033273847
40
0.173240287090469
40
0.177907897943877
40
0.184645094416869
40
0.195151537180793
40
0.216572710073669
40
0.23993634726289
40
0.264767150726184
40
0.288710569164633
40
0.312374421250151
40
0.335922761837951
40
0.359413504178765
40
0.382872185216967
40
0.406311719033785
40
0.429739330742576
40
0.45315942269315
40
0.476574907911167
40
0.499987896332966
40
0.523400088082321
40
0.546812784841139
40
0.570227308272214
40
0.593645453428041
40
0.617069504674621
40
0.640502658009341
40
0.663949760334328
40
0.687418737858686
40
0.71092363167452
40
0.734491804606756
40
0.758183738835553
40
0.782160440290708
40
0.807019342197619
40
0.819544820074404
40
0.826424465567917
40
0.831224074213391
40
0.836245186180317
40
0.84242665444789
40
0.849496881627167
40
0.857478990352035
40
0.866472392098712
40
0.876127912380829
40
0.886115403406914
40
0.896228627128673
40
0.906493646101131
40
0.915771413379278
40
0.924263429580272
40
0.93205018344104
40
0.939133793954012
40
0.945440443637856
40
0.950790346695013
40
0.955266198601685
40
0.959456656483342
40
0.964738051295036
40
0.972369083681358
40
0.985113086450458
40
1
40
1
40
1
40
1
41
1
10
-2.47101196299047
20
12.2369666631364
30
0
41
1
10
-2.47046148068784
20
12.2204804846925
30
0
41
1
10
-2.46886000680972
20
12.1797211274605
30
0
41
1
10
-2.46614815594687
20
12.1297463464554
30
0
41
1
10
-2.46245739270073
20
12.0806042035247
30
0
41
1
10
-2.45342014007174
20
12.0135293005431
30
0
41
1
10
-2.43554264770963
20
11.9336903430994
30
0
41
1
10
-2.40450183533681
20
11.8413493021591
30
0
41
1
10
-2.35062959931041
20
11.7333131974357
30
0
41
1
10
-2.269319874811
20
11.6205416691749
30
0
41
1
10
-2.1564361877596
20
11.5129419448218
30
0
41
1
10
-2.01337142835179
20
11.4235552968508
30
0
41
1
10
-1.84589170261347
20
11.3641543625249
30
0
41
1
10
-1.66216084905136
20
11.3427056081606
30
0
41
1
10
-1.48009446203701
20
11.3641310286596
30
0
41
1
10
-1.31559777951659
20
11.4232070689861
30
0
41
1
10
-1.18042183060574
20
11.5061953174566
30
0
41
1
10
-1.07343873438038
20
11.6036260275753
30
0
41
1
10
-0.992939743690254
20
11.7072932119096
30
0
41
1
10
-0.936641272611691
20
11.8090563933159
30
0
41
1
10
-0.901087167256302
20
11.9006838992713
30
0
41
1
10
-0.881096849586805
20
11.9756681248672
30
0
41
1
10
-0.871069549785868
20
12.0300696032532
30
0
41
1
10
-0.865562586292569
20
12.0718063072791
30
0
41
1
10
-0.861967088588796
20
12.1101689513563
30
0
41
1
10
-0.858584789959861
20
12.161873789445
30
0
41
1
10
-0.855359253382984
20
12.2394034524364
30
0
41
1
10
-0.851678583661106
20
12.3715006523785
30
0
41
1
10
-0.848156808289453
20
12.5501096219397
30
0
41
1
10
-0.844846603929744
20
12.7718731644933
30
0
41
1
10
-0.841840968406517
20
13.0283455512479
30
0
41
1
10
-0.839121994490292
20
13.3185524309684
30
0
41
1
10
-0.836706452076998
20
13.639762045588
30
0
41
1
10
-0.834616097491119
20
13.988489372372
30
0
41
1
10
-0.832872543849444
20
14.3607730217727
30
0
41
1
10
-0.831494746204106
20
14.7523031416508
30
0
41
1
10
-0.830498098818458
20
15.1585043792889
30
0
41
1
10
-0.829893885837983
20
15.5746064032133
30
0
41
1
10
-0.82968898825669
20
15.9957094282469
30
0
41
1
10
-0.829885720190623
20
16.4168465804154
30
0
41
1
10
-0.830481762364994
20
16.833046838997
30
0
41
1
10
-0.831470186247415
20
17.2393992055854
30
0
41
1
10
-0.832839579057307
20
17.6311162047247
30
0
41
1
10
-0.834574262391927
20
18.0035952803152
30
0
41
1
10
-0.836654658987531
20
18.3524792767903
30
0
41
1
10
-0.83905777864871
20
18.6737190055901
30
0
41
1
10
-0.841758464544453
20
18.9636461205475
30
0
41
1
10
-0.844730266695693
20
19.2190475680923
30
0
41
1
10
-0.847953879826387
20
19.437350875769
30
0
41
1
10
-0.851416097206344
20
19.6167516542823
30
0
41
1
10
-0.855221377803099
20
19.7579119627273
30
0
41
1
10
-0.858776599156239
20
19.8433108712196
30
0
41
1
10
-0.862852273955624
20
19.9023410738478
30
0
41
1
10
-0.868711818865301
20
19.9554718827065
30
0
41
1
10
-0.879824693038952
20
20.0192492341765
30
0
41
1
10
-0.901389607922053
20
20.1010967365217
30
0
41
1
10
-0.940442733707486
20
20.1998757633888
30
0
41
1
10
-1.00351434629691
20
20.3092842131981
30
0
41
1
10
-1.0953977916024
20
20.4204196473034
30
0
41
1
10
-1.21907942004068
20
20.5224163881309
30
0
41
1
10
-1.37227803175318
20
20.6021987112693
30
0
41
1
10
-1.54592361978876
20
20.6482558970409
30
0
41
1
10
-1.72920042962744
20
20.6543497699791
30
0
41
1
10
-1.9049306689389
20
20.6194537880916
30
0
41
1
10
-2.05953927721473
20
20.5511887926215
30
0
41
1
10
-2.18512306668642
20
20.4624102956887
30
0
41
1
10
-2.28303433932801
20
20.3620098187033
30
0
41
1
10
-2.35515277129284
20
20.2580372850838
30
0
41
1
10
-2.40402918362762
20
20.1588284450369
30
0
41
1
10
-2.43377448516171
20
20.0720379103707
30
0
41
1
10
-2.44964300545228
20
20.004529910492
30
0
41
1
10
-2.4577812447151
20
19.9552913767278
30
0
41
1
10
-2.4624343847313
20
19.9158476282922
30
0
41
1
10
-2.46579808497674
20
19.8756733657421
30
0
41
1
10
-2.46838328407283
20
19.8302153288908
30
0
41
1
10
-2.47019630868803
20
19.7882329166505
30
0
41
1
10
-2.47093245656419
20
19.7652998907475
30
0
0
SPLINE
5
18D
100
AcDbEntity
8
SK1
62
256
6
ByLayer
370
18
48
1
60
0
100
AcDbSpline
70
4
71
3
72
20
73
16
40
0
40
0
40
0
40
0
40
0.034766090302825
40
0.115638987924013
40
0.201174310597549
40
0.28472776052816
40
0.367563905743786
40
0.450080751543477
40
0.532431728447362
40
0.614687942950865
40
0.696886635429765
40
0.779049239871529
40
0.861189162497945
40
0.943315522443891
40
1
40
1
40
1
40
1
41
1
10
-2.47093245656419
20
19.7652998907475
30
0
41
1
10
-2.47149048563829
20
19.7493823742825
30
0
41
1
10
-2.47331275167306
20
19.692641056978
30
0
41
1
10
-2.4762334923385
20
19.5727559451013
30
0
41
1
10
-2.47964918841709
20
19.3824858585772
30
0
41
1
10
-2.48285210127677
20
19.1498259546029
30
0
41
1
10
-2.48576733517635
20
18.8823260524091
30
0
41
1
10
-2.48839127666645
20
18.5818553203769
30
0
41
1
10
-2.490705213695
20
18.2514324400201
30
0
41
1
10
-2.49268680555077
20
17.8947144865746
30
0
41
1
10
-2.4943151980815
20
17.5157923763327
30
0
41
1
10
-2.49557249267739
20
17.1190390578624
30
0
41
1
10
-2.4964445247943
20
16.7092125087496
30
0
41
1
10
-2.49687232211084
20
16.3339133722978
30
0
41
1
10
-2.49695011819081
20
16.0970808743522
30
0
41
1
10
-2.49695022764608
20
16
30
0
0
SPLINE
5
18E
100
AcDbEntity
8
SK1
62
256
6
ByLayer
370
18
48
1
60
0
100
AcDbSpline
70
4
71
3
72
36
73
32
40
0
40
0
40
0
40
0
40
0.0101681175729911
40
0.0317622891361679
40
0.0603421265421298
40
0.0938593982292588
40
0.12976979527805
40
0.166661460187954
40
0.203965328426524
40
0.241461110624351
40
0.279056160170044
40
0.316707104026311
40
0.354391542115955
40
0.392096874706817
40
0.429815443624193
40
0.467542221176434
40
0.50527361261359
40
0.543006773489781
40
0.580738638830378
40
0.618466260869805
40
0.656186458147541
40
0.693894998133774
40
0.73158574687766
40
0.769249126893871
40
0.80686906215344
40
0.844416363096343
40
0.881832852146332
40
0.918988128982253
40
0.955541742443202
40
0.983355464351781
40
1
40
1
40
1
40
1
41
1
10
-2.45724575929092
20
19.7645885168613
30
0
41
1
10
-2.4571991368496
20
19.7642028482698
30
0
41
1
10
-2.45694182825026
20
19.7598807322033
30
0
41
1
10
-2.45540988071649
20
19.7294224348039
30
0
41
1
10
-2.45305902352782
20
19.6587216167212
30
0
41
1
10
-2.45017037498204
20
19.5399966543268
30
0
41
1
10
-2.44712064172663
20
19.3724588062381
30
0
41
1
10
-2.44410952704195
20
19.1598595128141
30
0
41
1
10
-2.44126486474123
20
18.9068991727972
30
0
41
1
10
-2.43865365368643
20
18.6177750127017
30
0
41
1
10
-2.436321941746
20
18.296542625482
30
0
41
1
10
-2.43430403810382
20
17.9473552923096
30
0
41
1
10
-2.43262737523196
20
17.5745669447933
30
0
41
1
10
-2.43131374345485
20
17.1827440651607
30
0
41
1
10
-2.43037983202112
20
16.7766426722449
30
0
41
1
10
-2.42983736172809
20
16.3611675510528
30
0
41
1
10
-2.42969311766691
20
15.9413229296368
30
0
41
1
10
-2.4299489481259
20
15.5221605313476
30
0
41
1
10
-2.43060176600908
20
15.1087228481001
30
0
41
1
10
-2.43164357919999
20
14.7059855781909
30
0
41
1
10
-2.43306154780324
20
14.3188006013723
30
0
41
1
10
-2.43483806084018
20
13.9518442273569
30
0
41
1
10
-2.43695069033872
20
13.6095708088749
30
0
41
1
10
-2.43937229523225
20
13.2961707168482
30
0
41
1
10
-2.44206967605204
20
13.01555153122
30
0
41
1
10
-2.44500518243829
20
12.7713122659865
30
0
41
1
10
-2.44812054352106
20
12.5669066648694
30
0
41
1
10
-2.45136570689083
20
12.4054903286611
30
0
41
1
10
-2.45428511572673
20
12.2993335327522
30
0
41
1
10
-2.45660601806812
20
12.2458088392633
30
0
41
1
10
-2.45711932410653
20
12.2365197959097
30
0
41
1
10
-2.45724575929092
20
12.2354114831387
30
0
0
SPLINE
5
18F
100
AcDbEntity
8
SK1
62
256
6
ByLayer
370
18
48
1
60
0
100
AcDbSpline
70
4
71
3
72
44
73
40
40
0
40
0
40
0
40
0
40
0.0245848688350818
40
0.0713635418258718
40
0.118161156900793
40
0.164964274646396
40
0.211776908365506
40
0.258604464297226
40
0.305454849372614
40
0.352340548838124
40
0.399282846730569
40
0.446321313595533
40
0.493538016313965
40
0.541131223651925
40
0.589712783697909
40
0.621651489690938
40
0.644939193258988
40
0.658099354126742
40
0.667170356722639
40
0.678833069592074
40
0.692313363341519
40
0.70800720512473
40
0.725250329309555
40
0.744157989703219
40
0.763937518673018
40
0.78409483483815
40
0.805388899099612
40
0.824539749890647
40
0.842009717329262
40
0.858038021546462
40
0.872673941956321
40
0.885828206460081
40
0.897204591853898
40
0.906607814361821
40
0.915172958053557
40
0.924502337214594
40
0.93796829707135
40
0.958968031465834
40
1
40
1
40
1
40
1
41
1
10
-0.829694982371149
20
-16
30
0
41
1
10
-0.829695025878628
20
-15.9261731632336
30
0
41
1
10
-0.82974845650319
20
-15.7124140362399
30
0
41
1
10
-0.830094446103075
20
-15.3594661705745
30
0
41
1
10
-0.830901445178259
20
-14.9480405073781
30
0
41
1
10
-0.83209538368715
20
-14.5489162744478
30
0
41
1
10
-0.833662407238451
20
-14.1669373692839
30
0
41
1
10
-0.835584716132454
20
-13.8065562221975
30
0
41
1
10
-0.837840773046533
20
-13.4719806106912
30
0
41
1
10
-0.840406430570708
20
-13.1670629467621
30
0
41
1
10
-0.843254891785174
20
-12.8952431129068
30
0
41
1
10
-0.846364920642975
20
-12.6594079331238
30
0
41
1
10
-0.849709073641183
20
-12.4618029318697
30
0
41
1
10
-0.853355349682242
20
-12.3030607392082
30
0
41
1
10
-0.856778381893456
20
-12.1982755985699
30
0
41
1
10
-0.86049957365521
20
-12.1296998403995
30
0
41
1
10
-0.86418750513763
20
-12.0806099656675
30
0
41
1
10
-0.873225110858354
20
-12.0135285453806
30
0
41
1
10
-0.891102550132471
20
-11.9336905678257
30
0
41
1
10
-0.922143378883644
20
-11.8413492245766
30
0
41
1
10
-0.976015609297959
20
-11.7333132234402
30
0
41
1
10
-1.05732533565037
20
-11.6205416609762
30
0
41
1
10
-1.17020902212089
20
-11.5129419473482
30
0
41
1
10
-1.31327378170502
20
-11.4235552961086
30
0
41
1
10
-1.48075350739423
20
-11.3641543627454
30
0
41
1
10
-1.66448436096278
20
-11.3427056080433
30
0
41
1
10
-1.84655074800333
20
-11.3641310288946
30
0
41
1
10
-2.01104743042461
20
-11.4232070682797
30
0
41
1
10
-2.14622337966016
20
-11.5061953197519
30
0
41
1
10
-2.25320647482164
20
-11.6036260200543
30
0
41
1
10
-2.33370546896788
20
-11.7072932362736
30
0
41
1
10
-2.39000392912283
20
-11.8090563169032
30
0
41
1
10
-2.42555806724513
20
-11.9006841251521
30
0
41
1
10
-2.44554828891606
20
-11.9756674651063
30
0
41
1
10
-2.45557591133592
20
-12.0300719198364
30
0
41
1
10
-2.46108139372848
20
-12.0717949598605
30
0
41
1
10
-2.46468669037049
20
-12.1102480047507
30
0
41
1
10
-2.46790904765158
20
-12.1600041477559
30
0
41
1
10
-2.47012768649473
20
-12.2069976524583
30
0
41
1
10
-2.47096528080614
20
-12.2373748167727
30
0
0
SPLINE
5
190
100
AcDbEntity
8
SK1
62
256
6
ByLayer
370
18
48
1
60
0
100
AcDbSpline
70
4
71
3
72
33
73
29
40
0
40
0
40
0
40
0
40
0.0015686469016341
40
0.0426213863289964
40
0.0862521145454454
40
0.12832359982803
40
0.16990385317842
40
0.211281138841105
40
0.252557217409799
40
0.293776960387798
40
0.334963059379467
40
0.376128209783793
40
0.417280147062435
40
0.458423989754188
40
0.499563445272672
40
0.540701500941209
40
0.581840443972521
40
0.622982596688164
40
0.664131113212715
40
0.705290007453835
40
0.746464895165904
40
0.787664292942824
40
0.828902128093706
40
0.870203072517481
40
0.911615206010654
40
0.95324480308699
40
0.995374770659858
40
1
40
1
40
1
40
1
41
1
10
-2.47096528080614
20
-12.2373748167727
30
0
41
1
10
-2.47101584222336
20
-12.2388259449637
30
0
41
1
10
-2.47238699875913
20
-12.2785001139776
30
0
41
1
10
-2.47495907300329
20
-12.3714315149814
30
0
41
1
10
-2.47849039607255
20
-12.550127876589
30
0
41
1
10
-2.48179808670153
20
-12.7718684104465
30
0
41
1
10
-2.48480437934741
20
-13.0283468119803
30
0
41
1
10
-2.4875231787954
20
-13.318552094757
30
0
41
1
10
-2.48993876775757
20
-13.6397621354481
30
0
41
1
10
-2.49202910989941
20
-13.9884893483295
30
0
41
1
10
-2.49377266687099
20
-14.3607730282089
30
0
41
1
10
-2.49515046362474
20
-14.752303139928
30
0
41
1
10
-2.49614711124946
20
-15.1585043797474
30
0
41
1
10
-2.49675132416477
20
-15.5746064031012
30
0
41
1
10
-2.49695622176775
20
-15.9957094282367
30
0
41
1
10
-2.49675948981223
20
-16.4168465805681
30
0
41
1
10
-2.49616344770253
20
-16.8330468383963
30
0
41
1
10
-2.49517502358297
20
-17.2393992078358
30
0
41
1
10
-2.49380563165715
20
-17.6311161963214
30
0
41
1
10
-2.49207094502212
20
-18.0035953116911
30
0
41
1
10
-2.48999056075145
20
-18.3524791596147
30
0
41
1
10
-2.48758739504858
20
-18.6737194433518
30
0
41
1
10
-2.48488688124636
20
-18.963644484078
30
0
41
1
10
-2.4819144351832
20
-19.2190536926483
30
0
41
1
10
-2.47869323639432
20
-19.4373279004311
30
0
41
1
10
-2.47522192146549
20
-19.6168383310678
30
0
41
1
10
-2.47260693908719
20
-19.7144480067319
30
0
41
1
10
-2.47111078802789
20
-19.7584466326517
30
0
41
1
10
-2.47096197692768
20
-19.7627199421065
30
0
0
SPLINE
5
191
100
AcDbEntity
8
SK1
62
256
6
ByLayer
370
18
48
1
60
0
100
AcDbSpline
70
4
71
3
72
44
73
40
40
0
40
0
40
0
40
0
40
0.0444288323675334
40
0.0694644199119435
40
0.0832152698772408
40
0.092808598259974
40
0.102844661510801
40
0.115200013656894
40
0.129331793158396
40
0.14528621691262
40
0.16326198589851
40
0.182561179565027
40
0.202523907406003
40
0.222737946369861
40
0.243255389589045
40
0.261799540733905
40
0.278773153806384
40
0.294337107524217
40
0.308495637272348
40
0.321101198658904
40
0.331794440678022
40
0.340740652818398
40
0.349116427074629
40
0.359672736659416
40
0.374925438491737
40
0.400397807700364
40
0.4499552290898
40
0.496041171572744
40
0.544784027052671
40
0.592397499563451
40
0.639602211354512
40
0.686624968313352
40
0.733553203811771
40
0.780427438344946
40
0.827268893581284
40
0.874089783816826
40
0.920897748673554
40
0.967697984749315
40
1
40
1
40
1
40
1
41
1
10
-2.47096197692768
20
-19.7627199421065
30
0
41
1
10
-2.47028609842105
20
-19.7939342136577
30
0
41
1
10
-2.46747816368498
20
-19.8480466955902
30
0
41
1
10
-2.46380834750069
20
-19.9022134483741
30
0
41
1
10
-2.45793136041667
20
-19.9554886996661
30
0
41
1
10
-2.44682099761236
20
-20.0192452539413
30
0
41
1
10
-2.42525543746236
20
-20.1010980998817
30
0
41
1
10
-2.38620253166384
20
-20.1998753049894
30
0
41
1
10
-2.32313084587289
20
-20.3092843609966
30
0
41
1
10
-2.23124742413653
20
-20.4204195999206
30
0
41
1
10
-2.10756578823708
20
-20.5224164025368
30
0
41
1
10
-1.95436717876201
20
-20.6021987071418
30
0
41
1
10
-1.78072159009213
20
-20.6482558981857
30
0
41
1
10
-1.59744478042429
20
-20.6543497696355
30
0
41
1
10
-1.42171454108115
20
-20.6194537882805
30
0
41
1
10
-1.26710593276633
20
-20.5511887922392
30
0
41
1
10
-1.14152214345575
20
-20.462410296887
30
0
41
1
10
-1.04361087027918
20
-20.3620098147971
30
0
41
1
10
-0.971492440042743
20
-20.2580372976361
30
0
41
1
10
-0.922616022327368
20
-20.1588284063607
30
0
41
1
10
-0.89287073666621
20
-20.0720380228189
30
0
41
1
10
-0.877002169198038
20
-20.0045295737676
30
0
41
1
10
-0.868864102178544
20
-19.9552926799126
30
0
41
1
10
-0.864210034926779
20
-19.9158401033729
30
0
41
1
10
-0.860852817848085
20
-19.8757275663144
30
0
41
1
10
-0.85748315787059
20
-19.8169443656864
30
0
41
1
10
-0.854113717644028
20
-19.7240563497919
30
0
41
1
10
-0.850405239639631
20
-19.5726705329415
30
0
41
1
10
-0.846997753165988
20
-19.382508689063
30
0
41
1
10
-0.843792653704958
20
-19.149819955015
30
0
41
1
10
-0.840877995809788
20
-18.8823276473695
30
0
41
1
10
-0.8382539010613
20
-18.581854894644
30
0
41
1
10
-0.835940004955951
20
-18.2514325538547
30
0
41
1
10
-0.83395840215593
20
-17.8947144561107
30
0
41
1
10
-0.832330012554407
20
-17.5157923844899
30
0
41
1
10
-0.831072717173939
20
-17.1190390556751
30
0
41
1
10
-0.830200685268112
20
-16.7092125093453
30
0
41
1
10
-0.829772887897707
20
-16.3339133721833
30
0
41
1
10
-0.829695091826414
20
-16.0970808743522
30
0
41
1
10
-0.829694982371149
20
-16
30
0
0
SPLINE
5
192
100
AcDbEntity
8
SK1
62
256
6
ByLayer
370
18
48
1
60
0
100
AcDbSpline
70
4
71
3
72
23
73
19
40
0
40
0
40
0
40
0
40
0.0123591651253085
40
0.0522632261007657
40
0.106400892062308
40
0.17166210600015
40
0.242714391102883
40
0.316185184479028
40
0.390655066845941
40
0.465578335940342
40
0.540730837726413
40
0.616010167233674
40
0.691364559293694
40
0.766765438166784
40
0.842195737587635
40
0.917644455435485
40
0.989147200890787
40
1
40
1
40
1
40
1
41
1
10
-2.45718483735347
20
-12.2354114831387
30
0
41
1
10
-2.45716772342686
20
-12.2355479521183
30
0
41
1
10
-2.45702674267558
20
-12.2378026480879
30
0
41
1
10
-2.45580083359768
20
-12.2600738056179
30
0
41
1
10
-2.45360275426019
20
-12.3209011224644
30
0
41
1
10
-2.4508000640391
20
-12.428192248673
30
0
41
1
10
-2.44776668058628
20
-12.5846910312187
30
0
41
1
10
-2.44473206401445
20
-12.787322280136
30
0
41
1
10
-2.44184186278133
20
-13.0313517554014
30
0
41
1
10
-2.43917208830264
20
-13.3124885673726
30
0
41
1
10
-2.43677251331094
20
-13.6266719887943
30
0
41
1
10
-2.4346795141004
20
-13.9697850145103
30
0
41
1
10
-2.43292195708284
20
-14.3375240505335
30
0
41
1
10
-2.43152286329618
20
-14.7253666892718
30
0
41
1
10
-2.43050008113519
20
-15.1286119344349
30
0
41
1
10
-2.42987754960352
20
-15.5350988769921
30
0
41
1
10
-2.4297054180162
20
-15.8273661203077
30
0
41
1
10
-2.42969498302718
20
-15.9798912851309
30
0
41
1
10
-2.42969498237115
20
-16
30
0
0
SPLINE
5
193
100
AcDbEntity
8
SK1
62
256
6
ByLayer
370
18
48
1
60
0
100
AcDbSpline
70
4
71
3
72
22
73
18
40
0
40
0
40
0
40
0
40
0.0396482498099889
40
0.115086524349561
40
0.19054693700325
40
0.265996612052203
40
0.34142849862883
40
0.416832921607395
40
0.492195439124048
40
0.567492869419943
40
0.642685153107116
40
0.717697061190644
40
0.792372257025171
40
0.866340863797405
40
0.92998952715618
40
0.980011959845034
40
1
40
1
40
1
40
1
41
1
10
-2.42969498237115
20
-16
30
0
41
1
10
-2.42969502668176
20
-16.0735602287149
30
0
41
1
10
-2.42974826068272
20
-16.2865394667932
30
0
41
1
10
-2.43009296743878
20
-16.6381757824066
30
0
41
1
10
-2.43089675405561
20
-17.0479635126223
30
0
41
1
10
-2.43208527759955
20
-17.4452914675262
30
0
41
1
10
-2.43364372620632
20
-17.8252210573773
30
0
41
1
10
-2.43555266146518
20
-18.183182917988
30
0
41
1
10
-2.43778779536109
20
-18.514812508846
30
0
41
1
10
-2.44032000758712
20
-18.8160305134669
30
0
41
1
10
-2.44311369256697
20
-19.0830419336972
30
0
41
1
10
-2.44612767527926
20
-19.3123470646675
30
0
41
1
10
-2.44929628375904
20
-19.5005352331123
30
0
41
1
10
-2.45242401035486
20
-19.6387301885514
30
0
41
1
10
-2.45508544999102
20
-19.723685889908
30
0
41
1
10
-2.45685844008973
20
-19.7595168206601
30
0
41
1
10
-2.45713742195385
20
-19.7641937014135
30
0
41
1
10
-2.45718483735347
20
-19.7645885168613
30
0
0
SPLINE
5
194
100
AcDbEntity
8
1
62
256
6
ByLayer
370
18
48
1
60
0
100
AcDbSpline
70
4
71
3
72
26
73
22
40
0
40
0
40
0
40
0
40
0.0521093427158486
40
0.105741818681143
40
0.157847873970458
40
0.211440649812964
40
0.264012927266045
40
0.318067495895044
40
0.371390153596694
40
0.426238588518203
40
0.479899889060791
40
0.535127026576906
40
0.588600281050136
40
0.643647584960534
40
0.696714280797309
40
0.751337621235545
40
0.804102981489174
40
0.858405739898545
40
0.911050242441099
40
0.965222862236175
40
1
40
1
40
1
40
1
41
1
10
3.7936346208967
20
40
30
0
41
1
10
3.79381425633332
20
39.9999608005641
30
0
41
1
10
3.81679285848784
20
39.9985782961934
30
0
41
1
10
3.92095269249655
20
39.9922779165844
30
0
41
1
10
4.09253566386605
20
39.9825110809488
30
0
41
1
10
4.32403310872504
20
39.970452710801
30
0
41
1
10
4.61330593394959
20
39.9572269445633
30
0
41
1
10
4.9490470815866
20
39.9444327399438
30
0
41
1
10
5.32771857133417
20
39.9333255675514
30
0
41
1
10
5.7334461104344
20
39.9253491120673
30
0
41
1
10
6.16054067377875
20
39.9213591238114
30
0
41
1
10
6.58885350534208
20
39.9219220065446
30
0
41
1
10
7.0129319552738
20
39.9269917403964
30
0
41
1
10
7.41191015501567
20
39.9358830425857
30
0
41
1
10
7.78213854159511
20
39.9477069416007
30
0
41
1
10
8.10591732345682
20
39.9608834166022
30
0
41
1
10
8.38103916557767
20
39.9741523960837
30
0
41
1
10
8.59489668174177
20
39.9857939193777
30
0
41
1
10
8.74597484208741
20
39.9947086339169
30
0
41
1
10
8.81841422313384
20
39.9992066535503
30
0
41
1
10
8.83114576830994
20
39.9999891511653
30
0
41
1
10
8.83118374819081
20
40
30
0
0
SPLINE
5
195
100
AcDbEntity
8
1
62
256
6
ByLayer
370
18
48
1
60
0
100
AcDbSpline
70
4
71
3
72
11
73
7
40
0
40
0
40
0
40
0
40
0.318071566159339
40
0.63551102339677
40
0.969171411624474
40
1
40
1
40
1
40
1
41
1
10
0.343278579257488
20
37.302954217097
30
0
41
1
10
0.364000510190549
20
37.3077618320724
30
0
41
1
10
0.399170576039335
20
37.3189772842439
30
0
41
1
10
0.435185842201202
20
37.3421501068499
30
0
41
1
10
0.444858275407855
20
37.3603111247525
30
0
41
1
10
0.445276884938483
20
37.3699784546022
30
0
41
1
10
0.445278516616414
20
37.370797870926
30
0
0
SPLINE
5
196
100
AcDbEntity
8
1
62
256
6
ByLayer
370
18
48
1
60
0
100
AcDbSpline
70
4
71
3
72
11
73
7
40
0
40
0
40
0
40
0
40
0.318954827300709
40
0.6374056975315
40
0.968589311454526
40
1
40
1
40
1
40
1
41
1
10
0.343278579257488
20
37.8494108391393
30
0
41
1
10
0.363951449857316
20
37.8536343672292
30
0
41
1
10
0.399070187677513
20
37.8635236282788
30
0
41
1
10
0.435145788638752
20
37.8839754584703
30
0
41
1
10
0.444850433705067
20
37.9000394480033
30
0
41
1
10
0.445276843833161
20
37.9085548068416
30
0
41
1
10
0.445278518670188
20
37.909294118515
30
0
0
SPLINE
5
197
100
AcDbEntity
8
1
62
256
6
ByLayer
370
18
48
1
60
0
100
AcDbSpline
70
4
71
3
72
11
73
7
40
0
40
0
40
0
40
0
40
0.319731715690598
40
0.639072237769132
40
0.968164609903713
40
1
40
1
40
1
40
1
41
1
10
0.34327857925749
20
38.3294326649518
30
0
41
1
10
0.36390893096397
20
38.3331029740374
30
0
41
1
10
0.398983270887668
20
38.341723711048
30
0
41
1
10
0.435113691450955
20
38.3595652380917
30
0
41
1
10
0.444844702292219
20
38.3736024118042
30
0
41
1
10
0.445276813924954
20
38.3810149262489
30
0
41
1
10
0.445278520654431
20
38.3816702439317
30
0
0
SPLINE
5
198
100
AcDbEntity
8
1
62
256
6
ByLayer
370
18
48
1
60
0
100
AcDbSpline
70
4
71
3
72
11
73
7
40
0
40
0
40
0
40
0
40
0.320404141558795
40
0.640514884089726
40
0.967855257927672
40
1
40
1
40
1
40
1
41
1
10
0.343278579257488
20
38.7454889756754
30
0
41
1
10
0.363872462486908
20
38.748631585114
30
0
41
1
10
0.398908761406401
20
38.7560314438078
30
0
41
1
10
0.435087937390005
20
38.7713537232234
30
0
41
1
10
0.444840519068803
20
38.7834221455362
30
0
41
1
10
0.445276792295693
20
38.7897726786618
30
0
41
1
10
0.445278522472563
20
38.7903418624185
30
0
0
SPLINE
5
199
100
AcDbEntity
8
1
62
256
6
ByLayer
370
18
48
1
60
0
100
AcDbSpline
70
4
71
3
72
11
73
7
40
0
40
0
40
0
40
0
40
0.320973926301447
40
0.641737670361572
40
0.967628685935513
40
1
40
1
40
1
40
1
41
1
10
0.343278579257488
20
39.0996217822027
30
0
41
1
10
0.363841650185235
20
39.1022576278972
30
0
41
1
10
0.398845810086727
20
39.1084756781293
30
0
41
1
10
0.435067275952509
20
39.1213531111515
30
0
41
1
10
0.444837449076433
20
39.1315003957798
30
0
41
1
10
0.445276776742612
20
39.1368226111218
30
0
41
1
10
0.445278524071201
20
39.137304635043
30
0
0
SPLINE
5
19A
100
AcDbEntity
8
1
62
256
6
ByLayer
370
18
48
1
60
0
100
AcDbSpline
70
4
71
3
72
11
73
7
40
0
40
0
40
0
40
0
40
0.32144271027373
40
0.642744227869675
40
0.967459712868048
40
1
40
1
40
1
40
1
41
1
10
0.343278579257488
20
39.3935011271963
30
0
41
1
10
0.363816179086851
20
39.3956471470936
30
0
41
1
10
0.398793741996372
20
39.4007149870192
30
0
41
1
10
0.435050739482406
20
39.411207569045
30
0
41
1
10
0.444835156182218
20
39.4194721833736
30
0
41
1
10
0.445276765594461
20
39.4237933691486
30
0
41
1
10
0.445278525422386
20
39.4241878705894
30
0
0
SPLINE
5
19B
100
AcDbEntity
8
1
62
256
6
ByLayer
370
18
48
1
60
0
100
AcDbSpline
70
4
71
3
72
11
73
7
40
0
40
0
40
0
40
0
40
0.321811891141465
40
0.643537653991933
40
0.96732902919976
40
1
40
1
40
1
40
1
41
1
10
0.343278579257488
20
39.6284675278459
30
0
41
1
10
0.363795800668999
20
39.6301371083183
30
0
41
1
10
0.398752026655738
20
39.6340797048723
30
0
41
1
10
0.435037585385367
20
39.6422347188622
30
0
41
1
10
0.444833382677365
20
39.6486469810556
30
0
41
1
10
0.445276757587904
20
39.6519886842348
30
0
41
1
10
0.445278526512693
20
39.6522956428429
30
0
0
SPLINE
5
19C
100
AcDbEntity
8
1
62
256
6
ByLayer
370
18
48
1
60
0
100
AcDbSpline
70
4
71
3
72
11
73
7
40
0
40
0
40
0
40
0
40
0.322082582523104
40
0.644120424205076
40
0.967222097554859
40
1
40
1
40
1
40
1
41
1
10
0.34327857925749
20
39.8055642612016
30
0
41
1
10
0.363780323476199
20
39.8067675728153
30
0
41
1
10
0.398720256371328
20
39.8096038930981
30
0
41
1
10
0.435027254351352
20
39.8154571701018
30
0
41
1
10
0.444831934569834
20
39.8200399997051
30
0
41
1
10
0.44527675178482
20
39.8224185054267
30
0
41
1
10
0.445278527336569
20
39.8226380152384
30
0
0
SPLINE
5
19D
100
AcDbEntity
8
1
62
256
6
ByLayer
370
18
48
1
60
0
100
AcDbSpline
70
4
71
3
72
11
73
7
40
0
40
0
40
0
40
0
40
0.322255585996542
40
0.644494332699144
40
0.967128365159964
40
1
40
1
40
1
40
1
41
1
10
0.343278579257488
20
39.9255614074463
30
0
41
1
10
0.363769606332172
20
39.9263056501651
30
0
41
1
10
0.39869813062761
20
39.9280491220517
30
0
41
1
10
0.435019340484584
20
39.9316259536651
30
0
41
1
10
0.444830671089644
20
39.9343954185604
30
0
41
1
10
0.445276747517158
20
39.9358221001122
30
0
41
1
10
0.445278527892255
20
39.9359542100315
30
0
0
SPLINE
5
19E
100
AcDbEntity
8
1
62
256
6
ByLayer
370
18
48
1
60
0
100
AcDbSpline
70
4
71
3
72
11
73
7
40
0
40
0
40
0
40
0
40
0.322331371809364
40
0.644660451692334
40
0.967040716771026
40
1
40
1
40
1
40
1
41
1
10
0.343278579257489
20
39.9889729956507
30
0
41
1
10
0.363763553579826
20
39.9892625673306
30
0
41
1
10
0.398685445173897
20
39.9899213957459
30
0
41
1
10
0.435013570589625
20
39.9912371564442
30
0
41
1
10
0.444829497418406
20
39.9922028457971
30
0
41
1
10
0.44527674435056
20
39.9926844026949
30
0
41
1
10
0.445278528179312
20
39.992729008905
30
0
0
SPLINE
5
19F
100
AcDbEntity
8
1
62
256
6
ByLayer
370
18
48
1
60
0
100
AcDbSpline
70
4
71
3
72
11
73
7
40
0
40
0
40
0
40
0
40
0.322308886686339
40
0.644616654530744
40
0.966953701291642
40
1
40
1
40
1
40
1
41
1
10
0.343278579257491
20
-39.9957097980911
30
0
41
1
10
0.363762126888717
20
-39.9955388450266
30
0
41
1
10
0.398682107622766
20
-39.9950981753489
30
0
41
1
10
0.43500974427719
20
-39.9941211008846
30
0
41
1
10
0.444828341208191
20
-39.9932563290382
30
0
41
1
10
0.445276742030001
20
-39.9927792014127
30
0
41
1
10
0.445278528195154
20
-39.9927345132147
30
0
0
SPLINE
5
1A0
100
AcDbEntity
8
1
62
256
6
ByLayer
370
18
48
1
60
0
100
AcDbSpline
70
4
71
3
72
11
73
7
40
0
40
0
40
0
40
0
40
0.322188631719954
40
0.644363914753165
40
0.966869042640458
40
1
40
1
40
1
40
1
41
1
10
0.343278579257493
20
-39.9455793524169
30
0
41
1
10
0.363765360691621
20
-39.9449544203801
30
0
41
1
10
0.398688197875243
20
-39.9434304167938
30
0
41
1
10
0.435007945684957
20
-39.9401943789541
30
0
41
1
10
0.44482722566386
20
-39.9375262034332
30
0
41
1
10
0.445276740605903
20
-39.9361037084667
30
0
41
1
10
0.445278527937676
20
-39.9359706092476
30
0
0
SPLINE
5
1A1
100
AcDbEntity
8
1
62
256
6
ByLayer
370
18
48
1
60
0
100
AcDbSpline
70
4
71
3
72
11
73
7
40
0
40
0
40
0
40
0
40
0.321970448846034
40
0.643901994235409
40
0.966787069019436
40
1
40
1
40
1
40
1
41
1
10
0.343278579257493
20
-39.8389484970092
30
0
41
1
10
0.363773221787536
20
-39.8378658906455
30
0
41
1
10
0.398703639661003
20
-39.8352516773558
30
0
41
1
10
0.435008166687142
20
-39.8297434450738
30
0
41
1
10
0.444826155645695
20
-39.8252626530973
30
0
41
1
10
0.445276740200696
20
-39.8228878443775
30
0
41
1
10
0.445278527406528
20
-39.8226655088135
30
0
0
SPLINE
5
1A2
100
AcDbEntity
8
1
62
256
6
ByLayer
370
18
48
1
60
0
100
AcDbSpline
70
4
71
3
72
11
73
7
40
0
40
0
40
0
40
0
40
0.321653370827319
40
0.643228846338978
40
0.966712507473398
40
1
40
1
40
1
40
1
41
1
10
0.343278579257492
20
-39.6753616857423
30
0
41
1
10
0.363785779977276
20
-39.673814940568
30
0
41
1
10
0.398728575314941
20
-39.6700984808915
30
0
41
1
10
0.435010593089821
20
-39.66229501508
30
0
41
1
10
0.444825194795926
20
-39.6559859306444
30
0
41
1
10
0.445276741174073
20
-39.6526471752656
30
0
41
1
10
0.445278526597685
20
-39.6523345651314
30
0
0
SPLINE
5
1A3
100
AcDbEntity
8
1
62
256
6
ByLayer
370
18
48
1
60
0
100
AcDbSpline
70
4
71
3
72
11
73
7
40
0
40
0
40
0
40
0
40
0.321236058330277
40
0.642341621145568
40
0.966653311538043
40
1
40
1
40
1
40
1
41
1
10
0.343278579257492
20
-39.4541104631898
30
0
41
1
10
0.363803148608724
20
-39.4520901957118
30
0
41
1
10
0.398763238628434
20
-39.447254010887
30
0
41
1
10
0.435015535668254
20
-39.4371219045115
30
0
41
1
10
0.444824449851147
20
-39.4289620241916
30
0
41
1
10
0.445276744086062
20
-39.4246427574136
30
0
41
1
10
0.445278525506558
20
-39.4242386943993
30
0
0
SPLINE
5
1A4
100
AcDbEntity
8
1
62
256
6
ByLayer
370
18
48
1
60
0
100
AcDbSpline
70
4
71
3
72
11
73
7
40
0
40
0
40
0
40
0
40
0.320716799253071
40
0.641236666263026
40
0.966621103561722
40
1
40
1
40
1
40
1
41
1
10
0.343278579257494
20
-39.1742177967691
30
0
41
1
10
0.363825488361937
20
-39.1717114807559
30
0
41
1
10
0.398807963379857
20
-39.1657322298815
30
0
41
1
10
0.435023447020188
20
-39.1532268685319
30
0
41
1
10
0.444824076471382
20
-39.1431863246321
30
0
41
1
10
0.445276749713318
20
-39.1378646914245
30
0
41
1
10
0.445278524129263
20
-39.1373679755561
30
0
0
SPLINE
5
1A5
100
AcDbEntity
8
1
62
256
6
ByLayer
370
18
48
1
60
0
100
AcDbSpline
70
4
71
3
72
11
73
7
40
0
40
0
40
0
40
0
40
0.320093512593068
40
0.639909537949526
40
0.966631834119183
40
1
40
1
40
1
40
1
41
1
10
0.343278579257493
20
-38.8344157614842
30
0
41
1
10
0.363853012846795
20
-38.8314074179198
30
0
41
1
10
0.398863196028132
20
-38.8242553152352
30
0
41
1
10
0.43503494668624
20
-38.8093197055387
30
0
41
1
10
0.444824287945685
20
-38.797360527636
30
0
41
1
10
0.445276759076575
20
-38.791008893009
30
0
41
1
10
0.445278522464947
20
-38.7904184799501
30
0
0
SPLINE
5
1A6
100
AcDbEntity
8
1
62
256
6
ByLayer
370
18
48
1
60
0
100
AcDbSpline
70
4
71
3
72
11
73
7
40
0
40
0
40
0
40
0
40
0.319363759589581
40
0.638355028581827
40
0.966706718660692
40
1
40
1
40
1
40
1
41
1
10
0.343278579257493
20
-38.4331153444907
30
0
41
1
10
0.363885996473124
20
-38.4295851270071
30
0
41
1
10
0.398929513670755
20
-38.4212231617427
30
0
41
1
10
0.435050856851405
20
-38.4037863499866
30
0
41
1
10
0.444825367587557
20
-38.3898614829366
30
0
41
1
10
0.445276773484668
20
-38.3824457850679
30
0
41
1
10
0.445278520519797
20
-38.3817610426728
30
0
0
SPLINE
5
1A7
100
AcDbEntity
8
1
62
256
6
ByLayer
370
18
48
1
60
0
100
AcDbSpline
70
4
71
3
72
11
73
7
40
0
40
0
40
0
40
0
40
0.318524766440128
40
0.636567219887211
40
0.966873541488583
40
1
40
1
40
1
40
1
41
1
10
0.343278579257494
20
-37.9683666047151
30
0
41
1
10
0.363924785285565
20
-37.9642902545552
30
0
41
1
10
0.399007648929837
20
-37.9546731636831
30
0
41
1
10
0.435072252106475
20
-37.9346481325856
30
0
41
1
10
0.444827686049078
20
-37.9187001515694
30
0
41
1
10
0.445276794604633
20
-37.9101790612276
30
0
41
1
10
0.445278518313889
20
-37.9094001359721
30
0
0
SPLINE
5
1A8
100
AcDbEntity
8
1
62
256
6
ByLayer
370
18
48
1
60
0
100
AcDbSpline
70
4
71
3
72
11
73
7
40
0
40
0
40
0
40
0
40
0.31757346517612
40
0.634539576319113
40
0.96716846075226
40
1
40
1
40
1
40
1
41
1
10
0.343278579257494
20
-37.4378066956007
30
0
41
1
10
0.36396981179713
20
-37.4331548293082
30
0
41
1
10
0.399098524259078
20
-37.4222277526016
30
0
41
1
10
0.435100528457271
20
-37.3995086349724
30
0
41
1
10
0.444831725397631
20
-37.3814680737958
30
0
41
1
10
0.445276824573677
20
-37.3717919090269
30
0
41
1
10
0.445278515892777
20
-37.3709202482818
30
0
0
SPLINE
5
1A9
100
AcDbEntity
8
1
62
256
6
ByLayer
370
18
48
1
60
0
100
AcDbSpline
70
4
71
3
72
13
73
9
40
0
40
0
40
0
40
0
40
0.0044285168451739
40
0.2259208206029
40
0.420970514031252
40
0.616460993212486
40
0.813622101834887
40
1
40
1
40
1
40
1
41
1
10
17.325
20
40
30
0
41
1
10
17.3229171489666
20
40.0000000042271
30
0
41
1
10
17.2167016023553
20
39.999668050801
30
0
41
1
10
17.0188873607885
20
39.9675161366035
30
0
41
1
10
16.7521740097501
20
39.8360156349425
30
0
41
1
10
16.533949493892
20
39.6329954386511
30
0
41
1
10
16.3735638912822
20
39.3563238916526
30
0
41
1
10
16.3323225531789
20
39.1234391534081
30
0
41
1
10
16.32525193287
20
38.9985552220356
30
0
0
SPLINE
5
1AA
100
AcDbEntity
8
1
62
256
6
ByLayer
370
18
48
1
60
0
100
AcDbSpline
70
4
71
3
72
18
73
14
40
0
40
0
40
0
40
0
40
0.0972331533557883
40
0.194468618007455
40
0.291694392742355
40
0.388918901775671
40
0.486249885732074
40
0.583575534081841
40
0.680210975746505
40
0.776840944600171
40
0.872268404629372
40
0.967695087548105
40
1
40
1
40
1
40
1
41
1
10
6.68091086834954
20
-22.2340049468404
30
0
41
1
10
6.5372105099581
20
-22.2337294159691
30
0
41
1
10
6.25444645996806
20
-22.2136586933556
30
0
41
1
10
5.8385047602115
20
-22.1246570566086
30
0
41
1
10
5.44794962199113
20
-21.9777809909261
30
0
41
1
10
5.09124690599773
20
-21.7785523420995
30
0
41
1
10
4.7806222587879
20
-21.5298984416163
30
0
41
1
10
4.52372470244142
20
-21.2405570761075
30
0
41
1
10
4.33041593713512
20
-20.9169260114202
30
0
41
1
10
4.20394158715381
20
-20.570658708439
30
0
41
1
10
4.14973489097228
20
-20.2102410696952
30
0
41
1
10
4.16217141175766
20
-19.9262786486035
30
0
41
1
10
4.19063800511271
20
-19.7659457875664
30
0
41
1
10
4.19919036637452
20
-19.7254323130626
30
0
0
SPLINE
5
1AB
100
AcDbEntity
8
1
62
256
6
ByLayer
370
18
48
1
60
0
100
AcDbSpline
70
4
71
3
72
10
73
6
40
0
40
0
40
0
40
0
40
0.305170096389143
40
0.902419032142443
40
1
40
1
40
1
40
1
41
1
10
9.23742253961483
20
20.8521653185016
30
0
41
1
10
9.24765211188423
20
20.9130395917829
30
0
41
1
10
9.26891436241377
20
21.0927790569485
30
0
41
1
10
9.26349529474633
20
21.293720607588
30
0
41
1
10
9.24359318687414
20
21.4307158048253
30
0
41
1
10
9.24048566153616
20
21.4499359981076
30
0
0
SPLINE
5
1AC
100
AcDbEntity
8
1
62
256
6
ByLayer
370
18
48
1
60
0
100
AcDbSpline
70
4
71
3
72
16
73
12
40
0
40
0
40
0
40
0
40
0.0011666955994202
40
0.12207870875642
40
0.242990474196021
40
0.363902217885042
40
0.484795770496
40
0.605690153621378
40
0.726643399714612
40
0.847599285388048
40
1
40
1
40
1
40
1
41
1
10
9.14652005836251
20
-20.4969143256576
30
0
41
1
10
9.1461962701218
20
-20.4980376337817
30
0
41
1
10
9.11225702932828
20
-20.6155608414136
30
0
41
1
10
9.05074492258692
20
-20.8529011782816
30
0
41
1
10
8.86756292183668
20
-21.1776960746337
30
0
41
1
10
8.63003714984627
20
-21.4731334536448
30
0
41
1
10
8.33467607481248
20
-21.7277861361795
30
0
41
1
10
7.99391043738469
20
-21.9373997064875
30
0
41
1
10
7.61548253513384
20
-22.094514668922
30
0
41
1
10
7.17500143309538
20
-22.2062712366563
30
0
41
1
10
6.86044328521563
20
-22.233815039152
30
0
41
1
10
6.68091086834954
20
-22.2340049468404
30
0
0
SPLINE
5
1AD
100
AcDbEntity
8
1
62
256
6
ByLayer
370
18
48
1
60
0
100
AcDbSpline
70
4
71
3
72
25
73
21
40
0
40
0
40
0
40
0
40
0.0368044021646443
40
0.0925981180241561
40
0.148609852224389
40
0.204624797180738
40
0.261305034553739
40
0.31798678179077
40
0.375232970010666
40
0.432478309226531
40
0.489805234127325
40
0.547130338527771
40
0.604150440217962
40
0.661169325356349
40
0.717852040278332
40
0.774534409788609
40
0.831052704385563
40
0.887571019671439
40
0.944060629516309
40
1
40
1
40
1
40
1
41
1
10
4.19919036637452
20
-19.7254323130626
30
0
41
1
10
4.21595868897787
20
-19.6468505891753
30
0
41
1
10
4.2700530996615
20
-19.4524305324104
30
0
41
1
10
4.40575334658658
20
-19.1498732153732
30
0
41
1
10
4.62271325781113
20
-18.8349280432001
30
0
41
1
10
4.89637992672128
20
-18.552294992509
30
0
41
1
10
5.22143950839061
20
-18.312771079544
30
0
41
1
10
5.5887289699853
20
-18.121440150806
30
0
41
1
10
5.98855586144786
20
-17.9877459344352
30
0
41
1
10
6.40913982042444
20
-17.9140606625861
30
0
41
1
10
6.83783938294956
20
-17.9060038454164
30
0
41
1
10
7.26159615486901
20
-17.9613215752878
30
0
41
1
10
7.66758532839139
20
-18.0808181719859
30
0
41
1
10
8.04445117161809
20
-18.2575725652171
30
0
41
1
10
8.3808317459124
20
-18.488382841046
30
0
41
1
10
8.66894465531864
20
-18.7634521813003
30
0
41
1
10
8.89924917255415
20
-19.0765124162752
30
0
41
1
10
9.06780144602498
20
-19.4163645011047
30
0
41
1
10
9.16740070171966
20
-19.7740553103238
30
0
41
1
10
9.18771579202747
20
-20.0147697193212
30
0
41
1
10
9.18650212785176
20
-20.1360212802099
30
0
0
SPLINE
5
1AE
100
AcDbEntity
8
1
62
256
6
ByLayer
370
18
48
1
60
0
100
AcDbSpline
70
4
71
2
72
6
73
3
40
0
40
0
40
0
40
1
40
1
40
1
41
1
10
9.18650212785176
20
-20.1360212802099
30
0
41
1
10
9.18419689868477
20
-20.3178465577373
30
0
41
1
10
9.14652005836251
20
-20.4969143256576
30
0
0
SPLINE
5
1AF
100
AcDbEntity
8
1
62
256
6
ByLayer
370
18
48
1
60
0
100
AcDbSpline
70
4
71
3
72
15
73
11
40
0
40
0
40
0
40
0
40
0.0307569596864133
40
0.170777403135446
40
0.312708834680882
40
0.454648893547035
40
0.598961707974576
40
0.743273442434607
40
0.888590422817045
40
1
40
1
40
1
40
1
41
1
10
4.26312578480472
20
20.9082402479221
30
0
41
1
10
4.2674028568236
20
20.8824418810486
30
0
41
1
10
4.2940850565366
20
20.7397154730193
30
0
41
1
10
4.37236194390415
20
20.4810756623987
30
0
41
1
10
4.54634365494729
20
20.149280759616
30
0
41
1
10
4.78244925860557
20
19.8412520228285
30
0
41
1
10
5.07688837536371
20
19.5692437072349
30
0
41
1
10
5.42084438493558
20
19.3401255351264
30
0
41
1
10
5.77628024525913
20
19.1781543167816
30
0
41
1
10
6.01675868258439
20
19.1054963349857
30
0
41
1
10
6.12412455548383
20
19.079619361772
30
0
0
SPLINE
5
1B0
100
AcDbEntity
8
1
62
256
6
ByLayer
370
18
48
1
60
0
100
AcDbSpline
70
4
71
2
72
6
73
3
40
0
40
0
40
0
40
1
40
1
40
1
41
1
10
6.12412455548383
20
19.079619361772
30
0
41
1
10
6.44515797620029
20
19.0029967765454
30
0
41
1
10
6.78182256818875
20
19.0023250366652
30
0
0
SPLINE
5
1B1
100
AcDbEntity
8
1
62
256
6
ByLayer
370
18
48
1
60
0
100
AcDbSpline
70
4
71
3
72
26
73
22
40
0
40
0
40
0
40
0
40
0.0451442204433365
40
0.0990131156549838
40
0.153018415282335
40
0.207023827920106
40
0.261074284774741
40
0.315124784763798
40
0.369192783500836
40
0.423260599858114
40
0.477321479226542
40
0.531381467172881
40
0.585344140808918
40
0.639304824145347
40
0.692972596061289
40
0.746637996758948
40
0.799827938406566
40
0.85301712055012
40
0.905833456938058
40
0.958652015476677
40
1
40
1
40
1
40
1
41
1
10
9.24048566153617
20
21.4499359981076
30
0
41
1
10
9.22410926454967
20
21.5497253795085
30
0
41
1
10
9.170883802821
20
21.7633750095249
30
0
41
1
10
9.0290953884904
20
22.0799758537057
30
0
41
1
10
8.81331501931366
20
22.3858646070842
30
0
41
1
10
8.53963144422136
20
22.6570841348001
30
0
41
1
10
8.21374141012865
20
22.8843940845665
30
0
41
1
10
7.84668137759782
20
23.0638952203885
30
0
41
1
10
7.44742928790334
20
23.1889045550347
30
0
41
1
10
7.02838160238708
20
23.2584816031438
30
0
41
1
10
6.60089632761269
20
23.2685989605399
30
0
41
1
10
6.1774722445209
20
23.221279275235
30
0
41
1
10
5.77059273313004
20
23.1153909930599
30
0
41
1
10
5.39169794382183
20
22.956037476831
30
0
41
1
10
5.05277735647342
20
22.7451875062367
30
0
41
1
10
4.76253343784217
20
22.4911067677751
30
0
41
1
10
4.53065340458432
20
22.198676241492
30
0
41
1
10
4.36119385964586
20
21.8781962771219
30
0
41
1
10
4.26046589787301
20
21.5368861839188
30
0
41
1
10
4.23032681748901
20
21.2097774252348
30
0
41
1
10
4.24819301240609
20
21.0005268719884
30
0
41
1
10
4.26312578480472
20
20.9082402479221
30
0
0
SPLINE
5
1B2
100
AcDbEntity
8
1
62
256
6
ByLayer
370
18
48
1
60
0
100
AcDbSpline
70
4
71
1
72
4
73
2
40
0
40
0
40
1
40
1
41
1
10
16.32525193287
20
38.9985552220356
30
0
41
1
10
16.325
20
38.975
30
0
0
SPLINE
5
1B3
100
AcDbEntity
8
1
62
256
6
ByLayer
370
18
48
1
60
0
100
AcDbSpline
70
4
71
2
72
6
73
3
40
0
40
0
40
0
40
1
40
1
40
1
41
1
10
19.575
20
15.9623952673788
30
0
41
1
10
19.6078185656261
20
16.4364521168532
30
0
41
1
10
19.6572499999999
20
16.9131870372303
30
0
0
SPLINE
5
1B4
100
AcDbEntity
8
1
62
256
6
ByLayer
370
18
48
1
60
0
100
AcDbSpline
70
4
71
2
72
6
73
3
40
0
40
0
40
0
40
1
40
1
40
1
41
1
10
19.6572499999999
20
23.0868129627697
30
0
41
1
10
19.6101303380292
20
23.5629979240888
30
0
41
1
10
19.575
20
24.0376047326209
30
0
0
SPLINE
5
1B5
100
AcDbEntity
8
1
62
256
6
ByLayer
370
18
48
1
60
0
100
AcDbSpline
70
4
71
3
72
11
73
7
40
0
40
0
40
0
40
0
40
0.247984897840781
40
0.49675627754136
40
0.747965154822509
40
1
40
1
40
1
40
1
41
1
10
19.6572499999999
20
16.9131870372303
30
0
41
1
10
19.7075801583285
20
17.4218451339963
30
0
41
1
10
19.7833995628528
20
18.442197373261
30
0
41
1
10
19.8226658215726
20
19.9849394597207
30
0
41
1
10
19.7848058475508
20
21.5361185492767
30
0
41
1
10
19.7084062917836
20
22.5698289671498
30
0
41
1
10
19.6572499999999
20
23.0868129627697
30
0
0
SPLINE
5
1B6
100
AcDbEntity
8
1
62
256
6
ByLayer
370
18
48
1
60
0
100
AcDbSpline
70
4
71
2
72
6
73
3
40
0
40
0
40
0
40
1
40
1
40
1
41
1
10
19.5549999999871
20
-1.247E-13
30
0
41
1
10
19.5551319325084
20
5.1937209647E-06
30
0
41
1
10
19.5749999999999
20
0.0001945009457716
30
0
0
SPLINE
5
1B7
100
AcDbEntity
8
1
62
256
6
ByLayer
370
18
48
1
60
0
100
AcDbSpline
70
4
71
2
72
6
73
3
40
0
40
0
40
0
40
1
40
1
40
1
41
1
10
19.575
20
39.9998054990542
30
0
41
1
10
19.5550298432497
20
39.9999981768698
30
0
41
1
10
19.5549999999871
20
40.0000000000001
30
0
0
SPLINE
5
1B8
100
AcDbEntity
8
1
62
256
6
ByLayer
370
18
48
1
60
0
100
AcDbSpline
70
4
71
2
72
6
73
3
40
0
40
0
40
0
40
1
40
1
40
1
41
1
10
19.575
20
39.9368404486555
30
0
41
1
10
19.5550642482844
20
39.9402208509737
30
0
41
1
10
19.5550000621865
20
39.9436586785733
30
0
0
SPLINE
5
1B9
100
AcDbEntity
8
1
62
256
6
ByLayer
370
18
48
1
60
0
100
AcDbSpline
70
4
71
2
72
6
73
3
40
0
40
0
40
0
40
1
40
1
40
1
41
1
10
19.575
20
39.7601364911858
30
0
41
1
10
19.5550632976625
20
39.7667674298493
30
0
41
1
10
19.555000071718
20
39.7736939468021
30
0
0
SPLINE
5
1BA
100
AcDbEntity
8
1
62
256
6
ByLayer
370
18
48
1
60
0
100
AcDbSpline
70
4
71
2
72
6
73
3
40
0
40
0
40
0
40
1
40
1
40
1
41
1
10
19.575
20
39.4665965496138
30
0
41
1
10
19.5550613169254
20
39.4766061016707
30
0
41
1
10
19.5550000876168
20
39.4871315537117
30
0
0
SPLINE
5
1BB
100
AcDbEntity
8
1
62
256
6
ByLayer
370
18
48
1
60
0
100
AcDbSpline
70
4
71
2
72
6
73
3
40
0
40
0
40
0
40
1
40
1
40
1
41
1
10
19.575
20
39.0508206726267
30
0
41
1
10
19.5550588536976
20
39.0644141369027
30
0
41
1
10
19.5550001109454
20
39.0787170351398
30
0
0
SPLINE
5
1BC
100
AcDbEntity
8
1
62
256
6
ByLayer
370
18
48
1
60
0
100
AcDbSpline
70
4
71
2
72
6
73
3
40
0
40
0
40
0
40
1
40
1
40
1
41
1
10
19.575
20
38.5045712021578
30
0
41
1
10
19.5550564852477
20
38.5220519091691
30
0
41
1
10
19.5550001413646
20
38.5403989471739
30
0
0
SPLINE
5
1BD
100
AcDbEntity
8
1
62
256
6
ByLayer
370
18
48
1
60
0
100
AcDbSpline
70
4
71
2
72
6
73
3
40
0
40
0
40
0
40
1
40
1
40
1
41
1
10
19.575
20
37.815850876421
30
0
41
1
10
19.5550544239774
20
37.8376562075466
30
0
41
1
10
19.5550001731808
20
37.8604369877087
30
0
0
SPLINE
5
1BE
100
AcDbEntity
8
1
62
256
6
ByLayer
370
18
48
1
60
0
100
AcDbSpline
70
4
71
2
72
6
73
3
40
0
40
0
40
0
40
1
40
1
40
1
41
1
10
19.575
20
36.9673194561196
30
0
41
1
10
19.5550094748903
20
36.9942652546438
30
0
41
1
10
19.5550000060177
20
37.0220139190585
30
0
0
SPLINE
5
1BF
100
AcDbEntity
8
1
62
256
6
ByLayer
370
18
48
1
60
0
100
AcDbSpline
70
4
71
2
72
6
73
3
40
0
40
0
40
0
40
1
40
1
40
1
41
1
10
19.575
20
35.9334653042319
30
0
41
1
10
19.5550423486751
20
35.9661454212671
30
0
41
1
10
19.555000135227
20
35.9998236151359
30
0
0
SPLINE
5
1C0
100
AcDbEntity
8
1
62
256
6
ByLayer
370
18
48
1
60
0
100
AcDbSpline
70
4
71
2
72
6
73
3
40
0
40
0
40
0
40
1
40
1
40
1
41
1
10
19.575
20
34.6751730373548
30
0
41
1
10
19.5550689107007
20
34.7149754432224
30
0
41
1
10
19.5550004375952
20
34.7559675152657
30
0
0
SPLINE
5
1C1
100
AcDbEntity
8
1
62
256
6
ByLayer
370
18
48
1
60
0
100
AcDbSpline
70
4
71
1
72
4
73
2
40
0
40
0
40
1
40
1
41
1
10
19.575
20
33.1280650040838
30
0
41
1
10
19.5550002909702
20
33.2291477083391
30
0
0
SPLINE
5
1C2
100
AcDbEntity
8
1
62
256
6
ByLayer
370
18
48
1
60
0
100
AcDbSpline
70
4
71
1
72
4
73
2
40
0
40
0
40
1
40
1
41
1
10
19.575
20
31.1728008049277
30
0
41
1
10
19.5550012843221
20
31.3037125212037
30
0
0
SPLINE
5
1C3
100
AcDbEntity
8
1
62
256
6
ByLayer
370
18
48
1
60
0
100
AcDbSpline
70
4
71
1
72
4
73
2
40
0
40
0
40
1
40
1
41
1
10
19.575
20
28.5332798443352
30
0
41
1
10
19.5550002978641
20
28.7185185201409
30
0
0
SPLINE
5
1C4
100
AcDbEntity
8
1
62
256
6
ByLayer
370
18
48
1
60
0
100
AcDbSpline
70
4
71
2
72
6
73
3
40
0
40
0
40
0
40
1
40
1
40
1
41
1
10
19.575
20
24.0376047326209
30
0
41
1
10
19.5550371764845
20
24.2407842123975
30
0
41
1
10
19.5550000435628
20
24.4435114533927
30
0
0
SPLINE
5
1C5
100
AcDbEntity
8
1
62
256
6
ByLayer
370
18
48
1
60
0
100
AcDbSpline
70
4
71
1
72
4
73
2
40
0
40
0
40
1
40
1
41
1
10
19.575
20
15.1852115287256
30
0
41
1
10
19.5550006865926
20
15.5582286403466
30
0
0
SPLINE
5
1C6
100
AcDbEntity
8
1
62
256
6
ByLayer
370
18
48
1
60
0
100
AcDbSpline
70
4
71
1
72
4
73
2
40
0
40
0
40
1
40
1
41
1
10
19.575
20
11.1023837406718
30
0
41
1
10
19.5550066387059
20
11.2856051776409
30
0
0
SPLINE
5
1C7
100
AcDbEntity
8
1
62
256
6
ByLayer
370
18
48
1
60
0
100
AcDbSpline
70
4
71
1
72
4
73
2
40
0
40
0
40
1
40
1
41
1
10
19.5749999999963
20
8.56964732944996
30
0
41
1
10
19.5550018135925
20
8.69860283322027
30
0
0
SPLINE
5
1C8
100
AcDbEntity
8
1
62
256
6
ByLayer
370
18
48
1
60
0
100
AcDbSpline
70
4
71
1
72
4
73
2
40
0
40
0
40
1
40
1
41
1
10
19.575
20
6.67189626208775
30
0
41
1
10
19.5550002554704
20
6.77160997915894
30
0
0
SPLINE
5
1C9
100
AcDbEntity
8
1
62
256
6
ByLayer
370
18
48
1
60
0
100
AcDbSpline
70
4
71
2
72
6
73
3
40
0
40
0
40
0
40
1
40
1
40
1
41
1
10
19.575
20
5.16343246152619
30
0
41
1
10
19.5550353139031
20
5.2025311529299
30
0
41
1
10
19.5550002748228
20
5.24333872321002
30
0
0
SPLINE
5
1CA
100
AcDbEntity
8
1
62
256
6
ByLayer
370
18
48
1
60
0
100
AcDbSpline
70
4
71
2
72
6
73
3
40
0
40
0
40
0
40
1
40
1
40
1
41
1
10
19.575
20
3.93422509186567
30
0
41
1
10
19.5550282784493
20
3.96630073644761
30
0
41
1
10
19.5550000929689
20
3.99985375322346
30
0
0
SPLINE
5
1CB
100
AcDbEntity
8
1
62
256
6
ByLayer
370
18
48
1
60
0
100
AcDbSpline
70
4
71
2
72
6
73
3
40
0
40
0
40
0
40
1
40
1
40
1
41
1
10
19.575
20
2.92386137108324
30
0
41
1
10
19.5550057940064
20
2.95027000078237
30
0
41
1
10
19.5550000029108
20
2.97793418206978
30
0
0
SPLINE
5
1CC
100
AcDbEntity
8
1
62
256
6
ByLayer
370
18
48
1
60
0
100
AcDbSpline
70
4
71
2
72
6
73
3
40
0
40
0
40
0
40
1
40
1
40
1
41
1
10
19.575
20
2.09525488734542
30
0
41
1
10
19.5550401146615
20
2.11657504874198
30
0
41
1
10
19.5550001359506
20
2.13931007966087
30
0
0
SPLINE
5
1CD
100
AcDbEntity
8
1
62
256
6
ByLayer
370
18
48
1
60
0
100
AcDbSpline
70
4
71
2
72
6
73
3
40
0
40
0
40
0
40
1
40
1
40
1
41
1
10
19.575
20
1.42406705911456
30
0
41
1
10
19.5550441424445
20
1.44109923966677
30
0
41
1
10
19.5550001127095
20
1.45941693090054
30
0
0
SPLINE
5
1CE
100
AcDbEntity
8
1
62
256
6
ByLayer
370
18
48
1
60
0
100
AcDbSpline
70
4
71
2
72
6
73
3
40
0
40
0
40
0
40
1
40
1
40
1
41
1
10
19.575
20
0.893700732496151
30
0
41
1
10
19.5550489292168
20
0.90687122431813
30
0
41
1
10
19.5550000908887
20
0.921155337667808
30
0
0
SPLINE
5
1CF
100
AcDbEntity
8
1
62
256
6
ByLayer
370
18
48
1
60
0
100
AcDbSpline
70
4
71
2
72
6
73
3
40
0
40
0
40
0
40
1
40
1
40
1
41
1
10
19.575
20
0.492666538592125
30
0
41
1
10
19.5550539127746
20
0.502270849495122
30
0
41
1
10
19.5550000745057
20
0.51278441873688
30
0
0
SPLINE
5
1D0
100
AcDbEntity
8
1
62
256
6
ByLayer
370
18
48
1
60
0
100
AcDbSpline
70
4
71
2
72
6
73
3
40
0
40
0
40
0
40
1
40
1
40
1
41
1
10
19.575
20
0.21309913478847
30
0
41
1
10
19.5550583977432
20
0.219336535570763
30
0
41
1
10
19.5550000639219
20
0.226255534486759
30
0
0
SPLINE
5
1D1
100
AcDbEntity
8
1
62
256
6
ByLayer
370
18
48
1
60
0
100
AcDbSpline
70
4
71
2
72
6
73
3
40
0
40
0
40
0
40
1
40
1
40
1
41
1
10
19.575
20
0.0498914056876812
30
0
41
1
10
19.5550618119155
20
0.0528849502183841
30
0
41
1
10
19.55500005857
20
0.0563176834428757
30
0
0
SPLINE
5
1D2
100
AcDbEntity
8
1
62
256
6
ByLayer
370
18
48
1
60
0
100
AcDbSpline
70
4
71
1
72
4
73
2
40
0
40
0
40
1
40
1
41
1
10
19.5550000435628
20
24.4435114533927
30
0
41
1
10
19.575
20
24.8147884712744
30
0
0
SPLINE
5
1D3
100
AcDbEntity
8
1
62
256
6
ByLayer
370
18
48
1
60
0
100
AcDbSpline
70
4
71
2
72
6
73
3
40
0
40
0
40
0
40
1
40
1
40
1
41
1
10
19.5550006865926
20
15.5582286403466
30
0
41
1
10
19.5551464130985
20
15.7601136415781
30
0
41
1
10
19.575
20
15.9623952673788
30
0
0
SPLINE
5
1D4
100
AcDbEntity
8
1
62
256
6
ByLayer
370
18
48
1
60
0
100
AcDbSpline
70
4
71
3
72
15
73
11
40
0
40
0
40
0
40
0
40
0.202572141993048
40
0.365903158133149
40
0.462028565931161
40
0.538429487477969
40
0.615150024153114
40
0.7059946891121
40
0.85884948547085
40
1
40
1
40
1
40
1
41
1
10
19.575
20
24.8147884712744
30
0
41
1
10
19.5770816873592
20
24.8251637921153
30
0
41
1
10
19.5823932611089
20
24.8423446039655
30
0
41
1
10
19.5915698596128
20
24.862322813739
30
0
41
1
10
19.6012987782156
20
24.8728844825047
30
0
41
1
10
19.6104033361731
20
24.8767062610982
30
0
41
1
10
19.6203178588452
20
24.8753060421252
30
0
41
1
10
19.632755835166
20
24.8671337694338
30
0
41
1
10
19.645349992525
20
24.8514981469143
30
0
41
1
10
19.6536413984075
20
24.8383276769347
30
0
41
1
10
19.65725
20
24.8313958110346
30
0
0
SPLINE
5
1D5
100
AcDbEntity
8
1
62
256
6
ByLayer
370
18
48
1
60
0
100
AcDbSpline
70
4
71
3
72
16
73
12
40
0
40
0
40
0
40
0
40
0.0223189149944214
40
0.193110462897635
40
0.319004839807746
40
0.399562050069754
40
0.480727091187356
40
0.552088364774795
40
0.671411627897189
40
0.967419528321022
40
1
40
1
40
1
40
1
41
1
10
19.65725
20
15.1686041889607
30
0
41
1
10
19.6566672553931
20
15.1675428245051
30
0
41
1
10
19.6515580367003
20
15.1584393846606
30
0
41
1
10
19.6424054406073
20
15.1440061545372
30
0
41
1
10
19.629331690478
20
15.130111982909
30
0
41
1
10
19.6179690016259
20
15.1238975919339
30
0
41
1
10
19.6085612473401
20
15.1236641963993
30
0
41
1
10
19.5990371424627
20
15.1288153927149
30
0
41
1
10
19.5860003010766
20
15.145856228984
30
0
41
1
10
19.5793147629741
20
15.1674658418354
30
0
41
1
10
19.5753716342541
20
15.1835948380044
30
0
41
1
10
19.575
20
15.1852115287256
30
0
0
SPLINE
5
1D6
100
AcDbEntity
8
1
62
256
6
ByLayer
370
18
48
1
60
0
100
AcDbSpline
70
4
71
2
72
6
73
3
40
0
40
0
40
0
40
1
40
1
40
1
41
1
10
20.325
20
16.5447958711021
30
0
41
1
10
20.0267142078013
20
15.8336784870403
30
0
41
1
10
19.65725
20
15.1686041889607
30
0
0
SPLINE
5
1D7
100
AcDbEntity
8
1
62
256
6
ByLayer
370
18
48
1
60
0
100
AcDbSpline
70
4
71
2
72
6
73
3
40
0
40
0
40
0
40
1
40
1
40
1
41
1
10
19.6572499999999
20
11.856921905548
30
0
41
1
10
20.0609812561655
20
13.3589462912649
30
0
41
1
10
20.325
20
14.9018289776669
30
0
0
SPLINE
5
1D8
100
AcDbEntity
8
1
62
256
6
ByLayer
370
18
48
1
60
0
100
AcDbSpline
70
4
71
2
72
6
73
3
40
0
40
0
40
0
40
1
40
1
40
1
41
1
10
19.575
20
11.4667201556653
30
0
41
1
10
19.604902911552
20
11.6615145628019
30
0
41
1
10
19.6572499999999
20
11.856921905548
30
0
0
SPLINE
5
1D9
100
AcDbEntity
8
1
62
256
6
ByLayer
370
18
48
1
60
0
100
AcDbSpline
70
4
71
2
72
6
73
3
40
0
40
0
40
0
40
1
40
1
40
1
41
1
10
19.65725
20
24.8313958110346
30
0
41
1
10
20.0267044998203
20
24.1663209943343
30
0
41
1
10
20.325
20
23.4552041288979
30
0
0
SPLINE
5
1DA
100
AcDbEntity
8
1
62
256
6
ByLayer
370
18
48
1
60
0
100
AcDbSpline
70
4
71
1
72
4
73
2
40
0
40
0
40
1
40
1
41
1
10
19.6572499999999
20
28.143078094452
30
0
41
1
10
19.575
20
28.5332798443352
30
0
0
SPLINE
5
1DB
100
AcDbEntity
8
1
62
256
6
ByLayer
370
18
48
1
60
0
100
AcDbSpline
70
4
71
2
72
6
73
3
40
0
40
0
40
0
40
1
40
1
40
1
41
1
10
20.325
20
25.0981710223331
30
0
41
1
10
20.0609866505023
20
26.6410489057478
30
0
41
1
10
19.6572499999999
20
28.143078094452
30
0
0
SPLINE
5
1DC
100
AcDbEntity
8
1
62
256
6
ByLayer
370
18
48
1
60
0
100
AcDbSpline
70
4
71
2
72
6
73
3
40
0
40
0
40
0
40
1
40
1
40
1
41
1
10
19.5550002978641
20
28.7185185201409
30
0
41
1
10
19.5545196526108
20
28.8094165179783
30
0
41
1
10
19.575
20
28.8976162593281
30
0
0
SPLINE
5
1DD
100
AcDbEntity
8
1
62
256
6
ByLayer
370
18
48
1
60
0
100
AcDbSpline
70
4
71
2
72
6
73
3
40
0
40
0
40
0
40
1
40
1
40
1
41
1
10
19.5550066387059
20
11.2856051776409
30
0
41
1
10
19.5551381957301
20
11.3769126435117
30
0
41
1
10
19.5749999999999
20
11.4667201556644
30
0
0
SPLINE
5
1DE
100
AcDbEntity
8
1
62
256
6
ByLayer
370
18
48
1
60
0
100
AcDbSpline
70
4
71
3
72
13
73
9
40
0
40
0
40
0
40
0
40
0.150172031547963
40
0.330114238556982
40
0.511459707331136
40
0.67351270496753
40
0.910645564257947
40
1
40
1
40
1
40
1
41
1
10
19.575
20
28.8976162593282
30
0
41
1
10
19.5772117973486
20
28.9022395528639
30
0
41
1
10
19.5829554544443
20
28.9110062569544
30
0
41
1
10
19.5946630265506
20
28.9211254942591
30
0
41
1
10
19.6104032878281
20
28.9234984195271
30
0
41
1
10
19.6294852389017
20
28.9166625567216
30
0
41
1
10
19.6450496934025
20
28.904229287663
30
0
41
1
10
19.6546620109536
20
28.8944765844212
30
0
41
1
10
19.65725
20
28.8916297098823
30
0
0
SPLINE
5
1DF
100
AcDbEntity
8
1
62
256
6
ByLayer
370
18
48
1
60
0
100
AcDbSpline
70
4
71
3
72
13
73
9
40
0
40
0
40
0
40
0
40
0.0143785770884439
40
0.297859442270586
40
0.468885473554377
40
0.640762294077722
40
0.800679742290818
40
1
40
1
40
1
40
1
41
1
10
19.65725
20
11.1083702901177
30
0
41
1
10
19.6568339917505
20
11.1079188255342
30
0
41
1
10
19.6481917709019
20
11.0986547050659
30
0
41
1
10
19.6335104965852
20
11.0855455278506
30
0
41
1
10
19.6128778448439
20
11.076898121488
30
0
41
1
10
19.5974288234794
20
11.077960260839
30
0
41
1
10
19.5844580838477
20
11.0869898355046
30
0
41
1
10
19.5779194332669
20
11.0961227642562
30
0
41
1
10
19.575
20
11.1023837406718
30
0
0
SPLINE
5
1E0
100
AcDbEntity
8
1
62
256
6
ByLayer
370
18
48
1
60
0
100
AcDbSpline
70
4
71
1
72
4
73
2
40
0
40
0
40
1
40
1
41
1
10
20.325
20
11.8452129359267
30
0
41
1
10
19.65725
20
11.1083702901177
30
0
0
SPLINE
5
1E1
100
AcDbEntity
8
1
62
256
6
ByLayer
370
18
48
1
60
0
100
AcDbSpline
70
4
71
1
72
4
73
2
40
0
40
0
40
1
40
1
41
1
10
19.6572499999999
20
9.11004924540213
30
0
41
1
10
20.325
20
11.0876921459741
30
0
0
SPLINE
5
1E2
100
AcDbEntity
8
1
62
256
6
ByLayer
370
18
48
1
60
0
100
AcDbSpline
70
4
71
1
72
4
73
2
40
0
40
0
40
1
40
1
41
1
10
19.575
20
8.82719919507234
30
0
41
1
10
19.6572499999999
20
9.11004924540213
30
0
0
SPLINE
5
1E3
100
AcDbEntity
8
1
62
256
6
ByLayer
370
18
48
1
60
0
100
AcDbSpline
70
4
71
1
72
4
73
2
40
0
40
0
40
1
40
1
41
1
10
19.65725
20
28.8916297098823
30
0
41
1
10
20.325
20
28.1547870640733
30
0
0
SPLINE
5
1E4
100
AcDbEntity
8
1
62
256
6
ByLayer
370
18
48
1
60
0
100
AcDbSpline
70
4
71
1
72
4
73
2
40
0
40
0
40
1
40
1
41
1
10
19.6572499999999
20
30.8899507545979
30
0
41
1
10
19.575
20
31.172800804926
30
0
0
SPLINE
5
1E5
100
AcDbEntity
8
1
62
256
6
ByLayer
370
18
48
1
60
0
100
AcDbSpline
70
4
71
1
72
4
73
2
40
0
40
0
40
1
40
1
41
1
10
20.325
20
28.9123078540259
30
0
41
1
10
19.6572499999999
20
30.8899507545979
30
0
0
SPLINE
5
1E6
100
AcDbEntity
8
1
62
256
6
ByLayer
370
18
48
1
60
0
100
AcDbSpline
70
4
71
2
72
6
73
3
40
0
40
0
40
0
40
1
40
1
40
1
41
1
10
19.5550018135925
20
8.69860283322027
30
0
41
1
10
19.5551340298735
20
8.76347610667985
30
0
41
1
10
19.575
20
8.82719919507234
30
0
0
SPLINE
5
1E7
100
AcDbEntity
8
1
62
256
6
ByLayer
370
18
48
1
60
0
100
AcDbSpline
70
4
71
2
72
6
73
3
40
0
40
0
40
0
40
1
40
1
40
1
41
1
10
19.5550012843221
20
31.3037125212037
30
0
41
1
10
19.5550350029472
20
31.368004375769
30
0
41
1
10
19.575
20
31.4303526705613
30
0
0
SPLINE
5
1E8
100
AcDbEntity
8
1
62
256
6
ByLayer
370
18
48
1
60
0
100
AcDbSpline
70
4
71
3
72
12
73
8
40
0
40
0
40
0
40
0
40
0.0626196306079125
40
0.327294455962867
40
0.565654147741289
40
0.830416055539784
40
1
40
1
40
1
40
1
41
1
10
19.575
20
31.4303526705613
30
0
41
1
10
19.5760417403521
20
31.4316819540706
30
0
41
1
10
19.5817970000084
20
31.438089469673
30
0
41
1
10
19.5947660215832
20
31.445344604443
30
0
41
1
10
19.6176550384774
20
31.4422729567478
30
0
41
1
10
19.6390291642503
20
31.4296416696036
30
0
41
1
10
19.6521493749735
20
31.4188159672223
30
0
41
1
10
19.65725
20
31.4140164846753
30
0
0
SPLINE
5
1E9
100
AcDbEntity
8
1
62
256
6
ByLayer
370
18
48
1
60
0
100
AcDbSpline
70
4
71
3
72
12
73
8
40
0
40
0
40
0
40
0
40
0.184922571472386
40
0.467001875081062
40
0.68137690282873
40
0.895506197874713
40
1
40
1
40
1
40
1
41
1
10
19.65725
20
8.58598351532473
30
0
41
1
10
19.651671095831
20
8.58071339931881
30
0
41
1
10
19.6375575286484
20
8.5691956245206
30
0
41
1
10
19.6157765830928
20
8.55704081356113
30
0
41
1
10
19.5949762117097
20
8.55526210595389
30
0
41
1
10
19.5825457140848
20
8.56145757687809
30
0
41
1
10
19.5767389424359
20
8.56740703153328
30
0
41
1
10
19.5749999999786
20
8.56964732943663
30
0
0
SPLINE
5
1EA
100
AcDbEntity
8
1
62
256
6
ByLayer
370
18
48
1
60
0
100
AcDbSpline
70
4
71
1
72
4
73
2
40
0
40
0
40
1
40
1
41
1
10
20.325
20
9.20358075339786
30
0
41
1
10
19.65725
20
8.58598351532473
30
0
0
SPLINE
5
1EB
100
AcDbEntity
8
1
62
256
6
ByLayer
370
18
48
1
60
0
100
AcDbSpline
70
4
71
1
72
4
73
2
40
0
40
0
40
1
40
1
41
1
10
19.6572499999999
20
7.10146000421802
30
0
41
1
10
20.325
20
8.67007878240505
30
0
0
SPLINE
5
1EC
100
AcDbEntity
8
1
62
256
6
ByLayer
370
18
48
1
60
0
100
AcDbSpline
70
4
71
2
72
6
73
3
40
0
40
0
40
0
40
1
40
1
40
1
41
1
10
19.5749999999999
20
6.87193499591897
30
0
41
1
10
19.6053040689646
20
6.98603015235413
30
0
41
1
10
19.6572499999999
20
7.10146000421802
30
0
0
SPLINE
5
1ED
100
AcDbEntity
8
1
62
256
6
ByLayer
370
18
48
1
60
0
100
AcDbSpline
70
4
71
1
72
4
73
2
40
0
40
0
40
1
40
1
41
1
10
19.65725
20
31.4140164846753
30
0
41
1
10
20.325
20
30.7964192466021
30
0
0
SPLINE
5
1EE
100
AcDbEntity
8
1
62
256
6
ByLayer
370
18
48
1
60
0
100
AcDbSpline
70
4
71
1
72
4
73
2
40
0
40
0
40
1
40
1
41
1
10
19.6572499999999
20
32.898539995782
30
0
41
1
10
19.5749999999999
20
33.128065004081
30
0
0
SPLINE
5
1EF
100
AcDbEntity
8
1
62
256
6
ByLayer
370
18
48
1
60
0
100
AcDbSpline
70
4
71
1
72
4
73
2
40
0
40
0
40
1
40
1
41
1
10
20.325
20
31.329921217595
30
0
41
1
10
19.6572499999999
20
32.898539995782
30
0
0
SPLINE
5
1F0
100
AcDbEntity
8
1
62
256
6
ByLayer
370
18
48
1
60
0
100
AcDbSpline
70
4
71
2
72
6
73
3
40
0
40
0
40
0
40
1
40
1
40
1
41
1
10
19.5550002554704
20
6.77160997915894
30
0
41
1
10
19.5550563317725
20
6.82226271604636
30
0
41
1
10
19.575
20
6.87193499591626
30
0
0
SPLINE
5
1F1
100
AcDbEntity
8
1
62
256
6
ByLayer
370
18
48
1
60
0
100
AcDbSpline
70
4
71
2
72
6
73
3
40
0
40
0
40
0
40
1
40
1
40
1
41
1
10
19.5550002909702
20
33.2291477083391
30
0
41
1
10
19.5550431782584
20
33.2794359491762
30
0
41
1
10
19.575
20
33.3281037379123
30
0
0
SPLINE
5
1F2
100
AcDbEntity
8
1
62
256
6
ByLayer
370
18
48
1
60
0
100
AcDbSpline
70
4
71
3
72
11
73
7
40
0
40
0
40
0
40
0
40
0.29775367358671
40
0.57533793300227
40
0.85439361858119
40
1
40
1
40
1
40
1
41
1
10
19.65725
20
6.69592296597703
30
0
41
1
10
19.6479774930528
20
6.68774326257381
30
0
41
1
10
19.6304691956702
20
6.67513883204595
30
0
41
1
10
19.6042284493933
20
6.66362827670353
30
0
41
1
10
19.5859216955607
20
6.66473064504313
30
0
41
1
10
19.5775916260631
20
6.66967167103649
30
0
41
1
10
19.575
20
6.67189626208775
30
0
0
SPLINE
5
1F3
100
AcDbEntity
8
1
62
256
6
ByLayer
370
18
48
1
60
0
100
AcDbSpline
70
4
71
3
72
12
73
8
40
0
40
0
40
0
40
0
40
0.0976461297112579
40
0.382701634955939
40
0.636277668901693
40
0.992092490603139
40
1
40
1
40
1
40
1
41
1
10
19.575
20
33.3281037379123
30
0
41
1
10
19.5767271018766
20
33.3295793651886
30
0
41
1
10
19.5839791956706
20
33.3344427826277
30
0
41
1
10
19.5998547131754
20
33.3369489729161
30
0
41
1
10
19.6266199779496
20
33.3275093760693
30
0
41
1
10
19.6459937866697
20
33.313652275127
30
0
41
1
10
19.657010511875
20
33.3042816478686
30
0
41
1
10
19.65725
20
33.304077034023
30
0
0
SPLINE
5
1F4
100
AcDbEntity
8
1
62
256
6
ByLayer
370
18
48
1
60
0
100
AcDbSpline
70
4
71
1
72
4
73
2
40
0
40
0
40
1
40
1
41
1
10
19.65725
20
33.304077034023
30
0
41
1
10
20.325
20
32.7328231369334
30
0
0
SPLINE
5
1F5
100
AcDbEntity
8
1
62
256
6
ByLayer
370
18
48
1
60
0
100
AcDbSpline
70
4
71
2
72
6
73
3
40
0
40
0
40
0
40
1
40
1
40
1
41
1
10
19.6572499999999
20
34.4794212801482
30
0
41
1
10
19.604122718218
20
34.5803322777082
30
0
41
1
10
19.575
20
34.6751730373548
30
0
0
SPLINE
5
1F6
100
AcDbEntity
8
1
62
256
6
ByLayer
370
18
48
1
60
0
100
AcDbSpline
70
4
71
1
72
4
73
2
40
0
40
0
40
1
40
1
41
1
10
20.325
20
33.145531495869
30
0
41
1
10
19.6572499999999
20
34.4794212801482
30
0
0
SPLINE
5
1F7
100
AcDbEntity
8
1
62
256
6
ByLayer
370
18
48
1
60
0
100
AcDbSpline
70
4
71
1
72
4
73
2
40
0
40
0
40
1
40
1
41
1
10
20.325
20
7.26717686306665
30
0
41
1
10
19.65725
20
6.69592296597703
30
0
0
SPLINE
5
1F8
100
AcDbEntity
8
1
62
256
6
ByLayer
370
18
48
1
60
0
100
AcDbSpline
70
4
71
1
72
4
73
2
40
0
40
0
40
1
40
1
41
1
10
19.6572499999999
20
5.5205787198518
30
0
41
1
10
20.325
20
6.854468504131
30
0
0
SPLINE
5
1F9
100
AcDbEntity
8
1
62
256
6
ByLayer
370
18
48
1
60
0
100
AcDbSpline
70
4
71
2
72
6
73
3
40
0
40
0
40
0
40
1
40
1
40
1
41
1
10
19.5749999999997
20
5.32482696264895
30
0
41
1
10
19.6053020402835
20
5.42110418344537
30
0
41
1
10
19.6572499999999
20
5.5205787198518
30
0
0
SPLINE
5
1FA
100
AcDbEntity
8
1
62
256
6
ByLayer
370
18
48
1
60
0
100
AcDbSpline
70
4
71
3
72
10
73
6
40
0
40
0
40
0
40
0
40
0.314763937500461
40
0.664369882235949
40
1
40
1
40
1
40
1
41
1
10
0.445278515892777
20
-37.3709202482818
30
0
41
1
10
0.445189910538096
20
-37.362250603324
30
0
41
1
10
0.437935266479282
20
-37.3449560120739
30
0
41
1
10
0.402830799347134
20
-37.3202385025379
30
0
41
1
10
0.365231675205984
20
-37.3080770001166
30
0
41
1
10
0.343278579257365
20
-37.302954217097
30
0
0
SPLINE
5
1FB
100
AcDbEntity
8
1
62
256
6
ByLayer
370
18
48
1
60
0
100
AcDbSpline
70
4
71
3
72
10
73
6
40
0
40
0
40
0
40
0
40
0.317974179885568
40
0.667397908994326
40
1
40
1
40
1
40
1
41
1
10
0.445278516616414
20
37.370797870926
30
0
41
1
10
0.445192526417673
20
37.3795442997708
30
0
41
1
10
0.437839373556214
20
37.3968200755712
30
0
41
1
10
0.402512691128801
20
37.4210954919467
30
0
41
1
10
0.365028885558764
20
37.4328925079467
30
0
41
1
10
0.343278579257393
20
37.4378066956007
30
0
0
SPLINE
5
1FC
100
AcDbEntity
8
1
62
256
6
ByLayer
370
18
48
1
60
0
100
AcDbSpline
70
4
71
2
72
6
73
3
40
0
40
0
40
0
40
1
40
1
40
1
41
1
10
19.5550004375952
20
34.7559675152657
30
0
41
1
10
19.5547206920448
20
34.797983784007
30
0
41
1
10
19.5749999999999
20
34.8365675384737
30
0
0
SPLINE
5
1FD
100
AcDbEntity
8
1
62
256
6
ByLayer
370
18
48
1
60
0
100
AcDbSpline
70
4
71
2
72
6
73
3
40
0
40
0
40
0
40
1
40
1
40
1
41
1
10
19.5550002748228
20
5.24333872321002
30
0
41
1
10
19.5548204396849
20
5.28550259312594
30
0
41
1
10
19.5749999999998
20
5.32482696264516
30
0
0
SPLINE
5
1FE
100
AcDbEntity
8
1
62
256
6
ByLayer
370
18
48
1
60
0
100
AcDbSpline
70
4
71
3
72
11
73
7
40
0
40
0
40
0
40
0
40
0.127035467443681
40
0.431804057068318
40
0.711278385828825
40
1
40
1
40
1
40
1
41
1
10
19.5749999999988
20
34.8365675384749
30
0
41
1
10
19.5773446018068
20
34.8378486516538
30
0
41
1
10
19.5859353032307
20
34.840990587951
30
0
41
1
10
19.6044728415872
20
34.8392936473824
30
0
41
1
10
19.6308624890781
20
34.8261301398141
30
0
41
1
10
19.6482096637695
20
34.8136201095268
30
0
41
1
10
19.65725
20
34.805983896452
30
0
0
SPLINE
5
1FF
100
AcDbEntity
8
1
62
256
6
ByLayer
370
18
48
1
60
0
100
AcDbSpline
70
4
71
3
72
11
73
7
40
0
40
0
40
0
40
0
40
0.114671213144024
40
0.467001509795896
40
0.75450701223552
40
1
40
1
40
1
40
1
41
1
10
19.65725
20
5.19401610354801
30
0
41
1
10
19.6537219949911
20
5.19107935829393
30
0
41
1
10
19.6394285332493
20
5.17984579210615
30
0
41
1
10
19.6159730224241
20
5.1650389206803
30
0
41
1
10
19.5910537559985
20
5.15841070822935
30
0
41
1
10
19.5796559413697
20
5.16095778798335
30
0
41
1
10
19.575
20
5.16343246152619
30
0
0
SPLINE
5
200
100
AcDbEntity
8
1
62
256
6
ByLayer
370
18
48
1
60
0
100
AcDbSpline
70
4
71
1
72
4
73
2
40
0
40
0
40
1
40
1
41
1
10
19.65725
20
34.805983896452
30
0
41
1
10
20.325
20
34.2543642974511
30
0
0
SPLINE
5
201
100
AcDbEntity
8
1
62
256
6
ByLayer
370
18
48
1
60
0
100
AcDbSpline
70
4
71
2
72
6
73
3
40
0
40
0
40
0
40
1
40
1
40
1
41
1
10
19.6572499999999
20
35.7618192856418
30
0
41
1
10
19.603976751448
20
35.8516839384526
30
0
41
1
10
19.575
20
35.9334653042318
30
0
0
SPLINE
5
202
100
AcDbEntity
8
1
62
256
6
ByLayer
370
18
48
1
60
0
100
AcDbSpline
70
4
71
1
72
4
73
2
40
0
40
0
40
1
40
1
41
1
10
20.325
20
34.5857081357355
30
0
41
1
10
19.6572499999999
20
35.7618192856418
30
0
0
SPLINE
5
203
100
AcDbEntity
8
1
62
256
6
ByLayer
370
18
48
1
60
0
100
AcDbSpline
70
4
71
1
72
4
73
2
40
0
40
0
40
1
40
1
41
1
10
20.325
20
5.74563570254888
30
0
41
1
10
19.65725
20
5.19401610354801
30
0
0
SPLINE
5
204
100
AcDbEntity
8
1
62
256
6
ByLayer
370
18
48
1
60
0
100
AcDbSpline
70
4
71
1
72
4
73
2
40
0
40
0
40
1
40
1
41
1
10
19.6572499999999
20
4.23818071435822
30
0
41
1
10
20.325
20
5.41429186426454
30
0
0
SPLINE
5
205
100
AcDbEntity
8
1
62
256
6
ByLayer
370
18
48
1
60
0
100
AcDbSpline
70
4
71
2
72
6
73
3
40
0
40
0
40
0
40
1
40
1
40
1
41
1
10
19.575
20
4.06653469576812
30
0
41
1
10
19.605443462912
20
4.15002473571187
30
0
41
1
10
19.6572499999999
20
4.23818071435822
30
0
0
SPLINE
5
206
100
AcDbEntity
8
1
62
256
6
ByLayer
370
18
48
1
60
0
100
AcDbSpline
70
4
71
3
72
10
73
6
40
0
40
0
40
0
40
0
40
0.309017687953332
40
0.652719366964988
40
1
40
1
40
1
40
1
41
1
10
0.445278518313889
20
-37.9094001359721
30
0
41
1
10
0.445178423597911
20
-37.9018667092558
30
0
41
1
10
0.438146957228638
20
-37.8868140783326
30
0
41
1
10
0.403460949168184
20
-37.8649187939278
30
0
41
1
10
0.365910261595005
20
-37.8540698156022
30
0
41
1
10
0.343278579257313
20
-37.8494108391392
30
0
0
SPLINE
5
207
100
AcDbEntity
8
1
62
256
6
ByLayer
370
18
48
1
60
0
100
AcDbSpline
70
4
71
3
72
10
73
6
40
0
40
0
40
0
40
0
40
0.311753166842594
40
0.655312839822276
40
1
40
1
40
1
40
1
41
1
10
0.445278518670188
20
37.909294118515
30
0
41
1
10
0.44518024581588
20
37.9168840324567
30
0
41
1
10
0.438065837251992
20
37.9319087837351
30
0
41
1
10
0.403190656444435
20
37.9533886084355
30
0
41
1
10
0.365736665041338
20
37.9639026545438
30
0
41
1
10
0.343278579257349
20
37.9683666047152
30
0
0
SPLINE
5
208
100
AcDbEntity
8
1
62
256
6
ByLayer
370
18
48
1
60
0
100
AcDbSpline
70
4
71
2
72
6
73
3
40
0
40
0
40
0
40
1
40
1
40
1
41
1
10
19.5550000929689
20
3.99985375322346
30
0
41
1
10
19.554948945714
20
4.03456476665958
30
0
41
1
10
19.5749999999999
20
4.06653469576811
30
0
0
SPLINE
5
209
100
AcDbEntity
8
1
62
256
6
ByLayer
370
18
48
1
60
0
100
AcDbSpline
70
4
71
3
72
10
73
6
40
0
40
0
40
0
40
0
40
0.313597354507843
40
0.658002780231375
40
1
40
1
40
1
40
1
41
1
10
19.65725
20
3.97078128676341
30
0
41
1
10
19.6473290638885
20
3.96250931505607
30
0
41
1
10
19.6273537880396
20
3.94805154699716
30
0
41
1
10
19.5974053171575
20
3.93302368419884
30
0
41
1
10
19.5818796493551
20
3.93247295248908
30
0
41
1
10
19.5750000000009
20
3.93422509186523
30
0
0
SPLINE
5
20A
100
AcDbEntity
8
1
62
256
6
ByLayer
370
18
48
1
60
0
100
AcDbSpline
70
4
71
2
72
6
73
3
40
0
40
0
40
0
40
1
40
1
40
1
41
1
10
19.555000135227
20
35.9998236151359
30
0
41
1
10
19.5548836547537
20
36.0344265778216
30
0
41
1
10
19.5749999999999
20
36.0657749081343
30
0
0
SPLINE
5
20B
100
AcDbEntity
8
1
62
256
6
ByLayer
370
18
48
1
60
0
100
AcDbSpline
70
4
71
3
72
11
73
7
40
0
40
0
40
0
40
0
40
0.153054690002234
40
0.477195071978276
40
0.864252539445906
40
1
40
1
40
1
40
1
41
1
10
19.575
20
36.0657749081343
30
0
41
1
10
19.577908688102
20
36.0666479537648
30
0
41
1
10
19.5877132490508
20
36.0679520489837
30
0
41
1
10
19.6108439580437
20
36.0616671665159
30
0
41
1
10
19.6369598443026
20
36.0451914171249
30
0
41
1
10
19.6530334164627
20
36.0326894661136
30
0
41
1
10
19.65725
20
36.0292187132366
30
0
0
SPLINE
5
20C
100
AcDbEntity
8
1
62
256
6
ByLayer
370
18
48
1
60
0
100
AcDbSpline
70
4
71
1
72
4
73
2
40
0
40
0
40
1
40
1
41
1
10
19.65725
20
36.0292187132366
30
0
41
1
10
20.325
20
35.4838308571385
30
0
0
SPLINE
5
20D
100
AcDbEntity
8
1
62
256
6
ByLayer
370
18
48
1
60
0
100
AcDbSpline
70
4
71
2
72
6
73
3
40
0
40
0
40
0
40
1
40
1
40
1
41
1
10
19.6572499999999
20
36.8141682452166
30
0
41
1
10
19.6042072208013
20
36.8954040726725
30
0
41
1
10
19.575
20
36.9673194561191
30
0
0
SPLINE
5
20E
100
AcDbEntity
8
1
62
256
6
ByLayer
370
18
48
1
60
0
100
AcDbSpline
70
4
71
1
72
4
73
2
40
0
40
0
40
1
40
1
41
1
10
20.325
20
35.7537540076274
30
0
41
1
10
19.6572499999999
20
36.8141682452166
30
0
0
SPLINE
5
20F
100
AcDbEntity
8
1
62
256
6
ByLayer
370
18
48
1
60
0
100
AcDbSpline
70
4
71
1
72
4
73
2
40
0
40
0
40
1
40
1
41
1
10
20.325
20
4.51616914286153
30
0
41
1
10
19.65725
20
3.97078128676341
30
0
0
SPLINE
5
210
100
AcDbEntity
8
1
62
256
6
ByLayer
370
18
48
1
60
0
100
AcDbSpline
70
4
71
1
72
4
73
2
40
0
40
0
40
1
40
1
41
1
10
19.6572499999999
20
3.18583175478339
30
0
41
1
10
20.325
20
4.24624599237262
30
0
0
SPLINE
5
211
100
AcDbEntity
8
1
62
256
6
ByLayer
370
18
48
1
60
0
100
AcDbSpline
70
4
71
2
72
6
73
3
40
0
40
0
40
0
40
1
40
1
40
1
41
1
10
19.575
20
3.03268054388035
30
0
41
1
10
19.6055724969198
20
3.10614553698996
30
0
41
1
10
19.6572499999999
20
3.18583175478339
30
0
0
SPLINE
5
212
100
AcDbEntity
8
1
62
256
6
ByLayer
370
18
48
1
60
0
100
AcDbSpline
70
4
71
3
72
10
73
6
40
0
40
0
40
0
40
0
40
0.30420026184598
40
0.642844700951686
40
1
40
1
40
1
40
1
41
1
10
0.445278520519797
20
-38.3817610426728
30
0
41
1
10
0.445169407248158
20
-38.3752777111853
30
0
41
1
10
0.438322425613658
20
-38.3623068048198
30
0
41
1
10
0.403984971877975
20
-38.3431470956946
30
0
41
1
10
0.366480688531928
20
-38.3335978969456
30
0
41
1
10
0.343278579257258
20
-38.3294326649517
30
0
0
SPLINE
5
213
100
AcDbEntity
8
1
62
256
6
ByLayer
370
18
48
1
60
0
100
AcDbSpline
70
4
71
3
72
10
73
6
40
0
40
0
40
0
40
0
40
0.306514058540575
40
0.645047652739217
40
1
40
1
40
1
40
1
41
1
10
0.445278520654431
20
38.3816702439317
30
0
41
1
10
0.445170664570476
20
38.3881938384711
30
0
41
1
10
0.43825423235476
20
38.401129425853
30
0
41
1
10
0.40375685414495
20
38.419895532119
30
0
41
1
10
0.36633326340491
20
38.4291339401969
30
0
41
1
10
0.343278579257292
20
38.4331153444908
30
0
0
SPLINE
5
214
100
AcDbEntity
8
1
62
256
6
ByLayer
370
18
48
1
60
0
100
AcDbSpline
70
4
71
2
72
6
73
3
40
0
40
0
40
0
40
1
40
1
40
1
41
1
10
19.5550000060177
20
37.0220139190585
30
0
41
1
10
19.5550308670843
20
37.0505824264855
30
0
41
1
10
19.575
20
37.0761386289168
30
0
0
SPLINE
5
215
100
AcDbEntity
8
1
62
256
6
ByLayer
370
18
48
1
60
0
100
AcDbSpline
70
4
71
3
72
11
73
7
40
0
40
0
40
0
40
0
40
0.176743495912843
40
0.519693225623586
40
0.963810906868646
40
1
40
1
40
1
40
1
41
1
10
19.575
20
37.0761386289168
30
0
41
1
10
19.5784311048601
20
37.0764532689564
30
0
41
1
10
19.5893605001836
20
37.0758166280889
30
0
41
1
10
19.6156280430643
20
37.0650418350863
30
0
41
1
10
19.6412232258397
20
37.0469327644365
30
0
41
1
10
19.6561242940909
20
37.0348471219956
30
0
41
1
10
19.65725
20
37.0339233875098
30
0
0
SPLINE
5
216
100
AcDbEntity
8
1
62
256
6
ByLayer
370
18
48
1
60
0
100
AcDbSpline
70
4
71
2
72
6
73
3
40
0
40
0
40
0
40
1
40
1
40
1
41
1
10
19.5550000029108
20
2.97793418206978
30
0
41
1
10
19.5550755832041
20
3.00658435546619
30
0
41
1
10
19.575
20
3.03268054388035
30
0
0
SPLINE
5
217
100
AcDbEntity
8
1
62
256
6
ByLayer
370
18
48
1
60
0
100
AcDbSpline
70
4
71
3
72
10
73
6
40
0
40
0
40
0
40
0
40
0.350088139066425
40
0.713614779343235
40
1
40
1
40
1
40
1
41
1
10
19.65725
20
2.96607661249023
30
0
41
1
10
19.6460530917623
20
2.95673138062137
30
0
41
1
10
19.6244002650491
20
2.94086554574523
30
0
41
1
10
19.5951377582409
20
2.92546051374261
30
0
41
1
10
19.5807301300518
20
2.92346243046611
30
0
41
1
10
19.5749999999999
20
2.92386137108311
30
0
0
SPLINE
5
218
100
AcDbEntity
8
1
62
256
6
ByLayer
370
18
48
1
60
0
100
AcDbSpline
70
4
71
1
72
4
73
2
40
0
40
0
40
1
40
1
41
1
10
19.65725
20
37.0339233875098
30
0
41
1
10
20.325
20
36.4866956816852
30
0
0
SPLINE
5
219
100
AcDbEntity
8
1
62
256
6
ByLayer
370
18
48
1
60
0
100
AcDbSpline
70
4
71
2
72
6
73
3
40
0
40
0
40
0
40
1
40
1
40
1
41
1
10
19.6572499999999
20
37.6776005261934
30
0
41
1
10
19.604564506346
20
37.7519047405792
30
0
41
1
10
19.5749999999987
20
37.8158508764163
30
0
0
SPLINE
5
21A
100
AcDbEntity
8
1
62
256
6
ByLayer
370
18
48
1
60
0
100
AcDbSpline
70
4
71
1
72
4
73
2
40
0
40
0
40
1
40
1
41
1
10
20.325
20
36.7068443712393
30
0
41
1
10
19.6572499999999
20
37.6776005261934
30
0
0
SPLINE
5
21B
100
AcDbEntity
8
1
62
256
6
ByLayer
370
18
48
1
60
0
100
AcDbSpline
70
4
71
1
72
4
73
2
40
0
40
0
40
1
40
1
41
1
10
20.325
20
3.51330431831479
30
0
41
1
10
19.65725
20
2.96607661249023
30
0
0
SPLINE
5
21C
100
AcDbEntity
8
1
62
256
6
ByLayer
370
18
48
1
60
0
100
AcDbSpline
70
4
71
1
72
4
73
2
40
0
40
0
40
1
40
1
41
1
10
19.6572499999999
20
2.32239947380664
30
0
41
1
10
20.325
20
3.29315562876066
30
0
0
SPLINE
5
21D
100
AcDbEntity
8
1
62
256
6
ByLayer
370
18
48
1
60
0
100
AcDbSpline
70
4
71
2
72
6
73
3
40
0
40
0
40
0
40
1
40
1
40
1
41
1
10
19.575
20
2.18414912357898
30
0
41
1
10
19.6053731791001
20
2.24899472016714
30
0
41
1
10
19.6572499999999
20
2.32239947380664
30
0
0
SPLINE
5
21E
100
AcDbEntity
8
1
62
256
6
ByLayer
370
18
48
1
60
0
100
AcDbSpline
70
4
71
3
72
10
73
6
40
0
40
0
40
0
40
0
40
0.300198791330999
40
0.634557531797047
40
1
40
1
40
1
40
1
41
1
10
0.445278522464946
20
-38.7904184799501
30
0
41
1
10
0.445162309935835
20
-38.7849163943419
30
0
41
1
10
0.438466790758652
20
-38.7738974244629
30
0
41
1
10
0.40441724119364
20
-38.7574011935336
30
0
41
1
10
0.366955937787642
20
-38.74913891005
30
0
41
1
10
0.343278579257198
20
-38.7454889756754
30
0
0
SPLINE
5
21F
100
AcDbEntity
8
1
62
256
6
ByLayer
370
18
48
1
60
0
100
AcDbSpline
70
4
71
3
72
10
73
6
40
0
40
0
40
0
40
0
40
0.302132963106792
40
0.636405409563296
40
1
40
1
40
1
40
1
41
1
10
0.445278522472563
20
38.7903418624185
30
0
41
1
10
0.445163165800892
20
38.7958712653819
30
0
41
1
10
0.438410080215602
20
38.806848855838
30
0
41
1
10
0.404226880491893
20
38.822969344195
30
0
41
1
10
0.366832275780012
20
38.8309404711782
30
0
41
1
10
0.343278579257237
20
38.8344157614843
30
0
0
SPLINE
5
220
100
AcDbEntity
8
1
62
256
6
ByLayer
370
18
48
1
60
0
100
AcDbSpline
70
4
71
2
72
6
73
3
40
0
40
0
40
0
40
1
40
1
40
1
41
1
10
19.5550001359506
20
2.13931007966087
30
0
41
1
10
19.5550336082705
20
2.16269127932055
30
0
41
1
10
19.5749999999535
20
2.18414912357877
30
0
0
SPLINE
5
221
100
AcDbEntity
8
1
62
256
6
ByLayer
370
18
48
1
60
0
100
AcDbSpline
70
4
71
3
72
10
73
6
40
0
40
0
40
0
40
0
40
0.384877477118981
40
0.765038737465471
40
1
40
1
40
1
40
1
41
1
10
19.65725
20
2.14297786901941
30
0
41
1
10
19.6448237818553
20
2.13249561825924
30
0
41
1
10
19.6216492112732
20
2.11508639518355
30
0
41
1
10
19.5930533324542
20
2.09897474757802
30
0
41
1
10
19.5796808766912
20
2.09571645891504
30
0
41
1
10
19.5749999999999
20
2.09525488734527
30
0
0
SPLINE
5
222
100
AcDbEntity
8
1
62
256
6
ByLayer
370
18
48
1
60
0
100
AcDbSpline
70
4
71
2
72
6
73
3
40
0
40
0
40
0
40
1
40
1
40
1
41
1
10
19.5550001731808
20
37.8604369877087
30
0
41
1
10
19.5550023625456
20
37.8837739593982
30
0
41
1
10
19.5749999999614
20
37.9047451126553
30
0
0
SPLINE
5
223
100
AcDbEntity
8
1
62
256
6
ByLayer
370
18
48
1
60
0
100
AcDbSpline
70
4
71
3
72
10
73
6
40
0
40
0
40
0
40
0
40
0.198744249071492
40
0.559944425983436
40
1
40
1
40
1
40
1
41
1
10
19.575
20
37.9047451126546
30
0
41
1
10
19.5789215362046
20
37.9043834331064
30
0
41
1
10
19.5908816294696
20
37.9017421018552
30
0
41
1
10
19.6187862009526
20
37.8869628989576
30
0
41
1
10
19.6429217941308
20
37.8691373468106
30
0
41
1
10
19.65725
20
37.8570221309806
30
0
0
SPLINE
5
224
100
AcDbEntity
8
1
62
256
6
ByLayer
370
18
48
1
60
0
100
AcDbSpline
70
4
71
1
72
4
73
2
40
0
40
0
40
1
40
1
41
1
10
19.65725
20
37.8570221309806
30
0
41
1
10
20.325
20
37.3024059306364
30
0
0
SPLINE
5
225
100
AcDbEntity
8
1
62
256
6
ByLayer
370
18
48
1
60
0
100
AcDbSpline
70
4
71
2
72
6
73
3
40
0
40
0
40
0
40
1
40
1
40
1
41
1
10
19.65725
20
38.3787613007214
30
0
41
1
10
19.6049065988765
20
38.4474287016092
30
0
41
1
10
19.5749999999982
20
38.5045712021538
30
0
0
SPLINE
5
226
100
AcDbEntity
8
1
62
256
6
ByLayer
370
18
48
1
60
0
100
AcDbSpline
70
4
71
1
72
4
73
2
40
0
40
0
40
1
40
1
41
1
10
20.325
20
37.4801754097831
30
0
41
1
10
19.65725
20
38.3787613007214
30
0
0
SPLINE
5
227
100
AcDbEntity
8
1
62
256
6
ByLayer
370
18
48
1
60
0
100
AcDbSpline
70
4
71
1
72
4
73
2
40
0
40
0
40
1
40
1
41
1
10
20.325
20
2.6975940693636
30
0
41
1
10
19.65725
20
2.14297786901941
30
0
0
SPLINE
5
228
100
AcDbEntity
8
1
62
256
6
ByLayer
370
18
48
1
60
0
100
AcDbSpline
70
4
71
1
72
4
73
2
40
0
40
0
40
1
40
1
41
1
10
19.65725
20
1.62123869927864
30
0
41
1
10
20.325
20
2.51982459021685
30
0
0
SPLINE
5
229
100
AcDbEntity
8
1
62
256
6
ByLayer
370
18
48
1
60
0
100
AcDbSpline
70
4
71
2
72
6
73
3
40
0
40
0
40
0
40
1
40
1
40
1
41
1
10
19.575
20
1.49542879784223
30
0
41
1
10
19.6056996891863
20
1.55343434873486
30
0
41
1
10
19.65725
20
1.62123869927864
30
0
0
SPLINE
5
22A
100
AcDbEntity
8
1
62
256
6
ByLayer
370
18
48
1
60
0
100
AcDbSpline
70
4
71
3
72
11
73
7
40
0
40
0
40
0
40
0
40
0.296691602149888
40
0.627215533852609
40
0.953996805356831
40
1
40
1
40
1
40
1
41
1
10
0.445278524129263
20
-39.1373679755561
30
0
41
1
10
0.445156742532114
20
-39.132792351645
30
0
41
1
10
0.438495164244906
20
-39.1235978661048
30
0
41
1
10
0.406646499120601
20
-39.1104470629626
30
0
41
1
10
0.3689058771996
20
-39.1029738490202
30
0
41
1
10
0.346140789069402
20
-39.0999787938044
30
0
41
1
10
0.343278579257489
20
-39.0996217822027
30
0
0
SPLINE
5
22B
100
AcDbEntity
8
1
62
256
6
ByLayer
370
18
48
1
60
0
100
AcDbSpline
70
4
71
3
72
11
73
7
40
0
40
0
40
0
40
0
40
0.298284465370071
40
0.628748873030798
40
0.955018759891888
40
1
40
1
40
1
40
1
41
1
10
0.445278524071201
20
39.137304635043
30
0
41
1
10
0.445157314714803
20
39.1418973213102
30
0
41
1
10
0.438447944592226
20
39.1510428149419
30
0
41
1
10
0.4064624951693
20
39.1638761722363
30
0
41
1
10
0.368753693028792
20
39.1710321195586
30
0
41
1
10
0.346076640282747
20
39.1738842008678
30
0
41
1
10
0.343278579257494
20
39.1742177967691
30
0
0
SPLINE
5
22C
100
AcDbEntity
8
1
62
256
6
ByLayer
370
18
48
1
60
0
100
AcDbSpline
70
4
71
2
72
6
73
3
40
0
40
0
40
0
40
1
40
1
40
1
41
1
10
19.5550001127095
20
1.45941693090054
30
0
41
1
10
19.555059603012
20
1.47819902991399
30
0
41
1
10
19.575
20
1.49542879784222
30
0
0
SPLINE
5
22D
100
AcDbEntity
8
1
62
256
6
ByLayer
370
18
48
1
60
0
100
AcDbSpline
70
4
71
3
72
10
73
6
40
0
40
0
40
0
40
0
40
0.418433628928418
40
0.813117480439274
40
1
40
1
40
1
40
1
41
1
10
19.65725
20
1.47725903649492
30
0
41
1
10
19.6436241656967
20
1.46555922985197
30
0
41
1
10
19.6190524800908
20
1.44645910892458
30
0
41
1
10
19.5911103209627
20
1.42938669539901
30
0
41
1
10
19.5787088415848
20
1.42501760010245
30
0
41
1
10
19.5749999999918
20
1.42406705910318
30
0
0
SPLINE
5
22E
100
AcDbEntity
8
1
62
256
6
ByLayer
370
18
48
1
60
0
100
AcDbSpline
70
4
71
2
72
6
73
3
40
0
40
0
40
0
40
1
40
1
40
1
41
1
10
19.5550001413646
20
38.5403989471739
30
0
41
1
10
19.5550368078283
20
38.5591499133228
30
0
41
1
10
19.575
20
38.5759329408854
30
0
0
SPLINE
5
22F
100
AcDbEntity
8
1
62
256
6
ByLayer
370
18
48
1
60
0
100
AcDbSpline
70
4
71
1
72
4
73
2
40
0
40
0
40
1
40
1
41
1
10
19.575
20
38.5759329408854
30
0
41
1
10
19.5850277786454
20
38.5724996821521
30
0
0
SPLINE
5
230
100
AcDbEntity
8
1
62
256
6
ByLayer
370
18
48
1
60
0
100
AcDbSpline
70
4
71
3
72
10
73
6
40
0
40
0
40
0
40
0
40
0.0739751454781538
40
0.523992429773524
40
1
40
1
40
1
40
1
41
1
10
19.5850277786454
20
38.5724996821521
30
0
41
1
10
19.5864656465721
20
38.5718845160073
30
0
41
1
10
19.5968420055274
20
38.567194503055
30
0
41
1
10
19.6205617086668
20
38.552384381868
30
0
41
1
10
19.6442281591494
20
38.5339114382176
30
0
41
1
10
19.65725
20
38.5227409635051
30
0
0
SPLINE
5
231
100
AcDbEntity
8
1
62
256
6
ByLayer
370
18
48
1
60
0
100
AcDbSpline
70
4
71
1
72
4
73
2
40
0
40
0
40
1
40
1
41
1
10
19.65725
20
38.5227409635051
30
0
41
1
10
20.325
20
37.9564853876405
30
0
0
SPLINE
5
232
100
AcDbEntity
8
1
62
256
6
ByLayer
370
18
48
1
60
0
100
AcDbSpline
70
4
71
2
72
6
73
3
40
0
40
0
40
0
40
1
40
1
40
1
41
1
10
19.65725
20
38.9356851878699
30
0
41
1
10
19.6052382992455
20
38.99965909515
30
0
41
1
10
19.5749999999977
20
39.0508206726239
30
0
0
SPLINE
5
233
100
AcDbEntity
8
1
62
256
6
ByLayer
370
18
48
1
60
0
100
AcDbSpline
70
4
71
1
72
4
73
2
40
0
40
0
40
1
40
1
41
1
10
20.325
20
38.0968067865235
30
0
41
1
10
19.65725
20
38.9356851878699
30
0
0
SPLINE
5
234
100
AcDbEntity
8
1
62
256
6
ByLayer
370
18
48
1
60
0
100
AcDbSpline
70
4
71
1
72
4
73
2
40
0
40
0
40
1
40
1
41
1
10
20.325
20
2.04351461235952
30
0
41
1
10
19.65725
20
1.47725903649492
30
0
0
SPLINE
5
235
100
AcDbEntity
8
1
62
256
6
ByLayer
370
18
48
1
60
0
100
AcDbSpline
70
4
71
1
72
4
73
2
40
0
40
0
40
1
40
1
41
1
10
19.65725
20
1.06431481213013
30
0
41
1
10
20.325
20
1.9031932134765
30
0
0
SPLINE
5
236
100
AcDbEntity
8
1
62
256
6
ByLayer
370
18
48
1
60
0
100
AcDbSpline
70
4
71
2
72
6
73
3
40
0
40
0
40
0
40
1
40
1
40
1
41
1
10
19.575
20
0.949179327373279
30
0
41
1
10
19.6060226717568
20
1.00117733277822
30
0
41
1
10
19.65725
20
1.06431481213013
30
0
0
SPLINE
5
237
100
AcDbEntity
8
1
62
256
6
ByLayer
370
18
48
1
60
0
100
AcDbSpline
70
4
71
3
72
11
73
7
40
0
40
0
40
0
40
0
40
0.294041348097345
40
0.62161351439142
40
0.9467668539275
40
1
40
1
40
1
40
1
41
1
10
0.445278525506558
20
-39.4242386943993
30
0
41
1
10
0.445152428630008
20
-39.420546441505
30
0
41
1
10
0.43858787944449
20
-39.4131208802221
30
0
41
1
10
0.407159133356107
20
-39.4024686306975
30
0
41
1
10
0.369558254762692
20
-39.396324734959
30
0
41
1
10
0.346581385512189
20
-39.3938373713107
30
0
41
1
10
0.34327857925749
20
-39.3935011271963
30
0
0
SPLINE
5
238
100
AcDbEntity
8
1
62
256
6
ByLayer
370
18
48
1
60
0
100
AcDbSpline
70
4
71
3
72
11
73
7
40
0
40
0
40
0
40
0
40
0.29531276967164
40
0.622840289617497
40
0.947592212450275
40
1
40
1
40
1
40
1
41
1
10
0.445278525422386
20
39.4241878705894
30
0
41
1
10
0.445152802187117
20
39.4278891853318
30
0
41
1
10
0.438550315846253
20
39.4352619487741
30
0
41
1
10
0.407012847733406
20
39.4456051168326
30
0
41
1
10
0.369436591103796
20
39.4514466433262
30
0
41
1
10
0.346529636488817
20
39.4537970344249
30
0
41
1
10
0.343278579257493
20
39.4541104631898
30
0
0
SPLINE
5
239
100
AcDbEntity
8
1
62
256
6
ByLayer
370
18
48
1
60
0
100
AcDbSpline
70
4
71
2
72
6
73
3
40
0
40
0
40
0
40
1
40
1
40
1
41
1
10
19.5550000908887
20
0.921155337667808
30
0
41
1
10
19.5550772062087
20
0.935763835481262
30
0
41
1
10
19.575
20
0.949179327373269
30
0
0
SPLINE
5
23A
100
AcDbEntity
8
1
62
256
6
ByLayer
370
18
48
1
60
0
100
AcDbSpline
70
4
71
2
72
6
73
3
40
0
40
0
40
0
40
1
40
1
40
1
41
1
10
19.5550001109454
20
39.0787170351398
30
0
41
1
10
19.5550608170359
20
39.0933031283931
30
0
41
1
10
19.575
20
39.1062992675038
30
0
0
SPLINE
5
23B
100
AcDbEntity
8
1
62
256
6
ByLayer
370
18
48
1
60
0
100
AcDbSpline
70
4
71
1
72
4
73
2
40
0
40
0
40
1
40
1
41
1
10
19.5749999999992
20
39.1062992675049
30
0
41
1
10
19.5813151565788
20
39.1034442049165
30
0
0
SPLINE
5
23C
100
AcDbEntity
8
1
62
256
6
ByLayer
370
18
48
1
60
0
100
AcDbSpline
70
4
71
3
72
10
73
6
40
0
40
0
40
0
40
0
40
0.153997883116398
40
0.596265366491281
40
1
40
1
40
1
40
1
41
1
10
19.5813151565788
20
39.1034442049165
30
0
41
1
10
19.5843763939041
20
39.1018990076494
30
0
41
1
10
19.5967412582977
20
39.0951142253083
30
0
41
1
10
19.6222894625963
20
39.0769855973007
30
0
41
1
10
19.6454895523377
20
39.0578943081884
30
0
41
1
10
19.65725
20
39.047588461952
30
0
0
SPLINE
5
23D
100
AcDbEntity
8
1
62
256
6
ByLayer
370
18
48
1
60
0
100
AcDbSpline
70
4
71
3
72
10
73
6
40
0
40
0
40
0
40
0
40
0.45114472331453
40
0.858558960327582
40
1
40
1
40
1
40
1
41
1
10
19.65725
20
0.952411538047992
30
0
41
1
10
19.6424400083254
20
0.939395610566286
30
0
41
1
10
19.6165715531897
20
0.918439795788679
30
0
41
1
10
19.5892775211581
20
0.900193833319594
30
0
41
1
10
19.5777969933501
20
0.894841240073814
30
0
41
1
10
19.5749999999915
20
0.893700732480265
30
0
0
SPLINE
5
23E
100
AcDbEntity
8
1
62
256
6
ByLayer
370
18
48
1
60
0
100
AcDbSpline
70
4
71
1
72
4
73
2
40
0
40
0
40
1
40
1
41
1
10
19.65725
20
39.047588461952
30
0
41
1
10
20.325
20
38.466117187015
30
0
0
SPLINE
5
23F
100
AcDbEntity
8
1
62
256
6
ByLayer
370
18
48
1
60
0
100
AcDbSpline
70
4
71
1
72
4
73
2
40
0
40
0
40
1
40
1
41
1
10
20.325
20
1.53388281298501
30
0
41
1
10
19.65725
20
0.952411538047992
30
0
0
SPLINE
5
240
100
AcDbEntity
8
1
62
256
6
ByLayer
370
18
48
1
60
0
100
AcDbSpline
70
4
71
2
72
6
73
3
40
0
40
0
40
0
40
1
40
1
40
1
41
1
10
19.65725
20
39.3608233326823
30
0
41
1
10
19.6061613737563
20
39.4201904548902
30
0
41
1
10
19.5749999999972
20
39.4665965496126
30
0
0
SPLINE
5
241
100
AcDbEntity
8
1
62
256
6
ByLayer
370
18
48
1
60
0
100
AcDbSpline
70
4
71
1
72
4
73
2
40
0
40
0
40
1
40
1
41
1
10
20.325
20
38.5723530921835
30
0
41
1
10
19.65725
20
39.3608233326823
30
0
0
SPLINE
5
242
100
AcDbEntity
8
1
62
256
6
ByLayer
370
18
48
1
60
0
100
AcDbSpline
70
4
71
1
72
4
73
2
40
0
40
0
40
1
40
1
41
1
10
19.65725
20
0.639176667317686
30
0
41
1
10
20.325
20
1.42764690781647
30
0
0
SPLINE
5
243
100
AcDbEntity
8
1
62
256
6
ByLayer
370
18
48
1
60
0
100
AcDbSpline
70
4
71
2
72
6
73
3
40
0
40
0
40
0
40
1
40
1
40
1
41
1
10
19.575
20
0.533403450386192
30
0
41
1
10
19.6063414089195
20
0.579996921574351
30
0
41
1
10
19.65725
20
0.639176667317686
30
0
0
SPLINE
5
244
100
AcDbEntity
8
1
62
256
6
ByLayer
370
18
48
1
60
0
100
AcDbSpline
70
4
71
3
72
11
73
7
40
0
40
0
40
0
40
0
40
0.292974607995441
40
0.61819523894544
40
0.941737630153089
40
1
40
1
40
1
40
1
41
1
10
0.445278526512693
20
39.6522956428429
30
0
41
1
10
0.445149408110751
20
39.6551406666938
30
0
41
1
10
0.438630246370768
20
39.6608064899758
30
0
41
1
10
0.407443083916724
20
39.6687417745196
30
0
41
1
10
0.369970640290339
20
39.6732629808289
30
0
41
1
10
0.346885024949926
20
39.6750947278871
30
0
41
1
10
0.343278579257496
20
39.6753616857423
30
0
0
SPLINE
5
245
100
AcDbEntity
8
1
62
256
6
ByLayer
370
18
48
1
60
0
100
AcDbSpline
70
4
71
3
72
11
73
7
40
0
40
0
40
0
40
0
40
0.292004611354741
40
0.617257620494885
40
0.941102193537278
40
1
40
1
40
1
40
1
41
1
10
0.445278526597685
20
-39.6523345651314
30
0
41
1
10
0.445149172212231
20
-39.6494925351709
30
0
41
1
10
0.438658829316235
20
-39.6437710008647
30
0
41
1
10
0.407554341394468
20
-39.6355329851714
30
0
41
1
10
0.370063572995336
20
-39.6307208568199
30
0
41
1
10
0.34692483185155
20
-39.6287567962241
30
0
41
1
10
0.343278579257492
20
-39.6284675278459
30
0
0
SPLINE
5
246
100
AcDbEntity
8
1
62
256
6
ByLayer
370
18
48
1
60
0
100
AcDbSpline
70
4
71
2
72
6
73
3
40
0
40
0
40
0
40
1
40
1
40
1
41
1
10
19.5550000745057
20
0.51278441873688
30
0
41
1
10
19.5550886371773
20
0.523515065640558
30
0
41
1
10
19.575
20
0.533403450386172
30
0
0
SPLINE
5
247
100
AcDbEntity
8
1
62
256
6
ByLayer
370
18
48
1
60
0
100
AcDbSpline
70
4
71
3
72
10
73
6
40
0
40
0
40
0
40
0
40
0.483353424226588
40
0.901965703789451
40
1
40
1
40
1
40
1
41
1
10
19.65725
20
0.557023899858702
30
0
41
1
10
19.6412585509182
20
0.542572558196227
30
0
41
1
10
19.6141744679229
20
0.519573809513771
30
0
41
1
10
19.5875302832658
20
0.499962638583772
30
0
41
1
10
19.5769319185741
20
0.493741204059098
30
0
41
1
10
19.5749999999997
20
0.492666538591551
30
0
0
SPLINE
5
248
100
AcDbEntity
8
1
62
256
6
ByLayer
370
18
48
1
60
0
100
AcDbSpline
70
4
71
2
72
6
73
3
40
0
40
0
40
0
40
1
40
1
40
1
41
1
10
19.5550000876168
20
39.4871315537117
30
0
41
1
10
19.5550773103071
20
39.4978457091931
30
0
41
1
10
19.575
20
39.5073334614079
30
0
0
SPLINE
5
249
100
AcDbEntity
8
1
62
256
6
ByLayer
370
18
48
1
60
0
100
AcDbSpline
70
4
71
3
72
10
73
6
40
0
40
0
40
0
40
0
40
0.259969512077298
40
0.675691557322626
40
1
40
1
40
1
40
1
41
1
10
19.575
20
39.5073334614079
30
0
41
1
10
19.5802784972633
20
39.504338331664
30
0
41
1
10
19.5952404593641
20
39.4948161994882
30
0
41
1
10
19.6239948187395
20
39.4721363317759
30
0
41
1
10
19.6467347400733
20
39.4524443024325
30
0
41
1
10
19.65725
20
39.4429761001413
30
0
0
SPLINE
5
24A
100
AcDbEntity
8
1
62
256
6
ByLayer
370
18
48
1
60
0
100
AcDbSpline
70
4
71
1
72
4
73
2
40
0
40
0
40
1
40
1
41
1
10
19.65725
20
39.4429761001413
30
0
41
1
10
20.325
20
38.8430252468279
30
0
0
SPLINE
5
24B
100
AcDbEntity
8
1
62
256
6
ByLayer
370
18
48
1
60
0
100
AcDbSpline
70
4
71
2
72
6
73
3
40
0
40
0
40
0
40
1
40
1
40
1
41
1
10
19.65725
20
39.6627258208153
30
0
41
1
10
19.6062391642924
20
39.7189338205118
30
0
41
1
10
19.5749999999968
20
39.7601364911864
30
0
0
SPLINE
5
24C
100
AcDbEntity
8
1
62
256
6
ByLayer
370
18
48
1
60
0
100
AcDbSpline
70
4
71
1
72
4
73
2
40
0
40
0
40
1
40
1
41
1
10
20.325
20
38.9174570937194
30
0
41
1
10
19.65725
20
39.6627258208153
30
0
0
SPLINE
5
24D
100
AcDbEntity
8
1
62
256
6
ByLayer
370
18
48
1
60
0
100
AcDbSpline
70
4
71
1
72
4
73
2
40
0
40
0
40
1
40
1
41
1
10
20.325
20
1.15697475317209
30
0
41
1
10
19.65725
20
0.557023899858702
30
0
0
SPLINE
5
24E
100
AcDbEntity
8
1
62
256
6
ByLayer
370
18
48
1
60
0
100
AcDbSpline
70
4
71
1
72
4
73
2
40
0
40
0
40
1
40
1
41
1
10
19.65725
20
0.337274179184683
30
0
41
1
10
20.325
20
1.08254290628058
30
0
0
SPLINE
5
24F
100
AcDbEntity
8
1
62
256
6
ByLayer
370
18
48
1
60
0
100
AcDbSpline
70
4
71
2
72
6
73
3
40
0
40
0
40
0
40
1
40
1
40
1
41
1
10
19.575
20
0.239863508814244
30
0
41
1
10
19.605961524824
20
0.280778533406216
30
0
41
1
10
19.65725
20
0.337274179184683
30
0
0
SPLINE
5
250
100
AcDbEntity
8
1
62
256
6
ByLayer
370
18
48
1
60
0
100
AcDbSpline
70
4
71
3
72
11
73
7
40
0
40
0
40
0
40
0
40
0.290541357971417
40
0.614077913945575
40
0.93693214579288
40
1
40
1
40
1
40
1
41
1
10
0.445278527406528
20
-39.8226655088135
30
0
41
1
10
0.445146836409435
20
-39.8206492189053
30
0
41
1
10
0.438709732542718
20
-39.8165832874736
30
0
41
1
10
0.407840447906264
20
-39.8106960279971
30
0
41
1
10
0.370431639173929
20
-39.8072167273047
30
0
41
1
10
0.347176641120609
20
-39.805787264352
30
0
41
1
10
0.343278579257496
20
-39.8055642612016
30
0
0
SPLINE
5
251
100
AcDbEntity
8
1
62
256
6
ByLayer
370
18
48
1
60
0
100
AcDbSpline
70
4
71
3
72
11
73
7
40
0
40
0
40
0
40
0
40
0.291224731725881
40
0.614739340913202
40
0.937382806707525
40
1
40
1
40
1
40
1
41
1
10
0.445278527336569
20
39.8226380152384
30
0
41
1
10
0.445146977296733
20
39.8246529303544
30
0
41
1
10
0.438689634312287
20
39.8286610393332
30
0
41
1
10
0.40776224505882
20
39.8342501448773
30
0
41
1
10
0.370366108799316
20
39.8374468492015
30
0
41
1
10
0.347148426799102
20
39.8387474132435
30
0
41
1
10
0.343278579257498
20
39.8389484970092
30
0
0
SPLINE
5
252
100
AcDbEntity
8
1
62
256
6
ByLayer
370
18
48
1
60
0
100
AcDbSpline
70
4
71
2
72
6
73
3
40
0
40
0
40
0
40
1
40
1
40
1
41
1
10
19.555000071718
20
39.7736939468021
30
0
41
1
10
19.5550882814786
20
39.7807339890722
30
0
41
1
10
19.575
20
39.7869008652115
30
0
0
SPLINE
5
253
100
AcDbEntity
8
1
62
256
6
ByLayer
370
18
48
1
60
0
100
AcDbSpline
70
4
71
3
72
10
73
6
40
0
40
0
40
0
40
0
40
0.280044978436639
40
0.714628098549786
40
1
40
1
40
1
40
1
41
1
10
19.575
20
39.7869008652115
30
0
41
1
10
19.5807151367468
20
39.7828170960607
30
0
41
1
10
19.5966698937041
20
39.7706640381295
30
0
41
1
10
19.6256925078117
20
39.7456053200823
30
0
41
1
10
19.6479881110838
20
39.7253063732952
30
0
41
1
10
19.65725
20
39.7166937655745
30
0
0
SPLINE
5
254
100
AcDbEntity
8
1
62
256
6
ByLayer
370
18
48
1
60
0
100
AcDbSpline
70
4
71
2
72
6
73
3
40
0
40
0
40
0
40
1
40
1
40
1
41
1
10
19.5550000639219
20
0.226255534486759
30
0
41
1
10
19.5550954092271
20
0.233308211025462
30
0
41
1
10
19.575
20
0.239863508814226
30
0
0
SPLINE
5
255
100
AcDbEntity
8
1
62
256
6
ByLayer
370
18
48
1
60
0
100
AcDbSpline
70
4
71
3
72
10
73
6
40
0
40
0
40
0
40
0
40
0.515357565499837
40
0.940129085265606
40
1
40
1
40
1
40
1
41
1
10
19.65725
20
0.283306234425511
30
0
41
1
10
19.6400705593401
20
0.267278461110723
30
0
41
1
10
19.6119426897589
20
0.242115737816898
30
0
41
1
10
19.5859416938002
20
0.220932105835676
30
0
41
1
10
19.5761763344866
20
0.213927931849753
30
0
41
1
10
19.575
20
0.213099134788457
30
0
0
SPLINE
5
256
100
AcDbEntity
8
1
62
256
6
ByLayer
370
18
48
1
60
0
100
AcDbSpline
70
4
71
1
72
4
73
2
40
0
40
0
40
1
40
1
41
1
10
19.65725
20
39.7166937655745
30
0
41
1
10
20.325
20
39.095070487972
30
0
0
SPLINE
5
257
100
AcDbEntity
8
1
62
256
6
ByLayer
370
18
48
1
60
0
100
AcDbSpline
70
4
71
2
72
6
73
3
40
0
40
0
40
0
40
1
40
1
40
1
41
1
10
19.65725
20
39.8470172391163
30
0
41
1
10
19.6062935736561
20
39.9005327214963
30
0
41
1
10
19.5749999999966
20
39.9368404486577
30
0
0
SPLINE
5
258
100
AcDbEntity
8
1
62
256
6
ByLayer
370
18
48
1
60
0
100
AcDbSpline
70
4
71
1
72
4
73
2
40
0
40
0
40
1
40
1
41
1
10
20.325
20
39.1391762206395
30
0
41
1
10
19.65725
20
39.8470172391163
30
0
0
SPLINE
5
259
100
AcDbEntity
8
1
62
256
6
ByLayer
370
18
48
1
60
0
100
AcDbSpline
70
4
71
1
72
4
73
2
40
0
40
0
40
1
40
1
41
1
10
20.325
20
0.90492951202803
30
0
41
1
10
19.65725
20
0.283306234425511
30
0
0
SPLINE
5
25A
100
AcDbEntity
8
1
62
256
6
ByLayer
370
18
48
1
60
0
100
AcDbSpline
70
4
71
1
72
4
73
2
40
0
40
0
40
1
40
1
41
1
10
19.65725
20
0.15298276088372
30
0
41
1
10
20.325
20
0.860823779360545
30
0
0
SPLINE
5
25B
100
AcDbEntity
8
1
62
256
6
ByLayer
370
18
48
1
60
0
100
AcDbSpline
70
4
71
3
72
10
73
6
40
0
40
0
40
0
40
0
40
0.344370590417198
40
0.993801653719538
40
1
40
1
40
1
40
1
41
1
10
19.575
20
0.0631595513445153
30
0
41
1
10
19.5821102283524
20
0.0714190872389421
30
0
41
1
10
19.6046581845446
20
0.0970035505827348
30
0
41
1
10
19.6357782438995
20
0.130382797010944
30
0
41
1
10
19.6570487070599
20
0.152770933060814
30
0
41
1
10
19.65725
20
0.15298276088372
30
0
0
SPLINE
5
25C
100
AcDbEntity
8
1
62
256
6
ByLayer
370
18
48
1
60
0
100
AcDbSpline
70
4
71
3
72
10
73
6
40
0
40
0
40
0
40
0
40
0.454087578361792
40
0.907707319938098
40
1
40
1
40
1
40
1
41
1
10
0.435987487369099
20
39.9393640341436
30
0
41
1
10
0.428676904863557
20
39.940607064883
30
0
41
1
10
0.408225183570502
20
39.9428054414833
30
0
41
1
10
0.370617186496228
20
39.9446979956668
30
0
41
1
10
0.347323906294931
20
39.9454574797288
30
0
41
1
10
0.3432785792575
20
39.9455793524169
30
0
0
SPLINE
5
25D
100
AcDbEntity
8
1
62
256
6
ByLayer
370
18
48
1
60
0
100
AcDbSpline
70
4
71
3
72
11
73
7
40
0
40
0
40
0
40
0
40
0.289623414238974
40
0.612024544675967
40
0.934205463353967
40
1
40
1
40
1
40
1
41
1
10
0.445278527937676
20
-39.9359706092476
30
0
41
1
10
0.445145329586481
20
-39.9347633375105
30
0
41
1
10
0.438741791836009
20
-39.9323195103151
30
0
41
1
10
0.408023322865374
20
-39.9287386122598
30
0
41
1
10
0.370669415283195
20
-39.9265922522867
30
0
41
1
10
0.347340774297775
20
-39.9257049331983
30
0
41
1
10
0.343278579257497
20
-39.9255614074463
30
0
0
SPLINE
5
25E
100
AcDbEntity
8
1
62
256
6
ByLayer
370
18
48
1
60
0
100
AcDbSpline
70
4
71
2
72
6
73
3
40
0
40
0
40
0
40
1
40
1
40
1
41
1
10
19.5550000621865
20
39.9436586785733
30
0
41
1
10
19.5550950302991
20
39.9471470906092
30
0
41
1
10
19.5749999999999
20
39.9501085943123
30
0
0
SPLINE
5
25F
100
AcDbEntity
8
1
62
256
6
ByLayer
370
18
48
1
60
0
100
AcDbSpline
70
4
71
3
72
10
73
6
40
0
40
0
40
0
40
0
40
0.300790735310263
40
0.867596727738197
40
1
40
1
40
1
40
1
41
1
10
19.575
20
39.9501085943123
30
0
41
1
10
19.5811811423247
20
39.9447813507191
30
0
41
1
10
19.6006350449778
20
39.9275680347332
30
0
41
1
10
19.630866538456
20
39.8991179061029
30
0
41
1
10
19.6529738858701
20
39.8778928007401
30
0
41
1
10
19.65725
20
39.873769306808
30
0
0
SPLINE
5
260
100
AcDbEntity
8
1
62
256
6
ByLayer
370
18
48
1
60
0
100
AcDbSpline
70
4
71
2
72
6
73
3
40
0
40
0
40
0
40
1
40
1
40
1
41
1
10
19.55500005857
20
0.0563176834428757
30
0
41
1
10
19.555098473791
20
0.0598165397736122
30
0
41
1
10
19.5749999999999
20
0.0631595513445054
30
0
0
SPLINE
5
261
100
AcDbEntity
8
1
62
256
6
ByLayer
370
18
48
1
60
0
100
AcDbSpline
70
4
71
2
72
6
73
3
40
0
40
0
40
0
40
1
40
1
40
1
41
1
10
19.65725
20
0.126230693192033
30
0
41
1
10
19.6063238769226
20
0.0769706015762595
30
0
41
1
10
19.575
20
0.0498914056876685
30
0
0
SPLINE
5
262
100
AcDbEntity
8
1
62
256
6
ByLayer
370
18
48
1
60
0
100
AcDbSpline
70
4
71
1
72
4
73
2
40
0
40
0
40
1
40
1
41
1
10
19.65725
20
39.873769306808
30
0
41
1
10
20.325
20
39.2271639465794
30
0
0
SPLINE
5
263
100
AcDbEntity
8
1
62
256
6
ByLayer
370
18
48
1
60
0
100
AcDbSpline
70
4
71
1
72
4
73
2
40
0
40
0
40
1
40
1
41
1
10
19.65725
20
39.9169626166994
30
0
41
1
10
19.617277951662
20
39.9571810689724
30
0
0
SPLINE
5
264
100
AcDbEntity
8
1
62
256
6
ByLayer
370
18
48
1
60
0
100
AcDbSpline
70
4
71
2
72
6
73
3
40
0
40
0
40
0
40
1
40
1
40
1
41
1
10
19.617277951662
20
39.9571810689724
30
0
41
1
10
19.5924647088564
20
39.9821744334143
30
0
41
1
10
19.575
20
39.9998054990542
30
0
0
SPLINE
5
265
100
AcDbEntity
8
1
62
256
6
ByLayer
370
18
48
1
60
0
100
AcDbSpline
70
4
71
1
72
4
73
2
40
0
40
0
40
1
40
1
41
1
10
20.325
20
39.2417761632513
30
0
41
1
10
19.65725
20
39.9169626166994
30
0
0
SPLINE
5
266
100
AcDbEntity
8
1
62
256
6
ByLayer
370
18
48
1
60
0
100
AcDbSpline
70
4
71
1
72
4
73
2
40
0
40
0
40
1
40
1
41
1
10
20.325
20
0.7728360534206
30
0
41
1
10
19.65725
20
0.126230693192033
30
0
0
SPLINE
5
267
100
AcDbEntity
8
1
62
256
6
ByLayer
370
18
48
1
60
0
100
AcDbSpline
70
4
71
1
72
4
73
2
40
0
40
0
40
1
40
1
41
1
10
19.65725
20
0.083037383300618
30
0
41
1
10
20.325
20
0.758223836748673
30
0
0
SPLINE
5
268
100
AcDbEntity
8
1
62
256
6
ByLayer
370
18
48
1
60
0
100
AcDbSpline
70
4
71
3
72
10
73
6
40
0
40
0
40
0
40
0
40
0.322030608964033
40
0.929334820291921
40
1
40
1
40
1
40
1
41
1
10
19.575
20
0.0001945009457695
30
0
41
1
10
19.5816365565627
20
0.0068948292607291
30
0
41
1
10
19.6026015743208
20
0.0280402652519633
30
0
41
1
10
19.6332620629757
20
0.0589221372491425
30
0
41
1
10
19.6549623610023
20
0.0807378446804799
30
0
41
1
10
19.65725
20
0.083037383300618
30
0
0
SPLINE
5
269
100
AcDbEntity
8
1
62
256
6
ByLayer
370
18
48
1
60
0
100
AcDbSpline
70
4
71
3
72
10
73
6
40
0
40
0
40
0
40
0
40
0.452877341352185
40
0.905688676903732
40
1
40
1
40
1
40
1
41
1
10
0.436021934412905
20
39.9938439298732
30
0
41
1
10
0.428733416278937
20
39.9942345512164
30
0
41
1
10
0.40833980197629
20
39.9949153884853
30
0
41
1
10
0.37075469884196
20
39.9954597639987
30
0
41
1
10
0.347414115912578
20
39.9956749676488
30
0
41
1
10
0.343278579257501
20
39.9957097980911
30
0
0
SPLINE
5
26A
100
AcDbEntity
8
1
62
256
6
ByLayer
370
18
48
1
60
0
100
AcDbSpline
70
4
71
3
72
11
73
7
40
0
40
0
40
0
40
0
40
0.289233232597623
40
0.6110658035287
40
0.932888925669001
40
1
40
1
40
1
40
1
41
1
10
0.445278528195154
20
-39.9927345132147
30
0
41
1
10
0.445144596481825
20
-39.9923267006275
30
0
41
1
10
0.438755757234731
20
-39.9914853653713
30
0
41
1
10
0.408106659930535
20
-39.990184317627
30
0
41
1
10
0.370781330763836
20
-39.9893703428792
30
0
41
1
10
0.347419784189395
20
-39.9890293439972
30
0
41
1
10
0.343278579257499
20
-39.9889729956507
30
0
0
INSERT
5
284
100
AcDbEntity
8
SK2
62
256
6
ByLayer
370
25
48
1
60
0
100
AcDbBlockReference
2
DimnDraft3D22
10
0
20
0
30
0
41
1
42
1
43
1
50
0
210
0
220
0
230
1
0
LINE
5
70
100
AcDbEntity
8
81
62
256
6
ByLayer
370
18
48
1
60
0
100
AcDbLine
10
20
20
20
30
0
11
22
21
20
31
0
39
0
210
0
220
0
230
1
0
LINE
5
71
100
AcDbEntity
8
4
62
256
6
ByLayer
370
18
48
0.05
60
0
100
AcDbLine
10
0
20
0
30
0
11
20
21
0
31
0
39
0
210
0
220
0
230
1
0
LINE
5
73
100
AcDbEntity
8
SK4
62
256
6
ByLayer
370
18
48
0.05
60
0
100
AcDbLine
10
-5
20
0
30
0
11
25
21
0
31
0
39
0
210
0
220
0
230
1
0
LINE
5
75
100
AcDbEntity
8
80
62
256
6
ByLayer
370
18
48
1
60
0
100
AcDbLine
10
0
20
0
30
0
11
-2
21
0
31
0
39
0
210
0
220
0
230
1
0
LINE
5
76
100
AcDbEntity
8
1
62
256
6
ByLayer
370
18
48
1
60
0
100
AcDbLine
10
5.473814
20
-20.863509
30
0
11
5.065102
21
-19.38728
31
0
39
0
210
0
220
0
230
1
0
LINE
5
78
100
AcDbEntity
8
1
62
256
6
ByLayer
370
18
48
1
60
0
100
AcDbLine
10
7.127188
20
-21.371275
30
0
11
5.473814
21
-20.863509
31
0
39
0
210
0
220
0
230
1
0
LINE
5
79
100
AcDbEntity
8
1
62
256
6
ByLayer
370
18
48
1
60
0
100
AcDbLine
10
8.37185
20
-20.402812
30
0
11
7.127188
21
-21.371275
31
0
39
0
210
0
220
0
230
1
0
LINE
5
7A
100
AcDbEntity
8
1
62
256
6
ByLayer
370
18
48
1
60
0
100
AcDbLine
10
7.963138
20
-18.926583
30
0
11
8.37185
21
-20.402812
31
0
39
0
210
0
220
0
230
1
0
LINE
5
7B
100
AcDbEntity
8
1
62
256
6
ByLayer
370
18
48
1
60
0
100
AcDbLine
10
6.309765
20
-18.418817
30
0
11
7.963138
21
-18.926583
31
0
39
0
210
0
220
0
230
1
0
LINE
5
7C
100
AcDbEntity
8
1
62
256
6
ByLayer
370
18
48
1
60
0
100
AcDbLine
10
5.065102
20
-19.38728
30
0
11
6.309765
21
-18.418817
31
0
39
0
210
0
220
0
230
1
0
LINE
5
7D
100
AcDbEntity
8
1
62
256
6
ByLayer
370
18
48
1
60
0
100
AcDbLine
10
5.895982
20
-18.863509
30
0
11
5.868025
21
-18.762531
31
0
39
0
210
0
220
0
230
1
0
LINE
5
7E
100
AcDbEntity
8
1
62
256
6
ByLayer
370
18
48
1
60
0
100
AcDbLine
10
5.895982
20
-18.863509
30
0
11
5.473814
21
-20.863509
31
0
39
0
210
0
220
0
230
1
0
LINE
5
7F
100
AcDbEntity
8
1
62
256
6
ByLayer
370
18
48
1
60
0
100
AcDbLine
10
7.549356
20
-19.371275
30
0
11
7.127188
21
-21.371275
31
0
39
0
210
0
220
0
230
1
0
LINE
5
80
100
AcDbEntity
8
1
62
256
6
ByLayer
370
18
48
1
60
0
100
AcDbLine
10
7.991095
20
-19.02756
30
0
11
7.549356
21
-19.371275
31
0
39
0
210
0
220
0
230
1
0
LINE
5
81
100
AcDbEntity
8
1
62
256
6
ByLayer
370
18
48
1
60
0
100
AcDbLine
10
7.549356
20
-19.371275
30
0
11
5.895982
21
-18.863509
31
0
39
0
210
0
220
0
230
1
0
LINE
5
82
100
AcDbEntity
8
SK1
62
256
6
ByLayer
370
18
48
1
60
0
100
AcDbLine
10
30.325
20
34.899495
30
0
11
24.325
21
34.899495
31
0
39
0
210
0
220
0
230
1
0
LINE
5
84
100
AcDbEntity
8
SK1
62
256
6
ByLayer
370
18
48
1
60
0
100
AcDbLine
10
24.325
20
24.899495
30
0
11
30.325
21
24.899495
31
0
39
0
210
0
220
0
230
1
0
LINE
5
85
100
AcDbEntity
8
SK1
62
256
6
ByLayer
370
18
48
1
60
0
100
AcDbLine
10
24.325
20
32.899495
30
0
11
20.325
21
32.899495
31
0
39
0
210
0
220
0
230
1
0
LINE
5
86
100
AcDbEntity
8
SK1
62
256
6
ByLayer
370
18
48
1
60
0
100
AcDbLine
10
20.325
20
26.899495
30
0
11
24.325
21
26.899495
31
0
39
0
210
0
220
0
230
1
0
LINE
5
87
100
AcDbEntity
8
1
62
256
6
ByLayer
370
18
48
1
60
0
100
AcDbLine
10
-0.907887
20
-33.467065
30
0
11
-0.907887
21
-20.110813
31
0
39
0
210
0
220
0
230
1
0
LINE
5
88
100
AcDbEntity
8
1
62
256
6
ByLayer
370
18
48
1
60
0
100
AcDbLine
10
-0.907887
20
-11.889848
30
0
11
-0.907887
21
-5
31
0
39
0
210
0
220
0
230
1
0
LINE
5
89
100
AcDbEntity
8
1
62
256
6
ByLayer
370
18
48
1
60
0
100
AcDbLine
10
-0.907887
20
5
30
0
11
-0.907887
21
11.888298
31
0
39
0
210
0
220
0
230
1
0
LINE
5
8A
100
AcDbEntity
8
1
62
256
6
ByLayer
370
18
48
1
60
0
100
AcDbLine
10
-0.907887
20
20.111555
30
0
11
-0.907887
21
33.467065
31
0
39
0
210
0
220
0
230
1
0
LINE
5
8B
100
AcDbEntity
8
1
62
256
6
ByLayer
370
18
48
1
60
0
100
AcDbLine
10
3.793635
20
40
30
0
11
-0.325
21
40
31
0
39
0
210
0
220
0
230
1
0
LINE
5
8C
100
AcDbEntity
8
1
62
256
6
ByLayer
370
18
48
1
60
0
100
AcDbLine
10
17.325
20
40
30
0
11
8.823465
21
40
31
0
39
0
210
0
220
0
230
1
0
LINE
5
8D
100
AcDbEntity
8
1
62
256
6
ByLayer
370
18
48
1
60
0
100
AcDbLine
10
-0.325
20
-40
30
0
11
16.325
21
-40
31
0
39
0
210
0
220
0
230
1
0
LINE
5
8E
100
AcDbEntity
8
1
62
256
6
ByLayer
370
18
48
1
60
0
100
AcDbLine
10
17.325
20
0
30
0
11
19.557538
21
0
31
0
39
0
210
0
220
0
230
1
0
LINE
5
8F
100
AcDbEntity
8
1
62
256
6
ByLayer
370
18
48
1
60
0
100
AcDbLine
10
19.557538
20
40
30
0
11
17.325
21
40
31
0
39
0
210
0
220
0
230
1
0
LINE
5
90
100
AcDbEntity
8
1
62
256
6
ByLayer
370
18
48
1
60
0
100
AcDbLine
10
19.65725
20
24.831396
30
0
11
19.65725
21
23.086813
31
0
39
0
210
0
220
0
230
1
0
LINE
5
91
100
AcDbEntity
8
1
62
256
6
ByLayer
370
18
48
1
60
0
100
AcDbLine
10
19.65725
20
16.913187
30
0
11
19.65725
21
15.168604
31
0
39
0
210
0
220
0
230
1
0
LINE
5
92
100
AcDbEntity
8
1
62
256
6
ByLayer
370
18
48
1
60
0
100
AcDbLine
10
20.325
20
23.455204
30
0
11
20.325
21
16.544796
31
0
39
0
210
0
220
0
230
1
0
LINE
5
93
100
AcDbEntity
8
1
62
256
6
ByLayer
370
18
48
1
60
0
100
AcDbLine
10
19.65725
20
28.89163
30
0
11
19.65725
21
28.143078
31
0
39
0
210
0
220
0
230
1
0
LINE
5
94
100
AcDbEntity
8
1
62
256
6
ByLayer
370
18
48
1
60
0
100
AcDbLine
10
19.65725
20
11.856922
30
0
11
19.65725
21
11.10837
31
0
39
0
210
0
220
0
230
1
0
LINE
5
95
100
AcDbEntity
8
1
62
256
6
ByLayer
370
18
48
1
60
0
100
AcDbLine
10
20.325
20
28.154787
30
0
11
20.325
21
25.098171
31
0
39
0
210
0
220
0
230
1
0
LINE
5
96
100
AcDbEntity
8
1
62
256
6
ByLayer
370
18
48
1
60
0
100
AcDbLine
10
20.325
20
14.901829
30
0
11
20.325
21
11.845213
31
0
39
0
210
0
220
0
230
1
0
LINE
5
97
100
AcDbEntity
8
1
62
256
6
ByLayer
370
18
48
1
60
0
100
AcDbLine
10
19.65725
20
31.414016
30
0
11
19.65725
21
30.889951
31
0
39
0
210
0
220
0
230
1
0
LINE
5
98
100
AcDbEntity
8
1
62
256
6
ByLayer
370
18
48
1
60
0
100
AcDbLine
10
19.65725
20
9.110049
30
0
11
19.65725
21
8.585984
31
0
39
0
210
0
220
0
230
1
0
LINE
5
99
100
AcDbEntity
8
1
62
256
6
ByLayer
370
18
48
1
60
0
100
AcDbLine
10
20.325
20
30.796419
30
0
11
20.325
21
28.912308
31
0
39
0
210
0
220
0
230
1
0
LINE
5
9A
100
AcDbEntity
8
1
62
256
6
ByLayer
370
18
48
1
60
0
100
AcDbLine
10
20.325
20
11.087692
30
0
11
20.325
21
9.203581
31
0
39
0
210
0
220
0
230
1
0
LINE
5
9B
100
AcDbEntity
8
1
62
256
6
ByLayer
370
18
48
1
60
0
100
AcDbLine
10
-0.229904
20
-37.173166
30
0
11
-0.229904
21
-33.901197
31
0
39
0
210
0
220
0
230
1
0
LINE
5
9C
100
AcDbEntity
8
1
62
256
6
ByLayer
370
18
48
1
60
0
100
AcDbLine
10
-0.229904
20
33.901197
30
0
11
-0.229904
21
37.173166
31
0
39
0
210
0
220
0
230
1
0
LINE
5
9D
100
AcDbEntity
8
1
62
256
6
ByLayer
370
18
48
1
60
0
100
AcDbLine
10
19.65725
20
33.304077
30
0
11
19.65725
21
32.89854
31
0
39
0
210
0
220
0
230
1
0
LINE
5
9E
100
AcDbEntity
8
1
62
256
6
ByLayer
370
18
48
1
60
0
100
AcDbLine
10
19.65725
20
7.10146
30
0
11
19.65725
21
6.695923
31
0
39
0
210
0
220
0
230
1
0
LINE
5
9F
100
AcDbEntity
8
1
62
256
6
ByLayer
370
18
48
1
60
0
100
AcDbLine
10
20.325
20
32.732823
30
0
11
20.325
21
31.329921
31
0
39
0
210
0
220
0
230
1
0
LINE
5
A0
100
AcDbEntity
8
1
62
256
6
ByLayer
370
18
48
1
60
0
100
AcDbLine
10
20.325
20
8.670079
30
0
11
20.325
21
7.267177
31
0
39
0
210
0
220
0
230
1
0
LINE
5
A1
100
AcDbEntity
8
1
62
256
6
ByLayer
370
18
48
1
60
0
100
AcDbLine
10
0.343279
20
37.437807
30
0
11
0.343279
21
37.302954
31
0
39
0
210
0
220
0
230
1
0
LINE
5
A2
100
AcDbEntity
8
1
62
256
6
ByLayer
370
18
48
1
60
0
100
AcDbLine
10
0.343279
20
-37.302954
30
0
11
0.343279
21
-37.437807
31
0
39
0
210
0
220
0
230
1
0
LINE
5
A3
100
AcDbEntity
8
1
62
256
6
ByLayer
370
18
48
1
60
0
100
AcDbLine
10
-0.325
20
37.580713
30
0
11
-0.325
21
33.841459
31
0
39
0
210
0
220
0
230
1
0
LINE
5
A4
100
AcDbEntity
8
1
62
256
6
ByLayer
370
18
48
1
60
0
100
AcDbLine
10
-0.325
20
-33.841459
30
0
11
-0.325
21
-37.580713
31
0
39
0
210
0
220
0
230
1
0
LINE
5
A5
100
AcDbEntity
8
1
62
256
6
ByLayer
370
18
48
1
60
0
100
AcDbLine
10
19.65725
20
34.805984
30
0
11
19.65725
21
34.479421
31
0
39
0
210
0
220
0
230
1
0
LINE
5
A6
100
AcDbEntity
8
1
62
256
6
ByLayer
370
18
48
1
60
0
100
AcDbLine
10
19.65725
20
5.520579
30
0
11
19.65725
21
5.194016
31
0
39
0
210
0
220
0
230
1
0
LINE
5
A7
100
AcDbEntity
8
1
62
256
6
ByLayer
370
18
48
1
60
0
100
AcDbLine
10
20.325
20
34.254364
30
0
11
20.325
21
33.145531
31
0
39
0
210
0
220
0
230
1
0
LINE
5
A8
100
AcDbEntity
8
1
62
256
6
ByLayer
370
18
48
1
60
0
100
AcDbLine
10
20.325
20
6.854469
30
0
11
20.325
21
5.745636
31
0
39
0
210
0
220
0
230
1
0
LINE
5
A9
100
AcDbEntity
8
1
62
256
6
ByLayer
370
18
48
1
60
0
100
AcDbLine
10
0.343279
20
37.968367
30
0
11
0.343279
21
37.849411
31
0
39
0
210
0
220
0
230
1
0
LINE
5
AA
100
AcDbEntity
8
1
62
256
6
ByLayer
370
18
48
1
60
0
100
AcDbLine
10
0.343279
20
-37.849411
30
0
11
0.343279
21
-37.968367
31
0
39
0
210
0
220
0
230
1
0
LINE
5
AB
100
AcDbEntity
8
1
62
256
6
ByLayer
370
18
48
1
60
0
100
AcDbLine
10
-0.325
20
38.094094
30
0
11
-0.325
21
37.715307
31
0
39
0
210
0
220
0
230
1
0
LINE
5
AC
100
AcDbEntity
8
1
62
256
6
ByLayer
370
18
48
1
60
0
100
AcDbLine
10
-0.325
20
-37.715307
30
0
11
-0.325
21
-38.094094
31
0
39
0
210
0
220
0
230
1
0
LINE
5
AD
100
AcDbEntity
8
1
62
256
6
ByLayer
370
18
48
1
60
0
100
AcDbLine
10
19.65725
20
4.238181
30
0
11
19.65725
21
3.970781
31
0
39
0
210
0
220
0
230
1
0
LINE
5
AE
100
AcDbEntity
8
1
62
256
6
ByLayer
370
18
48
1
60
0
100
AcDbLine
10
19.65725
20
36.029219
30
0
11
19.65725
21
35.761819
31
0
39
0
210
0
220
0
230
1
0
LINE
5
AF
100
AcDbEntity
8
1
62
256
6
ByLayer
370
18
48
1
60
0
100
AcDbLine
10
20.325
20
35.483831
30
0
11
20.325
21
34.585708
31
0
39
0
210
0
220
0
230
1
0
LINE
5
B0
100
AcDbEntity
8
1
62
256
6
ByLayer
370
18
48
1
60
0
100
AcDbLine
10
20.325
20
5.414292
30
0
11
20.325
21
4.516169
31
0
39
0
210
0
220
0
230
1
0
LINE
5
B1
100
AcDbEntity
8
1
62
256
6
ByLayer
370
18
48
1
60
0
100
AcDbLine
10
0.343279
20
38.433115
30
0
11
0.343279
21
38.329433
31
0
39
0
210
0
220
0
230
1
0
LINE
5
B2
100
AcDbEntity
8
1
62
256
6
ByLayer
370
18
48
1
60
0
100
AcDbLine
10
0.343279
20
-38.329433
30
0
11
0.343279
21
-38.433115
31
0
39
0
210
0
220
0
230
1
0
LINE
5
B3
100
AcDbEntity
8
1
62
256
6
ByLayer
370
18
48
1
60
0
100
AcDbLine
10
-0.325
20
38.542314
30
0
11
-0.325
21
38.212163
31
0
39
0
210
0
220
0
230
1
0
LINE
5
B4
100
AcDbEntity
8
1
62
256
6
ByLayer
370
18
48
1
60
0
100
AcDbLine
10
-0.325
20
-38.212163
30
0
11
-0.325
21
-38.542314
31
0
39
0
210
0
220
0
230
1
0
LINE
5
B5
100
AcDbEntity
8
1
62
256
6
ByLayer
370
18
48
1
60
0
100
AcDbLine
10
19.65725
20
37.033923
30
0
11
19.65725
21
36.814168
31
0
39
0
210
0
220
0
230
1
0
LINE
5
B6
100
AcDbEntity
8
1
62
256
6
ByLayer
370
18
48
1
60
0
100
AcDbLine
10
19.65725
20
3.185832
30
0
11
19.65725
21
2.966077
31
0
39
0
210
0
220
0
230
1
0
LINE
5
B7
100
AcDbEntity
8
1
62
256
6
ByLayer
370
18
48
1
60
0
100
AcDbLine
10
20.325
20
36.486696
30
0
11
20.325
21
35.753754
31
0
39
0
210
0
220
0
230
1
0
LINE
5
B8
100
AcDbEntity
8
1
62
256
6
ByLayer
370
18
48
1
60
0
100
AcDbLine
10
20.325
20
4.246246
30
0
11
20.325
21
3.513304
31
0
39
0
210
0
220
0
230
1
0
LINE
5
B9
100
AcDbEntity
8
1
62
256
6
ByLayer
370
18
48
1
60
0
100
AcDbLine
10
0.343279
20
38.834416
30
0
11
0.343279
21
38.745489
31
0
39
0
210
0
220
0
230
1
0
LINE
5
BA
100
AcDbEntity
8
1
62
256
6
ByLayer
370
18
48
1
60
0
100
AcDbLine
10
0.343279
20
-38.745489
30
0
11
0.343279
21
-38.834416
31
0
39
0
210
0
220
0
230
1
0
LINE
5
BB
100
AcDbEntity
8
1
62
256
6
ByLayer
370
18
48
1
60
0
100
AcDbLine
10
-0.325
20
38.927625
30
0
11
-0.325
21
38.644461
31
0
39
0
210
0
220
0
230
1
0
LINE
5
BC
100
AcDbEntity
8
1
62
256
6
ByLayer
370
18
48
1
60
0
100
AcDbLine
10
-0.325
20
-38.644461
30
0
11
-0.325
21
-38.927625
31
0
39
0
210
0
220
0
230
1
0
LINE
5
BD
100
AcDbEntity
8
1
62
256
6
ByLayer
370
18
48
1
60
0
100
AcDbLine
10
19.65725
20
2.322399
30
0
11
19.65725
21
2.142978
31
0
39
0
210
0
220
0
230
1
0
LINE
5
BE
100
AcDbEntity
8
1
62
256
6
ByLayer
370
18
48
1
60
0
100
AcDbLine
10
19.65725
20
37.857022
30
0
11
19.65725
21
37.677601
31
0
39
0
210
0
220
0
230
1
0
LINE
5
BF
100
AcDbEntity
8
1
62
256
6
ByLayer
370
18
48
1
60
0
100
AcDbLine
10
20.325
20
37.302406
30
0
11
20.325
21
36.706844
31
0
39
0
210
0
220
0
230
1
0
LINE
5
C0
100
AcDbEntity
8
1
62
256
6
ByLayer
370
18
48
1
60
0
100
AcDbLine
10
20.325
20
3.293156
30
0
11
20.325
21
2.697594
31
0
39
0
210
0
220
0
230
1
0
LINE
5
C1
100
AcDbEntity
8
1
62
256
6
ByLayer
370
18
48
1
60
0
100
AcDbLine
10
0.343279
20
39.174218
30
0
11
0.343279
21
39.099622
31
0
39
0
210
0
220
0
230
1
0
LINE
5
C2
100
AcDbEntity
8
1
62
256
6
ByLayer
370
18
48
1
60
0
100
AcDbLine
10
0.343279
20
-39.099622
30
0
11
0.343279
21
-39.174218
31
0
39
0
210
0
220
0
230
1
0
LINE
5
C3
100
AcDbEntity
8
1
62
256
6
ByLayer
370
18
48
1
60
0
100
AcDbLine
10
-0.325
20
39.251879
30
0
11
-0.325
21
39.014348
31
0
39
0
210
0
220
0
230
1
0
LINE
5
C4
100
AcDbEntity
8
1
62
256
6
ByLayer
370
18
48
1
60
0
100
AcDbLine
10
-0.325
20
-39.014348
30
0
11
-0.325
21
-39.251879
31
0
39
0
210
0
220
0
230
1
0
LINE
5
C5
100
AcDbEntity
8
1
62
256
6
ByLayer
370
18
48
1
60
0
100
AcDbLine
10
19.65725
20
1.621239
30
0
11
19.65725
21
1.477259
31
0
39
0
210
0
220
0
230
1
0
LINE
5
C6
100
AcDbEntity
8
1
62
256
6
ByLayer
370
18
48
1
60
0
100
AcDbLine
10
19.65725
20
38.522741
30
0
11
19.65725
21
38.378761
31
0
39
0
210
0
220
0
230
1
0
LINE
5
C7
100
AcDbEntity
8
1
62
256
6
ByLayer
370
18
48
1
60
0
100
AcDbLine
10
20.325
20
2.519825
30
0
11
20.325
21
2.043515
31
0
39
0
210
0
220
0
230
1
0
LINE
5
C8
100
AcDbEntity
8
1
62
256
6
ByLayer
370
18
48
1
60
0
100
AcDbLine
10
20.325
20
37.956485
30
0
11
20.325
21
37.480175
31
0
39
0
210
0
220
0
230
1
0
LINE
5
C9
100
AcDbEntity
8
1
62
256
6
ByLayer
370
18
48
1
60
0
100
AcDbLine
10
0.343279
20
39.45411
30
0
11
0.343279
21
39.393501
31
0
39
0
210
0
220
0
230
1
0
LINE
5
CA
100
AcDbEntity
8
1
62
256
6
ByLayer
370
18
48
1
60
0
100
AcDbLine
10
0.343279
20
-39.393501
30
0
11
0.343279
21
-39.45411
31
0
39
0
210
0
220
0
230
1
0
LINE
5
CB
100
AcDbEntity
8
1
62
256
6
ByLayer
370
18
48
1
60
0
100
AcDbLine
10
-0.325
20
39.516579
30
0
11
-0.325
21
39.323585
31
0
39
0
210
0
220
0
230
1
0
LINE
5
CC
100
AcDbEntity
8
1
62
256
6
ByLayer
370
18
48
1
60
0
100
AcDbLine
10
-0.325
20
-39.323585
30
0
11
-0.325
21
-39.516579
31
0
39
0
210
0
220
0
230
1
0
LINE
5
CD
100
AcDbEntity
8
1
62
256
6
ByLayer
370
18
48
1
60
0
100
AcDbLine
10
19.65725
20
39.047588
30
0
11
19.65725
21
38.935685
31
0
39
0
210
0
220
0
230
1
0
LINE
5
CE
100
AcDbEntity
8
1
62
256
6
ByLayer
370
18
48
1
60
0
100
AcDbLine
10
19.65725
20
1.064315
30
0
11
19.65725
21
0.952412
31
0
39
0
210
0
220
0
230
1
0
LINE
5
CF
100
AcDbEntity
8
1
62
256
6
ByLayer
370
18
48
1
60
0
100
AcDbLine
10
20.325
20
38.466117
30
0
11
20.325
21
38.096807
31
0
39
0
210
0
220
0
230
1
0
LINE
5
D0
100
AcDbEntity
8
1
62
256
6
ByLayer
370
18
48
1
60
0
100
AcDbLine
10
20.325
20
1.903193
30
0
11
20.325
21
1.533883
31
0
39
0
210
0
220
0
230
1
0
LINE
5
D1
100
AcDbEntity
8
1
62
256
6
ByLayer
370
18
48
1
60
0
100
AcDbLine
10
0.343279
20
-39.628468
30
0
11
0.343279
21
-39.675362
31
0
39
0
210
0
220
0
230
1
0
LINE
5
D2
100
AcDbEntity
8
1
62
256
6
ByLayer
370
18
48
1
60
0
100
AcDbLine
10
0.343279
20
39.675362
30
0
11
0.343279
21
39.628468
31
0
39
0
210
0
220
0
230
1
0
LINE
5
D3
100
AcDbEntity
8
1
62
256
6
ByLayer
370
18
48
1
60
0
100
AcDbLine
10
-0.325
20
-39.573594
30
0
11
-0.325
21
-39.722915
31
0
39
0
210
0
220
0
230
1
0
LINE
5
D4
100
AcDbEntity
8
1
62
256
6
ByLayer
370
18
48
1
60
0
100
AcDbLine
10
-0.325
20
39.722915
30
0
11
-0.325
21
39.573594
31
0
39
0
210
0
220
0
230
1
0
LINE
5
D5
100
AcDbEntity
8
1
62
256
6
ByLayer
370
18
48
1
60
0
100
AcDbLine
10
19.65725
20
0.639177
30
0
11
19.65725
21
0.557024
31
0
39
0
210
0
220
0
230
1
0
LINE
5
D6
100
AcDbEntity
8
1
62
256
6
ByLayer
370
18
48
1
60
0
100
AcDbLine
10
19.65725
20
39.442976
30
0
11
19.65725
21
39.360823
31
0
39
0
210
0
220
0
230
1
0
LINE
5
D7
100
AcDbEntity
8
1
62
256
6
ByLayer
370
18
48
1
60
0
100
AcDbLine
10
20.325
20
38.843025
30
0
11
20.325
21
38.572353
31
0
39
0
210
0
220
0
230
1
0
LINE
5
D8
100
AcDbEntity
8
1
62
256
6
ByLayer
370
18
48
1
60
0
100
AcDbLine
10
20.325
20
1.427647
30
0
11
20.325
21
1.156975
31
0
39
0
210
0
220
0
230
1
0
LINE
5
D9
100
AcDbEntity
8
1
62
256
6
ByLayer
370
18
48
1
60
0
100
AcDbLine
10
0.343279
20
-39.805564
30
0
11
0.343279
21
-39.838948
31
0
39
0
210
0
220
0
230
1
0
LINE
5
DA
100
AcDbEntity
8
1
62
256
6
ByLayer
370
18
48
1
60
0
100
AcDbLine
10
0.343279
20
39.838948
30
0
11
0.343279
21
39.805564
31
0
39
0
210
0
220
0
230
1
0
LINE
5
DB
100
AcDbEntity
8
1
62
256
6
ByLayer
370
18
48
1
60
0
100
AcDbLine
10
-0.325
20
39.871795
30
0
11
-0.325
21
39.765492
31
0
39
0
210
0
220
0
230
1
0
LINE
5
DC
100
AcDbEntity
8
1
62
256
6
ByLayer
370
18
48
1
60
0
100
AcDbLine
10
-0.325
20
-39.765492
30
0
11
-0.325
21
-39.871795
31
0
39
0
210
0
220
0
230
1
0
LINE
5
DD
100
AcDbEntity
8
1
62
256
6
ByLayer
370
18
48
1
60
0
100
AcDbLine
10
19.65725
20
39.716694
30
0
11
19.65725
21
39.662726
31
0
39
0
210
0
220
0
230
1
0
LINE
5
DE
100
AcDbEntity
8
1
62
256
6
ByLayer
370
18
48
1
60
0
100
AcDbLine
10
19.65725
20
0.337274
30
0
11
19.65725
21
0.283306
31
0
39
0
210
0
220
0
230
1
0
LINE
5
DF
100
AcDbEntity
8
1
62
256
6
ByLayer
370
18
48
1
60
0
100
AcDbLine
10
20.325
20
39.09507
30
0
11
20.325
21
38.917457
31
0
39
0
210
0
220
0
230
1
0
LINE
5
E0
100
AcDbEntity
8
1
62
256
6
ByLayer
370
18
48
1
60
0
100
AcDbLine
10
20.325
20
1.082543
30
0
11
20.325
21
0.90493
31
0
39
0
210
0
220
0
230
1
0
LINE
5
E1
100
AcDbEntity
8
1
62
256
6
ByLayer
370
18
48
1
60
0
100
AcDbLine
10
0.343279
20
39.945579
30
0
11
0.343279
21
39.925561
31
0
39
0
210
0
220
0
230
1
0
LINE
5
E2
100
AcDbEntity
8
1
62
256
6
ByLayer
370
18
48
1
60
0
100
AcDbLine
10
0.343279
20
-39.925561
30
0
11
0.343279
21
-39.945579
31
0
39
0
210
0
220
0
230
1
0
LINE
5
E3
100
AcDbEntity
8
1
62
256
6
ByLayer
370
18
48
1
60
0
100
AcDbLine
10
-0.325
20
39.963859
30
0
11
-0.325
21
39.900117
31
0
39
0
210
0
220
0
230
1
0
LINE
5
E4
100
AcDbEntity
8
1
62
256
6
ByLayer
370
18
48
1
60
0
100
AcDbLine
10
-0.325
20
-39.900117
30
0
11
-0.325
21
-39.963859
31
0
39
0
210
0
220
0
230
1
0
LINE
5
E5
100
AcDbEntity
8
1
62
256
6
ByLayer
370
18
48
1
60
0
100
AcDbLine
10
19.65725
20
39.873769
30
0
11
19.65725
21
39.847017
31
0
39
0
210
0
220
0
230
1
0
LINE
5
E6
100
AcDbEntity
8
1
62
256
6
ByLayer
370
18
48
1
60
0
100
AcDbLine
10
19.65725
20
0.152983
30
0
11
19.65725
21
0.126231
31
0
39
0
210
0
220
0
230
1
0
LINE
5
E7
100
AcDbEntity
8
1
62
256
6
ByLayer
370
18
48
1
60
0
100
AcDbLine
10
20.325
20
39.227164
30
0
11
20.325
21
39.139176
31
0
39
0
210
0
220
0
230
1
0
LINE
5
E8
100
AcDbEntity
8
1
62
256
6
ByLayer
370
18
48
1
60
0
100
AcDbLine
10
20.325
20
0.860824
30
0
11
20.325
21
0.772836
31
0
39
0
210
0
220
0
230
1
0
LINE
5
E9
100
AcDbEntity
8
1
62
256
6
ByLayer
370
18
48
1
60
0
100
AcDbLine
10
0.343279
20
39.99571
30
0
11
0.343279
21
39.988973
31
0
39
0
210
0
220
0
230
1
0
LINE
5
EA
100
AcDbEntity
8
1
62
256
6
ByLayer
370
18
48
1
60
0
100
AcDbLine
10
0.343279
20
-39.988973
30
0
11
0.343279
21
-39.99571
31
0
39
0
210
0
220
0
230
1
0
LINE
5
EB
100
AcDbEntity
8
1
62
256
6
ByLayer
370
18
48
1
60
0
100
AcDbLine
10
-0.325
20
39.9995
30
0
11
-0.325
21
39.978049
31
0
39
0
210
0
220
0
230
1
0
LINE
5
EC
100
AcDbEntity
8
1
62
256
6
ByLayer
370
18
48
1
60
0
100
AcDbLine
10
-0.325
20
-39.978049
30
0
11
-0.325
21
-39.9995
31
0
39
0
210
0
220
0
230
1
0
LINE
5
ED
100
AcDbEntity
8
SK1
62
256
6
ByLayer
370
18
48
1
60
0
100
AcDbLine
10
30.325
20
15.100505
30
0
11
24.325
21
15.100505
31
0
39
0
210
0
220
0
230
1
0
LINE
5
EE
100
AcDbEntity
8
SK1
62
256
6
ByLayer
370
18
48
1
60
0
100
AcDbLine
10
24.325
20
5.100505
30
0
11
30.325
21
5.100505
31
0
39
0
210
0
220
0
230
1
0
LINE
5
EF
100
AcDbEntity
8
SK1
62
256
6
ByLayer
370
18
48
1
60
0
100
AcDbLine
10
24.325
20
13.100505
30
0
11
20.325
21
13.100505
31
0
39
0
210
0
220
0
230
1
0
LINE
5
F0
100
AcDbEntity
8
SK1
62
256
6
ByLayer
370
18
48
1
60
0
100
AcDbLine
10
20.325
20
7.100505
30
0
11
24.325
21
7.100505
31
0
39
0
210
0
220
0
230
1
0
LINE
5
F1
100
AcDbEntity
8
1
62
256
6
ByLayer
370
18
48
1
60
0
100
AcDbLine
10
5.67678
20
19.907463
30
0
11
5.075173
21
21.164666
31
0
39
0
210
0
220
0
230
1
0
LINE
5
F2
100
AcDbEntity
8
1
62
256
6
ByLayer
370
18
48
1
60
0
100
AcDbLine
10
7.376596
20
19.778534
30
0
11
5.67678
21
19.907463
31
0
39
0
210
0
220
0
230
1
0
LINE
5
F3
100
AcDbEntity
8
1
62
256
6
ByLayer
370
18
48
1
60
0
100
AcDbLine
10
8.474806
20
20.906808
30
0
11
7.376596
21
19.778534
31
0
39
0
210
0
220
0
230
1
0
LINE
5
F4
100
AcDbEntity
8
1
62
256
6
ByLayer
370
18
48
1
60
0
100
AcDbLine
10
7.873199
20
22.164011
30
0
11
8.474806
21
20.906808
31
0
39
0
210
0
220
0
230
1
0
LINE
5
F5
100
AcDbEntity
8
1
62
256
6
ByLayer
370
18
48
1
60
0
100
AcDbLine
10
6.173383
20
22.29294
30
0
11
7.873199
21
22.164011
31
0
39
0
210
0
220
0
230
1
0
LINE
5
F6
100
AcDbEntity
8
1
62
256
6
ByLayer
370
18
48
1
60
0
100
AcDbLine
10
5.075173
20
21.164666
30
0
11
6.173383
21
22.29294
31
0
39
0
210
0
220
0
230
1
0
LINE
5
F7
100
AcDbEntity
8
1
62
256
6
ByLayer
370
18
48
1
60
0
100
AcDbLine
10
8.133269
20
20.555921
30
0
11
7.873199
21
22.164011
31
0
39
0
210
0
220
0
230
1
0
LINE
5
F8
100
AcDbEntity
8
1
62
256
6
ByLayer
370
18
48
1
60
0
100
AcDbLine
10
6.562699
20
19.88568
30
0
11
6.173383
21
22.29294
31
0
39
0
210
0
220
0
230
1
0
LINE
5
F9
100
AcDbEntity
8
1
62
256
6
ByLayer
370
18
48
1
60
0
100
AcDbLine
10
6.521536
20
19.843389
30
0
11
6.562699
21
19.88568
31
0
39
0
210
0
220
0
230
1
0
LINE
5
FA
100
AcDbEntity
8
1
62
256
6
ByLayer
370
18
48
1
60
0
100
AcDbLine
10
6.562699
20
19.88568
30
0
11
7.41776
21
19.820824
31
0
39
0
210
0
220
0
230
1
0
LINE
5
FB
100
AcDbEntity
8
SK1
62
256
6
ByLayer
370
18
48
1
60
0
100
AcDbLine
10
-13.2
20
5
30
0
11
-13.7
21
4.5
31
0
39
0
210
0
220
0
230
1
0
LINE
5
FC
100
AcDbEntity
8
SK1
62
256
6
ByLayer
370
18
48
1
60
0
100
AcDbLine
10
-13.7
20
-4.5
30
0
11
-13.2
21
-5
31
0
39
0
210
0
220
0
230
1
0
LINE
5
FD
100
AcDbEntity
8
SK1
62
256
6
ByLayer
370
18
48
1
60
0
100
AcDbLine
10
-0.87566
20
5
30
0
11
-13.2
21
5
31
0
39
0
210
0
220
0
230
1
0
LINE
5
FE
100
AcDbEntity
8
SK1
62
256
6
ByLayer
370
18
48
1
60
0
100
AcDbLine
10
-13.2
20
-5
30
0
11
-0.87566
21
-5
31
0
39
0
210
0
220
0
230
1
0
LINE
5
FF
100
AcDbEntity
8
SK1
62
256
6
ByLayer
370
18
48
1
60
0
100
AcDbLine
10
30.325
20
34.899495
30
0
11
30.325
21
29.899495
31
0
39
0
210
0
220
0
230
1
0
LINE
5
100
100
AcDbEntity
8
SK1
62
256
6
ByLayer
370
18
48
1
60
0
100
AcDbLine
10
24.325
20
34.899495
30
0
11
24.325
21
29.899495
31
0
39
0
210
0
220
0
230
1
0
LINE
5
101
100
AcDbEntity
8
SK1
62
256
6
ByLayer
370
18
48
1
60
0
100
AcDbLine
10
30.325
20
29.899495
30
0
11
30.325
21
24.899495
31
0
39
0
210
0
220
0
230
1
0
LINE
5
102
100
AcDbEntity
8
SK1
62
256
6
ByLayer
370
18
48
1
60
0
100
AcDbLine
10
24.325
20
29.899495
30
0
11
24.325
21
24.899495
31
0
39
0
210
0
220
0
230
1
0
LINE
5
103
100
AcDbEntity
8
1
62
256
6
ByLayer
370
18
48
1
60
0
100
AcDbLine
10
-0.325
20
40
30
0
11
-0.325
21
39.9995
31
0
39
0
210
0
220
0
230
1
0
LINE
5
104
100
AcDbEntity
8
1
62
256
6
ByLayer
370
18
48
1
60
0
100
AcDbLine
10
1
20
-34.641016
30
0
11
1
21
-36.660606
31
0
39
0
210
0
220
0
230
1
0
LINE
5
105
100
AcDbEntity
8
1
62
256
6
ByLayer
370
18
48
1
60
0
100
AcDbLine
10
1
20
36.660606
30
0
11
1
21
34.641016
31
0
39
0
210
0
220
0
230
1
0
LINE
5
106
100
AcDbEntity
8
1
62
256
6
ByLayer
370
18
48
1
60
0
100
AcDbLine
10
-0.325
20
37.715307
30
0
11
-0.325
21
37.580713
31
0
39
0
210
0
220
0
230
1
0
LINE
5
107
100
AcDbEntity
8
1
62
256
6
ByLayer
370
18
48
1
60
0
100
AcDbLine
10
-0.325
20
38.212163
30
0
11
-0.325
21
38.094094
31
0
39
0
210
0
220
0
230
1
0
LINE
5
108
100
AcDbEntity
8
1
62
256
6
ByLayer
370
18
48
1
60
0
100
AcDbLine
10
-0.325
20
38.644461
30
0
11
-0.325
21
38.542314
31
0
39
0
210
0
220
0
230
1
0
LINE
5
109
100
AcDbEntity
8
1
62
256
6
ByLayer
370
18
48
1
60
0
100
AcDbLine
10
-0.325
20
39.014348
30
0
11
-0.325
21
38.927625
31
0
39
0
210
0
220
0
230
1
0
LINE
5
10A
100
AcDbEntity
8
1
62
256
6
ByLayer
370
18
48
1
60
0
100
AcDbLine
10
-0.325
20
39.323585
30
0
11
-0.325
21
39.251879
31
0
39
0
210
0
220
0
230
1
0
LINE
5
10B
100
AcDbEntity
8
1
62
256
6
ByLayer
370
18
48
1
60
0
100
AcDbLine
10
-0.325
20
39.573594
30
0
11
-0.325
21
39.516579
31
0
39
0
210
0
220
0
230
1
0
LINE
5
10C
100
AcDbEntity
8
1
62
256
6
ByLayer
370
18
48
1
60
0
100
AcDbLine
10
-0.325
20
39.765492
30
0
11
-0.325
21
39.722915
31
0
39
0
210
0
220
0
230
1
0
LINE
5
10D
100
AcDbEntity
8
1
62
256
6
ByLayer
370
18
48
1
60
0
100
AcDbLine
10
-0.325
20
39.900117
30
0
11
-0.325
21
39.871795
31
0
39
0
210
0
220
0
230
1
0
LINE
5
10E
100
AcDbEntity
8
1
62
256
6
ByLayer
370
18
48
1
60
0
100
AcDbLine
10
-0.325
20
39.978049
30
0
11
-0.325
21
39.963859
31
0
39
0
210
0
220
0
230
1
0
LINE
5
10F
100
AcDbEntity
8
1
62
256
6
ByLayer
370
18
48
1
60
0
100
AcDbLine
10
-0.325
20
-39.9995
30
0
11
-0.325
21
-40
31
0
39
0
210
0
220
0
230
1
0
LINE
5
110
100
AcDbEntity
8
1
62
256
6
ByLayer
370
18
48
1
60
0
100
AcDbLine
10
-0.325
20
-39.963859
30
0
11
-0.325
21
-39.978049
31
0
39
0
210
0
220
0
230
1
0
LINE
5
111
100
AcDbEntity
8
1
62
256
6
ByLayer
370
18
48
1
60
0
100
AcDbLine
10
-0.325
20
-39.871795
30
0
11
-0.325
21
-39.900117
31
0
39
0
210
0
220
0
230
1
0
LINE
5
112
100
AcDbEntity
8
1
62
256
6
ByLayer
370
18
48
1
60
0
100
AcDbLine
10
-0.325
20
-39.722915
30
0
11
-0.325
21
-39.765492
31
0
39
0
210
0
220
0
230
1
0
LINE
5
113
100
AcDbEntity
8
1
62
256
6
ByLayer
370
18
48
1
60
0
100
AcDbLine
10
-0.325
20
-39.516579
30
0
11
-0.325
21
-39.573594
31
0
39
0
210
0
220
0
230
1
0
LINE
5
114
100
AcDbEntity
8
1
62
256
6
ByLayer
370
18
48
1
60
0
100
AcDbLine
10
-0.325
20
-39.251879
30
0
11
-0.325
21
-39.323585
31
0
39
0
210
0
220
0
230
1
0
LINE
5
115
100
AcDbEntity
8
1
62
256
6
ByLayer
370
18
48
1
60
0
100
AcDbLine
10
-0.325
20
-38.927625
30
0
11
-0.325
21
-39.014348
31
0
39
0
210
0
220
0
230
1
0
LINE
5
116
100
AcDbEntity
8
1
62
256
6
ByLayer
370
18
48
1
60
0
100
AcDbLine
10
-0.325
20
-38.542314
30
0
11
-0.325
21
-38.644461
31
0
39
0
210
0
220
0
230
1
0
LINE
5
117
100
AcDbEntity
8
1
62
256
6
ByLayer
370
18
48
1
60
0
100
AcDbLine
10
-0.325
20
-38.094094
30
0
11
-0.325
21
-38.212163
31
0
39
0
210
0
220
0
230
1
0
LINE
5
118
100
AcDbEntity
8
1
62
256
6
ByLayer
370
18
48
1
60
0
100
AcDbLine
10
-0.325
20
-37.580713
30
0
11
-0.325
21
-37.715307
31
0
39
0
210
0
220
0
230
1
0
LINE
5
119
100
AcDbEntity
8
1
62
256
6
ByLayer
370
18
48
1
60
0
100
AcDbLine
10
16.325
20
38.975
30
0
11
16.325
21
-40
31
0
39
0
210
0
220
0
230
1
0
LINE
5
11A
100
AcDbEntity
8
1
62
256
6
ByLayer
370
18
48
1
60
0
100
AcDbLine
10
17.325
20
0
30
0
11
17.325
21
40
31
0
39
0
210
0
220
0
230
1
0
LINE
5
11B
100
AcDbEntity
8
1
62
256
6
ByLayer
370
18
48
1
60
0
100
AcDbLine
10
19.575
20
15.962395
30
0
11
19.575
21
24.037605
31
0
39
0
210
0
220
0
230
1
0
LINE
5
11C
100
AcDbEntity
8
1
62
256
6
ByLayer
370
18
48
1
60
0
100
AcDbLine
10
19.575
20
39.950109
30
0
11
19.575
21
39.999805
31
0
39
0
210
0
220
0
230
1
0
LINE
5
11D
100
AcDbEntity
8
1
62
256
6
ByLayer
370
18
48
1
60
0
100
AcDbLine
10
19.575
20
39.786901
30
0
11
19.575
21
39.93684
31
0
39
0
210
0
220
0
230
1
0
LINE
5
11E
100
AcDbEntity
8
1
62
256
6
ByLayer
370
18
48
1
60
0
100
AcDbLine
10
19.575
20
39.507333
30
0
11
19.575
21
39.760136
31
0
39
0
210
0
220
0
230
1
0
LINE
5
11F
100
AcDbEntity
8
1
62
256
6
ByLayer
370
18
48
1
60
0
100
AcDbLine
10
19.575
20
39.106299
30
0
11
19.575
21
39.466597
31
0
39
0
210
0
220
0
230
1
0
LINE
5
120
100
AcDbEntity
8
1
62
256
6
ByLayer
370
18
48
1
60
0
100
AcDbLine
10
19.575
20
38.575933
30
0
11
19.575
21
39.050821
31
0
39
0
210
0
220
0
230
1
0
LINE
5
121
100
AcDbEntity
8
1
62
256
6
ByLayer
370
18
48
1
60
0
100
AcDbLine
10
19.575
20
37.904745
30
0
11
19.575
21
38.504571
31
0
39
0
210
0
220
0
230
1
0
LINE
5
122
100
AcDbEntity
8
1
62
256
6
ByLayer
370
18
48
1
60
0
100
AcDbLine
10
19.575
20
37.076139
30
0
11
19.575
21
37.815851
31
0
39
0
210
0
220
0
230
1
0
LINE
5
123
100
AcDbEntity
8
1
62
256
6
ByLayer
370
18
48
1
60
0
100
AcDbLine
10
19.575
20
36.065775
30
0
11
19.575
21
36.967319
31
0
39
0
210
0
220
0
230
1
0
LINE
5
124
100
AcDbEntity
8
1
62
256
6
ByLayer
370
18
48
1
60
0
100
AcDbLine
10
19.575
20
34.836568
30
0
11
19.575
21
35.933465
31
0
39
0
210
0
220
0
230
1
0
LINE
5
125
100
AcDbEntity
8
1
62
256
6
ByLayer
370
18
48
1
60
0
100
AcDbLine
10
19.575
20
33.328104
30
0
11
19.575
21
34.675173
31
0
39
0
210
0
220
0
230
1
0
LINE
5
126
100
AcDbEntity
8
1
62
256
6
ByLayer
370
18
48
1
60
0
100
AcDbLine
10
19.575
20
31.430353
30
0
11
19.575
21
33.128065
31
0
39
0
210
0
220
0
230
1
0
LINE
5
127
100
AcDbEntity
8
1
62
256
6
ByLayer
370
18
48
1
60
0
100
AcDbLine
10
19.575
20
28.897616
30
0
11
19.575
21
31.172801
31
0
39
0
210
0
220
0
230
1
0
LINE
5
128
100
AcDbEntity
8
1
62
256
6
ByLayer
370
18
48
1
60
0
100
AcDbLine
10
19.575
20
24.814788
30
0
11
19.575
21
28.53328
31
0
39
0
210
0
220
0
230
1
0
LINE
5
129
100
AcDbEntity
8
1
62
256
6
ByLayer
370
18
48
1
60
0
100
AcDbLine
10
19.575
20
11.46672
30
0
11
19.575
21
15.185212
31
0
39
0
210
0
220
0
230
1
0
LINE
5
12A
100
AcDbEntity
8
1
62
256
6
ByLayer
370
18
48
1
60
0
100
AcDbLine
10
19.575
20
8.827199
30
0
11
19.575
21
11.102384
31
0
39
0
210
0
220
0
230
1
0
LINE
5
12B
100
AcDbEntity
8
1
62
256
6
ByLayer
370
18
48
1
60
0
100
AcDbLine
10
19.575
20
6.871935
30
0
11
19.575
21
8.569647
31
0
39
0
210
0
220
0
230
1
0
LINE
5
12C
100
AcDbEntity
8
1
62
256
6
ByLayer
370
18
48
1
60
0
100
AcDbLine
10
19.575
20
5.324827
30
0
11
19.575
21
6.671896
31
0
39
0
210
0
220
0
230
1
0
LINE
5
12D
100
AcDbEntity
8
1
62
256
6
ByLayer
370
18
48
1
60
0
100
AcDbLine
10
19.575
20
4.066535
30
0
11
19.575
21
5.163432
31
0
39
0
210
0
220
0
230
1
0
LINE
5
12E
100
AcDbEntity
8
1
62
256
6
ByLayer
370
18
48
1
60
0
100
AcDbLine
10
19.575
20
3.032681
30
0
11
19.575
21
3.934225
31
0
39
0
210
0
220
0
230
1
0
LINE
5
12F
100
AcDbEntity
8
1
62
256
6
ByLayer
370
18
48
1
60
0
100
AcDbLine
10
19.575
20
2.184149
30
0
11
19.575
21
2.923861
31
0
39
0
210
0
220
0
230
1
0
LINE
5
130
100
AcDbEntity
8
1
62
256
6
ByLayer
370
18
48
1
60
0
100
AcDbLine
10
19.575
20
1.495429
30
0
11
19.575
21
2.095255
31
0
39
0
210
0
220
0
230
1
0
LINE
5
131
100
AcDbEntity
8
1
62
256
6
ByLayer
370
18
48
1
60
0
100
AcDbLine
10
19.575
20
0.949179
30
0
11
19.575
21
1.424067
31
0
39
0
210
0
220
0
230
1
0
LINE
5
132
100
AcDbEntity
8
1
62
256
6
ByLayer
370
18
48
1
60
0
100
AcDbLine
10
19.575
20
0.533403
30
0
11
19.575
21
0.893701
31
0
39
0
210
0
220
0
230
1
0
LINE
5
133
100
AcDbEntity
8
1
62
256
6
ByLayer
370
18
48
1
60
0
100
AcDbLine
10
19.575
20
0.239864
30
0
11
19.575
21
0.492667
31
0
39
0
210
0
220
0
230
1
0
LINE
5
134
100
AcDbEntity
8
1
62
256
6
ByLayer
370
18
48
1
60
0
100
AcDbLine
10
19.575
20
0.06316
30
0
11
19.575
21
0.213099
31
0
39
0
210
0
220
0
230
1
0
LINE
5
135
100
AcDbEntity
8
1
62
256
6
ByLayer
370
18
48
1
60
0
100
AcDbLine
10
19.575
20
0.000195
30
0
11
19.575
21
0.049891
31
0
39
0
210
0
220
0
230
1
0
LINE
5
136
100
AcDbEntity
8
1
62
256
6
ByLayer
370
18
48
1
60
0
100
AcDbLine
10
20.325
20
14.901829
30
0
11
20.325
21
16.544796
31
0
39
0
210
0
220
0
230
1
0
LINE
5
137
100
AcDbEntity
8
1
62
256
6
ByLayer
370
18
48
1
60
0
100
AcDbLine
10
20.325
20
23.455204
30
0
11
20.325
21
25.098171
31
0
39
0
210
0
220
0
230
1
0
LINE
5
138
100
AcDbEntity
8
1
62
256
6
ByLayer
370
18
48
1
60
0
100
AcDbLine
10
20.325
20
11.087692
30
0
11
20.325
21
11.845213
31
0
39
0
210
0
220
0
230
1
0
LINE
5
139
100
AcDbEntity
8
1
62
256
6
ByLayer
370
18
48
1
60
0
100
AcDbLine
10
20.325
20
28.154787
30
0
11
20.325
21
28.912308
31
0
39
0
210
0
220
0
230
1
0
LINE
5
13A
100
AcDbEntity
8
1
62
256
6
ByLayer
370
18
48
1
60
0
100
AcDbLine
10
20.325
20
8.670079
30
0
11
20.325
21
9.203581
31
0
39
0
210
0
220
0
230
1
0
LINE
5
13B
100
AcDbEntity
8
1
62
256
6
ByLayer
370
18
48
1
60
0
100
AcDbLine
10
20.325
20
30.796419
30
0
11
20.325
21
31.329921
31
0
39
0
210
0
220
0
230
1
0
LINE
5
13C
100
AcDbEntity
8
1
62
256
6
ByLayer
370
18
48
1
60
0
100
AcDbLine
10
20.325
20
32.732823
30
0
11
20.325
21
33.145531
31
0
39
0
210
0
220
0
230
1
0
LINE
5
13D
100
AcDbEntity
8
1
62
256
6
ByLayer
370
18
48
1
60
0
100
AcDbLine
10
20.325
20
6.854469
30
0
11
20.325
21
7.267177
31
0
39
0
210
0
220
0
230
1
0
LINE
5
13E
100
AcDbEntity
8
1
62
256
6
ByLayer
370
18
48
1
60
0
100
AcDbLine
10
20.325
20
34.254364
30
0
11
20.325
21
34.585708
31
0
39
0
210
0
220
0
230
1
0
LINE
5
13F
100
AcDbEntity
8
1
62
256
6
ByLayer
370
18
48
1
60
0
100
AcDbLine
10
20.325
20
5.414292
30
0
11
20.325
21
5.745636
31
0
39
0
210
0
220
0
230
1
0
LINE
5
140
100
AcDbEntity
8
1
62
256
6
ByLayer
370
18
48
1
60
0
100
AcDbLine
10
20.325
20
35.483831
30
0
11
20.325
21
35.753754
31
0
39
0
210
0
220
0
230
1
0
LINE
5
141
100
AcDbEntity
8
1
62
256
6
ByLayer
370
18
48
1
60
0
100
AcDbLine
10
20.325
20
4.246246
30
0
11
20.325
21
4.516169
31
0
39
0
210
0
220
0
230
1
0
LINE
5
142
100
AcDbEntity
8
1
62
256
6
ByLayer
370
18
48
1
60
0
100
AcDbLine
10
20.325
20
36.486696
30
0
11
20.325
21
36.706844
31
0
39
0
210
0
220
0
230
1
0
LINE
5
143
100
AcDbEntity
8
1
62
256
6
ByLayer
370
18
48
1
60
0
100
AcDbLine
10
20.325
20
3.293156
30
0
11
20.325
21
3.513304
31
0
39
0
210
0
220
0
230
1
0
LINE
5
144
100
AcDbEntity
8
1
62
256
6
ByLayer
370
18
48
1
60
0
100
AcDbLine
10
20.325
20
37.302406
30
0
11
20.325
21
37.480175
31
0
39
0
210
0
220
0
230
1
0
LINE
5
145
100
AcDbEntity
8
1
62
256
6
ByLayer
370
18
48
1
60
0
100
AcDbLine
10
20.325
20
2.519825
30
0
11
20.325
21
2.697594
31
0
39
0
210
0
220
0
230
1
0
LINE
5
146
100
AcDbEntity
8
1
62
256
6
ByLayer
370
18
48
1
60
0
100
AcDbLine
10
20.325
20
37.956485
30
0
11
20.325
21
38.096807
31
0
39
0
210
0
220
0
230
1
0
LINE
5
147
100
AcDbEntity
8
1
62
256
6
ByLayer
370
18
48
1
60
0
100
AcDbLine
10
20.325
20
1.903193
30
0
11
20.325
21
2.043515
31
0
39
0
210
0
220
0
230
1
0
LINE
5
148
100
AcDbEntity
8
1
62
256
6
ByLayer
370
18
48
1
60
0
100
AcDbLine
10
20.325
20
38.466117
30
0
11
20.325
21
38.572353
31
0
39
0
210
0
220
0
230
1
0
LINE
5
149
100
AcDbEntity
8
1
62
256
6
ByLayer
370
18
48
1
60
0
100
AcDbLine
10
20.325
20
1.427647
30
0
11
20.325
21
1.533883
31
0
39
0
210
0
220
0
230
1
0
LINE
5
14A
100
AcDbEntity
8
1
62
256
6
ByLayer
370
18
48
1
60
0
100
AcDbLine
10
20.325
20
38.843025
30
0
11
20.325
21
38.917457
31
0
39
0
210
0
220
0
230
1
0
LINE
5
14B
100
AcDbEntity
8
1
62
256
6
ByLayer
370
18
48
1
60
0
100
AcDbLine
10
20.325
20
1.082543
30
0
11
20.325
21
1.156975
31
0
39
0
210
0
220
0
230
1
0
LINE
5
14C
100
AcDbEntity
8
1
62
256
6
ByLayer
370
18
48
1
60
0
100
AcDbLine
10
20.325
20
39.09507
30
0
11
20.325
21
39.139176
31
0
39
0
210
0
220
0
230
1
0
LINE
5
14D
100
AcDbEntity
8
1
62
256
6
ByLayer
370
18
48
1
60
0
100
AcDbLine
10
20.325
20
0.860824
30
0
11
20.325
21
0.90493
31
0
39
0
210
0
220
0
230
1
0
LINE
5
14E
100
AcDbEntity
8
1
62
256
6
ByLayer
370
18
48
1
60
0
100
AcDbLine
10
20.325
20
39.227164
30
0
11
20.325
21
39.241776
31
0
39
0
210
0
220
0
230
1
0
LINE
5
14F
100
AcDbEntity
8
1
62
256
6
ByLayer
370
18
48
1
60
0
100
AcDbLine
10
20.325
20
0.758224
30
0
11
20.325
21
0.772836
31
0
39
0
210
0
220
0
230
1
0
LINE
5
150
100
AcDbEntity
8
SK1
62
256
6
ByLayer
370
18
48
1
60
0
100
AcDbLine
10
30.325
20
15.100505
30
0
11
30.325
21
5.100505
31
0
39
0
210
0
220
0
230
1
0
LINE
5
151
100
AcDbEntity
8
SK1
62
256
6
ByLayer
370
18
48
1
60
0
100
AcDbLine
10
24.325
20
15.100505
30
0
11
24.325
21
5.100505
31
0
39
0
210
0
220
0
230
1
0
LINE
5
152
100
AcDbEntity
8
SK1
62
256
6
ByLayer
370
18
48
1
60
0
100
AcDbLine
10
-13.2
20
5
30
0
11
-13.2
21
-5
31
0
39
0
210
0
220
0
230
1
0
LINE
5
153
100
AcDbEntity
8
SK1
62
256
6
ByLayer
370
18
48
1
60
0
100
AcDbLine
10
-13.7
20
-4.5
30
0
11
-13.7
21
4.5
31
0
39
0
210
0
220
0
230
1
0
MTEXT
5
26B
100
AcDbEntity
8
SK6
62
256
6
ByLayer
370
13
48
1
60
0
100
AcDbMText
10
30.969733
20
53.537236
30
0
210
0
220
0
230
1
1
\W0.7324;570-80 20 20-40R
40
3.5
41
0
44
1.084337
50
0
71
7
72
5
7
iso_b_vert
0
DIMENSION
5
279
100
AcDbEntity
8
2
62
256
6
ByLayer
370
13
48
1
60
0
100
AcDbDimension
2
DimnDraft3D1
10
20
20
58.666811
30
0
11
8.103355
21
58.666811
31
0
70
32
71
5
72
1
41
1
210
0
220
0
230
1
3
Standard
100
AcDbAlignedDimension
13
0
23
1.5875
33
0
14
20
24
21.5875
34
0
50
0
100
AcDbRotatedDimension
1001
ACAD
1000
DSTYLE
1002
{
1070
   279
1070
     0
1070
   173
1070
     1
1070
   340
1005
26C
1070
   271
1070
     1
1070
   272
1070
     2
1070
    77
1070
     1
1070
    73
1070
     0
1070
   171
1070
     3
1070
   274
1070
     4
1070
   177
1070
     7
1070
   176
1070
     7
1070
   178
1070
     7
1070
    78
1070
     8
1070
    48
1040
-0.005
1070
    41
1041
3.175
1070
   147
1041
1.5875
1070
    42
1041
1.5875
1070
    44
1041
3.175
1070
   140
1041
3.175
1070
   343
1005
0
1070
   344
1005
0
1002
}
0
DIMENSION
5
28E
100
AcDbEntity
8
SK2
62
256
6
ByLayer
370
13
48
1
60
0
100
AcDbDimension
2
DimnDraft3D3
10
40.989923
20
20
30
0
11
40.989923
21
8.103569
31
0
70
32
71
5
72
1
41
1
210
0
220
0
230
1
3
Standard
100
AcDbAlignedDimension
13
26.940444
23
0.000427
33
0
14
21.5875
24
20
34
0
50
90
100
AcDbRotatedDimension
1001
ACAD
1000
DSTYLE
1002
{
1070
    74
1070
     0
1070
   279
1070
     0
1070
   173
1070
     1
1070
   340
1005
26C
1070
   271
1070
     1
1070
   272
1070
     2
1070
    77
1070
     1
1070
    73
1070
     0
1070
   171
1070
     3
1070
   274
1070
     4
1070
   177
1070
     7
1070
   176
1070
     7
1070
   178
1070
     7
1070
    78
1070
     8
1070
    48
1040
-0.005
1070
    41
1041
3.175
1070
   147
1041
1.5875
1070
    42
1041
1.5875
1070
    44
1041
3.175
1070
   140
1041
3.175
1070
   343
1005
0
1070
   344
1005
0
1002
}
0
DIMENSION
5
299
100
AcDbEntity
8
SK2
62
256
6
ByLayer
370
13
48
1
60
0
100
AcDbDimension
2
DimnDraft3D4
10
-35.829298
20
-40
30
0
11
-35.035548
21
2.46898
31
0
70
33
71
5
72
1
41
1
210
0
220
0
230
1
3
Standard
100
AcDbAlignedDimension
13
-1.9125
23
40
33
0
14
-1.9125
24
-40
34
0
1001
ACAD
1000
DSTYLE
1002
{
1070
   279
1070
     0
1070
    74
1070
     0
1070
   173
1070
     1
1070
   340
1005
26C
1070
   271
1070
     1
1070
   272
1070
     2
1070
    77
1070
     1
1070
    73
1070
     0
1070
   171
1070
     3
1070
   274
1070
     4
1070
   177
1070
     7
1070
   176
1070
     7
1070
   178
1070
     7
1070
    78
1070
     8
1070
    48
1040
-0.005
1070
    41
1041
3.175
1070
   147
1041
1.5875
1070
    42
1041
1.5875
1070
    44
1041
3.175
1070
   140
1041
3.175
1070
   343
1005
0
1070
   344
1005
0
1002
}
0
DIMENSION
5
2A4
100
AcDbEntity
8
SK2
62
256
6
ByLayer
370
13
48
1
60
0
100
AcDbDimension
2
DimnDraft3D5
10
62.075171
20
0
30
0
11
56.518921
21
22.547984
31
0
70
33
71
5
72
1
41
1
210
0
220
0
230
1
3
Standard
100
AcDbAlignedDimension
13
21.145038
23
40
33
0
14
21.145038
24
0
34
0
1001
ACAD
1000
DSTYLE
1002
{
1070
   279
1070
     0
1070
    74
1070
     0
1070
   173
1070
     1
1070
   340
1005
26C
1070
   271
1070
     1
1070
   272
1070
     2
1070
    77
1070
     1
1070
    73
1070
     0
1070
   171
1070
     3
1070
   274
1070
     4
1070
   177
1070
     7
1070
   176
1070
     7
1070
   178
1070
     7
1070
    78
1070
     8
1070
    48
1040
-0.005
1070
    41
1041
3.175
1070
   147
1041
1.5875
1070
    42
1041
1.5875
1070
    44
1041
3.175
1070
   140
1041
3.175
1070
   343
1005
0
1070
   344
1005
0
1002
}
0
ENDSEC
0
SECTION
2
OBJECTS
0
DICTIONARY
5
30f
330
0
100
AcDbDictionary
280
0
281
1
3
ACAD_GROUP
350
310
3
ACAD_MLINESTYLE
350
311
0
DICTIONARY
5
310
330
0
100
AcDbDictionary
280
0
281
1
0
DICTIONARY
5
311
330
0
100
AcDbDictionary
280
0
281
1
3
Standard
350
18
0
MLINESTYLE
5
18
330
311
100
AcDbMlineStyle
2
Standard
70
0
3

62
256
51
90
52
90
71
2
49
-0.5
62
256
6
ByLayer
49
0.5
62
256
6
ByLayer
0
RASTERVARIABLES
5
2fd
330

100
AcDbRasterVariables
90
0
70
1
71
1
72
1
0
ENDSEC
0
EOF
