0
SECTION
2
HEADER
9
$ACADVER
1
AC1015
9
$DWGCODEPAGE
3
ANSI_1252
9
$HANDSEED
5
344
9
$ANGBASE
50
0
9
$ANGDIR
70
0
9
$ATTMODE
70
1
9
$AUNITS
70
0
9
$AUPREC
70
0
9
$CECOLOR
62
256
9
$CELTSCALE
40
1
9
$CELTYPE
6
ByLayer
9
$CELWEIGHT
370
18
9
$CLAYER
8
0
9
$CMLJUST
70
0
9
$CMLSCALE
40
1
9
$CMLSTYLE
2
Standard
9
$DIMSTYLE
2
Standard
9
$TEXTSIZE
40
0.2
9
$TEXTSTYLE
7
Standard
9
$LUNITS
70
2
9
$LUPREC
70
4
9
$EXTNAMES
290
1
9
$INSUNITS
70
4
9
$LTSCALE
40
1
9
$LWDISPLAY
290
1
9
$PDMODE
70
0
9
$PDSIZE
40
0
9
$PLINEGEN
70
0
0
ENDSEC
0
SECTION
2
CLASSES
0
CLASS
1
RASTERVARIABLES
2
AcDbRasterVariables
3
ISM
90
0
280
0
281
0
0
ENDSEC
0
SECTION
2
TABLES
0
TABLE
2
VPORT
5
33a
100
AcDbSymbolTable
0
VPORT
5
1
100
AcDbSymbolTableRecord
100
AcDbViewportTableRecord
2
*Active
70
0
10
0
20
0
11
1
21
1
12
-1
22
1
13
0
23
0
14
0.5
24
0.5
15
10
25
10
16
0
26
0
36
1
17
0
27
0
37
0
0
ENDTAB
0
TABLE
2
LTYPE
5
33b
100
AcDbSymbolTable
0
LTYPE
5
14
100
AcDbSymbolTableRecord
100
AcDbLinetypeTableRecord
70
0
2
ByBlock
3

72
65
73
0
40
0
0
LTYPE
5
15
100
AcDbSymbolTableRecord
100
AcDbLinetypeTableRecord
70
0
2
ByLayer
3

72
65
73
0
40
0
0
LTYPE
5
16
100
AcDbSymbolTableRecord
100
AcDbLinetypeTableRecord
70
0
2
CONTINUOUS
3
Solid line
72
65
73
0
40
0
0
LTYPE
5
6A
100
AcDbSymbolTableRecord
100
AcDbLinetypeTableRecord
70
0
2
CENTER
3
____ _ ____ _ ____ _ ____
72
65
73
4
40
47.5
49
22
74
0
49
-8.5
74
0
49
8.5
74
0
49
-8.5
74
0
0
LTYPE
5
6B
100
AcDbSymbolTableRecord
100
AcDbLinetypeTableRecord
70
0
2
DASHED
3
__ __ __ __ __ __ __ __ __
72
65
73
2
40
25.72
49
12.86
74
0
49
-12.86
74
0
0
ENDTAB
0
TABLE
2
LAYER
5
33c
100
AcDbSymbolTable
0
LAYER
5
10
100
AcDbSymbolTableRecord
100
AcDbLayerTableRecord
2
0
70
0
62
7
6
CONTINUOUS
290
1
370
-3
390
0
0
LAYER
5
6D
100
AcDbSymbolTableRecord
100
AcDbLayerTableRecord
2
80
70
0
62
-6
6
CONTINUOUS
290
1
370
-3
390
0
0
LAYER
5
6F
100
AcDbSymbolTableRecord
100
AcDbLayerTableRecord
2
81
70
0
62
-3
6
CONTINUOUS
290
1
370
-3
390
0
0
LAYER
5
72
100
AcDbSymbolTableRecord
100
AcDbLayerTableRecord
2
4
70
0
62
-2
6
CENTER
290
1
370
-3
390
0
0
LAYER
5
77
100
AcDbSymbolTableRecord
100
AcDbLayerTableRecord
2
1
70
0
62
4
6
CONTINUOUS
290
1
370
-3
390
0
0
LAYER
5
28F
100
AcDbSymbolTableRecord
100
AcDbLayerTableRecord
2
2
70
0
62
7
6
CONTINUOUS
290
1
370
-3
390
0
0
LAYER
5
326
100
AcDbSymbolTableRecord
100
AcDbLayerTableRecord
2
SK4
70
0
62
2
6
CENTER
290
1
370
-3
390
0
0
LAYER
5
327
100
AcDbSymbolTableRecord
100
AcDbLayerTableRecord
2
SK1
70
0
62
4
6
CONTINUOUS
290
1
370
-3
390
0
0
LAYER
5
328
100
AcDbSymbolTableRecord
100
AcDbLayerTableRecord
2
SK6
70
0
62
5
6
CONTINUOUS
290
1
370
-3
390
0
0
LAYER
5
329
100
AcDbSymbolTableRecord
100
AcDbLayerTableRecord
2
SK2
70
0
62
7
6
CONTINUOUS
290
1
370
-3
390
0
0
ENDTAB
0
TABLE
2
STYLE
5
33d
100
AcDbSymbolTable
0
STYLE
5
11
100
AcDbSymbolTableRecord
100
AcDbTextStyleTableRecord
2
Standard
3
txt
70
0
71
0
40
0
41
1
42
0
50
0
0
STYLE
5
28A
100
AcDbSymbolTableRecord
100
AcDbTextStyleTableRecord
2
iso_b_vert
3
simplex.shx
70
0
71
0
40
0
41
1
42
0
50
0
0
STYLE
5
28B
100
AcDbSymbolTableRecord
100
AcDbTextStyleTableRecord
2
DWGDirectTextStyle
3
simplex
70
0
71
0
40
0
41
1
42
0
50
0
0
ENDTAB
0
TABLE
2
DIMSTYLE
5
33e
100
AcDbSymbolTable
100
AcDbDimStyleTable
0
DIMSTYLE
105
27
100
AcDbSymbolTableRecord
100
AcDbDimStyleTableRecord
2
Standard
70
0
3
<>
41
0.18
42
0.0625
44
0.18
140
0.18
147
0.09
73
0
74
0
77
1
271
2
275
0
278
52
280
0
340
11
0
ENDTAB
0
TABLE
2
VIEW
5
33f
100
AcDbSymbolTable
0
ENDTAB
0
TABLE
2
UCS
5
340
100
AcDbSymbolTable
0
ENDTAB
0
TABLE
2
APPID
5
341
100
AcDbSymbolTable
0
APPID
5
12
100
AcDbSymbolTableRecord
100
AcDbRegAppTableRecord
2
ACAD
70
0
0
ENDTAB
0
TABLE
2
BLOCK_RECORD
5
342
100
AcDbSymbolTable
0
BLOCK_RECORD
5
1F
100
AcDbSymbolTableRecord
100
AcDbBlockTableRecord
2
*Model_Space
340
0
70
0
0
BLOCK_RECORD
5
1B
100
AcDbSymbolTableRecord
100
AcDbBlockTableRecord
2
*Paper_Space
340
0
70
0
0
BLOCK_RECORD
5
23
100
AcDbSymbolTableRecord
100
AcDbBlockTableRecord
2
*Paper_Space0
340
0
70
0
0
BLOCK_RECORD
5
28D
100
AcDbSymbolTableRecord
100
AcDbBlockTableRecord
2
DimnDraft3D1
340
0
70
0
0
BLOCK_RECORD
5
298
100
AcDbSymbolTableRecord
100
AcDbBlockTableRecord
2
DimnDraft3D2
340
0
70
0
0
BLOCK_RECORD
5
2A4
100
AcDbSymbolTableRecord
100
AcDbBlockTableRecord
2
DimnDraft3D3
340
0
70
0
0
BLOCK_RECORD
5
2AF
100
AcDbSymbolTableRecord
100
AcDbBlockTableRecord
2
DimnDraft3D4
340
0
70
0
0
BLOCK_RECORD
5
2B9
100
AcDbSymbolTableRecord
100
AcDbBlockTableRecord
2
DimnDraft3D5
340
0
70
0
0
BLOCK_RECORD
5
2C3
100
AcDbSymbolTableRecord
100
AcDbBlockTableRecord
2
DimnDraft3D66
340
0
70
0
0
ENDTAB
0
ENDSEC
0
SECTION
2
BLOCKS
0
BLOCK
5
20
100
AcDbEntity
8
0
100
AcDbBlockBegin
2
*Model_Space
70
0
10
0
20
0
30
0
3
*Model_Space
0
ENDBLK
5
21
100
AcDbEntity
8
0
100
AcDbBlockEnd
0
BLOCK
5
1C
100
AcDbEntity
8
0
100
AcDbBlockBegin
2
*Paper_Space
70
0
10
0
20
0
30
0
3
*Paper_Space
0
ENDBLK
5
1D
100
AcDbEntity
8
0
100
AcDbBlockEnd
0
BLOCK
5
24
100
AcDbEntity
8
0
100
AcDbBlockBegin
2
*Paper_Space0
70
0
10
0
20
0
30
0
3
*Paper_Space0
0
ENDBLK
5
25
100
AcDbEntity
8
0
100
AcDbBlockEnd
0
BLOCK
5
295
100
AcDbEntity
8
0
100
AcDbBlockBegin
2
DimnDraft3D1
70
0
10
0
20
0
30
0
3
DimnDraft3D1
0
MTEXT
5
28E
100
AcDbEntity
8
2
62
256
6
ByLayer
370
13
48
1
60
0
100
AcDbMText
10
10.397105
20
40.652896
30
0
210
0
220
0
230
1
1
\W0.6740;23
40
3.175
41
0
44
1.084337
50
0
71
7
72
5
7
iso_b_vert
0
LINE
5
290
100
AcDbEntity
8
2
62
256
6
ByLayer
370
13
48
1
60
0
100
AcDbLine
10
0
20
1.5875
30
0
11
0
21
43.034146
31
0
39
0
210
0
220
0
230
1
0
LINE
5
291
100
AcDbEntity
8
2
62
256
6
ByLayer
370
13
48
1
60
0
100
AcDbLine
10
23
20
11.5875
30
0
11
23
21
43.034146
31
0
39
0
210
0
220
0
230
1
0
LINE
5
292
100
AcDbEntity
8
2
62
256
6
ByLayer
370
13
48
1
60
0
100
AcDbLine
10
0
20
39.859146
30
0
11
23
21
39.859146
31
0
39
0
210
0
220
0
230
1
0
SOLID
5
293
100
AcDbEntity
8
2
62
256
6
ByLayer
370
13
48
1
60
0
100
AcDbTrace
10
0
20
39.859146
30
0
11
3.174998
21
40.277143
31
0
12
3.175002
22
39.44115
32
0
13
0
23
39.859146
33
0
39
0
210
0
220
0
230
1
0
SOLID
5
294
100
AcDbEntity
8
2
62
256
6
ByLayer
370
13
48
1
60
0
100
AcDbTrace
10
23
20
39.859146
30
0
11
19.825002
21
39.44115
31
0
12
19.824998
22
40.277143
32
0
13
23
23
39.859146
33
0
39
0
210
0
220
0
230
1
0
ENDBLK
5
296
100
AcDbEntity
8
0
100
AcDbBlockEnd
0
BLOCK
5
2A1
100
AcDbEntity
8
0
100
AcDbBlockBegin
2
DimnDraft3D2
70
0
10
0
20
0
30
0
3
DimnDraft3D2
0
MTEXT
5
299
100
AcDbEntity
8
SK2
62
256
6
ByLayer
370
13
48
1
60
0
100
AcDbMText
10
-17.591479
20
3.26273
30
0
210
0
220
0
230
1
1
\W0.6740;50
40
3.175
41
0
44
1.084337
50
90
71
7
72
5
7
iso_b_vert
0
MTEXT
5
29B
100
AcDbEntity
8
SK2
62
256
6
ByLayer
370
13
48
1
60
0
100
AcDbMText
10
-17.591479
20
-3.856215
30
0
210
0
220
0
230
1
1
%%c
40
3.175
41
0
44
1.084337
50
90
71
7
72
5
7
iso_b_vert
0
LINE
5
29C
100
AcDbEntity
8
SK2
62
256
6
ByLayer
370
13
48
1
60
0
100
AcDbLine
10
-0.9125
20
25
30
0
11
-19.178979
21
25
31
0
39
0
210
0
220
0
230
1
0
LINE
5
29D
100
AcDbEntity
8
SK2
62
256
6
ByLayer
370
13
48
1
60
0
100
AcDbLine
10
-0.9125
20
-25
30
0
11
-19.178979
21
-25
31
0
39
0
210
0
220
0
230
1
0
LINE
5
29E
100
AcDbEntity
8
SK2
62
256
6
ByLayer
370
13
48
1
60
0
100
AcDbLine
10
-16.003979
20
25
30
0
11
-16.003979
21
-25
31
0
39
0
210
0
220
0
230
1
0
SOLID
5
29F
100
AcDbEntity
8
SK2
62
256
6
ByLayer
370
13
48
1
60
0
100
AcDbTrace
10
-16.003979
20
25
30
0
11
-15.585983
21
21.825002
31
0
12
-16.421976
22
21.824998
32
0
13
-16.003979
23
25
33
0
39
0
210
0
220
0
230
1
0
SOLID
5
2A0
100
AcDbEntity
8
SK2
62
256
6
ByLayer
370
13
48
1
60
0
100
AcDbTrace
10
-16.003979
20
-25
30
0
11
-16.421976
21
-21.825002
31
0
12
-15.585983
22
-21.824998
32
0
13
-16.003979
23
-25
33
0
39
0
210
0
220
0
230
1
0
ENDBLK
5
2A2
100
AcDbEntity
8
0
100
AcDbBlockEnd
0
BLOCK
5
2AC
100
AcDbEntity
8
0
100
AcDbBlockBegin
2
DimnDraft3D3
70
0
10
0
20
0
30
0
3
DimnDraft3D3
0
MTEXT
5
2A5
100
AcDbEntity
8
SK2
62
256
6
ByLayer
370
13
48
1
60
0
100
AcDbMText
10
52.353979
20
10.980842
30
0
210
0
220
0
230
1
1
\W0.7361;40
40
3.175
41
0
44
1.084337
50
90
71
7
72
5
7
iso_b_vert
0
MTEXT
5
2A6
100
AcDbEntity
8
SK2
62
256
6
ByLayer
370
13
48
1
60
0
100
AcDbMText
10
52.353979
20
3.861896
30
0
210
0
220
0
230
1
1
%%c
40
3.175
41
0
44
1.084337
50
90
71
7
72
5
7
iso_b_vert
0
LINE
5
2A7
100
AcDbEntity
8
SK2
62
256
6
ByLayer
370
13
48
1
60
0
100
AcDbLine
10
23.9125
20
-10
30
0
11
57.116479
21
-10
31
0
39
0
210
0
220
0
230
1
0
LINE
5
2A8
100
AcDbEntity
8
SK2
62
256
6
ByLayer
370
13
48
1
60
0
100
AcDbLine
10
23.9125
20
30
30
0
11
57.116479
21
30
31
0
39
0
210
0
220
0
230
1
0
LINE
5
2A9
100
AcDbEntity
8
SK2
62
256
6
ByLayer
370
13
48
1
60
0
100
AcDbLine
10
53.941479
20
-10
30
0
11
53.941479
21
30
31
0
39
0
210
0
220
0
230
1
0
SOLID
5
2AA
100
AcDbEntity
8
SK2
62
256
6
ByLayer
370
13
48
1
60
0
100
AcDbTrace
10
53.941479
20
-10
30
0
11
53.523482
21
-6.825002
31
0
12
54.359476
22
-6.824998
32
0
13
53.941479
23
-10
33
0
39
0
210
0
220
0
230
1
0
SOLID
5
2AB
100
AcDbEntity
8
SK2
62
256
6
ByLayer
370
13
48
1
60
0
100
AcDbTrace
10
53.941479
20
30
30
0
11
54.359476
21
26.825002
31
0
12
53.523482
22
26.824998
32
0
13
53.941479
23
30
33
0
39
0
210
0
220
0
230
1
0
ENDBLK
5
2AD
100
AcDbEntity
8
0
100
AcDbBlockEnd
0
BLOCK
5
2B6
100
AcDbEntity
8
0
100
AcDbBlockBegin
2
DimnDraft3D4
70
0
10
0
20
0
30
0
3
DimnDraft3D4
0
MTEXT
5
2B0
100
AcDbEntity
8
SK2
62
256
6
ByLayer
370
13
48
1
60
0
100
AcDbMText
10
40.005844
20
4.29398
30
0
210
0
220
0
230
1
1
\W0.5321;10
40
3.175
41
0
44
1.084337
50
90
71
7
72
5
7
iso_b_vert
0
LINE
5
2B1
100
AcDbEntity
8
SK2
62
256
6
ByLayer
370
13
48
1
60
0
100
AcDbLine
10
29.5875
20
0
30
0
11
43.974594
21
0
31
0
39
0
210
0
220
0
230
1
0
LINE
5
2B2
100
AcDbEntity
8
SK2
62
256
6
ByLayer
370
13
48
1
60
0
100
AcDbLine
10
24.5875
20
10
30
0
11
43.974594
21
10
31
0
39
0
210
0
220
0
230
1
0
LINE
5
2B3
100
AcDbEntity
8
SK2
62
256
6
ByLayer
370
13
48
1
60
0
100
AcDbLine
10
40.799594
20
0
30
0
11
40.799594
21
10
31
0
39
0
210
0
220
0
230
1
0
SOLID
5
2B4
100
AcDbEntity
8
SK2
62
256
6
ByLayer
370
13
48
1
60
0
100
AcDbTrace
10
40.799594
20
0
30
0
11
40.381597
21
3.174998
31
0
12
41.217591
22
3.175002
32
0
13
40.799594
23
0
33
0
39
0
210
0
220
0
230
1
0
SOLID
5
2B5
100
AcDbEntity
8
SK2
62
256
6
ByLayer
370
13
48
1
60
0
100
AcDbTrace
10
40.799594
20
10
30
0
11
41.217591
21
6.825002
31
0
12
40.381597
22
6.824998
32
0
13
40.799594
23
10
33
0
39
0
210
0
220
0
230
1
0
ENDBLK
5
2B7
100
AcDbEntity
8
0
100
AcDbBlockEnd
0
BLOCK
5
2C0
100
AcDbEntity
8
0
100
AcDbBlockBegin
2
DimnDraft3D5
70
0
10
0
20
0
30
0
3
DimnDraft3D5
0
MTEXT
5
2BA
100
AcDbEntity
8
SK2
62
256
6
ByLayer
370
13
48
1
60
0
100
AcDbMText
10
9.35591
20
-46.781555
30
0
210
0
220
0
230
1
1
\W0.7150;23,6
40
3.175
41
0
44
1.084337
50
0
71
7
72
5
7
iso_b_vert
0
LINE
5
2BB
100
AcDbEntity
8
SK2
62
256
6
ByLayer
370
13
48
1
60
0
100
AcDbLine
10
23.325
20
-9.275713
30
0
11
23.325
21
-50.750305
31
0
39
0
210
0
220
0
230
1
0
LINE
5
2BC
100
AcDbEntity
8
SK2
62
256
6
ByLayer
370
13
48
1
60
0
100
AcDbLine
10
-0.325
20
-15.313473
30
0
11
-0.325
21
-50.750305
31
0
39
0
210
0
220
0
230
1
0
LINE
5
2BD
100
AcDbEntity
8
SK2
62
256
6
ByLayer
370
13
48
1
60
0
100
AcDbLine
10
23.325
20
-47.575305
30
0
11
-0.325
21
-47.575305
31
0
39
0
210
0
220
0
230
1
0
SOLID
5
2BE
100
AcDbEntity
8
SK2
62
256
6
ByLayer
370
13
48
1
60
0
100
AcDbTrace
10
23.325
20
-47.575305
30
0
11
20.150002
21
-47.993302
31
0
12
20.149998
22
-47.157308
32
0
13
23.325
23
-47.575305
33
0
39
0
210
0
220
0
230
1
0
SOLID
5
2BF
100
AcDbEntity
8
SK2
62
256
6
ByLayer
370
13
48
1
60
0
100
AcDbTrace
10
-0.325
20
-47.575305
30
0
11
2.849998
21
-47.157308
31
0
12
2.850002
22
-47.993302
32
0
13
-0.325
23
-47.575305
33
0
39
0
210
0
220
0
230
1
0
ENDBLK
5
2C1
100
AcDbEntity
8
0
100
AcDbBlockEnd
0
BLOCK
5
2C4
100
AcDbEntity
8
0
100
AcDbBlockBegin
2
DimnDraft3D66
70
0
10
0
20
0
30
0
3
DimnDraft3D66
0
LINE
5
2C6
100
AcDbEntity
8
SK2
62
256
6
ByLayer
370
25
48
1
60
0
100
AcDbLine
10
23.325
20
-9.275713
30
0
11
23.325
21
-40.984175
31
0
39
0
210
0
220
0
230
1
0
LINE
5
2C7
100
AcDbEntity
8
SK2
62
256
6
ByLayer
370
25
48
1
60
0
100
AcDbLine
10
11
20
-26.5875
30
0
11
11
21
-40.984175
31
0
39
0
210
0
220
0
230
1
0
LINE
5
2C8
100
AcDbEntity
8
SK2
62
256
6
ByLayer
370
25
48
1
60
0
100
AcDbLine
10
23.325
20
-37.809175
30
0
11
11
21
-37.809175
31
0
39
0
210
0
220
0
230
1
0
SOLID
5
2C9
100
AcDbEntity
8
SK2
62
256
6
ByLayer
370
25
48
1
60
0
100
AcDbTrace
10
23.325
20
-37.809175
30
0
11
20.150002
21
-38.227172
31
0
12
20.149998
22
-37.391178
32
0
13
23.325
23
-37.809175
33
0
39
0
210
0
220
0
230
1
0
SOLID
5
2CA
100
AcDbEntity
8
SK2
62
256
6
ByLayer
370
25
48
1
60
0
100
AcDbTrace
10
11
20
-37.809175
30
0
11
14.174998
21
-37.391178
31
0
12
14.175002
22
-38.227172
32
0
13
11
23
-37.809175
33
0
39
0
210
0
220
0
230
1
0
MTEXT
5
2CB
100
AcDbEntity
8
SK2
62
256
6
ByLayer
370
13
48
1
60
0
100
AcDbMText
10
12.337336
20
-37.015425
30
0
210
0
220
0
230
1
1
\W0.6930;12,325
40
3.175
41
0
44
1.084337
50
0
71
7
72
5
7
iso_b_vert
0
ENDBLK
5
2C5
100
AcDbEntity
8
0
100
AcDbBlockEnd
0
ENDSEC
0
SECTION
2
ENTITIES
0
ARC
5
186
100
AcDbEntity
8
1
62
256
6
ByLayer
370
18
48
1
60
0
100
AcDbCircle
39
0
10
-11.675
20
25.8
30
0
40
0.800000000000001
210
0
220
0
230
-1
100
AcDbArc
50
199.103528
51
270
0
ARC
5
187
100
AcDbEntity
8
1
62
256
6
ByLayer
370
18
48
1
60
0
100
AcDbCircle
39
0
10
-11.8
20
-10.8
30
0
40
0.800000000000004
210
0
220
0
230
-1
100
AcDbArc
50
0
51
90
0
ARC
5
188
100
AcDbEntity
8
1
62
256
6
ByLayer
370
18
48
1
60
0
100
AcDbCircle
39
0
10
0.241279
20
14.239592
30
0
40
0.204000000000004
210
0
220
0
230
1
100
AcDbArc
50
300
51
348.001705
0
ARC
5
189
100
AcDbEntity
8
1
62
256
6
ByLayer
370
18
48
1
60
0
100
AcDbCircle
39
0
10
0.241279
20
14.239592
30
0
40
0.203999999998435
210
0
220
0
230
1
100
AcDbArc
50
348.001705
51
2.95158
0
ARC
5
18A
100
AcDbEntity
8
1
62
256
6
ByLayer
370
18
48
1
60
0
100
AcDbCircle
39
0
10
22.7595
20
19.949747
30
0
40
0.204499999999552
210
0
220
0
230
1
100
AcDbArc
50
120
51
180
0
ARC
5
18B
100
AcDbEntity
8
1
62
256
6
ByLayer
370
18
48
1
60
0
100
AcDbCircle
39
0
10
22.7595
20
18.449747
30
0
40
0.204499999999441
210
0
220
0
230
1
100
AcDbArc
50
120
51
180
0
ARC
5
18C
100
AcDbEntity
8
1
62
256
6
ByLayer
370
18
48
1
60
0
100
AcDbCircle
39
0
10
22.7595
20
16.949747
30
0
40
0.204499999999441
210
0
220
0
230
1
100
AcDbArc
50
120
51
180
0
ARC
5
18D
100
AcDbEntity
8
1
62
256
6
ByLayer
370
18
48
1
60
0
100
AcDbCircle
39
0
10
22.7595
20
15.449747
30
0
40
0.204499999999914
210
0
220
0
230
1
100
AcDbArc
50
120
51
180
0
ARC
5
18E
100
AcDbEntity
8
1
62
256
6
ByLayer
370
18
48
1
60
0
100
AcDbCircle
39
0
10
22.7595
20
19.949747
30
0
40
0.204499999999717
210
0
220
0
230
1
100
AcDbArc
50
180
51
240
0
ARC
5
18F
100
AcDbEntity
8
1
62
256
6
ByLayer
370
18
48
1
60
0
100
AcDbCircle
39
0
10
0.241279
20
18.760408
30
0
40
0.204000000000396
210
0
220
0
230
1
100
AcDbArc
50
0
51
60
0
ARC
5
190
100
AcDbEntity
8
1
62
256
6
ByLayer
370
18
48
1
60
0
100
AcDbCircle
39
0
10
0.241279
20
20.260408
30
0
40
0.203999999999916
210
0
220
0
230
1
100
AcDbArc
50
300
51
0.081681
0
ARC
5
191
100
AcDbEntity
8
1
62
256
6
ByLayer
370
18
48
1
60
0
100
AcDbCircle
39
0
10
0.241279
20
15.760408
30
0
40
0.203999999999911
210
0
220
0
230
1
100
AcDbArc
50
0
51
25.763586
0
ARC
5
192
100
AcDbEntity
8
1
62
256
6
ByLayer
370
18
48
1
60
0
100
AcDbCircle
39
0
10
0.241279
20
17.260408
30
0
40
0.203999999999933
210
0
220
0
230
1
100
AcDbArc
50
0
51
60
0
ARC
5
193
100
AcDbEntity
8
1
62
256
6
ByLayer
370
18
48
1
60
0
100
AcDbCircle
39
0
10
22.7595
20
18.449747
30
0
40
0.204499999999778
210
0
220
0
230
1
100
AcDbArc
50
180
51
240
0
ARC
5
194
100
AcDbEntity
8
1
62
256
6
ByLayer
370
18
48
1
60
0
100
AcDbCircle
39
0
10
0.241279
20
18.760408
30
0
40
0.204000000000563
210
0
220
0
230
1
100
AcDbArc
50
300
51
0
0
ARC
5
195
100
AcDbEntity
8
1
62
256
6
ByLayer
370
18
48
1
60
0
100
AcDbCircle
39
0
10
22.7595
20
16.949747
30
0
40
0.204500000000193
210
0
220
0
230
1
100
AcDbArc
50
180
51
240
0
ARC
5
196
100
AcDbEntity
8
1
62
256
6
ByLayer
370
18
48
1
60
0
100
AcDbCircle
39
0
10
0.241279
20
17.260408
30
0
40
0.203999999997637
210
0
220
0
230
1
100
AcDbArc
50
334.236414
51
0
0
ARC
5
197
100
AcDbEntity
8
1
62
256
6
ByLayer
370
18
48
1
60
0
100
AcDbCircle
39
0
10
22.7595
20
15.449747
30
0
40
0.204499999999904
210
0
220
0
230
1
100
AcDbArc
50
180
51
240
0
ARC
5
198
100
AcDbEntity
8
1
62
256
6
ByLayer
370
18
48
1
60
0
100
AcDbCircle
39
0
10
0.241279
20
15.760408
30
0
40
0.20400000000006
210
0
220
0
230
1
100
AcDbArc
50
300
51
0
0
ELLIPSE
5
199
100
AcDbEntity
8
1
62
256
6
ByLayer
370
18
48
1
60
0
100
AcDbEllipse
10
25.597002
20
-12.374369
30
0
11
11.6913429574082
21
0
31
0
210
0
220
0
230
1
40
0.57735
41
1.7840534738688
42
1.824971207459
0
ELLIPSE
5
19A
100
AcDbEntity
8
1
62
256
6
ByLayer
370
18
48
1
60
0
100
AcDbEllipse
10
19.103998
20
-12.374369
30
0
11
11.6913429364469
21
0
31
0
210
0
220
0
230
1
40
0.57735
41
1.20141718410034
42
1.26199003598983
0
ELLIPSE
5
19B
100
AcDbEntity
8
1
62
256
6
ByLayer
370
18
48
1
60
0
100
AcDbEllipse
10
28.195078
20
-12.374369
30
0
11
11.6913429288199
21
1.28106988419937E-08
31
0
210
0
220
0
230
1
40
0.57735
41
2.00044803996722
42
2.06424857131773
0
ELLIPSE
5
19C
100
AcDbEntity
8
1
62
256
6
ByLayer
370
18
48
1
60
0
100
AcDbEllipse
10
16.505922
20
-12.374369
30
0
11
11.6913429803346
21
1.78927876074007E-08
31
0
210
0
220
0
230
1
40
0.57735
41
0.948061571634904
42
1.01673671198595
0
ELLIPSE
5
19D
100
AcDbEntity
8
1
62
256
6
ByLayer
370
18
48
1
60
0
100
AcDbEllipse
10
30.793154
20
-12.374369
30
0
11
11.691342910273
21
2.42981374387387E-08
31
0
210
0
220
0
230
1
40
0.57735
41
2.26370321786805
42
2.34045663217012
0
ELLIPSE
5
19E
100
AcDbEntity
8
1
62
256
6
ByLayer
370
18
48
1
60
0
100
AcDbEllipse
10
13.907847
20
-12.374368
30
0
11
-11.6913413742786
21
8.57059868889265E-07
31
0
210
0
220
0
230
1
40
0.57735
41
-2.44720993465324
42
-2.416391473512
0
ELLIPSE
5
19F
100
AcDbEntity
8
1
62
256
6
ByLayer
370
18
48
1
60
0
100
AcDbEllipse
10
21.702069
20
-12.374406
30
0
11
11.6913760477527
21
4.85070586717757E-06
31
0
210
0
220
0
230
1
40
0.577352
41
1.48201443321574
42
1.48900528753347
0
ELLIPSE
5
1A0
100
AcDbEntity
8
1
62
256
6
ByLayer
370
18
48
1
60
0
100
AcDbEllipse
10
-6.494338
20
12.374369
30
0
11
7.36121593168475
21
0
31
0
210
0
220
0
230
1
40
0.57735
41
0.400060379164995
42
0.577029712918501
0
ELLIPSE
5
1A1
100
AcDbEntity
8
1
62
256
6
ByLayer
370
18
48
1
60
0
100
AcDbEllipse
10
5.194818
20
12.374369
30
0
11
-7.3612159586123
21
1.49219858366905E-08
31
0
210
0
220
0
230
1
40
0.57735
41
-0.785398160981482
42
-0.722958800507409
0
ELLIPSE
5
1A2
100
AcDbEntity
8
1
62
256
6
ByLayer
370
18
48
1
60
0
100
AcDbEllipse
10
28.195078
20
12.374369
30
0
11
6.06217782651364
21
0
31
0
210
0
220
0
230
1
40
0.57735
41
2.50370344286368
42
2.63995207970054
0
ELLIPSE
5
1A3
100
AcDbEntity
8
1
62
256
6
ByLayer
370
18
48
1
60
0
100
AcDbEllipse
10
0.241279
20
17.520229
30
0
11
-0.181167062136746
21
0.349987888383903
31
0
210
0
220
0
230
1
40
0.267949
41
2.57205341146644
42
-3.11359374375194
0
ELLIPSE
5
1A4
100
AcDbEntity
8
1
62
256
6
ByLayer
370
18
48
1
60
0
100
AcDbEllipse
10
0.241279
20
16.020229
30
0
11
-0.181167062134593
21
0.34998788837553
31
0
210
0
220
0
230
1
40
0.267949
41
-2.21427494530319
42
-1.61673679333869
0
POINT
5
6C
100
AcDbEntity
8
80
62
256
6
ByLayer
370
18
48
1
60
0
100
AcDbPoint
10
0
20
0
30
0
39
0
210
0
220
0
230
1
50
360
0
POINT
5
6E
100
AcDbEntity
8
81
62
256
6
ByLayer
370
18
48
1
60
0
100
AcDbPoint
10
23
20
10
30
0
39
0
210
0
220
0
230
1
50
360
0
SPLINE
5
1A5
100
AcDbEntity
8
1
62
256
6
ByLayer
370
18
48
1
60
0
100
AcDbSpline
70
4
71
3
72
12
73
8
40
0
40
0
40
0
40
0
40
0.177027543457647
40
0.355222333441352
40
0.537355702786313
40
0.720934831058056
40
1
40
1
40
1
40
1
41
1
10
0.343278579257504
20
-2.16226284046839
30
0
41
1
10
0.291123569962794
20
-1.91123934022044
30
0
41
1
10
0.204679069256517
20
-1.40456675117131
30
0
41
1
10
0.127668997576266
20
-0.626722704544075
30
0
41
1
10
0.109575067430655
20
0.165015363899249
30
0
41
1
10
0.161266431676578
20
1.1028514646177
30
0
41
1
10
0.260431133401446
20
1.76539302045013
30
0
41
1
10
0.343278579257505
20
2.1622628404681
30
0
0
SPLINE
5
1A6
100
AcDbEntity
8
1
62
256
6
ByLayer
370
18
48
1
60
0
100
AcDbSpline
70
4
71
3
72
20
73
16
40
0
40
0
40
0
40
0
40
0.0317966948275333
40
0.067721043474284
40
0.0767733982604665
40
0.0831251167721508
40
0.0869321704550093
40
0.0901653451159325
40
0.0933998806162698
40
0.097993364880059
40
0.106612165312689
40
0.136872429265568
40
0.282838441363235
40
0.863020162168392
40
1
40
1
40
1
40
1
41
1
10
0.343278579257456
20
2.16226284046811
30
0
41
1
10
0.346044923408651
20
2.1771164932654
30
0
41
1
10
0.353518861815957
20
2.20785391174022
30
0
41
1
10
0.363279828013266
20
2.24283570755465
30
0
41
1
10
0.373621430470095
20
2.26333198828822
30
0
41
1
10
0.378561316382883
20
2.26981314732578
30
0
41
1
10
0.382749102817756
20
2.27276183148559
30
0
41
1
10
0.386262557004605
20
2.27343532978912
30
0
41
1
10
0.389892052394414
20
2.27225775293838
30
0
41
1
10
0.394423085064233
20
2.26798996371977
30
0
41
1
10
0.402968845895384
20
2.25177357225236
30
0
41
1
10
0.421507104666536
20
2.16887987699717
30
0
41
1
10
0.443601735383199
20
1.81314414242323
30
0
41
1
10
0.444537975090608
20
1.40379775527678
30
0
41
1
10
0.445430707654696
20
1.06361382553431
30
0
41
1
10
0.445278530045691
20
0.998590680026387
30
0
0
SPLINE
5
1A7
100
AcDbEntity
8
1
62
256
6
ByLayer
370
18
48
1
60
0
100
AcDbSpline
70
4
71
1
72
4
73
2
40
0
40
0
40
1
40
1
41
1
10
0.343278579257505
20
-24.6616151100737
30
0
41
1
10
-0.324999999999985
20
-23.9992675669488
30
0
0
SPLINE
5
1A8
100
AcDbEntity
8
1
62
256
6
ByLayer
370
18
48
1
60
0
100
AcDbSpline
70
4
71
3
72
11
73
7
40
0
40
0
40
0
40
0
40
0.359952661120386
40
0.635018455295398
40
0.860561562810236
40
1
40
1
40
1
40
1
41
1
10
0.343278579257499
20
-24.6508671711625
30
0
41
1
10
0.36314150335691
20
-24.6711609519488
30
0
41
1
10
0.39378173377236
20
-24.7027627813818
30
0
41
1
10
0.427809705981193
20
-24.7386060526261
30
0
41
1
10
0.442850052026025
20
-24.7552377828416
30
0
41
1
10
0.445186747298596
20
-24.758478929047
30
0
41
1
10
0.445278579255942
20
-24.7589216181971
30
0
0
SPLINE
5
1A9
100
AcDbEntity
8
1
62
256
6
ByLayer
370
18
48
1
60
0
100
AcDbSpline
70
4
71
1
72
4
73
2
40
0
40
0
40
1
40
1
41
1
10
0.343278579257506
20
-24.6508671711625
30
0
41
1
10
-0.324999999999985
20
-23.9640844546584
30
0
0
SPLINE
5
1AA
100
AcDbEntity
8
1
62
256
6
ByLayer
370
18
48
1
60
0
100
AcDbSpline
70
4
71
1
72
4
73
2
40
0
40
0
40
1
40
1
41
1
10
0.343278579257505
20
-24.5809940275923
30
0
41
1
10
-0.324999999999985
20
-23.9406003214205
30
0
0
SPLINE
5
1AB
100
AcDbEntity
8
1
62
256
6
ByLayer
370
18
48
1
60
0
100
AcDbSpline
70
4
71
3
72
11
73
7
40
0
40
0
40
0
40
0
40
0.351599167402397
40
0.638829406281977
40
0.86894765199001
40
1
40
1
40
1
40
1
41
1
10
0.343278579257502
20
-24.5486302009538
30
0
41
1
10
0.362632832312349
20
-24.5691292384582
30
0
41
1
10
0.393485854309344
20
-24.6026469610252
30
0
41
1
10
0.42783438759373
20
-24.6420690308452
30
0
41
1
10
0.442940463697247
20
-24.6618289476332
30
0
41
1
10
0.445174596217551
20
-24.6667572374876
30
0
41
1
10
0.445278524620078
20
-24.6678642425969
30
0
0
SPLINE
5
1AC
100
AcDbEntity
8
1
62
256
6
ByLayer
370
18
48
1
60
0
100
AcDbSpline
70
4
71
1
72
4
73
2
40
0
40
0
40
1
40
1
41
1
10
0.343278579257506
20
-24.5486302009538
30
0
41
1
10
-0.324999999999985
20
-23.8346353811004
30
0
0
SPLINE
5
1AD
100
AcDbEntity
8
1
62
256
6
ByLayer
370
18
48
1
60
0
100
AcDbSpline
70
4
71
1
72
4
73
2
40
0
40
0
40
1
40
1
41
1
10
0.343278579257505
20
-24.4080985521537
30
0
41
1
10
-0.324999999999985
20
-23.7873883339471
30
0
0
SPLINE
5
1AE
100
AcDbEntity
8
1
62
256
6
ByLayer
370
18
48
1
60
0
100
AcDbSpline
70
4
71
3
72
11
73
7
40
0
40
0
40
0
40
0
40
0.34227960961266
40
0.642433763822875
40
0.8770810520092
40
1
40
1
40
1
40
1
41
1
10
0.343278579257503
20
-24.3537520147526
30
0
41
1
10
0.362097759351808
20
-24.3744790072788
30
0
41
1
10
0.393195686558906
20
-24.4100909991235
30
0
41
1
10
0.427884277588691
20
-24.4533049756673
30
0
41
1
10
0.44305539316029
20
-24.4764006283995
30
0
41
1
10
0.445172613937108
20
-24.4830444049758
30
0
41
1
10
0.445278504287884
20
-24.4847480168996
30
0
0
SPLINE
5
1AF
100
AcDbEntity
8
1
62
256
6
ByLayer
370
18
48
1
60
0
100
AcDbSpline
70
4
71
1
72
4
73
2
40
0
40
0
40
1
40
1
41
1
10
0.343278579257506
20
-24.3537520147526
30
0
41
1
10
-0.324999999999985
20
-23.6093698295825
30
0
0
SPLINE
5
1B0
100
AcDbEntity
8
1
62
256
6
ByLayer
370
18
48
1
60
0
100
AcDbSpline
70
4
71
1
72
4
73
2
40
0
40
0
40
1
40
1
41
1
10
0.343278579257505
20
-24.1409461802714
30
0
41
1
10
-0.324999999999985
20
-23.5377854470212
30
0
0
SPLINE
5
1B1
100
AcDbEntity
8
1
62
256
6
ByLayer
370
18
48
1
60
0
100
AcDbSpline
70
4
71
3
72
11
73
7
40
0
40
0
40
0
40
0
40
0.332234173869641
40
0.646499919017255
40
0.885749143486862
40
1
40
1
40
1
40
1
41
1
10
0.343278579257506
20
-24.0639819990156
30
0
41
1
10
0.361531132089969
20
-24.0849561718111
30
0
41
1
10
0.392912689500652
20
-24.1228819398527
30
0
41
1
10
0.427963320520879
20
-24.1701613112823
30
0
41
1
10
0.443175506864066
20
-24.1968268561912
30
0
41
1
10
0.445170725434429
20
-24.2052296320096
30
0
41
1
10
0.445278379376492
20
-24.2074615026731
30
0
0
SPLINE
5
1B2
100
AcDbEntity
8
1
62
256
6
ByLayer
370
18
48
1
60
0
100
AcDbSpline
70
4
71
1
72
4
73
2
40
0
40
0
40
1
40
1
41
1
10
0.343278579257506
20
-24.0639819990156
30
0
41
1
10
-0.324999999999985
20
-23.2855071611078
30
0
0
SPLINE
5
1B3
100
AcDbEntity
8
1
62
256
6
ByLayer
370
18
48
1
60
0
100
AcDbSpline
70
4
71
1
72
4
73
2
40
0
40
0
40
1
40
1
41
1
10
0.343278579257505
20
-23.7763598985605
30
0
41
1
10
-0.324999999999985
20
-23.1886792152982
30
0
0
SPLINE
5
1B4
100
AcDbEntity
8
1
62
256
6
ByLayer
370
18
48
1
60
0
100
AcDbSpline
70
4
71
3
72
11
73
7
40
0
40
0
40
0
40
0
40
0.4306119558677
40
0.722358155361453
40
0.95071642319362
40
1
40
1
40
1
40
1
41
1
10
0.343278579257507
20
-23.6758362492612
30
0
41
1
10
0.367454666009754
20
-23.7048311324572
30
0
41
1
10
0.401311395275049
20
-23.7490278906843
30
0
41
1
10
0.434831476707866
20
-23.8010959891078
30
0
41
1
10
0.44452457528473
20
-23.8240912723073
30
0
41
1
10
0.4452559183439
20
-23.8315111729319
30
0
41
1
10
0.445278236129673
20
-23.8327323775036
30
0
0
SPLINE
5
1B5
100
AcDbEntity
8
1
62
256
6
ByLayer
370
18
48
1
60
0
100
AcDbSpline
70
4
71
1
72
4
73
2
40
0
40
0
40
1
40
1
41
1
10
0.343278579257506
20
-23.6758362492612
30
0
41
1
10
-0.324999999999985
20
-22.858857008827
30
0
0
SPLINE
5
1B6
100
AcDbEntity
8
1
62
256
6
ByLayer
370
18
48
1
60
0
100
AcDbSpline
70
4
71
1
72
4
73
2
40
0
40
0
40
1
40
1
41
1
10
0.343278579257505
20
-23.3097682865573
30
0
41
1
10
-0.324999999999985
20
-22.735486441904
30
0
0
SPLINE
5
1B7
100
AcDbEntity
8
1
62
256
6
ByLayer
370
18
48
1
60
0
100
AcDbSpline
70
4
71
3
72
11
73
7
40
0
40
0
40
0
40
0
40
0.451545529750767
40
0.744877724177589
40
0.972600371194095
40
1
40
1
40
1
40
1
41
1
10
0.343278579257507
20
-23.1843743619429
30
0
41
1
10
0.368797809089788
20
-23.2164966769041
30
0
41
1
10
0.403427674926301
20
-23.2649449074933
30
0
41
1
10
0.436529947818018
20
-23.3223198030623
30
0
41
1
10
0.444876286491351
20
-23.3469118545561
30
0
41
1
10
0.445270100271872
20
-23.3550753190404
30
0
41
1
10
0.445278347428695
20
-23.3559224772546
30
0
0
SPLINE
5
1B8
100
AcDbEntity
8
1
62
256
6
ByLayer
370
18
48
1
60
0
100
AcDbSpline
70
4
71
1
72
4
73
2
40
0
40
0
40
1
40
1
41
1
10
0.343278579257506
20
-23.1843743619429
30
0
41
1
10
-0.324999999999985
20
-22.3235266871075
30
0
0
SPLINE
5
1B9
100
AcDbEntity
8
1
62
256
6
ByLayer
370
18
48
1
60
0
100
AcDbSpline
70
4
71
1
72
4
73
2
40
0
40
0
40
1
40
1
41
1
10
0.343278579257505
20
-22.7348917991731
30
0
41
1
10
-0.324999999999985
20
-22.1718254492047
30
0
0
SPLINE
5
1BA
100
AcDbEntity
8
1
62
256
6
ByLayer
370
18
48
1
60
0
100
AcDbSpline
70
4
71
3
72
11
73
7
40
0
40
0
40
0
40
0
40
0.473944905410011
40
0.767059571936521
40
0.993786569168503
40
1
40
1
40
1
40
1
41
1
10
0.343278579257507
20
-22.5828520565406
30
0
41
1
10
0.370271882942952
20
-22.6186675670111
30
0
41
1
10
0.405630360318206
20
-22.6719812928505
30
0
41
1
10
0.43816996522838
20
-22.7353755043613
30
0
41
1
10
0.445191527808296
20
-22.7616060781941
30
0
41
1
10
0.445278048572682
20
-22.7704122925453
30
0
41
1
10
0.445278556093632
20
-22.7706456657285
30
0
0
SPLINE
5
1BB
100
AcDbEntity
8
1
62
256
6
ByLayer
370
18
48
1
60
0
100
AcDbSpline
70
4
71
1
72
4
73
2
40
0
40
0
40
1
40
1
41
1
10
0.343278579257505
20
-22.5828520565406
30
0
41
1
10
-0.324999999999985
20
-21.6714638118887
30
0
0
SPLINE
5
1BC
100
AcDbEntity
8
1
62
256
6
ByLayer
370
18
48
1
60
0
100
AcDbSpline
70
4
71
1
72
4
73
2
40
0
40
0
40
1
40
1
41
1
10
0.343278579257505
20
-22.043260028118
30
0
41
1
10
-0.324999999999985
20
-21.4890051828837
30
0
0
SPLINE
5
1BD
100
AcDbEntity
8
1
62
256
6
ByLayer
370
18
48
1
60
0
100
AcDbSpline
70
4
71
3
72
10
73
6
40
0
40
0
40
0
40
0
40
0.49911580110378
40
0.78973560959849
40
1
40
1
40
1
40
1
41
1
10
0.343278579257507
20
-21.8621865205767
30
0
41
1
10
0.37191865264515
20
-21.9024477967061
30
0
41
1
10
0.407713535825971
20
-21.9610935006443
30
0
41
1
10
0.439628847319078
20
-22.0310714813206
30
0
41
1
10
0.444662462787075
20
-22.0578499782678
30
0
41
1
10
0.445278501363146
20
-22.0680807022805
30
0
0
SPLINE
5
1BE
100
AcDbEntity
8
1
62
256
6
ByLayer
370
18
48
1
60
0
100
AcDbSpline
70
4
71
1
72
4
73
2
40
0
40
0
40
1
40
1
41
1
10
0.343278579257507
20
-21.8621865205767
30
0
41
1
10
-0.324999999999985
20
-20.8917410416174
30
0
0
SPLINE
5
1BF
100
AcDbEntity
8
1
62
256
6
ByLayer
370
18
48
1
60
0
100
AcDbSpline
70
4
71
1
72
4
73
2
40
0
40
0
40
1
40
1
41
1
10
0.343278579257505
20
-21.2234615511783
30
0
41
1
10
-0.324999999999985
20
-20.6752229431753
30
0
0
SPLINE
5
1C0
100
AcDbEntity
8
1
62
256
6
ByLayer
370
18
48
1
60
0
100
AcDbSpline
70
4
71
3
72
10
73
6
40
0
40
0
40
0
40
0
40
0.528032355689729
40
0.812325282338649
40
1
40
1
40
1
40
1
41
1
10
0.343278579257506
20
-21.0101211779792
30
0
41
1
10
0.373798124170235
20
-21.055861232323
30
0
41
1
10
0.410135998842423
20
-21.1210337010102
30
0
41
1
10
0.440398699404922
20
-21.1971622583614
30
0
41
1
10
0.444759086676654
20
-21.2259010103842
30
0
41
1
10
0.445277940668249
20
-21.2365522837822
30
0
0
SPLINE
5
1C1
100
AcDbEntity
8
1
62
256
6
ByLayer
370
18
48
1
60
0
100
AcDbSpline
70
4
71
1
72
4
73
2
40
0
40
0
40
1
40
1
41
1
10
0.343278579257507
20
-21.0101211779792
30
0
41
1
10
-0.324999999999985
20
-19.969410200354
30
0
0
SPLINE
5
1C2
100
AcDbEntity
8
1
62
256
6
ByLayer
370
18
48
1
60
0
100
AcDbSpline
70
4
71
1
72
4
73
2
40
0
40
0
40
1
40
1
41
1
10
0.343278579257505
20
-20.2599439229594
30
0
41
1
10
-0.324999999999985
20
-19.7142675174606
30
0
0
SPLINE
5
1C3
100
AcDbEntity
8
1
62
256
6
ByLayer
370
18
48
1
60
0
100
AcDbSpline
70
4
71
3
72
10
73
6
40
0
40
0
40
0
40
0
40
0.561851685813828
40
0.833077531528199
40
1
40
1
40
1
40
1
41
1
10
0.343278579257507
20
-20.009877170194
30
0
41
1
10
0.3759999568581
20
-20.0625708140558
30
0
41
1
10
0.412679978046216
20
-20.1353779049039
30
0
41
1
10
0.4411026609511
20
-20.2187336431058
30
0
41
1
10
0.444835642110636
20
-20.2492250392001
30
0
41
1
10
0.445276475974311
20
-20.260249127219
30
0
0
SPLINE
5
1C4
100
AcDbEntity
8
1
62
256
6
ByLayer
370
18
48
1
60
0
100
AcDbSpline
70
4
71
1
72
4
73
2
40
0
40
0
40
1
40
1
41
1
10
0.343278579257506
20
-20.009877170194
30
0
41
1
10
-0.324999999999985
20
-18.8835866230439
30
0
0
SPLINE
5
1C5
100
AcDbEntity
8
1
62
256
6
ByLayer
370
18
48
1
60
0
100
AcDbSpline
70
4
71
1
72
4
73
2
40
0
40
0
40
1
40
1
41
1
10
0.343278579257505
20
-19.1310045556571
30
0
41
1
10
-0.324999999999985
20
-18.5833216554523
30
0
0
SPLINE
5
1C6
100
AcDbEntity
8
1
62
256
6
ByLayer
370
18
48
1
60
0
100
AcDbSpline
70
4
71
3
72
10
73
6
40
0
40
0
40
0
40
0
40
0.527829038196984
40
0.816838679972736
40
1
40
1
40
1
40
1
41
1
10
0.343278579257507
20
-18.8378655059202
30
0
41
1
10
0.373686955429075
20
-18.891379882709
30
0
41
1
10
0.410159806478139
20
-18.970135859051
30
0
41
1
10
0.440082181841923
20
-19.0639174758409
30
0
41
1
10
0.444628576570124
20
-19.1021975352937
30
0
41
1
10
0.445268084177938
20
-19.1164456592964
30
0
0
SPLINE
5
1C7
100
AcDbEntity
8
1
62
256
6
ByLayer
370
18
48
1
60
0
100
AcDbSpline
70
4
71
1
72
4
73
2
40
0
40
0
40
1
40
1
41
1
10
0.343278579257509
20
-18.8378655059202
30
0
41
1
10
-0.324999999999985
20
-17.6040433920733
30
0
0
SPLINE
5
1C8
100
AcDbEntity
8
1
62
256
6
ByLayer
370
18
48
1
60
0
100
AcDbSpline
70
4
71
1
72
4
73
2
40
0
40
0
40
1
40
1
41
1
10
0.343278579257505
20
-17.8052054988335
30
0
41
1
10
-0.324999999999985
20
-17.2489809481604
30
0
0
SPLINE
5
1C9
100
AcDbEntity
8
1
62
256
6
ByLayer
370
18
48
1
60
0
100
AcDbSpline
70
4
71
3
72
10
73
6
40
0
40
0
40
0
40
0
40
0.628474401617215
40
0.846119878698611
40
1
40
1
40
1
40
1
41
1
10
0.343278579257508
20
-17.4595294688036
30
0
41
1
10
0.380184920402661
20
-17.5307794947692
30
0
41
1
10
0.416289071172746
20
-17.6218045163081
30
0
41
1
10
0.441635210984726
20
-17.7254314641357
30
0
41
1
10
0.444806206637545
20
-17.7602223059043
30
0
41
1
10
0.44526483921638
20
-17.7741900183719
30
0
0
SPLINE
5
1CA
100
AcDbEntity
8
1
62
256
6
ByLayer
370
18
48
1
60
0
100
AcDbSpline
70
4
71
1
72
4
73
2
40
0
40
0
40
1
40
1
41
1
10
0.343278579257506
20
-17.4595294688036
30
0
41
1
10
-0.324999999999985
20
-16.0846151259519
30
0
0
SPLINE
5
1CB
100
AcDbEntity
8
1
62
256
6
ByLayer
370
18
48
1
60
0
100
AcDbSpline
70
4
71
1
72
4
73
2
40
0
40
0
40
1
40
1
41
1
10
0.343278579257505
20
-16.2343878973864
30
0
41
1
10
-0.324999999999985
20
-15.6593372704595
30
0
0
SPLINE
5
1CC
100
AcDbEntity
8
1
62
256
6
ByLayer
370
18
48
1
60
0
100
AcDbSpline
70
4
71
2
72
6
73
3
40
0
40
0
40
0
40
1
40
1
40
1
41
1
10
0.343278579257507
20
-15.8210354188626
30
0
41
1
10
0.434931148832175
20
-16.0159294626272
30
0
41
1
10
0.445257025510225
20
-16.183075191577
30
0
0
SPLINE
5
1CD
100
AcDbEntity
8
1
62
256
6
ByLayer
370
18
48
1
60
0
100
AcDbSpline
70
4
71
1
72
4
73
2
40
0
40
0
40
1
40
1
41
1
10
0.343278579257506
20
-15.8210354188626
30
0
41
1
10
-0.324999999999985
20
-14.2487663939725
30
0
0
SPLINE
5
1CE
100
AcDbEntity
8
1
62
256
6
ByLayer
370
18
48
1
60
0
100
AcDbSpline
70
4
71
1
72
4
73
2
40
0
40
0
40
1
40
1
41
1
10
0.343278579257505
20
-14.3382480781273
30
0
41
1
10
-0.324999999999985
20
-13.7259733261434
30
0
0
SPLINE
5
1CF
100
AcDbEntity
8
1
62
256
6
ByLayer
370
18
48
1
60
0
100
AcDbSpline
70
4
71
2
72
6
73
3
40
0
40
0
40
0
40
1
40
1
40
1
41
1
10
0.343278579257509
20
-13.8302261072547
30
0
41
1
10
0.437966938033069
20
-14.0614094932117
30
0
41
1
10
0.445276725120965
20
-14.2642519243169
30
0
0
SPLINE
5
1D0
100
AcDbEntity
8
1
62
256
6
ByLayer
370
18
48
1
60
0
100
AcDbSpline
70
4
71
1
72
4
73
2
40
0
40
0
40
1
40
1
41
1
10
0.343278579257506
20
-13.8302261072547
30
0
41
1
10
-0.324999999999985
20
-11.9515623978625
30
0
0
SPLINE
5
1D1
100
AcDbEntity
8
1
62
256
6
ByLayer
370
18
48
1
60
0
100
AcDbSpline
70
4
71
1
72
4
73
2
40
0
40
0
40
1
40
1
41
1
10
0.343278579257505
20
-11.9630834443733
30
0
41
1
10
-0.324999999999985
20
-11.2734131366681
30
0
0
SPLINE
5
1D2
100
AcDbEntity
8
1
62
256
6
ByLayer
370
18
48
1
60
0
100
AcDbSpline
70
4
71
3
72
10
73
6
40
0
40
0
40
0
40
0
40
0.639189614684198
40
0.939985817466861
40
1
40
1
40
1
40
1
41
1
10
0.343278579257508
20
-11.3024398529995
30
0
41
1
10
0.381406758453031
20
-11.4225518631295
30
0
41
1
10
0.420716540065309
20
-11.5950695916333
30
0
41
1
10
0.443698407353823
20
-11.7770506417886
30
0
41
1
10
0.445162670681982
20
-11.8397022686722
30
0
41
1
10
0.445270390244059
20
-11.8500751142331
30
0
0
SPLINE
5
1D3
100
AcDbEntity
8
1
62
256
6
ByLayer
370
18
48
1
60
0
100
AcDbSpline
70
4
71
1
72
4
73
2
40
0
40
0
40
1
40
1
41
1
10
0.343278579257509
20
-11.3024398529995
30
0
41
1
10
-0.324999999999985
20
-8.84038142559477
30
0
0
SPLINE
5
1D4
100
AcDbEntity
8
1
62
256
6
ByLayer
370
18
48
1
60
0
100
AcDbSpline
70
4
71
1
72
4
73
2
40
0
40
0
40
1
40
1
41
1
10
0.343278579257505
20
-8.72613161975543
30
0
41
1
10
-0.324999999999985
20
-7.82798465443058
30
0
0
SPLINE
5
1D5
100
AcDbEntity
8
1
62
256
6
ByLayer
370
18
48
1
60
0
100
AcDbSpline
70
4
71
3
72
10
73
6
40
0
40
0
40
0
40
0
40
0.426536763232386
40
0.904973809409781
40
1
40
1
40
1
40
1
41
1
10
0.343278579257508
20
-7.72755712263301
30
0
41
1
10
0.367456140097784
20
-7.84386592801435
30
0
41
1
10
0.408927395126826
20
-8.08904552071214
30
0
41
1
10
0.441350589783677
20
-8.36092622343944
30
0
41
1
10
0.44495131836449
20
-8.51226497802922
30
0
41
1
10
0.44526271933873
20
-8.53727854575164
30
0
0
SPLINE
5
1D6
100
AcDbEntity
8
1
62
256
6
ByLayer
370
18
48
1
60
0
100
AcDbSpline
70
4
71
2
72
6
73
3
40
0
40
0
40
0
40
1
40
1
40
1
41
1
10
0.343278579257506
20
-7.72755712263301
30
0
41
1
10
-0.132722169505399
20
-5.38756424983119
30
0
41
1
10
-0.324999999999985
20
-2.99413489175101
30
0
0
SPLINE
5
1D7
100
AcDbEntity
8
1
62
256
6
ByLayer
370
18
48
1
60
0
100
AcDbSpline
70
4
71
2
72
6
73
3
40
0
40
0
40
0
40
1
40
1
40
1
41
1
10
-0.325000000000006
20
2.99413489175087
30
0
41
1
10
-0.132737661282766
20
5.38753932333814
30
0
41
1
10
0.343278579257506
20
7.72755712263301
30
0
0
SPLINE
5
1D8
100
AcDbEntity
8
1
62
256
6
ByLayer
370
18
48
1
60
0
100
AcDbSpline
70
4
71
3
72
15
73
11
40
0
40
0
40
0
40
0
40
0.0933011986084409
40
0.150136009865089
40
0.207466738062569
40
0.25847398175625
40
0.328768119026663
40
0.455690944525706
40
0.853377060919594
40
1
40
1
40
1
40
1
41
1
10
0.343278579227667
20
8.72613161965771
30
0
41
1
10
0.349618757180028
20
8.73498596761564
30
0
41
1
10
0.36054717099861
20
8.74657226550421
30
0
41
1
10
0.377536591895387
20
8.75839038985504
30
0
41
1
10
0.391602867110888
20
8.76145565079285
30
0
41
1
10
0.405003650259784
20
8.7567926355728
30
0
41
1
10
0.419127671511193
20
8.74113489661303
30
0
41
1
10
0.439321571398457
20
8.68738097800669
30
0
41
1
10
0.444255170457998
20
8.6138587831638
30
0
41
1
10
0.445504683806818
20
8.55435531380681
30
0
41
1
10
0.445265812721429
20
8.53799973217743
30
0
0
SPLINE
5
1D9
100
AcDbEntity
8
1
62
256
6
ByLayer
370
18
48
1
60
0
100
AcDbSpline
70
4
71
1
72
4
73
2
40
0
40
0
40
1
40
1
41
1
10
-0.324999999999985
20
7.82798465442983
30
0
41
1
10
0.343278579257505
20
8.72613161969004
30
0
0
SPLINE
5
1DA
100
AcDbEntity
8
1
62
256
6
ByLayer
370
18
48
1
60
0
100
AcDbSpline
70
4
71
1
72
4
73
2
40
0
40
0
40
1
40
1
41
1
10
-0.324999999999985
20
8.84038142559477
30
0
41
1
10
0.343278579257506
20
11.3024398529995
30
0
0
SPLINE
5
1DB
100
AcDbEntity
8
1
62
256
6
ByLayer
370
18
48
1
60
0
100
AcDbSpline
70
4
71
3
72
14
73
10
40
0
40
0
40
0
40
0
40
0.120426928195135
40
0.207824691046936
40
0.295747807870816
40
0.376472178156652
40
0.505790947620313
40
0.747790652425776
40
1
40
1
40
1
40
1
41
1
10
0.343278579239162
20
11.9630834443607
30
0
41
1
10
0.351124263412842
20
11.9715271397341
30
0
41
1
10
0.36487249461456
20
11.9829495957488
30
0
41
1
10
0.385807043021347
20
11.9932586741502
30
0
41
1
10
0.402816360658611
20
11.9934305321995
30
0
41
1
10
0.418652664671259
20
11.9840677333848
30
0
41
1
10
0.434755755756864
20
11.9577339499827
30
0
41
1
10
0.443816434804851
20
11.9088238251356
30
0
41
1
10
0.446105890975778
20
11.8677730984676
30
0
41
1
10
0.445231320366835
20
11.8452876390088
30
0
0
SPLINE
5
1DC
100
AcDbEntity
8
1
62
256
6
ByLayer
370
18
48
1
60
0
100
AcDbSpline
70
4
71
1
72
4
73
2
40
0
40
0
40
1
40
1
41
1
10
-0.324999999999985
20
11.2734131366681
30
0
41
1
10
0.343278579257505
20
11.9630834443733
30
0
0
SPLINE
5
1DD
100
AcDbEntity
8
1
62
256
6
ByLayer
370
18
48
1
60
0
100
AcDbSpline
70
4
71
1
72
4
73
2
40
0
40
0
40
1
40
1
41
1
10
-0.324999999999985
20
11.9515623978625
30
0
41
1
10
0.343278579257506
20
13.8302261072547
30
0
0
SPLINE
5
1DE
100
AcDbEntity
8
1
62
256
6
ByLayer
370
18
48
1
60
0
100
AcDbSpline
70
4
71
3
72
10
73
6
40
0
40
0
40
0
40
0
40
0.217072135564658
40
0.941200990592845
40
1
40
1
40
1
40
1
41
1
10
0.445007954254667
20
14.2500967286848
30
0
41
1
10
0.443253665820971
20
14.2213819406145
30
0
41
1
10
0.430878987947882
20
14.0957838544488
30
0
41
1
10
0.387742045984878
20
13.9498222810269
30
0
41
1
10
0.346454298294952
20
13.8385927658512
30
0
41
1
10
0.343278579257506
20
13.8302261072547
30
0
0
SPLINE
5
1DF
100
AcDbEntity
8
1
62
256
6
ByLayer
370
18
48
1
60
0
100
AcDbSpline
70
4
71
1
72
4
73
2
40
0
40
0
40
1
40
1
41
1
10
0.674999999999997
20
14.4151506539626
30
0
41
1
10
0.445007954254667
20
14.2500967286848
30
0
0
SPLINE
5
1E0
100
AcDbEntity
8
1
62
256
6
ByLayer
370
18
48
1
60
0
100
AcDbSpline
70
4
71
3
72
19
73
15
40
0
40
0
40
0
40
0
40
0.719594508483147
40
0.810419496759595
40
0.855924311867857
40
0.871161485643496
40
0.877448622495607
40
0.883802137916952
40
0.887858150764831
40
0.891913078564985
40
0.89786167141974
40
0.909245363248995
40
0.950266787140238
40
1
40
1
40
1
40
1
41
1
10
0.444807118047553
20
-1.29103980382277
30
0
41
1
10
0.458690396044476
20
-1.56639343450058
30
0
41
1
10
0.446839608925791
20
-1.869414318199
30
0
41
1
10
0.416442129700489
20
-2.18584471125212
30
0
41
1
10
0.406148289306164
20
-2.24034466350884
30
0
41
1
10
0.397835337249784
20
-2.26216889707519
30
0
41
1
10
0.392903696687165
20
-2.26962227680016
30
0
41
1
10
0.389075069800574
20
-2.27280107572045
30
0
41
1
10
0.385195050254578
20
-2.2734137344321
30
0
41
1
10
0.381437227528474
20
-2.27210512257545
30
0
41
1
10
0.376404566588493
20
-2.26756463908507
30
0
41
1
10
0.365893136620087
20
-2.25004950031346
30
0
41
1
10
0.354909588361213
20
-2.21330174904863
30
0
41
1
10
0.346523486099495
20
-2.1808676379698
30
0
41
1
10
0.343278579257508
20
-2.1622628404684
30
0
0
SPLINE
5
1E1
100
AcDbEntity
8
1
62
256
6
ByLayer
370
18
48
1
60
0
100
AcDbSpline
70
4
71
3
72
10
73
6
40
0
40
0
40
0
40
0
40
0.39575479362328
40
0.876484317387859
40
1
40
1
40
1
40
1
41
1
10
0.445278530045691
20
0.998590680026387
30
0
41
1
10
0.451558646843229
20
0.696318890769772
30
0
41
1
10
0.452767553166278
20
0.0281250611912244
30
0
41
1
10
0.49896216078137
20
-0.742404333955871
30
0
41
1
10
0.455098173062379
20
-1.19806480753832
30
0
41
1
10
0.444807118047553
20
-1.29103980382277
30
0
0
SPLINE
5
1E2
100
AcDbEntity
8
1
62
256
6
ByLayer
370
18
48
1
60
0
100
AcDbSpline
70
4
71
3
72
15
73
11
40
0
40
0
40
0
40
0
40
0.290742741834542
40
0.548573721456086
40
0.677984031737671
40
0.737822749124815
40
0.798253423171222
40
0.850738096787031
40
0.917916463703524
40
1
40
1
40
1
40
1
41
1
10
0.44526271933873
20
-8.53727854575164
30
0
41
1
10
0.44620793610246
20
-8.57017203308849
30
0
41
1
10
0.443487027277032
20
-8.62963941780193
30
0
41
1
10
0.434504504736797
20
-8.70119880874334
30
0
41
1
10
0.418854721651317
20
-8.74149113336592
30
0
41
1
10
0.40459164312674
20
-8.7570266921105
30
0
41
1
10
0.391477646024301
20
-8.76158195536398
30
0
41
1
10
0.376146411100909
20
-8.75783405619723
30
0
41
1
10
0.359639418561272
20
-8.74560258892934
30
0
41
1
10
0.348854177126336
20
-8.73385245875711
30
0
41
1
10
0.343278579285618
20
-8.7261316197266
30
0
0
SPLINE
5
1E3
100
AcDbEntity
8
1
62
256
6
ByLayer
370
18
48
1
60
0
100
AcDbSpline
70
4
71
3
72
10
73
6
40
0
40
0
40
0
40
0
40
0.270847102620031
40
0.604720836568054
40
1
40
1
40
1
40
1
41
1
10
0.445265812721429
20
8.53799973217743
30
0
41
1
10
0.444301853268977
20
8.46636124987035
30
0
41
1
10
0.436963020525847
20
8.30541901624195
30
0
41
1
10
0.39921582676787
20
8.03337316979237
30
0
41
1
10
0.365146033387956
20
7.83533133494469
30
0
41
1
10
0.343278579257507
20
7.72755712263301
30
0
0
SPLINE
5
1E4
100
AcDbEntity
8
1
62
256
6
ByLayer
370
18
48
1
60
0
100
AcDbSpline
70
4
71
2
72
6
73
3
40
0
40
0
40
0
40
1
40
1
40
1
41
1
10
0.445231320366835
20
11.8452876390088
30
0
41
1
10
0.434974765368602
20
11.5838649524404
30
0
41
1
10
0.343278579257518
20
11.3024398529995
30
0
0
SPLINE
5
1E5
100
AcDbEntity
8
1
62
256
6
ByLayer
370
18
48
1
60
0
100
AcDbSpline
70
4
71
3
72
15
73
11
40
0
40
0
40
0
40
0
40
0.293247013699936
40
0.445588440551585
40
0.599033170488385
40
0.689616392916568
40
0.780792600749816
40
0.863128897172341
40
0.993456268969967
40
1
40
1
40
1
40
1
41
1
10
0.445270390244059
20
-11.8500751142331
30
0
41
1
10
0.446128615030486
20
-11.8757367848509
30
0
41
1
10
0.443553121461624
20
-11.9119114375821
30
0
41
1
10
0.433942030195033
20
-11.9566354484362
30
0
41
1
10
0.421624704943824
20
-11.9811585698378
30
0
41
1
10
0.404902750533604
20
-11.9929851498926
30
0
41
1
10
0.387893862391722
20
-11.9936378557081
30
0
41
1
10
0.366905517900198
20
-11.9845824955284
30
0
41
1
10
0.352265714522823
20
-11.9721784852668
30
0
41
1
10
0.343687800222936
20
-11.9635019841124
30
0
41
1
10
0.343278579257505
20
-11.9630834443733
30
0
0
SPLINE
5
1E6
100
AcDbEntity
8
1
62
256
6
ByLayer
370
18
48
1
60
0
100
AcDbSpline
70
4
71
3
72
12
73
8
40
0
40
0
40
0
40
0
40
0.224518969491343
40
0.524683438885163
40
0.721969247757193
40
0.867102448825834
40
1
40
1
40
1
40
1
41
1
10
11
20
-5.73679855130457
30
0
41
1
10
11.0007912257492
20
-5.7162245042323
30
0
41
1
10
11.0332725188642
20
-5.67503491490207
30
0
41
1
10
11.1772857243953
20
-5.64165925833286
30
0
41
1
10
11.3873793811014
20
-5.62896191079362
30
0
41
1
10
11.594206521888
20
-5.62571831656991
30
0
41
1
10
11.7305858725584
20
-5.62512112764542
30
0
41
1
10
11.8
20
-5.62525968112204
30
0
0
SPLINE
5
1E7
100
AcDbEntity
8
1
62
256
6
ByLayer
370
18
48
1
60
0
100
AcDbSpline
70
4
71
3
72
12
73
8
40
0
40
0
40
0
40
0
40
0.145754504355918
40
0.290979254828434
40
0.493805756487269
40
0.766067534616361
40
1
40
1
40
1
40
1
41
1
10
11.8
20
10.4490174029724
30
0
41
1
10
11.7249400797781
20
10.4503356753417
30
0
41
1
10
11.5841615782674
20
10.4682419925544
30
0
41
1
10
11.3691562538569
20
10.5585242904371
30
0
41
1
10
11.1657688760457
20
10.7251702828935
30
0
41
1
10
11.0304005292972
20
10.9601735360634
30
0
41
1
10
10.9995828495847
20
11.1344020424875
30
0
41
1
10
11
20
11.2183459028904
30
0
0
SPLINE
5
1E8
100
AcDbEntity
8
1
62
256
6
ByLayer
370
18
48
1
60
0
100
AcDbSpline
70
4
71
3
72
14
73
10
40
0
40
0
40
0
40
0
40
0.0669283292063847
40
0.330016891150815
40
0.496750995062003
40
0.620659388175373
40
0.74542874032123
40
0.854383835626844
40
1
40
1
40
1
40
1
41
1
10
0.445276725120965
20
-14.2642519243169
30
0
41
1
10
0.445315011440064
20
-14.2690548127678
30
0
41
1
10
0.444900539957864
20
-14.2922897915191
30
0
41
1
10
0.441181949999974
20
-14.3256570819723
30
0
41
1
10
0.428018156118144
20
-14.3549048748342
30
0
41
1
10
0.411153681512986
20
-14.3680063549452
30
0
41
1
10
0.391170956031952
20
-14.3686874416323
30
0
41
1
10
0.367532642313302
20
-14.3582041130317
30
0
41
1
10
0.352145819047935
20
-14.3466753789916
30
0
41
1
10
0.343278579257504
20
-14.3382480781273
30
0
0
SPLINE
5
1E9
100
AcDbEntity
8
1
62
256
6
ByLayer
370
18
48
1
60
0
100
AcDbSpline
70
4
71
1
72
4
73
2
40
0
40
0
40
1
40
1
41
1
10
23.325
20
13.6887395992831
30
0
41
1
10
22.325
20
14.5303860572248
30
0
0
SPLINE
5
1EA
100
AcDbEntity
8
1
62
256
6
ByLayer
370
18
48
1
60
0
100
AcDbSpline
70
4
71
2
72
6
73
3
40
0
40
0
40
0
40
1
40
1
40
1
41
1
10
23.325
20
11.5414070106083
30
0
41
1
10
23.1038602434478
20
12.6512945594294
30
0
41
1
10
22.6572499999916
20
13.6668802111638
30
0
0
SPLINE
5
1EB
100
AcDbEntity
8
1
62
256
6
ByLayer
370
18
48
1
60
0
100
AcDbSpline
70
4
71
3
72
18
73
14
40
0
40
0
40
0
40
0
40
0.0092762998716115
40
0.0685629894744855
40
0.0951304196228311
40
0.117592414012455
40
0.133540352722764
40
0.149529937917723
40
0.169950422016852
40
0.205700982062619
40
0.31877669792791
40
0.839906372193849
40
1
40
1
40
1
40
1
41
1
10
22.6572499999917
20
13.6668802111639
30
0
41
1
10
22.6565304884824
20
13.6685631789398
30
0
41
1
10
22.6510900516933
20
13.6808852222451
30
0
41
1
10
22.642732472879
20
13.697601541462
30
0
41
1
10
22.6306916244164
20
13.7135695448212
30
0
41
1
10
22.6221133103926
20
13.7207104323246
30
0
41
1
10
22.6142121813074
20
13.7231127764669
30
0
41
1
10
22.6068746793648
20
13.7215233840357
30
0
41
1
10
22.5984652964634
20
13.7143767022245
30
0
41
1
10
22.5845960866485
20
13.6888833145969
30
0
41
1
10
22.5583609756227
20
13.5639060542448
30
0
41
1
10
22.5562192314164
20
13.4050532787704
30
0
41
1
10
22.554724613401
20
13.2697515585732
30
0
41
1
10
22.5550227561859
20
13.2377482372671
30
0
0
SPLINE
5
1EC
100
AcDbEntity
8
1
62
256
6
ByLayer
370
18
48
1
60
0
100
AcDbSpline
70
4
71
2
72
6
73
3
40
0
40
0
40
0
40
1
40
1
40
1
41
1
10
22.65725
20
6.33311978885513
30
0
41
1
10
23.1037018449101
20
7.34863682979564
30
0
41
1
10
23.325
20
8.4585929893917
30
0
0
SPLINE
5
1ED
100
AcDbEntity
8
1
62
256
6
ByLayer
370
18
48
1
60
0
100
AcDbSpline
70
4
71
2
72
6
73
3
40
0
40
0
40
0
40
1
40
1
40
1
41
1
10
23.325
20
5.94674849374518
30
0
41
1
10
23.0839048370316
20
4.19404952352346
30
0
41
1
10
22.6572499999999
20
2.48911817079086
30
0
0
SPLINE
5
1EE
100
AcDbEntity
8
1
62
256
6
ByLayer
370
18
48
1
60
0
100
AcDbSpline
70
4
71
3
72
10
73
6
40
0
40
0
40
0
40
0
40
0.532327471743725
40
0.833599534487837
40
1
40
1
40
1
40
1
41
1
10
22.6572499999999
20
2.48911817079086
30
0
41
1
10
22.6273115469272
20
2.37052410937615
30
0
41
1
10
22.591106560034
20
2.18676744357676
30
0
41
1
10
22.5583715625594
20
1.96607651328292
30
0
41
1
10
22.5551204865301
20
1.86668100652048
30
0
41
1
10
22.55503138987
20
1.83160602677739
30
0
0
SPLINE
5
1EF
100
AcDbEntity
8
1
62
256
6
ByLayer
370
18
48
1
60
0
100
AcDbSpline
70
4
71
1
72
4
73
2
40
0
40
0
40
1
40
1
41
1
10
22.6572499999925
20
1.68346803662725
30
0
41
1
10
23.325
20
2.45426928254283
30
0
0
SPLINE
5
1F0
100
AcDbEntity
8
1
62
256
6
ByLayer
370
18
48
1
60
0
100
AcDbSpline
70
4
71
1
72
4
73
2
40
0
40
0
40
1
40
1
41
1
10
23.325
20
1.64136785802053
30
0
41
1
10
22.6572499999999
20
-0.425672757072631
30
0
0
SPLINE
5
1F1
100
AcDbEntity
8
1
62
256
6
ByLayer
370
18
48
1
60
0
100
AcDbSpline
70
4
71
2
72
6
73
3
40
0
40
0
40
0
40
1
40
1
40
1
41
1
10
22.6572499999999
20
-0.425672757072632
30
0
41
1
10
22.5642481203746
20
-0.668794774766763
30
0
41
1
10
22.5550113605066
20
-0.887208714976277
30
0
0
SPLINE
5
1F2
100
AcDbEntity
8
1
62
256
6
ByLayer
370
18
48
1
60
0
100
AcDbSpline
70
4
71
1
72
4
73
2
40
0
40
0
40
1
40
1
41
1
10
22.65725
20
-0.971936807712604
30
0
41
1
10
23.325
20
-0.344088579879844
30
0
0
SPLINE
5
1F3
100
AcDbEntity
8
1
62
256
6
ByLayer
370
18
48
1
60
0
100
AcDbSpline
70
4
71
1
72
4
73
2
40
0
40
0
40
1
40
1
41
1
10
23.325
20
-0.899752969535973
30
0
41
1
10
22.6572499999999
20
-2.50903509559339
30
0
0
SPLINE
5
1F4
100
AcDbEntity
8
1
62
256
6
ByLayer
370
18
48
1
60
0
100
AcDbSpline
70
4
71
2
72
6
73
3
40
0
40
0
40
0
40
1
40
1
40
1
41
1
10
22.6572499999999
20
-2.50903509559339
30
0
41
1
10
22.5644945242596
20
-2.70763626904261
30
0
41
1
10
22.5550024025219
20
-2.87723051658865
30
0
0
SPLINE
5
1F5
100
AcDbEntity
8
1
62
256
6
ByLayer
370
18
48
1
60
0
100
AcDbSpline
70
4
71
1
72
4
73
2
40
0
40
0
40
1
40
1
41
1
10
22.65725
20
-2.92679738865034
30
0
41
1
10
23.325
20
-2.3516106251948
30
0
0
SPLINE
5
1F6
100
AcDbEntity
8
1
62
256
6
ByLayer
370
18
48
1
60
0
100
AcDbSpline
70
4
71
1
72
4
73
2
40
0
40
0
40
1
40
1
41
1
10
23.325
20
-2.77663877194952
30
0
41
1
10
22.6572499999999
20
-4.13355106149931
30
0
0
SPLINE
5
1F7
100
AcDbEntity
8
1
62
256
6
ByLayer
370
18
48
1
60
0
100
AcDbSpline
70
4
71
3
72
10
73
6
40
0
40
0
40
0
40
0
40
0.613007207669487
40
0.839592277897989
40
1
40
1
40
1
40
1
41
1
10
22.6572499999999
20
-4.13355106149931
30
0
41
1
10
22.6211424602313
20
-4.20196192581198
30
0
41
1
10
22.5848937437171
20
-4.29074427879307
30
0
41
1
10
22.5587126466541
20
-4.39260619921632
30
0
41
1
10
22.5554297092013
20
-4.42786247776355
30
0
41
1
10
22.5550034231479
20
-4.44198101996943
30
0
0
SPLINE
5
1F8
100
AcDbEntity
8
1
62
256
6
ByLayer
370
18
48
1
60
0
100
AcDbSpline
70
4
71
1
72
4
73
2
40
0
40
0
40
1
40
1
41
1
10
22.65725
20
-4.46792259248008
30
0
41
1
10
23.325
20
-3.91489854524455
30
0
0
SPLINE
5
1F9
100
AcDbEntity
8
1
62
256
6
ByLayer
370
18
48
1
60
0
100
AcDbSpline
70
4
71
1
72
4
73
2
40
0
40
0
40
1
40
1
41
1
10
23.325
20
-4.25413560412766
30
0
41
1
10
22.6572499999999
20
-5.44469398185762
30
0
0
SPLINE
5
1FA
100
AcDbEntity
8
1
62
256
6
ByLayer
370
18
48
1
60
0
100
AcDbSpline
70
4
71
2
72
6
73
3
40
0
40
0
40
0
40
1
40
1
40
1
41
1
10
22.6572499999999
20
-5.44469398185762
30
0
41
1
10
22.59985215075
20
-5.54245268926188
30
0
41
1
10
22.5708777305832
20
-5.63083393934903
30
0
0
SPLINE
5
1FB
100
AcDbEntity
8
1
62
256
6
ByLayer
370
18
48
1
60
0
100
AcDbSpline
70
4
71
1
72
4
73
2
40
0
40
0
40
1
40
1
41
1
10
22.325
20
-5.62525968112204
30
0
41
1
10
22.3932844287691
20
-5.62436876146134
30
0
0
SPLINE
5
1FC
100
AcDbEntity
8
1
62
256
6
ByLayer
370
18
48
1
60
0
100
AcDbSpline
70
4
71
3
72
18
73
14
40
0
40
0
40
0
40
0
40
0.0395444285598985
40
0.678020344594274
40
0.738430857537365
40
0.80171063476578
40
0.823803287788661
40
0.846100958306344
40
0.862570653676367
40
0.879008358521808
40
0.905141278319556
40
0.957073783464324
40
1
40
1
40
1
40
1
41
1
10
22.5550271483702
20
6.72406232064983
30
0
41
1
10
22.5531408360755
20
6.7167801463649
30
0
41
1
10
22.5224764805866
20
6.59213363403731
30
0
41
1
10
22.555777472251
20
6.45008558681408
30
0
41
1
10
22.58352979887
20
6.31927294274517
30
0
41
1
10
22.5920100132804
20
6.29578980216855
30
0
41
1
10
22.6016433298104
20
6.28248486296172
30
0
41
1
10
22.6087166987425
20
6.2775993517703
30
0
41
1
10
22.6161674973704
20
6.27717104100137
30
0
41
1
10
22.6241050747436
20
6.28055530270316
30
0
41
1
10
22.6354180467896
20
6.29130243275528
30
0
41
1
10
22.6466583833232
20
6.31014202751951
30
0
41
1
10
22.6542184638664
20
6.32565238044527
30
0
41
1
10
22.65725
20
6.33311978885514
30
0
0
SPLINE
5
1FD
100
AcDbEntity
8
1
62
256
6
ByLayer
370
18
48
1
60
0
100
AcDbSpline
70
4
71
3
72
13
73
9
40
0
40
0
40
0
40
0
40
0.0811644644507602
40
0.17729749501381
40
0.433856160876414
40
0.690627755606933
40
0.946967123455691
40
1
40
1
40
1
40
1
41
1
10
22.5550227561859
20
13.2377482372671
30
0
41
1
10
22.5566853546272
20
13.0629443615113
30
0
41
1
10
22.5634328270209
20
12.6803535592384
30
0
41
1
10
22.6155816145738
20
11.7386196864293
30
0
41
1
10
22.6375440899977
20
10.4124671722145
30
0
41
1
10
22.6127746828132
20
8.73611925428745
30
0
41
1
10
22.5659576767686
20
7.50477944647062
30
0
41
1
10
22.5565123885583
20
6.83821624320637
30
0
41
1
10
22.5550271483702
20
6.72406232064983
30
0
0
SPLINE
5
1FE
100
AcDbEntity
8
1
62
256
6
ByLayer
370
18
48
1
60
0
100
AcDbSpline
70
4
71
1
72
4
73
2
40
0
40
0
40
1
40
1
41
1
10
22.3932844287691
20
-5.62436876146134
30
0
41
1
10
22.5708777305832
20
-5.63083393934903
30
0
0
SPLINE
5
1FF
100
AcDbEntity
8
1
62
256
6
ByLayer
370
18
48
1
60
0
100
AcDbSpline
70
4
71
1
72
4
73
2
40
0
40
0
40
1
40
1
41
1
10
22.7386854697778
20
-5.65095342809714
30
0
41
1
10
23.1225947504519
20
-5.77727815291236
30
0
0
SPLINE
5
200
100
AcDbEntity
8
1
62
256
6
ByLayer
370
18
48
1
60
0
100
AcDbSpline
70
4
71
3
72
11
73
7
40
0
40
0
40
0
40
0
40
0.318605865976678
40
0.636895367838586
40
0.963294172206662
40
1
40
1
40
1
40
1
41
1
10
22.6572499999999
20
-5.84123875391029
30
0
41
1
10
22.6366490905679
20
-5.84438349192567
30
0
41
1
10
22.6015949054118
20
-5.85201155628151
30
0
41
1
10
22.5654009138161
20
-5.86824299881362
30
0
41
1
10
22.5554994082892
20
-5.88171566997743
30
0
41
1
10
22.5550018428029
20
-5.88904157039693
30
0
41
1
10
22.5550000570694
20
-5.88978581673129
30
0
0
SPLINE
5
201
100
AcDbEntity
8
1
62
256
6
ByLayer
370
18
48
1
60
0
100
AcDbSpline
70
4
71
3
72
11
73
7
40
0
40
0
40
0
40
0
40
0.310884581402211
40
0.620631791974463
40
0.962177332191103
40
1
40
1
40
1
40
1
41
1
10
22.65725
20
-6.42962417806983
30
0
41
1
10
22.6363849704562
20
-6.4363932210206
30
0
41
1
10
22.6010815716107
20
-6.45218305673615
30
0
41
1
10
22.5653339189673
20
-6.48523282616844
30
0
41
1
10
22.5555122389637
20
-6.51190251842814
30
0
41
1
10
22.5550015473818
20
-6.52674729051441
30
0
41
1
10
22.5550000734813
20
-6.52823268120356
30
0
0
SPLINE
5
202
100
AcDbEntity
8
1
62
256
6
ByLayer
370
18
48
1
60
0
100
AcDbSpline
70
4
71
3
72
10
73
6
40
0
40
0
40
0
40
0
40
0.296142742486019
40
0.681306575403396
40
1
40
1
40
1
40
1
41
1
10
22.65725
20
-7.52687574592679
30
0
41
1
10
22.6358411709051
20
-7.540006554066
30
0
41
1
10
22.5942911390138
20
-7.57327839499459
30
0
41
1
10
22.5618142705329
20
-7.63736271084157
30
0
41
1
10
22.55465755653
20
-7.68368009732685
30
0
41
1
10
22.5550008595723
20
-7.7056162245068
30
0
0
SPLINE
5
203
100
AcDbEntity
8
1
62
256
6
ByLayer
370
18
48
1
60
0
100
AcDbSpline
70
4
71
2
72
6
73
3
40
0
40
0
40
0
40
1
40
1
40
1
41
1
10
22.8920455144498
20
-8.05496841825676
30
0
41
1
10
22.6388943259118
20
-8.45963255970396
30
0
41
1
10
22.325
20
-8.87984469213745
30
0
0
SPLINE
5
204
100
AcDbEntity
8
1
62
256
6
ByLayer
370
18
48
1
60
0
100
AcDbSpline
70
4
71
3
72
12
73
8
40
0
40
0
40
0
40
0
40
0.136147385055763
40
0.271427656703846
40
0.482920781694642
40
0.776407665800119
40
1
40
1
40
1
40
1
41
1
10
11.8
20
-8.87984469213745
30
0
41
1
10
11.7288307758275
20
-8.88185687142873
30
0
41
1
10
11.5957778320896
20
-8.90359694186809
30
0
41
1
10
11.3855989738205
20
-9.01670187334744
30
0
41
1
10
11.1762557008895
20
-9.23394865490181
30
0
41
1
10
11.032692267065
20
-9.54352171892383
30
0
41
1
10
11.0007899294419
20
-9.77877242633387
30
0
41
1
10
10.9999999999996
20
-9.88542016039094
30
0
0
SPLINE
5
205
100
AcDbEntity
8
1
62
256
6
ByLayer
370
18
48
1
60
0
100
AcDbSpline
70
4
71
3
72
10
73
6
40
0
40
0
40
0
40
0
40
0.0604223718560513
40
0.911083938638677
40
1
40
1
40
1
40
1
41
1
10
22.5708777305832
20
-5.63083393934903
30
0
41
1
10
22.5702493213385
20
-5.63089959929506
30
0
41
1
10
22.5610587843202
20
-5.63190100677529
30
0
41
1
10
22.5554552196528
20
-5.63323039261865
30
0
41
1
10
22.5550018509749
20
-5.63461740712507
30
0
41
1
10
22.5550000510538
20
-5.6347502637559
30
0
0
SPLINE
5
206
100
AcDbEntity
8
1
62
256
6
ByLayer
370
18
48
1
60
0
100
AcDbSpline
70
4
71
3
72
13
73
9
40
0
40
0
40
0
40
0
40
0.165305649209603
40
0.38361004011453
40
0.535218095853858
40
0.688085613270374
40
0.817901141127828
40
1
40
1
40
1
40
1
41
1
10
0.445257025510225
20
-16.183075191577
30
0
41
1
10
0.445594572318664
20
-16.1938951611141
30
0
41
1
10
0.444226436118113
20
-16.2170847306661
30
0
41
1
10
0.436968735192041
20
-16.2458197446112
30
0
41
1
10
0.420642377673866
20
-16.2637386778436
30
0
41
1
10
0.399636444006102
20
-16.2670293674101
30
0
41
1
10
0.372524483323479
20
-16.2568971951934
30
0
41
1
10
0.354282938674897
20
-16.2442179406862
30
0
41
1
10
0.343278579257506
20
-16.2343878973864
30
0
0
SPLINE
5
207
100
AcDbEntity
8
1
62
256
6
ByLayer
370
18
48
1
60
0
100
AcDbSpline
70
4
71
3
72
14
73
10
40
0
40
0
40
0
40
0
40
0.287575987663577
40
0.590056088270689
40
0.679730591795413
40
0.750554707112488
40
0.821712627410263
40
0.90219284863084
40
1
40
1
40
1
40
1
41
1
10
22.55503138987
20
1.83160602677739
30
0
41
1
10
22.5537504693084
20
1.80274150389197
30
0
41
1
10
22.5572339092614
20
1.74827528017315
30
0
41
1
10
22.5677135073825
20
1.68614308568197
30
0
41
1
10
22.5884366442061
20
1.658307857314
30
0
41
1
10
22.6028706344902
20
1.65120877241601
30
0
41
1
10
22.6194721938048
20
1.65286077652302
30
0
41
1
10
22.6384375501601
20
1.66419082283112
30
0
41
1
10
22.6507361206752
20
1.67570078629292
30
0
41
1
10
22.6572499999926
20
1.68346803662715
30
0
0
SPLINE
5
208
100
AcDbEntity
8
1
62
256
6
ByLayer
370
18
48
1
60
0
100
AcDbSpline
70
4
71
3
72
13
73
9
40
0
40
0
40
0
40
0
40
0.196020228568125
40
0.375956904446735
40
0.557471701232784
40
0.718480508426025
40
0.865485279706036
40
1
40
1
40
1
40
1
41
1
10
0.44526483921638
20
-17.7741900183719
30
0
41
1
10
0.445681363939021
20
-17.7857132740282
30
0
41
1
10
0.443778010348698
20
-17.8051911808288
30
0
41
1
10
0.434530434422314
20
-17.8288106972999
30
0
41
1
10
0.416567598346541
20
-17.8400879567323
30
0
41
1
10
0.392050763205961
20
-17.8367410913852
30
0
41
1
10
0.366953974110734
20
-17.8235196876869
30
0
41
1
10
0.35102058827418
20
-17.8117790779868
30
0
41
1
10
0.343278579257506
20
-17.8052054988335
30
0
0
SPLINE
5
209
100
AcDbEntity
8
1
62
256
6
ByLayer
370
18
48
1
60
0
100
AcDbSpline
70
4
71
3
72
14
73
10
40
0
40
0
40
0
40
0
40
0.134830546589835
40
0.432278571174971
40
0.556416845271859
40
0.681679785607197
40
0.793859150360405
40
0.921826329766431
40
1
40
1
40
1
40
1
41
1
10
22.5550113605066
20
-0.887208714976278
30
0
41
1
10
22.5547949108314
20
-0.897521353889716
30
0
41
1
10
22.5559178576365
20
-0.929116645489205
30
0
41
1
10
22.5620182688931
20
-0.967838796523699
30
0
41
1
10
22.5791607607492
20
-0.99436158486974
30
0
41
1
10
22.596635088183
20
-1.00325990897651
30
0
41
1
10
22.6191577663937
20
-0.999752268205384
30
0
41
1
10
22.6398120865084
20
-0.987154565654785
30
0
41
1
10
22.6524780516361
20
-0.97649384030146
30
0
41
1
10
22.65725
20
-0.971936807712702
30
0
0
SPLINE
5
20A
100
AcDbEntity
8
1
62
256
6
ByLayer
370
18
48
1
60
0
100
AcDbSpline
70
4
71
1
72
4
73
2
40
0
40
0
40
1
40
1
41
1
10
22.325
20
21.3897484134854
30
0
41
1
10
23.325
20
20.6704691106992
30
0
0
SPLINE
5
20B
100
AcDbEntity
8
1
62
256
6
ByLayer
370
18
48
1
60
0
100
AcDbSpline
70
4
71
3
72
18
73
14
40
0
40
0
40
0
40
0
40
0.0900943790933753
40
0.180662468561208
40
0.272709832279922
40
0.365265396237649
40
0.468530583444298
40
0.572518584374838
40
0.678791156825474
40
0.785855024506266
40
0.888601844474259
40
0.992064592645285
40
1
40
1
40
1
40
1
41
1
10
13.2480638590084
20
23.9132839848901
30
0
41
1
10
13.2909095520909
20
24.2587561090525
30
0
41
1
10
13.3731929944271
20
24.9255829249196
30
0
41
1
10
13.4865130188096
20
25.8560375839625
30
0
41
1
10
13.5894136309178
20
26.7099815267751
30
0
41
1
10
13.684755822591
20
27.5090395481415
30
0
41
1
10
13.7702324970762
20
28.2319302245885
30
0
41
1
10
13.8440724090161
20
28.8614025486284
30
0
41
1
10
13.9026422189692
20
29.3639491193995
30
0
41
1
10
13.9444785818573
20
29.7246907437179
30
0
41
1
10
13.9697386430561
20
29.9431957595609
30
0
41
1
10
13.9760751302917
20
29.9980987172636
30
0
41
1
10
13.9762946468997
20
29.9999992990425
30
0
41
1
10
13.9762947488878
20
30.0000002938659
30
0
0
SPLINE
5
20C
100
AcDbEntity
8
1
62
256
6
ByLayer
370
18
48
1
60
0
100
AcDbSpline
70
4
71
3
72
12
73
8
40
0
40
0
40
0
40
0
40
0.0814684080197948
40
0.282954387161666
40
0.49649480003251
40
0.831758491132755
40
1
40
1
40
1
40
1
41
1
10
22.555
20
29.77
30
0
41
1
10
22.5550155823288
20
29.7699841495472
30
0
41
1
10
22.5560773939437
20
29.7689115960186
30
0
41
1
10
22.5647606372549
20
29.7601387505968
30
0
41
1
10
22.589381414209
20
29.7352841727275
30
0
41
1
10
22.6226281000259
20
29.701772156945
30
0
41
1
10
22.6482548234641
20
29.6759963201806
30
0
41
1
10
22.6572500000053
20
29.6669526077321
30
0
0
SPLINE
5
20D
100
AcDbEntity
8
1
62
256
6
ByLayer
370
18
48
1
60
0
100
AcDbSpline
70
4
71
1
72
4
73
2
40
0
40
0
40
1
40
1
41
1
10
22.65725
20
29.6669526077377
30
0
41
1
10
23.325
20
28.991667907708
30
0
0
SPLINE
5
20E
100
AcDbEntity
8
1
62
256
6
ByLayer
370
18
48
1
60
0
100
AcDbSpline
70
4
71
1
72
4
73
2
40
0
40
0
40
1
40
1
41
1
10
23.325
20
28.9768631082337
30
0
41
1
10
22.65725
20
29.6232090000648
30
0
0
SPLINE
5
20F
100
AcDbEntity
8
1
62
256
6
ByLayer
370
18
48
1
60
0
100
AcDbSpline
70
4
71
3
72
10
73
6
40
0
40
0
40
0
40
0
40
0.420813233720227
40
0.709275987469691
40
1
40
1
40
1
40
1
41
1
10
22.65725
20
29.6232090000647
30
0
41
1
10
22.6365075872115
20
29.6432655346522
30
0
41
1
10
22.6062474110389
20
29.6718183371001
30
0
41
1
10
22.5706459373646
20
29.7037065058532
30
0
41
1
10
22.5600879474978
20
29.7114894215747
30
0
41
1
10
22.5567604321173
20
29.7132672240648
30
0
0
SPLINE
5
210
100
AcDbEntity
8
1
62
256
6
ByLayer
370
18
48
1
60
0
100
AcDbSpline
70
4
71
1
72
4
73
2
40
0
40
0
40
1
40
1
41
1
10
22.65725
20
29.5961148774388
30
0
41
1
10
23.325
20
28.8877094006841
30
0
0
SPLINE
5
211
100
AcDbEntity
8
1
62
256
6
ByLayer
370
18
48
1
60
0
100
AcDbSpline
70
4
71
1
72
4
73
2
40
0
40
0
40
1
40
1
41
1
10
23.325
20
28.8430150703283
30
0
41
1
10
22.65725
20
29.4641115400997
30
0
0
SPLINE
5
212
100
AcDbEntity
8
1
62
256
6
ByLayer
370
18
48
1
60
0
100
AcDbSpline
70
4
71
3
72
11
73
7
40
0
40
0
40
0
40
0
40
0.304632312554647
40
0.566084194491775
40
0.78488009866821
40
1
40
1
40
1
40
1
41
1
10
22.65725
20
29.4641115400997
30
0
41
1
10
22.64055915088
20
29.4796684885192
30
0
41
1
10
22.6125581444716
20
29.5047063539096
30
0
41
1
10
22.578899199237
20
29.5321569777169
30
0
41
1
10
22.5591532285323
20
29.5445727998412
30
0
41
1
10
22.5551545306367
20
29.5435466217527
30
0
41
1
10
22.555000003065
20
29.5410513391963
30
0
0
SPLINE
5
213
100
AcDbEntity
8
1
62
256
6
ByLayer
370
18
48
1
60
0
100
AcDbSpline
70
4
71
1
72
4
73
2
40
0
40
0
40
1
40
1
41
1
10
22.65725
20
29.4094413032564
30
0
41
1
10
23.325
20
28.6630030512968
30
0
0
SPLINE
5
214
100
AcDbEntity
8
1
62
256
6
ByLayer
370
18
48
1
60
0
100
AcDbSpline
70
4
71
1
72
4
73
2
40
0
40
0
40
1
40
1
41
1
10
23.325
20
28.587552298584
30
0
41
1
10
22.65725
20
29.1867908893245
30
0
0
SPLINE
5
215
100
AcDbEntity
8
1
62
256
6
ByLayer
370
18
48
1
60
0
100
AcDbSpline
70
4
71
3
72
12
73
8
40
0
40
0
40
0
40
0
40
0.282977018566803
40
0.536553999364182
40
0.75083709427228
40
0.965613435476432
40
1
40
1
40
1
40
1
41
1
10
22.65725
20
29.1867908893245
30
0
41
1
10
22.6417601865223
20
29.2007697381244
30
0
41
1
10
22.6149432252081
20
29.2235385350738
30
0
41
1
10
22.5816920393331
20
29.248055497566
30
0
41
1
10
22.561024500697
20
29.2581756177889
30
0
41
1
10
22.5553403703913
20
29.2556494640045
30
0
41
1
10
22.5549967319752
20
29.2516310044636
30
0
41
1
10
22.5550000301275
20
29.2510233429179
30
0
0
SPLINE
5
216
100
AcDbEntity
8
1
62
256
6
ByLayer
370
18
48
1
60
0
100
AcDbSpline
70
4
71
1
72
4
73
2
40
0
40
0
40
1
40
1
41
1
10
22.65725
20
29.1035364558329
30
0
41
1
10
23.325
20
28.3131045806204
30
0
0
SPLINE
5
217
100
AcDbEntity
8
1
62
256
6
ByLayer
370
18
48
1
60
0
100
AcDbSpline
70
4
71
1
72
4
73
2
40
0
40
0
40
1
40
1
41
1
10
23.325
20
28.2053559142514
30
0
41
1
10
22.65725
20
28.786012115824
30
0
0
SPLINE
5
218
100
AcDbEntity
8
1
62
256
6
ByLayer
370
18
48
1
60
0
100
AcDbSpline
70
4
71
3
72
12
73
8
40
0
40
0
40
0
40
0
40
0.261192139426407
40
0.505956728872202
40
0.752535483089813
40
0.961563574781942
40
1
40
1
40
1
40
1
41
1
10
22.6572500000001
20
28.786012115824
30
0
41
1
10
22.6429543326599
20
28.7985553899809
30
0
41
1
10
22.6173800619525
20
28.8192714267596
30
0
41
1
10
22.5830043808133
20
28.8423427456428
30
0
41
1
10
22.5610850041166
20
28.8496710722452
30
0
41
1
10
22.555355221632
20
28.8437531907418
30
0
41
1
10
22.5549941038384
20
28.8383826837502
30
0
41
1
10
22.5550000751142
20
28.8374837408244
30
0
0
SPLINE
5
219
100
AcDbEntity
8
1
62
256
6
ByLayer
370
18
48
1
60
0
100
AcDbSpline
70
4
71
1
72
4
73
2
40
0
40
0
40
1
40
1
41
1
10
22.65725
20
28.6725412982303
30
0
41
1
10
23.325
20
27.8306454136905
30
0
0
SPLINE
5
21A
100
AcDbEntity
8
1
62
256
6
ByLayer
370
18
48
1
60
0
100
AcDbSpline
70
4
71
1
72
4
73
2
40
0
40
0
40
1
40
1
41
1
10
23.325
20
27.6882126704918
30
0
41
1
10
22.65725
20
28.2536450551967
30
0
0
SPLINE
5
21B
100
AcDbEntity
8
1
62
256
6
ByLayer
370
18
48
1
60
0
100
AcDbSpline
70
4
71
3
72
12
73
8
40
0
40
0
40
0
40
0
40
0.238383637776416
40
0.472578322840785
40
0.708422830413753
40
0.909970655360743
40
1
40
1
40
1
40
1
41
1
10
22.6572500000001
20
28.2536450551967
30
0
41
1
10
22.6441543531436
20
28.264869634683
30
0
41
1
10
22.6199087682258
20
28.2837252912934
30
0
41
1
10
22.5864113181658
20
28.3043177379196
30
0
41
1
10
22.5637443853065
20
28.3097189328798
30
0
41
1
10
22.5559008892812
20
28.3020816888986
30
0
41
1
10
22.5549576928675
20
28.2945959471497
30
0
41
1
10
22.5550007247029
20
28.2919300405605
30
0
0
SPLINE
5
21C
100
AcDbEntity
8
1
62
256
6
ByLayer
370
18
48
1
60
0
100
AcDbSpline
70
4
71
1
72
4
73
2
40
0
40
0
40
1
40
1
41
1
10
22.65725
20
28.1075258373112
30
0
41
1
10
23.325
20
27.204477102103
30
0
0
SPLINE
5
21D
100
AcDbEntity
8
1
62
256
6
ByLayer
370
18
48
1
60
0
100
AcDbSpline
70
4
71
1
72
4
73
2
40
0
40
0
40
1
40
1
41
1
10
23.325
20
27.0238289168013
30
0
41
1
10
22.65725
20
27.57773774939
30
0
0
SPLINE
5
21E
100
AcDbEntity
8
1
62
256
6
ByLayer
370
18
48
1
60
0
100
AcDbSpline
70
4
71
3
72
12
73
8
40
0
40
0
40
0
40
0
40
0.215086515550371
40
0.43743863671434
40
0.661293538621299
40
0.853843971396756
40
1
40
1
40
1
40
1
41
1
10
22.6572500000002
20
27.5777377493899
30
0
41
1
10
22.6453736783046
20
27.5877389163178
30
0
41
1
10
22.6225620498111
20
27.6048994976594
30
0
41
1
10
22.5901473186544
20
27.6233332368948
30
0
41
1
10
22.5668886808846
20
27.6271121694884
30
0
41
1
10
22.5565917268992
20
27.6176023962012
30
0
41
1
10
22.5548739549844
20
27.607528238927
30
0
41
1
10
22.5550014723199
20
27.6022405721771
30
0
0
SPLINE
5
21F
100
AcDbEntity
8
1
62
256
6
ByLayer
370
18
48
1
60
0
100
AcDbSpline
70
4
71
1
72
4
73
2
40
0
40
0
40
1
40
1
41
1
10
22.6572499999999
20
27.3954357623967
30
0
41
1
10
23.325
20
26.4181652094505
30
0
0
SPLINE
5
220
100
AcDbEntity
8
1
62
256
6
ByLayer
370
18
48
1
60
0
100
AcDbSpline
70
4
71
1
72
4
73
2
40
0
40
0
40
1
40
1
41
1
10
23.325
20
26.1940925803361
30
0
41
1
10
22.65725
20
26.7409130865539
30
0
0
SPLINE
5
221
100
AcDbEntity
8
1
62
256
6
ByLayer
370
18
48
1
60
0
100
AcDbSpline
70
4
71
3
72
12
73
8
40
0
40
0
40
0
40
0
40
0.191366235578466
40
0.400705424394798
40
0.611426159911837
40
0.793354321085381
40
1
40
1
40
1
40
1
41
1
10
22.6572500000004
20
26.7409130865538
30
0
41
1
10
22.6466275037214
20
26.7497667997621
30
0
41
1
10
22.625380799525
20
26.7653795144078
30
0
41
1
10
22.5942885059191
20
26.7819777186297
30
0
41
1
10
22.5706244387888
20
26.7844723098295
30
0
41
1
10
22.5574676763648
20
26.772957705561
30
0
41
1
10
22.5547351116933
20
26.7597810462402
30
0
41
1
10
22.5550007259367
20
26.7508635079356
30
0
0
SPLINE
5
222
100
AcDbEntity
8
1
62
256
6
ByLayer
370
18
48
1
60
0
100
AcDbSpline
70
4
71
1
72
4
73
2
40
0
40
0
40
1
40
1
41
1
10
22.6572499999999
20
26.5172600263618
30
0
41
1
10
23.325
20
25.4472737184539
30
0
0
SPLINE
5
223
100
AcDbEntity
8
1
62
256
6
ByLayer
370
18
48
1
60
0
100
AcDbSpline
70
4
71
1
72
4
73
2
40
0
40
0
40
1
40
1
41
1
10
23.325
20
25.1718989586826
30
0
41
1
10
22.65725
20
25.7174895437145
30
0
0
SPLINE
5
224
100
AcDbEntity
8
1
62
256
6
ByLayer
370
18
48
1
60
0
100
AcDbSpline
70
4
71
3
72
13
73
9
40
0
40
0
40
0
40
0
40
0.166242911183142
40
0.360375890725254
40
0.555799720089317
40
0.72431620840737
40
0.963610848020781
40
1
40
1
40
1
40
1
41
1
10
22.6572500000008
20
25.7174895437142
30
0
41
1
10
22.6479342698615
20
25.7252528119712
30
0
41
1
10
22.6284189107909
20
25.739446680958
30
0
41
1
10
22.5989237905551
20
25.7545791493184
30
0
41
1
10
22.5751306936176
20
25.756077901086
30
0
41
1
10
22.5592494718837
20
25.7435020486445
30
0
41
1
10
22.5552571480978
20
25.7256644826509
30
0
41
1
10
22.5549890850926
20
25.712940665717
30
0
41
1
10
22.5550004727641
20
25.7112166191105
30
0
0
SPLINE
5
225
100
AcDbEntity
8
1
62
256
6
ByLayer
370
18
48
1
60
0
100
AcDbSpline
70
4
71
1
72
4
73
2
40
0
40
0
40
1
40
1
41
1
10
22.6572499999999
20
25.4446939818576
30
0
41
1
10
23.325
20
24.2541356041277
30
0
0
SPLINE
5
226
100
AcDbEntity
8
1
62
256
6
ByLayer
370
18
48
1
60
0
100
AcDbSpline
70
4
71
1
72
4
73
2
40
0
40
0
40
1
40
1
41
1
10
23.325
20
23.9148985452446
30
0
41
1
10
22.65725
20
24.4679225924801
30
0
0
SPLINE
5
227
100
AcDbEntity
8
1
62
256
6
ByLayer
370
18
48
1
60
0
100
AcDbSpline
70
4
71
3
72
13
73
9
40
0
40
0
40
0
40
0
40
0.138853390640408
40
0.341511995921853
40
0.51849475997362
40
0.669260172089051
40
0.905494557461793
40
1
40
1
40
1
40
1
41
1
10
22.6572500000017
20
24.4679225924795
30
0
41
1
10
22.6493036017301
20
24.4746550714136
30
0
41
1
10
22.6302552743804
20
24.4886415791471
30
0
41
1
10
22.6010940594097
20
24.5028441627021
30
0
41
1
10
22.5773805613633
20
24.5015211440536
30
0
41
1
10
22.561214372378
20
24.4866340293345
30
0
41
1
10
22.5556911514299
20
24.4645423845891
30
0
41
1
10
22.5549158503974
20
24.4472215794256
30
0
41
1
10
22.5550034124628
20
24.4419827618974
30
0
0
SPLINE
5
228
100
AcDbEntity
8
1
62
256
6
ByLayer
370
18
48
1
60
0
100
AcDbSpline
70
4
71
1
72
4
73
2
40
0
40
0
40
1
40
1
41
1
10
22.6572499999999
20
24.1335510614993
30
0
41
1
10
23.325
20
22.7766387719495
30
0
0
SPLINE
5
229
100
AcDbEntity
8
1
62
256
6
ByLayer
370
18
48
1
60
0
100
AcDbSpline
70
4
71
1
72
4
73
2
40
0
40
0
40
1
40
1
41
1
10
23.325
20
22.3516106251948
30
0
41
1
10
22.65725
20
22.9267973886503
30
0
0
SPLINE
5
22A
100
AcDbEntity
8
1
62
256
6
ByLayer
370
18
48
1
60
0
100
AcDbSpline
70
4
71
3
72
13
73
9
40
0
40
0
40
0
40
0
40
0.110242213151884
40
0.28255727552975
40
0.412606166269297
40
0.542428032766089
40
0.733732087688892
40
1
40
1
40
1
40
1
41
1
10
22.6572500000038
20
22.9267973886487
30
0
41
1
10
22.6508030502412
20
22.9324740321065
30
0
41
1
10
22.6344606704169
20
22.9449728016786
30
0
41
1
10
22.6097690491833
20
22.9576961890999
30
0
41
1
10
22.5874370630474
20
22.9584727781846
30
0
41
1
10
22.5699857169609
20
22.9480918057826
30
0
41
1
10
22.5575009139424
20
22.9211431497263
30
0
41
1
10
22.554230160885
20
22.8950860188414
30
0
41
1
10
22.5550024252984
20
22.8772250208738
30
0
0
SPLINE
5
22B
100
AcDbEntity
8
1
62
256
6
ByLayer
370
18
48
1
60
0
100
AcDbSpline
70
4
71
1
72
4
73
2
40
0
40
0
40
1
40
1
41
1
10
22.6572499999999
20
22.5090350955934
30
0
41
1
10
23.325
20
20.899752969536
30
0
0
SPLINE
5
22C
100
AcDbEntity
8
1
62
256
6
ByLayer
370
18
48
1
60
0
100
AcDbSpline
70
4
71
3
72
13
73
9
40
0
40
0
40
0
40
0
40
0.163519491151271
40
0.353186728136876
40
0.544377698683429
40
0.712719371535326
40
0.915399110107206
40
1
40
1
40
1
40
1
41
1
10
0.445268084177938
20
-19.1164456592964
30
0
41
1
10
0.445544372907525
20
-19.124977175027
30
0
41
1
10
0.443964878238868
20
-19.1412250894798
30
0
41
1
10
0.435316405704713
20
-19.160996582628
30
0
41
1
10
0.41662067396051
20
-19.1690320031699
30
0
41
1
10
0.389326268672153
20
-19.1626039554325
30
0
41
1
10
0.363905985370832
20
-19.1471785539164
30
0
41
1
10
0.348010637846101
20
-19.1349216818695
30
0
41
1
10
0.34327857924403
20
-19.1310045556532
30
0
0
SPLINE
5
22D
100
AcDbEntity
8
1
62
256
6
ByLayer
370
18
48
1
60
0
100
AcDbSpline
70
4
71
3
72
12
73
8
40
0
40
0
40
0
40
0
40
0.0979770994024887
40
0.417761348084493
40
0.739992192872061
40
0.956420333148084
40
1
40
1
40
1
40
1
41
1
10
22.5550024025219
20
-2.87723051658865
30
0
41
1
10
22.5549694218776
20
-2.88114455028816
30
0
41
1
10
22.5552914633422
20
-2.89747134314104
30
0
41
1
10
22.5586058805539
20
-2.92456314953185
30
0
41
1
10
22.5704283227143
20
-2.94900370630715
30
0
41
1
10
22.5851308500774
20
-2.95680379660469
30
0
41
1
10
22.5929323322924
20
-2.95762985583139
30
0
41
1
10
22.5942772647586
20
-2.95770342968759
30
0
0
SPLINE
5
22E
100
AcDbEntity
8
1
62
256
6
ByLayer
370
18
48
1
60
0
100
AcDbSpline
70
4
71
3
72
10
73
6
40
0
40
0
40
0
40
0
40
0.296083748072322
40
0.646553452433713
40
1
40
1
40
1
40
1
41
1
10
22.5942772647586
20
-2.95770342968759
30
0
41
1
10
22.5998417113175
20
-2.95785074718485
30
0
41
1
10
22.6124298742757
20
-2.95608305997823
30
0
41
1
10
22.6344534424181
20
-2.94485774792136
30
0
41
1
10
22.6495644549838
20
-2.93357622746184
30
0
41
1
10
22.65725
20
-2.9267973886504
30
0
0
SPLINE
5
22F
100
AcDbEntity
8
1
62
256
6
ByLayer
370
18
48
1
60
0
100
AcDbSpline
70
4
71
3
72
10
73
6
40
0
40
0
40
0
40
0
40
0.0340274245099922
40
0.415044787858759
40
1
40
1
40
1
40
1
41
1
10
22.5550024252984
20
22.8772250208738
30
0
41
1
10
22.5550369006514
20
22.8735391069519
30
0
41
1
10
22.55598463012
20
22.8283224309488
30
0
41
1
10
22.5808968856401
20
22.7052962332345
30
0
41
1
10
22.6223220508464
20
22.585293665942
30
0
41
1
10
22.6572499999999
20
22.5090350955934
30
0
0
SPLINE
5
230
100
AcDbEntity
8
1
62
256
6
ByLayer
370
18
48
1
60
0
100
AcDbSpline
70
4
71
3
72
13
73
9
40
0
40
0
40
0
40
0
40
0.0916500542989816
40
0.300648850583142
40
0.511385635812458
40
0.690680707648447
40
0.91276779355092
40
1
40
1
40
1
40
1
41
1
10
0.445276475974311
20
-20.260249127219
30
0
41
1
10
0.445346698858008
20
-20.2643979719474
30
0
41
1
10
0.444544279025239
20
-20.2769824342413
30
0
41
1
10
0.438247046315976
20
-20.2942565798756
30
0
41
1
10
0.419493157615745
20
-20.3013933181714
30
0
41
1
10
0.391221724914198
20
-20.2933977760867
30
0
41
1
10
0.364805588123895
20
-20.276858366391
30
0
41
1
10
0.348063406577748
20
-20.26388361593
30
0
41
1
10
0.343278579249556
20
-20.259943922957
30
0
0
SPLINE
5
231
100
AcDbEntity
8
1
62
256
6
ByLayer
370
18
48
1
60
0
100
AcDbSpline
70
4
71
1
72
4
73
2
40
0
40
0
40
1
40
1
41
1
10
0.445278371960975
20
20.2606984612352
30
0
41
1
10
0.674999999999996
20
20.4255582940482
30
0
0
SPLINE
5
232
100
AcDbEntity
8
1
62
256
6
ByLayer
370
18
48
1
60
0
100
AcDbSpline
70
4
71
3
72
13
73
9
40
0
40
0
40
0
40
0
40
0.176801118506175
40
0.377648971814723
40
0.579817622626007
40
0.75446337779172
40
0.998607712697731
40
1
40
1
40
1
40
1
41
1
10
0.343278579257505
20
20.2599439229594
30
0
41
1
10
0.35310585060067
20
20.2681217800322
30
0
41
1
10
0.373294214711389
20
20.2828362075241
30
0
41
1
10
0.403406374678285
20
20.2984852689819
30
0
41
1
10
0.42711102451835
20
20.3003014642884
30
0
41
1
10
0.442304566772569
20
20.2879277466572
30
0
41
1
10
0.445289870166652
20
20.2716060055291
30
0
41
1
10
0.445278504785714
20
20.2607600268652
30
0
41
1
10
0.445278371960975
20
20.2606984612352
30
0
0
SPLINE
5
233
100
AcDbEntity
8
1
62
256
6
ByLayer
370
18
48
1
60
0
100
AcDbSpline
70
4
71
1
72
4
73
2
40
0
40
0
40
1
40
1
41
1
10
-0.324999999999985
20
19.7142675174606
30
0
41
1
10
0.343278579257505
20
20.2599439229594
30
0
0
SPLINE
5
234
100
AcDbEntity
8
1
62
256
6
ByLayer
370
18
48
1
60
0
100
AcDbSpline
70
4
71
1
72
4
73
2
40
0
40
0
40
1
40
1
41
1
10
-0.324999999999985
20
19.969410200354
30
0
41
1
10
0.343278579257506
20
21.0101211779792
30
0
0
SPLINE
5
235
100
AcDbEntity
8
1
62
256
6
ByLayer
370
18
48
1
60
0
100
AcDbSpline
70
4
71
3
72
12
73
8
40
0
40
0
40
0
40
0
40
0.196202412068205
40
0.408328217319545
40
0.621853515549834
40
0.806214239857979
40
1
40
1
40
1
40
1
41
1
10
0.34327857925712
20
21.2234615511781
30
0
41
1
10
0.354131191025588
20
21.2325188191571
30
0
41
1
10
0.375655670533013
20
21.2483949999233
30
0
41
1
10
0.40696470193066
20
21.2652933822952
30
0
41
1
10
0.430510434144873
20
21.2680123947285
30
0
41
1
10
0.443013975684473
20
21.2569588523083
30
0
41
1
10
0.445509322643785
20
21.2445118517869
30
0
41
1
10
0.445277539408605
20
21.2364672090561
30
0
0
SPLINE
5
236
100
AcDbEntity
8
1
62
256
6
ByLayer
370
18
48
1
60
0
100
AcDbSpline
70
4
71
1
72
4
73
2
40
0
40
0
40
1
40
1
41
1
10
-0.324999999999985
20
20.6752229431753
30
0
41
1
10
0.343278579257505
20
21.2234615511783
30
0
0
SPLINE
5
237
100
AcDbEntity
8
1
62
256
6
ByLayer
370
18
48
1
60
0
100
AcDbSpline
70
4
71
1
72
4
73
2
40
0
40
0
40
1
40
1
41
1
10
-0.324999999999985
20
20.8917410416174
30
0
41
1
10
0.343278579257506
20
21.8621865205767
30
0
0
SPLINE
5
238
100
AcDbEntity
8
1
62
256
6
ByLayer
370
18
48
1
60
0
100
AcDbSpline
70
4
71
3
72
12
73
8
40
0
40
0
40
0
40
0
40
0.215097131903346
40
0.43753876274004
40
0.661479123991385
40
0.854196411604545
40
1
40
1
40
1
40
1
41
1
10
0.343278579257259
20
22.0432600281179
30
0
41
1
10
0.355125654721525
20
22.0532353706881
30
0
41
1
10
0.377884830702779
20
22.0703549707168
30
0
41
1
10
0.410226582514668
20
22.0887411747747
30
0
41
1
10
0.433432725767948
20
22.0925126743849
30
0
41
1
10
0.443694033487927
20
22.0830463961481
30
0
41
1
10
0.445403320709122
20
22.0730245539078
30
0
41
1
10
0.445277115995002
20
22.0677761195289
30
0
0
SPLINE
5
239
100
AcDbEntity
8
1
62
256
6
ByLayer
370
18
48
1
60
0
100
AcDbSpline
70
4
71
1
72
4
73
2
40
0
40
0
40
1
40
1
41
1
10
-0.324999999999985
20
21.4890051828837
30
0
41
1
10
0.343278579257505
20
22.043260028118
30
0
0
SPLINE
5
23A
100
AcDbEntity
8
1
62
256
6
ByLayer
370
18
48
1
60
0
100
AcDbSpline
70
4
71
1
72
4
73
2
40
0
40
0
40
1
40
1
41
1
10
-0.324999999999985
20
21.6714638118887
30
0
41
1
10
0.343278579257506
20
22.5828520565406
30
0
0
SPLINE
5
23B
100
AcDbEntity
8
1
62
256
6
ByLayer
370
18
48
1
60
0
100
AcDbSpline
70
4
71
3
72
12
73
8
40
0
40
0
40
0
40
0
40
0.233721647472626
40
0.4657325428406
40
0.699357850082725
40
0.89939490995103
40
1
40
1
40
1
40
1
41
1
10
0.343278579257346
20
22.7348917991731
30
0
41
1
10
0.356098317011683
20
22.7458333806682
30
0
41
1
10
0.380009219768208
20
22.7642898203059
30
0
41
1
10
0.413231620972243
20
22.7843690812621
30
0
41
1
10
0.435979688978144
20
22.7894077604773
30
0
41
1
10
0.444256998534054
20
22.7814438903974
30
0
41
1
10
0.445332747759026
20
22.7735200221596
30
0
41
1
10
0.445277682782638
20
22.7704273755499
30
0
0
SPLINE
5
23C
100
AcDbEntity
8
1
62
256
6
ByLayer
370
18
48
1
60
0
100
AcDbSpline
70
4
71
1
72
4
73
2
40
0
40
0
40
1
40
1
41
1
10
-0.324999999999985
20
22.1718254492047
30
0
41
1
10
0.343278579257505
20
22.7348917991731
30
0
0
SPLINE
5
23D
100
AcDbEntity
8
1
62
256
6
ByLayer
370
18
48
1
60
0
100
AcDbSpline
70
4
71
1
72
4
73
2
40
0
40
0
40
1
40
1
41
1
10
-0.324999999999985
20
22.3235266871075
30
0
41
1
10
0.343278579257506
20
23.1843743619429
30
0
0
SPLINE
5
23E
100
AcDbEntity
8
1
62
256
6
ByLayer
370
18
48
1
60
0
100
AcDbSpline
70
4
71
3
72
12
73
8
40
0
40
0
40
0
40
0
40
0.252087382283032
40
0.4929101972005
40
0.735475434498741
40
0.941888045856059
40
1
40
1
40
1
40
1
41
1
10
0.3432785792574
20
23.3097682865573
30
0
41
1
10
0.357056958950611
20
23.3217339356588
30
0
41
1
10
0.382049903254206
20
23.3416295499022
30
0
41
1
10
0.416019253136574
20
23.3636050044232
30
0
41
1
10
0.438206643515243
20
23.370108074997
30
0
41
1
10
0.44472184804283
20
23.363552618402
30
0
41
1
10
0.445293197500655
20
23.357425782264
30
0
41
1
10
0.445278388937949
20
23.3559327265862
30
0
0
SPLINE
5
23F
100
AcDbEntity
8
1
62
256
6
ByLayer
370
18
48
1
60
0
100
AcDbSpline
70
4
71
1
72
4
73
2
40
0
40
0
40
1
40
1
41
1
10
-0.324999999999985
20
22.735486441904
30
0
41
1
10
0.343278579257505
20
23.3097682865573
30
0
0
SPLINE
5
240
100
AcDbEntity
8
1
62
256
6
ByLayer
370
18
48
1
60
0
100
AcDbSpline
70
4
71
1
72
4
73
2
40
0
40
0
40
1
40
1
41
1
10
-0.325000000000006
20
22.858857008827
30
0
41
1
10
0.343278579257506
20
23.6758362492612
30
0
0
SPLINE
5
241
100
AcDbEntity
8
1
62
256
6
ByLayer
370
18
48
1
60
0
100
AcDbSpline
70
4
71
3
72
12
73
8
40
0
40
0
40
0
40
0
40
0.269609798553379
40
0.517939739245954
40
0.729076284229289
40
0.940598032910121
40
1
40
1
40
1
40
1
41
1
10
0.343278579257436
20
23.7763598985605
30
0
41
1
10
0.358008553122871
20
23.7894178827801
30
0
41
1
10
0.384023782431315
20
23.8108700425722
30
0
41
1
10
0.416865335772741
20
23.8337072238717
30
0
41
1
10
0.437977869361158
20
23.8425064693543
30
0
41
1
10
0.444665786606489
20
23.8390412568326
30
0
41
1
10
0.445290474570092
20
23.8340285385325
30
0
41
1
10
0.445278445486678
20
23.8327724013688
30
0
0
SPLINE
5
242
100
AcDbEntity
8
1
62
256
6
ByLayer
370
18
48
1
60
0
100
AcDbSpline
70
4
71
1
72
4
73
2
40
0
40
0
40
1
40
1
41
1
10
-0.324999999999985
20
23.1886792152982
30
0
41
1
10
0.343278579257505
20
23.7763598985605
30
0
0
SPLINE
5
243
100
AcDbEntity
8
1
62
256
6
ByLayer
370
18
48
1
60
0
100
AcDbSpline
70
4
71
1
72
4
73
2
40
0
40
0
40
1
40
1
41
1
10
-0.325000000000006
20
23.2855071611077
30
0
41
1
10
0.343278579257506
20
24.0639819990156
30
0
0
SPLINE
5
244
100
AcDbEntity
8
1
62
256
6
ByLayer
370
18
48
1
60
0
100
AcDbSpline
70
4
71
3
72
12
73
8
40
0
40
0
40
0
40
0
40
0.287160533506709
40
0.54251819695037
40
0.757979228410628
40
0.973966664119263
40
1
40
1
40
1
40
1
41
1
10
0.34327857925746
20
24.1409461802714
30
0
41
1
10
0.358959640136881
20
24.155176538153
30
0
41
1
10
0.385948888246497
20
24.1783073752072
30
0
41
1
10
0.419228342422927
20
24.2033052188627
30
0
41
1
10
0.439684650063053
20
24.2138385638606
30
0
41
1
10
0.445025333749959
20
24.211623635342
30
0
41
1
10
0.445280274525234
20
24.2079347203792
30
0
41
1
10
0.44527856583443
20
24.2075075788472
30
0
0
SPLINE
5
245
100
AcDbEntity
8
1
62
256
6
ByLayer
370
18
48
1
60
0
100
AcDbSpline
70
4
71
1
72
4
73
2
40
0
40
0
40
1
40
1
41
1
10
-0.324999999999985
20
23.5377854470212
30
0
41
1
10
0.343278579257505
20
24.1409461802714
30
0
0
SPLINE
5
246
100
AcDbEntity
8
1
62
256
6
ByLayer
370
18
48
1
60
0
100
AcDbSpline
70
4
71
1
72
4
73
2
40
0
40
0
40
1
40
1
41
1
10
-0.325000000000006
20
23.6093698295825
30
0
41
1
10
0.343278579257506
20
24.3537520147526
30
0
0
SPLINE
5
247
100
AcDbEntity
8
1
62
256
6
ByLayer
370
18
48
1
60
0
100
AcDbSpline
70
4
71
3
72
11
73
7
40
0
40
0
40
0
40
0
40
0.304382165027513
40
0.565942570395936
40
0.784912380529065
40
1
40
1
40
1
40
1
41
1
10
0.343278579257475
20
24.4080985521536
30
0
41
1
10
0.359916643147301
20
24.4235950138826
30
0
41
1
10
0.387846972125763
20
24.4485495435581
30
0
41
1
10
0.421433978060047
20
24.4759062743981
30
0
41
1
10
0.44113666144882
20
24.4882738667709
30
0
41
1
10
0.445124931127587
20
24.4872526689582
30
0
41
1
10
0.445278575932537
20
24.4847692349527
30
0
0
SPLINE
5
248
100
AcDbEntity
8
1
62
256
6
ByLayer
370
18
48
1
60
0
100
AcDbSpline
70
4
71
1
72
4
73
2
40
0
40
0
40
1
40
1
41
1
10
-0.324999999999985
20
23.7873883339471
30
0
41
1
10
0.343278579257505
20
24.4080985521537
30
0
0
SPLINE
5
249
100
AcDbEntity
8
1
62
256
6
ByLayer
370
18
48
1
60
0
100
AcDbSpline
70
4
71
1
72
4
73
2
40
0
40
0
40
1
40
1
41
1
10
-0.325000000000006
20
23.8346353811003
30
0
41
1
10
0.343278579257506
20
24.5486302009538
30
0
0
SPLINE
5
24A
100
AcDbEntity
8
1
62
256
6
ByLayer
370
18
48
1
60
0
100
AcDbSpline
70
4
71
3
72
11
73
7
40
0
40
0
40
0
40
0
40
0.374769704452408
40
0.627858245063069
40
0.882866746996439
40
1
40
1
40
1
40
1
41
1
10
0.343278579257484
20
24.5809940275923
30
0
41
1
10
0.364098336328515
20
24.6009597133854
30
0
41
1
10
0.394387021375926
20
24.629139304352
30
0
41
1
10
0.429332344121004
20
24.6595903432533
30
0
41
1
10
0.443374786991798
20
24.6694358855157
30
0
41
1
10
0.445255381728021
20
24.6686913415796
30
0
41
1
10
0.445278513568813
20
24.6678629175233
30
0
0
SPLINE
5
24B
100
AcDbEntity
8
1
62
256
6
ByLayer
370
18
48
1
60
0
100
AcDbSpline
70
4
71
1
72
4
73
2
40
0
40
0
40
1
40
1
41
1
10
-0.324999999999985
20
23.9406003214205
30
0
41
1
10
0.343278579257505
20
24.5809940275923
30
0
0
SPLINE
5
24C
100
AcDbEntity
8
1
62
256
6
ByLayer
370
18
48
1
60
0
100
AcDbSpline
70
4
71
1
72
4
73
2
40
0
40
0
40
1
40
1
41
1
10
-0.325000000000006
20
23.9640844546584
30
0
41
1
10
0.343278579257506
20
24.6508671711625
30
0
0
SPLINE
5
24D
100
AcDbEntity
8
1
62
256
6
ByLayer
370
18
48
1
60
0
100
AcDbSpline
70
4
71
3
72
11
73
7
40
0
40
0
40
0
40
0
40
0.367594476468818
40
0.631278294211581
40
0.852392962795042
40
1
40
1
40
1
40
1
41
1
10
0.343278579257492
20
24.6616151100736
30
0
41
1
10
0.36362849826736
20
24.681729839064
30
0
41
1
10
0.394082624445225
20
24.7115619958558
30
0
41
1
10
0.427807073882152
20
24.7439887847645
30
0
41
1
10
0.442768595221946
20
24.7576341790286
30
0
41
1
10
0.445202339690597
20
24.759205906251
30
0
41
1
10
0.445278546977577
20
24.7589181334602
30
0
0
SPLINE
5
24E
100
AcDbEntity
8
1
62
256
6
ByLayer
370
18
48
1
60
0
100
AcDbSpline
70
4
71
1
72
4
73
2
40
0
40
0
40
1
40
1
41
1
10
-0.324999999999985
20
23.9992675669488
30
0
41
1
10
0.343278579257505
20
24.6616151100737
30
0
0
SPLINE
5
24F
100
AcDbEntity
8
1
62
256
6
ByLayer
370
18
48
1
60
0
100
AcDbSpline
70
4
71
1
72
4
73
2
40
0
40
0
40
1
40
1
41
1
10
12.4309430084393
20
22.1889992134086
30
0
41
1
10
13.2480638590084
20
23.9132839848901
30
0
0
SPLINE
5
250
100
AcDbEntity
8
1
62
256
6
ByLayer
370
18
48
1
60
0
100
AcDbSpline
70
4
71
3
72
11
73
7
40
0
40
0
40
0
40
0
40
0.26115909221649
40
0.52236256265597
40
0.787877993920523
40
1
40
1
40
1
40
1
41
1
10
11.675
20
21.7940973514705
30
0
41
1
10
11.7655992801746
20
21.7948016826817
30
0
41
1
10
11.9359068624907
20
21.815149638886
30
0
41
1
10
12.1713150921883
20
21.9072199449919
30
0
41
1
10
12.3393325012654
20
22.0395639054533
30
0
41
1
10
12.4078027999
20
22.1403871857881
30
0
41
1
10
12.4309430084393
20
22.1889992134086
30
0
0
SPLINE
5
251
100
AcDbEntity
8
1
62
256
6
ByLayer
370
18
48
1
60
0
100
AcDbSpline
70
4
71
3
72
11
73
7
40
0
40
0
40
0
40
0
40
0.482673819424524
40
0.769400537459645
40
0.941486660607212
40
1
40
1
40
1
40
1
41
1
10
11.325
20
17.9193377251052
30
0
41
1
10
11.0859555085827
20
18.1601728881666
30
0
41
1
10
10.7098898080087
20
18.5465571301306
30
0
41
1
10
10.2549925387295
20
19.0215767618524
30
0
41
1
10
10.0121185190266
20
19.2864887065229
30
0
41
1
10
9.91811310962021
20
19.4103402923335
30
0
41
1
10
9.89482905737846
20
19.4420035971362
30
0
0
SPLINE
5
252
100
AcDbEntity
8
1
62
256
6
ByLayer
370
18
48
1
60
0
100
AcDbSpline
70
4
71
3
72
13
73
9
40
0
40
0
40
0
40
0
40
0.10632202095145
40
0.308092026541244
40
0.511861720183853
40
0.68738766981344
40
0.838178876361256
40
1
40
1
40
1
40
1
41
1
10
22.5550034231479
20
-4.44198101996943
30
0
41
1
10
22.5549027484839
20
-4.44788074348429
30
0
41
1
10
22.5557309423002
20
-4.46395285738036
30
0
41
1
10
22.5614492008335
20
-4.48733599954962
30
0
41
1
10
22.5783911047513
20
-4.50284483394633
30
0
41
1
10
22.6034248666647
20
-4.50148916190903
30
0
41
1
10
22.6304778302768
20
-4.48835017570578
30
0
41
1
10
22.6479589039351
20
-4.47580161303446
30
0
41
1
10
22.65725
20
-4.46792259248013
30
0
0
SPLINE
5
253
100
AcDbEntity
8
1
62
256
6
ByLayer
370
18
48
1
60
0
100
AcDbSpline
70
4
71
3
72
10
73
6
40
0
40
0
40
0
40
0
40
0.192958189275722
40
0.662877134872501
40
1
40
1
40
1
40
1
41
1
10
22.5550034124628
20
24.4419827618974
30
0
41
1
10
22.5557753575789
20
24.4247468535211
30
0
41
1
10
22.562247184345
20
24.3638370838714
30
0
41
1
10
22.5990823288147
20
24.2562196219807
30
0
41
1
10
22.6381776614175
20
24.1703207309281
30
0
41
1
10
22.6572499999999
20
24.1335510614993
30
0
0
SPLINE
5
254
100
AcDbEntity
8
1
62
256
6
ByLayer
370
18
48
1
60
0
100
AcDbSpline
70
4
71
1
72
4
73
2
40
0
40
0
40
1
40
1
41
1
10
23.325
20
17.2339709136777
30
0
41
1
10
23.1534809027439
20
17.4113314028732
30
0
0
SPLINE
5
255
100
AcDbEntity
8
1
62
256
6
ByLayer
370
18
48
1
60
0
100
AcDbSpline
70
4
71
3
72
13
73
9
40
0
40
0
40
0
40
0
40
0.0538137759324472
40
0.268662748020452
40
0.485071859807842
40
0.671627408130627
40
0.911006071063329
40
1
40
1
40
1
40
1
41
1
10
0.445277940668249
20
-21.2365522837822
30
0
41
1
10
0.445299504448101
20
-21.2386897697161
30
0
41
1
10
0.444855526347486
20
-21.2488098110627
30
0
41
1
10
0.439719044265888
20
-21.2633890972397
30
0
41
1
10
0.421381265242565
20
-21.2685357543687
30
0
41
1
10
0.392844612281027
20
-21.2589108394763
30
0
41
1
10
0.365624947150919
20
-21.2411944217754
30
0
41
1
10
0.348101006090821
20
-21.2274444353233
30
0
41
1
10
0.34327857925266
20
-21.2234615511768
30
0
0
SPLINE
5
256
100
AcDbEntity
8
1
62
256
6
ByLayer
370
18
48
1
60
0
100
AcDbSpline
70
4
71
3
72
11
73
7
40
0
40
0
40
0
40
0
40
0.0411047278111529
40
0.314418150548267
40
0.753858811433502
40
1
40
1
40
1
40
1
41
1
10
0.445277539408605
20
21.2364672090561
30
0
41
1
10
0.445248422547785
20
21.2342384597498
30
0
41
1
10
0.444478084761886
20
21.2167888703605
30
0
41
1
10
0.429952436150732
20
21.1644957914817
30
0
41
1
10
0.391258604513231
20
21.0870097739266
30
0
41
1
10
0.35685827361945
20
21.0307619800069
30
0
41
1
10
0.34327857926616
20
21.0101211779796
30
0
0
SPLINE
5
257
100
AcDbEntity
8
1
62
256
6
ByLayer
370
18
48
1
60
0
100
AcDbSpline
70
4
71
3
72
10
73
6
40
0
40
0
40
0
40
0
40
0.2305439280529
40
0.670249368460653
40
1
40
1
40
1
40
1
41
1
10
22.5550004727641
20
25.7112166191105
30
0
41
1
10
22.5559738700879
20
25.6941926951023
30
0
41
1
10
22.5633903709974
20
25.6424094026312
30
0
41
1
10
22.6012801347672
20
25.5483980008889
30
0
41
1
10
22.6386775034048
20
25.4764629670545
30
0
41
1
10
22.6572499999999
20
25.4446939818576
30
0
0
SPLINE
5
258
100
AcDbEntity
8
1
62
256
6
ByLayer
370
18
48
1
60
0
100
AcDbSpline
70
4
71
3
72
10
73
6
40
0
40
0
40
0
40
0
40
0.452974066823995
40
0.906202777379436
40
1
40
1
40
1
40
1
41
1
10
22.5642270225965
20
-5.63840660277147
30
0
41
1
10
22.5715191110931
20
-5.63991396749834
30
0
41
1
10
22.5919659584479
20
-5.64269399554454
30
0
41
1
10
22.6296823378237
20
-5.64555015026094
30
0
41
1
10
22.6531195161033
20
-5.64673722500695
30
0
41
1
10
22.65725
20
-5.64693380418049
30
0
0
SPLINE
5
259
100
AcDbEntity
8
1
62
256
6
ByLayer
370
18
48
1
60
0
100
AcDbSpline
70
4
71
3
72
13
73
9
40
0
40
0
40
0
40
0
40
0.061861442496526
40
0.120640314120377
40
0.179194006060379
40
0.318638331565549
40
0.458737144065145
40
1
40
1
40
1
40
1
41
1
10
9.89482905737846
20
19.4420035971362
30
0
41
1
10
9.85977114753844
20
19.4845477230844
30
0
41
1
10
9.81236688139217
20
19.5699055200657
30
0
41
1
10
9.78779075249496
20
19.7112360424567
30
0
41
1
10
9.87980644533089
20
19.90160097934
30
0
41
1
10
10.0647389411273
20
20.1272014158413
30
0
41
1
10
10.5713129961358
20
20.6487986175319
30
0
41
1
10
10.9860363447402
20
21.0841723608066
30
0
41
1
10
11.325
20
21.4255936941365
30
0
0
SPLINE
5
25A
100
AcDbEntity
8
1
62
256
6
ByLayer
370
18
48
1
60
0
100
AcDbSpline
70
4
71
1
72
4
73
2
40
0
40
0
40
1
40
1
41
1
10
22.7386854697778
20
-5.65095342809714
30
0
41
1
10
23.325
20
-5.17189895868257
30
0
0
SPLINE
5
25B
100
AcDbEntity
8
1
62
256
6
ByLayer
370
18
48
1
60
0
100
AcDbSpline
70
4
71
1
72
4
73
2
40
0
40
0
40
1
40
1
41
1
10
23.325
20
-5.44727371845387
30
0
41
1
10
23.1225947504519
20
-5.77727815291236
30
0
0
SPLINE
5
25C
100
AcDbEntity
8
1
62
256
6
ByLayer
370
18
48
1
60
0
100
AcDbSpline
70
4
71
3
72
13
73
9
40
0
40
0
40
0
40
0
40
0.0209725204975415
40
0.238515639508168
40
0.457386435834863
40
0.650071370877423
40
0.904144055328547
40
1
40
1
40
1
40
1
41
1
10
0.445278501363146
20
-22.0680807022805
30
0
41
1
10
0.445281354712258
20
-22.0688059584403
30
0
41
1
10
0.445119113968648
20
-22.0768587980684
30
0
41
1
10
0.441038667595857
20
-22.0890338944338
30
0
41
1
10
0.423425572977939
20
-22.0923202130978
30
0
41
1
10
0.394987555454845
20
-22.0812471118174
30
0
41
1
10
0.366888138230313
20
-22.0622636185319
30
0
41
1
10
0.34842837778865
20
-22.047555096218
30
0
41
1
10
0.343278579252716
20
-22.0432600281165
30
0
0
SPLINE
5
25D
100
AcDbEntity
8
1
62
256
6
ByLayer
370
18
48
1
60
0
100
AcDbSpline
70
4
71
3
72
11
73
7
40
0
40
0
40
0
40
0
40
0.0818298961182479
40
0.362206350748039
40
0.797454092991693
40
1
40
1
40
1
40
1
41
1
10
0.445277115995002
20
22.0677761195289
30
0
41
1
10
0.445178503759378
20
22.0639821427423
30
0
41
1
10
0.443550370384133
20
22.0462943300775
30
0
41
1
10
0.425461899576006
20
21.9952929801047
30
0
41
1
10
0.386713994567186
20
21.9265663726516
30
0
41
1
10
0.354340538384795
20
21.8779366952452
30
0
41
1
10
0.343278579257701
20
21.8621865205767
30
0
0
SPLINE
5
25E
100
AcDbEntity
8
1
62
256
6
ByLayer
370
18
48
1
60
0
100
AcDbSpline
70
4
71
3
72
11
73
7
40
0
40
0
40
0
40
0
40
0.0302362271658719
40
0.300567593954946
40
0.740596753790368
40
1
40
1
40
1
40
1
41
1
10
22.5550007259367
20
26.7508635079356
30
0
41
1
10
22.5550173611352
20
26.7491477519593
30
0
41
1
10
22.5555755686726
20
26.7318046022458
30
0
41
1
10
22.5691492549636
20
26.6789954170122
30
0
41
1
10
22.6078370498724
20
26.5985027415873
30
0
41
1
10
22.6428673966019
20
26.5396035419022
30
0
41
1
10
22.6572499999999
20
26.5172600263618
30
0
0
SPLINE
5
25F
100
AcDbEntity
8
1
62
256
6
ByLayer
370
18
48
1
60
0
100
AcDbSpline
70
4
71
3
72
10
73
6
40
0
40
0
40
0
40
0
40
0.29813814085779
40
0.636348539685217
40
1
40
1
40
1
40
1
41
1
10
22.5550000570694
20
-5.88978581673129
30
0
41
1
10
22.5551138210186
20
-5.89608358954986
30
0
41
1
10
22.5617919481341
20
-5.9089589766319
30
0
41
1
10
22.5957869482672
20
-5.92885086674597
30
0
41
1
10
22.6335660569182
20
-5.93906991320602
30
0
41
1
10
22.6572500000003
20
-5.94366363269804
30
0
0
SPLINE
5
260
100
AcDbEntity
8
1
62
256
6
ByLayer
370
18
48
1
60
0
100
AcDbSpline
70
4
71
3
72
12
73
8
40
0
40
0
40
0
40
0
40
0.210511963107015
40
0.429830492405959
40
0.627387562153786
40
0.893954101441452
40
1
40
1
40
1
40
1
41
1
10
0.445278556093632
20
-22.7706456657285
30
0
41
1
10
0.445391459349837
20
-22.7772937986706
30
0
41
1
10
0.441979706080091
20
-22.7866666127036
30
0
41
1
10
0.425533130847921
20
-22.7883955403883
30
0
41
1
10
0.397415071053328
20
-22.7758688523271
30
0
41
1
10
0.36843309380908
20
-22.7555158712165
30
0
41
1
10
0.348947772482227
20
-22.739690437124
30
0
41
1
10
0.343278579251427
20
-22.734891799171
30
0
0
SPLINE
5
261
100
AcDbEntity
8
1
62
256
6
ByLayer
370
18
48
1
60
0
100
AcDbSpline
70
4
71
3
72
11
73
7
40
0
40
0
40
0
40
0
40
0.1214984089181
40
0.406067594319028
40
0.835350621723892
40
1
40
1
40
1
40
1
41
1
10
0.445277682782638
20
22.7704273755499
30
0
41
1
10
0.44508514570215
20
22.7656447876738
30
0
41
1
10
0.442539883672794
20
22.7481926372549
30
0
41
1
10
0.421102859102628
20
22.6986386139542
30
0
41
1
10
0.382630474465342
20
22.6372549858629
30
0
41
1
10
0.352200409472851
20
22.5948242935289
30
0
41
1
10
0.343278579257531
20
22.5828520565406
30
0
0
SPLINE
5
262
100
AcDbEntity
8
1
62
256
6
ByLayer
370
18
48
1
60
0
100
AcDbSpline
70
4
71
3
72
11
73
7
40
0
40
0
40
0
40
0
40
0.0812329922283997
40
0.361133281662944
40
0.796537058091843
40
1
40
1
40
1
40
1
41
1
10
22.5550014723199
20
27.6022405721771
30
0
41
1
10
22.5550994623717
20
27.5984504549655
30
0
41
1
10
22.5567190740779
20
27.580709703447
30
0
41
1
10
22.5748021793984
20
27.5294836558492
30
0
41
1
10
22.6136325170659
20
27.4603267694139
30
0
41
1
10
22.6461154826423
20
27.4113458694242
30
0
41
1
10
22.6572499999997
20
27.3954357623967
30
0
0
SPLINE
5
263
100
AcDbEntity
8
1
62
256
6
ByLayer
370
18
48
1
60
0
100
AcDbSpline
70
4
71
3
72
10
73
6
40
0
40
0
40
0
40
0
40
0.334271585734647
40
0.71689009256838
40
1
40
1
40
1
40
1
41
1
10
22.5550000734813
20
-6.52823268120356
30
0
41
1
10
22.5550285600244
20
-6.54201794357094
30
0
41
1
10
22.5632212317661
20
-6.57010717753284
30
0
41
1
10
22.5999241686105
20
-6.60834439979561
30
0
41
1
10
22.638298505731
20
-6.62705477205918
30
0
41
1
10
22.65725
20
-6.63419840420453
30
0
0
SPLINE
5
264
100
AcDbEntity
8
1
62
256
6
ByLayer
370
18
48
1
60
0
100
AcDbSpline
70
4
71
3
72
11
73
7
40
0
40
0
40
0
40
0
40
0.124457290193347
40
0.396099052836929
40
0.795165748635466
40
1
40
1
40
1
40
1
41
1
10
0.445278388937949
20
23.3559327265862
30
0
41
1
10
0.44510972968456
20
23.3519113150244
30
0
41
1
10
0.442639075358644
20
23.3375354893857
30
0
41
1
10
0.422567865164324
20
23.2954116261748
30
0
41
1
10
0.38492324624269
20
23.2389071632652
30
0
41
1
10
0.354392376259078
20
23.1984765304519
30
0
41
1
10
0.343278579257643
20
23.1843743619427
30
0
0
SPLINE
5
265
100
AcDbEntity
8
1
62
256
6
ByLayer
370
18
48
1
60
0
100
AcDbSpline
70
4
71
3
72
12
73
8
40
0
40
0
40
0
40
0
40
0.184726455817652
40
0.403024891278643
40
0.604225720084717
40
0.881397246178782
40
1
40
1
40
1
40
1
41
1
10
0.445278347428695
20
-23.3559224772546
30
0
41
1
10
0.44534916128958
20
-23.3608296991031
30
0
41
1
10
0.44247517165605
20
-23.3681219797605
30
0
41
1
10
0.427616764758612
20
-23.3681131006642
30
0
41
1
10
0.40002289702889
20
-23.3542020469039
30
0
41
1
10
0.370176746316329
20
-23.3323172905849
30
0
41
1
10
0.349609158055781
20
-23.3152279441409
30
0
41
1
10
0.343278579248912
20
-23.309768286554
30
0
0
SPLINE
5
266
100
AcDbEntity
8
1
62
256
6
ByLayer
370
18
48
1
60
0
100
AcDbSpline
70
4
71
3
72
10
73
6
40
0
40
0
40
0
40
0
40
0.173428203916602
40
0.660379124509086
40
1
40
1
40
1
40
1
41
1
10
22.5550008595723
20
-7.7056162245068
30
0
41
1
10
22.5550039775646
20
-7.7176886510632
30
0
41
1
10
22.5589270352902
20
-7.76297577489161
30
0
41
1
10
22.5849195941341
20
-7.83358727830505
30
0
41
1
10
22.6332445380605
20
-7.87951000376126
30
0
41
1
10
22.6572499999953
20
-7.8971885212138
30
0
0
SPLINE
5
267
100
AcDbEntity
8
1
62
256
6
ByLayer
370
18
48
1
60
0
100
AcDbSpline
70
4
71
3
72
11
73
7
40
0
40
0
40
0
40
0
40
0.130632392229611
40
0.415548682631275
40
0.843413418810622
40
1
40
1
40
1
40
1
41
1
10
22.5550007247029
20
28.2919300405605
30
0
41
1
10
22.5552194449836
20
28.2869735895815
30
0
41
1
10
22.5579951254502
20
28.2695849031442
30
0
41
1
10
22.5802497256452
20
28.2201944449455
30
0
41
1
10
22.618700276632
20
28.1601189387494
30
0
41
1
10
22.6487618926944
20
28.1187907830027
30
0
41
1
10
22.6572499999999
20
28.1075258373112
30
0
0
SPLINE
5
268
100
AcDbEntity
8
1
62
256
6
ByLayer
370
18
48
1
60
0
100
AcDbSpline
70
4
71
1
72
4
73
2
40
0
40
0
40
1
40
1
41
1
10
22.8920455144498
20
-8.05496841825676
30
0
41
1
10
23.325
20
-7.68821267049178
30
0
0
SPLINE
5
269
100
AcDbEntity
8
1
62
256
6
ByLayer
370
18
48
1
60
0
100
AcDbSpline
70
4
71
1
72
4
73
2
40
0
40
0
40
1
40
1
41
1
10
23.325
20
-7.83064541369053
30
0
41
1
10
22.65725
20
-8.67254129823024
30
0
0
SPLINE
5
26A
100
AcDbEntity
8
1
62
256
6
ByLayer
370
18
48
1
60
0
100
AcDbSpline
70
4
71
3
72
11
73
7
40
0
40
0
40
0
40
0
40
0.441839920560091
40
0.734050487715038
40
0.961867500839333
40
1
40
1
40
1
40
1
41
1
10
22.65725
20
-8.67254129823024
30
0
41
1
10
22.6323093266154
20
-8.70324571654478
30
0
41
1
10
22.5979790015203
20
-8.74973898570257
30
0
41
1
10
22.5645946255961
20
-8.80464831703825
30
0
41
1
10
22.5555733131041
20
-8.82852269695488
30
0
41
1
10
22.5550150210586
20
-8.83635947173543
30
0
41
1
10
22.5550003123253
20
-8.83742547741925
30
0
0
SPLINE
5
26B
100
AcDbEntity
8
1
62
256
6
ByLayer
370
18
48
1
60
0
100
AcDbSpline
70
4
71
1
72
4
73
2
40
0
40
0
40
1
40
1
41
1
10
22.65725
20
-8.78601211582403
30
0
41
1
10
23.325
20
-8.20535591425144
30
0
0
SPLINE
5
26C
100
AcDbEntity
8
1
62
256
6
ByLayer
370
18
48
1
60
0
100
AcDbSpline
70
4
71
1
72
4
73
2
40
0
40
0
40
1
40
1
41
1
10
23.325
20
-8.31310458062038
30
0
41
1
10
22.65725
20
-9.10353645583287
30
0
0
SPLINE
5
26D
100
AcDbEntity
8
1
62
256
6
ByLayer
370
18
48
1
60
0
100
AcDbSpline
70
4
71
3
72
11
73
7
40
0
40
0
40
0
40
0
40
0.329250067109484
40
0.647313353418141
40
0.887590104473798
40
1
40
1
40
1
40
1
41
1
10
22.65725
20
-9.10353645583287
30
0
41
1
10
22.6391258260069
20
-9.1246406317614
30
0
41
1
10
22.6076055730105
20
-9.16334055714126
30
0
41
1
10
22.5723797032144
20
-9.21190759983644
30
0
41
1
10
22.5570867973667
20
-9.23968900769927
30
0
41
1
10
22.5551092832442
20
-9.24860113689858
30
0
41
1
10
22.5550002418615
20
-9.25097555137599
30
0
0
SPLINE
5
26E
100
AcDbEntity
8
1
62
256
6
ByLayer
370
18
48
1
60
0
100
AcDbSpline
70
4
71
1
72
4
73
2
40
0
40
0
40
1
40
1
41
1
10
22.65725
20
-9.1867908893245
30
0
41
1
10
23.325
20
-8.58755229858397
30
0
0
SPLINE
5
26F
100
AcDbEntity
8
1
62
256
6
ByLayer
370
18
48
1
60
0
100
AcDbSpline
70
4
71
1
72
4
73
2
40
0
40
0
40
1
40
1
41
1
10
23.325
20
-8.66300305129683
30
0
41
1
10
22.65725
20
-9.40944130325644
30
0
0
SPLINE
5
270
100
AcDbEntity
8
1
62
256
6
ByLayer
370
18
48
1
60
0
100
AcDbSpline
70
4
71
3
72
11
73
7
40
0
40
0
40
0
40
0
40
0.342011787836897
40
0.642198228721826
40
0.876725351047495
40
1
40
1
40
1
40
1
41
1
10
22.65725
20
-9.40944130325643
30
0
41
1
10
22.6384059627043
20
-9.43023152168821
30
0
41
1
10
22.6072464541784
20
-9.46597832353637
30
0
41
1
10
22.5724786986523
20
-9.50938125448705
30
0
41
1
10
22.5572387121169
20
-9.53262169175955
30
0
41
1
10
22.5551073778712
20
-9.53931124263748
30
0
41
1
10
22.5550000745879
20
-9.54102988726207
30
0
0
SPLINE
5
271
100
AcDbEntity
8
1
62
256
6
ByLayer
370
18
48
1
60
0
100
AcDbSpline
70
4
71
1
72
4
73
2
40
0
40
0
40
1
40
1
41
1
10
22.65725
20
-9.46411154009974
30
0
41
1
10
23.325
20
-8.84301507032827
30
0
0
SPLINE
5
272
100
AcDbEntity
8
1
62
256
6
ByLayer
370
18
48
1
60
0
100
AcDbSpline
70
4
71
1
72
4
73
2
40
0
40
0
40
1
40
1
41
1
10
23.325
20
-8.8877094006841
30
0
41
1
10
22.65725
20
-9.59611487743881
30
0
0
SPLINE
5
273
100
AcDbEntity
8
1
62
256
6
ByLayer
370
18
48
1
60
0
100
AcDbSpline
70
4
71
3
72
11
73
7
40
0
40
0
40
0
40
0
40
0.353544895004927
40
0.637649992213753
40
0.866481616419223
40
1
40
1
40
1
40
1
41
1
10
22.65725
20
-9.5961148774388
30
0
41
1
10
22.6377362319312
20
-9.61662120111078
30
0
41
1
10
22.6068770054136
20
-9.64976242080796
30
0
41
1
10
22.5725329580446
20
-9.68843414922991
30
0
41
1
10
22.5573769655669
20
-9.70751353900979
30
0
41
1
10
22.5551025720383
20
-9.71204957208263
30
0
41
1
10
22.5550000290886
20
-9.71300513910091
30
0
0
SPLINE
5
274
100
AcDbEntity
8
1
62
256
6
ByLayer
370
18
48
1
60
0
100
AcDbSpline
70
4
71
1
72
4
73
2
40
0
40
0
40
1
40
1
41
1
10
22.65725
20
-9.62320900006475
30
0
41
1
10
23.325
20
-8.97686310823373
30
0
0
SPLINE
5
275
100
AcDbEntity
8
1
62
256
6
ByLayer
370
18
48
1
60
0
100
AcDbSpline
70
4
71
1
72
4
73
2
40
0
40
0
40
1
40
1
41
1
10
23.325
20
-8.99166790770802
30
0
41
1
10
22.65725
20
-9.66695260773768
30
0
0
SPLINE
5
276
100
AcDbEntity
8
1
62
256
6
ByLayer
370
18
48
1
60
0
100
AcDbSpline
70
4
71
3
72
11
73
7
40
0
40
0
40
0
40
0
40
0.363787721950166
40
0.633109824668569
40
0.856330372739896
40
1
40
1
40
1
40
1
41
1
10
22.65725
20
-9.66695260773767
30
0
41
1
10
22.6371065030783
20
-9.68721199693141
30
0
41
1
10
22.6064997232846
20
-9.71801584235943
30
0
41
1
10
22.5725495910262
20
-9.75227249198012
30
0
41
1
10
22.5574914761184
20
-9.76748294072094
30
0
41
1
10
22.555088777225
20
-9.76990974091864
30
0
41
1
10
22.555
20
-9.77000000000001
30
0
0
SPLINE
5
277
100
AcDbEntity
8
1
62
256
6
ByLayer
370
18
48
1
60
0
100
AcDbSpline
70
4
71
3
72
12
73
8
40
0
40
0
40
0
40
0
40
0.159212015129911
40
0.375812007907904
40
0.579972357070283
40
0.866763340434038
40
1
40
1
40
1
40
1
41
1
10
0.445278236129673
20
-23.8327323775036
30
0
41
1
10
0.445317645839548
20
-23.8361792221596
30
0
41
1
10
0.442946952457498
20
-23.8415998505062
30
0
41
1
10
0.429662936385149
20
-23.8400393910389
30
0
41
1
10
0.402740337226411
20
-23.8247051036366
30
0
41
1
10
0.372074694367067
20
-23.801130207458
30
0
41
1
10
0.350384507964839
20
-23.7826242803946
30
0
41
1
10
0.343278579245091
20
-23.7763598985551
30
0
0
SPLINE
5
278
100
AcDbEntity
8
1
62
256
6
ByLayer
370
18
48
1
60
0
100
AcDbSpline
70
4
71
3
72
11
73
7
40
0
40
0
40
0
40
0
40
0.126168511449294
40
0.385953525729293
40
0.75832522609608
40
1
40
1
40
1
40
1
41
1
10
0.445278445486678
20
23.8327724013688
30
0
41
1
10
0.445124805970236
20
23.8295157479067
30
0
41
1
10
0.442717460708109
20
23.8178937725926
30
0
41
1
10
0.423941882185471
20
23.7822854052007
30
0
41
1
10
0.387062331370976
20
23.7302691254356
30
0
41
1
10
0.356408563322875
20
23.6916658365852
30
0
41
1
10
0.343278579257793
20
23.6758362492602
30
0
0
SPLINE
5
279
100
AcDbEntity
8
1
62
256
6
ByLayer
370
18
48
1
60
0
100
AcDbSpline
70
4
71
3
72
12
73
8
40
0
40
0
40
0
40
0
40
0.171820385506382
40
0.389124108028742
40
0.591678114719546
40
0.873622739350134
40
1
40
1
40
1
40
1
41
1
10
22.5550003123253
20
-8.83742547741925
30
0
41
1
10
22.5549459519188
20
-8.84158594212341
30
0
41
1
10
22.5575660854965
20
-8.84794565084169
30
0
41
1
10
22.5716456443644
20
-8.8471547875957
30
0
41
1
10
22.598948282838
20
-8.83252461006486
30
0
41
1
10
22.6292893034145
20
-8.80975173405264
30
0
41
1
10
22.6504908933407
20
-8.79190554733768
30
0
41
1
10
22.6572500000108
20
-8.78601211581953
30
0
0
SPLINE
5
27A
100
AcDbEntity
8
1
62
256
6
ByLayer
370
18
48
1
60
0
100
AcDbSpline
70
4
71
3
72
11
73
7
40
0
40
0
40
0
40
0
40
0.143406160135565
40
0.416179409660905
40
0.813457131819913
40
1
40
1
40
1
40
1
41
1
10
22.5550000751142
20
28.8374837408244
30
0
41
1
10
22.5552187348146
20
28.8332559112073
30
0
41
1
10
22.5581584212442
20
28.8190743086718
30
0
41
1
10
22.5798648716347
20
28.7772067985676
30
0
41
1
10
22.6174276022265
20
28.7232747229728
30
0
41
1
10
22.647143977536
20
28.685075854437
30
0
41
1
10
22.6572499999998
20
28.6725412982299
30
0
0
SPLINE
5
27B
100
AcDbEntity
8
1
62
256
6
ByLayer
370
18
48
1
60
0
100
AcDbSpline
70
4
71
3
72
11
73
7
40
0
40
0
40
0
40
0
40
0.160528646810551
40
0.421345397391868
40
0.788931428357526
40
1
40
1
40
1
40
1
41
1
10
0.44527856583443
20
24.2075075788472
30
0
41
1
10
0.445042848553058
20
24.2042618676883
30
0
41
1
10
0.441814146030059
20
24.1934367952321
30
0
41
1
10
0.420362938991512
20
24.1589163563971
30
0
41
1
10
0.383792359708887
20
24.1116827399969
30
0
41
1
10
0.354670386625964
20
24.0771038260655
30
0
41
1
10
0.343278579257572
20
24.0639819990129
30
0
0
SPLINE
5
27C
100
AcDbEntity
8
1
62
256
6
ByLayer
370
18
48
1
60
0
100
AcDbSpline
70
4
71
3
72
12
73
8
40
0
40
0
40
0
40
0
40
0.091654369272715
40
0.31165758065398
40
0.51719460390677
40
0.799710708047283
40
1
40
1
40
1
40
1
41
1
10
0.445278379376492
20
-24.2074615026731
30
0
41
1
10
0.445294436897062
20
-24.2089918194748
30
0
41
1
10
0.444138957929703
20
-24.2129070869538
30
0
41
1
10
0.434968734463604
20
-24.2121031302577
30
0
41
1
10
0.410774010781979
20
-24.1974955320195
30
0
41
1
10
0.378556000761783
20
-24.1720494374467
30
0
41
1
10
0.354040347196123
20
-24.1506860305587
30
0
41
1
10
0.343278579257505
20
-24.1409461802714
30
0
0
SPLINE
5
27D
100
AcDbEntity
8
1
62
256
6
ByLayer
370
18
48
1
60
0
100
AcDbSpline
70
4
71
3
72
12
73
8
40
0
40
0
40
0
40
0
40
0.0937750043520544
40
0.315079293964342
40
0.520086113400823
40
0.799364997268545
40
1
40
1
40
1
40
1
41
1
10
22.5550002418615
20
-9.25097555137599
30
0
41
1
10
22.5549807231182
20
-9.25266033055195
30
0
41
1
10
22.5561666734407
20
-9.25698204609552
30
0
41
1
10
22.5654704509602
20
-9.25671815226703
30
0
41
1
10
22.5897754118507
20
-9.24265193129516
30
0
41
1
10
22.6219870587054
20
-9.2176386678643
30
0
41
1
10
22.6464362809834
20
-9.19652251828051
30
0
41
1
10
22.65725
20
-9.1867908893245
30
0
0
SPLINE
5
27E
100
AcDbEntity
8
1
62
256
6
ByLayer
370
18
48
1
60
0
100
AcDbSpline
70
4
71
3
72
11
73
7
40
0
40
0
40
0
40
0
40
0.151510210552037
40
0.411847092875887
40
0.780628591293192
40
1
40
1
40
1
40
1
41
1
10
22.5550000301275
20
29.2510233429179
30
0
41
1
10
22.5552132917129
20
29.2477351167947
30
0
41
1
10
22.5582266510577
20
29.2366590343581
30
0
41
1
10
22.5790173271306
20
29.2017481251854
30
0
41
1
10
22.6157624875805
20
29.1531383553434
30
0
41
1
10
22.6453642870787
20
29.1174078722661
30
0
41
1
10
22.6572499999998
20
29.1035364558304
30
0
0
SPLINE
5
27F
100
AcDbEntity
8
1
62
256
6
ByLayer
370
18
48
1
60
0
100
AcDbSpline
70
4
71
3
72
12
73
8
40
0
40
0
40
0
40
0
40
0.0042588898465462
40
0.193756622385999
40
0.454702738492856
40
0.817297591969692
40
1
40
1
40
1
40
1
41
1
10
0.445278575932537
20
24.4847692349527
30
0
41
1
10
0.445278467755118
20
24.4847146206199
30
0
41
1
10
0.445234749415517
20
24.482192467506
30
0
41
1
10
0.440505908923253
20
24.4716411598137
30
0
41
1
10
0.416889399965825
20
24.4388090724229
30
0
41
1
10
0.38068595828084
20
24.3956409902046
30
0
41
1
10
0.353078123312174
20
24.3645701017747
30
0
41
1
10
0.343278579256687
20
24.3537520147498
30
0
0
SPLINE
5
280
100
AcDbEntity
8
1
62
256
6
ByLayer
370
18
48
1
60
0
100
AcDbSpline
70
4
71
3
72
12
73
8
40
0
40
0
40
0
40
0
40
0.0812100798064752
40
0.295663987833972
40
0.502488520644578
40
0.79685857926748
40
1
40
1
40
1
40
1
41
1
10
0.445278504287884
20
-24.4847480168996
30
0
41
1
10
0.445283626218882
20
-24.4857189933645
30
0
41
1
10
0.444272702008807
20
-24.4881731033428
30
0
41
1
10
0.435705395290418
20
-24.4854216867347
30
0
41
1
10
0.411915535328259
20
-24.4685845385986
30
0
41
1
10
0.379338984039651
20
-24.441010756238
30
0
41
1
10
0.354176412948132
20
-24.4182263467497
30
0
41
1
10
0.343278579257504
20
-24.4080985521537
30
0
0
SPLINE
5
281
100
AcDbEntity
8
1
62
256
6
ByLayer
370
18
48
1
60
0
100
AcDbSpline
70
4
71
3
72
12
73
8
40
0
40
0
40
0
40
0
40
0.0805814427706111
40
0.294856636486403
40
0.501424598236022
40
0.795507813486169
40
1
40
1
40
1
40
1
41
1
10
22.5550000745878
20
-9.54102988726207
30
0
41
1
10
22.5549949095866
20
-9.5419980562034
30
0
41
1
10
22.5559979099482
20
-9.54446591988108
30
0
41
1
10
22.564538790173
20
-9.54174157756297
30
0
41
1
10
22.5883226524164
20
-9.52490050612499
30
0
41
1
10
22.6209837206085
20
-9.49723378358649
30
0
41
1
10
22.646251711464
20
-9.47433995069365
30
0
41
1
10
22.65725
20
-9.46411154009974
30
0
0
SPLINE
5
282
100
AcDbEntity
8
1
62
256
6
ByLayer
370
18
48
1
60
0
100
AcDbSpline
70
4
71
3
72
12
73
8
40
0
40
0
40
0
40
0
40
0.0040678379005766
40
0.193259184993753
40
0.453930994611799
40
0.816503936930134
40
1
40
1
40
1
40
1
41
1
10
22.555000003065
20
29.5410513391962
30
0
41
1
10
22.5550001023458
20
29.540998898705
30
0
41
1
10
22.5550419080868
20
29.5384715788752
30
0
41
1
10
22.5597633662107
20
29.5278958526446
30
0
41
1
10
22.583394766297
20
29.4949534400491
30
0
41
1
10
22.6196817999297
20
29.4515850423524
30
0
41
1
10
22.6473850751896
20
29.4203496943217
30
0
41
1
10
22.6572500000009
20
29.4094413032536
30
0
0
SPLINE
5
283
100
AcDbEntity
8
1
62
256
6
ByLayer
370
18
48
1
60
0
100
AcDbSpline
70
4
71
3
72
12
73
8
40
0
40
0
40
0
40
0
40
0.0964143063483728
40
0.293047324863619
40
0.575896461827206
40
0.969659814842497
40
1
40
1
40
1
40
1
41
1
10
0.445278513568813
20
24.6678629175233
30
0
41
1
10
0.44523448354016
20
24.6670864876528
30
0
41
1
10
0.443879894610291
20
24.6635404045154
30
0
41
1
10
0.432991922206804
20
24.6484300271967
30
0
41
1
10
0.40184534642407
20
24.6118462516252
30
0
41
1
10
0.36708243421251
20
24.5739492410499
30
0
41
1
10
0.34487940004021
20
24.5503299355297
30
0
41
1
10
0.343278579257507
20
24.5486302009538
30
0
0
SPLINE
5
284
100
AcDbEntity
8
1
62
256
6
ByLayer
370
18
48
1
60
0
100
AcDbSpline
70
4
71
3
72
12
73
8
40
0
40
0
40
0
40
0
40
0.106756116624837
40
0.31581001735655
40
0.527133100762902
40
0.847618922254033
40
1
40
1
40
1
40
1
41
1
10
0.445278524620078
20
-24.6678642425969
30
0
41
1
10
0.445267293470771
20
-24.668627541126
30
0
41
1
10
0.443797870695577
20
-24.6693933213122
30
0
41
1
10
0.433538470428565
20
-24.6627231631805
30
0
41
1
10
0.407873486144991
20
-24.6412032868661
30
0
41
1
10
0.375524705343378
20
-24.6115820821054
30
0
41
1
10
0.351389205141348
20
-24.5887492784087
30
0
41
1
10
0.343278579250633
20
-24.5809940275873
30
0
0
SPLINE
5
285
100
AcDbEntity
8
1
62
256
6
ByLayer
370
18
48
1
60
0
100
AcDbSpline
70
4
71
3
72
11
73
7
40
0
40
0
40
0
40
0
40
0.231131739999588
40
0.466628672010461
40
0.825968942986469
40
1
40
1
40
1
40
1
41
1
10
22.5564203726923
20
-9.71340517318358
30
0
41
1
10
22.5586795332705
20
-9.71239410088866
30
0
41
1
10
22.5662175446125
20
-9.70717662938001
30
0
41
1
10
22.5919217263936
20
-9.68491956401673
30
0
41
1
10
22.6244226066899
20
-9.65466173136031
30
0
41
1
10
22.648908641859
20
-9.63125447077219
30
0
41
1
10
22.6572500000071
20
-9.62320900005928
30
0
0
SPLINE
5
286
100
AcDbEntity
8
1
62
256
6
ByLayer
370
18
48
1
60
0
100
AcDbSpline
70
4
71
3
72
12
73
8
40
0
40
0
40
0
40
0
40
0.101523682145535
40
0.298670259603616
40
0.579960061486431
40
0.971009684658929
40
1
40
1
40
1
40
1
41
1
10
22.5550000447584
20
29.7130031276509
30
0
41
1
10
22.5550467336755
20
29.7123126748356
30
0
41
1
10
22.5564921579327
20
29.7090003075641
30
0
41
1
10
22.5677196908972
20
29.6941913394474
30
0
41
1
10
22.5990473957854
20
29.6582641268284
30
0
41
1
10
22.633679505405
20
29.6209690724057
30
0
41
1
10
22.6557177224434
20
29.5977282863562
30
0
41
1
10
22.65725
20
29.5961148774388
30
0
0
SPLINE
5
287
100
AcDbEntity
8
1
62
256
6
ByLayer
370
18
48
1
60
0
100
AcDbSpline
70
4
71
3
72
12
73
8
40
0
40
0
40
0
40
0
40
0.0897220874443005
40
0.29386467268758
40
0.506936666994643
40
0.837334489435565
40
1
40
1
40
1
40
1
41
1
10
0.445278579255942
20
-24.7589216181971
30
0
41
1
10
0.445261829927732
20
-24.7591239434324
30
0
41
1
10
0.444067410863935
20
-24.7586264728292
30
0
41
1
10
0.434877770010257
20
-24.7505556021282
30
0
41
1
10
0.409925514473947
20
-24.7269110110826
30
0
41
1
10
0.377020283630573
20
-24.694846460316
30
0
41
1
10
0.351945872453286
20
-24.6701731173015
30
0
41
1
10
0.343278579251589
20
-24.6616151100683
30
0
0
SPLINE
5
288
100
AcDbEntity
8
1
62
256
6
ByLayer
370
18
48
1
60
0
100
AcDbSpline
70
4
71
3
72
12
73
8
40
0
40
0
40
0
40
0
40
0.0740620139370656
40
0.2736741888438
40
0.536864042817815
40
0.89636147077316
40
1
40
1
40
1
40
1
41
1
10
0.445278546977577
20
24.7589181334602
30
0
41
1
10
0.445260942818078
20
24.7587169293267
30
0
41
1
10
0.444306606570768
20
24.7570863562486
30
0
41
1
10
0.435267975332096
20
24.7466884727747
30
0
41
1
10
0.407284480681146
20
24.7168371649882
30
0
41
1
10
0.372613575644762
20
24.6809143687121
30
0
41
1
10
0.348767149197222
20
24.6564778028
30
0
41
1
10
0.343278579257375
20
24.6508671711624
30
0
0
INSERT
5
2CC
100
AcDbEntity
8
SK2
62
256
6
ByLayer
370
25
48
1
60
0
100
AcDbBlockReference
2
DimnDraft3D66
10
0
20
0
30
0
41
1
42
1
43
1
50
0
210
0
220
0
230
1
0
LINE
5
70
100
AcDbEntity
8
81
62
256
6
ByLayer
370
18
48
1
60
0
100
AcDbLine
10
23
20
10
30
0
11
25.3
21
10
31
0
39
0
210
0
220
0
230
1
0
LINE
5
71
100
AcDbEntity
8
4
62
256
6
ByLayer
370
18
48
0.05
60
0
100
AcDbLine
10
0
20
0
30
0
11
23
21
0
31
0
39
0
210
0
220
0
230
1
0
LINE
5
73
100
AcDbEntity
8
SK4
62
256
6
ByLayer
370
18
48
0.05
60
0
100
AcDbLine
10
-5
20
0
30
0
11
28
21
0
31
0
39
0
210
0
220
0
230
1
0
LINE
5
75
100
AcDbEntity
8
80
62
256
6
ByLayer
370
18
48
1
60
0
100
AcDbLine
10
0
20
0
30
0
11
-2.3
21
0
31
0
39
0
210
0
220
0
230
1
0
LINE
5
76
100
AcDbEntity
8
1
62
256
6
ByLayer
370
18
48
1
60
0
100
AcDbLine
10
-0.325
20
-24
30
0
11
0.675
21
-25
31
0
39
0
210
0
220
0
230
1
0
LINE
5
78
100
AcDbEntity
8
1
62
256
6
ByLayer
370
18
48
1
60
0
100
AcDbLine
10
0.343279
20
-2.162263
30
0
11
0.343279
21
2.162263
31
0
39
0
210
0
220
0
230
1
0
LINE
5
79
100
AcDbEntity
8
1
62
256
6
ByLayer
370
18
48
1
60
0
100
AcDbLine
10
0.675
20
-25
30
0
11
11
21
-25
31
0
39
0
210
0
220
0
230
1
0
LINE
5
7A
100
AcDbEntity
8
1
62
256
6
ByLayer
370
18
48
1
60
0
100
AcDbLine
10
6.675
20
14.415151
30
0
11
0.675
21
14.415151
31
0
39
0
210
0
220
0
230
1
0
LINE
5
7B
100
AcDbEntity
8
1
62
256
6
ByLayer
370
18
48
1
60
0
100
AcDbLine
10
11
20
12.248156
30
0
11
6.675
21
12.248156
31
0
39
0
210
0
220
0
230
1
0
LINE
5
7C
100
AcDbEntity
8
1
62
256
6
ByLayer
370
18
48
1
60
0
100
AcDbLine
10
0.343279
20
-8.726132
30
0
11
0.343279
21
-7.727557
31
0
39
0
210
0
220
0
230
1
0
LINE
5
7D
100
AcDbEntity
8
1
62
256
6
ByLayer
370
18
48
1
60
0
100
AcDbLine
10
0.343279
20
7.727557
30
0
11
0.343279
21
8.726132
31
0
39
0
210
0
220
0
230
1
0
LINE
5
7E
100
AcDbEntity
8
1
62
256
6
ByLayer
370
18
48
1
60
0
100
AcDbLine
10
-0.325
20
-7.827985
30
0
11
-0.325
21
-2.994135
31
0
39
0
210
0
220
0
230
1
0
LINE
5
7F
100
AcDbEntity
8
1
62
256
6
ByLayer
370
18
48
1
60
0
100
AcDbLine
10
-0.325
20
2.994135
30
0
11
-0.325
21
7.827985
31
0
39
0
210
0
220
0
230
1
0
LINE
5
80
100
AcDbEntity
8
1
62
256
6
ByLayer
370
18
48
1
60
0
100
AcDbLine
10
0.343279
20
-11.963083
30
0
11
0.343279
21
-11.30244
31
0
39
0
210
0
220
0
230
1
0
LINE
5
81
100
AcDbEntity
8
1
62
256
6
ByLayer
370
18
48
1
60
0
100
AcDbLine
10
0.343279
20
11.30244
30
0
11
0.343279
21
11.963083
31
0
39
0
210
0
220
0
230
1
0
LINE
5
82
100
AcDbEntity
8
1
62
256
6
ByLayer
370
18
48
1
60
0
100
AcDbLine
10
-0.325
20
-11.273413
30
0
11
-0.325
21
-8.840381
31
0
39
0
210
0
220
0
230
1
0
LINE
5
83
100
AcDbEntity
8
1
62
256
6
ByLayer
370
18
48
1
60
0
100
AcDbLine
10
-0.325
20
8.840381
30
0
11
-0.325
21
11.273413
31
0
39
0
210
0
220
0
230
1
0
LINE
5
84
100
AcDbEntity
8
1
62
256
6
ByLayer
370
18
48
1
60
0
100
AcDbLine
10
0.343279
20
-14.338248
30
0
11
0.343279
21
-13.830226
31
0
39
0
210
0
220
0
230
1
0
LINE
5
85
100
AcDbEntity
8
1
62
256
6
ByLayer
370
18
48
1
60
0
100
AcDbLine
10
0.343279
20
13.830226
30
0
11
0.343279
21
14.062923
31
0
39
0
210
0
220
0
230
1
0
LINE
5
86
100
AcDbEntity
8
1
62
256
6
ByLayer
370
18
48
1
60
0
100
AcDbLine
10
-0.325
20
-13.725973
30
0
11
-0.325
21
-11.951562
31
0
39
0
210
0
220
0
230
1
0
LINE
5
87
100
AcDbEntity
8
1
62
256
6
ByLayer
370
18
48
1
60
0
100
AcDbLine
10
-0.325
20
11.951562
30
0
11
-0.325
21
13.677092
31
0
39
0
210
0
220
0
230
1
0
LINE
5
88
100
AcDbEntity
8
1
62
256
6
ByLayer
370
18
48
1
60
0
100
AcDbLine
10
-0.325
20
13.677092
30
0
11
0.343279
21
14.062923
31
0
39
0
210
0
220
0
230
1
0
LINE
5
89
100
AcDbEntity
8
1
62
256
6
ByLayer
370
18
48
1
60
0
100
AcDbLine
10
22.325
20
14.530386
30
0
11
15.975
21
14.530386
31
0
39
0
210
0
220
0
230
1
0
LINE
5
8A
100
AcDbEntity
8
1
62
256
6
ByLayer
370
18
48
1
60
0
100
AcDbLine
10
11.8
20
-5.62526
30
0
11
22.325
21
-5.62526
31
0
39
0
210
0
220
0
230
1
0
LINE
5
8B
100
AcDbEntity
8
1
62
256
6
ByLayer
370
18
48
1
60
0
100
AcDbLine
10
15.975
20
10.449017
30
0
11
11.8
21
10.449017
31
0
39
0
210
0
220
0
230
1
0
LINE
5
8C
100
AcDbEntity
8
1
62
256
6
ByLayer
370
18
48
1
60
0
100
AcDbLine
10
22.65725
20
13.66688
30
0
11
22.65725
21
6.33312
31
0
39
0
210
0
220
0
230
1
0
LINE
5
8D
100
AcDbEntity
8
1
62
256
6
ByLayer
370
18
48
1
60
0
100
AcDbLine
10
23.325
20
11.541407
30
0
11
23.325
21
8.458593
31
0
39
0
210
0
220
0
230
1
0
LINE
5
8E
100
AcDbEntity
8
1
62
256
6
ByLayer
370
18
48
1
60
0
100
AcDbLine
10
22.325
20
-8.879845
30
0
11
11.8
21
-8.879845
31
0
39
0
210
0
220
0
230
1
0
LINE
5
8F
100
AcDbEntity
8
1
62
256
6
ByLayer
370
18
48
1
60
0
100
AcDbLine
10
0.343279
20
-16.234388
30
0
11
0.343279
21
-15.821035
31
0
39
0
210
0
220
0
230
1
0
LINE
5
90
100
AcDbEntity
8
1
62
256
6
ByLayer
370
18
48
1
60
0
100
AcDbLine
10
-0.325
20
-15.659337
30
0
11
-0.325
21
-14.248766
31
0
39
0
210
0
220
0
230
1
0
LINE
5
91
100
AcDbEntity
8
1
62
256
6
ByLayer
370
18
48
1
60
0
100
AcDbLine
10
22.65725
20
2.489118
30
0
11
22.65725
21
1.683468
31
0
39
0
210
0
220
0
230
1
0
LINE
5
92
100
AcDbEntity
8
1
62
256
6
ByLayer
370
18
48
1
60
0
100
AcDbLine
10
23.325
20
5.946748
30
0
11
23.325
21
2.454269
31
0
39
0
210
0
220
0
230
1
0
LINE
5
93
100
AcDbEntity
8
1
62
256
6
ByLayer
370
18
48
1
60
0
100
AcDbLine
10
0.343279
20
-17.805205
30
0
11
0.343279
21
-17.459529
31
0
39
0
210
0
220
0
230
1
0
LINE
5
94
100
AcDbEntity
8
1
62
256
6
ByLayer
370
18
48
1
60
0
100
AcDbLine
10
15.927155
20
17.147339
30
0
11
6.675
21
17.147339
31
0
39
0
210
0
220
0
230
1
0
LINE
5
95
100
AcDbEntity
8
1
62
256
6
ByLayer
370
18
48
1
60
0
100
AcDbLine
10
-0.325
20
-17.248981
30
0
11
-0.325
21
-16.084615
31
0
39
0
210
0
220
0
230
1
0
LINE
5
96
100
AcDbEntity
8
1
62
256
6
ByLayer
370
18
48
1
60
0
100
AcDbLine
10
22.65725
20
-0.425673
30
0
11
22.65725
21
-0.971937
31
0
39
0
210
0
220
0
230
1
0
LINE
5
97
100
AcDbEntity
8
1
62
256
6
ByLayer
370
18
48
1
60
0
100
AcDbLine
10
15.975
20
21.389748
30
0
11
22.325
21
21.389748
31
0
39
0
210
0
220
0
230
1
0
LINE
5
98
100
AcDbEntity
8
1
62
256
6
ByLayer
370
18
48
1
60
0
100
AcDbLine
10
23.325
20
20.670469
30
0
11
23.325
21
20.512375
31
0
39
0
210
0
220
0
230
1
0
LINE
5
99
100
AcDbEntity
8
1
62
256
6
ByLayer
370
18
48
1
60
0
100
AcDbLine
10
23.325
20
20.512375
30
0
11
22.65725
21
20.12685
31
0
39
0
210
0
220
0
230
1
0
LINE
5
9A
100
AcDbEntity
8
1
62
256
6
ByLayer
370
18
48
1
60
0
100
AcDbLine
10
22.65725
20
19.772645
30
0
11
23.325
21
19.38712
31
0
39
0
210
0
220
0
230
1
0
LINE
5
9B
100
AcDbEntity
8
1
62
256
6
ByLayer
370
18
48
1
60
0
100
AcDbLine
10
23.325
20
19.38712
30
0
11
23.325
21
19.012375
31
0
39
0
210
0
220
0
230
1
0
LINE
5
9C
100
AcDbEntity
8
1
62
256
6
ByLayer
370
18
48
1
60
0
100
AcDbLine
10
23.325
20
19.012375
30
0
11
22.65725
21
18.62685
31
0
39
0
210
0
220
0
230
1
0
LINE
5
9D
100
AcDbEntity
8
1
62
256
6
ByLayer
370
18
48
1
60
0
100
AcDbLine
10
22.65725
20
18.272645
30
0
11
23.325
21
17.88712
31
0
39
0
210
0
220
0
230
1
0
LINE
5
9E
100
AcDbEntity
8
1
62
256
6
ByLayer
370
18
48
1
60
0
100
AcDbLine
10
23.325
20
17.88712
30
0
11
23.325
21
17.512375
31
0
39
0
210
0
220
0
230
1
0
LINE
5
9F
100
AcDbEntity
8
1
62
256
6
ByLayer
370
18
48
1
60
0
100
AcDbLine
10
23.325
20
17.512375
30
0
11
22.65725
21
17.12685
31
0
39
0
210
0
220
0
230
1
0
LINE
5
A0
100
AcDbEntity
8
1
62
256
6
ByLayer
370
18
48
1
60
0
100
AcDbLine
10
22.65725
20
16.772645
30
0
11
23.325
21
16.38712
31
0
39
0
210
0
220
0
230
1
0
LINE
5
A1
100
AcDbEntity
8
1
62
256
6
ByLayer
370
18
48
1
60
0
100
AcDbLine
10
23.325
20
16.38712
30
0
11
23.325
21
16.012375
31
0
39
0
210
0
220
0
230
1
0
LINE
5
A2
100
AcDbEntity
8
1
62
256
6
ByLayer
370
18
48
1
60
0
100
AcDbLine
10
23.325
20
16.012375
30
0
11
22.65725
21
15.62685
31
0
39
0
210
0
220
0
230
1
0
LINE
5
A3
100
AcDbEntity
8
1
62
256
6
ByLayer
370
18
48
1
60
0
100
AcDbLine
10
22.65725
20
15.272645
30
0
11
23.325
21
14.88712
31
0
39
0
210
0
220
0
230
1
0
LINE
5
A4
100
AcDbEntity
8
1
62
256
6
ByLayer
370
18
48
1
60
0
100
AcDbLine
10
23.325
20
14.88712
30
0
11
23.325
21
14.849242
31
0
39
0
210
0
220
0
230
1
0
LINE
5
A5
100
AcDbEntity
8
1
62
256
6
ByLayer
370
18
48
1
60
0
100
AcDbLine
10
23.325
20
14.849242
30
0
11
15.975
21
14.849242
31
0
39
0
210
0
220
0
230
1
0
LINE
5
A6
100
AcDbEntity
8
1
62
256
6
ByLayer
370
18
48
1
60
0
100
AcDbLine
10
15.975
20
14.849242
30
0
11
15.975
21
21.389748
31
0
39
0
210
0
220
0
230
1
0
LINE
5
A7
100
AcDbEntity
8
1
62
256
6
ByLayer
370
18
48
1
60
0
100
AcDbLine
10
22.325
20
30
30
0
11
13.976295
21
30
31
0
39
0
210
0
220
0
230
1
0
LINE
5
A8
100
AcDbEntity
8
1
62
256
6
ByLayer
370
18
48
1
60
0
100
AcDbLine
10
13.976295
20
30
30
0
11
13.975717
21
30
31
0
39
0
210
0
220
0
230
1
0
LINE
5
A9
100
AcDbEntity
8
1
62
256
6
ByLayer
370
18
48
1
60
0
100
AcDbLine
10
13.248064
20
23.913284
30
0
11
15.975
21
23.913284
31
0
39
0
210
0
220
0
230
1
0
LINE
5
AA
100
AcDbEntity
8
1
62
256
6
ByLayer
370
18
48
1
60
0
100
AcDbLine
10
22.556678
20
29.768322
30
0
11
22.325
21
30
31
0
39
0
210
0
220
0
230
1
0
LINE
5
AB
100
AcDbEntity
8
1
62
256
6
ByLayer
370
18
48
1
60
0
100
AcDbLine
10
23.325
20
1.641368
30
0
11
23.325
21
-0.344089
31
0
39
0
210
0
220
0
230
1
0
LINE
5
AC
100
AcDbEntity
8
1
62
256
6
ByLayer
370
18
48
1
60
0
100
AcDbLine
10
0.343279
20
-19.131005
30
0
11
0.343279
21
-18.837866
31
0
39
0
210
0
220
0
230
1
0
LINE
5
AD
100
AcDbEntity
8
1
62
256
6
ByLayer
370
18
48
1
60
0
100
AcDbLine
10
-0.325
20
-18.583322
30
0
11
-0.325
21
-17.604043
31
0
39
0
210
0
220
0
230
1
0
LINE
5
AE
100
AcDbEntity
8
1
62
256
6
ByLayer
370
18
48
1
60
0
100
AcDbLine
10
6.675
20
15.379572
30
0
11
-0.010347
21
15.379572
31
0
39
0
210
0
220
0
230
1
0
LINE
5
AF
100
AcDbEntity
8
1
62
256
6
ByLayer
370
18
48
1
60
0
100
AcDbLine
10
22.65725
20
-2.509035
30
0
11
22.65725
21
-2.926797
31
0
39
0
210
0
220
0
230
1
0
LINE
5
B0
100
AcDbEntity
8
1
62
256
6
ByLayer
370
18
48
1
60
0
100
AcDbLine
10
22.65725
20
22.926797
30
0
11
22.65725
21
22.509035
31
0
39
0
210
0
220
0
230
1
0
LINE
5
B1
100
AcDbEntity
8
1
62
256
6
ByLayer
370
18
48
1
60
0
100
AcDbLine
10
22.65725
20
20.12685
30
0
11
22.65725
21
19.772645
31
0
39
0
210
0
220
0
230
1
0
LINE
5
B2
100
AcDbEntity
8
1
62
256
6
ByLayer
370
18
48
1
60
0
100
AcDbLine
10
23.325
20
-0.899753
30
0
11
23.325
21
-2.351611
31
0
39
0
210
0
220
0
230
1
0
LINE
5
B3
100
AcDbEntity
8
1
62
256
6
ByLayer
370
18
48
1
60
0
100
AcDbLine
10
23.325
20
22.351611
30
0
11
23.325
21
20.899753
31
0
39
0
210
0
220
0
230
1
0
LINE
5
B4
100
AcDbEntity
8
1
62
256
6
ByLayer
370
18
48
1
60
0
100
AcDbLine
10
23.325
20
20.512375
30
0
11
23.325
21
19.38712
31
0
39
0
210
0
220
0
230
1
0
LINE
5
B5
100
AcDbEntity
8
1
62
256
6
ByLayer
370
18
48
1
60
0
100
AcDbLine
10
0.343279
20
-20.259944
30
0
11
0.343279
21
-20.009877
31
0
39
0
210
0
220
0
230
1
0
LINE
5
B6
100
AcDbEntity
8
1
62
256
6
ByLayer
370
18
48
1
60
0
100
AcDbLine
10
11.675
20
25
30
0
11
0.675
21
25
31
0
39
0
210
0
220
0
230
1
0
LINE
5
B7
100
AcDbEntity
8
1
62
256
6
ByLayer
370
18
48
1
60
0
100
AcDbLine
10
6.675
20
21.794097
30
0
11
11.675
21
21.794097
31
0
39
0
210
0
220
0
230
1
0
LINE
5
B8
100
AcDbEntity
8
1
62
256
6
ByLayer
370
18
48
1
60
0
100
AcDbLine
10
0.675
20
20.425558
30
0
11
6.675
21
20.425558
31
0
39
0
210
0
220
0
230
1
0
LINE
5
B9
100
AcDbEntity
8
1
62
256
6
ByLayer
370
18
48
1
60
0
100
AcDbLine
10
0.343279
20
17.437077
30
0
11
-0.325
21
17.822908
31
0
39
0
210
0
220
0
230
1
0
LINE
5
BA
100
AcDbEntity
8
1
62
256
6
ByLayer
370
18
48
1
60
0
100
AcDbLine
10
-0.325
20
17.822908
30
0
11
-0.325
21
18.197908
31
0
39
0
210
0
220
0
230
1
0
LINE
5
BB
100
AcDbEntity
8
1
62
256
6
ByLayer
370
18
48
1
60
0
100
AcDbLine
10
0.343279
20
18.583738
30
0
11
-0.325
21
18.197908
31
0
39
0
210
0
220
0
230
1
0
LINE
5
BC
100
AcDbEntity
8
1
62
256
6
ByLayer
370
18
48
1
60
0
100
AcDbLine
10
0.343279
20
18.937077
30
0
11
-0.325
21
19.322908
31
0
39
0
210
0
220
0
230
1
0
LINE
5
BD
100
AcDbEntity
8
1
62
256
6
ByLayer
370
18
48
1
60
0
100
AcDbLine
10
-0.325
20
19.322908
30
0
11
-0.325
21
19.697908
31
0
39
0
210
0
220
0
230
1
0
LINE
5
BE
100
AcDbEntity
8
1
62
256
6
ByLayer
370
18
48
1
60
0
100
AcDbLine
10
0.343279
20
20.083738
30
0
11
-0.325
21
19.697908
31
0
39
0
210
0
220
0
230
1
0
LINE
5
BF
100
AcDbEntity
8
1
62
256
6
ByLayer
370
18
48
1
60
0
100
AcDbLine
10
0.343279
20
15.583738
30
0
11
-0.010347
21
15.379572
31
0
39
0
210
0
220
0
230
1
0
LINE
5
C0
100
AcDbEntity
8
1
62
256
6
ByLayer
370
18
48
1
60
0
100
AcDbLine
10
0.425
20
17.171737
30
0
11
0.425
21
15.849078
31
0
39
0
210
0
220
0
230
1
0
LINE
5
C1
100
AcDbEntity
8
1
62
256
6
ByLayer
370
18
48
1
60
0
100
AcDbLine
10
6.675
20
15.379572
30
0
11
6.675
21
20.425558
31
0
39
0
210
0
220
0
230
1
0
LINE
5
C2
100
AcDbEntity
8
1
62
256
6
ByLayer
370
18
48
1
60
0
100
AcDbLine
10
0.675
20
25
30
0
11
-0.325
21
24
31
0
39
0
210
0
220
0
230
1
0
LINE
5
C3
100
AcDbEntity
8
1
62
256
6
ByLayer
370
18
48
1
60
0
100
AcDbLine
10
13.976295
20
30
30
0
11
12.430943
21
25.538179
31
0
39
0
210
0
220
0
230
1
0
LINE
5
C4
100
AcDbEntity
8
1
62
256
6
ByLayer
370
18
48
1
60
0
100
AcDbLine
10
11.325
20
21.425594
30
0
11
15.675
21
21.425594
31
0
39
0
210
0
220
0
230
1
0
LINE
5
C5
100
AcDbEntity
8
1
62
256
6
ByLayer
370
18
48
1
60
0
100
AcDbLine
10
15.675
20
17.919338
30
0
11
11.325
21
17.919338
31
0
39
0
210
0
220
0
230
1
0
LINE
5
C6
100
AcDbEntity
8
1
62
256
6
ByLayer
370
18
48
1
60
0
100
AcDbLine
10
0.343279
20
20.083738
30
0
11
0.343279
21
20.259944
31
0
39
0
210
0
220
0
230
1
0
LINE
5
C7
100
AcDbEntity
8
1
62
256
6
ByLayer
370
18
48
1
60
0
100
AcDbLine
10
-0.325
20
19.697908
30
0
11
-0.325
21
19.714268
31
0
39
0
210
0
220
0
230
1
0
LINE
5
C8
100
AcDbEntity
8
1
62
256
6
ByLayer
370
18
48
1
60
0
100
AcDbLine
10
-0.325
20
-19.714268
30
0
11
-0.325
21
-18.883587
31
0
39
0
210
0
220
0
230
1
0
LINE
5
C9
100
AcDbEntity
8
1
62
256
6
ByLayer
370
18
48
1
60
0
100
AcDbLine
10
22.65725
20
-4.133551
30
0
11
22.65725
21
-4.467923
31
0
39
0
210
0
220
0
230
1
0
LINE
5
CA
100
AcDbEntity
8
1
62
256
6
ByLayer
370
18
48
1
60
0
100
AcDbLine
10
22.65725
20
24.467923
30
0
11
22.65725
21
24.133551
31
0
39
0
210
0
220
0
230
1
0
LINE
5
CB
100
AcDbEntity
8
1
62
256
6
ByLayer
370
18
48
1
60
0
100
AcDbLine
10
22.65725
20
18.62685
30
0
11
22.65725
21
18.272645
31
0
39
0
210
0
220
0
230
1
0
LINE
5
CC
100
AcDbEntity
8
1
62
256
6
ByLayer
370
18
48
1
60
0
100
AcDbLine
10
23.325
20
-2.776639
30
0
11
23.325
21
-3.914899
31
0
39
0
210
0
220
0
230
1
0
LINE
5
CD
100
AcDbEntity
8
1
62
256
6
ByLayer
370
18
48
1
60
0
100
AcDbLine
10
23.325
20
23.914899
30
0
11
23.325
21
22.776639
31
0
39
0
210
0
220
0
230
1
0
LINE
5
CE
100
AcDbEntity
8
1
62
256
6
ByLayer
370
18
48
1
60
0
100
AcDbLine
10
23.325
20
19.012375
30
0
11
23.325
21
17.88712
31
0
39
0
210
0
220
0
230
1
0
LINE
5
CF
100
AcDbEntity
8
1
62
256
6
ByLayer
370
18
48
1
60
0
100
AcDbLine
10
0.343279
20
-21.223462
30
0
11
0.343279
21
-21.010121
31
0
39
0
210
0
220
0
230
1
0
LINE
5
D0
100
AcDbEntity
8
1
62
256
6
ByLayer
370
18
48
1
60
0
100
AcDbLine
10
0.343279
20
18.583738
30
0
11
0.343279
21
18.937077
31
0
39
0
210
0
220
0
230
1
0
LINE
5
D1
100
AcDbEntity
8
1
62
256
6
ByLayer
370
18
48
1
60
0
100
AcDbLine
10
0.343279
20
21.010121
30
0
11
0.343279
21
21.223462
31
0
39
0
210
0
220
0
230
1
0
LINE
5
D2
100
AcDbEntity
8
1
62
256
6
ByLayer
370
18
48
1
60
0
100
AcDbLine
10
-0.325
20
18.197908
30
0
11
-0.325
21
19.322908
31
0
39
0
210
0
220
0
230
1
0
LINE
5
D3
100
AcDbEntity
8
1
62
256
6
ByLayer
370
18
48
1
60
0
100
AcDbLine
10
-0.325
20
19.96941
30
0
11
-0.325
21
20.675223
31
0
39
0
210
0
220
0
230
1
0
LINE
5
D4
100
AcDbEntity
8
1
62
256
6
ByLayer
370
18
48
1
60
0
100
AcDbLine
10
-0.325
20
-20.675223
30
0
11
-0.325
21
-19.96941
31
0
39
0
210
0
220
0
230
1
0
LINE
5
D5
100
AcDbEntity
8
1
62
256
6
ByLayer
370
18
48
1
60
0
100
AcDbLine
10
22.65725
20
25.71749
30
0
11
22.65725
21
25.444694
31
0
39
0
210
0
220
0
230
1
0
LINE
5
D6
100
AcDbEntity
8
1
62
256
6
ByLayer
370
18
48
1
60
0
100
AcDbLine
10
22.65725
20
-5.444694
30
0
11
22.65725
21
-5.646934
31
0
39
0
210
0
220
0
230
1
0
LINE
5
D7
100
AcDbEntity
8
1
62
256
6
ByLayer
370
18
48
1
60
0
100
AcDbLine
10
22.65725
20
17.12685
30
0
11
22.65725
21
16.772645
31
0
39
0
210
0
220
0
230
1
0
LINE
5
D8
100
AcDbEntity
8
1
62
256
6
ByLayer
370
18
48
1
60
0
100
AcDbLine
10
23.325
20
-4.254136
30
0
11
23.325
21
-5.171899
31
0
39
0
210
0
220
0
230
1
0
LINE
5
D9
100
AcDbEntity
8
1
62
256
6
ByLayer
370
18
48
1
60
0
100
AcDbLine
10
23.325
20
17.233971
30
0
11
23.325
21
16.38712
31
0
39
0
210
0
220
0
230
1
0
LINE
5
DA
100
AcDbEntity
8
1
62
256
6
ByLayer
370
18
48
1
60
0
100
AcDbLine
10
23.325
20
25.171899
30
0
11
23.325
21
24.254136
31
0
39
0
210
0
220
0
230
1
0
LINE
5
DB
100
AcDbEntity
8
1
62
256
6
ByLayer
370
18
48
1
60
0
100
AcDbLine
10
0.343279
20
-22.04326
30
0
11
0.343279
21
-21.862187
31
0
39
0
210
0
220
0
230
1
0
LINE
5
DC
100
AcDbEntity
8
1
62
256
6
ByLayer
370
18
48
1
60
0
100
AcDbLine
10
0.343279
20
17.19931
30
0
11
0.343279
21
17.437077
31
0
39
0
210
0
220
0
230
1
0
LINE
5
DD
100
AcDbEntity
8
1
62
256
6
ByLayer
370
18
48
1
60
0
100
AcDbLine
10
0.343279
20
21.862187
30
0
11
0.343279
21
22.04326
31
0
39
0
210
0
220
0
230
1
0
LINE
5
DE
100
AcDbEntity
8
1
62
256
6
ByLayer
370
18
48
1
60
0
100
AcDbLine
10
0.343279
20
16.052648
30
0
11
-0.325
21
17.383568
31
0
39
0
210
0
220
0
230
1
0
LINE
5
DF
100
AcDbEntity
8
1
62
256
6
ByLayer
370
18
48
1
60
0
100
AcDbLine
10
-0.325
20
17.383568
30
0
11
-0.325
21
17.758568
31
0
39
0
210
0
220
0
230
1
0
LINE
5
E0
100
AcDbEntity
8
1
62
256
6
ByLayer
370
18
48
1
60
0
100
AcDbLine
10
-0.325
20
17.758568
30
0
11
0.343279
21
17.19931
31
0
39
0
210
0
220
0
230
1
0
LINE
5
E1
100
AcDbEntity
8
1
62
256
6
ByLayer
370
18
48
1
60
0
100
AcDbLine
10
-0.325
20
17.758568
30
0
11
-0.325
21
17.822908
31
0
39
0
210
0
220
0
230
1
0
LINE
5
E2
100
AcDbEntity
8
1
62
256
6
ByLayer
370
18
48
1
60
0
100
AcDbLine
10
-0.325
20
20.891741
30
0
11
-0.325
21
21.489005
31
0
39
0
210
0
220
0
230
1
0
LINE
5
E3
100
AcDbEntity
8
1
62
256
6
ByLayer
370
18
48
1
60
0
100
AcDbLine
10
-0.325
20
-21.489005
30
0
11
-0.325
21
-20.891741
31
0
39
0
210
0
220
0
230
1
0
LINE
5
E4
100
AcDbEntity
8
1
62
256
6
ByLayer
370
18
48
1
60
0
100
AcDbLine
10
22.65725
20
26.740913
30
0
11
22.65725
21
26.51726
31
0
39
0
210
0
220
0
230
1
0
LINE
5
E5
100
AcDbEntity
8
1
62
256
6
ByLayer
370
18
48
1
60
0
100
AcDbLine
10
22.65725
20
15.62685
30
0
11
22.65725
21
15.272645
31
0
39
0
210
0
220
0
230
1
0
LINE
5
E6
100
AcDbEntity
8
1
62
256
6
ByLayer
370
18
48
1
60
0
100
AcDbLine
10
22.65725
20
-5.841239
30
0
11
22.65725
21
-5.943664
31
0
39
0
210
0
220
0
230
1
0
LINE
5
E7
100
AcDbEntity
8
1
62
256
6
ByLayer
370
18
48
1
60
0
100
AcDbLine
10
23.325
20
26.194093
30
0
11
23.325
21
25.447274
31
0
39
0
210
0
220
0
230
1
0
LINE
5
E8
100
AcDbEntity
8
1
62
256
6
ByLayer
370
18
48
1
60
0
100
AcDbLine
10
23.325
20
-5.447274
30
0
11
23.325
21
-6.079645
31
0
39
0
210
0
220
0
230
1
0
LINE
5
E9
100
AcDbEntity
8
1
62
256
6
ByLayer
370
18
48
1
60
0
100
AcDbLine
10
23.325
20
16.012375
30
0
11
23.325
21
14.88712
31
0
39
0
210
0
220
0
230
1
0
LINE
5
EA
100
AcDbEntity
8
1
62
256
6
ByLayer
370
18
48
1
60
0
100
AcDbLine
10
0.343279
20
-22.734892
30
0
11
0.343279
21
-22.582852
31
0
39
0
210
0
220
0
230
1
0
LINE
5
EB
100
AcDbEntity
8
1
62
256
6
ByLayer
370
18
48
1
60
0
100
AcDbLine
10
0.343279
20
15.583738
30
0
11
0.343279
21
16.052648
31
0
39
0
210
0
220
0
230
1
0
LINE
5
EC
100
AcDbEntity
8
1
62
256
6
ByLayer
370
18
48
1
60
0
100
AcDbLine
10
0.343279
20
22.582852
30
0
11
0.343279
21
22.734892
31
0
39
0
210
0
220
0
230
1
0
LINE
5
ED
100
AcDbEntity
8
1
62
256
6
ByLayer
370
18
48
1
60
0
100
AcDbLine
10
-0.325
20
15.186195
30
0
11
-0.325
21
17.383568
31
0
39
0
210
0
220
0
230
1
0
LINE
5
EE
100
AcDbEntity
8
1
62
256
6
ByLayer
370
18
48
1
60
0
100
AcDbLine
10
-0.325
20
21.671464
30
0
11
-0.325
21
22.171825
31
0
39
0
210
0
220
0
230
1
0
LINE
5
EF
100
AcDbEntity
8
1
62
256
6
ByLayer
370
18
48
1
60
0
100
AcDbLine
10
-0.325
20
-22.171825
30
0
11
-0.325
21
-21.671464
31
0
39
0
210
0
220
0
230
1
0
LINE
5
F0
100
AcDbEntity
8
1
62
256
6
ByLayer
370
18
48
1
60
0
100
AcDbLine
10
22.65725
20
27.577738
30
0
11
22.65725
21
27.395436
31
0
39
0
210
0
220
0
230
1
0
LINE
5
F1
100
AcDbEntity
8
1
62
256
6
ByLayer
370
18
48
1
60
0
100
AcDbLine
10
22.65725
20
-6.429624
30
0
11
22.65725
21
-6.634198
31
0
39
0
210
0
220
0
230
1
0
LINE
5
F2
100
AcDbEntity
8
1
62
256
6
ByLayer
370
18
48
1
60
0
100
AcDbLine
10
23.325
20
-6.23787
30
0
11
23.325
21
-6.891435
31
0
39
0
210
0
220
0
230
1
0
LINE
5
F3
100
AcDbEntity
8
1
62
256
6
ByLayer
370
18
48
1
60
0
100
AcDbLine
10
23.325
20
14.458622
30
0
11
23.325
21
13.68874
31
0
39
0
210
0
220
0
230
1
0
LINE
5
F4
100
AcDbEntity
8
1
62
256
6
ByLayer
370
18
48
1
60
0
100
AcDbLine
10
23.325
20
27.023829
30
0
11
23.325
21
26.418165
31
0
39
0
210
0
220
0
230
1
0
LINE
5
F5
100
AcDbEntity
8
1
62
256
6
ByLayer
370
18
48
1
60
0
100
AcDbLine
10
0.343279
20
23.184374
30
0
11
0.343279
21
23.309768
31
0
39
0
210
0
220
0
230
1
0
LINE
5
F6
100
AcDbEntity
8
1
62
256
6
ByLayer
370
18
48
1
60
0
100
AcDbLine
10
0.343279
20
-23.309768
30
0
11
0.343279
21
-23.184374
31
0
39
0
210
0
220
0
230
1
0
LINE
5
F7
100
AcDbEntity
8
1
62
256
6
ByLayer
370
18
48
1
60
0
100
AcDbLine
10
-0.325
20
-22.735486
30
0
11
-0.325
21
-22.323527
31
0
39
0
210
0
220
0
230
1
0
LINE
5
F8
100
AcDbEntity
8
1
62
256
6
ByLayer
370
18
48
1
60
0
100
AcDbLine
10
-0.325
20
13.677092
30
0
11
-0.325
21
14.692901
31
0
39
0
210
0
220
0
230
1
0
LINE
5
F9
100
AcDbEntity
8
1
62
256
6
ByLayer
370
18
48
1
60
0
100
AcDbLine
10
-0.325
20
22.323527
30
0
11
-0.325
21
22.735486
31
0
39
0
210
0
220
0
230
1
0
LINE
5
FA
100
AcDbEntity
8
1
62
256
6
ByLayer
370
18
48
1
60
0
100
AcDbLine
10
22.65725
20
-7.526876
30
0
11
22.65725
21
-7.897189
31
0
39
0
210
0
220
0
230
1
0
LINE
5
FB
100
AcDbEntity
8
1
62
256
6
ByLayer
370
18
48
1
60
0
100
AcDbLine
10
22.65725
20
28.253645
30
0
11
22.65725
21
28.107526
31
0
39
0
210
0
220
0
230
1
0
LINE
5
FC
100
AcDbEntity
8
1
62
256
6
ByLayer
370
18
48
1
60
0
100
AcDbLine
10
23.325
20
-7.18097
30
0
11
23.325
21
-7.688213
31
0
39
0
210
0
220
0
230
1
0
LINE
5
FD
100
AcDbEntity
8
1
62
256
6
ByLayer
370
18
48
1
60
0
100
AcDbLine
10
23.325
20
27.688213
30
0
11
23.325
21
27.204477
31
0
39
0
210
0
220
0
230
1
0
LINE
5
FE
100
AcDbEntity
8
1
62
256
6
ByLayer
370
18
48
1
60
0
100
AcDbLine
10
22.325
20
-10
30
0
11
22.556678
21
-9.768322
31
0
39
0
210
0
220
0
230
1
0
LINE
5
FF
100
AcDbEntity
8
1
62
256
6
ByLayer
370
18
48
1
60
0
100
AcDbLine
10
0.343279
20
-23.77636
30
0
11
0.343279
21
-23.675836
31
0
39
0
210
0
220
0
230
1
0
LINE
5
100
100
AcDbEntity
8
1
62
256
6
ByLayer
370
18
48
1
60
0
100
AcDbLine
10
0.343279
20
23.675836
30
0
11
0.343279
21
23.77636
31
0
39
0
210
0
220
0
230
1
0
LINE
5
101
100
AcDbEntity
8
1
62
256
6
ByLayer
370
18
48
1
60
0
100
AcDbLine
10
11.8
20
-10
30
0
11
22.325
21
-10
31
0
39
0
210
0
220
0
230
1
0
LINE
5
102
100
AcDbEntity
8
1
62
256
6
ByLayer
370
18
48
1
60
0
100
AcDbLine
10
-0.325
20
22.858857
30
0
11
-0.325
21
23.188679
31
0
39
0
210
0
220
0
230
1
0
LINE
5
103
100
AcDbEntity
8
1
62
256
6
ByLayer
370
18
48
1
60
0
100
AcDbLine
10
-0.325
20
-23.188679
30
0
11
-0.325
21
-22.858857
31
0
39
0
210
0
220
0
230
1
0
LINE
5
104
100
AcDbEntity
8
1
62
256
6
ByLayer
370
18
48
1
60
0
100
AcDbLine
10
22.65725
20
28.786012
30
0
11
22.65725
21
28.672541
31
0
39
0
210
0
220
0
230
1
0
LINE
5
105
100
AcDbEntity
8
1
62
256
6
ByLayer
370
18
48
1
60
0
100
AcDbLine
10
22.65725
20
-8.672541
30
0
11
22.65725
21
-8.786012
31
0
39
0
210
0
220
0
230
1
0
LINE
5
106
100
AcDbEntity
8
1
62
256
6
ByLayer
370
18
48
1
60
0
100
AcDbLine
10
23.325
20
28.205356
30
0
11
23.325
21
27.830645
31
0
39
0
210
0
220
0
230
1
0
LINE
5
107
100
AcDbEntity
8
1
62
256
6
ByLayer
370
18
48
1
60
0
100
AcDbLine
10
23.325
20
-7.830645
30
0
11
23.325
21
-8.205356
31
0
39
0
210
0
220
0
230
1
0
LINE
5
108
100
AcDbEntity
8
1
62
256
6
ByLayer
370
18
48
1
60
0
100
AcDbLine
10
0.343279
20
24.063982
30
0
11
0.343279
21
24.140946
31
0
39
0
210
0
220
0
230
1
0
LINE
5
109
100
AcDbEntity
8
1
62
256
6
ByLayer
370
18
48
1
60
0
100
AcDbLine
10
0.343279
20
-24.140946
30
0
11
0.343279
21
-24.063982
31
0
39
0
210
0
220
0
230
1
0
LINE
5
10A
100
AcDbEntity
8
1
62
256
6
ByLayer
370
18
48
1
60
0
100
AcDbLine
10
-0.325
20
23.285507
30
0
11
-0.325
21
23.537785
31
0
39
0
210
0
220
0
230
1
0
LINE
5
10B
100
AcDbEntity
8
1
62
256
6
ByLayer
370
18
48
1
60
0
100
AcDbLine
10
-0.325
20
-23.537785
30
0
11
-0.325
21
-23.285507
31
0
39
0
210
0
220
0
230
1
0
LINE
5
10C
100
AcDbEntity
8
1
62
256
6
ByLayer
370
18
48
1
60
0
100
AcDbLine
10
22.65725
20
-9.103536
30
0
11
22.65725
21
-9.186791
31
0
39
0
210
0
220
0
230
1
0
LINE
5
10D
100
AcDbEntity
8
1
62
256
6
ByLayer
370
18
48
1
60
0
100
AcDbLine
10
22.65725
20
29.186791
30
0
11
22.65725
21
29.103536
31
0
39
0
210
0
220
0
230
1
0
LINE
5
10E
100
AcDbEntity
8
1
62
256
6
ByLayer
370
18
48
1
60
0
100
AcDbLine
10
23.325
20
-8.313105
30
0
11
23.325
21
-8.587552
31
0
39
0
210
0
220
0
230
1
0
LINE
5
10F
100
AcDbEntity
8
1
62
256
6
ByLayer
370
18
48
1
60
0
100
AcDbLine
10
23.325
20
28.587552
30
0
11
23.325
21
28.313105
31
0
39
0
210
0
220
0
230
1
0
LINE
5
110
100
AcDbEntity
8
1
62
256
6
ByLayer
370
18
48
1
60
0
100
AcDbLine
10
0.343279
20
24.353752
30
0
11
0.343279
21
24.408099
31
0
39
0
210
0
220
0
230
1
0
LINE
5
111
100
AcDbEntity
8
1
62
256
6
ByLayer
370
18
48
1
60
0
100
AcDbLine
10
0.343279
20
-24.408099
30
0
11
0.343279
21
-24.353752
31
0
39
0
210
0
220
0
230
1
0
LINE
5
112
100
AcDbEntity
8
1
62
256
6
ByLayer
370
18
48
1
60
0
100
AcDbLine
10
-0.325
20
23.60937
30
0
11
-0.325
21
23.787388
31
0
39
0
210
0
220
0
230
1
0
LINE
5
113
100
AcDbEntity
8
1
62
256
6
ByLayer
370
18
48
1
60
0
100
AcDbLine
10
-0.325
20
-23.787388
30
0
11
-0.325
21
-23.60937
31
0
39
0
210
0
220
0
230
1
0
LINE
5
114
100
AcDbEntity
8
1
62
256
6
ByLayer
370
18
48
1
60
0
100
AcDbLine
10
22.65725
20
-9.409441
30
0
11
22.65725
21
-9.464112
31
0
39
0
210
0
220
0
230
1
0
LINE
5
115
100
AcDbEntity
8
1
62
256
6
ByLayer
370
18
48
1
60
0
100
AcDbLine
10
22.65725
20
29.464112
30
0
11
22.65725
21
29.409441
31
0
39
0
210
0
220
0
230
1
0
LINE
5
116
100
AcDbEntity
8
1
62
256
6
ByLayer
370
18
48
1
60
0
100
AcDbLine
10
23.325
20
28.843015
30
0
11
23.325
21
28.663003
31
0
39
0
210
0
220
0
230
1
0
LINE
5
117
100
AcDbEntity
8
1
62
256
6
ByLayer
370
18
48
1
60
0
100
AcDbLine
10
23.325
20
-8.663003
30
0
11
23.325
21
-8.843015
31
0
39
0
210
0
220
0
230
1
0
LINE
5
118
100
AcDbEntity
8
1
62
256
6
ByLayer
370
18
48
1
60
0
100
AcDbLine
10
0.343279
20
24.54863
30
0
11
0.343279
21
24.580994
31
0
39
0
210
0
220
0
230
1
0
LINE
5
119
100
AcDbEntity
8
1
62
256
6
ByLayer
370
18
48
1
60
0
100
AcDbLine
10
0.343279
20
-24.580994
30
0
11
0.343279
21
-24.54863
31
0
39
0
210
0
220
0
230
1
0
LINE
5
11A
100
AcDbEntity
8
1
62
256
6
ByLayer
370
18
48
1
60
0
100
AcDbLine
10
-0.325
20
23.834635
30
0
11
-0.325
21
23.9406
31
0
39
0
210
0
220
0
230
1
0
LINE
5
11B
100
AcDbEntity
8
1
62
256
6
ByLayer
370
18
48
1
60
0
100
AcDbLine
10
-0.325
20
-23.9406
30
0
11
-0.325
21
-23.834635
31
0
39
0
210
0
220
0
230
1
0
LINE
5
11C
100
AcDbEntity
8
1
62
256
6
ByLayer
370
18
48
1
60
0
100
AcDbLine
10
22.65725
20
-9.596115
30
0
11
22.65725
21
-9.623209
31
0
39
0
210
0
220
0
230
1
0
LINE
5
11D
100
AcDbEntity
8
1
62
256
6
ByLayer
370
18
48
1
60
0
100
AcDbLine
10
22.65725
20
29.623209
30
0
11
22.65725
21
29.596115
31
0
39
0
210
0
220
0
230
1
0
LINE
5
11E
100
AcDbEntity
8
1
62
256
6
ByLayer
370
18
48
1
60
0
100
AcDbLine
10
23.325
20
28.976863
30
0
11
23.325
21
28.887709
31
0
39
0
210
0
220
0
230
1
0
LINE
5
11F
100
AcDbEntity
8
1
62
256
6
ByLayer
370
18
48
1
60
0
100
AcDbLine
10
23.325
20
-8.887709
30
0
11
23.325
21
-8.976863
31
0
39
0
210
0
220
0
230
1
0
LINE
5
120
100
AcDbEntity
8
1
62
256
6
ByLayer
370
18
48
1
60
0
100
AcDbLine
10
0.343279
20
-24.661615
30
0
11
0.343279
21
-24.650867
31
0
39
0
210
0
220
0
230
1
0
LINE
5
121
100
AcDbEntity
8
1
62
256
6
ByLayer
370
18
48
1
60
0
100
AcDbLine
10
0.343279
20
24.650867
30
0
11
0.343279
21
24.661615
31
0
39
0
210
0
220
0
230
1
0
LINE
5
122
100
AcDbEntity
8
1
62
256
6
ByLayer
370
18
48
1
60
0
100
AcDbLine
10
-0.325
20
23.964084
30
0
11
-0.325
21
23.999268
31
0
39
0
210
0
220
0
230
1
0
LINE
5
123
100
AcDbEntity
8
1
62
256
6
ByLayer
370
18
48
1
60
0
100
AcDbLine
10
-0.325
20
-23.999268
30
0
11
-0.325
21
-23.964084
31
0
39
0
210
0
220
0
230
1
0
LINE
5
124
100
AcDbEntity
8
SK1
62
256
6
ByLayer
370
18
48
1
60
0
100
AcDbLine
10
-3.125
20
4
30
0
11
-3.725
21
3.65359
31
0
39
0
210
0
220
0
230
1
0
LINE
5
126
100
AcDbEntity
8
SK1
62
256
6
ByLayer
370
18
48
1
60
0
100
AcDbLine
10
-3.725
20
-3.65359
30
0
11
-3.125
21
-4
31
0
39
0
210
0
220
0
230
1
0
LINE
5
127
100
AcDbEntity
8
SK1
62
256
6
ByLayer
370
18
48
1
60
0
100
AcDbLine
10
-0.325
20
4
30
0
11
-3.125
21
4
31
0
39
0
210
0
220
0
230
1
0
LINE
5
128
100
AcDbEntity
8
SK1
62
256
6
ByLayer
370
18
48
1
60
0
100
AcDbLine
10
-3.125
20
-4
30
0
11
-0.325
21
-4
31
0
39
0
210
0
220
0
230
1
0
LINE
5
129
100
AcDbEntity
8
SK1
62
256
6
ByLayer
370
18
48
1
60
0
100
AcDbLine
10
33.675
20
24.899495
30
0
11
27.675
21
24.899495
31
0
39
0
210
0
220
0
230
1
0
LINE
5
12A
100
AcDbEntity
8
SK1
62
256
6
ByLayer
370
18
48
1
60
0
100
AcDbLine
10
27.675
20
14.899495
30
0
11
33.675
21
14.899495
31
0
39
0
210
0
220
0
230
1
0
LINE
5
12B
100
AcDbEntity
8
SK1
62
256
6
ByLayer
370
18
48
1
60
0
100
AcDbLine
10
27.675
20
22.899495
30
0
11
23.325
21
22.899495
31
0
39
0
210
0
220
0
230
1
0
LINE
5
12C
100
AcDbEntity
8
SK1
62
256
6
ByLayer
370
18
48
1
60
0
100
AcDbLine
10
23.325
20
16.899495
30
0
11
27.675
21
16.899495
31
0
39
0
210
0
220
0
230
1
0
LINE
5
12D
100
AcDbEntity
8
1
62
256
6
ByLayer
370
18
48
1
60
0
100
AcDbLine
10
15.675
20
17.399495
30
0
11
15.975
21
17.099495
31
0
39
0
210
0
220
0
230
1
0
LINE
5
12E
100
AcDbEntity
8
SK1
62
256
6
ByLayer
370
18
48
1
60
0
100
AcDbLine
10
33.675
20
5.100505
30
0
11
27.675
21
5.100505
31
0
39
0
210
0
220
0
230
1
0
LINE
5
12F
100
AcDbEntity
8
SK1
62
256
6
ByLayer
370
18
48
1
60
0
100
AcDbLine
10
27.675
20
-4.899495
30
0
11
33.675
21
-4.899495
31
0
39
0
210
0
220
0
230
1
0
LINE
5
130
100
AcDbEntity
8
SK1
62
256
6
ByLayer
370
18
48
1
60
0
100
AcDbLine
10
27.675
20
3.100505
30
0
11
23.325
21
3.100505
31
0
39
0
210
0
220
0
230
1
0
LINE
5
131
100
AcDbEntity
8
SK1
62
256
6
ByLayer
370
18
48
1
60
0
100
AcDbLine
10
23.325
20
-2.899495
30
0
11
27.675
21
-2.899495
31
0
39
0
210
0
220
0
230
1
0
LINE
5
132
100
AcDbEntity
8
1
62
256
6
ByLayer
370
18
48
1
60
0
100
AcDbLine
10
-0.325
20
-23.999268
30
0
11
-0.325
21
-24
31
0
39
0
210
0
220
0
230
1
0
LINE
5
133
100
AcDbEntity
8
1
62
256
6
ByLayer
370
18
48
1
60
0
100
AcDbLine
10
-0.325
20
-23.9406
30
0
11
-0.325
21
-23.964084
31
0
39
0
210
0
220
0
230
1
0
LINE
5
134
100
AcDbEntity
8
1
62
256
6
ByLayer
370
18
48
1
60
0
100
AcDbLine
10
-0.325
20
-23.787388
30
0
11
-0.325
21
-23.834635
31
0
39
0
210
0
220
0
230
1
0
LINE
5
135
100
AcDbEntity
8
1
62
256
6
ByLayer
370
18
48
1
60
0
100
AcDbLine
10
-0.325
20
-23.537785
30
0
11
-0.325
21
-23.60937
31
0
39
0
210
0
220
0
230
1
0
LINE
5
136
100
AcDbEntity
8
1
62
256
6
ByLayer
370
18
48
1
60
0
100
AcDbLine
10
-0.325
20
-23.188679
30
0
11
-0.325
21
-23.285507
31
0
39
0
210
0
220
0
230
1
0
LINE
5
137
100
AcDbEntity
8
1
62
256
6
ByLayer
370
18
48
1
60
0
100
AcDbLine
10
-0.325
20
-22.735486
30
0
11
-0.325
21
-22.858857
31
0
39
0
210
0
220
0
230
1
0
LINE
5
138
100
AcDbEntity
8
1
62
256
6
ByLayer
370
18
48
1
60
0
100
AcDbLine
10
-0.325
20
-22.171825
30
0
11
-0.325
21
-22.323527
31
0
39
0
210
0
220
0
230
1
0
LINE
5
139
100
AcDbEntity
8
1
62
256
6
ByLayer
370
18
48
1
60
0
100
AcDbLine
10
-0.325
20
-21.489005
30
0
11
-0.325
21
-21.671464
31
0
39
0
210
0
220
0
230
1
0
LINE
5
13A
100
AcDbEntity
8
1
62
256
6
ByLayer
370
18
48
1
60
0
100
AcDbLine
10
-0.325
20
-20.675223
30
0
11
-0.325
21
-20.891741
31
0
39
0
210
0
220
0
230
1
0
LINE
5
13B
100
AcDbEntity
8
1
62
256
6
ByLayer
370
18
48
1
60
0
100
AcDbLine
10
-0.325
20
-19.714268
30
0
11
-0.325
21
-19.96941
31
0
39
0
210
0
220
0
230
1
0
LINE
5
13C
100
AcDbEntity
8
1
62
256
6
ByLayer
370
18
48
1
60
0
100
AcDbLine
10
-0.325
20
-18.583322
30
0
11
-0.325
21
-18.883587
31
0
39
0
210
0
220
0
230
1
0
LINE
5
13D
100
AcDbEntity
8
1
62
256
6
ByLayer
370
18
48
1
60
0
100
AcDbLine
10
-0.325
20
-17.248981
30
0
11
-0.325
21
-17.604043
31
0
39
0
210
0
220
0
230
1
0
LINE
5
13E
100
AcDbEntity
8
1
62
256
6
ByLayer
370
18
48
1
60
0
100
AcDbLine
10
-0.325
20
-15.659337
30
0
11
-0.325
21
-16.084615
31
0
39
0
210
0
220
0
230
1
0
LINE
5
13F
100
AcDbEntity
8
1
62
256
6
ByLayer
370
18
48
1
60
0
100
AcDbLine
10
-0.325
20
-13.725973
30
0
11
-0.325
21
-14.248766
31
0
39
0
210
0
220
0
230
1
0
LINE
5
140
100
AcDbEntity
8
1
62
256
6
ByLayer
370
18
48
1
60
0
100
AcDbLine
10
-0.325
20
-11.273413
30
0
11
-0.325
21
-11.951562
31
0
39
0
210
0
220
0
230
1
0
LINE
5
141
100
AcDbEntity
8
1
62
256
6
ByLayer
370
18
48
1
60
0
100
AcDbLine
10
-0.325
20
-7.827985
30
0
11
-0.325
21
-8.840381
31
0
39
0
210
0
220
0
230
1
0
LINE
5
142
100
AcDbEntity
8
1
62
256
6
ByLayer
370
18
48
1
60
0
100
AcDbLine
10
-0.325
20
2.994135
30
0
11
-0.325
21
-2.994135
31
0
39
0
210
0
220
0
230
1
0
LINE
5
143
100
AcDbEntity
8
1
62
256
6
ByLayer
370
18
48
1
60
0
100
AcDbLine
10
-0.325
20
8.840381
30
0
11
-0.325
21
7.827985
31
0
39
0
210
0
220
0
230
1
0
LINE
5
144
100
AcDbEntity
8
1
62
256
6
ByLayer
370
18
48
1
60
0
100
AcDbLine
10
-0.325
20
11.951562
30
0
11
-0.325
21
11.273413
31
0
39
0
210
0
220
0
230
1
0
LINE
5
145
100
AcDbEntity
8
1
62
256
6
ByLayer
370
18
48
1
60
0
100
AcDbLine
10
0.675
20
14.415151
30
0
11
0.675
21
-25
31
0
39
0
210
0
220
0
230
1
0
LINE
5
146
100
AcDbEntity
8
1
62
256
6
ByLayer
370
18
48
1
60
0
100
AcDbLine
10
11
20
-25
30
0
11
11
21
12.248156
31
0
39
0
210
0
220
0
230
1
0
LINE
5
147
100
AcDbEntity
8
1
62
256
6
ByLayer
370
18
48
1
60
0
100
AcDbLine
10
6.675
20
12.248156
30
0
11
6.675
21
14.415151
31
0
39
0
210
0
220
0
230
1
0
LINE
5
148
100
AcDbEntity
8
1
62
256
6
ByLayer
370
18
48
1
60
0
100
AcDbLine
10
11.8
20
-5.62526
30
0
11
11.8
21
10.449017
31
0
39
0
210
0
220
0
230
1
0
LINE
5
149
100
AcDbEntity
8
1
62
256
6
ByLayer
370
18
48
1
60
0
100
AcDbLine
10
23.325
20
11.541407
30
0
11
23.325
21
13.68874
31
0
39
0
210
0
220
0
230
1
0
LINE
5
14A
100
AcDbEntity
8
1
62
256
6
ByLayer
370
18
48
1
60
0
100
AcDbLine
10
23.325
20
5.946748
30
0
11
23.325
21
8.458593
31
0
39
0
210
0
220
0
230
1
0
LINE
5
14B
100
AcDbEntity
8
1
62
256
6
ByLayer
370
18
48
1
60
0
100
AcDbLine
10
23.325
20
1.641368
30
0
11
23.325
21
2.454269
31
0
39
0
210
0
220
0
230
1
0
LINE
5
14C
100
AcDbEntity
8
1
62
256
6
ByLayer
370
18
48
1
60
0
100
AcDbLine
10
23.325
20
-0.899753
30
0
11
23.325
21
-0.344089
31
0
39
0
210
0
220
0
230
1
0
LINE
5
14D
100
AcDbEntity
8
1
62
256
6
ByLayer
370
18
48
1
60
0
100
AcDbLine
10
23.325
20
-2.776639
30
0
11
23.325
21
-2.351611
31
0
39
0
210
0
220
0
230
1
0
LINE
5
14E
100
AcDbEntity
8
1
62
256
6
ByLayer
370
18
48
1
60
0
100
AcDbLine
10
23.325
20
-4.254136
30
0
11
23.325
21
-3.914899
31
0
39
0
210
0
220
0
230
1
0
LINE
5
14F
100
AcDbEntity
8
1
62
256
6
ByLayer
370
18
48
1
60
0
100
AcDbLine
10
22.325
20
-5.62526
30
0
11
22.325
21
14.530386
31
0
39
0
210
0
220
0
230
1
0
LINE
5
150
100
AcDbEntity
8
1
62
256
6
ByLayer
370
18
48
1
60
0
100
AcDbLine
10
15.975
20
10.449017
30
0
11
15.975
21
14.530386
31
0
39
0
210
0
220
0
230
1
0
LINE
5
151
100
AcDbEntity
8
1
62
256
6
ByLayer
370
18
48
1
60
0
100
AcDbLine
10
23.325
20
-6.079645
30
0
11
23.325
21
-6.23787
31
0
39
0
210
0
220
0
230
1
0
LINE
5
152
100
AcDbEntity
8
1
62
256
6
ByLayer
370
18
48
1
60
0
100
AcDbLine
10
23.325
20
-6.891435
30
0
11
23.325
21
-7.18097
31
0
39
0
210
0
220
0
230
1
0
LINE
5
153
100
AcDbEntity
8
1
62
256
6
ByLayer
370
18
48
1
60
0
100
AcDbLine
10
22.325
20
21.389748
30
0
11
22.325
21
30
31
0
39
0
210
0
220
0
230
1
0
LINE
5
154
100
AcDbEntity
8
1
62
256
6
ByLayer
370
18
48
1
60
0
100
AcDbLine
10
15.975
20
21.389748
30
0
11
15.975
21
23.913284
31
0
39
0
210
0
220
0
230
1
0
LINE
5
155
100
AcDbEntity
8
1
62
256
6
ByLayer
370
18
48
1
60
0
100
AcDbLine
10
23.325
20
28.976863
30
0
11
23.325
21
28.991668
31
0
39
0
210
0
220
0
230
1
0
LINE
5
156
100
AcDbEntity
8
1
62
256
6
ByLayer
370
18
48
1
60
0
100
AcDbLine
10
23.325
20
28.843015
30
0
11
23.325
21
28.887709
31
0
39
0
210
0
220
0
230
1
0
LINE
5
157
100
AcDbEntity
8
1
62
256
6
ByLayer
370
18
48
1
60
0
100
AcDbLine
10
23.325
20
28.587552
30
0
11
23.325
21
28.663003
31
0
39
0
210
0
220
0
230
1
0
LINE
5
158
100
AcDbEntity
8
1
62
256
6
ByLayer
370
18
48
1
60
0
100
AcDbLine
10
23.325
20
28.205356
30
0
11
23.325
21
28.313105
31
0
39
0
210
0
220
0
230
1
0
LINE
5
159
100
AcDbEntity
8
1
62
256
6
ByLayer
370
18
48
1
60
0
100
AcDbLine
10
23.325
20
27.688213
30
0
11
23.325
21
27.830645
31
0
39
0
210
0
220
0
230
1
0
LINE
5
15A
100
AcDbEntity
8
1
62
256
6
ByLayer
370
18
48
1
60
0
100
AcDbLine
10
23.325
20
27.023829
30
0
11
23.325
21
27.204477
31
0
39
0
210
0
220
0
230
1
0
LINE
5
15B
100
AcDbEntity
8
1
62
256
6
ByLayer
370
18
48
1
60
0
100
AcDbLine
10
23.325
20
26.194093
30
0
11
23.325
21
26.418165
31
0
39
0
210
0
220
0
230
1
0
LINE
5
15C
100
AcDbEntity
8
1
62
256
6
ByLayer
370
18
48
1
60
0
100
AcDbLine
10
23.325
20
25.171899
30
0
11
23.325
21
25.447274
31
0
39
0
210
0
220
0
230
1
0
LINE
5
15D
100
AcDbEntity
8
1
62
256
6
ByLayer
370
18
48
1
60
0
100
AcDbLine
10
23.325
20
23.914899
30
0
11
23.325
21
24.254136
31
0
39
0
210
0
220
0
230
1
0
LINE
5
15E
100
AcDbEntity
8
1
62
256
6
ByLayer
370
18
48
1
60
0
100
AcDbLine
10
23.325
20
22.351611
30
0
11
23.325
21
22.776639
31
0
39
0
210
0
220
0
230
1
0
LINE
5
15F
100
AcDbEntity
8
1
62
256
6
ByLayer
370
18
48
1
60
0
100
AcDbLine
10
23.325
20
20.670469
30
0
11
23.325
21
20.899753
31
0
39
0
210
0
220
0
230
1
0
LINE
5
160
100
AcDbEntity
8
1
62
256
6
ByLayer
370
18
48
1
60
0
100
AcDbLine
10
6.675
20
14.415151
30
0
11
6.675
21
15.379572
31
0
39
0
210
0
220
0
230
1
0
LINE
5
161
100
AcDbEntity
8
1
62
256
6
ByLayer
370
18
48
1
60
0
100
AcDbLine
10
-0.325
20
14.692901
30
0
11
-0.325
21
15.186195
31
0
39
0
210
0
220
0
230
1
0
LINE
5
162
100
AcDbEntity
8
1
62
256
6
ByLayer
370
18
48
1
60
0
100
AcDbLine
10
15.975
20
14.530386
30
0
11
15.975
21
14.849242
31
0
39
0
210
0
220
0
230
1
0
LINE
5
163
100
AcDbEntity
8
1
62
256
6
ByLayer
370
18
48
1
60
0
100
AcDbLine
10
23.325
20
14.849242
30
0
11
23.325
21
14.458622
31
0
39
0
210
0
220
0
230
1
0
LINE
5
164
100
AcDbEntity
8
1
62
256
6
ByLayer
370
18
48
1
60
0
100
AcDbLine
10
0.675
20
25
30
0
11
0.675
21
20.425558
31
0
39
0
210
0
220
0
230
1
0
LINE
5
165
100
AcDbEntity
8
1
62
256
6
ByLayer
370
18
48
1
60
0
100
AcDbLine
10
11.675
20
25
30
0
11
11.675
21
21.794097
31
0
39
0
210
0
220
0
230
1
0
LINE
5
166
100
AcDbEntity
8
1
62
256
6
ByLayer
370
18
48
1
60
0
100
AcDbLine
10
6.675
20
20.425558
30
0
11
6.675
21
21.794097
31
0
39
0
210
0
220
0
230
1
0
LINE
5
167
100
AcDbEntity
8
1
62
256
6
ByLayer
370
18
48
1
60
0
100
AcDbLine
10
-0.325
20
24
30
0
11
-0.325
21
23.999268
31
0
39
0
210
0
220
0
230
1
0
LINE
5
168
100
AcDbEntity
8
1
62
256
6
ByLayer
370
18
48
1
60
0
100
AcDbLine
10
-0.325
20
19.96941
30
0
11
-0.325
21
19.714268
31
0
39
0
210
0
220
0
230
1
0
LINE
5
169
100
AcDbEntity
8
1
62
256
6
ByLayer
370
18
48
1
60
0
100
AcDbLine
10
-0.325
20
20.891741
30
0
11
-0.325
21
20.675223
31
0
39
0
210
0
220
0
230
1
0
LINE
5
16A
100
AcDbEntity
8
1
62
256
6
ByLayer
370
18
48
1
60
0
100
AcDbLine
10
-0.325
20
21.671464
30
0
11
-0.325
21
21.489005
31
0
39
0
210
0
220
0
230
1
0
LINE
5
16B
100
AcDbEntity
8
1
62
256
6
ByLayer
370
18
48
1
60
0
100
AcDbLine
10
-0.325
20
22.323527
30
0
11
-0.325
21
22.171825
31
0
39
0
210
0
220
0
230
1
0
LINE
5
16C
100
AcDbEntity
8
1
62
256
6
ByLayer
370
18
48
1
60
0
100
AcDbLine
10
-0.325
20
22.858857
30
0
11
-0.325
21
22.735486
31
0
39
0
210
0
220
0
230
1
0
LINE
5
16D
100
AcDbEntity
8
1
62
256
6
ByLayer
370
18
48
1
60
0
100
AcDbLine
10
-0.325
20
23.285507
30
0
11
-0.325
21
23.188679
31
0
39
0
210
0
220
0
230
1
0
LINE
5
16E
100
AcDbEntity
8
1
62
256
6
ByLayer
370
18
48
1
60
0
100
AcDbLine
10
-0.325
20
23.60937
30
0
11
-0.325
21
23.537785
31
0
39
0
210
0
220
0
230
1
0
LINE
5
16F
100
AcDbEntity
8
1
62
256
6
ByLayer
370
18
48
1
60
0
100
AcDbLine
10
-0.325
20
23.834635
30
0
11
-0.325
21
23.787388
31
0
39
0
210
0
220
0
230
1
0
LINE
5
170
100
AcDbEntity
8
1
62
256
6
ByLayer
370
18
48
1
60
0
100
AcDbLine
10
-0.325
20
23.964084
30
0
11
-0.325
21
23.9406
31
0
39
0
210
0
220
0
230
1
0
LINE
5
171
100
AcDbEntity
8
1
62
256
6
ByLayer
370
18
48
1
60
0
100
AcDbLine
10
12.430943
20
25.538179
30
0
11
12.430943
21
22.188999
31
0
39
0
210
0
220
0
230
1
0
LINE
5
172
100
AcDbEntity
8
1
62
256
6
ByLayer
370
18
48
1
60
0
100
AcDbLine
10
11.325
20
17.919338
30
0
11
11.325
21
21.441067
31
0
39
0
210
0
220
0
230
1
0
LINE
5
173
100
AcDbEntity
8
1
62
256
6
ByLayer
370
18
48
1
60
0
100
AcDbLine
10
23.325
20
-5.447274
30
0
11
23.325
21
-5.171899
31
0
39
0
210
0
220
0
230
1
0
LINE
5
174
100
AcDbEntity
8
1
62
256
6
ByLayer
370
18
48
1
60
0
100
AcDbLine
10
22.325
20
-10
30
0
11
22.325
21
-8.879845
31
0
39
0
210
0
220
0
230
1
0
LINE
5
175
100
AcDbEntity
8
1
62
256
6
ByLayer
370
18
48
1
60
0
100
AcDbLine
10
23.325
20
-7.830645
30
0
11
23.325
21
-7.688213
31
0
39
0
210
0
220
0
230
1
0
LINE
5
176
100
AcDbEntity
8
1
62
256
6
ByLayer
370
18
48
1
60
0
100
AcDbLine
10
23.325
20
-8.313105
30
0
11
23.325
21
-8.205356
31
0
39
0
210
0
220
0
230
1
0
LINE
5
177
100
AcDbEntity
8
1
62
256
6
ByLayer
370
18
48
1
60
0
100
AcDbLine
10
23.325
20
-8.663003
30
0
11
23.325
21
-8.587552
31
0
39
0
210
0
220
0
230
1
0
LINE
5
178
100
AcDbEntity
8
1
62
256
6
ByLayer
370
18
48
1
60
0
100
AcDbLine
10
23.325
20
-8.887709
30
0
11
23.325
21
-8.843015
31
0
39
0
210
0
220
0
230
1
0
LINE
5
179
100
AcDbEntity
8
1
62
256
6
ByLayer
370
18
48
1
60
0
100
AcDbLine
10
23.325
20
-8.991668
30
0
11
23.325
21
-8.976863
31
0
39
0
210
0
220
0
230
1
0
LINE
5
17A
100
AcDbEntity
8
1
62
256
6
ByLayer
370
18
48
1
60
0
100
AcDbLine
10
11.8
20
-10
30
0
11
11.8
21
-8.879845
31
0
39
0
210
0
220
0
230
1
0
LINE
5
17B
100
AcDbEntity
8
SK1
62
256
6
ByLayer
370
18
48
1
60
0
100
AcDbLine
10
-3.125
20
4
30
0
11
-3.125
21
0
31
0
39
0
210
0
220
0
230
1
0
LINE
5
17C
100
AcDbEntity
8
SK1
62
256
6
ByLayer
370
18
48
1
60
0
100
AcDbLine
10
-3.725
20
-3.65359
30
0
11
-3.725
21
0
31
0
39
0
210
0
220
0
230
1
0
LINE
5
17D
100
AcDbEntity
8
SK1
62
256
6
ByLayer
370
18
48
1
60
0
100
AcDbLine
10
-3.125
20
0
30
0
11
-3.125
21
-4
31
0
39
0
210
0
220
0
230
1
0
LINE
5
17E
100
AcDbEntity
8
SK1
62
256
6
ByLayer
370
18
48
1
60
0
100
AcDbLine
10
-3.725
20
0
30
0
11
-3.725
21
3.65359
31
0
39
0
210
0
220
0
230
1
0
LINE
5
17F
100
AcDbEntity
8
SK1
62
256
6
ByLayer
370
18
48
1
60
0
100
AcDbLine
10
33.675
20
24.899495
30
0
11
33.675
21
19.899495
31
0
39
0
210
0
220
0
230
1
0
LINE
5
180
100
AcDbEntity
8
SK1
62
256
6
ByLayer
370
18
48
1
60
0
100
AcDbLine
10
27.675
20
24.899495
30
0
11
27.675
21
19.899495
31
0
39
0
210
0
220
0
230
1
0
LINE
5
181
100
AcDbEntity
8
SK1
62
256
6
ByLayer
370
18
48
1
60
0
100
AcDbLine
10
33.675
20
19.899495
30
0
11
33.675
21
14.899495
31
0
39
0
210
0
220
0
230
1
0
LINE
5
182
100
AcDbEntity
8
SK1
62
256
6
ByLayer
370
18
48
1
60
0
100
AcDbLine
10
27.675
20
19.899495
30
0
11
27.675
21
14.899495
31
0
39
0
210
0
220
0
230
1
0
LINE
5
183
100
AcDbEntity
8
1
62
256
6
ByLayer
370
18
48
1
60
0
100
AcDbLine
10
15.675
20
17.399495
30
0
11
15.675
21
21.425594
31
0
39
0
210
0
220
0
230
1
0
LINE
5
184
100
AcDbEntity
8
SK1
62
256
6
ByLayer
370
18
48
1
60
0
100
AcDbLine
10
33.675
20
5.100505
30
0
11
33.675
21
-4.899495
31
0
39
0
210
0
220
0
230
1
0
LINE
5
185
100
AcDbEntity
8
SK1
62
256
6
ByLayer
370
18
48
1
60
0
100
AcDbLine
10
27.675
20
5.100505
30
0
11
27.675
21
-4.899495
31
0
39
0
210
0
220
0
230
1
0
MTEXT
5
289
100
AcDbEntity
8
SK6
62
256
6
ByLayer
370
13
48
1
60
0
100
AcDbMText
10
5.132143
20
62.296798
30
0
210
0
220
0
230
1
1
\W0.7245;570-50 23-40
40
3.5
41
0
44
1.084337
50
0
71
7
72
5
7
iso_b_vert
0
DIMENSION
5
297
100
AcDbEntity
8
2
62
256
6
ByLayer
370
13
48
1
60
0
100
AcDbDimension
2
DimnDraft3D1
10
23
20
39.859146
30
0
11
9.603355
21
39.859146
31
0
70
32
71
5
72
1
41
1
210
0
220
0
230
1
3
Standard
100
AcDbAlignedDimension
13
0
23
1.5875
33
0
14
23
24
11.5875
34
0
50
0
100
AcDbRotatedDimension
1001
ACAD
1000
DSTYLE
1002
{
1070
   279
1070
     0
1070
   173
1070
     1
1070
   340
1005
28A
1070
   271
1070
     1
1070
   272
1070
     2
1070
    77
1070
     1
1070
    73
1070
     0
1070
   171
1070
     3
1070
   274
1070
     4
1070
   177
1070
     7
1070
   176
1070
     7
1070
   178
1070
     7
1070
    78
1070
     8
1070
    48
1040
-0.005
1070
    41
1041
3.175
1070
   147
1041
1.5875
1070
    42
1041
1.5875
1070
    44
1041
3.175
1070
   140
1041
3.175
1070
   343
1005
0
1070
   344
1005
0
1002
}
0
DIMENSION
5
2A3
100
AcDbEntity
8
SK2
62
256
6
ByLayer
370
13
48
1
60
0
100
AcDbDimension
2
DimnDraft3D2
10
-19.178979
20
-25
30
0
11
-18.385229
21
2.46898
31
0
70
33
71
5
72
1
41
1
210
0
220
0
230
1
3
Standard
100
AcDbAlignedDimension
13
-0.9125
23
25
33
0
14
-0.9125
24
-25
34
0
1001
ACAD
1000
DSTYLE
1002
{
1070
   279
1070
     0
1070
    74
1070
     0
1070
   173
1070
     1
1070
   340
1005
28A
1070
   271
1070
     1
1070
   272
1070
     2
1070
    77
1070
     1
1070
    73
1070
     0
1070
   171
1070
     3
1070
   274
1070
     4
1070
   177
1070
     7
1070
   176
1070
     7
1070
   178
1070
     7
1070
    78
1070
     8
1070
    48
1040
-0.005
1070
    41
1041
3.175
1070
   147
1041
1.5875
1070
    42
1041
1.5875
1070
    44
1041
3.175
1070
   140
1041
3.175
1070
   343
1005
0
1070
   344
1005
0
1002
}
0
DIMENSION
5
2AE
100
AcDbEntity
8
SK2
62
256
6
ByLayer
370
13
48
1
60
0
100
AcDbDimension
2
DimnDraft3D3
10
57.116479
20
30
30
0
11
51.560229
21
10.187092
31
0
70
33
71
5
72
1
41
1
210
0
220
0
230
1
3
Standard
100
AcDbAlignedDimension
13
23.9125
23
-10
33
0
14
23.9125
24
30
34
0
1001
ACAD
1000
DSTYLE
1002
{
1070
   279
1070
     0
1070
    74
1070
     0
1070
   173
1070
     1
1070
   340
1005
28A
1070
   271
1070
     1
1070
   272
1070
     2
1070
    77
1070
     1
1070
    73
1070
     0
1070
   171
1070
     3
1070
   274
1070
     4
1070
   177
1070
     7
1070
   176
1070
     7
1070
   178
1070
     7
1070
    78
1070
     8
1070
    48
1040
-0.005
1070
    41
1041
3.175
1070
   147
1041
1.5875
1070
    42
1041
1.5875
1070
    44
1041
3.175
1070
   140
1041
3.175
1070
   343
1005
0
1070
   344
1005
0
1002
}
0
DIMENSION
5
2B8
100
AcDbEntity
8
SK2
62
256
6
ByLayer
370
13
48
1
60
0
100
AcDbDimension
2
DimnDraft3D4
10
40.799594
20
10
30
0
11
40.799594
21
3.50023
31
0
70
32
71
5
72
1
41
1
210
0
220
0
230
1
3
Standard
100
AcDbAlignedDimension
13
29.5875
23
0
33
0
14
24.5875
24
10
34
0
50
90
100
AcDbRotatedDimension
1001
ACAD
1000
DSTYLE
1002
{
1070
    74
1070
     0
1070
   279
1070
     0
1070
   173
1070
     1
1070
   340
1005
28A
1070
   271
1070
     1
1070
   272
1070
     2
1070
    77
1070
     1
1070
    73
1070
     0
1070
   171
1070
     3
1070
   274
1070
     4
1070
   177
1070
     7
1070
   176
1070
     7
1070
   178
1070
     7
1070
    78
1070
     8
1070
    48
1040
-0.005
1070
    41
1041
3.175
1070
   147
1041
1.5875
1070
    42
1041
1.5875
1070
    44
1041
3.175
1070
   140
1041
3.175
1070
   343
1005
0
1070
   344
1005
0
1002
}
0
DIMENSION
5
2C2
100
AcDbEntity
8
SK2
62
256
6
ByLayer
370
13
48
1
60
0
100
AcDbDimension
2
DimnDraft3D5
10
-0.325
20
-47.575305
30
0
11
8.56216
21
-47.575305
31
0
70
32
71
5
72
1
41
1
210
0
220
0
230
1
3
Standard
100
AcDbAlignedDimension
13
23.325
23
-9.275713
33
0
14
-0.325
24
-15.313473
34
0
50
0
100
AcDbRotatedDimension
1001
ACAD
1000
DSTYLE
1002
{
1070
   279
1070
     0
1070
   173
1070
     1
1070
   340
1005
28A
1070
   271
1070
     1
1070
   272
1070
     2
1070
    77
1070
     1
1070
    73
1070
     0
1070
   171
1070
     3
1070
   274
1070
     4
1070
   177
1070
     7
1070
   176
1070
     7
1070
   178
1070
     7
1070
    78
1070
     8
1070
    48
1040
-0.005
1070
    41
1041
3.175
1070
   147
1041
1.5875
1070
    42
1041
1.5875
1070
    44
1041
3.175
1070
   140
1041
3.175
1070
   343
1005
0
1070
   344
1005
0
1002
}
0
ENDSEC
0
SECTION
2
OBJECTS
0
DICTIONARY
5
337
330
0
100
AcDbDictionary
280
0
281
1
3
ACAD_GROUP
350
338
3
ACAD_MLINESTYLE
350
339
0
DICTIONARY
5
338
330
0
100
AcDbDictionary
280
0
281
1
0
DICTIONARY
5
339
330
0
100
AcDbDictionary
280
0
281
1
3
Standard
350
18
0
MLINESTYLE
5
18
330
339
100
AcDbMlineStyle
2
Standard
70
0
3

62
256
51
90
52
90
71
2
49
-0.5
62
256
6
ByLayer
49
0.5
62
256
6
ByLayer
0
RASTERVARIABLES
5
325
330

100
AcDbRasterVariables
90
0
70
1
71
1
72
1
0
ENDSEC
0
EOF
