0
SECTION
2
HEADER
9
$ACADVER
1
AC1015
9
$DWGCODEPAGE
3
ANSI_1252
9
$HANDSEED
5
215
9
$ANGBASE
50
0
9
$ANGDIR
70
0
9
$ATTMODE
70
1
9
$AUNITS
70
0
9
$AUPREC
70
0
9
$CECOLOR
62
256
9
$CELTSCALE
40
1
9
$CELTYPE
6
ByLayer
9
$CELWEIGHT
370
18
9
$CLAYER
8
0
9
$CMLJUST
70
0
9
$CMLSCALE
40
1
9
$CMLSTYLE
2
Standard
9
$DIMSTYLE
2
Standard
9
$TEXTSIZE
40
0.2
9
$TEXTSTYLE
7
Standard
9
$LUNITS
70
2
9
$LUPREC
70
4
9
$EXTNAMES
290
1
9
$INSUNITS
70
4
9
$LTSCALE
40
1
9
$LWDISPLAY
290
1
9
$PDMODE
70
0
9
$PDSIZE
40
0
9
$PLINEGEN
70
0
0
ENDSEC
0
SECTION
2
CLASSES
0
CLASS
1
RASTERVARIABLES
2
AcDbRasterVariables
3
ISM
90
0
280
0
281
0
0
ENDSEC
0
SECTION
2
TABLES
0
TABLE
2
VPORT
5
20b
100
AcDbSymbolTable
0
VPORT
5
1
100
AcDbSymbolTableRecord
100
AcDbViewportTableRecord
2
*Active
70
0
10
0
20
0
11
1
21
1
12
-1
22
1
13
0
23
0
14
0.5
24
0.5
15
10
25
10
16
0
26
0
36
1
17
0
27
0
37
0
0
ENDTAB
0
TABLE
2
LTYPE
5
20c
100
AcDbSymbolTable
0
LTYPE
5
14
100
AcDbSymbolTableRecord
100
AcDbLinetypeTableRecord
70
0
2
ByBlock
3

72
65
73
0
40
0
0
LTYPE
5
15
100
AcDbSymbolTableRecord
100
AcDbLinetypeTableRecord
70
0
2
ByLayer
3

72
65
73
0
40
0
0
LTYPE
5
16
100
AcDbSymbolTableRecord
100
AcDbLinetypeTableRecord
70
0
2
CONTINUOUS
3
Solid line
72
65
73
0
40
0
0
LTYPE
5
6A
100
AcDbSymbolTableRecord
100
AcDbLinetypeTableRecord
70
0
2
CENTER
3
____ _ ____ _ ____ _ ____
72
65
73
4
40
47.5
49
22
74
0
49
-8.5
74
0
49
8.5
74
0
49
-8.5
74
0
0
LTYPE
5
6B
100
AcDbSymbolTableRecord
100
AcDbLinetypeTableRecord
70
0
2
DASHED
3
__ __ __ __ __ __ __ __ __
72
65
73
2
40
25.72
49
12.86
74
0
49
-12.86
74
0
0
ENDTAB
0
TABLE
2
LAYER
5
20d
100
AcDbSymbolTable
0
LAYER
5
10
100
AcDbSymbolTableRecord
100
AcDbLayerTableRecord
2
0
70
0
62
7
6
CONTINUOUS
290
1
370
-3
390
0
0
LAYER
5
6D
100
AcDbSymbolTableRecord
100
AcDbLayerTableRecord
2
81
70
0
62
-3
6
CONTINUOUS
290
1
370
-3
390
0
0
LAYER
5
6F
100
AcDbSymbolTableRecord
100
AcDbLayerTableRecord
2
80
70
0
62
-6
6
CONTINUOUS
290
1
370
-3
390
0
0
LAYER
5
71
100
AcDbSymbolTableRecord
100
AcDbLayerTableRecord
2
1
70
0
62
4
6
CONTINUOUS
290
1
370
-3
390
0
0
LAYER
5
1f9
100
AcDbSymbolTableRecord
100
AcDbLayerTableRecord
2
SK6
70
0
62
5
6
CONTINUOUS
290
1
370
-3
390
0
0
LAYER
5
1fa
100
AcDbSymbolTableRecord
100
AcDbLayerTableRecord
2
SK2
70
0
62
7
6
CONTINUOUS
290
1
370
-3
390
0
0
ENDTAB
0
TABLE
2
STYLE
5
20e
100
AcDbSymbolTable
0
STYLE
5
11
100
AcDbSymbolTableRecord
100
AcDbTextStyleTableRecord
2
Standard
3
txt
70
0
71
0
40
0
41
1
42
0
50
0
0
STYLE
5
15D
100
AcDbSymbolTableRecord
100
AcDbTextStyleTableRecord
2
iso_b_vert
3
simplex.shx
70
0
71
0
40
0
41
1
42
0
50
0
0
STYLE
5
15E
100
AcDbSymbolTableRecord
100
AcDbTextStyleTableRecord
2
DWGDirectTextStyle
3
simplex
70
0
71
0
40
0
41
1
42
0
50
0
0
ENDTAB
0
TABLE
2
DIMSTYLE
5
20f
100
AcDbSymbolTable
100
AcDbDimStyleTable
0
DIMSTYLE
105
27
100
AcDbSymbolTableRecord
100
AcDbDimStyleTableRecord
2
Standard
70
0
3
<>
41
0.18
42
0.0625
44
0.18
140
0.18
147
0.09
73
0
74
0
77
1
271
2
275
0
278
52
280
0
340
11
0
ENDTAB
0
TABLE
2
VIEW
5
210
100
AcDbSymbolTable
0
ENDTAB
0
TABLE
2
UCS
5
211
100
AcDbSymbolTable
0
ENDTAB
0
TABLE
2
APPID
5
212
100
AcDbSymbolTable
0
APPID
5
12
100
AcDbSymbolTableRecord
100
AcDbRegAppTableRecord
2
ACAD
70
0
0
ENDTAB
0
TABLE
2
BLOCK_RECORD
5
213
100
AcDbSymbolTable
0
BLOCK_RECORD
5
1F
100
AcDbSymbolTableRecord
100
AcDbBlockTableRecord
2
*Model_Space
340
0
70
0
0
BLOCK_RECORD
5
1B
100
AcDbSymbolTableRecord
100
AcDbBlockTableRecord
2
*Paper_Space
340
0
70
0
0
BLOCK_RECORD
5
23
100
AcDbSymbolTableRecord
100
AcDbBlockTableRecord
2
*Paper_Space0
340
0
70
0
0
BLOCK_RECORD
5
160
100
AcDbSymbolTableRecord
100
AcDbBlockTableRecord
2
DimnDraft3D1
340
0
70
0
0
BLOCK_RECORD
5
16F
100
AcDbSymbolTableRecord
100
AcDbBlockTableRecord
2
_CLOSED
340
0
70
0
0
BLOCK_RECORD
5
176
100
AcDbSymbolTableRecord
100
AcDbBlockTableRecord
2
DimnDraft3D2
340
0
70
0
0
BLOCK_RECORD
5
184
100
AcDbSymbolTableRecord
100
AcDbBlockTableRecord
2
DimnDraft3D3
340
0
70
0
0
BLOCK_RECORD
5
192
100
AcDbSymbolTableRecord
100
AcDbBlockTableRecord
2
DimnDraft3D4
340
0
70
0
0
ENDTAB
0
ENDSEC
0
SECTION
2
BLOCKS
0
BLOCK
5
20
100
AcDbEntity
8
0
100
AcDbBlockBegin
2
*Model_Space
70
0
10
0
20
0
30
0
3
*Model_Space
0
ENDBLK
5
21
100
AcDbEntity
8
0
100
AcDbBlockEnd
0
BLOCK
5
1C
100
AcDbEntity
8
0
100
AcDbBlockBegin
2
*Paper_Space
70
0
10
0
20
0
30
0
3
*Paper_Space
0
ENDBLK
5
1D
100
AcDbEntity
8
0
100
AcDbBlockEnd
0
BLOCK
5
24
100
AcDbEntity
8
0
100
AcDbBlockBegin
2
*Paper_Space0
70
0
10
0
20
0
30
0
3
*Paper_Space0
0
ENDBLK
5
25
100
AcDbEntity
8
0
100
AcDbBlockEnd
0
BLOCK
5
16C
100
AcDbEntity
8
0
100
AcDbBlockBegin
2
DimnDraft3D1
70
0
10
0
20
0
30
0
3
DimnDraft3D1
0
MTEXT
5
161
100
AcDbEntity
8
SK2
62
256
6
ByLayer
370
18
48
1
60
0
100
AcDbMText
10
14.882895
20
21.658556
30
0
210
0
220
0
230
1
1
\W0.6740;32
40
3
41
0
44
1.084337
50
0
71
7
72
5
7
iso_b_vert
0
LINE
5
163
100
AcDbEntity
8
SK2
62
256
6
ByLayer
370
13
48
1
60
0
100
AcDbLine
10
31.85
20
2
30
0
11
31.85
21
22.908556
31
0
39
0
210
0
220
0
230
1
0
LINE
5
164
100
AcDbEntity
8
SK2
62
256
6
ByLayer
370
13
48
1
60
0
100
AcDbLine
10
0
20
2
30
0
11
0
21
22.908556
31
0
39
0
210
0
220
0
230
1
0
LINE
5
165
100
AcDbEntity
8
SK2
62
256
6
ByLayer
370
13
48
1
60
0
100
AcDbLine
10
31.85
20
20.908556
30
0
11
0
21
20.908556
31
0
39
0
210
0
220
0
230
1
0
LINE
5
166
100
AcDbEntity
8
SK2
62
256
6
ByLayer
370
13
48
1
60
0
100
AcDbLine
10
31.85
20
20.908556
30
0
11
28.675002
21
20.490559
31
0
39
0
210
0
220
0
230
1
0
LINE
5
167
100
AcDbEntity
8
SK2
62
256
6
ByLayer
370
13
48
1
60
0
100
AcDbLine
10
31.85
20
20.908556
30
0
11
28.674998
21
21.326552
31
0
39
0
210
0
220
0
230
1
0
LINE
5
168
100
AcDbEntity
8
SK2
62
256
6
ByLayer
370
13
48
1
60
0
100
AcDbLine
10
28.675002
20
20.490559
30
0
11
28.674998
21
21.326552
31
0
39
0
210
0
220
0
230
1
0
LINE
5
169
100
AcDbEntity
8
SK2
62
256
6
ByLayer
370
13
48
1
60
0
100
AcDbLine
10
0
20
20.908556
30
0
11
3.174998
21
21.326552
31
0
39
0
210
0
220
0
230
1
0
LINE
5
16A
100
AcDbEntity
8
SK2
62
256
6
ByLayer
370
13
48
1
60
0
100
AcDbLine
10
0
20
20.908556
30
0
11
3.175002
21
20.490559
31
0
39
0
210
0
220
0
230
1
0
LINE
5
16B
100
AcDbEntity
8
SK2
62
256
6
ByLayer
370
13
48
1
60
0
100
AcDbLine
10
3.174998
20
21.326552
30
0
11
3.175002
21
20.490559
31
0
39
0
210
0
220
0
230
1
0
ENDBLK
5
16D
100
AcDbEntity
8
0
100
AcDbBlockEnd
0
BLOCK
5
170
100
AcDbEntity
8
0
100
AcDbBlockBegin
2
_CLOSED
70
0
10
0
20
0
30
0
3
_CLOSED
0
LINE
5
172
100
AcDbEntity
8
0
62
256
6
ByLayer
370
-2
48
1
60
0
100
AcDbLine
10
-1
20
0.166667
30
0
11
0
21
0
31
0
39
0
210
0
220
0
230
1
0
LINE
5
173
100
AcDbEntity
8
0
62
256
6
ByLayer
370
-2
48
1
60
0
100
AcDbLine
10
0
20
0
30
0
11
-1
21
-0.166667
31
0
39
0
210
0
220
0
230
1
0
LINE
5
174
100
AcDbEntity
8
0
62
256
6
ByLayer
370
-2
48
1
60
0
100
AcDbLine
10
-1
20
0.166667
30
0
11
-1
21
-0.166667
31
0
39
0
210
0
220
0
230
1
0
LINE
5
175
100
AcDbEntity
8
0
62
256
6
ByLayer
370
-2
48
1
60
0
100
AcDbLine
10
0
20
0
30
0
11
-1
21
0
31
0
39
0
210
0
220
0
230
1
0
ENDBLK
5
171
100
AcDbEntity
8
0
100
AcDbBlockEnd
0
BLOCK
5
181
100
AcDbEntity
8
0
100
AcDbBlockBegin
2
DimnDraft3D2
70
0
10
0
20
0
30
0
3
DimnDraft3D2
0
MTEXT
5
177
100
AcDbEntity
8
SK2
62
256
6
ByLayer
370
18
48
1
60
0
100
AcDbMText
10
-19.101356
20
-68.946053
30
0
210
0
220
0
230
1
1
\W0.6506;134
40
3
41
0
44
1.084337
50
90
71
7
72
5
7
iso_b_vert
0
LINE
5
178
100
AcDbEntity
8
SK2
62
256
6
ByLayer
370
13
48
1
60
0
100
AcDbLine
10
-2
20
-134
30
0
11
-20.351356
21
-134
31
0
39
0
210
0
220
0
230
1
0
LINE
5
179
100
AcDbEntity
8
SK2
62
256
6
ByLayer
370
13
48
1
60
0
100
AcDbLine
10
-2
20
0
30
0
11
-20.351356
21
0
31
0
39
0
210
0
220
0
230
1
0
LINE
5
17A
100
AcDbEntity
8
SK2
62
256
6
ByLayer
370
13
48
1
60
0
100
AcDbLine
10
-18.351356
20
-134
30
0
11
-18.351356
21
0
31
0
39
0
210
0
220
0
230
1
0
LINE
5
17B
100
AcDbEntity
8
SK2
62
256
6
ByLayer
370
13
48
1
60
0
100
AcDbLine
10
-18.351356
20
-134
30
0
11
-18.769352
21
-130.825002
31
0
39
0
210
0
220
0
230
1
0
LINE
5
17C
100
AcDbEntity
8
SK2
62
256
6
ByLayer
370
13
48
1
60
0
100
AcDbLine
10
-18.351356
20
-134
30
0
11
-17.933359
21
-130.824998
31
0
39
0
210
0
220
0
230
1
0
LINE
5
17D
100
AcDbEntity
8
SK2
62
256
6
ByLayer
370
13
48
1
60
0
100
AcDbLine
10
-18.769352
20
-130.825002
30
0
11
-17.933359
21
-130.824998
31
0
39
0
210
0
220
0
230
1
0
LINE
5
17E
100
AcDbEntity
8
SK2
62
256
6
ByLayer
370
13
48
1
60
0
100
AcDbLine
10
-18.351356
20
0
30
0
11
-17.933359
21
-3.174998
31
0
39
0
210
0
220
0
230
1
0
LINE
5
17F
100
AcDbEntity
8
SK2
62
256
6
ByLayer
370
13
48
1
60
0
100
AcDbLine
10
-18.351356
20
0
30
0
11
-18.769352
21
-3.175002
31
0
39
0
210
0
220
0
230
1
0
LINE
5
180
100
AcDbEntity
8
SK2
62
256
6
ByLayer
370
13
48
1
60
0
100
AcDbLine
10
-17.933359
20
-3.174998
30
0
11
-18.769352
21
-3.175002
31
0
39
0
210
0
220
0
230
1
0
ENDBLK
5
182
100
AcDbEntity
8
0
100
AcDbBlockEnd
0
BLOCK
5
18F
100
AcDbEntity
8
0
100
AcDbBlockBegin
2
DimnDraft3D3
70
0
10
0
20
0
30
0
3
DimnDraft3D3
0
MTEXT
5
185
100
AcDbEntity
8
SK2
62
256
6
ByLayer
370
18
48
1
60
0
100
AcDbMText
10
-33.451203
20
-78.946053
30
0
210
0
220
0
230
1
1
\W0.6506;154
40
3
41
0
44
1.084337
50
90
71
7
72
5
7
iso_b_vert
0
LINE
5
186
100
AcDbEntity
8
SK2
62
256
6
ByLayer
370
13
48
1
60
0
100
AcDbLine
10
3
20
-154
30
0
11
-34.701203
21
-154
31
0
39
0
210
0
220
0
230
1
0
LINE
5
187
100
AcDbEntity
8
SK2
62
256
6
ByLayer
370
13
48
1
60
0
100
AcDbLine
10
-2
20
0
30
0
11
-34.701203
21
0
31
0
39
0
210
0
220
0
230
1
0
LINE
5
188
100
AcDbEntity
8
SK2
62
256
6
ByLayer
370
13
48
1
60
0
100
AcDbLine
10
-32.701203
20
-154
30
0
11
-32.701203
21
0
31
0
39
0
210
0
220
0
230
1
0
LINE
5
189
100
AcDbEntity
8
SK2
62
256
6
ByLayer
370
13
48
1
60
0
100
AcDbLine
10
-32.701203
20
-154
30
0
11
-33.1192
21
-150.825002
31
0
39
0
210
0
220
0
230
1
0
LINE
5
18A
100
AcDbEntity
8
SK2
62
256
6
ByLayer
370
13
48
1
60
0
100
AcDbLine
10
-32.701203
20
-154
30
0
11
-32.283207
21
-150.824998
31
0
39
0
210
0
220
0
230
1
0
LINE
5
18B
100
AcDbEntity
8
SK2
62
256
6
ByLayer
370
13
48
1
60
0
100
AcDbLine
10
-33.1192
20
-150.825002
30
0
11
-32.283207
21
-150.824998
31
0
39
0
210
0
220
0
230
1
0
LINE
5
18C
100
AcDbEntity
8
SK2
62
256
6
ByLayer
370
13
48
1
60
0
100
AcDbLine
10
-32.701203
20
0
30
0
11
-32.283207
21
-3.174998
31
0
39
0
210
0
220
0
230
1
0
LINE
5
18D
100
AcDbEntity
8
SK2
62
256
6
ByLayer
370
13
48
1
60
0
100
AcDbLine
10
-32.701203
20
0
30
0
11
-33.1192
21
-3.175002
31
0
39
0
210
0
220
0
230
1
0
LINE
5
18E
100
AcDbEntity
8
SK2
62
256
6
ByLayer
370
13
48
1
60
0
100
AcDbLine
10
-32.283207
20
-3.174998
30
0
11
-33.1192
21
-3.175002
31
0
39
0
210
0
220
0
230
1
0
ENDBLK
5
190
100
AcDbEntity
8
0
100
AcDbBlockEnd
0
BLOCK
5
19D
100
AcDbEntity
8
0
100
AcDbBlockBegin
2
DimnDraft3D4
70
0
10
0
20
0
30
0
3
DimnDraft3D4
0
MTEXT
5
193
100
AcDbEntity
8
SK2
62
256
6
ByLayer
370
18
48
1
60
0
100
AcDbMText
10
11.957895
20
-169.521268
30
0
210
0
220
0
230
1
1
\W0.6740;26
40
3
41
0
44
1.084337
50
0
71
7
72
5
7
iso_b_vert
0
LINE
5
194
100
AcDbEntity
8
SK2
62
256
6
ByLayer
370
13
48
1
60
0
100
AcDbLine
10
0
20
-136
30
0
11
0
21
-172.271268
31
0
39
0
210
0
220
0
230
1
0
LINE
5
195
100
AcDbEntity
8
SK2
62
256
6
ByLayer
370
13
48
1
60
0
100
AcDbLine
10
26
20
-136
30
0
11
26
21
-172.271268
31
0
39
0
210
0
220
0
230
1
0
LINE
5
196
100
AcDbEntity
8
SK2
62
256
6
ByLayer
370
13
48
1
60
0
100
AcDbLine
10
0
20
-170.271268
30
0
11
26
21
-170.271268
31
0
39
0
210
0
220
0
230
1
0
LINE
5
197
100
AcDbEntity
8
SK2
62
256
6
ByLayer
370
13
48
1
60
0
100
AcDbLine
10
0
20
-170.271268
30
0
11
3.174998
21
-169.853272
31
0
39
0
210
0
220
0
230
1
0
LINE
5
198
100
AcDbEntity
8
SK2
62
256
6
ByLayer
370
13
48
1
60
0
100
AcDbLine
10
0
20
-170.271268
30
0
11
3.175002
21
-170.689265
31
0
39
0
210
0
220
0
230
1
0
LINE
5
199
100
AcDbEntity
8
SK2
62
256
6
ByLayer
370
13
48
1
60
0
100
AcDbLine
10
3.174998
20
-169.853272
30
0
11
3.175002
21
-170.689265
31
0
39
0
210
0
220
0
230
1
0
LINE
5
19A
100
AcDbEntity
8
SK2
62
256
6
ByLayer
370
13
48
1
60
0
100
AcDbLine
10
26
20
-170.271268
30
0
11
22.825002
21
-170.689265
31
0
39
0
210
0
220
0
230
1
0
LINE
5
19B
100
AcDbEntity
8
SK2
62
256
6
ByLayer
370
13
48
1
60
0
100
AcDbLine
10
26
20
-170.271268
30
0
11
22.824998
21
-169.853272
31
0
39
0
210
0
220
0
230
1
0
LINE
5
19C
100
AcDbEntity
8
SK2
62
256
6
ByLayer
370
13
48
1
60
0
100
AcDbLine
10
22.825002
20
-170.689265
30
0
11
22.824998
21
-169.853272
31
0
39
0
210
0
220
0
230
1
0
ENDBLK
5
19E
100
AcDbEntity
8
0
100
AcDbBlockEnd
0
ENDSEC
0
SECTION
2
ENTITIES
0
ARC
5
E8
100
AcDbEntity
8
1
62
256
6
ByLayer
370
18
48
1
60
0
100
AcDbCircle
39
0
10
34.588768
20
-109.194088
30
0
40
10
210
0
220
0
230
1
100
AcDbArc
50
105.89509
51
196.488484
0
POINT
5
6C
100
AcDbEntity
8
81
62
256
6
ByLayer
370
18
48
1
60
0
100
AcDbPoint
10
26
20
-134
30
0
39
0
210
0
220
0
230
1
50
360
0
POINT
5
6E
100
AcDbEntity
8
80
62
256
6
ByLayer
370
18
48
1
60
0
100
AcDbPoint
10
0
20
0
30
0
39
0
210
0
220
0
230
1
50
360
0
SPLINE
5
E9
100
AcDbEntity
8
1
62
256
6
ByLayer
370
18
48
1
60
0
100
AcDbSpline
70
4
71
3
72
16
73
12
40
0
40
0
40
0
40
0
40
0.211177093201192
40
0.211177093201192
40
0.42415250871398
40
0.42415250871398
40
0.630659341530156
40
0.630659341530156
40
0.932983412752343
40
0.932983412752343
40
1
40
1
40
1
40
1
41
1
10
26.3245190528383
20
-152.230919081248
30
0
41
1
10
26.3245190528383
20
-152.227589758154
30
0
41
1
10
26.3231790586509
20
-152.225484999853
30
0
41
1
10
26.3176913653541
20
-152.224391101388
30
0
41
1
10
26.3134430384043
20
-152.225422646941
30
0
41
1
10
26.3029922989317
20
-152.230233032012
30
0
41
1
10
26.2967494659987
20
-152.233961992384
30
0
41
1
10
26.2800892083206
20
-152.245351293326
30
0
41
1
10
26.268825441602
20
-152.254178512986
30
0
41
1
10
26.2547390574176
20
-152.266088493065
30
0
41
1
10
26.2521364300973
20
-152.268323342947
30
0
41
1
10
26.2495190528383
20
-152.27060263199
30
0
0
SPLINE
5
EA
100
AcDbEntity
8
1
62
256
6
ByLayer
370
18
48
1
60
0
100
AcDbSpline
70
4
71
3
72
8
73
4
40
0
40
0
40
0
40
0
40
1
40
1
40
1
40
1
41
1
10
26.2495190528383
20
-152.27060263199
30
0
41
1
10
26.0349797235728
20
-152.457429785325
30
0
41
1
10
25.8202962121474
20
-152.644036351666
30
0
41
1
10
25.6054809471616
20
-152.830440266676
30
0
0
SPLINE
5
EB
100
AcDbEntity
8
1
62
256
6
ByLayer
370
18
48
1
60
0
100
AcDbSpline
70
4
71
3
72
22
73
18
40
0
40
0
40
0
40
0
40
0.137825231492918
40
0.137825231492918
40
0.246487607657861
40
0.246487607657861
40
0.356337041769877
40
0.356337041769877
40
0.450470869971615
40
0.450470869971615
40
0.546721439056968
40
0.546721439056968
40
0.700338466442238
40
0.700338466442238
40
0.924788143672342
40
0.924788143672342
40
1
40
1
40
1
40
1
41
1
10
25.6054809471616
20
-152.830440266676
30
0
41
1
10
25.5922395197125
20
-152.841930390141
30
0
41
1
10
25.5791523935542
20
-152.852536834888
30
0
41
1
10
25.5580203736099
20
-152.867747883111
30
0
41
1
10
25.5493085482337
20
-152.873261667842
30
0
41
1
10
25.5349201763317
20
-152.880282766402
30
0
41
1
10
25.5291001371418
20
-152.881800373245
30
0
41
1
10
25.5223166602663
20
-152.880260347823
30
0
41
1
10
25.5206822843907
20
-152.877820321657
30
0
41
1
10
25.5203113481471
20
-152.870145333233
30
0
41
1
10
25.5216099794618
20
-152.864788776723
30
0
41
1
10
25.5278463056185
20
-152.848615849666
30
0
41
1
10
25.5345274389212
20
-152.836218231824
30
0
41
1
10
25.5547318288272
20
-152.803515671015
30
0
41
1
10
25.5703155049872
20
-152.781586876986
30
0
41
1
10
25.5932637392519
20
-152.751724701371
30
0
41
1
10
25.5992870232252
20
-152.744076353133
30
0
41
1
10
25.6054809471616
20
-152.736384309397
30
0
0
SPLINE
5
EC
100
AcDbEntity
8
1
62
256
6
ByLayer
370
18
48
1
60
0
100
AcDbSpline
70
4
71
3
72
22
73
18
40
0
40
0
40
0
40
0
40
0.337688213042416
40
0.337688213042416
40
0.500224706262606
40
0.500224706262606
40
0.664908265083832
40
0.664908265083832
40
0.739674294235616
40
0.739674294235616
40
0.815640795318358
40
0.815640795318358
40
0.882281495746981
40
0.882281495746981
40
0.940763861402224
40
0.940763861402224
40
1
40
1
40
1
40
1
41
1
10
25.6054809471616
20
-148.23354250388
30
0
41
1
10
25.5802017559511
20
-148.282557839437
30
0
41
1
10
25.5585349795449
20
-148.332375921877
30
0
41
1
10
25.5352634465482
20
-148.402882623332
30
0
41
1
10
25.5290221157212
20
-148.425575993979
30
0
41
1
10
25.5209782197995
20
-148.46858425203
30
0
41
1
10
25.519064196727
20
-148.489461762257
30
0
41
1
10
25.5227940925305
20
-148.514142733318
30
0
41
1
10
25.5249648504889
20
-148.521143382741
30
0
41
1
10
25.5319986409735
20
-148.532048385603
30
0
41
1
10
25.5370589282935
20
-148.535995568603
30
0
41
1
10
25.5491454439944
20
-148.538744757221
30
0
41
1
10
25.5560307697098
20
-148.538122532285
30
0
41
1
10
25.569887139114
20
-148.533650382865
30
0
41
1
10
25.5768901693309
20
-148.530188951089
30
0
41
1
10
25.5910509947805
20
-148.521429025442
30
0
41
1
10
25.5983251343763
20
-148.51605181831
30
0
41
1
10
25.6054809471616
20
-148.51012906271
30
0
0
SPLINE
5
ED
100
AcDbEntity
8
1
62
256
6
ByLayer
370
18
48
1
60
0
100
AcDbSpline
70
4
71
3
72
8
73
4
40
0
40
0
40
0
40
0
40
1
40
1
40
1
40
1
41
1
10
25.6054809471616
20
-148.23354250388
30
0
41
1
10
25.8264730682965
20
-147.805047664679
30
0
41
1
10
26.0414448525109
20
-147.372317688737
30
0
41
1
10
26.2495190528383
20
-146.935284486065
30
0
0
SPLINE
5
EE
100
AcDbEntity
8
1
62
256
6
ByLayer
370
18
48
1
60
0
100
AcDbSpline
70
4
71
3
72
10
73
6
40
0
40
0
40
0
40
0
40
0.711332225525129
40
0.711332225525129
40
1
40
1
40
1
40
1
41
1
10
26.2495190528383
20
-146.935284486065
30
0
41
1
10
26.2789166291249
20
-146.873538643019
30
0
41
1
10
26.3026595419412
20
-146.809881682704
30
0
41
1
10
26.3209631959956
20
-146.726434886214
30
0
41
1
10
26.3245190528383
20
-146.702505121382
30
0
41
1
10
26.3245190528383
20
-146.680963139062
30
0
0
SPLINE
5
EF
100
AcDbEntity
8
1
62
256
6
ByLayer
370
18
48
1
60
0
100
AcDbSpline
70
4
71
3
72
22
73
18
40
0
40
0
40
0
40
0
40
0.0708193351687429
40
0.0708193351687429
40
0.143221814602993
40
0.143221814602993
40
0.208570731427139
40
0.208570731427139
40
0.267155103326016
40
0.267155103326016
40
0.363013224487902
40
0.363013224487902
40
0.526621603937652
40
0.526621603937652
40
0.831269307166998
40
0.831269307166998
40
1
40
1
40
1
40
1
41
1
10
25.6054809471616
20
-119.48987093729
30
0
41
1
10
25.5969642367271
20
-119.482821787747
30
0
41
1
10
25.5882552363782
20
-119.476529410076
30
0
41
1
10
25.5712583881548
20
-119.466842477118
30
0
41
1
10
25.562762447908
20
-119.463438947185
30
0
41
1
10
25.548622137488
20
-119.461286217233
30
0
41
1
10
25.5426096106414
20
-119.46211355422
30
0
41
1
10
25.5335407159078
20
-119.466851544977
30
0
41
1
10
25.5301174998892
20
-119.470453597925
30
0
41
1
10
25.5233881111073
20
-119.482202304432
30
0
41
1
10
25.5213389655739
20
-119.491908344969
30
0
41
1
10
25.5196255377408
20
-119.52062338766
30
0
41
1
10
25.5224474461626
20
-119.54188399797
30
0
41
1
10
25.5359885699342
20
-119.604322916888
30
0
41
1
10
25.5516235189735
20
-119.648520671572
30
0
41
1
10
25.5810420641354
20
-119.71703609022
30
0
41
1
10
25.5927652931986
20
-119.741802354243
30
0
41
1
10
25.6054809471616
20
-119.76645749612
30
0
0
SPLINE
5
F0
100
AcDbEntity
8
1
62
256
6
ByLayer
370
18
48
1
60
0
100
AcDbSpline
70
4
71
3
72
8
73
4
40
0
40
0
40
0
40
0
40
1
40
1
40
1
40
1
41
1
10
26.2495190528383
20
-121.064715513935
30
0
41
1
10
26.0414448525109
20
-120.627682311263
30
0
41
1
10
25.8264730682965
20
-120.194952335321
30
0
41
1
10
25.6054809471616
20
-119.76645749612
30
0
0
SPLINE
5
F1
100
AcDbEntity
8
1
62
256
6
ByLayer
370
18
48
1
60
0
100
AcDbSpline
70
4
71
3
72
10
73
6
40
0
40
0
40
0
40
0
40
0.360636941215517
40
0.360636941215517
40
1
40
1
40
1
40
1
41
1
10
26.3245190528383
20
-121.319036860938
30
0
41
1
10
26.3245190528383
20
-121.292252083149
30
0
41
1
10
26.3191237110474
20
-121.261869825152
30
0
41
1
10
26.2977050589782
20
-121.177304187085
30
0
41
1
10
26.276002588909
20
-121.120340788807
30
0
41
1
10
26.2495190528383
20
-121.064715513935
30
0
0
SPLINE
5
F2
100
AcDbEntity
8
1
62
256
6
ByLayer
370
18
48
1
60
0
100
AcDbSpline
70
4
71
3
72
18
73
14
40
0
40
0
40
0
40
0
40
0.154882985873951
40
0.154882985873951
40
0.313613348810302
40
0.313613348810302
40
0.459394703340381
40
0.459394703340381
40
0.589209021920942
40
0.589209021920942
40
0.810232963237615
40
0.810232963237615
40
1
40
1
40
1
40
1
41
1
10
26.2495190528383
20
-121.583962041057
30
0
41
1
10
26.2560294860953
20
-121.589580222254
30
0
41
1
10
26.2627484059219
20
-121.594612199878
30
0
41
1
10
26.2761185834114
20
-121.602424074218
30
0
41
1
10
26.282936689051
20
-121.605202236074
30
0
41
1
10
26.2947188563673
20
-121.607049317899
30
0
41
1
10
26.2999309919915
20
-121.606402530254
30
0
41
1
10
26.3080755803227
20
-121.602580910895
30
0
41
1
10
26.3113043761323
20
-121.599679214169
30
0
41
1
10
26.3182797877381
20
-121.590005382875
30
0
41
1
10
26.320997245183
20
-121.581850792489
30
0
41
1
10
26.3239572952909
20
-121.565259086217
30
0
41
1
10
26.3245190528383
20
-121.556880466722
30
0
41
1
10
26.3245190528383
20
-121.548182574456
30
0
0
SPLINE
5
F3
100
AcDbEntity
8
1
62
256
6
ByLayer
370
18
48
1
60
0
100
AcDbSpline
70
4
71
3
72
8
73
4
40
0
40
0
40
0
40
0
40
1
40
1
40
1
40
1
41
1
10
25.6054809471616
20
-121.029436466659
30
0
41
1
10
25.8203255107436
20
-121.214022234159
30
0
41
1
10
26.035012229887
20
-121.398853285346
30
0
41
1
10
26.2495190528383
20
-121.583962041057
30
0
0
SPLINE
5
F4
100
AcDbEntity
8
1
62
256
6
ByLayer
370
18
48
1
60
0
100
AcDbSpline
70
4
71
3
72
22
73
18
40
0
40
0
40
0
40
0
40
0.481133414250685
40
0.481133414250685
40
0.661728184309099
40
0.661728184309099
40
0.738447514201722
40
0.738447514201722
40
0.816527980381009
40
0.816527980381009
40
0.865348936116598
40
0.865348936116598
40
0.914278964637635
40
0.914278964637635
40
0.974711901717132
40
0.974711901717132
40
1
40
1
40
1
40
1
41
1
10
25.6054809471616
20
-121.374547166385
30
0
41
1
10
25.5704873120356
20
-121.295653437462
30
0
41
1
10
25.5420633725722
20
-121.214208097346
30
0
41
1
10
25.5227039039604
20
-121.110979470161
30
0
41
1
10
25.5194267734684
20
-121.082970438278
30
0
41
1
10
25.5213447288056
20
-121.047851304552
30
0
41
1
10
25.5228082951682
20
-121.037870716033
30
0
41
1
10
25.5284886864314
20
-121.020545774474
30
0
41
1
10
25.5328768884731
20
-121.013032107536
30
0
41
1
10
25.5431703613125
20
-121.005636826655
30
0
41
1
10
25.5480186360014
20
-121.003934643619
30
0
41
1
10
25.5588962677232
20
-121.00349882558
30
0
41
1
10
25.5650582478974
20
-121.004770596443
30
0
41
1
10
25.5791697682744
20
-121.010357347656
30
0
41
1
10
25.5873999688871
20
-121.015343914498
30
0
41
1
10
25.5987784376202
20
-121.023850915101
30
0
41
1
10
25.6021470886638
20
-121.026572150154
30
0
41
1
10
25.6054809471616
20
-121.029436466659
30
0
0
SPLINE
5
F5
100
AcDbEntity
8
1
62
256
6
ByLayer
370
18
48
1
60
0
100
AcDbSpline
70
4
71
3
72
8
73
4
40
0
40
0
40
0
40
0
40
1
40
1
40
1
40
1
41
1
10
25.6054809471616
20
-121.374547166385
30
0
41
1
10
25.829850890991
20
-121.880392914142
30
0
41
1
10
26.0450044163983
20
-122.391867179185
30
0
41
1
10
26.2495190528383
20
-122.908814082414
30
0
0
SPLINE
5
F6
100
AcDbEntity
8
1
62
256
6
ByLayer
370
18
48
1
60
0
100
AcDbSpline
70
4
71
3
72
10
73
6
40
0
40
0
40
0
40
0
40
0.842296853567539
40
0.842296853567539
40
1
40
1
40
1
40
1
41
1
10
26.2495190528383
20
-122.908814082414
30
0
41
1
10
26.2849010288595
20
-122.99824828259
30
0
41
1
10
26.3120246338852
20
-123.091162862392
30
0
41
1
10
26.3234104870878
20
-123.192991380701
30
0
41
1
10
26.3245190528383
20
-123.20909608508
30
0
41
1
10
26.3245190528383
20
-123.224567988912
30
0
0
SPLINE
5
F7
100
AcDbEntity
8
1
62
256
6
ByLayer
370
18
48
1
60
0
100
AcDbSpline
70
4
71
3
72
18
73
14
40
0
40
0
40
0
40
0
40
0.282654704022493
40
0.282654704022493
40
0.457540982401112
40
0.457540982401112
40
0.597602713307056
40
0.597602713307056
40
0.738597766148243
40
0.738597766148243
40
0.86804008556629
40
0.86804008556629
40
1
40
1
40
1
40
1
41
1
10
26.3245190528383
20
-146.451817425544
30
0
41
1
10
26.3245190528383
20
-146.438943990817
30
0
41
1
10
26.3233081386135
20
-146.426655291427
30
0
41
1
10
26.3179133775718
20
-146.410085924281
30
0
41
1
10
26.3149675778319
20
-146.404457093252
30
0
41
1
10
26.3076579570676
20
-146.397104565384
30
0
41
1
10
26.3035997806162
20
-146.394793830679
30
0
41
1
10
26.2941688990754
20
-146.392978278344
30
0
41
1
10
26.2886573947438
20
-146.393491300682
30
0
41
1
10
26.2776170228464
20
-146.396991316326
30
0
41
1
10
26.2720117526138
20
-146.399782731831
30
0
41
1
10
26.2607905763386
20
-146.406869018639
30
0
41
1
10
26.2550847523816
20
-146.411235036113
30
0
41
1
10
26.2495190528383
20
-146.416037958943
30
0
0
SPLINE
5
F8
100
AcDbEntity
8
1
62
256
6
ByLayer
370
18
48
1
60
0
100
AcDbSpline
70
4
71
3
72
8
73
4
40
0
40
0
40
0
40
0
40
1
40
1
40
1
40
1
41
1
10
26.2495190528383
20
-146.416037958943
30
0
41
1
10
26.035012229887
20
-146.601146714654
30
0
41
1
10
25.8203255107436
20
-146.785977765841
30
0
41
1
10
25.6054809471616
20
-146.970563533341
30
0
0
SPLINE
5
F9
100
AcDbEntity
8
1
62
256
6
ByLayer
370
18
48
1
60
0
100
AcDbSpline
70
4
71
3
72
22
73
18
40
0
40
0
40
0
40
0
40
0.0571852573474686
40
0.0571852573474686
40
0.115710261134184
40
0.115710261134184
40
0.169527529264327
40
0.169527529264327
40
0.217297973397518
40
0.217297973397518
40
0.297949952064265
40
0.297949952064265
40
0.442882075095734
40
0.442882075095734
40
0.741345888007526
40
0.741345888007526
40
1
40
1
40
1
40
1
41
1
10
25.6054809471616
20
-146.970563533341
30
0
41
1
10
25.5980240917602
20
-146.976970162182
30
0
41
1
10
25.5903341636893
20
-146.982705436366
30
0
41
1
10
25.5750636628954
20
-146.9915994594
30
0
41
1
10
25.5672933035185
20
-146.994760887684
30
0
41
1
10
25.5538796179827
20
-146.996862218281
30
0
41
1
10
25.5479527379209
20
-146.996120264066
30
0
41
1
10
25.538731735714
20
-146.991738186304
30
0
41
1
10
25.5350926036367
20
-146.988418775523
30
0
41
1
10
25.5273007276528
20
-146.977402794937
30
0
41
1
10
25.524294920066
20
-146.968155870679
30
0
41
1
10
25.5194371327553
20
-146.939966724354
30
0
41
1
10
25.5200945286652
20
-146.91864772428
30
0
41
1
10
25.5275535676195
20
-146.851874919036
30
0
41
1
10
25.5401372209675
20
-146.802854290548
30
0
41
1
10
25.5697814437269
20
-146.711495514955
30
0
41
1
10
25.5864803024857
20
-146.668290101165
30
0
41
1
10
25.6054809471616
20
-146.625452833615
30
0
0
SPLINE
5
FA
100
AcDbEntity
8
1
62
256
6
ByLayer
370
18
48
1
60
0
100
AcDbSpline
70
4
71
3
72
8
73
4
40
0
40
0
40
0
40
0
40
1
40
1
40
1
40
1
41
1
10
26.2495190528383
20
-145.091185917586
30
0
41
1
10
26.0450044163983
20
-145.608132820815
30
0
41
1
10
25.829850890991
20
-146.119607085858
30
0
41
1
10
25.6054809471616
20
-146.625452833615
30
0
0
SPLINE
5
FB
100
AcDbEntity
8
1
62
256
6
ByLayer
370
18
48
1
60
0
100
AcDbSpline
70
4
71
3
72
10
73
6
40
0
40
0
40
0
40
0
40
0.416693857554272
40
0.416693857554272
40
1
40
1
40
1
40
1
41
1
10
26.3245190528383
20
-144.775432011088
30
0
41
1
10
26.3245190528383
20
-144.81572036113
30
0
41
1
10
26.3175534115839
20
-144.859898175879
30
0
41
1
10
26.2941186976129
20
-144.965588065106
30
0
41
1
10
26.2741550662478
20
-145.028914037873
30
0
41
1
10
26.2495190528383
20
-145.091185917586
30
0
0
SPLINE
5
FC
100
AcDbEntity
8
1
62
256
6
ByLayer
370
18
48
1
60
0
100
AcDbSpline
70
4
71
3
72
18
73
14
40
0
40
0
40
0
40
0
40
0.125557042813014
40
0.125557042813014
40
0.254689832757083
40
0.254689832757083
40
0.371304066329003
40
0.371304066329003
40
0.471721608405614
40
0.471721608405614
40
0.648255252038882
40
0.648255252038882
40
1
40
1
40
1
40
1
41
1
10
26.2495190528383
20
-144.414661697572
30
0
41
1
10
26.2550401865391
20
-144.409440756719
30
0
41
1
10
26.2608043940407
20
-144.404709474038
30
0
41
1
10
26.2725469014613
20
-144.397217014324
30
0
41
1
10
26.2786897679262
20
-144.394458813503
30
0
41
1
10
26.2895160932545
20
-144.392500237449
30
0
41
1
10
26.2944151278522
20
-144.392986587039
30
0
41
1
10
26.3021818004645
20
-144.396287057608
30
0
41
1
10
26.3053394246724
20
-144.398774100488
30
0
41
1
10
26.3126555439569
20
-144.407241052196
30
0
41
1
10
26.3159616731681
20
-144.414513568389
30
0
41
1
10
26.3230679710488
20
-144.438143182426
30
0
41
1
10
26.3245190528383
20
-144.456818408271
30
0
41
1
10
26.3245190528383
20
-144.47590799443
30
0
0
SPLINE
5
FD
100
AcDbEntity
8
1
62
256
6
ByLayer
370
18
48
1
60
0
100
AcDbSpline
70
4
71
3
72
8
73
4
40
0
40
0
40
0
40
0
40
1
40
1
40
1
40
1
41
1
10
25.6054809471616
20
-145.019400679182
30
0
41
1
10
25.8207325108382
20
-144.818636255786
30
0
41
1
10
26.0354442951018
20
-144.617096869225
30
0
41
1
10
26.2495190528383
20
-144.414661697572
30
0
0
SPLINE
5
FE
100
AcDbEntity
8
1
62
256
6
ByLayer
370
18
48
1
60
0
100
AcDbSpline
70
4
71
3
72
22
73
18
40
0
40
0
40
0
40
0
40
0.539334102392216
40
0.539334102392216
40
0.692127956077132
40
0.692127956077132
40
0.775626129214523
40
0.775626129214523
40
0.833388480648866
40
0.833388480648866
40
0.87362532465643
40
0.87362532465643
40
0.914343327195204
40
0.914343327195204
40
0.949562455053153
40
0.949562455053153
40
1
40
1
40
1
40
1
41
1
10
25.6054809471616
20
-144.569313426042
30
0
41
1
10
25.5673628775465
20
-144.675092774334
30
0
41
1
10
25.5371623346596
20
-144.784056042295
30
0
41
1
10
25.5214564521727
20
-144.914487289343
30
0
41
1
10
25.5195226891785
20
-144.943244126193
30
0
41
1
10
25.5216915915998
20
-144.98437993302
30
0
41
1
10
25.5234812452215
20
-144.998437954098
30
0
41
1
10
25.5296315718215
20
-145.019298367753
30
0
41
1
10
25.5330962009558
20
-145.027128340109
30
0
41
1
10
25.5412926267396
20
-145.037245597588
30
0
41
1
10
25.5454173895162
20
-145.040534926308
30
0
41
1
10
25.5550582514616
20
-145.044183070844
30
0
41
1
10
25.5607440219301
20
-145.04450860373
30
0
41
1
10
25.5718535354577
20
-145.042145639632
30
0
41
1
10
25.5773272064406
20
-145.03985948983
30
0
41
1
10
25.5904199055092
20
-145.03235482453
30
0
41
1
10
25.5981434418549
20
-145.026244346178
30
0
41
1
10
25.6054809471616
20
-145.019400679182
30
0
0
SPLINE
5
FF
100
AcDbEntity
8
1
62
256
6
ByLayer
370
18
48
1
60
0
100
AcDbSpline
70
4
71
3
72
8
73
4
40
0
40
0
40
0
40
0
40
1
40
1
40
1
40
1
41
1
10
25.6054809471616
20
-144.569313426042
30
0
41
1
10
25.8374430210077
20
-143.925608294914
30
0
41
1
10
26.0530187574079
20
-143.27361495227
30
0
41
1
10
26.2495190528383
20
-142.614361577127
30
0
0
SPLINE
5
100
100
AcDbEntity
8
1
62
256
6
ByLayer
370
18
48
1
60
0
100
AcDbSpline
70
4
71
3
72
10
73
6
40
0
40
0
40
0
40
0
40
0.652881657126577
40
0.652881657126577
40
1
40
1
40
1
40
1
41
1
10
26.2495190528383
20
-142.614361577127
30
0
41
1
10
26.2777897414882
20
-142.519514152754
30
0
41
1
10
26.2993604673479
20
-142.423294972233
30
0
41
1
10
26.3196803440776
20
-142.278590986825
30
0
41
1
10
26.3245190528383
20
-142.22830148735
30
0
41
1
10
26.3245190528383
20
-142.180039359129
30
0
0
SPLINE
5
101
100
AcDbEntity
8
1
62
256
6
ByLayer
370
18
48
1
60
0
100
AcDbSpline
70
4
71
3
72
18
73
14
40
0
40
0
40
0
40
0
40
0.387875112890614
40
0.387875112890614
40
0.517088813123779
40
0.517088813123779
40
0.648275967266418
40
0.648275967266418
40
0.749027612590969
40
0.749027612590969
40
0.849375380087389
40
0.849375380087389
40
1
40
1
40
1
40
1
41
1
10
26.3245190528383
20
-123.52409200557
30
0
41
1
10
26.3245190528383
20
-123.545066856806
30
0
41
1
10
26.3228121035676
20
-123.565693698504
30
0
41
1
10
26.3147833382923
20
-123.58777461896
30
0
41
1
10
26.3122083165183
20
-123.592895123108
30
0
41
1
10
26.3055960816228
20
-123.60122124671
30
0
41
1
10
26.3014249213346
20
-123.604466183026
30
0
41
1
10
26.2927403757141
20
-123.607185655985
30
0
41
1
10
26.2884338075458
20
-123.607362037913
30
0
41
1
10
26.2794838648025
20
-123.605621123935
30
0
41
1
10
26.2747474363232
20
-123.603709698784
30
0
41
1
10
26.2631134272257
20
-123.597157281065
30
0
41
1
10
26.2561254905141
20
-123.591585537548
30
0
41
1
10
26.2495190528383
20
-123.585338302428
30
0
0
SPLINE
5
102
100
AcDbEntity
8
1
62
256
6
ByLayer
370
18
48
1
60
0
100
AcDbSpline
70
4
71
3
72
8
73
4
40
0
40
0
40
0
40
0
40
1
40
1
40
1
40
1
41
1
10
26.2495190528383
20
-123.585338302428
30
0
41
1
10
26.0354442951018
20
-123.382903130775
30
0
41
1
10
25.8207325108382
20
-123.181363744214
30
0
41
1
10
25.6054809471616
20
-122.980599320818
30
0
0
SPLINE
5
103
100
AcDbEntity
8
1
62
256
6
ByLayer
370
18
48
1
60
0
100
AcDbSpline
70
4
71
3
72
22
73
18
40
0
40
0
40
0
40
0
40
0.0436907745678185
40
0.0436907745678185
40
0.0885301651800317
40
0.0885301651800317
40
0.129426278641006
40
0.129426278641006
40
0.164666271267691
40
0.164666271267691
40
0.225834133302369
40
0.225834133302369
40
0.342005564100433
40
0.342005564100433
40
0.611810684578624
40
0.611810684578624
40
1
40
1
40
1
40
1
41
1
10
25.6054809471616
20
-122.980599320818
30
0
41
1
10
25.5991131205058
20
-122.974660069901
30
0
41
1
10
25.5924746166385
20
-122.969288177065
30
0
41
1
10
25.5790018776414
20
-122.960803840491
30
0
41
1
10
25.5719844081634
20
-122.957690110255
30
0
41
1
10
25.5595865115304
20
-122.955456996392
30
0
41
1
10
25.5539643354294
20
-122.956016941218
30
0
41
1
10
25.5450782463179
20
-122.959826361368
30
0
41
1
10
25.5414783474247
20
-122.962700892574
30
0
41
1
10
25.5332451620943
20
-122.972423629784
30
0
41
1
10
25.5295731298516
20
-122.980726668626
30
0
41
1
10
25.5220053934694
20
-123.006911313019
30
0
41
1
10
25.5204743958575
20
-123.027181542599
30
0
41
1
10
25.5204961525825
20
-123.09597285856
30
0
41
1
10
25.5285300803719
20
-123.148589164034
30
0
41
1
10
25.5551790784189
20
-123.276575044669
30
0
41
1
10
25.5778958023649
20
-123.3541365632
30
0
41
1
10
25.6054809471616
20
-123.430686573958
30
0
0
SPLINE
5
104
100
AcDbEntity
8
1
62
256
6
ByLayer
370
18
48
1
60
0
100
AcDbSpline
70
4
71
3
72
8
73
4
40
0
40
0
40
0
40
0
40
1
40
1
40
1
40
1
41
1
10
26.2495190528383
20
-125.385638422873
30
0
41
1
10
26.0530187574078
20
-124.726385047729
30
0
41
1
10
25.8374430210077
20
-124.074391705086
30
0
41
1
10
25.6054809471616
20
-123.430686573958
30
0
0
SPLINE
5
105
100
AcDbEntity
8
1
62
256
6
ByLayer
370
18
48
1
60
0
100
AcDbSpline
70
4
71
3
72
10
73
6
40
0
40
0
40
0
40
0
40
0.628529158619954
40
0.628529158619954
40
1
40
1
40
1
40
1
41
1
10
26.3245190528383
20
-125.819960640871
30
0
41
1
10
26.3245190528383
20
-125.732928218405
30
0
41
1
10
26.3102464798608
20
-125.640087270356
30
0
41
1
10
26.2794694158787
20
-125.494328678435
30
0
41
1
10
26.2656647652095
20
-125.439806867513
30
0
41
1
10
26.2495190528383
20
-125.385638422873
30
0
0
SPLINE
5
106
100
AcDbEntity
8
1
62
256
6
ByLayer
370
18
48
1
60
0
100
AcDbSpline
70
4
71
3
72
20
73
16
40
0
40
0
40
0
40
0
40
0.291516785663304
40
0.291516785663304
40
0.590127066983499
40
0.590127066983499
40
0.683754743402843
40
0.683754743402843
40
0.750765168902822
40
0.750765168902822
40
0.818322051176719
40
0.818322051176719
40
0.879826778015608
40
0.879826778015608
40
1
40
1
40
1
40
1
41
1
10
26.3245190528383
20
-141.742192158326
30
0
41
1
10
26.3245190528383
20
-141.721593655044
30
0
41
1
10
26.3237297723978
20
-141.701217701347
30
0
41
1
10
26.3191206418534
20
-141.661911831668
30
0
41
1
10
26.3154396486943
20
-141.642121999706
30
0
41
1
10
26.3048436718819
20
-141.622320991206
30
0
41
1
10
26.3017446995891
20
-141.618019297083
30
0
41
1
10
26.295288164741
20
-141.612724466442
30
0
41
1
10
26.2921848959327
20
-141.611124377576
30
0
41
1
10
26.2854411257014
20
-141.609798141183
30
0
41
1
10
26.2817073669928
20
-141.61009083244
30
0
41
1
10
26.2745918640003
20
-141.612344130272
30
0
41
1
10
26.2711331302596
20
-141.614154729275
30
0
41
1
10
26.2613472656903
20
-141.620816004931
30
0
41
1
10
26.2551846464751
20
-141.626966725225
30
0
41
1
10
26.2495190528322
20
-141.633633338847
30
0
0
SPLINE
5
107
100
AcDbEntity
8
1
62
256
6
ByLayer
370
18
48
1
60
0
100
AcDbSpline
70
4
71
3
72
8
73
4
40
0
40
0
40
0
40
0
40
1
40
1
40
1
40
1
41
1
10
26.2495190528314
20
-141.633633338848
30
0
41
1
10
26.0373880309981
20
-141.883244526798
30
0
41
1
10
25.8225098729463
20
-142.129768180296
30
0
41
1
10
25.6054809471616
20
-142.373700752015
30
0
0
SPLINE
5
108
100
AcDbEntity
8
1
62
256
6
ByLayer
370
18
48
1
60
0
100
AcDbSpline
70
4
71
3
72
22
73
18
40
0
40
0
40
0
40
0
40
0.0343961895231032
40
0.0343961895231032
40
0.0581186494789183
40
0.0581186494789183
40
0.0821404929941685
40
0.0821404929941685
40
0.102836985356575
40
0.102836985356575
40
0.136220057449446
40
0.136220057449446
40
0.20017427868824
40
0.20017427868824
40
0.407027458310557
40
0.407027458310557
40
1
40
1
40
1
40
1
41
1
10
25.6054809471616
20
-142.373700752015
30
0
41
1
10
25.5995126607287
20
-142.380408887592
30
0
41
1
10
25.5931161709538
20
-142.386578076872
30
0
41
1
10
25.5818853827165
20
-142.394501030013
30
0
41
1
10
25.577088351907
20
-142.39705879375
30
0
41
1
10
25.5677059490397
20
-142.399846348459
30
0
41
1
10
25.5630017756714
20
-142.400042510034
30
0
41
1
10
25.5551936080603
20
-142.398054107837
30
0
41
1
10
25.551863362724
20
-142.396198048376
30
0
41
1
10
25.5442774873976
20
-142.389751621451
30
0
41
1
10
25.5405258406189
20
-142.384142790939
30
0
41
1
10
25.5317117238901
20
-142.366041254902
30
0
41
1
10
25.5282098536057
20
-142.351658049343
30
0
41
1
10
25.5179289593336
20
-142.289343055981
30
0
41
1
10
25.5196453356536
20
-142.235507638321
30
0
41
1
10
25.5342056543597
20
-142.030128701243
30
0
41
1
10
25.5655870103987
20
-141.870984519954
30
0
41
1
10
25.6054809471616
20
-141.714837220705
30
0
0
SPLINE
5
109
100
AcDbEntity
8
1
62
256
6
ByLayer
370
18
48
1
60
0
100
AcDbSpline
70
4
71
3
72
8
73
4
40
0
40
0
40
0
40
0
40
1
40
1
40
1
40
1
41
1
10
26.2495190528386
20
-138.571656778949
30
0
41
1
10
26.0867055551707
20
-139.631768473514
30
0
41
1
10
25.8693124905851
20
-140.682184484346
30
0
41
1
10
25.6054809471617
20
-141.714837220705
30
0
0
SPLINE
5
10A
100
AcDbEntity
8
1
62
256
6
ByLayer
370
18
48
1
60
0
100
AcDbSpline
70
4
71
3
72
10
73
6
40
0
40
0
40
0
40
0
40
0.314717349640663
40
0.314717349640663
40
1
40
1
40
1
40
1
41
1
10
26.3245190528383
20
-137.635402702346
30
0
41
1
10
26.3245190528383
20
-137.733280727092
30
0
41
1
10
26.3211247943578
20
-137.831681775142
30
0
41
1
10
26.3037664005952
20
-138.143824330179
30
0
41
1
10
26.2822738999128
20
-138.358383328439
30
0
41
1
10
26.2495190528383
20
-138.571656778949
30
0
0
SPLINE
5
10B
100
AcDbEntity
8
1
62
256
6
ByLayer
370
18
48
1
60
0
100
AcDbSpline
70
4
71
3
72
20
73
16
40
0
40
0
40
0
40
0
40
0.106725867628229
40
0.106725867628229
40
0.179142572672854
40
0.179142572672854
40
0.252597558830937
40
0.252597558830937
40
0.314717168216288
40
0.314717168216288
40
0.413248956395229
40
0.413248956395229
40
0.602681012493213
40
0.602681012493213
40
1
40
1
40
1
40
1
41
1
10
26.2495190528383
20
-126.36636666116
30
0
41
1
10
26.2545503497343
20
-126.372286907922
30
0
41
1
10
26.2599526231891
20
-126.37777426134
30
0
41
1
10
26.2694638250597
20
-126.384895925363
30
0
41
1
10
26.2735086422345
20
-126.387227308954
30
0
41
1
10
26.2815033465541
20
-126.389920568054
30
0
41
1
10
26.2855591690633
20
-126.390250083095
30
0
41
1
10
26.2922811737622
20
-126.388788783406
30
0
41
1
10
26.2951461567849
20
-126.387321812874
30
0
41
1
10
26.301644678493
20
-126.382162797383
30
0
41
1
10
26.3048948511704
20
-126.377643252243
30
0
41
1
10
26.3126560841828
20
-126.362959866723
30
0
41
1
10
26.3158960366066
20
-126.351209529789
30
0
41
1
10
26.3232040654703
20
-126.313726789695
30
0
41
1
10
26.3245190528383
20
-126.285849643907
30
0
41
1
10
26.3245190528383
20
-126.257807841675
30
0
0
SPLINE
5
10C
100
AcDbEntity
8
1
62
256
6
ByLayer
370
18
48
1
60
0
100
AcDbSpline
70
4
71
3
72
8
73
4
40
0
40
0
40
0
40
0
40
1
40
1
40
1
40
1
41
1
10
25.6054809471616
20
-125.626299247985
30
0
41
1
10
25.8225098729486
20
-125.870231819707
30
0
41
1
10
26.0373880310028
20
-126.116755473207
30
0
41
1
10
26.2495190528383
20
-126.36636666116
30
0
0
SPLINE
5
10D
100
AcDbEntity
8
1
62
256
6
ByLayer
370
18
48
1
60
0
100
AcDbSpline
70
4
71
3
72
26
73
22
40
0
40
0
40
0
40
0
40
0.411449653758122
40
0.411449653758122
40
0.624924227772667
40
0.624924227772667
40
0.796161473185291
40
0.796161473185291
40
0.861053945190928
40
0.861053945190928
40
0.889533130397347
40
0.889533130397347
40
0.918554487870954
40
0.918554487870954
40
0.939552567169166
40
0.939552567169166
40
0.960425256188708
40
0.960425256188708
40
0.995114092852965
40
0.995114092852965
40
1
40
1
40
1
40
1
41
1
10
25.6054809471616
20
-126.285162779295
30
0
41
1
10
25.5776837974261
20
-126.176363041535
30
0
41
1
10
25.5549686836967
20
-126.066763253586
30
0
41
1
10
25.5309896136118
20
-125.902574551183
30
0
41
1
10
25.5246190010442
20
-125.846554786223
30
0
41
1
10
25.5196156356215
20
-125.748106783165
30
0
41
1
10
25.519238399221
20
-125.704297168506
30
0
41
1
10
25.5278627472279
20
-125.649892614106
30
0
41
1
10
25.5312875315311
20
-125.635313457847
30
0
41
1
10
25.5394876017723
20
-125.617806171121
30
0
41
1
10
25.5424944947903
20
-125.612885274554
30
0
41
1
10
25.5498259570639
20
-125.605016227065
30
0
41
1
10
25.5543157159121
20
-125.602041410908
30
0
41
1
10
25.5630490772553
20
-125.60005145064
30
0
41
1
10
25.5671114383849
20
-125.600170364379
30
0
41
1
10
25.5752932551855
20
-125.602264469126
30
0
41
1
10
25.5794981489762
20
-125.604230734987
30
0
41
1
10
25.5902942966413
20
-125.611032085229
30
0
41
1
10
25.5968309751158
20
-125.616949278005
30
0
41
1
10
25.603773191191
20
-125.624400803496
30
0
41
1
10
25.6046305797082
20
-125.625343466012
30
0
41
1
10
25.6054809471839
20
-125.626299247941
30
0
0
SPLINE
5
10E
100
AcDbEntity
8
1
62
256
6
ByLayer
370
18
48
1
60
0
100
AcDbSpline
70
4
71
3
72
8
73
4
40
0
40
0
40
0
40
0
40
1
40
1
40
1
40
1
41
1
10
25.6054809471617
20
-126.285162779295
30
0
41
1
10
25.8693124905851
20
-127.317815515654
30
0
41
1
10
26.0867055551707
20
-128.368231526486
30
0
41
1
10
26.2495190528386
20
-129.428343221051
30
0
0
SPLINE
5
10F
100
AcDbEntity
8
1
62
256
6
ByLayer
370
18
48
1
60
0
100
AcDbSpline
70
4
71
3
72
10
73
6
40
0
40
0
40
0
40
0
40
0.685282650359346
40
0.685282650359346
40
1
40
1
40
1
40
1
41
1
10
26.2495190528383
20
-129.428343221051
30
0
41
1
10
26.2822738999128
20
-129.641616671561
30
0
41
1
10
26.3037664005952
20
-129.856175669821
30
0
41
1
10
26.3211247943578
20
-130.168318224858
30
0
41
1
10
26.3245190528383
20
-130.266719272908
30
0
41
1
10
26.3245190528383
20
-130.364597297654
30
0
0
SPLINE
5
110
100
AcDbEntity
8
1
62
256
6
ByLayer
370
18
48
1
60
0
100
AcDbSpline
70
4
71
3
72
36
73
32
40
0
40
0
40
0
40
0
40
0.447531736752365
40
0.447531736752365
40
0.649256498970226
40
0.649256498970226
40
0.726363394139379
40
0.726363394139379
40
0.772771525637732
40
0.772771525637732
40
0.803164391180038
40
0.803164391180038
40
0.82378052644446
40
0.82378052644446
40
0.844635947667089
40
0.844635947667089
40
0.852834890808411
40
0.852834890808411
40
0.86117974513027
40
0.86117974513027
40
0.866453011455093
40
0.866453011455093
40
0.87172644565073
40
0.87172644565073
40
0.879174461668438
40
0.879174461668438
40
0.893216788161505
40
0.893216788161505
40
0.955535847537675
40
0.955535847537675
40
1
40
1
40
1
40
1
41
1
10
26.3245190528383
20
-131.625462039656
30
0
41
1
10
26.3245190528383
20
-131.72417194341
30
0
41
1
10
26.3231720956642
20
-131.822866814744
30
0
41
1
10
26.3170463169384
20
-131.965412182901
30
0
41
1
10
26.3145903861944
20
-132.009657402554
30
0
41
1
10
26.3092091372134
20
-132.070313392426
30
0
41
1
10
26.3075032782951
20
-132.087044432726
30
0
41
1
10
26.3040872143875
20
-132.113611438569
30
0
41
1
10
26.3026499898873
20
-132.12354937927
30
0
41
1
10
26.2997932026457
20
-132.139785816472
30
0
41
1
10
26.2985393305366
20
-132.146165612862
30
0
41
1
10
26.2960526047031
20
-132.156659032848
30
0
41
1
10
26.294942484936
20
-132.160851038362
30
0
41
1
10
26.2923304587597
20
-132.16899621753
30
0
41
1
10
26.2908315868224
20
-132.173013864284
30
0
41
1
10
26.2881166909597
20
-132.177914230217
30
0
41
1
10
26.2872682209399
20
-132.179227893268
30
0
41
1
10
26.2853437395125
20
-132.181496147256
30
0
41
1
10
26.2842336840902
20
-132.18247002766
30
0
41
1
10
26.2822425876723
20
-132.183361602585
30
0
41
1
10
26.2814083737328
20
-132.183534547638
30
0
41
1
10
26.2797487814147
20
-132.183453186883
30
0
41
1
10
26.2789052938664
20
-132.183199113942
30
0
41
1
10
26.2769892422504
20
-132.182205697128
30
0
41
1
10
26.2759312579362
20
-132.181308253171
30
0
41
1
10
26.2731623146323
20
-132.178340021335
30
0
41
1
10
26.2716139584899
20
-132.175901091562
30
0
41
1
10
26.2641410307558
20
-132.162245507962
30
0
41
1
10
26.2602647725795
20
-132.149019938323
30
0
41
1
10
26.2540482944013
20
-132.126831683554
30
0
41
1
10
26.2517151880169
20
-132.117454598628
30
0
41
1
10
26.2495190528334
20
-132.108033396461
30
0
0
SPLINE
5
111
100
AcDbEntity
8
1
62
256
6
ByLayer
370
18
48
1
60
0
100
AcDbSpline
70
4
71
3
72
36
73
32
40
0
40
0
40
0
40
0
40
0.0444641524309777
40
0.0444641524309777
40
0.106783211809192
40
0.106783211809192
40
0.12082553830272
40
0.12082553830272
40
0.128273554320672
40
0.128273554320672
40
0.133546988516482
40
0.133546988516482
40
0.138820254841478
40
0.138820254841478
40
0.147165109163611
40
0.147165109163611
40
0.155364052305202
40
0.155364052305202
40
0.176219473528515
40
0.176219473528515
40
0.196835608793614
40
0.196835608793614
40
0.227228474336917
40
0.227228474336917
40
0.273636605836793
40
0.273636605836793
40
0.350743501008475
40
0.350743501008475
40
0.552468263232954
40
0.552468263232954
40
1
40
1
40
1
40
1
41
1
10
26.2495190528382
20
-135.891966603518
30
0
41
1
10
26.2517151880204
20
-135.882545401358
30
0
41
1
10
26.2540482944032
20
-135.873168316439
30
0
41
1
10
26.2602647725795
20
-135.850980061677
30
0
41
1
10
26.2641410307558
20
-135.837754492038
30
0
41
1
10
26.2716139584899
20
-135.824098908438
30
0
41
1
10
26.2731623146323
20
-135.821659978665
30
0
41
1
10
26.2759312579362
20
-135.818691746829
30
0
41
1
10
26.2769892422504
20
-135.817794302872
30
0
41
1
10
26.2789052938664
20
-135.816800886058
30
0
41
1
10
26.2797487814147
20
-135.816546813117
30
0
41
1
10
26.2814083737328
20
-135.816465452362
30
0
41
1
10
26.2822425876723
20
-135.816638397414
30
0
41
1
10
26.2842336840902
20
-135.81752997234
30
0
41
1
10
26.2853437395125
20
-135.818503852744
30
0
41
1
10
26.2872682209399
20
-135.820772106732
30
0
41
1
10
26.2881166909597
20
-135.822085769783
30
0
41
1
10
26.2908315868224
20
-135.826986135715
30
0
41
1
10
26.2923304587597
20
-135.83100378247
30
0
41
1
10
26.294942484936
20
-135.839148961638
30
0
41
1
10
26.2960526047031
20
-135.843340967152
30
0
41
1
10
26.2985393305366
20
-135.853834387138
30
0
41
1
10
26.2997932026457
20
-135.860214183528
30
0
41
1
10
26.3026499898873
20
-135.87645062073
30
0
41
1
10
26.3040872143875
20
-135.886388561431
30
0
41
1
10
26.3075032782951
20
-135.912955567274
30
0
41
1
10
26.3092091372134
20
-135.929686607574
30
0
41
1
10
26.3145903861944
20
-135.990342597446
30
0
41
1
10
26.3170463169384
20
-136.034587817099
30
0
41
1
10
26.3231720956642
20
-136.177133185256
30
0
41
1
10
26.3245190528383
20
-136.27582805659
30
0
41
1
10
26.3245190528383
20
-136.374537960344
30
0
0
SPLINE
5
112
100
AcDbEntity
8
1
62
256
6
ByLayer
370
18
48
1
60
0
100
AcDbSpline
70
4
71
3
72
8
73
4
40
0
40
0
40
0
40
0
40
1
40
1
40
1
40
1
41
1
10
25.6054809471625
20
-137.782927073078
30
0
41
1
10
25.8724521897585
20
-137.179833700873
30
0
41
1
10
26.0970598839255
20
-136.546001320115
30
0
41
1
10
26.2495190528382
20
-135.891966603518
30
0
0
SPLINE
5
113
100
AcDbEntity
8
1
62
256
6
ByLayer
370
18
48
1
60
0
100
AcDbSpline
70
4
71
3
72
8
73
4
40
0
40
0
40
0
40
0
40
1
40
1
40
1
40
1
41
1
10
26.2495190528336
20
-132.108033396462
30
0
41
1
10
26.097059883921
20
-131.453998679872
30
0
41
1
10
25.8724521897558
20
-130.820166299121
30
0
41
1
10
25.6054809471625
20
-130.217072926922
30
0
0
SPLINE
5
114
100
AcDbEntity
8
1
62
256
6
ByLayer
370
18
48
1
60
0
100
AcDbSpline
70
4
71
3
72
26
73
22
40
0
40
0
40
0
40
0
40
0.0187811648661637
40
0.0187811648661637
40
0.0238173873997356
40
0.0238173873997356
40
0.0277754445836571
40
0.0277754445836571
40
0.0317799727228257
40
0.0317799727228257
40
0.0352291954060162
40
0.0352291954060162
40
0.0413606525567491
40
0.0413606525567491
40
0.0575919390829556
40
0.0575919390829556
40
0.120195584202772
40
0.120195584202772
40
0.369007729513214
40
0.369007729513214
40
1
40
1
40
1
40
1
41
1
10
25.6054809471616
20
-130.217072926923
30
0
41
1
10
25.5999099234363
20
-130.204487872995
30
0
41
1
10
25.5936336648617
20
-130.191841844821
30
0
41
1
10
25.5832951787897
20
-130.179556353106
30
0
41
1
10
25.5808969540066
20
-130.177155030963
30
0
41
1
10
25.5763430175172
20
-130.173887086493
30
0
41
1
10
25.5742019427658
20
-130.17278990347
30
0
41
1
10
25.5699085504506
20
-130.171736538213
30
0
41
1
10
25.5676997778186
20
-130.171798736944
30
0
41
1
10
25.5639169843549
20
-130.172985469223
30
0
41
1
10
25.562252637367
20
-130.173959900203
30
0
41
1
10
25.558069235574
20
-130.177390643727
30
0
41
1
10
25.5557901868331
20
-130.18042934772
30
0
41
1
10
25.5486683018008
20
-130.192456639663
30
0
41
1
10
25.5452595109723
20
-130.203238943499
30
0
41
1
10
25.531636556398
20
-130.255815975623
30
0
41
1
10
25.5282315713623
20
-130.30214190041
30
0
41
1
10
25.5142375084282
20
-130.528964422318
30
0
41
1
10
25.5214780009952
20
-130.715764467206
30
0
41
1
10
25.5466486528576
20
-131.371875020727
30
0
41
1
10
25.5798648645034
20
-131.845379685792
30
0
41
1
10
25.6054809471616
20
-132.318619499923
30
0
0
SPLINE
5
115
100
AcDbEntity
8
1
62
256
6
ByLayer
370
18
48
1
60
0
100
AcDbSpline
70
4
71
3
72
26
73
22
40
0
40
0
40
0
40
0
40
0.630992270486805
40
0.630992270486805
40
0.879804415797254
40
0.879804415797254
40
0.942408060917073
40
0.942408060917073
40
0.95863934744328
40
0.95863934744328
40
0.964770804594013
40
0.964770804594013
40
0.968220027277203
40
0.968220027277203
40
0.972224555416372
40
0.972224555416372
40
0.976182612600294
40
0.976182612600294
40
0.981218835133866
40
0.981218835133866
40
1
40
1
40
1
40
1
41
1
10
25.6054809471616
20
-135.681380500077
30
0
41
1
10
25.5798648645034
20
-136.154620314208
30
0
41
1
10
25.5466486528576
20
-136.628124979273
30
0
41
1
10
25.5214780009952
20
-137.284235532794
30
0
41
1
10
25.5142375084282
20
-137.471035577682
30
0
41
1
10
25.5282315713623
20
-137.69785809959
30
0
41
1
10
25.531636556398
20
-137.744184024377
30
0
41
1
10
25.5452595109723
20
-137.796761056501
30
0
41
1
10
25.5486683018008
20
-137.807543360337
30
0
41
1
10
25.5557901868331
20
-137.81957065228
30
0
41
1
10
25.558069235574
20
-137.822609356273
30
0
41
1
10
25.562252637367
20
-137.826040099797
30
0
41
1
10
25.5639169843549
20
-137.827014530777
30
0
41
1
10
25.5676997778186
20
-137.828201263056
30
0
41
1
10
25.5699085504506
20
-137.828263461787
30
0
41
1
10
25.5742019427658
20
-137.82721009653
30
0
41
1
10
25.5763430175172
20
-137.826112913507
30
0
41
1
10
25.5808969540066
20
-137.822844969037
30
0
41
1
10
25.5832951787897
20
-137.820443646894
30
0
41
1
10
25.5936336648617
20
-137.808158155179
30
0
41
1
10
25.5999099234363
20
-137.795512127005
30
0
41
1
10
25.6054809471616
20
-137.782927073078
30
0
0
SPLINE
5
116
100
AcDbEntity
8
1
62
256
6
ByLayer
370
18
48
1
60
0
100
AcDbSpline
70
4
71
3
72
8
73
4
40
0
40
0
40
0
40
0
40
1
40
1
40
1
40
1
41
1
10
25.6054809471616
20
-135.681380500077
30
0
41
1
10
25.6660372745457
20
-134.562643279481
30
0
41
1
10
25.6660372745457
20
-133.437356720519
30
0
41
1
10
25.6054809471616
20
-132.318619499923
30
0
0
SPLINE
5
117
100
AcDbEntity
8
1
62
256
6
ByLayer
370
18
48
1
60
0
100
AcDbSpline
70
4
71
3
72
8
73
4
40
0
40
0
40
0
40
0
40
1
40
1
40
1
40
1
41
1
10
26.2495190528383
20
-151.92644647219
30
0
41
1
10
26.036355577456
20
-152.198022544756
30
0
41
1
10
25.8216223686272
20
-152.467964922227
30
0
41
1
10
25.6054809471616
20
-152.736384309397
30
0
0
SPLINE
5
118
100
AcDbEntity
8
1
62
256
6
ByLayer
370
18
48
1
60
0
100
AcDbSpline
70
4
71
3
72
12
73
8
40
0
40
0
40
0
40
0
40
0.258827187363955
40
0.258827187363955
40
0.600746545600572
40
0.600746545600572
40
1
40
1
40
1
40
1
41
1
10
26.3245190528383
20
-151.798631455189
30
0
41
1
10
26.3245190528383
20
-151.804772605683
30
0
41
1
10
26.3217656463515
20
-151.813527835763
30
0
41
1
10
26.3114541006045
20
-151.83640867588
30
0
41
1
10
26.3025211510332
20
-151.851758674855
30
0
41
1
10
26.2798695190537
20
-151.886374009031
30
0
41
1
10
26.265280493758
20
-151.906365967238
30
0
41
1
10
26.2495190528383
20
-151.92644647219
30
0
0
SPLINE
5
119
100
AcDbEntity
8
1
62
256
6
ByLayer
370
18
48
1
60
0
100
AcDbSpline
70
4
71
3
72
14
73
10
40
0
40
0
40
0
40
0
40
0.217728102709897
40
0.217728102709897
40
0.435813069216406
40
0.435813069216406
40
0.714829503047563
40
0.714829503047563
40
1
40
1
40
1
40
1
41
1
10
26.3245190528383
20
-152.853981763269
30
0
41
1
10
26.3245190528383
20
-152.852439319962
30
0
41
1
10
26.3229165537805
20
-152.852450927956
30
0
41
1
10
26.3167878809162
20
-152.85558783054
30
0
41
1
10
26.3121936294098
20
-152.858742446813
30
0
41
1
10
26.2995223299492
20
-152.868492305706
30
0
41
1
10
26.2906650148245
20
-152.87591660573
30
0
41
1
10
26.271300002256
20
-152.892900792794
30
0
41
1
10
26.2605500526475
20
-152.902683285796
30
0
41
1
10
26.2495190528383
20
-152.912973356459
30
0
0
SPLINE
5
11A
100
AcDbEntity
8
1
62
256
6
ByLayer
370
18
48
1
60
0
100
AcDbSpline
70
4
71
3
72
8
73
4
40
0
40
0
40
0
40
0
40
1
40
1
40
1
40
1
41
1
10
26.2495190528383
20
-152.912973356459
30
0
41
1
10
26.0351445815388
20
-153.112948743661
30
0
41
1
10
25.8204560476207
20
-153.312475928033
30
0
41
1
10
25.6054809471616
20
-153.511589753913
30
0
0
SPLINE
5
11B
100
AcDbEntity
8
1
62
256
6
ByLayer
370
18
48
1
60
0
100
AcDbSpline
70
4
71
3
72
22
73
18
40
0
40
0
40
0
40
0
40
0.165397808391602
40
0.165397808391602
40
0.287114270092962
40
0.287114270092962
40
0.390046220787518
40
0.390046220787518
40
0.493325364860708
40
0.493325364860708
40
0.592026686879759
40
0.592026686879759
40
0.732430714246801
40
0.732430714246801
40
0.9291243596242
40
0.9291243596242
40
1
40
1
40
1
40
1
41
1
10
25.6054809471616
20
-153.511589753913
30
0
41
1
10
25.5904086319227
20
-153.52555000487
30
0
41
1
10
25.5757165001651
20
-153.538699791681
30
0
41
1
10
25.553342539733
20
-153.557559681233
30
0
41
1
10
25.5446470017335
20
-153.564463684592
30
0
41
1
10
25.5319014130171
20
-153.573452108744
30
0
41
1
10
25.5272327343502
20
-153.576180757656
30
0
41
1
10
25.5213648976409
20
-153.577996219981
30
0
41
1
10
25.5201119216818
20
-153.577082801579
30
0
41
1
10
25.5210284958749
20
-153.572030429746
30
0
41
1
10
25.5230367322261
20
-153.567999910701
30
0
41
1
10
25.5307509095226
20
-153.555695371761
30
0
41
1
10
25.5377342519292
20
-153.54619255063
30
0
41
1
10
25.5576652276504
20
-153.520936156672
30
0
41
1
10
25.5721906466356
20
-153.50377905209
30
0
41
1
10
25.5935552681125
20
-153.479536292802
30
0
41
1
10
25.599449082096
20
-153.472937451703
30
0
41
1
10
25.6054809471616
20
-153.46626422561
30
0
0
SPLINE
5
11C
100
AcDbEntity
8
1
62
256
6
ByLayer
370
18
48
1
60
0
100
AcDbSpline
70
4
71
3
72
8
73
4
40
0
40
0
40
0
40
0
40
1
40
1
40
1
40
1
41
1
10
26.2495190528383
20
-152.747582310107
30
0
41
1
10
26.0357610935841
20
-152.988239024896
30
0
41
1
10
25.8210511955786
20
-153.227772649458
30
0
41
1
10
25.6054809471616
20
-153.46626422561
30
0
0
SPLINE
5
11D
100
AcDbEntity
8
1
62
256
6
ByLayer
370
18
48
1
60
0
100
AcDbSpline
70
4
71
3
72
14
73
10
40
0
40
0
40
0
40
0
40
0.241093031535535
40
0.241093031535535
40
0.480022209659052
40
0.480022209659052
40
0.866723788928629
40
0.866723788928629
40
1
40
1
40
1
40
1
41
1
10
26.3245190528383
20
-152.646315021874
30
0
41
1
10
26.3245190528383
20
-152.6492212605
30
0
41
1
10
26.3222345211172
20
-152.654385816954
30
0
41
1
10
26.314490772097
20
-152.667330969134
30
0
41
1
10
26.3089937341544
20
-152.675229416386
30
0
41
1
10
26.2921519069099
20
-152.697647176676
30
0
41
1
10
26.2790340772888
20
-152.713624450226
30
0
41
1
10
26.2598738475086
20
-152.735843881139
30
0
41
1
10
26.2547577980166
20
-152.741684334618
30
0
41
1
10
26.2495190528383
20
-152.747582310107
30
0
0
SPLINE
5
11E
100
AcDbEntity
8
1
62
256
6
ByLayer
370
18
48
1
60
0
100
AcDbSpline
70
4
71
3
72
14
73
10
40
0
40
0
40
0
40
0
40
0.328194561394237
40
0.328194561394237
40
0.577824992382592
40
0.577824992382592
40
0.830431338446021
40
0.830431338446021
40
1
40
1
40
1
40
1
41
1
10
26.2495190528383
20
-152.654965581826
30
0
41
1
10
26.2621783795631
20
-152.643580918597
30
0
41
1
10
26.2745895970824
20
-152.632950896281
30
0
41
1
10
26.2939761846804
20
-152.617665071097
30
0
41
1
10
26.3017078382926
20
-152.612069860692
30
0
41
1
10
26.3141835073863
20
-152.604432242475
30
0
41
1
10
26.3190431897439
20
-152.602362303162
30
0
41
1
10
26.3236010537951
20
-152.602592272814
30
0
41
1
10
26.3245190528383
20
-152.603675555249
30
0
41
1
10
26.3245190528383
20
-152.605631390478
30
0
0
SPLINE
5
11F
100
AcDbEntity
8
1
62
256
6
ByLayer
370
18
48
1
60
0
100
AcDbSpline
70
4
71
3
72
8
73
4
40
0
40
0
40
0
40
0
40
1
40
1
40
1
40
1
41
1
10
25.6054809471616
20
-153.23262352569
30
0
41
1
10
25.8203681908101
20
-153.040380292683
30
0
41
1
10
26.035053924102
20
-152.847836286415
30
0
41
1
10
26.2495190528383
20
-152.654965581826
30
0
0
SPLINE
5
120
100
AcDbEntity
8
1
62
256
6
ByLayer
370
18
48
1
60
0
100
AcDbSpline
70
4
71
3
72
22
73
18
40
0
40
0
40
0
40
0
40
0.209099810724483
40
0.209099810724483
40
0.368098244491095
40
0.368098244491095
40
0.490800259225607
40
0.490800259225607
40
0.591962235885013
40
0.591962235885013
40
0.693535169780315
40
0.693535169780315
40
0.789667112393382
40
0.789667112393382
40
0.925729448196849
40
0.925729448196849
40
1
40
1
40
1
40
1
41
1
10
25.6054809471616
20
-153.163605348299
30
0
41
1
10
25.5881385240481
20
-153.18387851392
30
0
41
1
10
25.5718674353988
20
-153.203873053055
30
0
41
1
10
25.5476532980283
20
-153.235972824818
30
0
41
1
10
25.5384535266534
20
-153.249092839787
30
0
41
1
10
25.5265867545513
20
-153.268613402876
30
0
41
1
10
25.5228307666029
20
-153.276020741047
30
0
41
1
10
25.5200101796861
20
-153.285684428816
30
0
41
1
10
25.5202426416804
20
-153.288684783072
30
0
41
1
10
25.5241527875885
20
-153.291011388435
30
0
41
1
10
25.5279094408857
20
-153.29033866695
30
0
41
1
10
25.5379706814527
20
-153.285688161958
30
0
41
1
10
25.5442261493547
20
-153.281857952933
30
0
41
1
10
25.5611260210547
20
-153.270033158557
30
0
41
1
10
25.5727588343517
20
-153.260824223418
30
0
41
1
10
25.5915712147019
20
-153.244916064566
30
0
41
1
10
25.5984774777317
20
-153.238888995816
30
0
41
1
10
25.6054809471616
20
-153.23262352569
30
0
0
SPLINE
5
121
100
AcDbEntity
8
1
62
256
6
ByLayer
370
18
48
1
60
0
100
AcDbSpline
70
4
71
3
72
8
73
4
40
0
40
0
40
0
40
0
40
1
40
1
40
1
40
1
41
1
10
25.6054809471616
20
-153.163605348299
30
0
41
1
10
25.8213013518007
20
-152.911312875729
30
0
41
1
10
26.036021194051
20
-152.657757536926
30
0
41
1
10
26.2495190528383
20
-152.402843877979
30
0
0
SPLINE
5
122
100
AcDbEntity
8
1
62
256
6
ByLayer
370
18
48
1
60
0
100
AcDbSpline
70
4
71
3
72
14
73
10
40
0
40
0
40
0
40
0
40
0.38594008918082
40
0.38594008918082
40
0.695861319107716
40
0.695861319107716
40
0.932015818458952
40
0.932015818458952
40
1
40
1
40
1
40
1
41
1
10
26.2495190528383
20
-152.402843877979
30
0
41
1
10
26.2646382292342
20
-152.384791778547
30
0
41
1
10
26.2787772974069
20
-152.366937554331
30
0
41
1
10
26.3003825875831
20
-152.337232002226
30
0
41
1
10
26.3087977748175
20
-152.324627739971
30
0
41
1
10
26.3194456414828
20
-152.305733329711
30
0
41
1
10
26.3227416114832
20
-152.298499378583
30
0
41
1
10
26.3243318224226
20
-152.291630262258
30
0
41
1
10
26.3245190528383
20
-152.290233807777
30
0
41
1
10
26.3245190528383
20
-152.289017819071
30
0
0
SPLINE
5
123
100
AcDbEntity
8
1
62
256
6
ByLayer
370
18
48
1
60
0
100
AcDbSpline
70
4
71
3
72
14
73
10
40
0
40
0
40
0
40
0
40
0.25
40
0.25
40
0.5
40
0.5
40
0.75
40
0.75
40
1
40
1
40
1
40
1
41
1
10
25.3239565609099
20
-154
30
0
41
1
10
25.3041547264349
20
-154
30
0
41
1
10
25.2845952356961
20
-153.473650256017
30
0
41
1
10
25.248540798354
20
-151.473795836009
30
0
41
1
10
25.2319186633021
20
-149.98421836188
30
0
41
1
10
25.204449667225
20
-146.302973046171
30
0
41
1
10
25.1933366297485
20
-144.073361822925
30
0
41
1
10
25.1784608863335
20
-139.26210795071
30
0
41
1
10
25.1745190529999
20
-136.640395148455
30
0
41
1
10
25.1745190529999
20
-134
30
0
0
SPLINE
5
124
100
AcDbEntity
8
1
62
256
6
ByLayer
370
18
48
1
60
0
100
AcDbSpline
70
4
71
3
72
22
73
18
40
0
40
0
40
0
40
0
40
0.124284574879023
40
0.124284574879023
40
0.225550318883503
40
0.225550318883503
40
0.327822888069694
40
0.327822888069694
40
0.416521256548021
40
0.416521256548021
40
0.532315178653589
40
0.532315178653589
40
0.69758282585326
40
0.69758282585326
40
0.945753236308002
40
0.945753236308002
40
1
40
1
40
1
40
1
41
1
10
25.6054809471616
20
-115.70308349495
30
0
41
1
10
25.593147262066
20
-115.692652756716
30
0
41
1
10
25.5808767850863
20
-115.683116357401
30
0
41
1
10
25.5604972505877
20
-115.669440128888
30
0
41
1
10
25.551854784049
20
-115.664527905437
30
0
41
1
10
25.5373406897178
20
-115.658673199354
30
0
41
1
10
25.5313174115465
20
-115.657731157619
30
0
41
1
10
25.5237595364503
20
-115.660102351373
30
0
41
1
10
25.5216282719707
20
-115.662877704785
30
0
41
1
10
25.51982613228
20
-115.672155938116
30
0
41
1
10
25.5210236101372
20
-115.679633816335
30
0
41
1
10
25.5276560112491
20
-115.700494959835
30
0
41
1
10
25.5347056562046
20
-115.715352093884
30
0
41
1
10
25.5564584745937
20
-115.754480127517
30
0
41
1
10
25.5736007838525
20
-115.780523294547
30
0
41
1
10
25.5967794475948
20
-115.812517498485
30
0
41
1
10
25.6010834249154
20
-115.81834113221
30
0
41
1
10
25.6054809471616
20
-115.824180237649
30
0
0
SPLINE
5
125
100
AcDbEntity
8
1
62
256
6
ByLayer
370
18
48
1
60
0
100
AcDbSpline
70
4
71
3
72
14
73
10
40
0
40
0
40
0
40
0
40
0.227782681841819
40
0.227782681841819
40
0.454571240661181
40
0.454571240661181
40
0.782579219840628
40
0.782579219840628
40
1
40
1
40
1
40
1
41
1
10
26.3245190528383
20
-152.988913768626
30
0
41
1
10
26.3245190528383
20
-152.989376086688
30
0
41
1
10
26.3226059599347
20
-152.991741511889
30
0
41
1
10
26.3157374788289
20
-152.99941627928
30
0
41
1
10
26.3107365788846
20
-153.004783243353
30
0
41
1
10
26.2962301861655
20
-153.020064424198
30
0
41
1
10
26.2855049169209
20
-153.031161097627
30
0
41
1
10
26.2661994377184
20
-153.050955735365
30
0
41
1
10
26.257983440962
20
-153.059335932445
30
0
41
1
10
26.2495190528383
20
-153.067936485844
30
0
0
SPLINE
5
126
100
AcDbEntity
8
1
62
256
6
ByLayer
370
18
48
1
60
0
100
AcDbSpline
70
4
71
3
72
8
73
4
40
0
40
0
40
0
40
0
40
1
40
1
40
1
40
1
41
1
10
25.6054809471616
20
-116.379874388963
30
0
41
1
10
25.8201946003465
20
-116.557881774923
30
0
41
1
10
26.0348750404504
20
-116.735942591209
30
0
41
1
10
26.2495190528383
20
-116.914061925372
30
0
0
SPLINE
5
127
100
AcDbEntity
8
1
62
256
6
ByLayer
370
18
48
1
60
0
100
AcDbSpline
70
4
71
3
72
8
73
4
40
0
40
0
40
0
40
0
40
1
40
1
40
1
40
1
41
1
10
26.2495190528383
20
-117.744648279198
30
0
41
1
10
26.0348464690302
20
-117.568839773047
30
0
41
1
10
25.8201668872651
20
-117.393042659666
30
0
41
1
10
25.6054809471616
20
-117.217255900639
30
0
0
SPLINE
5
128
100
AcDbEntity
8
1
62
256
6
ByLayer
370
18
48
1
60
0
100
AcDbSpline
70
4
71
3
72
8
73
4
40
0
40
0
40
0
40
0
40
1
40
1
40
1
40
1
41
1
10
25.6054809471616
20
-150.597502165134
30
0
41
1
10
25.8234119424795
20
-150.25786972363
30
0
41
1
10
26.0382275624051
20
-149.915535711639
30
0
41
1
10
26.2495190528383
20
-149.570354655221
30
0
0
SPLINE
5
129
100
AcDbEntity
8
1
62
256
6
ByLayer
370
18
48
1
60
0
100
AcDbSpline
70
4
71
3
72
16
73
12
40
0
40
0
40
0
40
0
40
0.209881529782338
40
0.209881529782338
40
0.423023507186407
40
0.423023507186407
40
0.61965768147808
40
0.61965768147808
40
0.866650178197666
40
0.866650178197666
40
1
40
1
40
1
40
1
41
1
10
26.3245190528383
20
-151.06634679023
30
0
41
1
10
26.3245190528383
20
-151.061212688561
30
0
41
1
10
26.3233868641996
20
-151.057013665013
30
0
41
1
10
26.3183989633297
20
-151.051600350519
30
0
41
1
10
26.3144050236462
20
-151.050396616734
30
0
41
1
10
26.3043997983156
20
-151.051478370879
30
0
41
1
10
26.2984549063159
20
-151.05350513981
30
0
41
1
10
26.2837921864346
20
-151.060732740729
30
0
41
1
10
26.2745512676638
20
-151.066680529118
30
0
41
1
10
26.2600104618099
20
-151.07744332516
30
0
41
1
10
26.2547748575283
20
-151.081576618552
30
0
41
1
10
26.2495190528383
20
-151.085938074628
30
0
0
SPLINE
5
12A
100
AcDbEntity
8
1
62
256
6
ByLayer
370
18
48
1
60
0
100
AcDbSpline
70
4
71
3
72
8
73
4
40
0
40
0
40
0
40
0
40
1
40
1
40
1
40
1
41
1
10
26.2495190528383
20
-148.391968746923
30
0
41
1
10
26.039466754109
20
-148.775862087038
30
0
41
1
10
25.8245924116147
20
-149.156282999038
30
0
41
1
10
25.6054809471616
20
-149.533364257806
30
0
0
SPLINE
5
12B
100
AcDbEntity
8
1
62
256
6
ByLayer
370
18
48
1
60
0
100
AcDbSpline
70
4
71
3
72
18
73
14
40
0
40
0
40
0
40
0
40
0.183151061974241
40
0.183151061974241
40
0.370595271313886
40
0.370595271313886
40
0.53974151300997
40
0.53974151300997
40
0.69211798313354
40
0.69211798313354
40
0.942734182901538
40
0.942734182901538
40
1
40
1
40
1
40
1
41
1
10
26.2495190528383
20
-147.976795731531
30
0
41
1
10
26.2570038660582
20
-147.970594202052
30
0
41
1
10
26.2646608196802
20
-147.965059369497
30
0
41
1
10
26.2796206936
20
-147.956538709308
30
0
41
1
10
26.2871062429659
20
-147.953548951947
30
0
41
1
10
26.2995707466637
20
-147.951660555491
30
0
41
1
10
26.3048731725992
20
-147.952387364639
30
0
41
1
10
26.3129030975419
20
-147.956538300774
30
0
41
1
10
26.3159443947223
20
-147.959704167866
30
0
41
1
10
26.3219480399744
20
-147.970057550511
30
0
41
1
10
26.3237769649514
20
-147.978632709286
30
0
41
1
10
26.324458336939
20
-147.990189098558
30
0
41
1
10
26.3245190528383
20
-147.992409350867
30
0
41
1
10
26.3245190528383
20
-147.994672775396
30
0
0
SPLINE
5
12C
100
AcDbEntity
8
1
62
256
6
ByLayer
370
18
48
1
60
0
100
AcDbSpline
70
4
71
3
72
8
73
4
40
0
40
0
40
0
40
0
40
1
40
1
40
1
40
1
41
1
10
26.2416648554421
20
-116.241664855442
30
0
41
1
10
26.0296820339348
20
-116.062014195661
30
0
41
1
10
25.8176184249084
20
-115.882490580724
30
0
41
1
10
25.6054809471616
20
-115.70308349495
30
0
0
SPLINE
5
12D
100
AcDbEntity
8
1
62
256
6
ByLayer
370
18
48
1
60
0
100
AcDbSpline
70
4
71
3
72
8
73
4
40
0
40
0
40
0
40
0
40
1
40
1
40
1
40
1
41
1
10
25.6054809471616
20
-153.672581471913
30
0
41
1
10
25.8205627941948
20
-153.465530721767
30
0
41
1
10
26.0352548671328
20
-153.257938699102
30
0
41
1
10
26.2495190528383
20
-153.049760667923
30
0
0
SPLINE
5
12E
100
AcDbEntity
8
1
62
256
6
ByLayer
370
18
48
1
60
0
100
AcDbSpline
70
4
71
3
72
8
73
4
40
0
40
0
40
0
40
0
40
1
40
1
40
1
40
1
41
1
10
26.2495190528383
20
-150.530067264423
30
0
41
1
10
26.037390625964
20
-150.84538188544
30
0
41
1
10
25.822613082921
20
-151.158339692415
30
0
41
1
10
25.6054809471616
20
-151.469079857782
30
0
0
SPLINE
5
12F
100
AcDbEntity
8
1
62
256
6
ByLayer
370
18
48
1
60
0
100
AcDbSpline
70
4
71
3
72
16
73
12
40
0
40
0
40
0
40
0
40
0.235268120570088
40
0.235268120570088
40
0.475958288032742
40
0.475958288032742
40
0.681622010782489
40
0.681622010782489
40
0.864855926633003
40
0.864855926633003
40
1
40
1
40
1
40
1
41
1
10
26.2495190528383
20
-150.255351720802
30
0
41
1
10
26.2588102699916
20
-150.247742574916
30
0
41
1
10
26.2681752341345
20
-150.240899824636
30
0
41
1
10
26.2859187719959
20
-150.230263394369
30
0
41
1
10
26.2945200699839
20
-150.226439720678
30
0
41
1
10
26.3076427308877
20
-150.223857290251
30
0
41
1
10
26.3127337754465
20
-150.22443232162
30
0
41
1
10
26.3196604084172
20
-150.228623688155
30
0
41
1
10
26.3218927301042
20
-150.2319223247
30
0
41
1
10
26.3240920772613
20
-150.239197183083
30
0
41
1
10
26.3245190528383
20
-150.242804955774
30
0
41
1
10
26.3245190528383
20
-150.246756103083
30
0
0
SPLINE
5
130
100
AcDbEntity
8
1
62
256
6
ByLayer
370
18
48
1
60
0
100
AcDbSpline
70
4
71
3
72
12
73
8
40
0
40
0
40
0
40
0
40
0.60924490875975
40
0.60924490875975
40
0.930769385375018
40
0.930769385375018
40
1
40
1
40
1
40
1
41
1
10
26.2495190528383
20
-149.570354655221
30
0
41
1
10
26.2740557425989
20
-149.530269744678
30
0
41
1
10
26.2951835285498
20
-149.489276719688
30
0
41
1
10
26.3165661595349
20
-149.431759130049
30
0
41
1
10
26.3221050005315
20
-149.41229642153
30
0
41
1
10
26.3243059352343
20
-149.391944359661
30
0
41
1
10
26.3245190528383
20
-149.388424005315
30
0
41
1
10
26.3245190528383
20
-149.385077456796
30
0
0
SPLINE
5
131
100
AcDbEntity
8
1
62
256
6
ByLayer
370
18
48
1
60
0
100
AcDbSpline
70
4
71
3
72
16
73
12
40
0
40
0
40
0
40
0
40
0.221648292091824
40
0.221648292091824
40
0.448446356635008
40
0.448446356635008
40
0.642903782806431
40
0.642903782806431
40
0.812332559244785
40
0.812332559244785
40
1
40
1
40
1
40
1
41
1
10
26.3245190528383
20
-149.236599849761
30
0
41
1
10
26.3245190528383
20
-149.229099613833
30
0
41
1
10
26.3234962940652
20
-149.222313638109
30
0
41
1
10
26.3186005932467
20
-149.211651046515
30
0
41
1
10
26.3145316327235
20
-149.207742693032
30
0
41
1
10
26.3040629973177
20
-149.204983059795
30
0
41
1
10
26.2979181245579
20
-149.205485897788
30
0
41
1
10
26.2852269757209
20
-149.209557552101
30
0
41
1
10
26.2787009954021
20
-149.212740729063
30
0
41
1
10
26.2646996681351
20
-149.221241192165
30
0
41
1
10
26.2570647566136
20
-149.226813271731
30
0
41
1
10
26.2495190528383
20
-149.232978672734
30
0
0
SPLINE
5
132
100
AcDbEntity
8
1
62
256
6
ByLayer
370
18
48
1
60
0
100
AcDbSpline
70
4
71
3
72
22
73
18
40
0
40
0
40
0
40
0
40
0.363816637462687
40
0.363816637462687
40
0.5112074922307
40
0.5112074922307
40
0.660920528344254
40
0.660920528344254
40
0.738896603598761
40
0.738896603598761
40
0.817825938874777
40
0.817825938874777
40
0.886991144812433
40
0.886991144812433
40
0.975973030271762
40
0.975973030271762
40
1
40
1
40
1
40
1
41
1
10
25.6054809471616
20
-118.466635742194
30
0
41
1
10
25.5778182920778
20
-118.419029521196
30
0
41
1
10
25.5540031734306
20
-118.370394717183
30
0
41
1
10
25.5316057536862
20
-118.307258266016
30
0
41
1
10
25.5263846011354
20
-118.28933558426
30
0
41
1
10
25.5202426237135
20
-118.256248251112
30
0
41
1
10
25.5192942473547
20
-118.240635856263
30
0
41
1
10
25.5239264505094
20
-118.222796276209
30
0
41
1
10
25.5266960095226
20
-118.217660709584
30
0
41
1
10
25.5349823731465
20
-118.210911719815
30
0
41
1
10
25.5406907588013
20
-118.209302684167
30
0
41
1
10
25.5534637588547
20
-118.210317233072
30
0
41
1
10
25.5604178248816
20
-118.212440567922
30
0
41
1
10
25.5770641400937
20
-118.220192124661
30
0
41
1
10
25.5872112075842
20
-118.226711051939
30
0
41
1
10
25.5999904536239
20
-118.236397707998
30
0
41
1
10
25.6027375584274
20
-118.238565283409
30
0
41
1
10
25.6054809471616
20
-118.240806731924
30
0
0
SPLINE
5
133
100
AcDbEntity
8
1
62
256
6
ByLayer
370
18
48
1
60
0
100
AcDbSpline
70
4
71
3
72
8
73
4
40
0
40
0
40
0
40
0
40
1
40
1
40
1
40
1
41
1
10
25.1745190529999
20
-134
30
0
41
1
10
25.1745190529999
20
-133.112179220061
30
0
41
1
10
25.1151159694367
20
-132.222587454082
30
0
41
1
10
25
20
-131.342261349238
30
0
0
SPLINE
5
134
100
AcDbEntity
8
1
62
256
6
ByLayer
370
18
48
1
60
0
100
AcDbSpline
70
4
71
3
72
8
73
4
40
0
40
0
40
0
40
0
40
1
40
1
40
1
40
1
41
1
10
25.3245190528241
20
-115.324519052824
30
0
41
1
10
25.6302972102106
20
-115.630297210211
30
0
41
1
10
25.936014770909
20
-115.936014770909
30
0
41
1
10
26.2416648554421
20
-116.241664855442
30
0
0
SPLINE
5
135
100
AcDbEntity
8
1
62
256
6
ByLayer
370
18
48
1
60
0
100
AcDbSpline
70
4
71
3
72
22
73
18
40
0
40
0
40
0
40
0
40
0.342717721502979
40
0.342717721502979
40
0.493581534538749
40
0.493581534538749
40
0.62017072389985
40
0.62017072389985
40
0.707186054842463
40
0.707186054842463
40
0.795167248402974
40
0.795167248402974
40
0.871654740544768
40
0.871654740544768
40
0.972751761489639
40
0.972751761489639
40
1
40
1
40
1
40
1
41
1
10
25.6054809471616
20
-150.597502165134
30
0
41
1
10
25.5789777816294
20
-150.638805765864
30
0
41
1
10
25.5557335613131
20
-150.680872460508
30
0
41
1
10
25.5326901923016
20
-150.736058236965
30
0
41
1
10
25.5269658131514
20
-150.752536781245
30
0
41
1
10
25.5208113864789
20
-150.779655398949
30
0
41
1
10
25.519643075721
20
-150.791053767927
30
0
41
1
10
25.5221595032429
20
-150.805975526048
30
0
41
1
10
25.5245091451024
20
-150.810933366351
30
0
41
1
10
25.5322945820454
20
-150.817070184798
30
0
41
1
10
25.537917209977
20
-150.818243076665
30
0
41
1
10
25.5507355128068
20
-150.816377418199
30
0
41
1
10
25.5577708289289
20
-150.813865665382
30
0
41
1
10
25.5750508679346
20
-150.805187589301
30
0
41
1
10
25.5858519302551
20
-150.798026202085
30
0
41
1
10
25.5995734227517
20
-150.787508046016
30
0
41
1
10
25.6025260350117
20
-150.785163607736
30
0
41
1
10
25.6054809471616
20
-150.782744099361
30
0
0
SPLINE
5
136
100
AcDbEntity
8
1
62
256
6
ByLayer
370
18
48
1
60
0
100
AcDbSpline
70
4
71
3
72
12
73
8
40
0
40
0
40
0
40
0
40
0.284396071878018
40
0.284396071878018
40
0.807758786862116
40
0.807758786862116
40
1
40
1
40
1
40
1
41
1
10
26.3245190528383
20
-148.177577975202
30
0
41
1
10
26.3245190528383
20
-148.194381405269
30
0
41
1
10
26.3210854865413
20
-148.213774166904
30
0
41
1
10
26.3063901777358
20
-148.2700805845
30
0
41
1
10
26.2907191879689
20
-148.309472002042
30
0
41
1
10
26.2649243413854
20
-148.362958201526
30
0
41
1
10
26.2574437731302
20
-148.377485461757
30
0
41
1
10
26.2495190528383
20
-148.391968746923
30
0
0
SPLINE
5
137
100
AcDbEntity
8
1
62
256
6
ByLayer
370
18
48
1
60
0
100
AcDbSpline
70
4
71
3
72
8
73
4
40
0
40
0
40
0
40
0
40
1
40
1
40
1
40
1
41
1
10
25.6054809471616
20
-148.51012906271
30
0
41
1
10
25.8201976315052
20
-148.332411382998
30
0
41
1
10
26.0348784235955
20
-148.154635866016
30
0
41
1
10
26.2495190528383
20
-147.976795731531
30
0
0
SPLINE
5
138
100
AcDbEntity
8
1
62
256
6
ByLayer
370
18
48
1
60
0
100
AcDbSpline
70
4
71
3
72
8
73
4
40
0
40
0
40
0
40
0
40
1
40
1
40
1
40
1
41
1
10
25
20
-115
30
0
41
1
10
25.1081804868201
20
-115.10818048682
30
0
41
1
10
25.2163535967234
20
-115.216353596723
30
0
41
1
10
25.324519053
20
-115.324519053
30
0
0
SPLINE
5
139
100
AcDbEntity
8
1
62
256
6
ByLayer
370
18
48
1
60
0
100
AcDbSpline
70
4
71
3
72
14
73
10
40
0
40
0
40
0
40
0
40
0.414493159996707
40
0.414493159996707
40
0.69021776708891
40
0.69021776708891
40
0.911378775221294
40
0.911378775221294
40
1
40
1
40
1
40
1
41
1
10
26.2495190528383
20
-152.967841789492
30
0
41
1
10
26.2655525078349
20
-152.950732387555
30
0
41
1
10
26.2807545200054
20
-152.934077988431
30
0
41
1
10
26.3017798239992
20
-152.909960149869
30
0
41
1
10
26.3091988932837
20
-152.901093442488
30
0
41
1
10
26.3190328853783
20
-152.888342405744
30
0
41
1
10
26.3222154001038
20
-152.883719904106
30
0
41
1
10
26.3242199979925
20
-152.87961797668
30
0
41
1
10
26.3245190528383
20
-152.878701470401
30
0
41
1
10
26.3245190528383
20
-152.878081337987
30
0
0
SPLINE
5
13A
100
AcDbEntity
8
1
62
256
6
ByLayer
370
18
48
1
60
0
100
AcDbSpline
70
4
71
3
72
8
73
4
40
0
40
0
40
0
40
0
40
1
40
1
40
1
40
1
41
1
10
26.2495190528383
20
-153.067936485844
30
0
41
1
10
26.0353894735317
20
-153.285510733874
30
0
41
1
10
25.820692896478
20
-153.502342845615
30
0
41
1
10
25.6054809471616
20
-153.718488502244
30
0
0
SPLINE
5
13B
100
AcDbEntity
8
1
62
256
6
ByLayer
370
18
48
1
60
0
100
AcDbSpline
70
4
71
3
72
12
73
8
40
0
40
0
40
0
40
0
40
0.284953337073466
40
0.284953337073466
40
0.703609372576613
40
0.703609372576613
40
1
40
1
40
1
40
1
41
1
10
26.3245190528383
20
-150.367574635855
30
0
41
1
10
26.3245190528383
20
-150.378486622854
30
0
41
1
10
26.321112794824
20
-150.392373821038
30
0
41
1
10
26.3081812059304
20
-150.428660438007
30
0
41
1
10
26.2963308985392
20
-150.452801169724
30
0
41
1
10
26.2725538091498
20
-150.494550272609
30
0
41
1
10
26.2614571235406
20
-150.512322126279
30
0
41
1
10
26.2495190528383
20
-150.530067264423
30
0
0
SPLINE
5
13C
100
AcDbEntity
8
1
62
256
6
ByLayer
370
18
48
1
60
0
100
AcDbSpline
70
4
71
3
72
8
73
4
40
0
40
0
40
0
40
0
40
1
40
1
40
1
40
1
41
1
10
25.6054809471616
20
-150.782744099361
30
0
41
1
10
25.8201668872651
20
-150.606957340334
30
0
41
1
10
26.0348464690302
20
-150.431160226953
30
0
41
1
10
26.2495190528383
20
-150.255351720802
30
0
0
SPLINE
5
13D
100
AcDbEntity
8
1
62
256
6
ByLayer
370
18
48
1
60
0
100
AcDbSpline
70
4
71
3
72
8
73
4
40
0
40
0
40
0
40
0
40
1
40
1
40
1
40
1
41
1
10
26.2495190528383
20
-149.232978672734
30
0
41
1
10
26.034841374926
20
-149.408386296742
30
0
41
1
10
25.8201619499148
20
-149.583791069796
30
0
41
1
10
25.6054809471616
20
-149.759193268076
30
0
0
SPLINE
5
13E
100
AcDbEntity
8
1
62
256
6
ByLayer
370
18
48
1
60
0
100
AcDbSpline
70
4
71
3
72
8
73
4
40
0
40
0
40
0
40
0
40
1
40
1
40
1
40
1
41
1
10
25.6054809471616
20
-118.466635742194
30
0
41
1
10
25.8245924116147
20
-118.843717000962
30
0
41
1
10
26.039466754109
20
-119.224137912962
30
0
41
1
10
26.2495190528383
20
-119.608031253077
30
0
0
SPLINE
5
13F
100
AcDbEntity
8
1
62
256
6
ByLayer
370
18
48
1
60
0
100
AcDbSpline
70
4
71
3
72
22
73
18
40
0
40
0
40
0
40
0
40
0.287138421894169
40
0.287138421894169
40
0.441116961733387
40
0.441116961733387
40
0.562499249745948
40
0.562499249745948
40
0.65751639375754
40
0.65751639375754
40
0.753123838515039
40
0.753123838515039
40
0.840997450002704
40
0.840997450002704
40
0.964114103607716
40
0.964114103607716
40
1
40
1
40
1
40
1
41
1
10
25.6054809471616
20
-152.175819762351
30
0
41
1
10
25.5825273720795
20
-152.206297912909
30
0
41
1
10
25.5616795045314
20
-152.236914595146
30
0
41
1
10
25.5375713072285
20
-152.279163553293
30
0
41
1
10
25.5304987801944
20
-152.293322108999
30
0
41
1
10
25.5223404737452
20
-152.315093511461
30
0
41
1
10
25.5202638452673
20
-152.32363478027
30
0
41
1
10
25.5206838624367
20
-152.334880463086
30
0
41
1
10
25.5223281861063
20
-152.338523517684
30
0
41
1
10
25.5288553526676
20
-152.342063993312
30
0
41
1
10
25.5338678969975
20
-152.341960234151
30
0
41
1
10
25.5459135844705
20
-152.33820175728
30
0
41
1
10
25.5528747423547
20
-152.334814328273
30
0
41
1
10
25.5708894668521
20
-152.324023832604
30
0
41
1
10
25.5827323570264
20
-152.315432950381
30
0
41
1
10
25.5983033305401
20
-152.302915975197
30
0
41
1
10
25.6018833868353
20
-152.299959002872
30
0
41
1
10
25.6054809471616
20
-152.29691650505
30
0
0
SPLINE
5
140
100
AcDbEntity
8
1
62
256
6
ByLayer
370
18
48
1
60
0
100
AcDbSpline
70
4
71
3
72
8
73
4
40
0
40
0
40
0
40
0
40
1
40
1
40
1
40
1
41
1
10
26.2495190528383
20
-151.085938074628
30
0
41
1
10
26.0348750404504
20
-151.264057408791
30
0
41
1
10
25.8201946003465
20
-151.442118225077
30
0
41
1
10
25.6054809471616
20
-151.620125611037
30
0
0
SPLINE
5
141
100
AcDbEntity
8
1
62
256
6
ByLayer
370
18
48
1
60
0
100
AcDbSpline
70
4
71
3
72
14
73
10
40
0
40
0
40
0
40
0
40
0.437489216351455
40
0.437489216351455
40
0.685127049996835
40
0.685127049996835
40
0.935739270125438
40
0.935739270125438
40
1
40
1
40
1
40
1
41
1
10
26.2495190528383
20
-153.049760667923
30
0
41
1
10
26.2663031904678
20
-153.033453282182
30
0
41
1
10
26.2825014869874
20
-153.017937562649
30
0
41
1
10
26.3030890738775
20
-152.998716548497
30
0
41
1
10
26.3097059055119
20
-152.992669526579
30
0
41
1
10
26.3196136723039
20
-152.983986019792
30
0
41
1
10
26.3229707100189
20
-152.981303772827
30
0
41
1
10
26.3243732569189
20
-152.980733472991
30
0
41
1
10
26.3245190528383
20
-152.980760053853
30
0
41
1
10
26.3245190528383
20
-152.980930883943
30
0
0
SPLINE
5
142
100
AcDbEntity
8
1
62
256
6
ByLayer
370
18
48
1
60
0
100
AcDbSpline
70
4
71
3
72
8
73
4
40
0
40
0
40
0
40
0
40
1
40
1
40
1
40
1
41
1
10
25.6054809471616
20
-116.530920142218
30
0
41
1
10
25.822613082921
20
-116.841660307585
30
0
41
1
10
26.037390625964
20
-117.15461811456
30
0
41
1
10
26.2495190528383
20
-117.469932735577
30
0
0
SPLINE
5
143
100
AcDbEntity
8
1
62
256
6
ByLayer
370
18
48
1
60
0
100
AcDbSpline
70
4
71
3
72
12
73
8
40
0
40
0
40
0
40
0
40
0.270626983104964
40
0.270626983104964
40
0.646825819740969
40
0.646825819740969
40
1
40
1
40
1
40
1
41
1
10
26.3245190528383
20
-116.836247771278
30
0
41
1
10
26.3245190528383
20
-116.827990140164
30
0
41
1
10
26.3214712238633
20
-116.816939404964
30
0
41
1
10
26.310000945445
20
-116.788217983765
30
0
41
1
10
26.2997956138489
20
-116.769077423441
30
0
41
1
10
26.2766199812052
20
-116.731023603641
30
0
41
1
10
26.263595744059
20
-116.711758196005
30
0
41
1
10
26.2495190528383
20
-116.692478414189
30
0
0
SPLINE
5
144
100
AcDbEntity
8
1
62
256
6
ByLayer
370
18
48
1
60
0
100
AcDbSpline
70
4
71
3
72
8
73
4
40
0
40
0
40
0
40
0
40
1
40
1
40
1
40
1
41
1
10
26.2495190528383
20
-118.429645344779
30
0
41
1
10
26.0382275624051
20
-118.084464288361
30
0
41
1
10
25.8234119424795
20
-117.74213027637
30
0
41
1
10
25.6054809471616
20
-117.402497834866
30
0
0
SPLINE
5
145
100
AcDbEntity
8
1
62
256
6
ByLayer
370
18
48
1
60
0
100
AcDbSpline
70
4
71
3
72
16
73
12
40
0
40
0
40
0
40
0
40
0.209902462759334
40
0.209902462759334
40
0.424624586559992
40
0.424624586559992
40
0.61349542496958
40
0.61349542496958
40
0.783368411848522
40
0.783368411848522
40
1
40
1
40
1
40
1
41
1
10
26.2495190528383
20
-118.767021327266
30
0
41
1
10
26.2579270899201
20
-118.773891318694
30
0
41
1
10
26.2664625695116
20
-118.780035063887
30
0
41
1
10
26.282874970762
20
-118.789508141191
30
0
41
1
10
26.2909537016868
20
-118.792851860276
30
0
41
1
10
26.3038550853384
20
-118.794992591707
30
0
41
1
10
26.3091082451778
20
-118.794295275807
30
0
41
1
10
26.3167073967839
20
-118.790034628365
30
0
41
1
10
26.3194007835646
20
-118.786747271369
30
0
41
1
10
26.3235395078322
20
-118.777398580193
30
0
41
1
10
26.3245190528383
20
-118.770742933311
30
0
41
1
10
26.3245190528383
20
-118.763400150239
30
0
0
SPLINE
5
146
100
AcDbEntity
8
1
62
256
6
ByLayer
370
18
48
1
60
0
100
AcDbSpline
70
4
71
3
72
18
73
14
40
0
40
0
40
0
40
0
40
0.240722841400572
40
0.240722841400572
40
0.430386848025252
40
0.430386848025252
40
0.585824125507376
40
0.585824125507376
40
0.741420015909625
40
0.741420015909625
40
0.936842263430437
40
0.936842263430437
40
1
40
1
40
1
40
1
41
1
10
26.3245190528383
20
-120.005327224604
30
0
41
1
10
26.3245190528383
20
-120.014762422989
30
0
41
1
10
26.3234684351941
20
-120.023556970781
30
0
41
1
10
26.3187578281278
20
-120.036382715354
30
0
41
1
10
26.3156240766525
20
-120.041111106954
30
0
41
1
10
26.3077267997685
20
-120.046574468682
30
0
41
1
10
26.3032582764872
20
-120.04789788192
30
0
41
1
10
26.2930511319495
20
-120.047755103637
30
0
41
1
10
26.2871910717268
20
-120.046285090294
30
0
41
1
10
26.2734935124367
20
-120.040438892084
30
0
41
1
10
26.26533824468
20
-120.035378030718
30
0
41
1
10
26.2547306719909
20
-120.027425711615
30
0
41
1
10
26.2521186967866
20
-120.025358199116
30
0
41
1
10
26.2495190528383
20
-120.023204268469
30
0
0
SPLINE
5
147
100
AcDbEntity
8
1
62
256
6
ByLayer
370
18
48
1
60
0
100
AcDbSpline
70
4
71
3
72
8
73
4
40
0
40
0
40
0
40
0
40
1
40
1
40
1
40
1
41
1
10
25.6054809471616
20
-152.29691650505
30
0
41
1
10
25.8202384127735
20
-152.11529366564
30
0
41
1
10
26.0349201759071
20
-151.933551403257
30
0
41
1
10
26.2495190528383
20
-151.75167879985
30
0
0
SPLINE
5
148
100
AcDbEntity
8
1
62
256
6
ByLayer
370
18
48
1
60
0
100
AcDbSpline
70
4
71
3
72
8
73
4
40
0
40
0
40
0
40
0
40
1
40
1
40
1
40
1
41
1
10
25.6054809471616
20
-153.650117451486
30
0
41
1
10
25.8208526984749
20
-153.423566755859
30
0
41
1
10
26.0355550646714
20
-153.196164123918
30
0
41
1
10
26.2495190528383
20
-152.967841789492
30
0
0
SPLINE
5
149
100
AcDbEntity
8
1
62
256
6
ByLayer
370
18
48
1
60
0
100
AcDbSpline
70
4
71
3
72
22
73
18
40
0
40
0
40
0
40
0
40
0.31255929913713
40
0.31255929913713
40
0.466971737310246
40
0.466971737310246
40
0.5903124053526
40
0.5903124053526
40
0.682001016901655
40
0.682001016901655
40
0.774473892346459
40
0.774473892346459
40
0.857003966347506
40
0.857003966347506
40
0.969648251660353
40
0.969648251660353
40
1
40
1
40
1
40
1
41
1
10
25.6054809471616
20
-116.530920142218
30
0
41
1
10
25.5808994845034
20
-116.495741343167
30
0
41
1
10
25.558929317895
20
-116.460146699494
30
0
41
1
10
25.5351638655607
20
-116.412008194301
30
0
41
1
10
25.5286682491696
20
-116.39658609102
30
0
41
1
10
25.5214937220422
20
-116.372267513019
30
0
41
1
10
25.5198735363532
20
-116.362478954052
30
0
41
1
10
25.5213038784336
20
-116.349512741001
30
0
41
1
10
25.523318230372
20
-116.345201954292
30
0
41
1
10
25.5305325629845
20
-116.340375511047
30
0
41
1
10
25.5358912842458
20
-116.339863457467
30
0
41
1
10
25.5484062096565
20
-116.342704218741
30
0
41
1
10
25.5554403606217
20
-116.345658919604
30
0
41
1
10
25.5731957520652
20
-116.355397391896
30
0
41
1
10
25.5845876592417
20
-116.363285543167
30
0
41
1
10
25.5991798748384
20
-116.374718476965
30
0
41
1
10
25.6023260971867
20
-116.377258874818
30
0
41
1
10
25.6054809471616
20
-116.379874388963
30
0
0
SPLINE
5
14A
100
AcDbEntity
8
1
62
256
6
ByLayer
370
18
48
1
60
0
100
AcDbSpline
70
4
71
3
72
14
73
10
40
0
40
0
40
0
40
0
40
0.41923514267216
40
0.41923514267216
40
0.687261276464728
40
0.687261276464728
40
0.907667429197786
40
0.907667429197786
40
1
40
1
40
1
40
1
41
1
10
25.6054809471616
20
-153.650117451486
30
0
41
1
10
25.5871684155746
20
-153.66938050128
30
0
41
1
10
25.5697516554509
20
-153.688075334253
30
0
41
1
10
25.546097515321
20
-153.714328639222
30
0
41
1
10
25.5379176512201
20
-153.723674601875
30
0
41
1
10
25.526860938704
20
-153.737036024413
30
0
41
1
10
25.5232203538308
20
-153.741808307677
30
0
41
1
10
25.5208567881654
20
-153.74579034135
30
0
41
1
10
25.5205047557985
20
-153.746626594768
30
0
41
1
10
25.5205004978284
20
-153.747113693537
30
0
0
SPLINE
5
14B
100
AcDbEntity
8
1
62
256
6
ByLayer
370
18
48
1
60
0
100
AcDbSpline
70
4
71
3
72
16
73
12
40
0
40
0
40
0
40
0
40
0.0026727763838015
40
0.0026727763838015
40
0.239567025156718
40
0.239567025156718
40
0.48765201433267
40
0.48765201433267
40
0.876769056402662
40
0.876769056402662
40
1
40
1
40
1
40
1
41
1
10
25.5224874962863
20
-153.747098566185
30
0
41
1
10
25.5225106781396
20
-153.747086492498
30
0
41
1
10
25.5225340637732
20
-153.747074207171
30
0
41
1
10
25.5246587856274
20
-153.745948579966
30
0
41
1
10
25.5283991448568
20
-153.743159170431
30
0
41
1
10
25.5384796171715
20
-153.734829504944
30
0
41
1
10
25.5450254297118
20
-153.72909564157
30
0
41
1
10
25.5637609947287
20
-153.712168080608
30
0
41
1
10
25.5773336505019
20
-153.699473195094
30
0
41
1
10
25.5961173294406
20
-153.681574263042
30
0
41
1
10
25.6007673396233
20
-153.677119074645
30
0
41
1
10
25.6054809471616
20
-153.672581471913
30
0
0
SPLINE
5
14C
100
AcDbEntity
8
1
62
256
6
ByLayer
370
18
48
1
60
0
100
AcDbSpline
70
4
71
3
72
8
73
4
40
0
40
0
40
0
40
0
40
1
40
1
40
1
40
1
41
1
10
26.2495190528383
20
-116.692478414189
30
0
41
1
10
26.0367953341286
20
-116.401126787612
30
0
41
1
10
25.8220437558275
20
-116.1117360482
30
0
41
1
10
25.6054809471616
20
-115.824180237649
30
0
0
SPLINE
5
14D
100
AcDbEntity
8
1
62
256
6
ByLayer
370
18
48
1
60
0
100
AcDbSpline
70
4
71
3
72
12
73
8
40
0
40
0
40
0
40
0
40
0.25
40
0.25
40
0.5
40
0.5
40
1
40
1
40
1
40
1
41
1
10
4.84999999999999
20
-134
30
0
41
1
10
4.84999999999999
20
-136.627658934478
30
0
41
1
10
4.85394150424691
20
-139.227954513487
30
0
41
1
10
4.86890483777154
20
-144.029515809928
30
0
41
1
10
4.88004822383232
20
-146.248764100469
30
0
41
1
10
4.92132863306617
20
-151.765771619158
30
0
41
1
10
4.96002373955847
20
-153.960023739558
30
0
41
1
10
4.99943749208961
20
-153.99943749209
30
0
0
SPLINE
5
14E
100
AcDbEntity
8
1
62
256
6
ByLayer
370
18
48
1
60
0
100
AcDbSpline
70
4
71
3
72
16
73
12
40
0
40
0
40
0
40
0
40
0.259537054117227
40
0.259537054117227
40
0.477866931391893
40
0.477866931391893
40
0.698125069666456
40
0.698125069666456
40
0.891950600845351
40
0.891950600845351
40
1
40
1
40
1
40
1
41
1
10
26.2495190528383
20
-116.914061925372
30
0
41
1
10
26.259666239391
20
-116.922482426332
30
0
41
1
10
26.269823931547
20
-116.930114306705
30
0
41
1
10
26.2871458986786
20
-116.941075898384
30
0
41
1
10
26.2946889034821
20
-116.944974375195
30
0
41
1
10
26.3075343700375
20
-116.949316615008
30
0
41
1
10
26.3129755804831
20
-116.94975618098
30
0
41
1
10
26.3202041858829
20
-116.947141308234
30
0
41
1
10
26.3224537790323
20
-116.944489007561
30
0
41
1
10
26.324220249097
20
-116.938730577154
30
0
41
1
10
26.3245190528383
20
-116.936320644457
30
0
41
1
10
26.3245190528383
20
-116.93365320977
30
0
0
SPLINE
5
14F
100
AcDbEntity
8
1
62
256
6
ByLayer
370
18
48
1
60
0
100
AcDbSpline
70
4
71
3
72
12
73
8
40
0
40
0
40
0
40
0
40
0.313596766021028
40
0.313596766021028
40
0.79181988173056
40
0.79181988173056
40
1
40
1
40
1
40
1
41
1
10
26.3245190528383
20
-118.614922543204
30
0
41
1
10
26.3245190528383
20
-118.600026346828
30
0
41
1
10
26.3203912860075
20
-118.581751448518
30
0
41
1
10
26.3048508493955
20
-118.534034295864
30
0
41
1
10
26.2904245065643
20
-118.502562040489
30
0
41
1
10
26.2660217632439
20
-118.457401549377
30
0
41
1
10
26.2580054834326
20
-118.443509391417
30
0
41
1
10
26.2495190528383
20
-118.429645344779
30
0
0
SPLINE
5
150
100
AcDbEntity
8
1
62
256
6
ByLayer
370
18
48
1
60
0
100
AcDbSpline
70
4
71
3
72
16
73
12
40
0
40
0
40
0
40
0
40
0.213191881032439
40
0.213191881032439
40
0.430450821122094
40
0.430450821122094
40
0.625363029275183
40
0.625363029275183
40
0.810578128515602
40
0.810578128515602
40
1
40
1
40
1
40
1
41
1
10
26.3245190528383
20
-117.753243896917
30
0
41
1
10
26.3245190528383
20
-117.759424514784
30
0
41
1
10
26.323459613774
20
-117.764791261289
30
0
41
1
10
26.3186059839878
20
-117.772609588458
30
0
41
1
10
26.314650879339
20
-117.775064961555
30
0
41
1
10
26.3045994617894
20
-117.775891484367
30
0
41
1
10
26.2986353232543
20
-117.774660930211
30
0
41
1
10
26.2858256989385
20
-117.769542889679
30
0
41
1
10
26.278907911531
20
-117.765759645876
30
0
41
1
10
26.2645739803181
20
-117.756440462792
30
0
41
1
10
26.2570335879931
20
-117.750802391551
30
0
41
1
10
26.2495190528383
20
-117.744648279198
30
0
0
SPLINE
5
151
100
AcDbEntity
8
1
62
256
6
ByLayer
370
18
48
1
60
0
100
AcDbSpline
70
4
71
3
72
22
73
18
40
0
40
0
40
0
40
0
40
0.0976736298787985
40
0.0976736298787985
40
0.197523722218999
40
0.197523722218999
40
0.282881072387695
40
0.282881072387695
40
0.358582197959814
40
0.358582197959814
40
0.47385868745515
40
0.47385868745515
40
0.653814901399161
40
0.653814901399161
40
0.943849537255716
40
0.943849537255716
40
1
40
1
40
1
40
1
41
1
10
25.6054809471616
20
-117.217255900639
30
0
41
1
10
25.5949959012847
20
-117.20867065173
30
0
41
1
10
25.5844265525549
20
-117.20094879276
30
0
41
1
10
25.5643941716658
20
-117.188949515723
30
0
41
1
10
25.5546778517914
20
-117.18463518194
30
0
41
1
10
25.5398235407168
20
-117.181747000945
30
0
41
1
10
25.5340464977158
20
-117.182422329998
30
0
41
1
10
25.5261782720572
20
-117.187233072474
30
0
41
1
10
25.5236278978687
20
-117.190992801327
30
0
41
1
10
25.5199257039825
20
-117.202949541173
30
0
41
1
10
25.5200639647131
20
-117.212575520454
30
0
41
1
10
25.5244144329982
20
-117.239773921219
30
0
41
1
10
25.5308189944112
20
-117.259247740565
30
0
41
1
10
25.5525102923616
20
-117.311729100596
30
0
41
1
10
25.5712404972572
20
-117.346932321075
30
0
41
1
10
25.5967762025613
20
-117.388766023516
30
0
41
1
10
25.6010747786334
20
-117.395631084349
30
0
41
1
10
25.6054809471616
20
-117.402497834866
30
0
0
SPLINE
5
152
100
AcDbEntity
8
1
62
256
6
ByLayer
370
18
48
1
60
0
100
AcDbSpline
70
4
71
3
72
22
73
18
40
0
40
0
40
0
40
0
40
0.0843106900916147
40
0.0843106900916147
40
0.170482191246885
40
0.170482191246885
40
0.246291870697326
40
0.246291870697326
40
0.314130399118447
40
0.314130399118447
40
0.421283992961446
40
0.421283992961446
40
0.595718829210879
40
0.595718829210879
40
0.895216791340535
40
0.895216791340535
40
1
40
1
40
1
40
1
41
1
10
25.6054809471616
20
-149.759193268076
30
0
41
1
10
25.5959587300189
20
-149.766973266296
30
0
41
1
10
25.5862935923301
20
-149.773933020961
30
0
41
1
10
25.5677150855267
20
-149.784665716521
30
0
41
1
10
25.5585719332657
20
-149.788458914551
30
0
41
1
10
25.543961691249
20
-149.790881479364
30
0
41
1
10
25.5380081114907
20
-149.790082203908
30
0
41
1
10
25.5294148530838
20
-149.785215331102
30
0
41
1
10
25.5263701053689
20
-149.781477480249
30
0
41
1
10
25.5210547974147
20
-149.769461425341
30
0
41
1
10
25.520082673744
20
-149.759672933257
30
0
41
1
10
25.5214971610798
20
-149.731441295182
30
0
41
1
10
25.5262449385567
20
-149.710918773993
30
0
41
1
10
25.5444186356644
20
-149.65355218058
30
0
41
1
10
25.561953660516
20
-149.614152015384
30
0
41
1
10
25.5897259500749
20
-149.561153035996
30
0
41
1
10
25.5974133096581
20
-149.547248309527
30
0
41
1
10
25.6054809471616
20
-149.533364257806
30
0
0
SPLINE
5
153
100
AcDbEntity
8
1
62
256
6
ByLayer
370
18
48
1
60
0
100
AcDbSpline
70
4
71
3
72
16
73
12
40
0
40
0
40
0
40
0
40
0.282847214915354
40
0.282847214915354
40
0.513166793081812
40
0.513166793081812
40
0.745736427107119
40
0.745736427107119
40
0.947913116346219
40
0.947913116346219
40
1
40
1
40
1
40
1
41
1
10
26.2495190528383
20
-151.75167879985
30
0
41
1
10
26.2605063271182
20
-151.742367082071
30
0
41
1
10
26.2714303935898
20
-151.733849227998
30
0
41
1
10
26.2895330784865
20
-151.721617750181
30
0
41
1
10
26.2971934667911
20
-151.717215474813
30
0
41
1
10
26.3100135726491
20
-151.711915597958
30
0
41
1
10
26.315306657194
20
-151.711014464974
30
0
41
1
10
26.321885035183
20
-151.712971893937
30
0
41
1
10
26.323696860369
20
-151.715362198688
30
0
41
1
10
26.3244438580882
20
-151.719781434215
30
0
41
1
10
26.3245190528383
20
-151.72077195901
30
0
41
1
10
26.3245190528383
20
-151.721831216206
30
0
0
SPLINE
5
154
100
AcDbEntity
8
1
62
256
6
ByLayer
370
18
48
1
60
0
100
AcDbSpline
70
4
71
3
72
10
73
6
40
0
40
0
40
0
40
0
40
0.569745878817581
40
0.569745878817581
40
1
40
1
40
1
40
1
41
1
10
26.2495190528383
20
-119.608031253077
30
0
41
1
10
26.2728402311994
20
-119.650653233939
30
0
41
1
10
26.292686734027
20
-119.694117565601
30
0
41
1
10
26.3169803236532
20
-119.766219587609
30
0
41
1
10
26.3245190528383
20
-119.797123903807
30
0
41
1
10
26.3245190528383
20
-119.822422024798
30
0
0
SPLINE
5
155
100
AcDbEntity
8
1
62
256
6
ByLayer
370
18
48
1
60
0
100
AcDbSpline
70
4
71
3
72
14
73
10
40
0
40
0
40
0
40
0
40
0.116853357046048
40
0.116853357046048
40
0.317229528527773
40
0.317229528527773
40
0.587936077548351
40
0.587936077548351
40
1
40
1
40
1
40
1
41
1
10
25.5204981238549
20
-153.80402073434
30
0
41
1
10
25.5205025667236
20
-153.804016248161
30
0
41
1
10
25.5210440904293
20
-153.803470107567
30
0
41
1
10
25.5239673588891
20
-153.800521982984
30
0
41
1
10
25.5274077993861
20
-153.797052461644
30
0
41
1
10
25.5381592136771
20
-153.786214902186
30
0
41
1
10
25.5465336126865
20
-153.777776435852
30
0
41
1
10
25.570300065257
20
-153.75384795973
30
0
41
1
10
25.5875240122343
20
-153.73652334419
30
0
41
1
10
25.6054809471616
20
-153.718488502244
30
0
0
SPLINE
5
156
100
AcDbEntity
8
1
62
256
6
ByLayer
370
18
48
1
60
0
100
AcDbSpline
70
4
71
3
72
22
73
18
40
0
40
0
40
0
40
0
40
0.110967367987801
40
0.110967367987801
40
0.204313972016245
40
0.204313972016245
40
0.298505955845981
40
0.298505955845981
40
0.381127984087811
40
0.381127984087811
40
0.494297440260181
40
0.494297440260181
40
0.661274177643188
40
0.661274177643188
40
0.920835933581117
40
0.920835933581117
40
1
40
1
40
1
40
1
41
1
10
25.6054809471616
20
-151.620125611037
30
0
41
1
10
25.5940626195588
20
-151.629591924047
30
0
41
1
10
25.5826284022692
20
-151.638170488782
30
0
41
1
10
25.5631039552347
20
-151.650483024963
30
0
41
1
10
25.5545911312756
20
-151.654857226436
30
0
41
1
10
25.5400583411075
20
-151.659692442884
30
0
41
1
10
25.5338809955832
20
-151.660145020645
30
0
41
1
10
25.5256380895458
20
-151.657083286983
30
0
41
1
10
25.5230443652671
20
-151.654035875739
30
0
41
1
10
25.5198464157297
20
-151.644066869936
30
0
41
1
10
25.5202209391389
20
-151.636025351033
30
0
41
1
10
25.5249628002154
20
-151.613448505114
30
0
41
1
10
25.5311192041887
20
-151.597288895962
30
0
41
1
10
25.5513156111974
20
-151.554115123511
30
0
41
1
10
25.5681795781663
20
-151.525137756457
30
0
41
1
10
25.5930641290063
20
-151.48712796978
30
0
41
1
10
25.5991702878047
20
-151.478111111149
30
0
41
1
10
25.6054809471616
20
-151.469079857782
30
0
0
SPLINE
5
157
100
AcDbEntity
8
1
62
256
6
ByLayer
370
18
48
1
60
0
100
AcDbSpline
70
4
71
3
72
12
73
8
40
0
40
0
40
0
40
0
40
0.566642755812609
40
0.566642755812609
40
0.871667985367504
40
0.871667985367504
40
1
40
1
40
1
40
1
41
1
10
26.2495190528383
20
-117.469932735577
30
0
41
1
10
26.2721099441184
20
-117.503512574109
30
0
41
1
10
26.292028005611
20
-117.537630015861
30
0
41
1
10
26.3136085864197
20
-117.585523874195
30
0
41
1
10
26.3195870055791
20
-117.601818199184
30
0
41
1
10
26.3238049420387
20
-117.621842666657
30
0
41
1
10
26.3245190528383
20
-117.627445826797
30
0
41
1
10
26.3245190528383
20
-117.632425364145
30
0
0
SPLINE
5
158
100
AcDbEntity
8
1
62
256
6
ByLayer
370
18
48
1
60
0
100
AcDbSpline
70
4
71
3
72
12
73
8
40
0
40
0
40
0
40
0
40
0.530639323941559
40
0.530639323941559
40
0.821962379992183
40
0.821962379992183
40
1
40
1
40
1
40
1
41
1
10
26.2495190528383
20
-151.307521585811
30
0
41
1
10
26.2704988569408
20
-151.27878713115
30
0
41
1
10
26.2893586799859
20
-151.249804826935
30
0
41
1
10
26.3108966065823
20
-151.209157886248
30
0
41
1
10
26.3171689356215
20
-151.195259509162
30
0
41
1
10
26.3231774735128
20
-151.175944872022
30
0
41
1
10
26.3245190528383
20
-151.169233589824
30
0
41
1
10
26.3245190528383
20
-151.163752228722
30
0
0
SPLINE
5
159
100
AcDbEntity
8
1
62
256
6
ByLayer
370
18
48
1
60
0
100
AcDbSpline
70
4
71
3
72
8
73
4
40
0
40
0
40
0
40
0
40
1
40
1
40
1
40
1
41
1
10
25.6054809471616
20
-152.175819762351
30
0
41
1
10
25.8220437558275
20
-151.8882639518
30
0
41
1
10
26.0367953341286
20
-151.598873212388
30
0
41
1
10
26.2495190528383
20
-151.307521585811
30
0
0
SPLINE
5
15A
100
AcDbEntity
8
1
62
256
6
ByLayer
370
18
48
1
60
0
100
AcDbSpline
70
4
71
3
72
8
73
4
40
0
40
0
40
0
40
0
40
1
40
1
40
1
40
1
41
1
10
25.6054809471616
20
-118.240806731924
30
0
41
1
10
25.8201619499148
20
-118.416208930204
30
0
41
1
10
26.034841374926
20
-118.591613703258
30
0
41
1
10
26.2495190528383
20
-118.767021327266
30
0
0
SPLINE
5
15B
100
AcDbEntity
8
1
62
256
6
ByLayer
370
18
48
1
60
0
100
AcDbSpline
70
4
71
3
72
8
73
4
40
0
40
0
40
0
40
0
40
1
40
1
40
1
40
1
41
1
10
26.2495190528383
20
-120.023204268469
30
0
41
1
10
26.0348784235955
20
-119.845364133984
30
0
41
1
10
25.8201976315052
20
-119.667588617002
30
0
41
1
10
25.6054809471616
20
-119.48987093729
30
0
0
LINE
5
70
100
AcDbEntity
8
1
62
256
6
ByLayer
370
18
48
1
60
0
100
AcDbLine
10
25
20
-112.032315
30
0
11
25
21
-113.4
31
0
39
0
210
0
220
0
230
1
0
LINE
5
72
100
AcDbEntity
8
1
62
256
6
ByLayer
370
18
48
1
60
0
100
AcDbLine
10
25
20
-115
30
0
11
5
21
-115
31
0
39
0
210
0
220
0
230
1
0
LINE
5
73
100
AcDbEntity
8
1
62
256
6
ByLayer
370
18
48
1
60
0
100
AcDbLine
10
5
20
-154
30
0
11
25.323957
21
-154
31
0
39
0
210
0
220
0
230
1
0
LINE
5
74
100
AcDbEntity
8
1
62
256
6
ByLayer
370
18
48
1
60
0
100
AcDbLine
10
0
20
0
30
0
11
0
21
-115
31
0
39
0
210
0
220
0
230
1
0
LINE
5
75
100
AcDbEntity
8
1
62
256
6
ByLayer
370
18
48
1
60
0
100
AcDbLine
10
25.324519
20
-154
30
0
11
25.521883
21
-153.802636
31
0
39
0
210
0
220
0
230
1
0
LINE
5
76
100
AcDbEntity
8
1
62
256
6
ByLayer
370
18
48
1
60
0
100
AcDbLine
10
4.85
20
-134
30
0
11
4.85
21
-125.618922
31
0
39
0
210
0
220
0
230
1
0
LINE
5
77
100
AcDbEntity
8
1
62
256
6
ByLayer
370
18
48
1
60
0
100
AcDbLine
10
31.85
20
0
30
0
11
31.85
21
-99.576441
31
0
39
0
210
0
220
0
230
1
0
LINE
5
78
100
AcDbEntity
8
1
62
256
6
ByLayer
370
18
48
1
60
0
100
AcDbLine
10
5
20
-125.40679
30
0
11
4.85
21
-125.618922
31
0
39
0
210
0
220
0
230
1
0
LINE
5
79
100
AcDbEntity
8
1
62
256
6
ByLayer
370
18
48
1
60
0
100
AcDbLine
10
4.85
20
-125.618922
30
0
11
0
21
-127.627857
31
0
39
0
210
0
220
0
230
1
0
LINE
5
7A
100
AcDbEntity
8
1
62
256
6
ByLayer
370
18
48
1
60
0
100
AcDbLine
10
0
20
-127.627857
30
0
11
0
21
-120
31
0
39
0
210
0
220
0
230
1
0
LINE
5
7B
100
AcDbEntity
8
1
62
256
6
ByLayer
370
18
48
1
60
0
100
AcDbLine
10
0
20
-120
30
0
11
5
21
-115
31
0
39
0
210
0
220
0
230
1
0
LINE
5
7C
100
AcDbEntity
8
1
62
256
6
ByLayer
370
18
48
1
60
0
100
AcDbLine
10
5
20
-115
30
0
11
5
21
-125.40679
31
0
39
0
210
0
220
0
230
1
0
LINE
5
7D
100
AcDbEntity
8
1
62
256
6
ByLayer
370
13
48
1
60
0
100
AcDbLine
10
0
20
-134
30
0
11
4.85
21
-134
31
0
39
0
210
0
220
0
230
1
0
LINE
5
7E
100
AcDbEntity
8
1
62
256
6
ByLayer
370
18
48
1
60
0
100
AcDbLine
10
25
20
-131.342261
30
0
11
25
21
-125.40679
31
0
39
0
210
0
220
0
230
1
0
LINE
5
7F
100
AcDbEntity
8
1
62
256
6
ByLayer
370
13
48
1
60
0
100
AcDbLine
10
4.85
20
-134
30
0
11
25.174519
21
-134
31
0
39
0
210
0
220
0
230
1
0
LINE
5
80
100
AcDbEntity
8
1
62
256
6
ByLayer
370
18
48
1
60
0
100
AcDbLine
10
0
20
-149
30
0
11
4.999437
21
-153.999437
31
0
39
0
210
0
220
0
230
1
0
LINE
5
81
100
AcDbEntity
8
1
62
256
6
ByLayer
370
18
48
1
60
0
100
AcDbLine
10
31.85
20
0
30
0
11
0
21
0
31
0
39
0
210
0
220
0
230
1
0
LINE
5
82
100
AcDbEntity
8
1
62
256
6
ByLayer
370
18
48
1
60
0
100
AcDbLine
10
26.324519
20
-116.836248
30
0
11
26.324519
21
-116.933653
31
0
39
0
210
0
220
0
230
1
0
LINE
5
83
100
AcDbEntity
8
1
62
256
6
ByLayer
370
18
48
1
60
0
100
AcDbLine
10
26.324519
20
-117.632425
30
0
11
26.324519
21
-117.753244
31
0
39
0
210
0
220
0
230
1
0
LINE
5
84
100
AcDbEntity
8
1
62
256
6
ByLayer
370
18
48
1
60
0
100
AcDbLine
10
26.324519
20
-118.614923
30
0
11
26.324519
21
-118.7634
31
0
39
0
210
0
220
0
230
1
0
LINE
5
85
100
AcDbEntity
8
1
62
256
6
ByLayer
370
18
48
1
60
0
100
AcDbLine
10
26.324519
20
-119.822422
30
0
11
26.324519
21
-120.005327
31
0
39
0
210
0
220
0
230
1
0
LINE
5
86
100
AcDbEntity
8
1
62
256
6
ByLayer
370
18
48
1
60
0
100
AcDbLine
10
26.324519
20
-121.319037
30
0
11
26.324519
21
-121.548183
31
0
39
0
210
0
220
0
230
1
0
LINE
5
87
100
AcDbEntity
8
1
62
256
6
ByLayer
370
18
48
1
60
0
100
AcDbLine
10
26.324519
20
-123.224568
30
0
11
26.324519
21
-123.524092
31
0
39
0
210
0
220
0
230
1
0
LINE
5
88
100
AcDbEntity
8
1
62
256
6
ByLayer
370
18
48
1
60
0
100
AcDbLine
10
26.324519
20
-125.819961
30
0
11
26.324519
21
-126.257808
31
0
39
0
210
0
220
0
230
1
0
LINE
5
89
100
AcDbEntity
8
1
62
256
6
ByLayer
370
18
48
1
60
0
100
AcDbLine
10
26.324519
20
-130.364597
30
0
11
26.324519
21
-131.625462
31
0
39
0
210
0
220
0
230
1
0
LINE
5
8A
100
AcDbEntity
8
1
62
256
6
ByLayer
370
18
48
1
60
0
100
AcDbLine
10
26.324519
20
-136.374538
30
0
11
26.324519
21
-137.635403
31
0
39
0
210
0
220
0
230
1
0
LINE
5
8B
100
AcDbEntity
8
1
62
256
6
ByLayer
370
18
48
1
60
0
100
AcDbLine
10
26.324519
20
-141.742192
30
0
11
26.324519
21
-142.180039
31
0
39
0
210
0
220
0
230
1
0
LINE
5
8C
100
AcDbEntity
8
1
62
256
6
ByLayer
370
18
48
1
60
0
100
AcDbLine
10
26.324519
20
-144.475908
30
0
11
26.324519
21
-144.775432
31
0
39
0
210
0
220
0
230
1
0
LINE
5
8D
100
AcDbEntity
8
1
62
256
6
ByLayer
370
18
48
1
60
0
100
AcDbLine
10
26.324519
20
-146.451817
30
0
11
26.324519
21
-146.680963
31
0
39
0
210
0
220
0
230
1
0
LINE
5
8E
100
AcDbEntity
8
1
62
256
6
ByLayer
370
18
48
1
60
0
100
AcDbLine
10
26.324519
20
-147.994673
30
0
11
26.324519
21
-148.177578
31
0
39
0
210
0
220
0
230
1
0
LINE
5
8F
100
AcDbEntity
8
1
62
256
6
ByLayer
370
18
48
1
60
0
100
AcDbLine
10
26.324519
20
-149.2366
30
0
11
26.324519
21
-149.385077
31
0
39
0
210
0
220
0
230
1
0
LINE
5
90
100
AcDbEntity
8
1
62
256
6
ByLayer
370
18
48
1
60
0
100
AcDbLine
10
26.324519
20
-150.246756
30
0
11
26.324519
21
-150.367575
31
0
39
0
210
0
220
0
230
1
0
LINE
5
91
100
AcDbEntity
8
1
62
256
6
ByLayer
370
18
48
1
60
0
100
AcDbLine
10
26.324519
20
-151.066347
30
0
11
26.324519
21
-151.163752
31
0
39
0
210
0
220
0
230
1
0
LINE
5
92
100
AcDbEntity
8
1
62
256
6
ByLayer
370
18
48
1
60
0
100
AcDbLine
10
26.324519
20
-151.721831
30
0
11
26.324519
21
-151.798631
31
0
39
0
210
0
220
0
230
1
0
LINE
5
93
100
AcDbEntity
8
1
62
256
6
ByLayer
370
18
48
1
60
0
100
AcDbLine
10
26.324519
20
-152.230919
30
0
11
26.324519
21
-152.289018
31
0
39
0
210
0
220
0
230
1
0
LINE
5
94
100
AcDbEntity
8
1
62
256
6
ByLayer
370
18
48
1
60
0
100
AcDbLine
10
26.324519
20
-152.605631
30
0
11
26.324519
21
-152.646315
31
0
39
0
210
0
220
0
230
1
0
LINE
5
95
100
AcDbEntity
8
1
62
256
6
ByLayer
370
18
48
1
60
0
100
AcDbLine
10
26.324519
20
-152.853982
30
0
11
26.324519
21
-152.878081
31
0
39
0
210
0
220
0
230
1
0
LINE
5
96
100
AcDbEntity
8
1
62
256
6
ByLayer
370
18
48
1
60
0
100
AcDbLine
10
26.324519
20
-152.980931
30
0
11
26.324519
21
-152.988914
31
0
39
0
210
0
220
0
230
1
0
LINE
5
97
100
AcDbEntity
8
1
62
256
6
ByLayer
370
18
48
1
60
0
100
AcDbLine
10
5
20
-115
30
0
11
4.337258
21
-113.4
31
0
39
0
210
0
220
0
230
1
0
LINE
5
98
100
AcDbEntity
8
1
62
256
6
ByLayer
370
13
48
1
60
0
100
AcDbLine
10
4.337258
20
-113.4
30
0
11
25
21
-113.4
31
0
39
0
210
0
220
0
230
1
0
LINE
5
99
100
AcDbEntity
8
1
62
256
6
ByLayer
370
18
48
1
60
0
100
AcDbLine
10
0
20
-120
30
0
11
0
21
-117.737258
31
0
39
0
210
0
220
0
230
1
0
LINE
5
9A
100
AcDbEntity
8
1
62
256
6
ByLayer
370
13
48
1
60
0
100
AcDbLine
10
0
20
-117.737258
30
0
11
4.337258
21
-113.4
31
0
39
0
210
0
220
0
230
1
0
LINE
5
9B
100
AcDbEntity
8
1
62
256
6
ByLayer
370
18
48
1
60
0
100
AcDbLine
10
25
20
-119.628395
30
0
11
25
21
-125.40679
31
0
39
0
210
0
220
0
230
1
0
LINE
5
9C
100
AcDbEntity
8
1
62
256
6
ByLayer
370
18
48
1
60
0
100
AcDbLine
10
25
20
-125.40679
30
0
11
5
21
-125.40679
31
0
39
0
210
0
220
0
230
1
0
LINE
5
9D
100
AcDbEntity
8
1
62
256
6
ByLayer
370
13
48
1
60
0
100
AcDbLine
10
25.605481
20
-152.736189
30
0
11
25.605481
21
-152.83044
31
0
39
0
210
0
220
0
230
1
0
LINE
5
9E
100
AcDbEntity
8
1
62
256
6
ByLayer
370
18
48
1
60
0
100
AcDbLine
10
26.324519
20
-151.163745
30
0
11
26.324519
21
-151.721831
31
0
39
0
210
0
220
0
230
1
0
LINE
5
9F
100
AcDbEntity
8
1
62
256
6
ByLayer
370
18
48
1
60
0
100
AcDbLine
10
26.324519
20
-116.933653
30
0
11
26.324519
21
-117.632442
31
0
39
0
210
0
220
0
230
1
0
LINE
5
A0
100
AcDbEntity
8
1
62
256
6
ByLayer
370
18
48
1
60
0
100
AcDbLine
10
26.324519
20
-118.7634
30
0
11
26.324519
21
-119.822402
31
0
39
0
210
0
220
0
230
1
0
LINE
5
A1
100
AcDbEntity
8
1
62
256
6
ByLayer
370
13
48
1
60
0
100
AcDbLine
10
26.249519
20
-150.530034
30
0
11
26.249519
21
-151.085938
31
0
39
0
210
0
220
0
230
1
0
LINE
5
A2
100
AcDbEntity
8
1
62
256
6
ByLayer
370
13
48
1
60
0
100
AcDbLine
10
26.249519
20
-120.023204
30
0
11
26.249519
21
-121.0647
31
0
39
0
210
0
220
0
230
1
0
LINE
5
A3
100
AcDbEntity
8
1
62
256
6
ByLayer
370
13
48
1
60
0
100
AcDbLine
10
26.249519
20
-152.402791
30
0
11
26.249519
21
-152.654966
31
0
39
0
210
0
220
0
230
1
0
LINE
5
A4
100
AcDbEntity
8
1
62
256
6
ByLayer
370
13
48
1
60
0
100
AcDbLine
10
26.249519
20
-123.585338
30
0
11
26.249519
21
-125.385773
31
0
39
0
210
0
220
0
230
1
0
LINE
5
A5
100
AcDbEntity
8
1
62
256
6
ByLayer
370
13
48
1
60
0
100
AcDbLine
10
26.249519
20
-142.614227
30
0
11
26.249519
21
-144.414662
31
0
39
0
210
0
220
0
230
1
0
LINE
5
A6
100
AcDbEntity
8
1
62
256
6
ByLayer
370
18
48
1
60
0
100
AcDbLine
10
26.324519
20
-148.177598
30
0
11
26.324519
21
-149.2366
31
0
39
0
210
0
220
0
230
1
0
LINE
5
A7
100
AcDbEntity
8
1
62
256
6
ByLayer
370
13
48
1
60
0
100
AcDbLine
10
26.249519
20
-117.744648
30
0
11
26.249519
21
-118.429666
31
0
39
0
210
0
220
0
230
1
0
LINE
5
A8
100
AcDbEntity
8
1
62
256
6
ByLayer
370
13
48
1
60
0
100
AcDbLine
10
25.605481
20
-121.029436
30
0
11
25.605481
21
-121.374778
31
0
39
0
210
0
220
0
230
1
0
LINE
5
A9
100
AcDbEntity
8
1
62
256
6
ByLayer
370
13
48
1
60
0
100
AcDbLine
10
25.605481
20
-146.625222
30
0
11
25.605481
21
-146.970564
31
0
39
0
210
0
220
0
230
1
0
LINE
5
AA
100
AcDbEntity
8
1
62
256
6
ByLayer
370
18
48
1
60
0
100
AcDbLine
10
26.249519
20
-116.249519
30
0
11
26.241665
21
-116.241665
31
0
39
0
210
0
220
0
230
1
0
LINE
5
AB
100
AcDbEntity
8
1
62
256
6
ByLayer
370
13
48
1
60
0
100
AcDbLine
10
26.249519
20
-121.583962
30
0
11
26.249519
21
-122.908986
31
0
39
0
210
0
220
0
230
1
0
LINE
5
AC
100
AcDbEntity
8
1
62
256
6
ByLayer
370
13
48
1
60
0
100
AcDbLine
10
26.249519
20
-145.091014
30
0
11
26.249519
21
-146.416038
31
0
39
0
210
0
220
0
230
1
0
LINE
5
AD
100
AcDbEntity
8
1
62
256
6
ByLayer
370
18
48
1
60
0
100
AcDbLine
10
26.324519
20
-152.646204
30
0
11
26.324519
21
-152.853982
31
0
39
0
210
0
220
0
230
1
0
LINE
5
AE
100
AcDbEntity
8
1
62
256
6
ByLayer
370
18
48
1
60
0
100
AcDbLine
10
26.324519
20
-121.548183
30
0
11
26.324519
21
-123.224898
31
0
39
0
210
0
220
0
230
1
0
LINE
5
AF
100
AcDbEntity
8
1
62
256
6
ByLayer
370
18
48
1
60
0
100
AcDbLine
10
26.324519
20
-144.775102
30
0
11
26.324519
21
-146.451817
31
0
39
0
210
0
220
0
230
1
0
LINE
5
B0
100
AcDbEntity
8
1
62
256
6
ByLayer
370
13
48
1
60
0
100
AcDbLine
10
26.249519
20
-151.307484
30
0
11
26.249519
21
-151.751679
31
0
39
0
210
0
220
0
230
1
0
LINE
5
B1
100
AcDbEntity
8
1
62
256
6
ByLayer
370
18
48
1
60
0
100
AcDbLine
10
26.324519
20
-151.798528
30
0
11
26.324519
21
-152.230919
31
0
39
0
210
0
220
0
230
1
0
LINE
5
B2
100
AcDbEntity
8
1
62
256
6
ByLayer
370
18
48
1
60
0
100
AcDbLine
10
0
20
-115
30
0
11
0
21
-117.737258
31
0
39
0
210
0
220
0
230
1
0
LINE
5
B3
100
AcDbEntity
8
1
62
256
6
ByLayer
370
13
48
1
60
0
100
AcDbLine
10
26.249519
20
-149.570334
30
0
11
26.249519
21
-150.255352
31
0
39
0
210
0
220
0
230
1
0
LINE
5
B4
100
AcDbEntity
8
1
62
256
6
ByLayer
370
18
48
1
60
0
100
AcDbLine
10
26.324519
20
-131.625462
30
0
11
26.324519
21
-136.374538
31
0
39
0
210
0
220
0
230
1
0
LINE
5
B5
100
AcDbEntity
8
1
62
256
6
ByLayer
370
18
48
1
60
0
100
AcDbLine
10
25
20
-115
30
0
11
25
21
-119.628395
31
0
39
0
210
0
220
0
230
1
0
LINE
5
B6
100
AcDbEntity
8
1
62
256
6
ByLayer
370
18
48
1
60
0
100
AcDbLine
10
26.324519
20
-152.878056
30
0
11
26.324519
21
-152.980931
31
0
39
0
210
0
220
0
230
1
0
LINE
5
B7
100
AcDbEntity
8
1
62
256
6
ByLayer
370
13
48
1
60
0
100
AcDbLine
10
26.249519
20
-152.747538
30
0
11
26.249519
21
-152.912973
31
0
39
0
210
0
220
0
230
1
0
LINE
5
B8
100
AcDbEntity
8
1
62
256
6
ByLayer
370
13
48
1
60
0
100
AcDbLine
10
26.249519
20
-146.9353
30
0
11
26.249519
21
-147.976796
31
0
39
0
210
0
220
0
230
1
0
LINE
5
B9
100
AcDbEntity
8
1
62
256
6
ByLayer
370
18
48
1
60
0
100
AcDbLine
10
5
20
-154
30
0
11
4.999437
21
-153.999437
31
0
39
0
210
0
220
0
230
1
0
LINE
5
BA
100
AcDbEntity
8
1
62
256
6
ByLayer
370
13
48
1
60
0
100
AcDbLine
10
25.605481
20
-118.240807
30
0
11
25.605481
21
-118.466655
31
0
39
0
210
0
220
0
230
1
0
LINE
5
BB
100
AcDbEntity
8
1
62
256
6
ByLayer
370
18
48
1
60
0
100
AcDbLine
10
26.324519
20
-123.524092
30
0
11
26.324519
21
-125.82028
31
0
39
0
210
0
220
0
230
1
0
LINE
5
BC
100
AcDbEntity
8
1
62
256
6
ByLayer
370
18
48
1
60
0
100
AcDbLine
10
26.324519
20
-142.17972
30
0
11
26.324519
21
-144.475908
31
0
39
0
210
0
220
0
230
1
0
LINE
5
BD
100
AcDbEntity
8
1
62
256
6
ByLayer
370
18
48
1
60
0
100
AcDbLine
10
0
20
-149
30
0
11
0
21
-134
31
0
39
0
210
0
220
0
230
1
0
LINE
5
BE
100
AcDbEntity
8
1
62
256
6
ByLayer
370
13
48
1
60
0
100
AcDbLine
10
26.249519
20
-126.366367
30
0
11
26.249519
21
-129.428408
31
0
39
0
210
0
220
0
230
1
0
LINE
5
BF
100
AcDbEntity
8
1
62
256
6
ByLayer
370
13
48
1
60
0
100
AcDbLine
10
26.249519
20
-138.571592
30
0
11
26.249519
21
-141.633633
31
0
39
0
210
0
220
0
230
1
0
LINE
5
C0
100
AcDbEntity
8
1
62
256
6
ByLayer
370
18
48
1
60
0
100
AcDbLine
10
26.324519
20
-146.680965
30
0
11
26.324519
21
-147.994673
31
0
39
0
210
0
220
0
230
1
0
LINE
5
C1
100
AcDbEntity
8
1
62
256
6
ByLayer
370
13
48
1
60
0
100
AcDbLine
10
26.249519
20
-152.967694
30
0
11
26.249519
21
-153.049761
31
0
39
0
210
0
220
0
230
1
0
LINE
5
C2
100
AcDbEntity
8
1
62
256
6
ByLayer
370
13
48
1
60
0
100
AcDbLine
10
25.324519
20
-154
30
0
11
25.324519
21
-115.324519
31
0
39
0
210
0
220
0
230
1
0
LINE
5
C3
100
AcDbEntity
8
1
62
256
6
ByLayer
370
18
48
1
60
0
100
AcDbLine
10
26.324519
20
-116.324519
30
0
11
26.324519
21
-116.836253
31
0
39
0
210
0
220
0
230
1
0
LINE
5
C4
100
AcDbEntity
8
1
62
256
6
ByLayer
370
13
48
1
60
0
100
AcDbLine
10
26.249519
20
-116.249519
30
0
11
26.249519
21
-116.692551
31
0
39
0
210
0
220
0
230
1
0
LINE
5
C5
100
AcDbEntity
8
1
62
256
6
ByLayer
370
13
48
1
60
0
100
AcDbLine
10
26.249519
20
-116.914062
30
0
11
26.249519
21
-117.469966
31
0
39
0
210
0
220
0
230
1
0
LINE
5
C6
100
AcDbEntity
8
1
62
256
6
ByLayer
370
13
48
1
60
0
100
AcDbLine
10
25.605481
20
-116.379874
30
0
11
25.605481
21
-116.53096
31
0
39
0
210
0
220
0
230
1
0
LINE
5
C7
100
AcDbEntity
8
1
62
256
6
ByLayer
370
18
48
1
60
0
100
AcDbLine
10
26.324519
20
-152.288879
30
0
11
26.324519
21
-152.605631
31
0
39
0
210
0
220
0
230
1
0
LINE
5
C8
100
AcDbEntity
8
1
62
256
6
ByLayer
370
18
48
1
60
0
100
AcDbLine
10
26.324519
20
-149.385057
30
0
11
26.324519
21
-150.246756
31
0
39
0
210
0
220
0
230
1
0
LINE
5
C9
100
AcDbEntity
8
1
62
256
6
ByLayer
370
13
48
1
60
0
100
AcDbLine
10
25.605481
20
-122.980599
30
0
11
25.605481
21
-123.431017
31
0
39
0
210
0
220
0
230
1
0
LINE
5
CA
100
AcDbEntity
8
1
62
256
6
ByLayer
370
13
48
1
60
0
100
AcDbLine
10
25.605481
20
-144.568983
30
0
11
25.605481
21
-145.019401
31
0
39
0
210
0
220
0
230
1
0
LINE
5
CB
100
AcDbEntity
8
1
62
256
6
ByLayer
370
13
48
1
60
0
100
AcDbLine
10
25.605481
20
-150.59748
30
0
11
25.605481
21
-150.782744
31
0
39
0
210
0
220
0
230
1
0
LINE
5
CC
100
AcDbEntity
8
1
62
256
6
ByLayer
370
18
48
1
60
0
100
AcDbLine
10
25
20
-115
30
0
11
25
21
-113.4
31
0
39
0
210
0
220
0
230
1
0
LINE
5
CD
100
AcDbEntity
8
1
62
256
6
ByLayer
370
18
48
1
60
0
100
AcDbLine
10
26.324519
20
-150.367558
30
0
11
26.324519
21
-151.066347
31
0
39
0
210
0
220
0
230
1
0
LINE
5
CE
100
AcDbEntity
8
1
62
256
6
ByLayer
370
13
48
1
60
0
100
AcDbLine
10
25.605481
20
-151.46904
30
0
11
25.605481
21
-151.620126
31
0
39
0
210
0
220
0
230
1
0
LINE
5
CF
100
AcDbEntity
8
1
62
256
6
ByLayer
370
13
48
1
60
0
100
AcDbLine
10
25.605481
20
-119.489871
30
0
11
25.605481
21
-119.76647
31
0
39
0
210
0
220
0
230
1
0
LINE
5
D0
100
AcDbEntity
8
1
62
256
6
ByLayer
370
13
48
1
60
0
100
AcDbLine
10
25.605481
20
-148.23353
30
0
11
25.605481
21
-148.510129
31
0
39
0
210
0
220
0
230
1
0
LINE
5
D1
100
AcDbEntity
8
1
62
256
6
ByLayer
370
13
48
1
60
0
100
AcDbLine
10
25.605481
20
-130.217073
30
0
11
25.605481
21
-132.318725
31
0
39
0
210
0
220
0
230
1
0
LINE
5
D2
100
AcDbEntity
8
1
62
256
6
ByLayer
370
13
48
1
60
0
100
AcDbLine
10
25.605481
20
-135.681275
30
0
11
25.605481
21
-137.782927
31
0
39
0
210
0
220
0
230
1
0
LINE
5
D3
100
AcDbEntity
8
1
62
256
6
ByLayer
370
18
48
1
60
0
100
AcDbLine
10
26.324519
20
-120.005327
30
0
11
26.324519
21
-121.319035
31
0
39
0
210
0
220
0
230
1
0
LINE
5
D4
100
AcDbEntity
8
1
62
256
6
ByLayer
370
13
48
1
60
0
100
AcDbLine
10
25.605481
20
-153.163495
30
0
11
25.605481
21
-153.232624
31
0
39
0
210
0
220
0
230
1
0
LINE
5
D5
100
AcDbEntity
8
1
62
256
6
ByLayer
370
13
48
1
60
0
100
AcDbLine
10
25.605481
20
-125.626299
30
0
11
25.605481
21
-126.285205
31
0
39
0
210
0
220
0
230
1
0
LINE
5
D6
100
AcDbEntity
8
1
62
256
6
ByLayer
370
13
48
1
60
0
100
AcDbLine
10
25.605481
20
-141.714795
30
0
11
25.605481
21
-142.373701
31
0
39
0
210
0
220
0
230
1
0
LINE
5
D7
100
AcDbEntity
8
1
62
256
6
ByLayer
370
13
48
1
60
0
100
AcDbLine
10
26.249519
20
-132.108033
30
0
11
26.249519
21
-135.891967
31
0
39
0
210
0
220
0
230
1
0
LINE
5
D8
100
AcDbEntity
8
1
62
256
6
ByLayer
370
13
48
1
60
0
100
AcDbLine
10
25.605481
20
-149.533345
30
0
11
25.605481
21
-149.759193
31
0
39
0
210
0
220
0
230
1
0
LINE
5
D9
100
AcDbEntity
8
1
62
256
6
ByLayer
370
18
48
1
60
0
100
AcDbLine
10
26.324519
20
-116.324519
30
0
11
26.249519
21
-116.249519
31
0
39
0
210
0
220
0
230
1
0
LINE
5
DA
100
AcDbEntity
8
1
62
256
6
ByLayer
370
13
48
1
60
0
100
AcDbLine
10
26.249519
20
-151.926431
30
0
11
26.249519
21
-152.270603
31
0
39
0
210
0
220
0
230
1
0
LINE
5
DB
100
AcDbEntity
8
1
62
256
6
ByLayer
370
13
48
1
60
0
100
AcDbLine
10
25.605481
20
-153.650115
30
0
11
25.605481
21
-153.672581
31
0
39
0
210
0
220
0
230
1
0
LINE
5
DC
100
AcDbEntity
8
1
62
256
6
ByLayer
370
13
48
1
60
0
100
AcDbLine
10
25.605481
20
-115.703083
30
0
11
25.605481
21
-115.824222
31
0
39
0
210
0
220
0
230
1
0
LINE
5
DD
100
AcDbEntity
8
1
62
256
6
ByLayer
370
18
48
1
60
0
100
AcDbLine
10
26.324519
20
-117.753244
30
0
11
26.324519
21
-118.614943
31
0
39
0
210
0
220
0
230
1
0
LINE
5
DE
100
AcDbEntity
8
1
62
256
6
ByLayer
370
13
48
1
60
0
100
AcDbLine
10
26.249519
20
-148.391962
30
0
11
26.249519
21
-149.232979
31
0
39
0
210
0
220
0
230
1
0
LINE
5
DF
100
AcDbEntity
8
1
62
256
6
ByLayer
370
13
48
1
60
0
100
AcDbLine
10
25.605481
20
-117.217256
30
0
11
25.605481
21
-117.40252
31
0
39
0
210
0
220
0
230
1
0
LINE
5
E0
100
AcDbEntity
8
1
62
256
6
ByLayer
370
18
48
1
60
0
100
AcDbLine
10
0
20
-134
30
0
11
0
21
-127.627857
31
0
39
0
210
0
220
0
230
1
0
LINE
5
E1
100
AcDbEntity
8
1
62
256
6
ByLayer
370
13
48
1
60
0
100
AcDbLine
10
25.605481
20
-153.466107
30
0
11
25.605481
21
-153.51159
31
0
39
0
210
0
220
0
230
1
0
LINE
5
E2
100
AcDbEntity
8
1
62
256
6
ByLayer
370
18
48
1
60
0
100
AcDbLine
10
26.324519
20
-126.257808
30
0
11
26.324519
21
-130.364799
31
0
39
0
210
0
220
0
230
1
0
LINE
5
E3
100
AcDbEntity
8
1
62
256
6
ByLayer
370
18
48
1
60
0
100
AcDbLine
10
26.324519
20
-137.635201
30
0
11
26.324519
21
-141.742192
31
0
39
0
210
0
220
0
230
1
0
LINE
5
E4
100
AcDbEntity
8
1
62
256
6
ByLayer
370
13
48
1
60
0
100
AcDbLine
10
26.249519
20
-118.767021
30
0
11
26.249519
21
-119.608038
31
0
39
0
210
0
220
0
230
1
0
LINE
5
E5
100
AcDbEntity
8
1
62
256
6
ByLayer
370
13
48
1
60
0
100
AcDbLine
10
25.605481
20
-152.175778
30
0
11
25.605481
21
-152.296917
31
0
39
0
210
0
220
0
230
1
0
LINE
5
E6
100
AcDbEntity
8
80
62
256
6
ByLayer
370
18
48
0.05
60
0
100
AcDbLine
10
0
20
0
30
0
11
0
21
29.597105
31
0
39
0
210
0
220
0
230
1
0
LINE
5
E7
100
AcDbEntity
8
81
62
256
6
ByLayer
370
18
48
0.05
60
0
100
AcDbLine
10
29.397105
20
-134
30
0
11
26
21
-134
31
0
39
0
210
0
220
0
230
1
0
MTEXT
5
15C
100
AcDbEntity
8
SK6
62
256
6
ByLayer
370
18
48
1
60
0
100
AcDbMText
10
-51.308095
20
-81.715408
30
0
210
0
220
0
230
1
1
\W0.7407;570-40RF-3232
40
3
41
0
44
1.084337
50
89.9999999999999
71
7
72
5
7
iso_b_vert
0
DIMENSION
5
16E
100
AcDbEntity
8
SK2
62
256
6
ByLayer
370
13
48
1
60
0
100
AcDbDimension
2
DimnDraft3D1
10
0
20
20.908556
30
0
11
14.132895
21
20.908556
31
0
70
32
71
5
72
1
41
1
210
0
220
0
230
1
3
Standard
100
AcDbAlignedDimension
13
31.85
23
2
33
0
14
0
24
2
34
0
50
0
100
AcDbRotatedDimension
1001
ACAD
1000
DSTYLE
1002
{
1070
   279
1070
     0
1070
   172
1070
     1
1070
   173
1070
     1
1070
   340
1005
15D
1070
   271
1070
     0
1070
    77
1070
     1
1070
    73
1070
     0
1070
   171
1070
     3
1070
   274
1070
     4
1070
   177
1070
   254
1070
   176
1070
   254
1070
   178
1070
   254
1070
    78
1070
     8
1070
    41
1041
3.175
1070
   147
1041
1.5
1070
    42
1041
2.0
1070
    44
1041
2.0
1070
   140
1041
3.0
1070
   343
1005
16F
1070
   344
1005
16F
1002
}
0
DIMENSION
5
183
100
AcDbEntity
8
SK2
62
256
6
ByLayer
370
13
48
1
60
0
100
AcDbDimension
2
DimnDraft3D2
10
-18.351356
20
0
30
0
11
-18.351356
21
-69.696053
31
0
70
32
71
5
72
1
41
1
210
0
220
0
230
1
3
Standard
100
AcDbAlignedDimension
13
-2
23
-134
33
0
14
-2
24
0
34
0
50
90
100
AcDbRotatedDimension
1001
ACAD
1000
DSTYLE
1002
{
1070
    74
1070
     0
1070
   279
1070
     0
1070
   172
1070
     1
1070
   173
1070
     1
1070
   340
1005
15D
1070
    77
1070
     1
1070
    73
1070
     0
1070
   171
1070
     3
1070
   274
1070
     4
1070
   177
1070
   254
1070
   176
1070
   254
1070
   178
1070
   254
1070
    78
1070
     8
1070
    41
1041
3.175
1070
   147
1041
1.5
1070
    42
1041
2.0
1070
    44
1041
2.0
1070
   140
1041
3.0
1070
   343
1005
0
1070
   344
1005
0
1002
}
0
DIMENSION
5
191
100
AcDbEntity
8
SK2
62
256
6
ByLayer
370
13
48
1
60
0
100
AcDbDimension
2
DimnDraft3D3
10
-32.701203
20
0
30
0
11
-32.701203
21
-79.696053
31
0
70
32
71
5
72
1
41
1
210
0
220
0
230
1
3
Standard
100
AcDbAlignedDimension
13
3
23
-154
33
0
14
-2
24
0
34
0
50
90
100
AcDbRotatedDimension
1001
ACAD
1000
DSTYLE
1002
{
1070
    74
1070
     0
1070
   279
1070
     0
1070
   172
1070
     1
1070
   173
1070
     1
1070
   340
1005
15D
1070
    77
1070
     1
1070
    73
1070
     0
1070
   171
1070
     3
1070
   274
1070
     4
1070
   177
1070
   254
1070
   176
1070
   254
1070
   178
1070
   254
1070
    78
1070
     8
1070
    41
1041
3.175
1070
   147
1041
1.5
1070
    42
1041
2.0
1070
    44
1041
2.0
1070
   140
1041
3.0
1070
   343
1005
0
1070
   344
1005
0
1002
}
0
DIMENSION
5
19F
100
AcDbEntity
8
SK2
62
256
6
ByLayer
370
13
48
1
60
0
100
AcDbDimension
2
DimnDraft3D4
10
26
20
-170.271268
30
0
11
11.207895
21
-170.271268
31
0
70
32
71
5
72
1
41
1
210
0
220
0
230
1
3
Standard
100
AcDbAlignedDimension
13
0
23
-136
33
0
14
26
24
-136
34
0
50
0
100
AcDbRotatedDimension
1001
ACAD
1000
DSTYLE
1002
{
1070
   279
1070
     0
1070
   172
1070
     1
1070
   173
1070
     1
1070
   340
1005
15D
1070
    77
1070
     1
1070
    73
1070
     0
1070
   171
1070
     3
1070
   274
1070
     4
1070
   177
1070
   254
1070
   176
1070
   254
1070
   178
1070
   254
1070
    78
1070
     8
1070
    41
1041
3.175
1070
   147
1041
1.5
1070
    42
1041
2.0
1070
    44
1041
2.0
1070
   140
1041
3.0
1070
   343
1005
0
1070
   344
1005
0
1002
}
0
ENDSEC
0
SECTION
2
OBJECTS
0
DICTIONARY
5
208
330
0
100
AcDbDictionary
280
0
281
1
3
ACAD_GROUP
350
209
3
ACAD_MLINESTYLE
350
20a
0
DICTIONARY
5
209
330
0
100
AcDbDictionary
280
0
281
1
0
DICTIONARY
5
20a
330
0
100
AcDbDictionary
280
0
281
1
3
Standard
350
18
0
MLINESTYLE
5
18
330
20a
100
AcDbMlineStyle
2
Standard
70
0
3

62
256
51
90
52
90
71
2
49
-0.5
62
256
6
ByLayer
49
0.5
62
256
6
ByLayer
0
RASTERVARIABLES
5
1f8
330

100
AcDbRasterVariables
90
0
70
1
71
1
72
1
0
ENDSEC
0
EOF
