0
SECTION
2
HEADER
9
$ACADVER
1
AC1015
9
$DWGCODEPAGE
3
ANSI_1252
9
$HANDSEED
5
22c
9
$ANGBASE
50
0
9
$ANGDIR
70
0
9
$ATTMODE
70
1
9
$AUNITS
70
0
9
$AUPREC
70
0
9
$CECOLOR
62
256
9
$CELTSCALE
40
1
9
$CELTYPE
6
ByLayer
9
$CELWEIGHT
370
18
9
$CLAYER
8
0
9
$CMLJUST
70
0
9
$CMLSCALE
40
1
9
$CMLSTYLE
2
Standard
9
$DIMSTYLE
2
Standard
9
$TEXTSIZE
40
0.2
9
$TEXTSTYLE
7
Standard
9
$LUNITS
70
2
9
$LUPREC
70
4
9
$EXTNAMES
290
1
9
$INSUNITS
70
4
9
$LTSCALE
40
1
9
$LWDISPLAY
290
1
9
$PDMODE
70
0
9
$PDSIZE
40
0
9
$PLINEGEN
70
0
0
ENDSEC
0
SECTION
2
CLASSES
0
CLASS
1
RASTERVARIABLES
2
AcDbRasterVariables
3
ISM
90
0
280
0
281
0
0
ENDSEC
0
SECTION
2
TABLES
0
TABLE
2
VPORT
5
222
100
AcDbSymbolTable
0
VPORT
5
1
100
AcDbSymbolTableRecord
100
AcDbViewportTableRecord
2
*Active
70
0
10
0
20
0
11
1
21
1
12
-1
22
1
13
0
23
0
14
0.5
24
0.5
15
10
25
10
16
0
26
0
36
1
17
0
27
0
37
0
0
ENDTAB
0
TABLE
2
LTYPE
5
223
100
AcDbSymbolTable
0
LTYPE
5
14
100
AcDbSymbolTableRecord
100
AcDbLinetypeTableRecord
70
0
2
ByBlock
3

72
65
73
0
40
0
0
LTYPE
5
15
100
AcDbSymbolTableRecord
100
AcDbLinetypeTableRecord
70
0
2
ByLayer
3

72
65
73
0
40
0
0
LTYPE
5
16
100
AcDbSymbolTableRecord
100
AcDbLinetypeTableRecord
70
0
2
CONTINUOUS
3
Solid line
72
65
73
0
40
0
0
LTYPE
5
6A
100
AcDbSymbolTableRecord
100
AcDbLinetypeTableRecord
70
0
2
CENTER
3
____ _ ____ _ ____ _ ____
72
65
73
4
40
47.5
49
22
74
0
49
-8.5
74
0
49
8.5
74
0
49
-8.5
74
0
0
LTYPE
5
6B
100
AcDbSymbolTableRecord
100
AcDbLinetypeTableRecord
70
0
2
DASHED
3
__ __ __ __ __ __ __ __ __
72
65
73
2
40
25.72
49
12.86
74
0
49
-12.86
74
0
0
ENDTAB
0
TABLE
2
LAYER
5
224
100
AcDbSymbolTable
0
LAYER
5
10
100
AcDbSymbolTableRecord
100
AcDbLayerTableRecord
2
0
70
0
62
7
6
CONTINUOUS
290
1
370
-3
390
0
0
LAYER
5
6D
100
AcDbSymbolTableRecord
100
AcDbLayerTableRecord
2
80
70
0
62
-6
6
CONTINUOUS
290
1
370
-3
390
0
0
LAYER
5
6F
100
AcDbSymbolTableRecord
100
AcDbLayerTableRecord
2
81
70
0
62
-3
6
CONTINUOUS
290
1
370
-3
390
0
0
LAYER
5
71
100
AcDbSymbolTableRecord
100
AcDbLayerTableRecord
2
1
70
0
62
4
6
CONTINUOUS
290
1
370
-3
390
0
0
LAYER
5
210
100
AcDbSymbolTableRecord
100
AcDbLayerTableRecord
2
SK6
70
0
62
5
6
CONTINUOUS
290
1
370
-3
390
0
0
LAYER
5
211
100
AcDbSymbolTableRecord
100
AcDbLayerTableRecord
2
SK2
70
0
62
7
6
CONTINUOUS
290
1
370
-3
390
0
0
ENDTAB
0
TABLE
2
STYLE
5
225
100
AcDbSymbolTable
0
STYLE
5
11
100
AcDbSymbolTableRecord
100
AcDbTextStyleTableRecord
2
Standard
3
txt
70
0
71
0
40
0
41
1
42
0
50
0
0
STYLE
5
181
100
AcDbSymbolTableRecord
100
AcDbTextStyleTableRecord
2
iso_b_vert
3
simplex.shx
70
0
71
0
40
0
41
1
42
0
50
0
0
STYLE
5
182
100
AcDbSymbolTableRecord
100
AcDbTextStyleTableRecord
2
DWGDirectTextStyle
3
simplex
70
0
71
0
40
0
41
1
42
0
50
0
0
ENDTAB
0
TABLE
2
DIMSTYLE
5
226
100
AcDbSymbolTable
100
AcDbDimStyleTable
0
DIMSTYLE
105
27
100
AcDbSymbolTableRecord
100
AcDbDimStyleTableRecord
2
Standard
70
0
3
<>
41
0.18
42
0.0625
44
0.18
140
0.18
147
0.09
73
0
74
0
77
1
271
2
275
0
278
52
280
0
340
11
0
ENDTAB
0
TABLE
2
VIEW
5
227
100
AcDbSymbolTable
0
ENDTAB
0
TABLE
2
UCS
5
228
100
AcDbSymbolTable
0
ENDTAB
0
TABLE
2
APPID
5
229
100
AcDbSymbolTable
0
APPID
5
12
100
AcDbSymbolTableRecord
100
AcDbRegAppTableRecord
2
ACAD
70
0
0
ENDTAB
0
TABLE
2
BLOCK_RECORD
5
22a
100
AcDbSymbolTable
0
BLOCK_RECORD
5
1F
100
AcDbSymbolTableRecord
100
AcDbBlockTableRecord
2
*Model_Space
340
0
70
0
0
BLOCK_RECORD
5
1B
100
AcDbSymbolTableRecord
100
AcDbBlockTableRecord
2
*Paper_Space
340
0
70
0
0
BLOCK_RECORD
5
23
100
AcDbSymbolTableRecord
100
AcDbBlockTableRecord
2
*Paper_Space0
340
0
70
0
0
BLOCK_RECORD
5
184
100
AcDbSymbolTableRecord
100
AcDbBlockTableRecord
2
DimnDraft3D1
340
0
70
0
0
BLOCK_RECORD
5
194
100
AcDbSymbolTableRecord
100
AcDbBlockTableRecord
2
DimnDraft3D2
340
0
70
0
0
BLOCK_RECORD
5
1A2
100
AcDbSymbolTableRecord
100
AcDbBlockTableRecord
2
DimnDraft3D3
340
0
70
0
0
BLOCK_RECORD
5
1B0
100
AcDbSymbolTableRecord
100
AcDbBlockTableRecord
2
_CLOSED
340
0
70
0
0
ENDTAB
0
ENDSEC
0
SECTION
2
BLOCKS
0
BLOCK
5
20
100
AcDbEntity
8
0
100
AcDbBlockBegin
2
*Model_Space
70
0
10
0
20
0
30
0
3
*Model_Space
0
ENDBLK
5
21
100
AcDbEntity
8
0
100
AcDbBlockEnd
0
BLOCK
5
1C
100
AcDbEntity
8
0
100
AcDbBlockBegin
2
*Paper_Space
70
0
10
0
20
0
30
0
3
*Paper_Space
0
ENDBLK
5
1D
100
AcDbEntity
8
0
100
AcDbBlockEnd
0
BLOCK
5
24
100
AcDbEntity
8
0
100
AcDbBlockBegin
2
*Paper_Space0
70
0
10
0
20
0
30
0
3
*Paper_Space0
0
ENDBLK
5
25
100
AcDbEntity
8
0
100
AcDbBlockEnd
0
BLOCK
5
191
100
AcDbEntity
8
0
100
AcDbBlockBegin
2
DimnDraft3D1
70
0
10
0
20
0
30
0
3
DimnDraft3D1
0
MTEXT
5
185
100
AcDbEntity
8
SK2
62
256
6
ByLayer
370
18
48
1
60
0
100
AcDbMText
10
-13.442865
20
-165.913851
30
0
210
0
220
0
230
1
1
\W0.7361;40
40
3
41
0
44
1.084337
50
359.996494375102
71
7
72
5
7
iso_b_vert
0
MTEXT
5
187
100
AcDbEntity
8
SK2
62
256
6
ByLayer
370
18
48
1
60
0
100
AcDbMText
10
-20.919428
20
-165.913393
30
0
210
0
220
0
230
1
1
%%c
40
3
41
0
44
1.084337
50
359.996494375102
71
7
72
5
7
iso_b_vert
0
LINE
5
188
100
AcDbEntity
8
SK2
62
256
6
ByLayer
370
13
48
1
60
0
100
AcDbLine
10
-35.975122
20
-146.39553
30
0
11
-35.976531
21
-169.412472
31
0
39
0
210
0
220
0
230
1
0
LINE
5
189
100
AcDbEntity
8
SK2
62
256
6
ByLayer
370
13
48
1
60
0
100
AcDbLine
10
4.024878
20
-146.397977
30
0
11
4.023469
21
-169.414919
31
0
39
0
210
0
220
0
230
1
0
LINE
5
18A
100
AcDbEntity
8
SK2
62
256
6
ByLayer
370
13
48
1
60
0
100
AcDbLine
10
-35.976408
20
-167.412472
30
0
11
4.023592
21
-167.414919
31
0
39
0
210
0
220
0
230
1
0
LINE
5
18B
100
AcDbEntity
8
SK2
62
256
6
ByLayer
370
13
48
1
60
0
100
AcDbLine
10
-35.976408
20
-167.412472
30
0
11
-32.801384
21
-166.994669
31
0
39
0
210
0
220
0
230
1
0
LINE
5
18C
100
AcDbEntity
8
SK2
62
256
6
ByLayer
370
13
48
1
60
0
100
AcDbLine
10
-35.976408
20
-167.412472
30
0
11
-32.801432
21
-167.830663
31
0
39
0
210
0
220
0
230
1
0
LINE
5
18D
100
AcDbEntity
8
SK2
62
256
6
ByLayer
370
13
48
1
60
0
100
AcDbLine
10
-32.801384
20
-166.994669
30
0
11
-32.801432
21
-167.830663
31
0
39
0
210
0
220
0
230
1
0
LINE
5
18E
100
AcDbEntity
8
SK2
62
256
6
ByLayer
370
13
48
1
60
0
100
AcDbLine
10
4.023592
20
-167.414919
30
0
11
0.848568
21
-167.832722
31
0
39
0
210
0
220
0
230
1
0
LINE
5
18F
100
AcDbEntity
8
SK2
62
256
6
ByLayer
370
13
48
1
60
0
100
AcDbLine
10
4.023592
20
-167.414919
30
0
11
0.848616
21
-166.996728
31
0
39
0
210
0
220
0
230
1
0
LINE
5
190
100
AcDbEntity
8
SK2
62
256
6
ByLayer
370
13
48
1
60
0
100
AcDbLine
10
0.848568
20
-167.832722
30
0
11
0.848616
21
-166.996728
31
0
39
0
210
0
220
0
230
1
0
ENDBLK
5
192
100
AcDbEntity
8
0
100
AcDbBlockEnd
0
BLOCK
5
19F
100
AcDbEntity
8
0
100
AcDbBlockBegin
2
DimnDraft3D2
70
0
10
0
20
0
30
0
3
DimnDraft3D2
0
MTEXT
5
195
100
AcDbEntity
8
SK2
62
256
6
ByLayer
370
18
48
1
60
0
100
AcDbMText
10
-50.888989
20
-75.446053
30
0
210
0
220
0
230
1
1
\W0.6620;147
40
3
41
0
44
1.084337
50
90
71
7
72
5
7
iso_b_vert
0
LINE
5
196
100
AcDbEntity
8
SK2
62
256
6
ByLayer
370
13
48
1
60
0
100
AcDbLine
10
-17.975
20
-147
30
0
11
-52.138989
21
-147
31
0
39
0
210
0
220
0
230
1
0
LINE
5
197
100
AcDbEntity
8
SK2
62
256
6
ByLayer
370
13
48
1
60
0
100
AcDbLine
10
-33.95
20
0
30
0
11
-52.138989
21
0
31
0
39
0
210
0
220
0
230
1
0
LINE
5
198
100
AcDbEntity
8
SK2
62
256
6
ByLayer
370
13
48
1
60
0
100
AcDbLine
10
-50.138989
20
-147
30
0
11
-50.138989
21
0
31
0
39
0
210
0
220
0
230
1
0
LINE
5
199
100
AcDbEntity
8
SK2
62
256
6
ByLayer
370
13
48
1
60
0
100
AcDbLine
10
-50.138989
20
-147
30
0
11
-50.556986
21
-143.825002
31
0
39
0
210
0
220
0
230
1
0
LINE
5
19A
100
AcDbEntity
8
SK2
62
256
6
ByLayer
370
13
48
1
60
0
100
AcDbLine
10
-50.138989
20
-147
30
0
11
-49.720992
21
-143.824998
31
0
39
0
210
0
220
0
230
1
0
LINE
5
19B
100
AcDbEntity
8
SK2
62
256
6
ByLayer
370
13
48
1
60
0
100
AcDbLine
10
-50.556986
20
-143.825002
30
0
11
-49.720992
21
-143.824998
31
0
39
0
210
0
220
0
230
1
0
LINE
5
19C
100
AcDbEntity
8
SK2
62
256
6
ByLayer
370
13
48
1
60
0
100
AcDbLine
10
-50.138989
20
0
30
0
11
-49.720992
21
-3.174998
31
0
39
0
210
0
220
0
230
1
0
LINE
5
19D
100
AcDbEntity
8
SK2
62
256
6
ByLayer
370
13
48
1
60
0
100
AcDbLine
10
-50.138989
20
0
30
0
11
-50.556986
21
-3.175002
31
0
39
0
210
0
220
0
230
1
0
LINE
5
19E
100
AcDbEntity
8
SK2
62
256
6
ByLayer
370
13
48
1
60
0
100
AcDbLine
10
-49.720992
20
-3.174998
30
0
11
-50.556986
21
-3.175002
31
0
39
0
210
0
220
0
230
1
0
ENDBLK
5
1A0
100
AcDbEntity
8
0
100
AcDbBlockEnd
0
BLOCK
5
1AD
100
AcDbEntity
8
0
100
AcDbBlockBegin
2
DimnDraft3D3
70
0
10
0
20
0
30
0
3
DimnDraft3D3
0
MTEXT
5
1A3
100
AcDbEntity
8
SK2
62
256
6
ByLayer
370
18
48
1
60
0
100
AcDbMText
10
-17.017105
20
11.699865
30
0
210
0
220
0
230
1
1
\W0.6740;32
40
3
41
0
44
1.084337
50
0
71
7
72
5
7
iso_b_vert
0
LINE
5
1A4
100
AcDbEntity
8
SK2
62
256
6
ByLayer
370
13
48
1
60
0
100
AcDbLine
10
0
20
2
30
0
11
0
21
12.949865
31
0
39
0
210
0
220
0
230
1
0
LINE
5
1A5
100
AcDbEntity
8
SK2
62
256
6
ByLayer
370
13
48
1
60
0
100
AcDbLine
10
-31.95
20
2
30
0
11
-31.95
21
12.949865
31
0
39
0
210
0
220
0
230
1
0
LINE
5
1A6
100
AcDbEntity
8
SK2
62
256
6
ByLayer
370
13
48
1
60
0
100
AcDbLine
10
0
20
10.949865
30
0
11
-31.95
21
10.949865
31
0
39
0
210
0
220
0
230
1
0
LINE
5
1A7
100
AcDbEntity
8
SK2
62
256
6
ByLayer
370
13
48
1
60
0
100
AcDbLine
10
0
20
10.949865
30
0
11
-3.174998
21
10.531868
31
0
39
0
210
0
220
0
230
1
0
LINE
5
1A8
100
AcDbEntity
8
SK2
62
256
6
ByLayer
370
13
48
1
60
0
100
AcDbLine
10
0
20
10.949865
30
0
11
-3.175002
21
11.367862
31
0
39
0
210
0
220
0
230
1
0
LINE
5
1A9
100
AcDbEntity
8
SK2
62
256
6
ByLayer
370
13
48
1
60
0
100
AcDbLine
10
-3.174998
20
10.531868
30
0
11
-3.175002
21
11.367862
31
0
39
0
210
0
220
0
230
1
0
LINE
5
1AA
100
AcDbEntity
8
SK2
62
256
6
ByLayer
370
13
48
1
60
0
100
AcDbLine
10
-31.95
20
10.949865
30
0
11
-28.775002
21
11.367862
31
0
39
0
210
0
220
0
230
1
0
LINE
5
1AB
100
AcDbEntity
8
SK2
62
256
6
ByLayer
370
13
48
1
60
0
100
AcDbLine
10
-31.95
20
10.949865
30
0
11
-28.774998
21
10.531868
31
0
39
0
210
0
220
0
230
1
0
LINE
5
1AC
100
AcDbEntity
8
SK2
62
256
6
ByLayer
370
13
48
1
60
0
100
AcDbLine
10
-28.775002
20
11.367862
30
0
11
-28.774998
21
10.531868
31
0
39
0
210
0
220
0
230
1
0
ENDBLK
5
1AE
100
AcDbEntity
8
0
100
AcDbBlockEnd
0
BLOCK
5
1B1
100
AcDbEntity
8
0
100
AcDbBlockBegin
2
_CLOSED
70
0
10
0
20
0
30
0
3
_CLOSED
0
LINE
5
1B3
100
AcDbEntity
8
0
62
256
6
ByLayer
370
-2
48
1
60
0
100
AcDbLine
10
-1
20
0.166667
30
0
11
0
21
0
31
0
39
0
210
0
220
0
230
1
0
LINE
5
1B4
100
AcDbEntity
8
0
62
256
6
ByLayer
370
-2
48
1
60
0
100
AcDbLine
10
0
20
0
30
0
11
-1
21
-0.166667
31
0
39
0
210
0
220
0
230
1
0
LINE
5
1B5
100
AcDbEntity
8
0
62
256
6
ByLayer
370
-2
48
1
60
0
100
AcDbLine
10
-1
20
0.166667
30
0
11
-1
21
-0.166667
31
0
39
0
210
0
220
0
230
1
0
LINE
5
1B6
100
AcDbEntity
8
0
62
256
6
ByLayer
370
-2
48
1
60
0
100
AcDbLine
10
0
20
0
30
0
11
-1
21
0
31
0
39
0
210
0
220
0
230
1
0
ENDBLK
5
1B2
100
AcDbEntity
8
0
100
AcDbBlockEnd
0
ENDSEC
0
SECTION
2
ENTITIES
0
ARC
5
EA
100
AcDbEntity
8
1
62
256
6
ByLayer
370
18
48
1
60
0
100
AcDbCircle
39
0
10
15.975
20
-111.85
30
0
40
20.15
210
0
220
0
230
-1
100
AcDbArc
50
216.624766
51
323.375234
0
ELLIPSE
5
EB
100
AcDbEntity
8
1
62
256
6
ByLayer
370
18
48
1
60
0
100
AcDbEllipse
10
-44.311027
20
-121.946261
30
0
11
1.32010176871361E-14
21
-12.3158829074276
31
0
210
0
220
0
230
-1
40
0.99999
41
-1.56643296212846
42
-1.41387844442874
0
ELLIPSE
5
EC
100
AcDbEntity
8
1
62
256
6
ByLayer
370
18
48
1
60
0
100
AcDbEllipse
10
12.361027
20
-121.946261
30
0
11
1.32010176882135E-14
21
-12.3158829084328
31
0
210
0
220
0
230
-1
40
0.99999
41
1.41387844444156
42
1.56643296212873
0
ELLIPSE
5
ED
100
AcDbEntity
8
1
62
256
6
ByLayer
370
13
48
1
60
0
100
AcDbEllipse
10
-36.77476
20
-142.466704
30
0
11
-0.649759613995512
21
-0.4667038075915
31
0
210
0
220
0
230
1
40
0.999966
41
2.51869281846409
42
3.14159265358972
0
ELLIPSE
5
EE
100
AcDbEntity
8
1
62
256
6
ByLayer
370
18
48
1
60
0
100
AcDbEllipse
10
-36.125
20
-142.8
30
0
11
-1.46952762458685E-16
21
-0.8
31
0
210
0
220
0
230
1
40
0.96875
41
3.08941226956242
42
3.14159265358979
0
ELLIPSE
5
EF
100
AcDbEntity
8
1
62
256
6
ByLayer
370
18
48
1
60
0
100
AcDbEllipse
10
-31.956981
20
-120.4
30
0
11
1.71499099643728E-15
21
-1.59999999999973
31
0
210
0
220
0
230
-1
40
0.004363
41
-1.5707963267949
42
0
0
ELLIPSE
5
F0
100
AcDbEntity
8
1
62
256
6
ByLayer
370
18
48
1
60
0
100
AcDbEllipse
10
0.006981
20
-120.4
30
0
11
1.71499099642878E-15
21
-1.5999999999918
31
0
210
0
220
0
230
-1
40
0.004363
41
0
42
1.5707963267949
0
ELLIPSE
5
F1
100
AcDbEntity
8
1
62
256
6
ByLayer
370
18
48
1
60
0
100
AcDbEllipse
10
4.82476
20
-142.466704
30
0
11
0.649759613996479
21
-0.466703807590153
31
0
210
0
220
0
230
1
40
0.999966
41
3.14159265358787
42
-2.89934333658531
0
ELLIPSE
5
F2
100
AcDbEntity
8
1
62
256
6
ByLayer
370
13
48
1
60
0
100
AcDbEllipse
10
4.82476
20
-142.466704
30
0
11
0.649759613996479
21
-0.466703807590153
31
0
210
0
220
0
230
1
40
0.999966
41
-2.89934337215143
42
-2.51869281846619
0
POINT
5
6C
100
AcDbEntity
8
80
62
256
6
ByLayer
370
18
48
1
60
0
100
AcDbPoint
10
0
20
0
30
0
39
0
210
0
220
0
230
1
50
360
0
POINT
5
6E
100
AcDbEntity
8
81
62
256
6
ByLayer
370
18
48
1
60
0
100
AcDbPoint
10
-15.975
20
-147
30
0
39
0
210
0
220
0
230
1
50
360
0
SPLINE
5
F3
100
AcDbEntity
8
1
62
256
6
ByLayer
370
18
48
1
60
0
100
AcDbSpline
70
4
71
2
72
6
73
3
40
0
40
0
40
0
40
1
40
1
40
1
41
1
10
4.08694628645117
20
-142.171447542727
30
-3E-16
41
1
10
4.11260509926771
20
-142.074828107112
30
-3E-16
41
1
10
4.17778914639249
20
-142.002792937082
30
-3E-16
0
SPLINE
5
F4
100
AcDbEntity
8
1
62
256
6
ByLayer
370
18
48
1
60
0
100
AcDbSpline
70
4
71
3
72
19
73
15
40
0
40
0
40
0
40
0
40
0.162380800515656
40
0.379743849321123
40
0.557537281751388
40
0.691006273466099
40
0.776816522292347
40
0.806815390524997
40
0.819953003474938
40
0.82979138592306
40
0.843814336361098
40
0.87154166945313
40
0.953250873692128
40
1
40
1
40
1
40
1
41
1
10
4.02791643961882
20
-142.471555508414
30
-3E-16
41
1
10
4.02635551411024
20
-142.441023416483
30
-3E-16
41
1
10
4.02743535817854
20
-142.370222647431
30
-3E-16
41
1
10
4.04774039555278
20
-142.267337008049
30
-3E-16
41
1
10
4.07874477106694
20
-142.173551839583
30
-3E-16
41
1
10
4.10993016440122
20
-142.105923268733
30
-3E-16
41
1
10
4.1323669439283
20
-142.065549205032
30
-3E-16
41
1
10
4.1450974436373
20
-142.044737502716
30
-3E-16
41
1
10
4.14935647113015
20
-142.037987052921
30
-3E-16
41
1
10
4.15128645293512
20
-142.034961456935
30
-3E-16
41
1
10
4.15296452273429
20
-142.032351545653
30
-3E-16
41
1
10
4.15508771310951
20
-142.029079422156
30
-3E-16
41
1
10
4.15649467693538
20
-142.02692765802
30
-3E-16
41
1
10
4.15738425391419
20
-142.025600665049
30
-3E-16
41
1
10
4.15762274795523
20
-142.025252393299
30
-3E-16
0
SPLINE
5
F5
100
AcDbEntity
8
1
62
256
6
ByLayer
370
18
48
1
60
0
100
AcDbSpline
70
4
71
3
72
15
73
11
40
0
40
0
40
0
40
0
40
0.0462347227851409
40
0.0616675107945653
40
0.0759932632019825
40
0.0994329168760485
40
0.248925671268091
40
0.515120462975589
40
0.860166360024168
40
1
40
1
40
1
40
1
41
1
10
-36.1033457036504
20
-142.031790263269
30
-3E-16
41
1
10
-36.1037712100452
20
-142.03109767764
30
-3E-16
41
1
10
-36.1029736523495
20
-142.032331775282
30
-3E-16
41
1
10
-36.100225303588
20
-142.036619779379
30
-3E-16
41
1
10
-36.0968978742671
20
-142.041871948116
30
-3E-16
41
1
10
-36.0812752863289
20
-142.067088008561
30
-3E-16
41
1
10
-36.0466039062149
20
-142.129990688712
30
-3E-16
41
1
10
-36.0024192252757
20
-142.244695116168
30
-3E-16
41
1
10
-35.9750461648482
20
-142.365323674298
30
-3E-16
41
1
10
-35.9777455862564
20
-142.44365788074
30
-3E-16
41
1
10
-35.9798016641991
20
-142.466401538557
30
-3E-16
0
SPLINE
5
F6
100
AcDbEntity
8
1
62
256
6
ByLayer
370
18
48
1
60
0
100
AcDbSpline
70
4
71
3
72
12
73
8
40
0
40
0
40
0
40
0
40
0.5
40
0.5
40
0.75
40
0.75
40
1
40
1
40
1
40
1
41
1
10
-36.125
20
-131.260506800294
30
-1E-15
41
1
10
-36.125
20
-131.244901811338
30
-1E-15
41
1
10
-35.5544230815478
20
-130.811701342491
30
-1E-15
41
1
10
-34.2048504250746
20
-129.087480486607
30
-1.1E-15
41
1
10
-33.6840662586731
20
-128.324456843194
30
-1.1E-15
41
1
10
-32.7400203456506
20
-126.344569620782
30
-1.3E-15
41
1
10
-32.3438740352321
20
-125.161331616846
30
-1.3E-15
41
1
10
-32.1465776506079
20
-123.870922439246
30
-1.4E-15
0
SPLINE
5
F7
100
AcDbEntity
8
1
62
256
6
ByLayer
370
18
48
1
60
0
100
AcDbSpline
70
4
71
3
72
8
73
4
40
0
40
0
40
0
40
0
40
1
40
1
40
1
40
1
41
1
10
-1.46487093729027
20
-146.605480947162
30
0
41
1
10
-1.64258861700202
20
-146.820197631505
30
0
41
1
10
-1.8203641339843
20
-147.034878423595
30
0
41
1
10
-1.99820426846958
20
-147.249519052838
30
0
0
SPLINE
5
F8
100
AcDbEntity
8
1
62
256
6
ByLayer
370
18
48
1
60
0
100
AcDbSpline
70
4
71
3
72
8
73
4
40
0
40
0
40
0
40
0
40
1
40
1
40
1
40
1
41
1
10
-29.9517957315304
20
-147.249519052838
30
0
41
1
10
-30.1296358660157
20
-147.034878423595
30
0
41
1
10
-30.3074113829979
20
-146.820197631505
30
0
41
1
10
-30.4851290627097
20
-146.605480947162
30
0
0
SPLINE
5
F9
100
AcDbEntity
8
1
62
256
6
ByLayer
370
13
48
1
60
0
100
AcDbSpline
70
4
71
3
72
16
73
12
40
0
40
0
40
0
40
0
40
0.25
40
0.25
40
0.375
40
0.375
40
0.5
40
0.5
40
0.75
40
0.75
40
1
40
1
40
1
40
1
41
1
10
4.0247688596111
20
-142.466703807591
30
-3E-16
41
1
10
3.99944996665371
20
-142.503363551097
30
-3E-16
41
1
10
1.8397149192505
20
-142.532385459492
30
-3E-16
41
1
10
-3.72726899020924
20
-142.561541922388
30
-3E-16
41
1
10
-5.93910463129393
20
-142.568811469521
30
-3E-16
41
1
10
-10.7512780588715
20
-142.578506489101
30
-3E-16
41
1
10
-13.371282962167
20
-142.580942965918
30
-3E-16
41
1
10
-21.1604273666382
20
-142.58095655476
30
-3E-16
41
1
10
-26.3659833167848
20
-142.571224172487
30
-3E-16
41
1
10
-33.7633493068797
20
-142.532565650561
30
-3E-16
41
1
10
-35.949449965389
20
-142.503363552929
30
-3E-16
41
1
10
-35.9747688596111
20
-142.466703807592
30
-3E-16
0
SPLINE
5
FA
100
AcDbEntity
8
1
62
256
6
ByLayer
370
18
48
1
60
0
100
AcDbSpline
70
4
71
3
72
36
73
32
40
0
40
0
40
0
40
0
40
0.447531736766687
40
0.447531736766687
40
0.64925649899213
40
0.64925649899213
40
0.72636339416408
40
0.72636339416408
40
0.772771525663988
40
0.772771525663988
40
0.803164391207172
40
0.803164391207172
40
0.823780526472235
40
0.823780526472235
40
0.844635947695603
40
0.844635947695603
40
0.852834890837071
40
0.852834890837071
40
0.861179745159063
40
0.861179745159063
40
0.866453011484048
40
0.866453011484048
40
0.871726445679844
40
0.871726445679844
40
0.879174461697735
40
0.879174461697735
40
0.893216788191074
40
0.893216788191074
40
0.95553584756806
40
0.95553584756806
40
1
40
1
40
1
40
1
41
1
10
-18.3495379603409
20
-147.324519052838
30
0
41
1
10
-18.2508280565876
20
-147.324519052838
30
0
41
1
10
-18.1521331852529
20
-147.323172095664
30
0
41
1
10
-18.0095878170958
20
-147.317046316938
30
0
41
1
10
-17.9653425974431
20
-147.314590386194
30
0
41
1
10
-17.9046866075705
20
-147.309209137213
30
0
41
1
10
-17.8879555672704
20
-147.307503278295
30
0
41
1
10
-17.8613885614269
20
-147.304087214387
30
0
41
1
10
-17.8514506207263
20
-147.302649989887
30
0
41
1
10
-17.8352141835247
20
-147.299793202646
30
0
41
1
10
-17.8288343871342
20
-147.298539330537
30
0
41
1
10
-17.8183409671484
20
-147.296052604703
30
0
41
1
10
-17.8141489616339
20
-147.294942484936
30
0
41
1
10
-17.8060037824662
20
-147.29233045876
30
0
41
1
10
-17.801986135712
20
-147.290831586822
30
0
41
1
10
-17.7970857697798
20
-147.28811669096
30
0
41
1
10
-17.7957721067279
20
-147.28726822094
30
0
41
1
10
-17.7935038527401
20
-147.285343739512
30
0
41
1
10
-17.7925299723363
20
-147.28423368409
30
0
41
1
10
-17.791638397411
20
-147.282242587672
30
0
41
1
10
-17.7914654523588
20
-147.281408373733
30
0
41
1
10
-17.7915468131137
20
-147.279748781415
30
0
41
1
10
-17.7918008860541
20
-147.278905293866
30
0
41
1
10
-17.7927943028681
20
-147.27698924225
30
0
41
1
10
-17.7936917468258
20
-147.275931257936
30
0
41
1
10
-17.7966599786612
20
-147.273162314632
30
0
41
1
10
-17.7990989084343
20
-147.27161395849
30
0
41
1
10
-17.8127544920345
20
-147.264141030756
30
0
41
1
10
-17.8259800616728
20
-147.26026477258
30
0
41
1
10
-17.8481683164346
20
-147.254048294403
30
0
41
1
10
-17.8575454013539
20
-147.251715188021
30
0
41
1
10
-17.8669666035141
20
-147.249519052838
30
0
0
SPLINE
5
FB
100
AcDbEntity
8
1
62
256
6
ByLayer
370
18
48
1
60
0
100
AcDbSpline
70
4
71
3
72
8
73
4
40
0
40
0
40
0
40
0
40
1
40
1
40
1
40
1
41
1
10
-17.8669666035141
20
-147.249519052838
30
0
41
1
10
-18.5210013201171
20
-147.097059883924
30
0
41
1
10
-19.1548337008808
20
-146.872452189755
30
0
41
1
10
-19.7579270730905
20
-146.605480947156
30
0
0
SPLINE
5
FC
100
AcDbEntity
8
1
62
256
6
ByLayer
370
18
48
1
60
0
100
AcDbSpline
70
4
71
3
72
26
73
22
40
0
40
0
40
0
40
0
40
0.630992270492044
40
0.630992270492044
40
0.879804415803118
40
0.879804415803118
40
0.942408060923093
40
0.942408060923093
40
0.958639347449355
40
0.958639347449355
40
0.964770804600111
40
0.964770804600111
40
0.968220027283319
40
0.968220027283319
40
0.97222455542251
40
0.97222455542251
40
0.976182612606451
40
0.976182612606451
40
0.981218835140051
40
0.981218835140051
40
1
40
1
40
1
40
1
41
1
10
-17.6563805000735
20
-146.605480947162
30
0
41
1
10
-18.1296203142053
20
-146.579864864503
30
0
41
1
10
-18.6031249792717
20
-146.546648652857
30
0
41
1
10
-19.2592355327936
20
-146.521478000995
30
0
41
1
10
-19.446035577681
20
-146.514237508428
30
0
41
1
10
-19.6728580995889
20
-146.528231571362
30
0
41
1
10
-19.7191840243754
20
-146.531636556398
30
0
41
1
10
-19.7717610564993
20
-146.545259510972
30
0
41
1
10
-19.782543360335
20
-146.548668301801
30
0
41
1
10
-19.7945706522783
20
-146.555790186833
30
0
41
1
10
-19.797609356271
20
-146.558069235574
30
0
41
1
10
-19.8010400997954
20
-146.562252637367
30
0
41
1
10
-19.8020145307755
20
-146.563916984355
30
0
41
1
10
-19.8032012630543
20
-146.567699777819
30
0
41
1
10
-19.8032634617853
20
-146.569908550451
30
0
41
1
10
-19.8022100965282
20
-146.574201942766
30
0
41
1
10
-19.8011129135053
20
-146.576343017517
30
0
41
1
10
-19.7978449690353
20
-146.580896954007
30
0
41
1
10
-19.7954436468926
20
-146.58329517879
30
0
41
1
10
-19.7831581551808
20
-146.593633664859
30
0
41
1
10
-19.7705121270113
20
-146.599909923432
30
0
41
1
10
-19.7579270730885
20
-146.605480947156
30
0
0
SPLINE
5
FD
100
AcDbEntity
8
1
62
256
6
ByLayer
370
18
48
1
60
0
100
AcDbSpline
70
4
71
3
72
8
73
4
40
0
40
0
40
0
40
0
40
1
40
1
40
1
40
1
41
1
10
-14.2936194999274
20
-146.605480947162
30
0
41
1
10
-15.4123567205208
20
-146.666037274545
30
0
41
1
10
-16.5376432794801
20
-146.666037274545
30
0
41
1
10
-17.6563805000735
20
-146.605480947162
30
0
0
SPLINE
5
FE
100
AcDbEntity
8
1
62
256
6
ByLayer
370
18
48
1
60
0
100
AcDbSpline
70
4
71
3
72
26
73
22
40
0
40
0
40
0
40
0
40
0.0187811648658114
40
0.0187811648658114
40
0.0238173873993796
40
0.0238173873993796
40
0.0277754445832954
40
0.0277754445832954
40
0.0317799727224602
40
0.0317799727224602
40
0.0352291954056464
40
0.0352291954056464
40
0.0413606525563632
40
0.0413606525563632
40
0.0575919390825214
40
0.0575919390825214
40
0.120195584202097
40
0.120195584202097
40
0.369007729511579
40
0.369007729511579
40
1
40
1
40
1
40
1
41
1
10
-12.1920729269236
20
-146.605480947161
30
0
41
1
10
-12.1794878729964
20
-146.599909923436
30
0
41
1
10
-12.1668418448223
20
-146.593633664862
30
0
41
1
10
-12.1545563531074
20
-146.58329517879
30
0
41
1
10
-12.1521550309647
20
-146.580896954007
30
0
41
1
10
-12.1488870864947
20
-146.576343017517
30
0
41
1
10
-12.1477899034718
20
-146.574201942766
30
0
41
1
10
-12.1467365382147
20
-146.569908550451
30
0
41
1
10
-12.1467987369457
20
-146.567699777819
30
0
41
1
10
-12.1479854692244
20
-146.563916984355
30
0
41
1
10
-12.1489599002046
20
-146.562252637367
30
0
41
1
10
-12.152390643729
20
-146.558069235574
30
0
41
1
10
-12.1554293477217
20
-146.555790186833
30
0
41
1
10
-12.1674566396649
20
-146.548668301801
30
0
41
1
10
-12.1782389435007
20
-146.545259510972
30
0
41
1
10
-12.2308159756245
20
-146.531636556398
30
0
41
1
10
-12.2771419004111
20
-146.528231571362
30
0
41
1
10
-12.5039644223189
20
-146.514237508428
30
0
41
1
10
-12.6907644672064
20
-146.521478000995
30
0
41
1
10
-13.3468750207286
20
-146.546648652857
30
0
41
1
10
-13.8203796857953
20
-146.579864864503
30
0
41
1
10
-14.2936194999274
20
-146.605480947162
30
0
0
SPLINE
5
FF
100
AcDbEntity
8
1
62
256
6
ByLayer
370
18
48
1
60
0
100
AcDbSpline
70
4
71
3
72
8
73
4
40
0
40
0
40
0
40
0
40
1
40
1
40
1
40
1
41
1
10
-12.1920729269231
20
-146.605480947162
30
0
41
1
10
-12.7951662991287
20
-146.872452189758
30
0
41
1
10
-13.4289986798878
20
-147.097059883926
30
0
41
1
10
-14.0830333964859
20
-147.249519052838
30
0
0
SPLINE
5
100
100
AcDbEntity
8
1
62
256
6
ByLayer
370
18
48
1
60
0
100
AcDbSpline
70
4
71
3
72
36
73
32
40
0
40
0
40
0
40
0
40
0.0444641524319426
40
0.0444641524319426
40
0.106783211808926
40
0.106783211808926
40
0.120825538302267
40
0.120825538302267
40
0.128273554320156
40
0.128273554320156
40
0.133546988515953
40
0.133546988515953
40
0.138820254840938
40
0.138820254840938
40
0.147165109162928
40
0.147165109162928
40
0.155364052304399
40
0.155364052304399
40
0.176219473527766
40
0.176219473527766
40
0.196835608792827
40
0.196835608792827
40
0.227228474336013
40
0.227228474336013
40
0.273636605835921
40
0.273636605835921
40
0.350743501007873
40
0.350743501007873
40
0.552468263233314
40
0.552468263233314
40
1
40
1
40
1
40
1
41
1
10
-14.0830333964859
20
-147.249519052838
30
0
41
1
10
-14.092454598646
20
-147.251715188021
30
0
41
1
10
-14.1018316835653
20
-147.254048294403
30
0
41
1
10
-14.1240199383272
20
-147.26026477258
30
0
41
1
10
-14.1372455079654
20
-147.264141030756
30
0
41
1
10
-14.1509010915656
20
-147.27161395849
30
0
41
1
10
-14.1533400213387
20
-147.273162314632
30
0
41
1
10
-14.1563082531741
20
-147.275931257936
30
0
41
1
10
-14.1572056971318
20
-147.27698924225
30
0
41
1
10
-14.1581991139459
20
-147.278905293866
30
0
41
1
10
-14.1584531868862
20
-147.279748781415
30
0
41
1
10
-14.1585345476412
20
-147.281408373733
30
0
41
1
10
-14.1583616025889
20
-147.282242587672
30
0
41
1
10
-14.1574700276637
20
-147.28423368409
30
0
41
1
10
-14.1564961472599
20
-147.285343739512
30
0
41
1
10
-14.1542278932721
20
-147.28726822094
30
0
41
1
10
-14.1529142302201
20
-147.28811669096
30
0
41
1
10
-14.148013864288
20
-147.290831586822
30
0
41
1
10
-14.1439962175338
20
-147.29233045876
30
0
41
1
10
-14.1358510383661
20
-147.294942484936
30
0
41
1
10
-14.1316590328516
20
-147.296052604703
30
0
41
1
10
-14.1211656128658
20
-147.298539330537
30
0
41
1
10
-14.1147858164753
20
-147.299793202646
30
0
41
1
10
-14.0985493792737
20
-147.302649989887
30
0
41
1
10
-14.088611438573
20
-147.304087214387
30
0
41
1
10
-14.0620444327296
20
-147.307503278295
30
0
41
1
10
-14.0453133924295
20
-147.309209137213
30
0
41
1
10
-13.9846574025568
20
-147.314590386194
30
0
41
1
10
-13.9404121829042
20
-147.317046316938
30
0
41
1
10
-13.7978668147471
20
-147.323172095664
30
0
41
1
10
-13.6991719434124
20
-147.324519052838
30
0
41
1
10
-13.600462039659
20
-147.324519052838
30
0
0
SPLINE
5
101
100
AcDbEntity
8
1
62
256
6
ByLayer
370
18
48
1
60
0
100
AcDbSpline
70
4
71
3
72
10
73
6
40
0
40
0
40
0
40
0
40
0.685282650359472
40
0.685282650359472
40
1
40
1
40
1
40
1
41
1
10
-20.546656778948
20
-147.249519052838
30
0
41
1
10
-20.3333833284373
20
-147.282273899913
30
0
41
1
10
-20.1188243301777
20
-147.303766400595
30
0
41
1
10
-19.80668177514
20
-147.321124794358
30
0
41
1
10
-19.7082807270898
20
-147.324519052838
30
0
41
1
10
-19.6104027023445
20
-147.324519052838
30
0
0
SPLINE
5
102
100
AcDbEntity
8
1
62
256
6
ByLayer
370
18
48
1
60
0
100
AcDbSpline
70
4
71
3
72
8
73
4
40
0
40
0
40
0
40
0
40
1
40
1
40
1
40
1
41
1
10
-23.6898372207039
20
-146.605480947162
30
0
41
1
10
-22.6571844843446
20
-146.869312490585
30
0
41
1
10
-21.6067684735131
20
-147.086705555171
30
0
41
1
10
-20.5466567789481
20
-147.249519052839
30
0
0
SPLINE
5
103
100
AcDbEntity
8
1
62
256
6
ByLayer
370
18
48
1
60
0
100
AcDbSpline
70
4
71
3
72
22
73
18
40
0
40
0
40
0
40
0
40
0.0343961895176818
40
0.0343961895176818
40
0.0581186494736291
40
0.0581186494736291
40
0.0821404929890042
40
0.0821404929890042
40
0.102836985351527
40
0.102836985351527
40
0.136220057444581
40
0.136220057444581
40
0.200174278683755
40
0.200174278683755
40
0.407027458307288
40
0.407027458307288
40
1
40
1
40
1
40
1
41
1
10
-24.3487007520173
20
-146.605480947159
30
0
41
1
10
-24.3554088875932
20
-146.599512660727
30
0
41
1
10
-24.3615780768716
20
-146.593116170953
30
0
41
1
10
-24.3695010300127
20
-146.581885382717
30
0
41
1
10
-24.3720587937491
20
-146.577088351907
30
0
41
1
10
-24.374846348458
20
-146.56770594904
30
0
41
1
10
-24.3750425100334
20
-146.563001775671
30
0
41
1
10
-24.3730541078358
20
-146.55519360806
30
0
41
1
10
-24.3711980483752
20
-146.551863362724
30
0
41
1
10
-24.3647516214504
20
-146.544277487398
30
0
41
1
10
-24.3591427909381
20
-146.540525840619
30
0
41
1
10
-24.3410412549009
20
-146.53171172389
30
0
41
1
10
-24.3266580493419
20
-146.528209853606
30
0
41
1
10
-24.2643430559804
20
-146.517928959334
30
0
41
1
10
-24.2105076383203
20
-146.519645335654
30
0
41
1
10
-24.0051287012421
20
-146.53420565436
30
0
41
1
10
-23.8459845199534
20
-146.565587010399
30
0
41
1
10
-23.6898372207039
20
-146.605480947162
30
0
0
SPLINE
5
104
100
AcDbEntity
8
1
62
256
6
ByLayer
370
18
48
1
60
0
100
AcDbSpline
70
4
71
3
72
8
73
4
40
0
40
0
40
0
40
0
40
1
40
1
40
1
40
1
41
1
10
-24.3487007520178
20
-146.605480947158
30
0
41
1
10
-24.1047681802946
20
-146.822509872946
30
0
41
1
10
-23.8582445267936
20
-147.037388031002
30
0
41
1
10
-23.6086333388394
20
-147.249519052838
30
0
0
SPLINE
5
105
100
AcDbEntity
8
1
62
256
6
ByLayer
370
18
48
1
60
0
100
AcDbSpline
70
4
71
3
72
20
73
16
40
0
40
0
40
0
40
0
40
0.106725867628241
40
0.106725867628241
40
0.179142572672889
40
0.179142572672889
40
0.25259755883096
40
0.25259755883096
40
0.314717168216308
40
0.314717168216308
40
0.4132489563953
40
0.4132489563953
40
0.60268101249334
40
0.60268101249334
40
1
40
1
40
1
40
1
41
1
10
-23.6086333388394
20
-147.249519052838
30
0
41
1
10
-23.6027130920774
20
-147.254550349734
30
0
41
1
10
-23.5972257386593
20
-147.259952623189
30
0
41
1
10
-23.5901040746362
20
-147.26946382506
30
0
41
1
10
-23.5877726910453
20
-147.273508642235
30
0
41
1
10
-23.5850794319452
20
-147.281503346554
30
0
41
1
10
-23.5847499169043
20
-147.285559169063
30
0
41
1
10
-23.5862112165935
20
-147.292281173762
30
0
41
1
10
-23.5876781871252
20
-147.295146156785
30
0
41
1
10
-23.592837202616
20
-147.301644678493
30
0
41
1
10
-23.5973567477564
20
-147.30489485117
30
0
41
1
10
-23.6120401332762
20
-147.312656084183
30
0
41
1
10
-23.6237904702108
20
-147.315896036607
30
0
41
1
10
-23.6612732103039
20
-147.32320406547
30
0
41
1
10
-23.6891503560921
20
-147.324519052838
30
0
41
1
10
-23.7171921583248
20
-147.324519052838
30
0
0
SPLINE
5
106
100
AcDbEntity
8
1
62
256
6
ByLayer
370
18
48
1
60
0
100
AcDbSpline
70
4
71
3
72
10
73
6
40
0
40
0
40
0
40
0
40
0.314717349640534
40
0.314717349640534
40
1
40
1
40
1
40
1
41
1
10
-12.3395972976554
20
-147.324519052838
30
0
41
1
10
-12.2417192729101
20
-147.324519052838
30
0
41
1
10
-12.14331822486
20
-147.321124794358
30
0
41
1
10
-11.8311756698223
20
-147.303766400595
30
0
41
1
10
-11.6166166715627
20
-147.282273899913
30
0
41
1
10
-11.4033432210519
20
-147.249519052838
30
0
0
SPLINE
5
107
100
AcDbEntity
8
1
62
256
6
ByLayer
370
18
48
1
60
0
100
AcDbSpline
70
4
71
3
72
8
73
4
40
0
40
0
40
0
40
0
40
1
40
1
40
1
40
1
41
1
10
-11.4033432210519
20
-147.249519052839
30
0
41
1
10
-10.3432315264869
20
-147.086705555171
30
0
41
1
10
-9.29281551565535
20
-146.869312490585
30
0
41
1
10
-8.26016277929605
20
-146.605480947162
30
0
0
SPLINE
5
108
100
AcDbEntity
8
1
62
256
6
ByLayer
370
18
48
1
60
0
100
AcDbSpline
70
4
71
3
72
26
73
22
40
0
40
0
40
0
40
0
40
0.411449653758097
40
0.411449653758097
40
0.624924227772647
40
0.624924227772647
40
0.796161473185335
40
0.796161473185335
40
0.861053945190912
40
0.861053945190912
40
0.889533130397347
40
0.889533130397347
40
0.918554487870968
40
0.918554487870968
40
0.939552567169176
40
0.939552567169176
40
0.960425256188707
40
0.960425256188707
40
0.995114092852974
40
0.995114092852974
40
1
40
1
40
1
40
1
41
1
10
-8.26016277929605
20
-146.605480947162
30
0
41
1
10
-8.15136304153555
20
-146.577683797426
30
0
41
1
10
-8.0417632535864
20
-146.554968683697
30
0
41
1
10
-7.87757455118418
20
-146.530989613612
30
0
41
1
10
-7.82155478622374
20
-146.524619001044
30
0
41
1
10
-7.72310678316606
20
-146.519615635622
30
0
41
1
10
-7.67929716850625
20
-146.519238399221
30
0
41
1
10
-7.62489261410693
20
-146.527862747228
30
0
41
1
10
-7.61031345784806
20
-146.531287531531
30
0
41
1
10
-7.59280617112202
20
-146.539487601772
30
0
41
1
10
-7.58788527455442
20
-146.54249449479
30
0
41
1
10
-7.58001622706553
20
-146.549825957064
30
0
41
1
10
-7.57704141090869
20
-146.554315715912
30
0
41
1
10
-7.57505145064039
20
-146.563049077255
30
0
41
1
10
-7.57517036438011
20
-146.567111438385
30
0
41
1
10
-7.57726446912642
20
-146.575293255186
30
0
41
1
10
-7.57923073498728
20
-146.579498148976
30
0
41
1
10
-7.58603208522999
20
-146.590294296641
30
0
41
1
10
-7.59194927800542
20
-146.596830975116
30
0
41
1
10
-7.59940080349699
20
-146.603773191191
30
0
41
1
10
-7.60034346601282
20
-146.604630579708
30
0
41
1
10
-7.60129924794197
20
-146.605480947184
30
0
0
SPLINE
5
109
100
AcDbEntity
8
1
62
256
6
ByLayer
370
18
48
1
60
0
100
AcDbSpline
70
4
71
3
72
8
73
4
40
0
40
0
40
0
40
0
40
1
40
1
40
1
40
1
41
1
10
-8.34136666116055
20
-147.249519052838
30
0
41
1
10
-8.09175547320768
20
-147.037388031003
30
0
41
1
10
-7.84523181970792
20
-146.822509872949
30
0
41
1
10
-7.60129924798596
20
-146.605480947162
30
0
0
SPLINE
5
10A
100
AcDbEntity
8
1
62
256
6
ByLayer
370
18
48
1
60
0
100
AcDbSpline
70
4
71
3
72
20
73
16
40
0
40
0
40
0
40
0
40
0.291516785675794
40
0.291516785675794
40
0.590127067008805
40
0.590127067008805
40
0.683754743432118
40
0.683754743432118
40
0.750765168934958
40
0.750765168934958
40
0.818322051211714
40
0.818322051211714
40
0.879826778053224
40
0.879826778053224
40
1
40
1
40
1
40
1
41
1
10
-8.2328078416752
20
-147.324519052838
30
0
41
1
10
-8.25340634495646
20
-147.324519052838
30
0
41
1
10
-8.273782298654
20
-147.323729772398
30
0
41
1
10
-8.31308816833266
20
-147.319120641853
30
0
41
1
10
-8.33287800029453
20
-147.315439648694
30
0
41
1
10
-8.35267900879509
20
-147.304843671882
30
0
41
1
10
-8.35698070291755
20
-147.301744699589
30
0
41
1
10
-8.36227553355906
20
-147.295288164741
30
0
41
1
10
-8.36387562242504
20
-147.292184895933
30
0
41
1
10
-8.36520185881812
20
-147.285441125701
30
0
41
1
10
-8.3649091675608
20
-147.281707366993
30
0
41
1
10
-8.36265586972885
20
-147.274591864
30
0
41
1
10
-8.36084527072549
20
-147.27113313026
30
0
41
1
10
-8.35418399507086
20
-147.261347265693
30
0
41
1
10
-8.34803327477979
20
-147.25518464648
30
0
41
1
10
-8.34136666116055
20
-147.249519052838
30
0
0
SPLINE
5
10B
100
AcDbEntity
8
1
62
256
6
ByLayer
370
18
48
1
60
0
100
AcDbSpline
70
4
71
3
72
10
73
6
40
0
40
0
40
0
40
0
40
0.652881657126481
40
0.652881657126481
40
1
40
1
40
1
40
1
41
1
10
-7.36063842287339
20
-147.249519052838
30
0
41
1
10
-7.45548584724628
20
-147.277789741488
30
0
41
1
10
-7.55170502776775
20
-147.299360467348
30
0
41
1
10
-7.69640901317555
20
-147.319680344078
30
0
41
1
10
-7.74669851265094
20
-147.324519052838
30
0
41
1
10
-7.79496064087155
20
-147.324519052838
30
0
0
SPLINE
5
10C
100
AcDbEntity
8
1
62
256
6
ByLayer
370
18
48
1
60
0
100
AcDbSpline
70
4
71
3
72
8
73
4
40
0
40
0
40
0
40
0
40
1
40
1
40
1
40
1
41
1
10
-5.40568657395903
20
-146.605480947162
30
0
41
1
10
-6.04939170508632
20
-146.837443021008
30
0
41
1
10
-6.70138504773007
20
-147.053018757408
30
0
41
1
10
-7.36063842287339
20
-147.249519052838
30
0
0
SPLINE
5
10D
100
AcDbEntity
8
1
62
256
6
ByLayer
370
18
48
1
60
0
100
AcDbSpline
70
4
71
3
72
22
73
18
40
0
40
0
40
0
40
0
40
0.043690774567821
40
0.043690774567821
40
0.0885301651800303
40
0.0885301651800303
40
0.129426278640995
40
0.129426278640995
40
0.164666271267684
40
0.164666271267684
40
0.225834133302344
40
0.225834133302344
40
0.342005564100395
40
0.342005564100395
40
0.611810684578542
40
0.611810684578542
40
1
40
1
40
1
40
1
41
1
10
-4.95559932081824
20
-146.605480947162
30
0
41
1
10
-4.94966006990168
20
-146.599113120506
30
0
41
1
10
-4.94428817706535
20
-146.592474616638
30
0
41
1
10
-4.93580384049153
20
-146.579001877641
30
0
41
1
10
-4.93269011025541
20
-146.571984408163
30
0
41
1
10
-4.9304569963929
20
-146.55958651153
30
0
41
1
10
-4.93101694121873
20
-146.553964335429
30
0
41
1
10
-4.93482636136798
20
-146.545078246318
30
0
41
1
10
-4.93770089257438
20
-146.541478347425
30
0
41
1
10
-4.94742362978459
20
-146.533245162094
30
0
41
1
10
-4.9557266686264
20
-146.529573129852
30
0
41
1
10
-4.98191131301988
20
-146.522005393469
30
0
41
1
10
-5.00218154259912
20
-146.520474395857
30
0
41
1
10
-5.07097285856003
20
-146.520496152582
30
0
41
1
10
-5.12358916403474
20
-146.528530080372
30
0
41
1
10
-5.25157504466912
20
-146.555179078419
30
0
41
1
10
-5.32913656320005
20
-146.577895802365
30
0
41
1
10
-5.40568657395903
20
-146.605480947162
30
0
0
SPLINE
5
10E
100
AcDbEntity
8
1
62
256
6
ByLayer
370
18
48
1
60
0
100
AcDbSpline
70
4
71
3
72
8
73
4
40
0
40
0
40
0
40
0
40
1
40
1
40
1
40
1
41
1
10
-4.95559932081821
20
-146.605480947162
30
0
41
1
10
-5.15636374421436
20
-146.820732510838
30
0
41
1
10
-5.35790313077575
20
-147.035444295102
30
0
41
1
10
-5.56033830242814
20
-147.249519052838
30
0
0
SPLINE
5
10F
100
AcDbEntity
8
1
62
256
6
ByLayer
370
18
48
1
60
0
100
AcDbSpline
70
4
71
3
72
18
73
14
40
0
40
0
40
0
40
0
40
0.125557042813037
40
0.125557042813037
40
0.254689832757131
40
0.254689832757131
40
0.371304066329006
40
0.371304066329006
40
0.471721608405629
40
0.471721608405629
40
0.648255252038883
40
0.648255252038883
40
1
40
1
40
1
40
1
41
1
10
-5.56033830242816
20
-147.249519052838
30
0
41
1
10
-5.56555924328194
20
-147.255040186539
30
0
41
1
10
-5.57029052596209
20
-147.260804394041
30
0
41
1
10
-5.57778298567683
20
-147.272546901461
30
0
41
1
10
-5.5805411864979
20
-147.278689767926
30
0
41
1
10
-5.58249976255203
20
-147.289516093254
30
0
41
1
10
-5.58201341296206
20
-147.294415127852
30
0
41
1
10
-5.57871294239223
20
-147.302181800465
30
0
41
1
10
-5.57622589951242
20
-147.305339424672
30
0
41
1
10
-5.56775894780404
20
-147.312655543957
30
0
41
1
10
-5.56048643161114
20
-147.315961673168
30
0
41
1
10
-5.53685681757443
20
-147.323067971049
30
0
41
1
10
-5.51818159172925
20
-147.324519052838
30
0
41
1
10
-5.4990920055705
20
-147.324519052838
30
0
0
SPLINE
5
110
100
AcDbEntity
8
1
62
256
6
ByLayer
370
18
48
1
60
0
100
AcDbSpline
70
4
71
3
72
10
73
6
40
0
40
0
40
0
40
0
40
0.628529158620056
40
0.628529158620056
40
1
40
1
40
1
40
1
41
1
10
-24.1550393591284
20
-147.324519052838
30
0
41
1
10
-24.2420717815943
20
-147.324519052838
30
0
41
1
10
-24.3349127296434
20
-147.310246479861
30
0
41
1
10
-24.4806713215648
20
-147.279469415879
30
0
41
1
10
-24.5351931324863
20
-147.265664765209
30
0
41
1
10
-24.5893615771266
20
-147.249519052838
30
0
0
SPLINE
5
111
100
AcDbEntity
8
1
62
256
6
ByLayer
370
18
48
1
60
0
100
AcDbSpline
70
4
71
3
72
8
73
4
40
0
40
0
40
0
40
0
40
1
40
1
40
1
40
1
41
1
10
-24.5893615771266
20
-147.249519052838
30
0
41
1
10
-25.2486149522699
20
-147.053018757408
30
0
41
1
10
-25.9006082949136
20
-146.837443021008
30
0
41
1
10
-26.5443134260409
20
-146.605480947162
30
0
0
SPLINE
5
112
100
AcDbEntity
8
1
62
256
6
ByLayer
370
18
48
1
60
0
100
AcDbSpline
70
4
71
3
72
22
73
18
40
0
40
0
40
0
40
0
40
0.539334102392201
40
0.539334102392201
40
0.692127956077181
40
0.692127956077181
40
0.775626129214522
40
0.775626129214522
40
0.833388480648878
40
0.833388480648878
40
0.873625324656439
40
0.873625324656439
40
0.914343327195209
40
0.914343327195209
40
0.949562455053154
40
0.949562455053154
40
1
40
1
40
1
40
1
41
1
10
-26.5443134260409
20
-146.605480947162
30
0
41
1
10
-26.6500927743332
20
-146.567362877546
30
0
41
1
10
-26.7590560422945
20
-146.53716233466
30
0
41
1
10
-26.8894872893423
20
-146.521456452173
30
0
41
1
10
-26.9182441261926
20
-146.519522689179
30
0
41
1
10
-26.9593799330194
20
-146.5216915916
30
0
41
1
10
-26.9734379540978
20
-146.523481245221
30
0
41
1
10
-26.9942983677524
20
-146.529631571822
30
0
41
1
10
-27.0021283401086
20
-146.533096200956
30
0
41
1
10
-27.0122455975874
20
-146.54129262674
30
0
41
1
10
-27.0155349263072
20
-146.545417389516
30
0
41
1
10
-27.0191830708434
20
-146.555058251462
30
0
41
1
10
-27.0195086037297
20
-146.56074402193
30
0
41
1
10
-27.0171456396319
20
-146.571853535458
30
0
41
1
10
-27.0148594898294
20
-146.577327206441
30
0
41
1
10
-27.0073548245291
20
-146.590419905509
30
0
41
1
10
-27.0012443461773
20
-146.598143441855
30
0
41
1
10
-26.9944006791818
20
-146.605480947162
30
0
0
SPLINE
5
113
100
AcDbEntity
8
1
62
256
6
ByLayer
370
18
48
1
60
0
100
AcDbSpline
70
4
71
3
72
8
73
4
40
0
40
0
40
0
40
0
40
1
40
1
40
1
40
1
41
1
10
-26.3896616975714
20
-147.249519052839
30
0
41
1
10
-26.5920968692239
20
-147.035444295102
30
0
41
1
10
-26.7936362557855
20
-146.820732510838
30
0
41
1
10
-26.9944006791818
20
-146.605480947162
30
0
0
SPLINE
5
114
100
AcDbEntity
8
1
62
256
6
ByLayer
370
18
48
1
60
0
100
AcDbSpline
70
4
71
3
72
18
73
14
40
0
40
0
40
0
40
0
40
0.3878751128919
40
0.3878751128919
40
0.517088813125533
40
0.517088813125533
40
0.64827596726864
40
0.64827596726864
40
0.749027612593509
40
0.749027612593509
40
0.849375380090274
40
0.849375380090274
40
1
40
1
40
1
40
1
41
1
10
-26.4509079944295
20
-147.324519052838
30
0
41
1
10
-26.4299331431931
20
-147.324519052838
30
0
41
1
10
-26.4093063014958
20
-147.322812103568
30
0
41
1
10
-26.3872253810394
20
-147.314783338292
30
0
41
1
10
-26.3821048768915
20
-147.312208316518
30
0
41
1
10
-26.3737787532893
20
-147.305596081623
30
0
41
1
10
-26.3705338169737
20
-147.301424921335
30
0
41
1
10
-26.3678143440149
20
-147.292740375714
30
0
41
1
10
-26.3676379620862
20
-147.288433807546
30
0
41
1
10
-26.3693788760641
20
-147.279483864803
30
0
41
1
10
-26.371290301215
20
-147.274747436323
30
0
41
1
10
-26.3778427189344
20
-147.263113427226
30
0
41
1
10
-26.3834144624513
20
-147.256125490514
30
0
41
1
10
-26.3896616975714
20
-147.249519052839
30
0
0
SPLINE
5
115
100
AcDbEntity
8
1
62
256
6
ByLayer
370
18
48
1
60
0
100
AcDbSpline
70
4
71
3
72
10
73
6
40
0
40
0
40
0
40
0
40
0.842296853567613
40
0.842296853567613
40
1
40
1
40
1
40
1
41
1
10
-27.0661859175856
20
-147.249519052838
30
0
41
1
10
-26.9767517174097
20
-147.28490102886
30
0
41
1
10
-26.8838371376077
20
-147.312024633885
30
0
41
1
10
-26.7820086192984
20
-147.323410487088
30
0
41
1
10
-26.7659039149198
20
-147.324519052838
30
0
41
1
10
-26.7504320110874
20
-147.324519052838
30
0
0
SPLINE
5
116
100
AcDbEntity
8
1
62
256
6
ByLayer
370
18
48
1
60
0
100
AcDbSpline
70
4
71
3
72
8
73
4
40
0
40
0
40
0
40
0
40
1
40
1
40
1
40
1
41
1
10
-28.6004528336143
20
-146.605480947162
30
0
41
1
10
-28.0946070858578
20
-146.829850890991
30
0
41
1
10
-27.5831328208143
20
-147.045004416398
30
0
41
1
10
-27.0661859175856
20
-147.249519052838
30
0
0
SPLINE
5
117
100
AcDbEntity
8
1
62
256
6
ByLayer
370
18
48
1
60
0
100
AcDbSpline
70
4
71
3
72
22
73
18
40
0
40
0
40
0
40
0
40
0.0571852573474561
40
0.0571852573474561
40
0.115710261134176
40
0.115710261134176
40
0.16952752926431
40
0.16952752926431
40
0.217297973397504
40
0.217297973397504
40
0.297949952064243
40
0.297949952064243
40
0.442882075095696
40
0.442882075095696
40
0.741345888007471
40
0.741345888007471
40
1
40
1
40
1
40
1
41
1
10
-28.9455635333405
20
-146.605480947162
30
0
41
1
10
-28.9519701621816
20
-146.59802409176
30
0
41
1
10
-28.9577054363659
20
-146.590334163689
30
0
41
1
10
-28.9665994593998
20
-146.575063662895
30
0
41
1
10
-28.9697608876841
20
-146.567293303519
30
0
41
1
10
-28.9718622182803
20
-146.553879617983
30
0
41
1
10
-28.971120264066
20
-146.547952737921
30
0
41
1
10
-28.9667381863036
20
-146.538731735714
30
0
41
1
10
-28.9634187755225
20
-146.535092603637
30
0
41
1
10
-28.9524027949364
20
-146.527300727653
30
0
41
1
10
-28.9431558706786
20
-146.524294920066
30
0
41
1
10
-28.9149667243536
20
-146.519437132755
30
0
41
1
10
-28.8936477242798
20
-146.520094528665
30
0
41
1
10
-28.8268749190355
20
-146.527553567619
30
0
41
1
10
-28.7778542905474
20
-146.540137220967
30
0
41
1
10
-28.6864955149544
20
-146.569781443727
30
0
41
1
10
-28.6432901011642
20
-146.586480302486
30
0
41
1
10
-28.6004528336143
20
-146.605480947162
30
0
0
SPLINE
5
118
100
AcDbEntity
8
1
62
256
6
ByLayer
370
18
48
1
60
0
100
AcDbSpline
70
4
71
3
72
8
73
4
40
0
40
0
40
0
40
0
40
1
40
1
40
1
40
1
41
1
10
-28.9455635333405
20
-146.605480947162
30
0
41
1
10
-28.7609777658408
20
-146.820325510744
30
0
41
1
10
-28.5761467146534
20
-147.035012229887
30
0
41
1
10
-28.3910379589423
20
-147.249519052838
30
0
0
SPLINE
5
119
100
AcDbEntity
8
1
62
256
6
ByLayer
370
18
48
1
60
0
100
AcDbSpline
70
4
71
3
72
18
73
14
40
0
40
0
40
0
40
0
40
0.154882985873958
40
0.154882985873958
40
0.313613348810308
40
0.313613348810308
40
0.459394703340342
40
0.459394703340342
40
0.589209021920898
40
0.589209021920898
40
0.810232963237578
40
0.810232963237578
40
1
40
1
40
1
40
1
41
1
10
-28.3910379589424
20
-147.249519052838
30
0
41
1
10
-28.3854197777453
20
-147.256029486095
30
0
41
1
10
-28.3803878001216
20
-147.262748405922
30
0
41
1
10
-28.3725759257811
20
-147.276118583411
30
0
41
1
10
-28.3697977639253
20
-147.282936689051
30
0
41
1
10
-28.367950682101
20
-147.294718856367
30
0
41
1
10
-28.3685974697457
20
-147.299930991991
30
0
41
1
10
-28.3724190891044
20
-147.308075580323
30
0
41
1
10
-28.375320785831
20
-147.311304376132
30
0
41
1
10
-28.3849946171244
20
-147.318279787738
30
0
41
1
10
-28.3931492075107
20
-147.320997245183
30
0
41
1
10
-28.4097409137827
20
-147.323957295291
30
0
41
1
10
-28.4181195332779
20
-147.324519052838
30
0
41
1
10
-28.4268174255438
20
-147.324519052838
30
0
0
SPLINE
5
11A
100
AcDbEntity
8
1
62
256
6
ByLayer
370
18
48
1
60
0
100
AcDbSpline
70
4
71
3
72
10
73
6
40
0
40
0
40
0
40
0
40
0.416693857554253
40
0.416693857554253
40
1
40
1
40
1
40
1
41
1
10
-5.19956798891261
20
-147.324519052838
30
0
41
1
10
-5.15927963887069
20
-147.324519052838
30
0
41
1
10
-5.11510182412101
20
-147.317553411584
30
0
41
1
10
-5.0094119348945
20
-147.294118697613
30
0
41
1
10
-4.94608596212737
20
-147.274155066248
30
0
41
1
10
-4.8838140824144
20
-147.249519052838
30
0
0
SPLINE
5
11B
100
AcDbEntity
8
1
62
256
6
ByLayer
370
18
48
1
60
0
100
AcDbSpline
70
4
71
3
72
8
73
4
40
0
40
0
40
0
40
0
40
1
40
1
40
1
40
1
41
1
10
-4.8838140824144
20
-147.249519052838
30
0
41
1
10
-4.36686717918565
20
-147.045004416398
30
0
41
1
10
-3.85539291414219
20
-146.829850890991
30
0
41
1
10
-3.34954716638563
20
-146.605480947162
30
0
0
SPLINE
5
11C
100
AcDbEntity
8
1
62
256
6
ByLayer
370
18
48
1
60
0
100
AcDbSpline
70
4
71
3
72
22
73
18
40
0
40
0
40
0
40
0
40
0.481133414250719
40
0.481133414250719
40
0.661728184309117
40
0.661728184309117
40
0.738447514201734
40
0.738447514201734
40
0.816527980381027
40
0.816527980381027
40
0.865348936116617
40
0.865348936116617
40
0.914278964637649
40
0.914278964637649
40
0.974711901717146
40
0.974711901717146
40
1
40
1
40
1
40
1
41
1
10
-3.34954716638563
20
-146.605480947162
30
0
41
1
10
-3.27065343746202
20
-146.570487312036
30
0
41
1
10
-3.18920809734621
20
-146.542063372572
30
0
41
1
10
-3.08597947016099
20
-146.52270390396
30
0
41
1
10
-3.05797043827838
20
-146.519426773468
30
0
41
1
10
-3.02285130455289
20
-146.521344728806
30
0
41
1
10
-3.01287071603301
20
-146.522808295168
30
0
41
1
10
-2.99554577447458
20
-146.528488686431
30
0
41
1
10
-2.98803210753647
20
-146.532876888473
30
0
41
1
10
-2.98063682665503
20
-146.543170361312
30
0
41
1
10
-2.97893464361917
20
-146.548018636001
30
0
41
1
10
-2.97849882558037
20
-146.558896267723
30
0
41
1
10
-2.97977059644322
20
-146.565058247897
30
0
41
1
10
-2.98535734765616
20
-146.579169768274
30
0
41
1
10
-2.99034391449859
20
-146.587399968887
30
0
41
1
10
-2.99885091510157
20
-146.59877843762
30
0
41
1
10
-3.00157215015409
20
-146.602147088664
30
0
41
1
10
-3.00443646665951
20
-146.605480947162
30
0
0
SPLINE
5
11D
100
AcDbEntity
8
1
62
256
6
ByLayer
370
18
48
1
60
0
100
AcDbSpline
70
4
71
3
72
8
73
4
40
0
40
0
40
0
40
0
40
1
40
1
40
1
40
1
41
1
10
-3.55896204105761
20
-147.249519052838
30
0
41
1
10
-3.37385328534663
20
-147.035012229887
30
0
41
1
10
-3.18902223415918
20
-146.820325510744
30
0
41
1
10
-3.00443646665951
20
-146.605480947162
30
0
0
SPLINE
5
11E
100
AcDbEntity
8
1
62
256
6
ByLayer
370
18
48
1
60
0
100
AcDbSpline
70
4
71
3
72
18
73
14
40
0
40
0
40
0
40
0
40
0.282654704022524
40
0.282654704022524
40
0.457540982401087
40
0.457540982401087
40
0.597602713307069
40
0.597602713307069
40
0.738597766148265
40
0.738597766148265
40
0.868040085566284
40
0.868040085566284
40
1
40
1
40
1
40
1
41
1
10
-3.52318257445617
20
-147.324519052838
30
0
41
1
10
-3.536056009183
20
-147.324519052838
30
0
41
1
10
-3.54834470857378
20
-147.323308138613
30
0
41
1
10
-3.56491407571943
20
-147.317913377572
30
0
41
1
10
-3.57054290674881
20
-147.314967577832
30
0
41
1
10
-3.57789543461632
20
-147.307657957068
30
0
41
1
10
-3.58020616932191
20
-147.303599780616
30
0
41
1
10
-3.58202172165662
20
-147.294168899075
30
0
41
1
10
-3.58150869931799
20
-147.288657394744
30
0
41
1
10
-3.57800868367394
20
-147.277617022846
30
0
41
1
10
-3.57521726816935
20
-147.272011752614
30
0
41
1
10
-3.56813098136141
20
-147.260790576339
30
0
41
1
10
-3.56376496388748
20
-147.255084752382
30
0
41
1
10
-3.55896204105761
20
-147.249519052838
30
0
0
SPLINE
5
11F
100
AcDbEntity
8
1
62
256
6
ByLayer
370
18
48
1
60
0
100
AcDbSpline
70
4
71
3
72
10
73
6
40
0
40
0
40
0
40
0
40
0.71133222552512
40
0.71133222552512
40
1
40
1
40
1
40
1
41
1
10
-3.03971551393545
20
-147.249519052838
30
0
41
1
10
-3.10146135698133
20
-147.278916629125
30
0
41
1
10
-3.16511831729665
20
-147.302659541941
30
0
41
1
10
-3.24856511378681
20
-147.320963195996
30
0
41
1
10
-3.27249487861792
20
-147.324519052838
30
0
41
1
10
-3.29403686093824
20
-147.324519052838
30
0
0
SPLINE
5
120
100
AcDbEntity
8
1
62
256
6
ByLayer
370
18
48
1
60
0
100
AcDbSpline
70
4
71
3
72
8
73
4
40
0
40
0
40
0
40
0
40
1
40
1
40
1
40
1
41
1
10
-1.74145749612023
20
-146.605480947162
30
0
41
1
10
-2.16995233532106
20
-146.826473068297
30
0
41
1
10
-2.60268231126381
20
-147.041444852511
30
0
41
1
10
-3.03971551393545
20
-147.249519052838
30
0
0
SPLINE
5
121
100
AcDbEntity
8
1
62
256
6
ByLayer
370
18
48
1
60
0
100
AcDbSpline
70
4
71
3
72
22
73
18
40
0
40
0
40
0
40
0
40
0.0708193351687429
40
0.0708193351687429
40
0.14322181460298
40
0.14322181460298
40
0.208570731427121
40
0.208570731427121
40
0.267155103326002
40
0.267155103326002
40
0.363013224487878
40
0.363013224487878
40
0.526621603937625
40
0.526621603937625
40
0.831269307166951
40
0.831269307166951
40
1
40
1
40
1
40
1
41
1
10
-1.46487093729027
20
-146.605480947162
30
0
41
1
10
-1.45782178774778
20
-146.596964236727
30
0
41
1
10
-1.45152941007666
20
-146.588255236378
30
0
41
1
10
-1.44184247711857
20
-146.571258388155
30
0
41
1
10
-1.43843894718543
20
-146.562762447908
30
0
41
1
10
-1.43628621723306
20
-146.548622137488
30
0
41
1
10
-1.43711355422047
20
-146.542609610641
30
0
41
1
10
-1.44185154497691
20
-146.533540715908
30
0
41
1
10
-1.44545359792485
20
-146.530117499889
30
0
41
1
10
-1.45720230443246
20
-146.523388111107
30
0
41
1
10
-1.46690834496937
20
-146.521338965574
30
0
41
1
10
-1.49562338766003
20
-146.519625537741
30
0
41
1
10
-1.51688399797052
20
-146.522447446163
30
0
41
1
10
-1.57932291688843
20
-146.535988569934
30
0
41
1
10
-1.62352067157232
20
-146.551623518974
30
0
41
1
10
-1.69203609022009
20
-146.581042064135
30
0
41
1
10
-1.71680235424338
20
-146.592765293199
30
0
41
1
10
-1.74145749612023
20
-146.605480947162
30
0
0
SPLINE
5
122
100
AcDbEntity
8
1
62
256
6
ByLayer
370
18
48
1
60
0
100
AcDbSpline
70
4
71
3
72
10
73
6
40
0
40
0
40
0
40
0
40
0.360636941215488
40
0.360636941215488
40
1
40
1
40
1
40
1
41
1
10
-28.6559631390618
20
-147.324519052838
30
0
41
1
10
-28.682747916851
20
-147.324519052838
30
0
41
1
10
-28.7131301748477
20
-147.319123711047
30
0
41
1
10
-28.7976958129149
20
-147.297705058978
30
0
41
1
10
-28.8546592111922
20
-147.276002588909
30
0
41
1
10
-28.9102844860645
20
-147.249519052838
30
0
0
SPLINE
5
123
100
AcDbEntity
8
1
62
256
6
ByLayer
370
18
48
1
60
0
100
AcDbSpline
70
4
71
3
72
8
73
4
40
0
40
0
40
0
40
0
40
1
40
1
40
1
40
1
41
1
10
-28.9102844860645
20
-147.249519052838
30
0
41
1
10
-29.3473176887362
20
-147.041444852511
30
0
41
1
10
-29.7800476646789
20
-146.826473068297
30
0
41
1
10
-30.2085425038797
20
-146.605480947162
30
0
0
SPLINE
5
124
100
AcDbEntity
8
1
62
256
6
ByLayer
370
18
48
1
60
0
100
AcDbSpline
70
4
71
3
72
22
73
18
40
0
40
0
40
0
40
0
40
0.337688213042433
40
0.337688213042433
40
0.50022470626263
40
0.50022470626263
40
0.664908265083854
40
0.664908265083854
40
0.73967429423563
40
0.73967429423563
40
0.815640795318365
40
0.815640795318365
40
0.882281495746988
40
0.882281495746988
40
0.940763861402224
40
0.940763861402224
40
1
40
1
40
1
40
1
41
1
10
-30.2085425038797
20
-146.605480947162
30
0
41
1
10
-30.2575578394368
20
-146.580201755951
30
0
41
1
10
-30.3073759218771
20
-146.558534979545
30
0
41
1
10
-30.3778826233318
20
-146.535263446548
30
0
41
1
10
-30.400575993979
20
-146.529022115721
30
0
41
1
10
-30.4435842520293
20
-146.5209782198
30
0
41
1
10
-30.4644617622571
20
-146.519064196727
30
0
41
1
10
-30.4891427333173
20
-146.52279409253
30
0
41
1
10
-30.4961433827406
20
-146.524964850489
30
0
41
1
10
-30.5070483856028
20
-146.531998640974
30
0
41
1
10
-30.510995568603
20
-146.537058928294
30
0
41
1
10
-30.5137447572211
20
-146.549145443994
30
0
41
1
10
-30.5131225322845
20
-146.55603076971
30
0
41
1
10
-30.5086503828643
20
-146.569887139114
30
0
41
1
10
-30.5051889510883
20
-146.576890169331
30
0
41
1
10
-30.4964290254413
20
-146.591050994781
30
0
41
1
10
-30.49105181831
20
-146.598325134376
30
0
41
1
10
-30.4851290627097
20
-146.605480947162
30
0
0
SPLINE
5
125
100
AcDbEntity
8
1
62
256
6
ByLayer
370
18
48
1
60
0
100
AcDbSpline
70
4
71
3
72
22
73
18
40
0
40
0
40
0
40
0
40
0.137825231492908
40
0.137825231492908
40
0.246487607657851
40
0.246487607657851
40
0.356337041769867
40
0.356337041769867
40
0.450470869971598
40
0.450470869971598
40
0.546721439056959
40
0.546721439056959
40
0.700338466442236
40
0.700338466442236
40
0.924788143672339
40
0.924788143672339
40
1
40
1
40
1
40
1
41
1
10
-34.8054402666758
20
-146.605480947162
30
0
41
1
10
-34.8169303901408
20
-146.592239519713
30
0
41
1
10
-34.8275368348884
20
-146.579152393554
30
0
41
1
10
-34.842747883111
20
-146.55802037361
30
0
41
1
10
-34.848261667842
20
-146.549308548234
30
0
41
1
10
-34.8552827664015
20
-146.534920176332
30
0
41
1
10
-34.8568003732451
20
-146.529100137142
30
0
41
1
10
-34.8552603478227
20
-146.522316660266
30
0
41
1
10
-34.8528203216572
20
-146.520682284391
30
0
41
1
10
-34.8451453332328
20
-146.520311348147
30
0
41
1
10
-34.8397887767228
20
-146.521609979462
30
0
41
1
10
-34.8236158496655
20
-146.527846305619
30
0
41
1
10
-34.8112182318242
20
-146.534527438921
30
0
41
1
10
-34.7785156710145
20
-146.554731828827
30
0
41
1
10
-34.7565868769859
20
-146.570315504987
30
0
41
1
10
-34.7267247013709
20
-146.593263739252
30
0
41
1
10
-34.7190763531333
20
-146.599287023225
30
0
41
1
10
-34.7113843093967
20
-146.605480947162
30
0
0
SPLINE
5
126
100
AcDbEntity
8
1
62
256
6
ByLayer
370
18
48
1
60
0
100
AcDbSpline
70
4
71
3
72
8
73
4
40
0
40
0
40
0
40
0
40
1
40
1
40
1
40
1
41
1
10
-34.8054402666758
20
-146.605480947162
30
0
41
1
10
-34.6190363516661
20
-146.820296212147
30
0
41
1
10
-34.4324297853245
20
-147.034979723573
30
0
41
1
10
-34.2456026319897
20
-147.249519052838
30
0
0
SPLINE
5
127
100
AcDbEntity
8
1
62
256
6
ByLayer
370
18
48
1
60
0
100
AcDbSpline
70
4
71
3
72
14
73
10
40
0
40
0
40
0
40
0
40
0.305509628639246
40
0.305509628639246
40
0.546065284126994
40
0.546065284126994
40
0.78922139216883
40
0.78922139216883
40
1
40
1
40
1
40
1
41
1
10
-34.2456026319897
20
-147.249519052838
30
0
41
1
10
-34.2353081001366
20
-147.261340578347
30
0
41
1
10
-34.2257961182203
20
-147.27301332649
30
0
41
1
10
-34.2121285776857
20
-147.29180038519
30
0
41
1
10
-34.2071605011902
20
-147.299521396685
30
0
41
1
10
-34.2007605397231
20
-147.31221442738
30
0
41
1
10
-34.199314708655
20
-147.317312071737
30
0
41
1
10
-34.2004857912695
20
-147.323179592613
30
0
41
1
10
-34.202590393035
20
-147.324519052838
30
0
41
1
10
-34.2059190812484
20
-147.324519052838
30
0
0
SPLINE
5
128
100
AcDbEntity
8
1
62
256
6
ByLayer
370
18
48
1
60
0
100
AcDbSpline
70
4
71
3
72
22
73
18
40
0
40
0
40
0
40
0
40
0.265005187500774
40
0.265005187500774
40
0.416379716785905
40
0.416379716785905
40
0.536021897926783
40
0.536021897926783
40
0.633455798069172
40
0.633455798069172
40
0.731293822963076
40
0.731293822963076
40
0.823875907363899
40
0.823875907363899
40
0.95665683416008
40
0.95665683416008
40
1
40
1
40
1
40
1
41
1
10
2.76138430939668
20
-146.605480947162
30
0
41
1
10
2.78812305581044
20
-146.583949899352
30
0
41
1
10
2.81477362650415
20
-146.564120777783
30
0
41
1
10
2.85205067641621
20
-146.539916041284
30
0
41
1
10
2.86492934073763
20
-146.532404635454
30
0
41
1
10
2.88437275234705
20
-146.523339959073
30
0
41
1
10
2.89185181725622
20
-146.520817864147
30
0
41
1
10
2.90152220217649
20
-146.520264149502
30
0
41
1
10
2.90450283099642
20
-146.521515472309
30
0
41
1
10
2.90679586906154
20
-146.527286774284
30
0
41
1
10
2.90610807825672
20
-146.531908999606
30
0
41
1
10
2.90144288796071
20
-146.543375436361
30
0
41
1
10
2.89761390920904
20
-146.550201630172
30
0
41
1
10
2.88573127074238
20
-146.568299001083
30
0
41
1
10
2.87642044170806
20
-146.580483691133
30
0
41
1
10
2.86264538581389
20
-146.597091210392
30
0
41
1
10
2.85909388081393
20
-146.601270455718
30
0
41
1
10
2.85544026667586
20
-146.605480947162
30
0
0
SPLINE
5
129
100
AcDbEntity
8
1
62
256
6
ByLayer
370
18
48
1
60
0
100
AcDbSpline
70
4
71
3
72
8
73
4
40
0
40
0
40
0
40
0
40
1
40
1
40
1
40
1
41
1
10
2.29560263198968
20
-147.249519052838
30
0
41
1
10
2.48242978532451
20
-147.034979723573
30
0
41
1
10
2.66903635166614
20
-146.820296212147
30
0
41
1
10
2.85544026667586
20
-146.605480947162
30
0
0
SPLINE
5
12A
100
AcDbEntity
8
1
62
256
6
ByLayer
370
18
48
1
60
0
100
AcDbSpline
70
4
71
3
72
16
73
12
40
0
40
0
40
0
40
0
40
0.211177093201195
40
0.211177093201195
40
0.424152508713982
40
0.424152508713982
40
0.630659341530172
40
0.630659341530172
40
0.932983412752352
40
0.932983412752352
40
1
40
1
40
1
40
1
41
1
10
2.25591908124844
20
-147.324519052838
30
0
41
1
10
2.25258975815353
20
-147.324519052838
30
0
41
1
10
2.25048499985263
20
-147.323179058651
30
0
41
1
10
2.24939110138825
20
-147.317691365354
30
0
41
1
10
2.25042264694062
20
-147.313443038404
30
0
41
1
10
2.25523303201146
20
-147.302992298932
30
0
41
1
10
2.25896199238423
20
-147.296749465999
30
0
41
1
10
2.27035129332577
20
-147.280089208321
30
0
41
1
10
2.27917851298642
20
-147.268825441602
30
0
41
1
10
2.29108849306536
20
-147.254739057418
30
0
41
1
10
2.29332334294668
20
-147.252136430097
30
0
41
1
10
2.29560263198968
20
-147.249519052838
30
0
0
SPLINE
5
12B
100
AcDbEntity
8
1
62
256
6
ByLayer
370
18
48
1
60
0
100
AcDbSpline
70
4
71
3
72
14
73
10
40
0
40
0
40
0
40
0
40
0.385940089180864
40
0.385940089180864
40
0.695861319107733
40
0.695861319107733
40
0.932015818458971
40
0.932015818458971
40
1
40
1
40
1
40
1
41
1
10
2.4278438779788
20
-147.249519052838
30
0
41
1
10
2.40979177854686
20
-147.264638229234
30
0
41
1
10
2.39193755433101
20
-147.278777297407
30
0
41
1
10
2.36223200222543
20
-147.300382587583
30
0
41
1
10
2.34962773997128
20
-147.308797774817
30
0
41
1
10
2.33073332971045
20
-147.319445641483
30
0
41
1
10
2.32349937858279
20
-147.322741611483
30
0
41
1
10
2.31663026225826
20
-147.324331822423
30
0
41
1
10
2.31523380777676
20
-147.324519052838
30
0
41
1
10
2.31401781907112
20
-147.324519052838
30
0
0
SPLINE
5
12C
100
AcDbEntity
8
1
62
256
6
ByLayer
370
18
48
1
60
0
100
AcDbSpline
70
4
71
3
72
8
73
4
40
0
40
0
40
0
40
0
40
1
40
1
40
1
40
1
41
1
10
3.18860534829855
20
-146.605480947162
30
0
41
1
10
2.93631287572882
20
-146.821301351801
30
0
41
1
10
2.68275753692589
20
-147.036021194051
30
0
41
1
10
2.4278438779788
20
-147.249519052838
30
0
0
SPLINE
5
12D
100
AcDbEntity
8
1
62
256
6
ByLayer
370
18
48
1
60
0
100
AcDbSpline
70
4
71
3
72
22
73
18
40
0
40
0
40
0
40
0
40
0.151432375050701
40
0.151432375050701
40
0.266843088744505
40
0.266843088744505
40
0.383635276083371
40
0.383635276083371
40
0.482515351431477
40
0.482515351431477
40
0.580873348613481
40
0.580873348613481
40
0.732042385124993
40
0.732042385124993
40
0.94839079594751
40
0.94839079594751
40
1
40
1
40
1
40
1
41
1
10
3.25762352568984
20
-146.605480947162
30
0
41
1
10
3.27028347655778
20
-146.591329801739
30
0
41
1
10
3.2820875912218
20
-146.577437832879
30
0
41
1
10
3.29901951585467
20
-146.55564370999
30
0
41
1
10
3.30519702531902
20
-146.546915683514
30
0
41
1
10
3.3135251092788
20
-146.532747933758
30
0
41
1
10
3.31569990985256
20
-146.527175148753
30
0
41
1
10
3.31511723813207
20
-146.521243686718
30
0
41
1
10
3.31306459581648
20
-146.520135473293
30
0
41
1
10
3.30605791483177
20
-146.521020873978
30
0
41
1
10
3.30106498122476
20
-146.522982127583
30
0
41
1
10
3.28606315905512
20
-146.530777580001
30
0
41
1
10
3.27459309618408
20
-146.538195974924
30
0
41
1
10
3.24445878190954
20
-146.559670461393
30
0
41
1
10
3.22427912582597
20
-146.575559711681
30
0
41
1
10
3.19868204989871
20
-146.596912746354
30
0
41
1
10
3.19365909140322
20
-146.601157786543
30
0
41
1
10
3.18860534829855
20
-146.605480947162
30
0
0
SPLINE
5
12E
100
AcDbEntity
8
1
62
256
6
ByLayer
370
18
48
1
60
0
100
AcDbSpline
70
4
71
3
72
8
73
4
40
0
40
0
40
0
40
0
40
1
40
1
40
1
40
1
41
1
10
3.25762352568984
20
-146.605480947162
30
0
41
1
10
3.06538029268253
20
-146.82036819081
30
0
41
1
10
2.87283628641552
20
-147.035053924102
30
0
41
1
10
2.6799655818256
20
-147.249519052838
30
0
0
SPLINE
5
12F
100
AcDbEntity
8
1
62
256
6
ByLayer
370
18
48
1
60
0
100
AcDbSpline
70
4
71
3
72
14
73
10
40
0
40
0
40
0
40
0
40
0.328194561394222
40
0.328194561394222
40
0.577824992382611
40
0.577824992382611
40
0.830431338446005
40
0.830431338446005
40
1
40
1
40
1
40
1
41
1
10
2.6799655818256
20
-147.249519052838
30
0
41
1
10
2.66858091859652
20
-147.262178379563
30
0
41
1
10
2.65795089628139
20
-147.274589597082
30
0
41
1
10
2.64266507109667
20
-147.29397618468
30
0
41
1
10
2.63706986069232
20
-147.301707838293
30
0
41
1
10
2.62943224247499
20
-147.314183507386
30
0
41
1
10
2.62736230316199
20
-147.319043189744
30
0
41
1
10
2.62759227281404
20
-147.323601053795
30
0
41
1
10
2.62867555524926
20
-147.324519052838
30
0
41
1
10
2.63063139047838
20
-147.324519052838
30
0
0
SPLINE
5
130
100
AcDbEntity
8
1
62
256
6
ByLayer
370
18
48
1
60
0
100
AcDbSpline
70
4
71
3
72
12
73
8
40
0
40
0
40
0
40
0
40
0.24884331679593
40
0.24884331679593
40
0.5623951443126
40
0.5623951443126
40
1
40
1
40
1
40
1
41
1
10
-34.2640178190711
20
-147.324519052838
30
0
41
1
10
-34.2684103976208
20
-147.324519052838
30
0
41
1
10
-34.2752391031356
20
-147.32201594684
30
0
41
1
10
-34.293432702999
20
-147.312654810938
30
0
41
1
10
-34.3057979265617
20
-147.304738999027
30
0
41
1
10
-34.3371464163441
20
-147.282559501283
30
0
41
1
10
-34.3573979746955
20
-147.26664311198
30
0
41
1
10
-34.3778438779788
20
-147.249519052838
30
0
0
SPLINE
5
131
100
AcDbEntity
8
1
62
256
6
ByLayer
370
18
48
1
60
0
100
AcDbSpline
70
4
71
3
72
8
73
4
40
0
40
0
40
0
40
0
40
1
40
1
40
1
40
1
41
1
10
-34.3778438779788
20
-147.249519052838
30
0
41
1
10
-34.6327575369259
20
-147.036021194051
30
0
41
1
10
-34.8863128757288
20
-146.821301351801
30
0
41
1
10
-35.1386053482985
20
-146.605480947162
30
0
0
SPLINE
5
132
100
AcDbEntity
8
1
62
256
6
ByLayer
370
18
48
1
60
0
100
AcDbSpline
70
4
71
3
72
22
73
18
40
0
40
0
40
0
40
0
40
0.209099810724508
40
0.209099810724508
40
0.368098244491121
40
0.368098244491121
40
0.490800259225625
40
0.490800259225625
40
0.591962235885024
40
0.591962235885024
40
0.693535169780317
40
0.693535169780317
40
0.789667112393382
40
0.789667112393382
40
0.92572944819683
40
0.92572944819683
40
1
40
1
40
1
40
1
41
1
10
-35.1386053482985
20
-146.605480947162
30
0
41
1
10
-35.1588785139197
20
-146.588138524048
30
0
41
1
10
-35.178873053055
20
-146.571867435399
30
0
41
1
10
-35.2109728248175
20
-146.547653298028
30
0
41
1
10
-35.2240928397871
20
-146.538453526653
30
0
41
1
10
-35.2436134028757
20
-146.526586754551
30
0
41
1
10
-35.2510207410466
20
-146.522830766603
30
0
41
1
10
-35.2606844288162
20
-146.520010179686
30
0
41
1
10
-35.2636847830715
20
-146.52024264168
30
0
41
1
10
-35.2660113884347
20
-146.524152787588
30
0
41
1
10
-35.26533866695
20
-146.527909440886
30
0
41
1
10
-35.2606881619575
20
-146.537970681453
30
0
41
1
10
-35.2568579529334
20
-146.544226149355
30
0
41
1
10
-35.2450331585571
20
-146.561126021055
30
0
41
1
10
-35.2358242234181
20
-146.572758834352
30
0
41
1
10
-35.2199160645661
20
-146.591571214702
30
0
41
1
10
-35.2138889958155
20
-146.598477477732
30
0
41
1
10
-35.2076235256898
20
-146.605480947162
30
0
0
SPLINE
5
133
100
AcDbEntity
8
1
62
256
6
ByLayer
370
18
48
1
60
0
100
AcDbSpline
70
4
71
3
72
8
73
4
40
0
40
0
40
0
40
0
40
1
40
1
40
1
40
1
41
1
10
-34.6299655818255
20
-147.249519052838
30
0
41
1
10
-34.8228362864155
20
-147.035053924102
30
0
41
1
10
-35.0153802926825
20
-146.82036819081
30
0
41
1
10
-35.2076235256898
20
-146.605480947162
30
0
0
SPLINE
5
134
100
AcDbEntity
8
1
62
256
6
ByLayer
370
18
48
1
60
0
100
AcDbSpline
70
4
71
3
72
14
73
10
40
0
40
0
40
0
40
0
40
0.213782059751625
40
0.213782059751625
40
0.428635955509348
40
0.428635955509348
40
0.64298499849951
40
0.64298499849951
40
1
40
1
40
1
40
1
41
1
10
-34.5806313904784
20
-147.324519052838
30
0
41
1
10
-34.5781808290323
20
-147.324519052838
30
0
41
1
10
-34.5771160161199
20
-147.323053726144
30
0
41
1
10
-34.5781215748542
20
-147.317258060443
30
0
41
1
10
-34.5802156121408
20
-147.312844247218
30
0
41
1
10
-34.5869272796001
20
-147.302006214036
30
0
41
1
10
-34.5915931049799
20
-147.295482168273
30
0
41
1
10
-34.6061213357361
20
-147.276731727946
30
0
41
1
10
-34.6176122909641
20
-147.263255457859
30
0
41
1
10
-34.6299655818255
20
-147.249519052838
30
0
0
SPLINE
5
135
100
AcDbEntity
8
1
62
256
6
ByLayer
370
18
48
1
60
0
100
AcDbSpline
70
4
71
3
72
14
73
10
40
0
40
0
40
0
40
0
40
0.400925868474467
40
0.400925868474467
40
0.692758988367417
40
0.692758988367417
40
0.920580474433082
40
0.920580474433082
40
1
40
1
40
1
40
1
41
1
10
-34.7225823101069
20
-147.249519052838
30
0
41
1
10
-34.7050189406039
20
-147.265119324062
30
0
41
1
10
-34.6877725712325
20
-147.279802523193
30
0
41
1
10
-34.6609867508046
20
-147.301093615854
30
0
41
1
10
-34.6504020616208
20
-147.30898057414
30
0
41
1
10
-34.6348165778076
20
-147.319202143119
30
0
41
1
10
-34.6289759222058
20
-147.322442616134
30
0
41
1
10
-34.6235025879696
20
-147.324270931441
30
0
41
1
10
-34.622287057717
20
-147.324519052838
30
0
41
1
10
-34.6213150218743
20
-147.324519052838
30
0
0
SPLINE
5
136
100
AcDbEntity
8
1
62
256
6
ByLayer
370
18
48
1
60
0
100
AcDbSpline
70
4
71
3
72
8
73
4
40
0
40
0
40
0
40
0
40
1
40
1
40
1
40
1
41
1
10
-35.4412642256101
20
-146.605480947162
30
0
41
1
10
-35.2027726494581
20
-146.821051195578
30
0
41
1
10
-34.9632390248954
20
-147.035761093584
30
0
41
1
10
-34.7225823101069
20
-147.249519052838
30
0
0
SPLINE
5
137
100
AcDbEntity
8
1
62
256
6
ByLayer
370
18
48
1
60
0
100
AcDbSpline
70
4
71
3
72
22
73
18
40
0
40
0
40
0
40
0
40
0.165397808395823
40
0.165397808395823
40
0.287114270097884
40
0.287114270097884
40
0.390046220791773
40
0.390046220791773
40
0.493325364864268
40
0.493325364864268
40
0.592026686883217
40
0.592026686883217
40
0.732430714250964
40
0.732430714250964
40
0.929124359629524
40
0.929124359629524
40
1
40
1
40
1
40
1
41
1
10
-35.4865897539126
20
-146.605480947162
30
0
41
1
10
-35.5005500048707
20
-146.590408631922
30
0
41
1
10
-35.5136997916816
20
-146.575716500165
30
0
41
1
10
-35.532559681234
20
-146.553342539732
30
0
41
1
10
-35.539463684592
20
-146.544647001733
30
0
41
1
10
-35.5484521087441
20
-146.531901413017
30
0
41
1
10
-35.5511807576562
20
-146.52723273435
30
0
41
1
10
-35.5529962199811
20
-146.521364897641
30
0
41
1
10
-35.5520828015785
20
-146.520111921682
30
0
41
1
10
-35.5470304297461
20
-146.521028495875
30
0
41
1
10
-35.5429999107008
20
-146.523036732226
30
0
41
1
10
-35.5306953717606
20
-146.530750909523
30
0
41
1
10
-35.5211925506294
20
-146.53773425193
30
0
41
1
10
-35.4959361566711
20
-146.557665227651
30
0
41
1
10
-35.4787790520886
20
-146.572190646637
30
0
41
1
10
-35.4545362928009
20
-146.593555268113
30
0
41
1
10
-35.4479374517028
20
-146.599449082096
30
0
41
1
10
-35.4412642256101
20
-146.605480947162
30
0
0
SPLINE
5
138
100
AcDbEntity
8
1
62
256
6
ByLayer
370
18
48
1
60
0
100
AcDbSpline
70
4
71
3
72
8
73
4
40
0
40
0
40
0
40
0
40
1
40
1
40
1
40
1
41
1
10
-35.4865897539126
20
-146.605480947162
30
0
41
1
10
-35.2874759280324
20
-146.820456047621
30
0
41
1
10
-35.0879487436608
20
-147.035144581539
30
0
41
1
10
-34.8879733564589
20
-147.249519052838
30
0
0
SPLINE
5
139
100
AcDbEntity
8
1
62
256
6
ByLayer
370
18
48
1
60
0
100
AcDbSpline
70
4
71
3
72
14
73
10
40
0
40
0
40
0
40
0
40
0.350897450757493
40
0.350897450757493
40
0.608429621392801
40
0.608429621392801
40
0.826048771712851
40
0.826048771712851
40
1
40
1
40
1
40
1
41
1
10
-34.8879733564589
20
-147.249519052838
30
0
41
1
10
-34.8753707616735
20
-147.263029088408
30
0
41
1
10
-34.8634778289146
20
-147.276175385359
30
0
41
1
10
-34.8463689315486
20
-147.296084091145
30
0
41
1
10
-34.8400837935215
20
-147.303780572762
30
0
41
1
10
-34.8317982029504
20
-147.314972806392
30
0
41
1
10
-34.8292229211309
20
-147.319029631846
30
0
41
1
10
-34.827492564192
20
-147.32350043298
30
0
41
1
10
-34.8277420513722
20
-147.324519052838
30
0
41
1
10
-34.828981763269
20
-147.324519052838
30
0
0
SPLINE
5
13A
100
AcDbEntity
8
1
62
256
6
ByLayer
370
18
48
1
60
0
100
AcDbSpline
70
4
71
3
72
14
73
10
40
0
40
0
40
0
40
0
40
0.241093031535534
40
0.241093031535534
40
0.480022209659068
40
0.480022209659068
40
0.866723788928686
40
0.866723788928686
40
1
40
1
40
1
40
1
41
1
10
2.67131502187434
20
-147.324519052838
30
0
41
1
10
2.67422126049988
20
-147.324519052838
30
0
41
1
10
2.67938581695435
20
-147.322234521117
30
0
41
1
10
2.69233096913447
20
-147.314490772097
30
0
41
1
10
2.70022941638564
20
-147.308993734154
30
0
41
1
10
2.72264717667574
20
-147.29215190691
30
0
41
1
10
2.7386244502261
20
-147.279034077289
30
0
41
1
10
2.76084388113898
20
-147.259873847509
30
0
41
1
10
2.76668433461813
20
-147.254757798017
30
0
41
1
10
2.77258231010694
20
-147.249519052838
30
0
0
SPLINE
5
13B
100
AcDbEntity
8
1
62
256
6
ByLayer
370
18
48
1
60
0
100
AcDbSpline
70
4
71
3
72
8
73
4
40
0
40
0
40
0
40
0
40
1
40
1
40
1
40
1
41
1
10
2.77258231010694
20
-147.249519052838
30
0
41
1
10
3.01323902489546
20
-147.035761093584
30
0
41
1
10
3.25277264945811
20
-146.821051195578
30
0
41
1
10
3.49126422561011
20
-146.605480947162
30
0
0
SPLINE
5
13C
100
AcDbEntity
8
1
62
256
6
ByLayer
370
18
48
1
60
0
100
AcDbSpline
70
4
71
3
72
22
73
18
40
0
40
0
40
0
40
0
40
0.211967269698402
40
0.211967269698402
40
0.359260031787985
40
0.359260031787985
40
0.476724881005292
40
0.476724881005292
40
0.595527552580002
40
0.595527552580002
40
0.696389803564214
40
0.696389803564214
40
0.797604915499538
40
0.797604915499538
40
0.952238990589003
40
0.952238990589003
40
1
40
1
40
1
40
1
41
1
10
3.49126422561011
20
-146.605480947162
30
0
41
1
10
3.51101390025624
20
-146.587629405659
30
0
41
1
10
3.53035025359017
20
-146.570773702122
30
0
41
1
10
3.5594172510458
20
-146.546859554138
30
0
41
1
10
3.57051384476443
20
-146.53819756603
30
0
41
1
10
3.58676551149137
20
-146.526743714982
30
0
41
1
10
3.5927982618087
20
-146.52304005087
30
0
41
1
10
3.60081184263069
20
-146.519795782511
30
0
41
1
10
3.60281702405049
20
-146.52030631883
30
0
41
1
10
3.6019991219041
20
-146.525492215123
30
0
41
1
10
3.5998582517758
20
-146.529583542693
30
0
41
1
10
3.59270623581838
20
-146.54024239116
30
0
41
1
10
3.58762833956439
20
-146.546918228928
30
0
41
1
10
3.57248118216222
20
-146.565557229913
30
0
41
1
10
3.5609797447018
20
-146.578737504149
30
0
41
1
10
3.5446645766954
20
-146.596720978033
30
0
41
1
10
3.54066929549222
20
-146.601076432021
30
0
41
1
10
3.53658975391264
20
-146.605480947162
30
0
0
SPLINE
5
13D
100
AcDbEntity
8
1
62
256
6
ByLayer
370
18
48
1
60
0
100
AcDbSpline
70
4
71
3
72
8
73
4
40
0
40
0
40
0
40
0
40
1
40
1
40
1
40
1
41
1
10
2.93797335645891
20
-147.249519052838
30
0
41
1
10
3.13794874366081
20
-147.035144581539
30
0
41
1
10
3.33747592803243
20
-146.820456047621
30
0
41
1
10
3.53658975391264
20
-146.605480947162
30
0
0
SPLINE
5
13E
100
AcDbEntity
8
1
62
256
6
ByLayer
370
18
48
1
60
0
100
AcDbSpline
70
4
71
3
72
14
73
10
40
0
40
0
40
0
40
0
40
0.217728102709913
40
0.217728102709913
40
0.435813069216417
40
0.435813069216417
40
0.714829503047569
40
0.714829503047569
40
1
40
1
40
1
40
1
41
1
10
2.87898176326897
20
-147.324519052838
30
0
41
1
10
2.87743931996172
20
-147.324519052838
30
0
41
1
10
2.87745092795635
20
-147.32291655378
30
0
41
1
10
2.88058783054009
20
-147.316787880916
30
0
41
1
10
2.88374244681265
20
-147.31219362941
30
0
41
1
10
2.89349230570562
20
-147.299522329949
30
0
41
1
10
2.90091660573003
20
-147.290665014824
30
0
41
1
10
2.917900792794
20
-147.271300002256
30
0
41
1
10
2.92768328579564
20
-147.260550052647
30
0
41
1
10
2.93797335645891
20
-147.249519052838
30
0
0
SPLINE
5
13F
100
AcDbEntity
8
1
62
256
6
ByLayer
370
18
48
1
60
0
100
AcDbSpline
70
4
71
3
72
14
73
10
40
0
40
0
40
0
40
0
40
0.414493159996703
40
0.414493159996703
40
0.690217767088887
40
0.690217767088887
40
0.911378775221272
40
0.911378775221272
40
1
40
1
40
1
40
1
41
1
10
2.99284178949222
20
-147.249519052838
30
0
41
1
10
2.97573238755456
20
-147.265552507835
30
0
41
1
10
2.95907798843089
20
-147.280754520005
30
0
41
1
10
2.93496014986854
20
-147.301779823999
30
0
41
1
10
2.92609344248837
20
-147.309198893284
30
0
41
1
10
2.91334240574386
20
-147.319032885378
30
0
41
1
10
2.90871990410628
20
-147.322215400104
30
0
41
1
10
2.90461797667999
20
-147.324219997992
30
0
41
1
10
2.90370147040105
20
-147.324519052838
30
0
41
1
10
2.903081337987
20
-147.324519052838
30
0
0
SPLINE
5
140
100
AcDbEntity
8
1
62
256
6
ByLayer
370
18
48
1
60
0
100
AcDbSpline
70
4
71
3
72
8
73
4
40
0
40
0
40
0
40
0
40
1
40
1
40
1
40
1
41
1
10
3.6751174514861
20
-146.605480947162
30
0
41
1
10
3.44856675585896
20
-146.820852698475
30
0
41
1
10
3.22116412391824
20
-147.035555064671
30
0
41
1
10
2.99284178949225
20
-147.249519052838
30
0
0
SPLINE
5
141
100
AcDbEntity
8
1
62
256
6
ByLayer
370
18
48
1
60
0
100
AcDbSpline
70
4
71
3
72
12
73
8
40
0
40
0
40
0
40
0
40
0.434497512522681
40
0.434497512522681
40
0.742808732418606
40
0.742808732418606
40
1
40
1
40
1
40
1
41
1
10
3.69758147191311
20
-146.605480947162
30
0
41
1
10
3.7129983752757
20
-146.589466052029
30
0
41
1
10
3.72766848002004
20
-146.573971529225
30
0
41
1
10
3.74869132534278
20
-146.551095562893
30
0
41
1
10
3.7563866652024
20
-146.542479094904
30
0
41
1
10
3.76676706558772
20
-146.530174199182
30
0
41
1
10
3.77014861316005
20
-146.525805834278
30
0
41
1
10
3.7716713059171
20
-146.523248705091
30
0
0
SPLINE
5
142
100
AcDbEntity
8
1
62
256
6
ByLayer
370
18
48
1
60
0
100
AcDbSpline
70
4
71
3
72
16
73
12
40
0
40
0
40
0
40
0
40
0.0624870451598899
40
0.0624870451598899
40
0.257830907535564
40
0.257830907535564
40
0.524937284263167
40
0.524937284263167
40
0.893987630459072
40
0.893987630459072
40
1
40
1
40
1
40
1
41
1
10
3.77215374048967
20
-146.520492762267
30
0
41
1
10
3.77183675386428
20
-146.520482962488
30
0
41
1
10
3.77135797902389
20
-146.520634614363
30
0
41
1
10
3.76871377871714
20
-146.521935087785
30
0
41
1
10
3.76511512068959
20
-146.524513627172
30
0
41
1
10
3.75394752551995
20
-146.533423392253
30
0
41
1
10
3.74527056797885
20
-146.540881437828
30
0
41
1
10
3.72209088228988
20
-146.561518509054
30
0
41
1
10
3.70625270852528
20
-146.576116436945
30
0
41
1
10
3.68493687033074
20
-146.596169219869
30
0
41
1
10
3.68005582537745
20
-146.600786252976
30
0
41
1
10
3.6751174514861
20
-146.605480947162
30
0
0
SPLINE
5
143
100
AcDbEntity
8
1
62
256
6
ByLayer
370
18
48
1
60
0
100
AcDbSpline
70
4
71
3
72
8
73
4
40
0
40
0
40
0
40
0
40
1
40
1
40
1
40
1
41
1
10
3.69758147191311
20
-146.605480947162
30
0
41
1
10
3.49053072176753
20
-146.820562794195
30
0
41
1
10
3.28293869910161
20
-147.035254867133
30
0
41
1
10
3.07476066792319
20
-147.249519052838
30
0
0
SPLINE
5
144
100
AcDbEntity
8
1
62
256
6
ByLayer
370
18
48
1
60
0
100
AcDbSpline
70
4
71
3
72
14
73
10
40
0
40
0
40
0
40
0
40
0.437489216351458
40
0.437489216351458
40
0.685127049996843
40
0.685127049996843
40
0.93573927012546
40
0.93573927012546
40
1
40
1
40
1
40
1
41
1
10
3.07476066792319
20
-147.249519052838
30
0
41
1
10
3.05845328218245
20
-147.266303190468
30
0
41
1
10
3.04293756264903
20
-147.282501486987
30
0
41
1
10
3.02371654849665
20
-147.303089073877
30
0
41
1
10
3.01766952657889
20
-147.309705905512
30
0
41
1
10
3.00898601979253
20
-147.319613672304
30
0
41
1
10
3.00630377282687
20
-147.322970710019
30
0
41
1
10
3.00573347299107
20
-147.324373256919
30
0
41
1
10
3.00576005385358
20
-147.324519052838
30
0
41
1
10
3.00593088394257
20
-147.324519052838
30
0
0
SPLINE
5
145
100
AcDbEntity
8
1
62
256
6
ByLayer
370
18
48
1
60
0
100
AcDbSpline
70
4
71
3
72
14
73
10
40
0
40
0
40
0
40
0
40
0.233978145155287
40
0.233978145155287
40
0.466350384843478
40
0.466350384843478
40
0.822293866272277
40
0.822293866272277
40
1
40
1
40
1
40
1
41
1
10
-34.853081337987
20
-147.324519052838
30
0
41
1
10
-34.8546937012408
20
-147.324519052838
30
0
41
1
10
-34.8583865579891
20
-147.322429417426
30
0
41
1
10
-34.8685708876216
20
-147.315144858852
30
0
41
1
10
-34.8751456417212
20
-147.309910378849
30
0
41
1
10
-34.8937379591834
20
-147.294311686233
30
0
41
1
10
-34.9070854335942
20
-147.282469633427
30
0
41
1
10
-34.9281356734828
20
-147.263224529395
30
0
41
1
10
-34.9354266251746
20
-147.256467904926
30
0
41
1
10
-34.9428417894922
20
-147.249519052838
30
0
0
SPLINE
5
146
100
AcDbEntity
8
1
62
256
6
ByLayer
370
18
48
1
60
0
100
AcDbSpline
70
4
71
3
72
8
73
4
40
0
40
0
40
0
40
0
40
1
40
1
40
1
40
1
41
1
10
-34.9428417894922
20
-147.249519052838
30
0
41
1
10
-35.1711641239182
20
-147.035555064671
30
0
41
1
10
-35.3985667558589
20
-146.820852698475
30
0
41
1
10
-35.6251174514861
20
-146.605480947162
30
0
0
SPLINE
5
147
100
AcDbEntity
8
1
62
256
6
ByLayer
370
18
48
1
60
0
100
AcDbSpline
70
4
71
3
72
14
73
10
40
0
40
0
40
0
40
0
40
0.419235142673112
40
0.419235142673112
40
0.687261276466286
40
0.687261276466286
40
0.907667429199834
40
0.907667429199834
40
1
40
1
40
1
40
1
41
1
10
-35.6251174514861
20
-146.605480947162
30
0
41
1
10
-35.6443805012799
20
-146.587168415575
30
0
41
1
10
-35.6630753342532
20
-146.569751655451
30
0
41
1
10
-35.689328639222
20
-146.546097515321
30
0
41
1
10
-35.6986746018747
20
-146.53791765122
30
0
41
1
10
-35.7120360244132
20
-146.526860938704
30
0
41
1
10
-35.7168083076773
20
-146.523220353831
30
0
41
1
10
-35.7207903413499
20
-146.520856788166
30
0
41
1
10
-35.7216265947683
20
-146.520504755798
30
0
41
1
10
-35.7221136935369
20
-146.520500497828
30
0
0
SPLINE
5
148
100
AcDbEntity
8
1
62
256
6
ByLayer
370
18
48
1
60
0
100
AcDbSpline
70
4
71
3
72
16
73
12
40
0
40
0
40
0
40
0
40
0.0026727763821642
40
0.0026727763821642
40
0.239567025155471
40
0.239567025155471
40
0.487652014331831
40
0.487652014331831
40
0.876769056402444
40
0.876769056402444
40
1
40
1
40
1
40
1
41
1
10
-35.7220985661853
20
-146.522487496286
30
0
41
1
10
-35.7220864924977
20
-146.52251067814
30
0
41
1
10
-35.7220742071712
20
-146.522534063773
30
0
41
1
10
-35.7209485799663
20
-146.524658785627
30
0
41
1
10
-35.718159170431
20
-146.528399144857
30
0
41
1
10
-35.7098295049441
20
-146.538479617172
30
0
41
1
10
-35.70409564157
20
-146.545025429712
30
0
41
1
10
-35.6871680806077
20
-146.563760994729
30
0
41
1
10
-35.6744731950938
20
-146.577333650502
30
0
41
1
10
-35.6565742630418
20
-146.596117329441
30
0
41
1
10
-35.6521190746451
20
-146.600767339623
30
0
41
1
10
-35.6475814719131
20
-146.605480947162
30
0
0
SPLINE
5
149
100
AcDbEntity
8
1
62
256
6
ByLayer
370
18
48
1
60
0
100
AcDbSpline
70
4
71
3
72
8
73
4
40
0
40
0
40
0
40
0
40
1
40
1
40
1
40
1
41
1
10
-35.0247606679231
20
-147.249519052838
30
0
41
1
10
-35.2329386991016
20
-147.035254867133
30
0
41
1
10
-35.4405307217675
20
-146.820562794195
30
0
41
1
10
-35.6475814719131
20
-146.605480947162
30
0
0
SPLINE
5
14A
100
AcDbEntity
8
1
62
256
6
ByLayer
370
18
48
1
60
0
100
AcDbSpline
70
4
71
3
72
14
73
10
40
0
40
0
40
0
40
0
40
0.222384414303788
40
0.222384414303788
40
0.444432521340798
40
0.444432521340798
40
0.746908524457866
40
0.746908524457866
40
1
40
1
40
1
40
1
41
1
10
-34.9559308839425
20
-147.324519052838
30
0
41
1
10
-34.9553510869105
20
-147.324519052838
30
0
41
1
10
-34.9564984296376
20
-147.322767631058
30
0
41
1
10
-34.9618427404739
20
-147.316282303791
30
0
41
1
10
-34.966079755079
20
-147.311493197115
30
0
41
1
10
-34.9784438156575
20
-147.297956121575
30
0
41
1
10
-34.9875865338411
20
-147.288218376929
30
0
41
1
10
-35.0060309804533
20
-147.268873162814
30
0
41
1
10
-35.0152219839375
20
-147.259336603448
30
0
41
1
10
-35.0247606679231
20
-147.249519052838
30
0
0
SPLINE
5
14B
100
AcDbEntity
8
1
62
256
6
ByLayer
370
18
48
1
60
0
100
AcDbSpline
70
4
71
3
72
14
73
10
40
0
40
0
40
0
40
0
40
0.426765570758661
40
0.426765570758661
40
0.687935771125595
40
0.687935771125595
40
0.907055230076951
40
0.907055230076951
40
1
40
1
40
1
40
1
41
1
10
-35.042936485844
20
-147.249519052838
30
0
41
1
10
-35.0262461431989
20
-147.26594515143
30
0
41
1
10
-35.0101685030284
20
-147.281649334443
30
0
41
1
10
-34.9885505012525
20
-147.302443764214
30
0
41
1
10
-34.9811775636272
20
-147.3094428089
30
0
41
1
10
-34.9708472871576
20
-147.318986074382
30
0
41
1
10
-34.9672890196545
20
-147.322137948075
30
0
41
1
10
-34.9646121910791
20
-147.324201792472
30
0
41
1
10
-34.9641054174456
20
-147.324519052838
30
0
41
1
10
-34.9639137686264
20
-147.324519052838
30
0
0
SPLINE
5
14C
100
AcDbEntity
8
1
62
256
6
ByLayer
370
18
48
1
60
0
100
AcDbSpline
70
4
71
3
72
8
73
4
40
0
40
0
40
0
40
0
40
1
40
1
40
1
40
1
41
1
10
-35.693488502244
20
-146.605480947162
30
0
41
1
10
-35.4773428456145
20
-146.820692896478
30
0
41
1
10
-35.2605107338739
20
-147.035389473532
30
0
41
1
10
-35.042936485844
20
-147.249519052838
30
0
0
SPLINE
5
14D
100
AcDbEntity
8
1
62
256
6
ByLayer
370
18
48
1
60
0
100
AcDbSpline
70
4
71
3
72
14
73
10
40
0
40
0
40
0
40
0
40
0.116853356733113
40
0.116853356733113
40
0.317229528285849
40
0.317229528285849
40
0.587936077402339
40
0.587936077402339
40
1
40
1
40
1
40
1
41
1
10
-35.77902073434
20
-146.520498123855
30
0
41
1
10
-35.7790162481581
20
-146.520502566727
30
0
41
1
10
-35.7784701075635
20
-146.521044090433
30
0
41
1
10
-35.775521982984
20
-146.523967358889
30
0
41
1
10
-35.7720524616437
20
-146.527407799386
30
0
41
1
10
-35.7612149021864
20
-146.538159213677
30
0
41
1
10
-35.7527764358517
20
-146.546533612686
30
0
41
1
10
-35.7288479597302
20
-146.570300065257
30
0
41
1
10
-35.7115233441905
20
-146.587524012234
30
0
41
1
10
-35.693488502244
20
-146.605480947162
30
0
0
SPLINE
5
14E
100
AcDbEntity
8
1
62
256
6
ByLayer
370
18
48
1
60
0
100
AcDbSpline
70
4
71
3
72
12
73
8
40
0
40
0
40
0
40
0
40
0.25
40
0.25
40
0.499999999999999
40
0.499999999999999
40
1
40
1
40
1
40
1
41
1
10
0.196577650607907
20
-123.870922439246
30
-1.4E-15
41
1
10
0.392821693782679
20
-125.154448819339
30
-1.3E-15
41
1
10
0.7936460920819
20
-126.351716395566
30
-1.3E-15
41
1
10
1.72850332382967
20
-128.313246380443
30
-1.1E-15
41
1
10
2.2511386536757
20
-129.082051112685
30
-1.1E-15
41
1
10
3.59830430368174
20
-130.805248046745
30
-1E-15
41
1
10
4.17500000000001
20
-131.244937676674
30
-1E-15
41
1
10
4.17500000000001
20
-131.260506800294
30
-1E-15
0
SPLINE
5
14F
100
AcDbEntity
8
1
62
256
6
ByLayer
370
18
48
1
60
0
100
AcDbSpline
70
4
71
3
72
10
73
6
40
0
40
0
40
0
40
0
40
0.569745878817568
40
0.569745878817568
40
1
40
1
40
1
40
1
41
1
10
-30.3669687469225
20
-147.249519052838
30
0
41
1
10
-30.3243467660605
20
-147.272840231199
30
0
41
1
10
-30.2808824343991
20
-147.292686734027
30
0
41
1
10
-30.208780412391
20
-147.316980323653
30
0
41
1
10
-30.1778760961927
20
-147.324519052838
30
0
41
1
10
-30.1525779752015
20
-147.324519052838
30
0
0
SPLINE
5
150
100
AcDbEntity
8
1
62
256
6
ByLayer
370
18
48
1
60
0
100
AcDbSpline
70
4
71
3
72
12
73
8
40
0
40
0
40
0
40
0
40
0.284396071878018
40
0.284396071878018
40
0.80775878686209
40
0.80775878686209
40
1
40
1
40
1
40
1
41
1
10
-1.79742202479846
20
-147.324519052838
30
0
41
1
10
-1.78061859473164
20
-147.324519052838
30
0
41
1
10
-1.76122583309615
20
-147.321085486541
30
0
41
1
10
-1.70491941550071
20
-147.306390177736
30
0
41
1
10
-1.66552799795792
20
-147.290719187969
30
0
41
1
10
-1.612041798474
20
-147.264924341385
30
0
41
1
10
-1.5975145382437
20
-147.25744377313
30
0
41
1
10
-1.58303125307745
20
-147.249519052838
30
0
0
SPLINE
5
151
100
AcDbEntity
8
1
62
256
6
ByLayer
370
18
48
1
60
0
100
AcDbSpline
70
4
71
3
72
8
73
4
40
0
40
0
40
0
40
0
40
1
40
1
40
1
40
1
41
1
10
0.622502165133568
20
-146.605480947162
30
0
41
1
10
0.282869723630085
20
-146.82341194248
30
0
41
1
10
-0.0594642883616245
20
-147.038227562405
30
0
41
1
10
-0.4046453447788
20
-147.249519052838
30
0
0
SPLINE
5
152
100
AcDbEntity
8
1
62
256
6
ByLayer
370
18
48
1
60
0
100
AcDbSpline
70
4
71
3
72
8
73
4
40
0
40
0
40
0
40
0
40
1
40
1
40
1
40
1
41
1
10
-31.5453546552212
20
-147.249519052838
30
0
41
1
10
-31.8905357116383
20
-147.038227562405
30
0
41
1
10
-32.2328697236301
20
-146.82341194248
30
0
41
1
10
-32.5725021651336
20
-146.605480947162
30
0
0
SPLINE
5
153
100
AcDbEntity
8
1
62
256
6
ByLayer
370
18
48
1
60
0
100
AcDbSpline
70
4
71
3
72
22
73
18
40
0
40
0
40
0
40
0
40
0.342717721503005
40
0.342717721503005
40
0.493581534538759
40
0.493581534538759
40
0.620170723899862
40
0.620170723899862
40
0.707186054842469
40
0.707186054842469
40
0.795167248402976
40
0.795167248402976
40
0.871654740544763
40
0.871654740544763
40
0.972751761489628
40
0.972751761489628
40
1
40
1
40
1
40
1
41
1
10
-32.5725021651336
20
-146.605480947162
30
0
41
1
10
-32.6138057658636
20
-146.578977781629
30
0
41
1
10
-32.6558724605077
20
-146.555733561313
30
0
41
1
10
-32.7110582369648
20
-146.532690192302
30
0
41
1
10
-32.7275367812449
20
-146.526965813151
30
0
41
1
10
-32.7546553989488
20
-146.520811386479
30
0
41
1
10
-32.7660537679269
20
-146.519643075721
30
0
41
1
10
-32.7809755260478
20
-146.522159503243
30
0
41
1
10
-32.785933366351
20
-146.524509145102
30
0
41
1
10
-32.7920701847978
20
-146.532294582045
30
0
41
1
10
-32.7932430766649
20
-146.537917209977
30
0
41
1
10
-32.7913774181993
20
-146.550735512807
30
0
41
1
10
-32.7888656653816
20
-146.557770828929
30
0
41
1
10
-32.7801875893012
20
-146.575050867935
30
0
41
1
10
-32.7730262020852
20
-146.585851930255
30
0
41
1
10
-32.7625080460161
20
-146.599573422752
30
0
41
1
10
-32.7601636077358
20
-146.602526035012
30
0
41
1
10
-32.7577440993609
20
-146.605480947162
30
0
0
SPLINE
5
154
100
AcDbEntity
8
1
62
256
6
ByLayer
370
18
48
1
60
0
100
AcDbSpline
70
4
71
3
72
22
73
18
40
0
40
0
40
0
40
0
40
0.0976736298787866
40
0.0976736298787866
40
0.197523722218979
40
0.197523722218979
40
0.282881072387678
40
0.282881072387678
40
0.358582197959792
40
0.358582197959792
40
0.473858687455139
40
0.473858687455139
40
0.653814901399151
40
0.653814901399151
40
0.943849537255714
40
0.943849537255714
40
1
40
1
40
1
40
1
41
1
10
0.807744099360974
20
-146.605480947162
30
0
41
1
10
0.816329348269505
20
-146.594995901285
30
0
41
1
10
0.824051207239393
20
-146.584426552555
30
0
41
1
10
0.836050484276655
20
-146.564394171666
30
0
41
1
10
0.840364818059896
20
-146.554677851791
30
0
41
1
10
0.843252999055096
20
-146.539823540717
30
0
41
1
10
0.842577670001617
20
-146.534046497716
30
0
41
1
10
0.837766927526104
20
-146.526178272057
30
0
41
1
10
0.834007198672765
20
-146.523627897869
30
0
41
1
10
0.822050458827022
20
-146.519925703982
30
0
41
1
10
0.812424479546195
20
-146.520063964713
30
0
41
1
10
0.785226078780909
20
-146.524414432998
30
0
41
1
10
0.765752259434379
20
-146.530818994411
30
0
41
1
10
0.713270899403653
20
-146.552510292362
30
0
41
1
10
0.678067678924435
20
-146.571240497257
30
0
41
1
10
0.636233976484021
20
-146.596776202561
30
0
41
1
10
0.629368915651213
20
-146.601074778633
30
0
41
1
10
0.622502165133596
20
-146.605480947162
30
0
0
SPLINE
5
155
100
AcDbEntity
8
1
62
256
6
ByLayer
370
18
48
1
60
0
100
AcDbSpline
70
4
71
3
72
16
73
12
40
0
40
0
40
0
40
0
40
0.235268120570068
40
0.235268120570068
40
0.475958288032741
40
0.475958288032741
40
0.681622010782519
40
0.681622010782519
40
0.864855926633014
40
0.864855926633014
40
1
40
1
40
1
40
1
41
1
10
0.280351720802116
20
-147.249519052838
30
0
41
1
10
0.272742574915611
20
-147.258810269992
30
0
41
1
10
0.265899824635739
20
-147.268175234134
30
0
41
1
10
0.255263394368967
20
-147.285918771996
30
0
41
1
10
0.251439720677894
20
-147.294520069984
30
0
41
1
10
0.248857290251351
20
-147.307642730888
30
0
41
1
10
0.249432321619651
20
-147.312733775447
30
0
41
1
10
0.253623688154988
20
-147.319660408417
30
0
41
1
10
0.256922324700071
20
-147.321892730104
30
0
41
1
10
0.264197183082672
20
-147.324092077261
30
0
41
1
10
0.267804955773471
20
-147.324519052838
30
0
41
1
10
0.271756103082652
20
-147.324519052838
30
0
0
SPLINE
5
156
100
AcDbEntity
8
1
62
256
6
ByLayer
370
18
48
1
60
0
100
AcDbSpline
70
4
71
3
72
16
73
12
40
0
40
0
40
0
40
0
40
0.213191881032439
40
0.213191881032439
40
0.430450821122094
40
0.430450821122094
40
0.625363029275212
40
0.625363029275212
40
0.810578128515627
40
0.810578128515627
40
1
40
1
40
1
40
1
41
1
10
-32.2217561030826
20
-147.324519052838
30
0
41
1
10
-32.2155754852159
20
-147.324519052838
30
0
41
1
10
-32.2102087387104
20
-147.323459613774
30
0
41
1
10
-32.2023904115418
20
-147.318605983988
30
0
41
1
10
-32.1999350384452
20
-147.314650879339
30
0
41
1
10
-32.1991085156328
20
-147.304599461789
30
0
41
1
10
-32.2003390697887
20
-147.298635323254
30
0
41
1
10
-32.2054571103209
20
-147.285825698939
30
0
41
1
10
-32.2092403541239
20
-147.278907911531
30
0
41
1
10
-32.2185595372075
20
-147.264573980318
30
0
41
1
10
-32.2241976084486
20
-147.257033587993
30
0
41
1
10
-32.2303517208021
20
-147.249519052838
30
0
0
SPLINE
5
157
100
AcDbEntity
8
1
62
256
6
ByLayer
370
18
48
1
60
0
100
AcDbSpline
70
4
71
3
72
12
73
8
40
0
40
0
40
0
40
0
40
0.566642755812603
40
0.566642755812603
40
0.871667985367507
40
0.871667985367507
40
1
40
1
40
1
40
1
41
1
10
-32.5050672644228
20
-147.249519052838
30
0
41
1
10
-32.4714874258911
20
-147.272109944118
30
0
41
1
10
-32.4373699841392
20
-147.292028005611
30
0
41
1
10
-32.3894761258047
20
-147.31360858642
30
0
41
1
10
-32.373181800816
20
-147.319587005579
30
0
41
1
10
-32.3531573333427
20
-147.323804942039
30
0
41
1
10
-32.3475541732032
20
-147.324519052838
30
0
41
1
10
-32.3425746358546
20
-147.324519052838
30
0
0
SPLINE
5
158
100
AcDbEntity
8
1
62
256
6
ByLayer
370
18
48
1
60
0
100
AcDbSpline
70
4
71
3
72
12
73
8
40
0
40
0
40
0
40
0
40
0.284953337073439
40
0.284953337073439
40
0.703609372576619
40
0.703609372576619
40
1
40
1
40
1
40
1
41
1
10
0.392574635854658
20
-147.324519052838
30
0
41
1
10
0.403486622853677
20
-147.324519052838
30
0
41
1
10
0.417373821037785
20
-147.321112794824
30
0
41
1
10
0.453660438006779
20
-147.30818120593
30
0
41
1
10
0.477801169723477
20
-147.296330898539
30
0
41
1
10
0.519550272608683
20
-147.27255380915
30
0
41
1
10
0.537322126278752
20
-147.261457123541
30
0
41
1
10
0.555067264422803
20
-147.249519052838
30
0
0
SPLINE
5
159
100
AcDbEntity
8
1
62
256
6
ByLayer
370
18
48
1
60
0
100
AcDbSpline
70
4
71
3
72
8
73
4
40
0
40
0
40
0
40
0
40
1
40
1
40
1
40
1
41
1
10
2.20081976235119
20
-146.605480947162
30
0
41
1
10
1.91326395180033
20
-146.822043755828
30
0
41
1
10
1.62387321238785
20
-147.036795334129
30
0
41
1
10
1.33252158581104
20
-147.249519052838
30
0
0
SPLINE
5
15A
100
AcDbEntity
8
1
62
256
6
ByLayer
370
18
48
1
60
0
100
AcDbSpline
70
4
71
3
72
8
73
4
40
0
40
0
40
0
40
0
40
1
40
1
40
1
40
1
41
1
10
-33.282521585811
20
-147.249519052838
30
0
41
1
10
-33.5738732123878
20
-147.036795334129
30
0
41
1
10
-33.8632639518003
20
-146.822043755828
30
0
41
1
10
-34.1508197623511
20
-146.605480947162
30
0
0
SPLINE
5
15B
100
AcDbEntity
8
1
62
256
6
ByLayer
370
18
48
1
60
0
100
AcDbSpline
70
4
71
3
72
22
73
18
40
0
40
0
40
0
40
0
40
0.287138421894194
40
0.287138421894194
40
0.441116961733414
40
0.441116961733414
40
0.562499249745963
40
0.562499249745963
40
0.657516393757549
40
0.657516393757549
40
0.753123838515045
40
0.753123838515045
40
0.840997450002706
40
0.840997450002706
40
0.964114103607713
40
0.964114103607713
40
1
40
1
40
1
40
1
41
1
10
-34.1508197623511
20
-146.605480947162
30
0
41
1
10
-34.1812979129092
20
-146.58252737208
30
0
41
1
10
-34.2119145951463
20
-146.561679504531
30
0
41
1
10
-34.2541635532924
20
-146.537571307228
30
0
41
1
10
-34.2683221089991
20
-146.530498780194
30
0
41
1
10
-34.2900935114604
20
-146.522340473745
30
0
41
1
10
-34.2986347802699
20
-146.520263845267
30
0
41
1
10
-34.3098804630861
20
-146.520683862437
30
0
41
1
10
-34.3135235176836
20
-146.522328186106
30
0
41
1
10
-34.3170639933122
20
-146.528855352668
30
0
41
1
10
-34.3169602341513
20
-146.533867896997
30
0
41
1
10
-34.3132017572794
20
-146.54591358447
30
0
41
1
10
-34.3098143282728
20
-146.552874742355
30
0
41
1
10
-34.2990238326035
20
-146.570889466852
30
0
41
1
10
-34.2904329503804
20
-146.582732357026
30
0
41
1
10
-34.2779159751971
20
-146.59830333054
30
0
41
1
10
-34.2749590028723
20
-146.601883386835
30
0
41
1
10
-34.2719165050501
20
-146.605480947162
30
0
0
SPLINE
5
15C
100
AcDbEntity
8
1
62
256
6
ByLayer
370
18
48
1
60
0
100
AcDbSpline
70
4
71
3
72
22
73
18
40
0
40
0
40
0
40
0
40
0.124284574878998
40
0.124284574878998
40
0.225550318883491
40
0.225550318883491
40
0.327822888069671
40
0.327822888069671
40
0.416521256547997
40
0.416521256547997
40
0.532315178653561
40
0.532315178653561
40
0.697582825853248
40
0.697582825853248
40
0.945753236307984
40
0.945753236307984
40
1
40
1
40
1
40
1
41
1
10
2.32191650505015
20
-146.605480947162
30
0
41
1
10
2.33234724328349
20
-146.593147262066
30
0
41
1
10
2.34188364259924
20
-146.580876785086
30
0
41
1
10
2.35555987111238
20
-146.560497250588
30
0
41
1
10
2.36047209456291
20
-146.551854784049
30
0
41
1
10
2.36632680064582
20
-146.537340689718
30
0
41
1
10
2.36726884238087
20
-146.531317411547
30
0
41
1
10
2.36489764862674
20
-146.52375953645
30
0
41
1
10
2.36212229521502
20
-146.521628271971
30
0
41
1
10
2.35284406188399
20
-146.51982613228
30
0
41
1
10
2.34536618366491
20
-146.521023610137
30
0
41
1
10
2.32450504016441
20
-146.527656011249
30
0
41
1
10
2.30964790611589
20
-146.534705656205
30
0
41
1
10
2.27051987248339
20
-146.556458474594
30
0
41
1
10
2.24447670545285
20
-146.573600783852
30
0
41
1
10
2.21248250151515
20
-146.596779447595
30
0
41
1
10
2.20665886779005
20
-146.601083424915
30
0
41
1
10
2.20081976235119
20
-146.605480947162
30
0
0
SPLINE
5
15D
100
AcDbEntity
8
1
62
256
6
ByLayer
370
18
48
1
60
0
100
AcDbSpline
70
4
71
3
72
16
73
12
40
0
40
0
40
0
40
0
40
0.282847214915391
40
0.282847214915391
40
0.513166793081833
40
0.513166793081833
40
0.745736427107124
40
0.745736427107124
40
0.947913116346236
40
0.947913116346236
40
1
40
1
40
1
40
1
41
1
10
1.77667879984992
20
-147.249519052838
30
0
41
1
10
1.76736708207113
20
-147.260506327118
30
0
41
1
10
1.75884922799784
20
-147.27143039359
30
0
41
1
10
1.74661775018123
20
-147.289533078487
30
0
41
1
10
1.74221547481329
20
-147.297193466791
30
0
41
1
10
1.73691559795833
20
-147.310013572649
30
0
41
1
10
1.73601446497401
20
-147.315306657194
30
0
41
1
10
1.7379718939371
20
-147.321885035183
30
0
41
1
10
1.7403621986879
20
-147.323696860369
30
0
41
1
10
1.74478143421533
20
-147.324443858088
30
0
41
1
10
1.74577195900937
20
-147.324519052838
30
0
41
1
10
1.74683121620629
20
-147.324519052838
30
0
0
SPLINE
5
15E
100
AcDbEntity
8
1
62
256
6
ByLayer
370
18
48
1
60
0
100
AcDbSpline
70
4
71
3
72
16
73
12
40
0
40
0
40
0
40
0
40
0.209631791749482
40
0.209631791749482
40
0.421788342160449
40
0.421788342160449
40
0.622311917814816
40
0.622311917814816
40
0.896289024766725
40
0.896289024766725
40
1
40
1
40
1
40
1
41
1
10
-33.6968312162063
20
-147.324519052838
30
0
41
1
10
-33.6926221219583
20
-147.324519052838
30
0
41
1
10
-33.6894862890278
20
-147.323291181565
30
0
41
1
10
-33.6862755194741
20
-147.318078835859
30
0
41
1
10
-33.6862180172711
20
-147.313975486902
30
0
41
1
10
-33.6891673133363
20
-147.303812924963
30
0
41
1
10
-33.6920239229607
20
-147.297767136008
30
0
41
1
10
-33.7011909647099
20
-147.282207538268
30
0
41
1
10
-33.7084854185615
20
-147.272008633452
30
0
41
1
10
-33.719910188376
20
-147.257623636237
30
0
41
1
10
-33.7232339790401
20
-147.253583736926
30
0
41
1
10
-33.7266787998499
20
-147.249519052838
30
0
0
SPLINE
5
15F
100
AcDbEntity
8
1
62
256
6
ByLayer
370
18
48
1
60
0
100
AcDbSpline
70
4
71
3
72
12
73
8
40
0
40
0
40
0
40
0
40
0.498999310445844
40
0.498999310445844
40
0.778741157790946
40
0.778741157790946
40
1
40
1
40
1
40
1
41
1
10
-33.9014464721898
20
-147.249519052838
30
0
41
1
10
-33.8764808378828
20
-147.269114893237
30
0
41
1
10
-33.8515005697349
20
-147.287019463598
30
0
41
1
10
-33.8165260346364
20
-147.30838094403
30
0
41
1
10
-33.8045080363778
20
-147.31486177866
30
0
41
1
10
-33.786097305626
20
-147.322495091995
30
0
41
1
10
-33.7789034641572
20
-147.324519052838
30
0
41
1
10
-33.7736314551885
20
-147.324519052838
30
0
0
SPLINE
5
160
100
AcDbEntity
8
1
62
256
6
ByLayer
370
18
48
1
60
0
100
AcDbSpline
70
4
71
3
72
12
73
8
40
0
40
0
40
0
40
0
40
0.25882718736395
40
0.25882718736395
40
0.600746545600568
40
0.600746545600568
40
1
40
1
40
1
40
1
41
1
10
1.82363145518849
20
-147.324519052838
30
0
41
1
10
1.82977260568262
20
-147.324519052838
30
0
41
1
10
1.83852783576296
20
-147.321765646352
30
0
41
1
10
1.8614086758794
20
-147.311454100604
30
0
41
1
10
1.87675867485501
20
-147.302521151033
30
0
41
1
10
1.91137400903094
20
-147.279869519054
30
0
41
1
10
1.93136596723806
20
-147.265280493758
30
0
41
1
10
1.95144647218987
20
-147.249519052838
30
0
0
SPLINE
5
161
100
AcDbEntity
8
1
62
256
6
ByLayer
370
18
48
1
60
0
100
AcDbSpline
70
4
71
3
72
8
73
4
40
0
40
0
40
0
40
0
40
1
40
1
40
1
40
1
41
1
10
-34.7113843093967
20
-146.605480947162
30
0
41
1
10
-34.4429649222264
20
-146.821622368627
30
0
41
1
10
-34.1730225447557
20
-147.036355577456
30
0
41
1
10
-33.9014464721898
20
-147.249519052838
30
0
0
SPLINE
5
162
100
AcDbEntity
8
1
62
256
6
ByLayer
370
18
48
1
60
0
100
AcDbSpline
70
4
71
3
72
8
73
4
40
0
40
0
40
0
40
0
40
1
40
1
40
1
40
1
41
1
10
1.95144647218987
20
-147.249519052838
30
0
41
1
10
2.22302254475574
20
-147.036355577456
30
0
41
1
10
2.49296492222644
20
-146.821622368627
30
0
41
1
10
2.76138430939668
20
-146.605480947162
30
0
0
SPLINE
5
163
100
AcDbEntity
8
1
62
256
6
ByLayer
370
18
48
1
60
0
100
AcDbSpline
70
4
71
3
72
8
73
4
40
0
40
0
40
0
40
0
40
1
40
1
40
1
40
1
41
1
10
2.32191650505015
20
-146.605480947162
30
0
41
1
10
2.1402936656402
20
-146.820238412774
30
0
41
1
10
1.95855140325639
20
-147.034920175907
30
0
41
1
10
1.77667879984992
20
-147.249519052838
30
0
0
SPLINE
5
164
100
AcDbEntity
8
1
62
256
6
ByLayer
370
18
48
1
60
0
100
AcDbSpline
70
4
71
3
72
8
73
4
40
0
40
0
40
0
40
0
40
1
40
1
40
1
40
1
41
1
10
-33.7266787998499
20
-147.249519052838
30
0
41
1
10
-33.9085514032563
20
-147.034920175907
30
0
41
1
10
-34.0902936656402
20
-146.820238412774
30
0
41
1
10
-34.2719165050501
20
-146.605480947162
30
0
0
SPLINE
5
165
100
AcDbEntity
8
1
62
256
6
ByLayer
370
18
48
1
60
0
100
AcDbSpline
70
4
71
3
72
12
73
8
40
0
40
0
40
0
40
0
40
0.530639323941522
40
0.530639323941522
40
0.821962379992119
40
0.821962379992119
40
1
40
1
40
1
40
1
41
1
10
1.33252158581107
20
-147.249519052838
30
0
41
1
10
1.30378713115042
20
-147.270498856941
30
0
41
1
10
1.27480482693514
20
-147.289358679986
30
0
41
1
10
1.23415788624752
20
-147.310896606582
30
0
41
1
10
1.22025950916188
20
-147.317168935622
30
0
41
1
10
1.20094487202155
20
-147.323177473513
30
0
41
1
10
1.19423358982362
20
-147.324519052838
30
0
41
1
10
1.18875222872168
20
-147.324519052838
30
0
0
SPLINE
5
166
100
AcDbEntity
8
1
62
256
6
ByLayer
370
18
48
1
60
0
100
AcDbSpline
70
4
71
3
72
12
73
8
40
0
40
0
40
0
40
0
40
0.270626983104992
40
0.270626983104992
40
0.646825819740992
40
0.646825819740992
40
1
40
1
40
1
40
1
41
1
10
-33.1387522287217
20
-147.324519052838
30
0
41
1
10
-33.1470098598362
20
-147.324519052838
30
0
41
1
10
-33.1580605950361
20
-147.321471223863
30
0
41
1
10
-33.1867820162345
20
-147.310000945445
30
0
41
1
10
-33.2059225765588
20
-147.299795613849
30
0
41
1
10
-33.2439763963588
20
-147.276619981205
30
0
41
1
10
-33.2632418039944
20
-147.263595744059
30
0
41
1
10
-33.282521585811
20
-147.249519052838
30
0
0
SPLINE
5
167
100
AcDbEntity
8
1
62
256
6
ByLayer
370
18
48
1
60
0
100
AcDbSpline
70
4
71
3
72
16
73
12
40
0
40
0
40
0
40
0
40
0.259537054117214
40
0.259537054117214
40
0.477866931391869
40
0.477866931391869
40
0.698125069666443
40
0.698125069666443
40
0.891950600845308
40
0.891950600845308
40
1
40
1
40
1
40
1
41
1
10
-33.0609380746277
20
-147.249519052838
30
0
41
1
10
-33.0525175736676
20
-147.259666239391
30
0
41
1
10
-33.0448856932948
20
-147.269823931547
30
0
41
1
10
-33.0339241016154
20
-147.287145898679
30
0
41
1
10
-33.0300256248044
20
-147.294688903482
30
0
41
1
10
-33.0256833849913
20
-147.307534370038
30
0
41
1
10
-33.0252438190195
20
-147.312975580483
30
0
41
1
10
-33.0278586917662
20
-147.320204185883
30
0
41
1
10
-33.0305109924385
20
-147.322453779032
30
0
41
1
10
-33.0362694228455
20
-147.324220249097
30
0
41
1
10
-33.0386793555428
20
-147.324519052838
30
0
41
1
10
-33.0413467902295
20
-147.324519052838
30
0
0
SPLINE
5
168
100
AcDbEntity
8
1
62
256
6
ByLayer
370
18
48
1
60
0
100
AcDbSpline
70
4
71
3
72
16
73
12
40
0
40
0
40
0
40
0
40
0.209881529782337
40
0.209881529782337
40
0.423023507186419
40
0.423023507186419
40
0.619657681478061
40
0.619657681478061
40
0.866650178197635
40
0.866650178197635
40
1
40
1
40
1
40
1
41
1
10
1.09134679022955
20
-147.324519052838
30
0
41
1
10
1.08621268856092
20
-147.324519052838
30
0
41
1
10
1.08201366501243
20
-147.3233868642
30
0
41
1
10
1.07660035051865
20
-147.31839896333
30
0
41
1
10
1.07539661673377
20
-147.314405023646
30
0
41
1
10
1.07647837087921
20
-147.304399798316
30
0
41
1
10
1.07850513980944
20
-147.298454906316
30
0
41
1
10
1.08573274072924
20
-147.283792186435
30
0
41
1
10
1.09168052911818
20
-147.274551267664
30
0
41
1
10
1.10244332515944
20
-147.26001046181
30
0
41
1
10
1.10657661855231
20
-147.254774857528
30
0
41
1
10
1.11093807462768
20
-147.249519052838
30
0
0
SPLINE
5
169
100
AcDbEntity
8
1
62
256
6
ByLayer
370
18
48
1
60
0
100
AcDbSpline
70
4
71
3
72
8
73
4
40
0
40
0
40
0
40
0
40
1
40
1
40
1
40
1
41
1
10
-33.5951256110365
20
-146.605480947162
30
0
41
1
10
-33.4171182250771
20
-146.820194600346
30
0
41
1
10
-33.2390574087909
20
-147.03487504045
30
0
41
1
10
-33.0609380746277
20
-147.249519052838
30
0
0
SPLINE
5
16A
100
AcDbEntity
8
1
62
256
6
ByLayer
370
18
48
1
60
0
100
AcDbSpline
70
4
71
3
72
8
73
4
40
0
40
0
40
0
40
0
40
1
40
1
40
1
40
1
41
1
10
1.11093807462768
20
-147.249519052838
30
0
41
1
10
1.28905740879097
20
-147.03487504045
30
0
41
1
10
1.46711822507714
20
-146.820194600346
30
0
41
1
10
1.64512561103655
20
-146.605480947162
30
0
0
SPLINE
5
16B
100
AcDbEntity
8
1
62
256
6
ByLayer
370
18
48
1
60
0
100
AcDbSpline
70
4
71
3
72
22
73
18
40
0
40
0
40
0
40
0
40
0.110967367987802
40
0.110967367987802
40
0.204313972016252
40
0.204313972016252
40
0.298505955845986
40
0.298505955845986
40
0.381127984087815
40
0.381127984087815
40
0.494297440260185
40
0.494297440260185
40
0.661274177643201
40
0.661274177643201
40
0.920835933581164
40
0.920835933581164
40
1
40
1
40
1
40
1
41
1
10
-33.5951256110365
20
-146.605480947162
30
0
41
1
10
-33.6045919240467
20
-146.594062619559
30
0
41
1
10
-33.6131704887815
20
-146.582628402269
30
0
41
1
10
-33.6254830249626
20
-146.563103955235
30
0
41
1
10
-33.6298572264356
20
-146.554591131276
30
0
41
1
10
-33.6346924428837
20
-146.540058341108
30
0
41
1
10
-33.6351450206449
20
-146.533880995583
30
0
41
1
10
-33.6320832869831
20
-146.525638089546
30
0
41
1
10
-33.6290358757391
20
-146.523044365267
30
0
41
1
10
-33.6190668699357
20
-146.51984641573
30
0
41
1
10
-33.6110253510326
20
-146.520220939139
30
0
41
1
10
-33.5884485051135
20
-146.524962800215
30
0
41
1
10
-33.5722888959619
20
-146.531119204189
30
0
41
1
10
-33.5291151235103
20
-146.551315611197
30
0
41
1
10
-33.5001377564573
20
-146.568179578166
30
0
41
1
10
-33.4621279697801
20
-146.593064129006
30
0
41
1
10
-33.4531111111484
20
-146.599170287805
30
0
41
1
10
-33.4440798577814
20
-146.605480947162
30
0
0
SPLINE
5
16C
100
AcDbEntity
8
1
62
256
6
ByLayer
370
18
48
1
60
0
100
AcDbSpline
70
4
71
3
72
22
73
18
40
0
40
0
40
0
40
0
40
0.312559299137139
40
0.312559299137139
40
0.466971737310269
40
0.466971737310269
40
0.590312405352598
40
0.590312405352598
40
0.682001016901653
40
0.682001016901653
40
0.774473892346457
40
0.774473892346457
40
0.857003966347495
40
0.857003966347495
40
0.969648251660341
40
0.969648251660341
40
1
40
1
40
1
40
1
41
1
10
1.49407985778143
20
-146.605480947162
30
0
41
1
10
1.52925865683238
20
-146.580899484503
30
0
41
1
10
1.56485330050563
20
-146.558929317895
30
0
41
1
10
1.61299180569921
20
-146.535163865561
30
0
41
1
10
1.62841390897953
20
-146.52866824917
30
0
41
1
10
1.65273248698091
20
-146.521493722042
30
0
41
1
10
1.6625210459475
20
-146.519873536353
30
0
41
1
10
1.67548725899894
20
-146.521303878434
30
0
41
1
10
1.67979804570814
20
-146.523318230372
30
0
41
1
10
1.68462448895332
20
-146.530532562984
30
0
41
1
10
1.68513654253277
20
-146.535891284246
30
0
41
1
10
1.68229578125866
20
-146.548406209656
30
0
41
1
10
1.67934108039557
20
-146.555440360622
30
0
41
1
10
1.66960260810347
20
-146.573195752065
30
0
41
1
10
1.66171445683276
20
-146.584587659242
30
0
41
1
10
1.6502815230343
20
-146.599179874838
30
0
41
1
10
1.64774112518208
20
-146.602326097187
30
0
41
1
10
1.64512561103655
20
-146.605480947162
30
0
0
SPLINE
5
16D
100
AcDbEntity
8
1
62
256
6
ByLayer
370
18
48
1
60
0
100
AcDbSpline
70
4
71
3
72
8
73
4
40
0
40
0
40
0
40
0
40
1
40
1
40
1
40
1
41
1
10
-33.4440798577814
20
-146.605480947162
30
0
41
1
10
-33.1333396924143
20
-146.822613082921
30
0
41
1
10
-32.8203818854402
20
-147.037390625964
30
0
41
1
10
-32.5050672644228
20
-147.249519052838
30
0
0
SPLINE
5
16E
100
AcDbEntity
8
1
62
256
6
ByLayer
370
18
48
1
60
0
100
AcDbSpline
70
4
71
3
72
8
73
4
40
0
40
0
40
0
40
0
40
1
40
1
40
1
40
1
41
1
10
0.555067264422803
20
-147.249519052838
30
0
41
1
10
0.870381885440224
20
-147.037390625964
30
0
41
1
10
1.18333969241434
20
-146.822613082921
30
0
41
1
10
1.49407985778143
20
-146.605480947162
30
0
0
SPLINE
5
16F
100
AcDbEntity
8
1
62
256
6
ByLayer
370
18
48
1
60
0
100
AcDbSpline
70
4
71
3
72
8
73
4
40
0
40
0
40
0
40
0
40
1
40
1
40
1
40
1
41
1
10
0.807744099360974
20
-146.605480947162
30
0
41
1
10
0.631957340333912
20
-146.820166887265
30
0
41
1
10
0.456160226952619
20
-147.03484646903
30
0
41
1
10
0.280351720802116
20
-147.249519052838
30
0
0
SPLINE
5
170
100
AcDbEntity
8
1
62
256
6
ByLayer
370
18
48
1
60
0
100
AcDbSpline
70
4
71
3
72
8
73
4
40
0
40
0
40
0
40
0
40
1
40
1
40
1
40
1
41
1
10
-32.2303517208021
20
-147.249519052838
30
0
41
1
10
-32.4061602269526
20
-147.03484646903
30
0
41
1
10
-32.5819573403339
20
-146.820166887265
30
0
41
1
10
-32.7577440993609
20
-146.605480947162
30
0
0
SPLINE
5
171
100
AcDbEntity
8
1
62
256
6
ByLayer
370
18
48
1
60
0
100
AcDbSpline
70
4
71
3
72
12
73
8
40
0
40
0
40
0
40
0
40
0.609244908759752
40
0.609244908759752
40
0.930769385375008
40
0.930769385375008
40
1
40
1
40
1
40
1
41
1
10
-0.4046453447788
20
-147.249519052838
30
0
41
1
10
-0.444730255321986
20
-147.274055742599
30
0
41
1
10
-0.485723280312271
20
-147.29518352855
30
0
41
1
10
-0.543240869950893
20
-147.316566159535
30
0
41
1
10
-0.562703578470234
20
-147.322105000532
30
0
41
1
10
-0.583055640339438
20
-147.324305935234
30
0
41
1
10
-0.586575994685205
20
-147.324519052838
30
0
41
1
10
-0.589922543204523
20
-147.324519052838
30
0
0
SPLINE
5
172
100
AcDbEntity
8
1
62
256
6
ByLayer
370
18
48
1
60
0
100
AcDbSpline
70
4
71
3
72
12
73
8
40
0
40
0
40
0
40
0
40
0.313596766021029
40
0.313596766021029
40
0.791819881730571
40
0.791819881730571
40
1
40
1
40
1
40
1
41
1
10
-31.3600774567954
20
-147.324519052838
30
0
41
1
10
-31.3749736531713
20
-147.324519052838
30
0
41
1
10
-31.393248551482
20
-147.320391286007
30
0
41
1
10
-31.4409657041355
20
-147.304850849396
30
0
41
1
10
-31.4724379595107
20
-147.290424506564
30
0
41
1
10
-31.5175984506225
20
-147.266021763244
30
0
41
1
10
-31.5314906085824
20
-147.258005483433
30
0
41
1
10
-31.5453546552212
20
-147.249519052838
30
0
0
SPLINE
5
173
100
AcDbEntity
8
1
62
256
6
ByLayer
370
18
48
1
60
0
100
AcDbSpline
70
4
71
3
72
16
73
12
40
0
40
0
40
0
40
0
40
0.209902462759327
40
0.209902462759327
40
0.424624586559996
40
0.424624586559996
40
0.613495424969564
40
0.613495424969564
40
0.783368411848526
40
0.783368411848526
40
1
40
1
40
1
40
1
41
1
10
-31.2079786727335
20
-147.249519052838
30
0
41
1
10
-31.2011086813053
20
-147.25792708992
30
0
41
1
10
-31.1949649361125
20
-147.266462569512
30
0
41
1
10
-31.1854918588091
20
-147.282874970762
30
0
41
1
10
-31.1821481397235
20
-147.290953701687
30
0
41
1
10
-31.1800074082926
20
-147.303855085339
30
0
41
1
10
-31.1807047241924
20
-147.309108245178
30
0
41
1
10
-31.1849653716351
20
-147.316707396784
30
0
41
1
10
-31.188252728631
20
-147.319400783565
30
0
41
1
10
-31.1976014198065
20
-147.323539507832
30
0
41
1
10
-31.2042570666887
20
-147.324519052838
30
0
41
1
10
-31.2115998497607
20
-147.324519052838
30
0
0
SPLINE
5
174
100
AcDbEntity
8
1
62
256
6
ByLayer
370
18
48
1
60
0
100
AcDbSpline
70
4
71
3
72
16
73
12
40
0
40
0
40
0
40
0
40
0.221648292091815
40
0.221648292091815
40
0.448446356634999
40
0.448446356634999
40
0.642903782806401
40
0.642903782806401
40
0.812332559244775
40
0.812332559244775
40
1
40
1
40
1
40
1
41
1
10
-0.738400150239301
20
-147.324519052838
30
0
41
1
10
-0.745900386167023
20
-147.324519052838
30
0
41
1
10
-0.752686361890966
20
-147.323496294065
30
0
41
1
10
-0.763348953485007
20
-147.318600593247
30
0
41
1
10
-0.767257306967934
20
-147.314531632723
30
0
41
1
10
-0.77001694020575
20
-147.304062997318
30
0
41
1
10
-0.769514102212526
20
-147.297918124558
30
0
41
1
10
-0.765442447899346
20
-147.285226975721
30
0
41
1
10
-0.762259270937136
20
-147.278700995402
30
0
41
1
10
-0.753758807835283
20
-147.264699668135
30
0
41
1
10
-0.748186728269332
20
-147.257064756614
30
0
41
1
10
-0.742021327266457
20
-147.249519052838
30
0
0
SPLINE
5
175
100
AcDbEntity
8
1
62
256
6
ByLayer
370
18
48
1
60
0
100
AcDbSpline
70
4
71
3
72
8
73
4
40
0
40
0
40
0
40
0
40
1
40
1
40
1
40
1
41
1
10
-31.7341932680757
20
-146.605480947162
30
0
41
1
10
-31.558791069796
20
-146.820161949915
30
0
41
1
10
-31.3833862967421
20
-147.034841374926
30
0
41
1
10
-31.2079786727335
20
-147.249519052838
30
0
0
SPLINE
5
176
100
AcDbEntity
8
1
62
256
6
ByLayer
370
18
48
1
60
0
100
AcDbSpline
70
4
71
3
72
8
73
4
40
0
40
0
40
0
40
0
40
1
40
1
40
1
40
1
41
1
10
-0.742021327266457
20
-147.249519052838
30
0
41
1
10
-0.566613703257815
20
-147.034841374926
30
0
41
1
10
-0.39120893020393
20
-146.820161949915
30
0
41
1
10
-0.215806731924232
20
-146.605480947162
30
0
0
SPLINE
5
177
100
AcDbEntity
8
1
62
256
6
ByLayer
370
18
48
1
60
0
100
AcDbSpline
70
4
71
3
72
22
73
18
40
0
40
0
40
0
40
0
40
0.0843106900916059
40
0.0843106900916059
40
0.170482191246884
40
0.170482191246884
40
0.246291870697312
40
0.246291870697312
40
0.31413039911844
40
0.31413039911844
40
0.421283992961424
40
0.421283992961424
40
0.595718829210851
40
0.595718829210851
40
0.895216791340499
40
0.895216791340499
40
1
40
1
40
1
40
1
41
1
10
-31.7341932680757
20
-146.605480947162
30
0
41
1
10
-31.741973266296
20
-146.595958730019
30
0
41
1
10
-31.7489330209612
20
-146.58629359233
30
0
41
1
10
-31.7596657165208
20
-146.567715085527
30
0
41
1
10
-31.7634589145508
20
-146.558571933266
30
0
41
1
10
-31.7658814793641
20
-146.543961691249
30
0
41
1
10
-31.7650822039077
20
-146.538008111491
30
0
41
1
10
-31.7602153311014
20
-146.529414853084
30
0
41
1
10
-31.7564774802486
20
-146.526370105369
30
0
41
1
10
-31.7444614253403
20
-146.521054797415
30
0
41
1
10
-31.7346729332569
20
-146.520082673744
30
0
41
1
10
-31.7064412951815
20
-146.52149716108
30
0
41
1
10
-31.6859187739924
20
-146.526244938557
30
0
41
1
10
-31.6285521805792
20
-146.544418635664
30
0
41
1
10
-31.5891520153842
20
-146.561953660516
30
0
41
1
10
-31.5361530359953
20
-146.589725950075
30
0
41
1
10
-31.5222483095268
20
-146.597413309658
30
0
41
1
10
-31.5083642578059
20
-146.605480947162
30
0
0
SPLINE
5
178
100
AcDbEntity
8
1
62
256
6
ByLayer
370
18
48
1
60
0
100
AcDbSpline
70
4
71
3
72
22
73
18
40
0
40
0
40
0
40
0
40
0.363816637462669
40
0.363816637462669
40
0.511207492230687
40
0.511207492230687
40
0.660920528344237
40
0.660920528344237
40
0.738896603598745
40
0.738896603598745
40
0.817825938874762
40
0.817825938874762
40
0.886991144812423
40
0.886991144812423
40
0.975973030271741
40
0.975973030271741
40
1
40
1
40
1
40
1
41
1
10
-0.441635742194052
20
-146.605480947162
30
0
41
1
10
-0.39402952119633
20
-146.577818292078
30
0
41
1
10
-0.345394717183496
20
-146.554003173431
30
0
41
1
10
-0.282258266016214
20
-146.531605753686
30
0
41
1
10
-0.264335584259925
20
-146.526384601135
30
0
41
1
10
-0.231248251112305
20
-146.520242623714
30
0
41
1
10
-0.215635856263049
20
-146.519294247355
30
0
41
1
10
-0.197796276209402
20
-146.523926450509
30
0
41
1
10
-0.192660709583833
20
-146.526696009523
30
0
41
1
10
-0.185911719815124
20
-146.534982373147
30
0
41
1
10
-0.184302684167022
20
-146.540690758801
30
0
41
1
10
-0.185317233072453
20
-146.553463758855
30
0
41
1
10
-0.187440567921811
20
-146.560417824882
30
0
41
1
10
-0.19519212466119
20
-146.577064140094
30
0
41
1
10
-0.201711051938815
20
-146.587211207584
30
0
41
1
10
-0.211397707998117
20
-146.599990453624
30
0
41
1
10
-0.21356528340965
20
-146.602737558427
30
0
41
1
10
-0.215806731924232
20
-146.605480947162
30
0
0
SPLINE
5
179
100
AcDbEntity
8
1
62
256
6
ByLayer
370
18
48
1
60
0
100
AcDbSpline
70
4
71
3
72
8
73
4
40
0
40
0
40
0
40
0
40
1
40
1
40
1
40
1
41
1
10
-31.5083642578059
20
-146.605480947162
30
0
41
1
10
-31.131282999038
20
-146.824592411615
30
0
41
1
10
-30.750862087038
20
-147.039466754109
30
0
41
1
10
-30.3669687469225
20
-147.249519052838
30
0
0
SPLINE
5
17A
100
AcDbEntity
8
1
62
256
6
ByLayer
370
18
48
1
60
0
100
AcDbSpline
70
4
71
3
72
8
73
4
40
0
40
0
40
0
40
0
40
1
40
1
40
1
40
1
41
1
10
-1.58303125307745
20
-147.249519052838
30
0
41
1
10
-1.19913791296199
20
-147.039466754109
30
0
41
1
10
-0.818717000961925
20
-146.824592411615
30
0
41
1
10
-0.441635742194052
20
-146.605480947162
30
0
0
SPLINE
5
17B
100
AcDbEntity
8
1
62
256
6
ByLayer
370
18
48
1
60
0
100
AcDbSpline
70
4
71
3
72
18
73
14
40
0
40
0
40
0
40
0
40
0.183151061974266
40
0.183151061974266
40
0.370595271313931
40
0.370595271313931
40
0.539741513010017
40
0.539741513010017
40
0.692117983133594
40
0.692117983133594
40
0.942734182901611
40
0.942734182901611
40
1
40
1
40
1
40
1
41
1
10
-1.99820426846958
20
-147.249519052838
30
0
41
1
10
-2.00440579794846
20
-147.257003866058
30
0
41
1
10
-2.00994063050288
20
-147.26466081968
30
0
41
1
10
-2.01846129069185
20
-147.2796206936
30
0
41
1
10
-2.02145104805353
20
-147.287106242966
30
0
41
1
10
-2.02333944450885
20
-147.299570746664
30
0
41
1
10
-2.02261263536076
20
-147.304873172599
30
0
41
1
10
-2.01846169922663
20
-147.312903097542
30
0
41
1
10
-2.01529583213451
20
-147.315944394722
30
0
41
1
10
-2.00494244948945
20
-147.321948039974
30
0
41
1
10
-1.9963672907144
20
-147.323776964951
30
0
41
1
10
-1.98481090144179
20
-147.324458336939
30
0
41
1
10
-1.98259064913327
20
-147.324519052838
30
0
41
1
10
-1.98032722460428
20
-147.324519052838
30
0
0
SPLINE
5
17C
100
AcDbEntity
8
1
62
256
6
ByLayer
370
18
48
1
60
0
100
AcDbSpline
70
4
71
3
72
18
73
14
40
0
40
0
40
0
40
0
40
0.240722841400532
40
0.240722841400532
40
0.430386848025239
40
0.430386848025239
40
0.58582412550735
40
0.58582412550735
40
0.741420015909613
40
0.741420015909613
40
0.936842263430419
40
0.936842263430419
40
1
40
1
40
1
40
1
41
1
10
-29.9696727753957
20
-147.324519052838
30
0
41
1
10
-29.9602375770105
20
-147.324519052838
30
0
41
1
10
-29.9514430292185
20
-147.323468435194
30
0
41
1
10
-29.938617284646
20
-147.318757828128
30
0
41
1
10
-29.933888893046
20
-147.315624076653
30
0
41
1
10
-29.9284255313176
20
-147.307726799768
30
0
41
1
10
-29.9271021180795
20
-147.303258276487
30
0
41
1
10
-29.9272448963631
20
-147.29305113195
30
0
41
1
10
-29.9287149097054
20
-147.287191071727
30
0
41
1
10
-29.9345611079158
20
-147.273493512437
30
0
41
1
10
-29.9396219692816
20
-147.26533824468
30
0
41
1
10
-29.9475742883851
20
-147.254730671991
30
0
41
1
10
-29.9496418008836
20
-147.252118696787
30
0
41
1
10
-29.9517957315304
20
-147.249519052838
30
0
0
SPLINE
5
17D
100
AcDbEntity
8
1
62
256
6
ByLayer
370
18
48
1
60
0
100
AcDbSpline
70
4
71
3
72
14
73
10
40
0
40
0
40
0
40
0
40
0.227782681841803
40
0.227782681841803
40
0.454571240661154
40
0.454571240661154
40
0.782579219840642
40
0.782579219840642
40
1
40
1
40
1
40
1
41
1
10
3.0139137686264
20
-147.324519052838
30
0
41
1
10
3.01437608668752
20
-147.324519052838
30
0
41
1
10
3.0167415118888
20
-147.322605959935
30
0
41
1
10
3.02441627927971
20
-147.315737478829
30
0
41
1
10
3.02978324335285
20
-147.310736578885
30
0
41
1
10
3.04506442419782
20
-147.296230186166
30
0
41
1
10
3.05616109762758
20
-147.285504916921
30
0
41
1
10
3.07595573536534
20
-147.266199437718
30
0
41
1
10
3.08433593244544
20
-147.257983440962
30
0
41
1
10
3.09293648584401
20
-147.249519052838
30
0
0
SPLINE
5
17E
100
AcDbEntity
8
1
62
256
6
ByLayer
370
18
48
1
60
0
100
AcDbSpline
70
4
71
3
72
8
73
4
40
0
40
0
40
0
40
0
40
1
40
1
40
1
40
1
41
1
10
3.09293648584401
20
-147.249519052838
30
0
41
1
10
3.31051073387391
20
-147.035389473532
30
0
41
1
10
3.52734284561458
20
-146.820692896478
30
0
41
1
10
3.74348850224399
20
-146.605480947162
30
0
0
SPLINE
5
17F
100
AcDbEntity
8
1
62
256
6
ByLayer
370
18
48
1
60
0
100
AcDbSpline
70
4
71
3
72
14
73
10
40
0
40
0
40
0
40
0
40
0.430524979251679
40
0.430524979251679
40
0.685171882995996
40
0.685171882995996
40
0.900891344932751
40
0.900891344932751
40
1
40
1
40
1
40
1
41
1
10
3.74348850224402
20
-146.605480947162
30
0
41
1
10
3.76230223073821
20
-146.586748490325
30
0
41
1
10
3.78037159535782
20
-146.568785471943
30
0
41
1
10
3.80395655767185
20
-146.545362380774
30
0
41
1
10
3.81175848347016
20
-146.537619910926
30
0
41
1
10
3.82252102624014
20
-146.526942996139
30
0
41
1
10
3.82612168574647
20
-146.523372679882
30
0
41
1
10
3.8286232191129
20
-146.520892291807
30
0
41
1
10
3.82901693416724
20
-146.520501896681
30
0
41
1
10
3.82902073442747
20
-146.520498123903
30
0
0
LINE
5
70
100
AcDbEntity
8
1
62
256
6
ByLayer
370
18
48
1
60
0
100
AcDbLine
10
-35.975
20
-142.466541
30
0
11
-35.975
21
-146.324519
31
0
39
0
210
0
220
0
230
1
0
LINE
5
72
100
AcDbEntity
8
1
62
256
6
ByLayer
370
18
48
1
60
0
100
AcDbLine
10
3.827636
20
-146.521883
30
0
11
4.025
21
-146.324519
31
0
39
0
210
0
220
0
230
1
0
LINE
5
73
100
AcDbEntity
8
1
62
256
6
ByLayer
370
18
48
1
60
0
100
AcDbLine
10
-35.975
20
-146.324519
30
0
11
-35.777636
21
-146.521883
31
0
39
0
210
0
220
0
230
1
0
LINE
5
74
100
AcDbEntity
8
1
62
256
6
ByLayer
370
18
48
1
60
0
100
AcDbLine
10
-31.95
20
0
30
0
11
-31.95
21
-120.4
31
0
39
0
210
0
220
0
230
1
0
LINE
5
75
100
AcDbEntity
8
1
62
256
6
ByLayer
370
18
48
1
60
0
100
AcDbLine
10
0.045379
20
-122
30
0
11
-31.995379
21
-122
31
0
39
0
210
0
220
0
230
1
0
LINE
5
76
100
AcDbEntity
8
1
62
256
6
ByLayer
370
18
48
1
60
0
100
AcDbLine
10
4.025
20
-146.324519
30
0
11
4.025
21
-142.471436
31
0
39
0
210
0
220
0
230
1
0
LINE
5
77
100
AcDbEntity
8
1
62
256
6
ByLayer
370
18
48
1
60
0
100
AcDbLine
10
-36.10866
20
-142.023668
30
0
11
-36.107619
21
-142.025229
31
0
39
0
210
0
220
0
230
1
0
LINE
5
78
100
AcDbEntity
8
1
62
256
6
ByLayer
370
18
48
1
60
0
100
AcDbLine
10
0
20
0
30
0
11
0
21
-120.4
31
0
39
0
210
0
220
0
230
1
0
LINE
5
79
100
AcDbEntity
8
1
62
256
6
ByLayer
370
18
48
1
60
0
100
AcDbLine
10
3.013914
20
-147.324519
30
0
11
3.005931
21
-147.324519
31
0
39
0
210
0
220
0
230
1
0
LINE
5
7A
100
AcDbEntity
8
1
62
256
6
ByLayer
370
18
48
1
60
0
100
AcDbLine
10
2.903081
20
-147.324519
30
0
11
2.878982
21
-147.324519
31
0
39
0
210
0
220
0
230
1
0
LINE
5
7B
100
AcDbEntity
8
1
62
256
6
ByLayer
370
18
48
1
60
0
100
AcDbLine
10
2.671315
20
-147.324519
30
0
11
2.630631
21
-147.324519
31
0
39
0
210
0
220
0
230
1
0
LINE
5
7C
100
AcDbEntity
8
1
62
256
6
ByLayer
370
18
48
1
60
0
100
AcDbLine
10
2.314018
20
-147.324519
30
0
11
2.255919
21
-147.324519
31
0
39
0
210
0
220
0
230
1
0
LINE
5
7D
100
AcDbEntity
8
1
62
256
6
ByLayer
370
18
48
1
60
0
100
AcDbLine
10
1.823631
20
-147.324519
30
0
11
1.746831
21
-147.324519
31
0
39
0
210
0
220
0
230
1
0
LINE
5
7E
100
AcDbEntity
8
1
62
256
6
ByLayer
370
18
48
1
60
0
100
AcDbLine
10
1.188752
20
-147.324519
30
0
11
1.091347
21
-147.324519
31
0
39
0
210
0
220
0
230
1
0
LINE
5
7F
100
AcDbEntity
8
1
62
256
6
ByLayer
370
18
48
1
60
0
100
AcDbLine
10
0.392575
20
-147.324519
30
0
11
0.271756
21
-147.324519
31
0
39
0
210
0
220
0
230
1
0
LINE
5
80
100
AcDbEntity
8
1
62
256
6
ByLayer
370
18
48
1
60
0
100
AcDbLine
10
-0.589923
20
-147.324519
30
0
11
-0.7384
21
-147.324519
31
0
39
0
210
0
220
0
230
1
0
LINE
5
81
100
AcDbEntity
8
1
62
256
6
ByLayer
370
18
48
1
60
0
100
AcDbLine
10
-1.797422
20
-147.324519
30
0
11
-1.980327
21
-147.324519
31
0
39
0
210
0
220
0
230
1
0
LINE
5
82
100
AcDbEntity
8
1
62
256
6
ByLayer
370
18
48
1
60
0
100
AcDbLine
10
-3.294037
20
-147.324519
30
0
11
-3.523183
21
-147.324519
31
0
39
0
210
0
220
0
230
1
0
LINE
5
83
100
AcDbEntity
8
1
62
256
6
ByLayer
370
18
48
1
60
0
100
AcDbLine
10
-5.199568
20
-147.324519
30
0
11
-5.499092
21
-147.324519
31
0
39
0
210
0
220
0
230
1
0
LINE
5
84
100
AcDbEntity
8
1
62
256
6
ByLayer
370
18
48
1
60
0
100
AcDbLine
10
-7.794961
20
-147.324519
30
0
11
-8.232808
21
-147.324519
31
0
39
0
210
0
220
0
230
1
0
LINE
5
85
100
AcDbEntity
8
1
62
256
6
ByLayer
370
18
48
1
60
0
100
AcDbLine
10
-12.339597
20
-147.324519
30
0
11
-13.600462
21
-147.324519
31
0
39
0
210
0
220
0
230
1
0
LINE
5
86
100
AcDbEntity
8
1
62
256
6
ByLayer
370
18
48
1
60
0
100
AcDbLine
10
-18.349538
20
-147.324519
30
0
11
-19.610403
21
-147.324519
31
0
39
0
210
0
220
0
230
1
0
LINE
5
87
100
AcDbEntity
8
1
62
256
6
ByLayer
370
18
48
1
60
0
100
AcDbLine
10
-23.717192
20
-147.324519
30
0
11
-24.155039
21
-147.324519
31
0
39
0
210
0
220
0
230
1
0
LINE
5
88
100
AcDbEntity
8
1
62
256
6
ByLayer
370
18
48
1
60
0
100
AcDbLine
10
-26.450908
20
-147.324519
30
0
11
-26.750432
21
-147.324519
31
0
39
0
210
0
220
0
230
1
0
LINE
5
89
100
AcDbEntity
8
1
62
256
6
ByLayer
370
18
48
1
60
0
100
AcDbLine
10
-28.426817
20
-147.324519
30
0
11
-28.655963
21
-147.324519
31
0
39
0
210
0
220
0
230
1
0
LINE
5
8A
100
AcDbEntity
8
1
62
256
6
ByLayer
370
18
48
1
60
0
100
AcDbLine
10
-29.969673
20
-147.324519
30
0
11
-30.152578
21
-147.324519
31
0
39
0
210
0
220
0
230
1
0
LINE
5
8B
100
AcDbEntity
8
1
62
256
6
ByLayer
370
18
48
1
60
0
100
AcDbLine
10
-31.2116
20
-147.324519
30
0
11
-31.360077
21
-147.324519
31
0
39
0
210
0
220
0
230
1
0
LINE
5
8C
100
AcDbEntity
8
1
62
256
6
ByLayer
370
18
48
1
60
0
100
AcDbLine
10
-32.221756
20
-147.324519
30
0
11
-32.342575
21
-147.324519
31
0
39
0
210
0
220
0
230
1
0
LINE
5
8D
100
AcDbEntity
8
1
62
256
6
ByLayer
370
18
48
1
60
0
100
AcDbLine
10
-33.041347
20
-147.324519
30
0
11
-33.138752
21
-147.324519
31
0
39
0
210
0
220
0
230
1
0
LINE
5
8E
100
AcDbEntity
8
1
62
256
6
ByLayer
370
18
48
1
60
0
100
AcDbLine
10
-33.696831
20
-147.324519
30
0
11
-33.773631
21
-147.324519
31
0
39
0
210
0
220
0
230
1
0
LINE
5
8F
100
AcDbEntity
8
1
62
256
6
ByLayer
370
18
48
1
60
0
100
AcDbLine
10
-34.205919
20
-147.324519
30
0
11
-34.264018
21
-147.324519
31
0
39
0
210
0
220
0
230
1
0
LINE
5
90
100
AcDbEntity
8
1
62
256
6
ByLayer
370
18
48
1
60
0
100
AcDbLine
10
-34.580631
20
-147.324519
30
0
11
-34.621315
21
-147.324519
31
0
39
0
210
0
220
0
230
1
0
LINE
5
91
100
AcDbEntity
8
1
62
256
6
ByLayer
370
18
48
1
60
0
100
AcDbLine
10
-34.828982
20
-147.324519
30
0
11
-34.853081
21
-147.324519
31
0
39
0
210
0
220
0
230
1
0
LINE
5
92
100
AcDbEntity
8
1
62
256
6
ByLayer
370
18
48
1
60
0
100
AcDbLine
10
-34.955931
20
-147.324519
30
0
11
-34.963914
21
-147.324519
31
0
39
0
210
0
220
0
230
1
0
LINE
5
93
100
AcDbEntity
8
1
62
256
6
ByLayer
370
13
48
1
60
0
100
AcDbLine
10
4.025001
20
-142.466401
30
0
11
4.024769
21
-142.466704
31
0
39
0
210
0
220
0
230
1
0
LINE
5
94
100
AcDbEntity
8
1
62
256
6
ByLayer
370
13
48
1
60
0
100
AcDbLine
10
-35.974769
20
-142.466704
30
0
11
-35.975007
21
-142.466403
31
0
39
0
210
0
220
0
230
1
0
LINE
5
95
100
AcDbEntity
8
1
62
256
6
ByLayer
370
18
48
1
60
0
100
AcDbLine
10
-35.975007
20
-142.466403
30
0
11
-35.974953
21
-142.466533
31
0
39
0
210
0
220
0
230
1
0
LINE
5
96
100
AcDbEntity
8
1
62
256
6
ByLayer
370
18
48
1
60
0
100
AcDbLine
10
0
20
0
30
0
11
-31.95
21
0
31
0
39
0
210
0
220
0
230
1
0
LINE
5
97
100
AcDbEntity
8
1
62
256
6
ByLayer
370
18
48
1
60
0
100
AcDbLine
10
-36.125
20
-131.260507
30
0
11
-36.125
21
-142
31
0
39
0
210
0
220
0
230
1
0
LINE
5
98
100
AcDbEntity
8
1
62
256
6
ByLayer
370
18
48
1
60
0
100
AcDbLine
10
4.175
20
-131.260507
30
0
11
4.175
21
-142
31
0
39
0
210
0
220
0
230
1
0
LINE
5
99
100
AcDbEntity
8
1
62
256
6
ByLayer
370
13
48
1
60
0
100
AcDbLine
10
-31.95
20
-120.4
30
0
11
0
21
-120.4
31
0
39
0
210
0
220
0
230
1
0
LINE
5
9A
100
AcDbEntity
8
1
62
256
6
ByLayer
370
18
48
1
60
0
100
AcDbLine
10
-36.125
20
-142
30
0
11
4.175
21
-142
31
0
39
0
210
0
220
0
230
1
0
LINE
5
9B
100
AcDbEntity
8
1
62
256
6
ByLayer
370
18
48
1
60
0
100
AcDbLine
10
4.025
20
-146.324519
30
0
11
-35.975
21
-146.324519
31
0
39
0
210
0
220
0
230
1
0
LINE
5
9C
100
AcDbEntity
8
1
62
256
6
ByLayer
370
13
48
1
60
0
100
AcDbLine
10
-35.647581
20
-146.605481
30
0
11
-35.625115
21
-146.605481
31
0
39
0
210
0
220
0
230
1
0
LINE
5
9D
100
AcDbEntity
8
1
62
256
6
ByLayer
370
13
48
1
60
0
100
AcDbLine
10
3.675115
20
-146.605481
30
0
11
3.697581
21
-146.605481
31
0
39
0
210
0
220
0
230
1
0
LINE
5
9E
100
AcDbEntity
8
1
62
256
6
ByLayer
370
13
48
1
60
0
100
AcDbLine
10
-35.024761
20
-147.249519
30
0
11
-34.942694
21
-147.249519
31
0
39
0
210
0
220
0
230
1
0
LINE
5
9F
100
AcDbEntity
8
1
62
256
6
ByLayer
370
13
48
1
60
0
100
AcDbLine
10
2.992694
20
-147.249519
30
0
11
3.074761
21
-147.249519
31
0
39
0
210
0
220
0
230
1
0
LINE
5
A0
100
AcDbEntity
8
1
62
256
6
ByLayer
370
18
48
1
60
0
100
AcDbLine
10
-34.955931
20
-147.324519
30
0
11
-34.853056
21
-147.324519
31
0
39
0
210
0
220
0
230
1
0
LINE
5
A1
100
AcDbEntity
8
1
62
256
6
ByLayer
370
18
48
1
60
0
100
AcDbLine
10
2.903056
20
-147.324519
30
0
11
3.005931
21
-147.324519
31
0
39
0
210
0
220
0
230
1
0
LINE
5
A2
100
AcDbEntity
8
1
62
256
6
ByLayer
370
13
48
1
60
0
100
AcDbLine
10
-35.48659
20
-146.605481
30
0
11
-35.441107
21
-146.605481
31
0
39
0
210
0
220
0
230
1
0
LINE
5
A3
100
AcDbEntity
8
1
62
256
6
ByLayer
370
13
48
1
60
0
100
AcDbLine
10
3.491107
20
-146.605481
30
0
11
3.53659
21
-146.605481
31
0
39
0
210
0
220
0
230
1
0
LINE
5
A4
100
AcDbEntity
8
1
62
256
6
ByLayer
370
13
48
1
60
0
100
AcDbLine
10
-34.887973
20
-147.249519
30
0
11
-34.722538
21
-147.249519
31
0
39
0
210
0
220
0
230
1
0
LINE
5
A5
100
AcDbEntity
8
1
62
256
6
ByLayer
370
13
48
1
60
0
100
AcDbLine
10
2.772538
20
-147.249519
30
0
11
2.937973
21
-147.249519
31
0
39
0
210
0
220
0
230
1
0
LINE
5
A6
100
AcDbEntity
8
1
62
256
6
ByLayer
370
18
48
1
60
0
100
AcDbLine
10
-34.828982
20
-147.324519
30
0
11
-34.621204
21
-147.324519
31
0
39
0
210
0
220
0
230
1
0
LINE
5
A7
100
AcDbEntity
8
1
62
256
6
ByLayer
370
18
48
1
60
0
100
AcDbLine
10
2.671204
20
-147.324519
30
0
11
2.878982
21
-147.324519
31
0
39
0
210
0
220
0
230
1
0
LINE
5
A8
100
AcDbEntity
8
1
62
256
6
ByLayer
370
13
48
1
60
0
100
AcDbLine
10
-35.207624
20
-146.605481
30
0
11
-35.138495
21
-146.605481
31
0
39
0
210
0
220
0
230
1
0
LINE
5
A9
100
AcDbEntity
8
1
62
256
6
ByLayer
370
13
48
1
60
0
100
AcDbLine
10
3.188495
20
-146.605481
30
0
11
3.257624
21
-146.605481
31
0
39
0
210
0
220
0
230
1
0
LINE
5
AA
100
AcDbEntity
8
1
62
256
6
ByLayer
370
13
48
1
60
0
100
AcDbLine
10
-34.629966
20
-147.249519
30
0
11
-34.377791
21
-147.249519
31
0
39
0
210
0
220
0
230
1
0
LINE
5
AB
100
AcDbEntity
8
1
62
256
6
ByLayer
370
13
48
1
60
0
100
AcDbLine
10
2.427791
20
-147.249519
30
0
11
2.679966
21
-147.249519
31
0
39
0
210
0
220
0
230
1
0
LINE
5
AC
100
AcDbEntity
8
1
62
256
6
ByLayer
370
18
48
1
60
0
100
AcDbLine
10
-34.580631
20
-147.324519
30
0
11
-34.263879
21
-147.324519
31
0
39
0
210
0
220
0
230
1
0
LINE
5
AD
100
AcDbEntity
8
1
62
256
6
ByLayer
370
18
48
1
60
0
100
AcDbLine
10
2.313879
20
-147.324519
30
0
11
2.630631
21
-147.324519
31
0
39
0
210
0
220
0
230
1
0
LINE
5
AE
100
AcDbEntity
8
1
62
256
6
ByLayer
370
13
48
1
60
0
100
AcDbLine
10
-34.80544
20
-146.605481
30
0
11
-34.711189
21
-146.605481
31
0
39
0
210
0
220
0
230
1
0
LINE
5
AF
100
AcDbEntity
8
1
62
256
6
ByLayer
370
13
48
1
60
0
100
AcDbLine
10
2.761189
20
-146.605481
30
0
11
2.85544
21
-146.605481
31
0
39
0
210
0
220
0
230
1
0
LINE
5
B0
100
AcDbEntity
8
1
62
256
6
ByLayer
370
13
48
1
60
0
100
AcDbLine
10
-34.245603
20
-147.249519
30
0
11
-33.901431
21
-147.249519
31
0
39
0
210
0
220
0
230
1
0
LINE
5
B1
100
AcDbEntity
8
1
62
256
6
ByLayer
370
13
48
1
60
0
100
AcDbLine
10
1.951431
20
-147.249519
30
0
11
2.295603
21
-147.249519
31
0
39
0
210
0
220
0
230
1
0
LINE
5
B2
100
AcDbEntity
8
1
62
256
6
ByLayer
370
18
48
1
60
0
100
AcDbLine
10
-34.205919
20
-147.324519
30
0
11
-33.773528
21
-147.324519
31
0
39
0
210
0
220
0
230
1
0
LINE
5
B3
100
AcDbEntity
8
1
62
256
6
ByLayer
370
18
48
1
60
0
100
AcDbLine
10
1.823528
20
-147.324519
30
0
11
2.255919
21
-147.324519
31
0
39
0
210
0
220
0
230
1
0
LINE
5
B4
100
AcDbEntity
8
1
62
256
6
ByLayer
370
18
48
1
60
0
100
AcDbLine
10
1.188745
20
-147.324519
30
0
11
1.746831
21
-147.324519
31
0
39
0
210
0
220
0
230
1
0
LINE
5
B5
100
AcDbEntity
8
1
62
256
6
ByLayer
370
13
48
1
60
0
100
AcDbLine
10
1.332484
20
-147.249519
30
0
11
1.776679
21
-147.249519
31
0
39
0
210
0
220
0
230
1
0
LINE
5
B6
100
AcDbEntity
8
1
62
256
6
ByLayer
370
18
48
1
60
0
100
AcDbLine
10
-33.696831
20
-147.324519
30
0
11
-33.138745
21
-147.324519
31
0
39
0
210
0
220
0
230
1
0
LINE
5
B7
100
AcDbEntity
8
1
62
256
6
ByLayer
370
13
48
1
60
0
100
AcDbLine
10
2.200778
20
-146.605481
30
0
11
2.321917
21
-146.605481
31
0
39
0
210
0
220
0
230
1
0
LINE
5
B8
100
AcDbEntity
8
1
62
256
6
ByLayer
370
13
48
1
60
0
100
AcDbLine
10
-33.726679
20
-147.249519
30
0
11
-33.282484
21
-147.249519
31
0
39
0
210
0
220
0
230
1
0
LINE
5
B9
100
AcDbEntity
8
1
62
256
6
ByLayer
370
13
48
1
60
0
100
AcDbLine
10
-34.271917
20
-146.605481
30
0
11
-34.150778
21
-146.605481
31
0
39
0
210
0
220
0
230
1
0
LINE
5
BA
100
AcDbEntity
8
1
62
256
6
ByLayer
370
18
48
1
60
0
100
AcDbLine
10
0.392558
20
-147.324519
30
0
11
1.091347
21
-147.324519
31
0
39
0
210
0
220
0
230
1
0
LINE
5
BB
100
AcDbEntity
8
1
62
256
6
ByLayer
370
13
48
1
60
0
100
AcDbLine
10
-33.595126
20
-146.605481
30
0
11
-33.44404
21
-146.605481
31
0
39
0
210
0
220
0
230
1
0
LINE
5
BC
100
AcDbEntity
8
1
62
256
6
ByLayer
370
13
48
1
60
0
100
AcDbLine
10
0.555034
20
-147.249519
30
0
11
1.110938
21
-147.249519
31
0
39
0
210
0
220
0
230
1
0
LINE
5
BD
100
AcDbEntity
8
1
62
256
6
ByLayer
370
18
48
1
60
0
100
AcDbLine
10
-33.041347
20
-147.324519
30
0
11
-32.342558
21
-147.324519
31
0
39
0
210
0
220
0
230
1
0
LINE
5
BE
100
AcDbEntity
8
1
62
256
6
ByLayer
370
13
48
1
60
0
100
AcDbLine
10
1.49404
20
-146.605481
30
0
11
1.645126
21
-146.605481
31
0
39
0
210
0
220
0
230
1
0
LINE
5
BF
100
AcDbEntity
8
1
62
256
6
ByLayer
370
13
48
1
60
0
100
AcDbLine
10
-33.060938
20
-147.249519
30
0
11
-32.505034
21
-147.249519
31
0
39
0
210
0
220
0
230
1
0
LINE
5
C0
100
AcDbEntity
8
1
62
256
6
ByLayer
370
18
48
1
60
0
100
AcDbLine
10
-0.589943
20
-147.324519
30
0
11
0.271756
21
-147.324519
31
0
39
0
210
0
220
0
230
1
0
LINE
5
C1
100
AcDbEntity
8
1
62
256
6
ByLayer
370
13
48
1
60
0
100
AcDbLine
10
-0.404666
20
-147.249519
30
0
11
0.280352
21
-147.249519
31
0
39
0
210
0
220
0
230
1
0
LINE
5
C2
100
AcDbEntity
8
1
62
256
6
ByLayer
370
18
48
1
60
0
100
AcDbLine
10
-32.221756
20
-147.324519
30
0
11
-31.360057
21
-147.324519
31
0
39
0
210
0
220
0
230
1
0
LINE
5
C3
100
AcDbEntity
8
1
62
256
6
ByLayer
370
13
48
1
60
0
100
AcDbLine
10
0.62248
20
-146.605481
30
0
11
0.807744
21
-146.605481
31
0
39
0
210
0
220
0
230
1
0
LINE
5
C4
100
AcDbEntity
8
1
62
256
6
ByLayer
370
13
48
1
60
0
100
AcDbLine
10
-32.230352
20
-147.249519
30
0
11
-31.545334
21
-147.249519
31
0
39
0
210
0
220
0
230
1
0
LINE
5
C5
100
AcDbEntity
8
1
62
256
6
ByLayer
370
13
48
1
60
0
100
AcDbLine
10
-32.757744
20
-146.605481
30
0
11
-32.57248
21
-146.605481
31
0
39
0
210
0
220
0
230
1
0
LINE
5
C6
100
AcDbEntity
8
1
62
256
6
ByLayer
370
18
48
1
60
0
100
AcDbLine
10
-1.797402
20
-147.324519
30
0
11
-0.7384
21
-147.324519
31
0
39
0
210
0
220
0
230
1
0
LINE
5
C7
100
AcDbEntity
8
1
62
256
6
ByLayer
370
13
48
1
60
0
100
AcDbLine
10
-1.583038
20
-147.249519
30
0
11
-0.742021
21
-147.249519
31
0
39
0
210
0
220
0
230
1
0
LINE
5
C8
100
AcDbEntity
8
1
62
256
6
ByLayer
370
18
48
1
60
0
100
AcDbLine
10
-31.2116
20
-147.324519
30
0
11
-30.152598
21
-147.324519
31
0
39
0
210
0
220
0
230
1
0
LINE
5
C9
100
AcDbEntity
8
1
62
256
6
ByLayer
370
13
48
1
60
0
100
AcDbLine
10
-31.734193
20
-146.605481
30
0
11
-31.508345
21
-146.605481
31
0
39
0
210
0
220
0
230
1
0
LINE
5
CA
100
AcDbEntity
8
1
62
256
6
ByLayer
370
13
48
1
60
0
100
AcDbLine
10
-0.441655
20
-146.605481
30
0
11
-0.215807
21
-146.605481
31
0
39
0
210
0
220
0
230
1
0
LINE
5
CB
100
AcDbEntity
8
1
62
256
6
ByLayer
370
13
48
1
60
0
100
AcDbLine
10
-31.207979
20
-147.249519
30
0
11
-30.366962
21
-147.249519
31
0
39
0
210
0
220
0
230
1
0
LINE
5
CC
100
AcDbEntity
8
1
62
256
6
ByLayer
370
18
48
1
60
0
100
AcDbLine
10
-3.294035
20
-147.324519
30
0
11
-1.980327
21
-147.324519
31
0
39
0
210
0
220
0
230
1
0
LINE
5
CD
100
AcDbEntity
8
1
62
256
6
ByLayer
370
13
48
1
60
0
100
AcDbLine
10
-30.485129
20
-146.605481
30
0
11
-30.20853
21
-146.605481
31
0
39
0
210
0
220
0
230
1
0
LINE
5
CE
100
AcDbEntity
8
1
62
256
6
ByLayer
370
13
48
1
60
0
100
AcDbLine
10
-1.74147
20
-146.605481
30
0
11
-1.464871
21
-146.605481
31
0
39
0
210
0
220
0
230
1
0
LINE
5
CF
100
AcDbEntity
8
1
62
256
6
ByLayer
370
13
48
1
60
0
100
AcDbLine
10
-29.951796
20
-147.249519
30
0
11
-28.9103
21
-147.249519
31
0
39
0
210
0
220
0
230
1
0
LINE
5
D0
100
AcDbEntity
8
1
62
256
6
ByLayer
370
13
48
1
60
0
100
AcDbLine
10
-3.0397
20
-147.249519
30
0
11
-1.998204
21
-147.249519
31
0
39
0
210
0
220
0
230
1
0
LINE
5
D1
100
AcDbEntity
8
1
62
256
6
ByLayer
370
18
48
1
60
0
100
AcDbLine
10
-29.969673
20
-147.324519
30
0
11
-28.655965
21
-147.324519
31
0
39
0
210
0
220
0
230
1
0
LINE
5
D2
100
AcDbEntity
8
1
62
256
6
ByLayer
370
13
48
1
60
0
100
AcDbLine
10
-28.945564
20
-146.605481
30
0
11
-28.600222
21
-146.605481
31
0
39
0
210
0
220
0
230
1
0
LINE
5
D3
100
AcDbEntity
8
1
62
256
6
ByLayer
370
13
48
1
60
0
100
AcDbLine
10
-3.349778
20
-146.605481
30
0
11
-3.004436
21
-146.605481
31
0
39
0
210
0
220
0
230
1
0
LINE
5
D4
100
AcDbEntity
8
1
62
256
6
ByLayer
370
13
48
1
60
0
100
AcDbLine
10
-28.391038
20
-147.249519
30
0
11
-27.066014
21
-147.249519
31
0
39
0
210
0
220
0
230
1
0
LINE
5
D5
100
AcDbEntity
8
1
62
256
6
ByLayer
370
13
48
1
60
0
100
AcDbLine
10
-4.883986
20
-147.249519
30
0
11
-3.558962
21
-147.249519
31
0
39
0
210
0
220
0
230
1
0
LINE
5
D6
100
AcDbEntity
8
1
62
256
6
ByLayer
370
18
48
1
60
0
100
AcDbLine
10
-28.426817
20
-147.324519
30
0
11
-26.750102
21
-147.324519
31
0
39
0
210
0
220
0
230
1
0
LINE
5
D7
100
AcDbEntity
8
1
62
256
6
ByLayer
370
18
48
1
60
0
100
AcDbLine
10
-5.199898
20
-147.324519
30
0
11
-3.523183
21
-147.324519
31
0
39
0
210
0
220
0
230
1
0
LINE
5
D8
100
AcDbEntity
8
1
62
256
6
ByLayer
370
13
48
1
60
0
100
AcDbLine
10
-26.994401
20
-146.605481
30
0
11
-26.543983
21
-146.605481
31
0
39
0
210
0
220
0
230
1
0
LINE
5
D9
100
AcDbEntity
8
1
62
256
6
ByLayer
370
13
48
1
60
0
100
AcDbLine
10
-5.406017
20
-146.605481
30
0
11
-4.955599
21
-146.605481
31
0
39
0
210
0
220
0
230
1
0
LINE
5
DA
100
AcDbEntity
8
1
62
256
6
ByLayer
370
13
48
1
60
0
100
AcDbLine
10
-26.389662
20
-147.249519
30
0
11
-24.589227
21
-147.249519
31
0
39
0
210
0
220
0
230
1
0
LINE
5
DB
100
AcDbEntity
8
1
62
256
6
ByLayer
370
13
48
1
60
0
100
AcDbLine
10
-7.360773
20
-147.249519
30
0
11
-5.560338
21
-147.249519
31
0
39
0
210
0
220
0
230
1
0
LINE
5
DC
100
AcDbEntity
8
1
62
256
6
ByLayer
370
18
48
1
60
0
100
AcDbLine
10
-26.450908
20
-147.324519
30
0
11
-24.15472
21
-147.324519
31
0
39
0
210
0
220
0
230
1
0
LINE
5
DD
100
AcDbEntity
8
1
62
256
6
ByLayer
370
18
48
1
60
0
100
AcDbLine
10
-7.79528
20
-147.324519
30
0
11
-5.499092
21
-147.324519
31
0
39
0
210
0
220
0
230
1
0
LINE
5
DE
100
AcDbEntity
8
1
62
256
6
ByLayer
370
13
48
1
60
0
100
AcDbLine
10
-24.348701
20
-146.605481
30
0
11
-23.689795
21
-146.605481
31
0
39
0
210
0
220
0
230
1
0
LINE
5
DF
100
AcDbEntity
8
1
62
256
6
ByLayer
370
13
48
1
60
0
100
AcDbLine
10
-8.260205
20
-146.605481
30
0
11
-7.601299
21
-146.605481
31
0
39
0
210
0
220
0
230
1
0
LINE
5
E0
100
AcDbEntity
8
1
62
256
6
ByLayer
370
13
48
1
60
0
100
AcDbLine
10
-23.608633
20
-147.249519
30
0
11
-20.546592
21
-147.249519
31
0
39
0
210
0
220
0
230
1
0
LINE
5
E1
100
AcDbEntity
8
1
62
256
6
ByLayer
370
13
48
1
60
0
100
AcDbLine
10
-11.403408
20
-147.249519
30
0
11
-8.341367
21
-147.249519
31
0
39
0
210
0
220
0
230
1
0
LINE
5
E2
100
AcDbEntity
8
1
62
256
6
ByLayer
370
18
48
1
60
0
100
AcDbLine
10
-23.717192
20
-147.324519
30
0
11
-19.610201
21
-147.324519
31
0
39
0
210
0
220
0
230
1
0
LINE
5
E3
100
AcDbEntity
8
1
62
256
6
ByLayer
370
18
48
1
60
0
100
AcDbLine
10
-12.339799
20
-147.324519
30
0
11
-8.232808
21
-147.324519
31
0
39
0
210
0
220
0
230
1
0
LINE
5
E4
100
AcDbEntity
8
1
62
256
6
ByLayer
370
13
48
1
60
0
100
AcDbLine
10
-19.757927
20
-146.605481
30
0
11
-17.656275
21
-146.605481
31
0
39
0
210
0
220
0
230
1
0
LINE
5
E5
100
AcDbEntity
8
1
62
256
6
ByLayer
370
13
48
1
60
0
100
AcDbLine
10
-14.293725
20
-146.605481
30
0
11
-12.192073
21
-146.605481
31
0
39
0
210
0
220
0
230
1
0
LINE
5
E6
100
AcDbEntity
8
1
62
256
6
ByLayer
370
13
48
1
60
0
100
AcDbLine
10
-17.866967
20
-147.249519
30
0
11
-14.083033
21
-147.249519
31
0
39
0
210
0
220
0
230
1
0
LINE
5
E7
100
AcDbEntity
8
1
62
256
6
ByLayer
370
18
48
1
60
0
100
AcDbLine
10
-18.349538
20
-147.324519
30
0
11
-13.600462
21
-147.324519
31
0
39
0
210
0
220
0
230
1
0
LINE
5
E8
100
AcDbEntity
8
80
62
256
6
ByLayer
370
18
48
0.05
60
0
100
AcDbLine
10
0
20
0
30
0
11
0
21
17.835292
31
0
39
0
210
0
220
0
230
1
0
LINE
5
E9
100
AcDbEntity
8
81
62
256
6
ByLayer
370
18
48
0.05
60
0
100
AcDbLine
10
-15.975
20
-149.335292
30
0
11
-15.975
21
-147
31
0
39
0
210
0
220
0
230
1
0
MTEXT
5
180
100
AcDbEntity
8
SK6
62
256
6
ByLayer
370
18
48
1
60
0
100
AcDbMText
10
-67.182515
20
-81.609501
30
0
210
0
220
0
230
1
1
\W0.7371;570-40NG-3232
40
3
41
0
44
1.084337
50
89.9999999999999
71
7
72
5
7
iso_b_vert
0
DIMENSION
5
193
100
AcDbEntity
8
SK2
62
256
6
ByLayer
370
13
48
1
60
0
100
AcDbDimension
2
DimnDraft3D1
10
4.023469
20
-169.414919
30
0
11
-14.192819
21
-165.163805
31
0
70
33
71
5
72
1
41
1
210
0
220
0
230
1
3
Standard
100
AcDbAlignedDimension
13
-35.975122
23
-146.39553
33
0
14
4.024878
24
-146.397977
34
0
1001
ACAD
1000
DSTYLE
1002
{
1070
   279
1070
     0
1070
    74
1070
     0
1070
   173
1070
     1
1070
   340
1005
181
1070
    77
1070
     1
1070
    73
1070
     0
1070
   171
1070
     3
1070
   274
1070
     4
1070
   177
1070
   254
1070
   176
1070
   254
1070
   178
1070
   254
1070
    78
1070
     8
1070
    41
1041
3.175
1070
   147
1041
1.5
1070
    42
1041
2.0
1070
    44
1041
2.0
1070
   140
1041
3.0
1070
   343
1005
0
1070
   344
1005
0
1002
}
0
DIMENSION
5
1A1
100
AcDbEntity
8
SK2
62
256
6
ByLayer
370
13
48
1
60
0
100
AcDbDimension
2
DimnDraft3D2
10
-50.138989
20
0
30
0
11
-50.138989
21
-76.196053
31
0
70
32
71
5
72
1
41
1
210
0
220
0
230
1
3
Standard
100
AcDbAlignedDimension
13
-17.975
23
-147
33
0
14
-33.95
24
0
34
0
50
90
100
AcDbRotatedDimension
1001
ACAD
1000
DSTYLE
1002
{
1070
    74
1070
     0
1070
   279
1070
     0
1070
   172
1070
     1
1070
   173
1070
     1
1070
   340
1005
181
1070
    77
1070
     1
1070
    73
1070
     0
1070
   171
1070
     3
1070
   274
1070
     4
1070
   177
1070
   254
1070
   176
1070
   254
1070
   178
1070
   254
1070
    78
1070
     8
1070
    41
1041
3.175
1070
   147
1041
1.5
1070
    42
1041
2.0
1070
    44
1041
2.0
1070
   140
1041
3.0
1070
   343
1005
0
1070
   344
1005
0
1002
}
0
DIMENSION
5
1AF
100
AcDbEntity
8
SK2
62
256
6
ByLayer
370
13
48
1
60
0
100
AcDbDimension
2
DimnDraft3D3
10
-31.95
20
10.949865
30
0
11
-17.767105
21
10.949865
31
0
70
32
71
5
72
1
41
1
210
0
220
0
230
1
3
Standard
100
AcDbAlignedDimension
13
0
23
2
33
0
14
-31.95
24
2
34
0
50
0
100
AcDbRotatedDimension
1001
ACAD
1000
DSTYLE
1002
{
1070
   279
1070
     0
1070
   172
1070
     1
1070
   173
1070
     1
1070
   340
1005
181
1070
   271
1070
     0
1070
    77
1070
     1
1070
    73
1070
     0
1070
   171
1070
     3
1070
   274
1070
     4
1070
   177
1070
   254
1070
   176
1070
   254
1070
   178
1070
   254
1070
    78
1070
     8
1070
    41
1041
3.175
1070
   147
1041
1.5
1070
    42
1041
2.0
1070
    44
1041
2.0
1070
   140
1041
3.0
1070
   343
1005
1B0
1070
   344
1005
1B0
1002
}
0
ENDSEC
0
SECTION
2
OBJECTS
0
DICTIONARY
5
21f
330
0
100
AcDbDictionary
280
0
281
1
3
ACAD_GROUP
350
220
3
ACAD_MLINESTYLE
350
221
0
DICTIONARY
5
220
330
0
100
AcDbDictionary
280
0
281
1
0
DICTIONARY
5
221
330
0
100
AcDbDictionary
280
0
281
1
3
Standard
350
18
0
MLINESTYLE
5
18
330
221
100
AcDbMlineStyle
2
Standard
70
0
3

62
256
51
90
52
90
71
2
49
-0.5
62
256
6
ByLayer
49
0.5
62
256
6
ByLayer
0
RASTERVARIABLES
5
20f
330

100
AcDbRasterVariables
90
0
70
1
71
1
72
1
0
ENDSEC
0
EOF
