0
SECTION
2
HEADER
9
$ACADVER
1
AC1015
9
$DWGCODEPAGE
3
ANSI_1252
9
$HANDSEED
5
219
9
$ANGBASE
50
0
9
$ANGDIR
70
0
9
$ATTMODE
70
1
9
$AUNITS
70
0
9
$AUPREC
70
0
9
$CECOLOR
62
256
9
$CELTSCALE
40
1
9
$CELTYPE
6
ByLayer
9
$CELWEIGHT
370
18
9
$CLAYER
8
0
9
$CMLJUST
70
0
9
$CMLSCALE
40
1
9
$CMLSTYLE
2
Standard
9
$DIMSTYLE
2
Standard
9
$TEXTSIZE
40
0.2
9
$TEXTSTYLE
7
Standard
9
$LUNITS
70
2
9
$LUPREC
70
4
9
$EXTNAMES
290
1
9
$INSUNITS
70
4
9
$LTSCALE
40
1
9
$LWDISPLAY
290
1
9
$PDMODE
70
0
9
$PDSIZE
40
0
9
$PLINEGEN
70
0
0
ENDSEC
0
SECTION
2
CLASSES
0
CLASS
1
RASTERVARIABLES
2
AcDbRasterVariables
3
ISM
90
0
280
0
281
0
0
ENDSEC
0
SECTION
2
TABLES
0
TABLE
2
VPORT
5
20f
100
AcDbSymbolTable
0
VPORT
5
1
100
AcDbSymbolTableRecord
100
AcDbViewportTableRecord
2
*Active
70
0
10
0
20
0
11
1
21
1
12
-1
22
1
13
0
23
0
14
0.5
24
0.5
15
10
25
10
16
0
26
0
36
1
17
0
27
0
37
0
0
ENDTAB
0
TABLE
2
LTYPE
5
210
100
AcDbSymbolTable
0
LTYPE
5
14
100
AcDbSymbolTableRecord
100
AcDbLinetypeTableRecord
70
0
2
ByBlock
3

72
65
73
0
40
0
0
LTYPE
5
15
100
AcDbSymbolTableRecord
100
AcDbLinetypeTableRecord
70
0
2
ByLayer
3

72
65
73
0
40
0
0
LTYPE
5
16
100
AcDbSymbolTableRecord
100
AcDbLinetypeTableRecord
70
0
2
CONTINUOUS
3
Solid line
72
65
73
0
40
0
0
LTYPE
5
6A
100
AcDbSymbolTableRecord
100
AcDbLinetypeTableRecord
70
0
2
CENTER
3
____ _ ____ _ ____ _ ____
72
65
73
4
40
47.5
49
22
74
0
49
-8.5
74
0
49
8.5
74
0
49
-8.5
74
0
0
LTYPE
5
6B
100
AcDbSymbolTableRecord
100
AcDbLinetypeTableRecord
70
0
2
DASHED
3
__ __ __ __ __ __ __ __ __
72
65
73
2
40
25.72
49
12.86
74
0
49
-12.86
74
0
0
ENDTAB
0
TABLE
2
LAYER
5
211
100
AcDbSymbolTable
0
LAYER
5
10
100
AcDbSymbolTableRecord
100
AcDbLayerTableRecord
2
0
70
0
62
7
6
CONTINUOUS
290
1
370
-3
390
0
0
LAYER
5
6D
100
AcDbSymbolTableRecord
100
AcDbLayerTableRecord
2
80
70
0
62
-6
6
CONTINUOUS
290
1
370
-3
390
0
0
LAYER
5
6F
100
AcDbSymbolTableRecord
100
AcDbLayerTableRecord
2
81
70
0
62
-3
6
CONTINUOUS
290
1
370
-3
390
0
0
LAYER
5
72
100
AcDbSymbolTableRecord
100
AcDbLayerTableRecord
2
4
70
0
62
-2
6
CENTER
290
1
370
-3
390
0
0
LAYER
5
82
100
AcDbSymbolTableRecord
100
AcDbLayerTableRecord
2
1
70
0
62
4
6
CONTINUOUS
290
1
370
-3
390
0
0
LAYER
5
16E
100
AcDbSymbolTableRecord
100
AcDbLayerTableRecord
2
2
70
0
62
7
6
CONTINUOUS
290
1
370
-3
390
0
0
LAYER
5
1fb
100
AcDbSymbolTableRecord
100
AcDbLayerTableRecord
2
SK4
70
0
62
2
6
CENTER
290
1
370
-3
390
0
0
LAYER
5
1fc
100
AcDbSymbolTableRecord
100
AcDbLayerTableRecord
2
SK1
70
0
62
4
6
CONTINUOUS
290
1
370
-3
390
0
0
LAYER
5
1fd
100
AcDbSymbolTableRecord
100
AcDbLayerTableRecord
2
SK6
70
0
62
5
6
CONTINUOUS
290
1
370
-3
390
0
0
LAYER
5
1fe
100
AcDbSymbolTableRecord
100
AcDbLayerTableRecord
2
SK2
70
0
62
7
6
CONTINUOUS
290
1
370
-3
390
0
0
ENDTAB
0
TABLE
2
STYLE
5
212
100
AcDbSymbolTable
0
STYLE
5
11
100
AcDbSymbolTableRecord
100
AcDbTextStyleTableRecord
2
Standard
3
txt
70
0
71
0
40
0
41
1
42
0
50
0
0
STYLE
5
169
100
AcDbSymbolTableRecord
100
AcDbTextStyleTableRecord
2
iso_b_vert
3
simplex.shx
70
0
71
0
40
0
41
1
42
0
50
0
0
STYLE
5
16A
100
AcDbSymbolTableRecord
100
AcDbTextStyleTableRecord
2
DWGDirectTextStyle
3
simplex
70
0
71
0
40
0
41
1
42
0
50
0
0
ENDTAB
0
TABLE
2
DIMSTYLE
5
213
100
AcDbSymbolTable
100
AcDbDimStyleTable
0
DIMSTYLE
105
27
100
AcDbSymbolTableRecord
100
AcDbDimStyleTableRecord
2
Standard
70
0
3
<>
41
0.18
42
0.0625
44
0.18
140
0.18
147
0.09
73
0
74
0
77
1
271
2
275
0
278
52
280
0
340
11
0
ENDTAB
0
TABLE
2
VIEW
5
214
100
AcDbSymbolTable
0
ENDTAB
0
TABLE
2
UCS
5
215
100
AcDbSymbolTable
0
ENDTAB
0
TABLE
2
APPID
5
216
100
AcDbSymbolTable
0
APPID
5
12
100
AcDbSymbolTableRecord
100
AcDbRegAppTableRecord
2
ACAD
70
0
0
ENDTAB
0
TABLE
2
BLOCK_RECORD
5
217
100
AcDbSymbolTable
0
BLOCK_RECORD
5
1F
100
AcDbSymbolTableRecord
100
AcDbBlockTableRecord
2
*Model_Space
340
0
70
0
0
BLOCK_RECORD
5
1B
100
AcDbSymbolTableRecord
100
AcDbBlockTableRecord
2
*Paper_Space
340
0
70
0
0
BLOCK_RECORD
5
23
100
AcDbSymbolTableRecord
100
AcDbBlockTableRecord
2
*Paper_Space0
340
0
70
0
0
BLOCK_RECORD
5
16C
100
AcDbSymbolTableRecord
100
AcDbBlockTableRecord
2
DimnDraft3D1
340
0
70
0
0
BLOCK_RECORD
5
177
100
AcDbSymbolTableRecord
100
AcDbBlockTableRecord
2
DimnDraft3D2
340
0
70
0
0
BLOCK_RECORD
5
183
100
AcDbSymbolTableRecord
100
AcDbBlockTableRecord
2
DimnDraft3D3
340
0
70
0
0
BLOCK_RECORD
5
18D
100
AcDbSymbolTableRecord
100
AcDbBlockTableRecord
2
DimnDraft3D44
340
0
70
0
0
BLOCK_RECORD
5
197
100
AcDbSymbolTableRecord
100
AcDbBlockTableRecord
2
DimnDraft3D5
340
0
70
0
0
ENDTAB
0
ENDSEC
0
SECTION
2
BLOCKS
0
BLOCK
5
20
100
AcDbEntity
8
0
100
AcDbBlockBegin
2
*Model_Space
70
0
10
0
20
0
30
0
3
*Model_Space
0
ENDBLK
5
21
100
AcDbEntity
8
0
100
AcDbBlockEnd
0
BLOCK
5
1C
100
AcDbEntity
8
0
100
AcDbBlockBegin
2
*Paper_Space
70
0
10
0
20
0
30
0
3
*Paper_Space
0
ENDBLK
5
1D
100
AcDbEntity
8
0
100
AcDbBlockEnd
0
BLOCK
5
24
100
AcDbEntity
8
0
100
AcDbBlockBegin
2
*Paper_Space0
70
0
10
0
20
0
30
0
3
*Paper_Space0
0
ENDBLK
5
25
100
AcDbEntity
8
0
100
AcDbBlockEnd
0
BLOCK
5
174
100
AcDbEntity
8
0
100
AcDbBlockBegin
2
DimnDraft3D1
70
0
10
0
20
0
30
0
3
DimnDraft3D1
0
MTEXT
5
16D
100
AcDbEntity
8
2
62
256
6
ByLayer
370
13
48
1
60
0
100
AcDbMText
10
281.710658
20
43.673424
30
0
210
0
220
0
230
1
1
\W0.7138;568
40
3.175
41
0
44
1.084337
50
0
71
7
72
5
7
iso_b_vert
0
LINE
5
16F
100
AcDbEntity
8
2
62
256
6
ByLayer
370
13
48
1
60
0
100
AcDbLine
10
0
20
1.5875
30
0
11
0
21
46.054674
31
0
39
0
210
0
220
0
230
1
0
LINE
5
170
100
AcDbEntity
8
2
62
256
6
ByLayer
370
13
48
1
60
0
100
AcDbLine
10
568
20
11.5875
30
0
11
568
21
46.054674
31
0
39
0
210
0
220
0
230
1
0
LINE
5
171
100
AcDbEntity
8
2
62
256
6
ByLayer
370
13
48
1
60
0
100
AcDbLine
10
0
20
42.879674
30
0
11
568
21
42.879674
31
0
39
0
210
0
220
0
230
1
0
SOLID
5
172
100
AcDbEntity
8
2
62
256
6
ByLayer
370
13
48
1
60
0
100
AcDbTrace
10
0
20
42.879674
30
0
11
3.174998
21
43.297671
31
0
12
3.175002
22
42.461678
32
0
13
0
23
42.879674
33
0
39
0
210
0
220
0
230
1
0
SOLID
5
173
100
AcDbEntity
8
2
62
256
6
ByLayer
370
13
48
1
60
0
100
AcDbTrace
10
568
20
42.879674
30
0
11
564.825002
21
42.461678
31
0
12
564.824998
22
43.297671
32
0
13
568
23
42.879674
33
0
39
0
210
0
220
0
230
1
0
ENDBLK
5
175
100
AcDbEntity
8
0
100
AcDbBlockEnd
0
BLOCK
5
180
100
AcDbEntity
8
0
100
AcDbBlockBegin
2
DimnDraft3D2
70
0
10
0
20
0
30
0
3
DimnDraft3D2
0
MTEXT
5
178
100
AcDbEntity
8
SK2
62
256
6
ByLayer
370
13
48
1
60
0
100
AcDbMText
10
-270.161856
20
-4.25309
30
0
210
0
220
0
230
1
1
%%c
40
3.175
41
0
44
1.084337
50
90
71
7
72
5
7
iso_b_vert
0
MTEXT
5
17A
100
AcDbEntity
8
SK2
62
256
6
ByLayer
370
13
48
1
60
0
100
AcDbMText
10
-270.161856
20
3.659605
30
0
210
0
220
0
230
1
1
\W0.6740;60
40
3.175
41
0
44
1.084337
50
90
71
7
72
5
7
iso_b_vert
0
LINE
5
17B
100
AcDbEntity
8
SK2
62
256
6
ByLayer
370
13
48
1
60
0
100
AcDbLine
10
-239.0875
20
30
30
0
11
-271.749356
21
30
31
0
39
0
210
0
220
0
230
1
0
LINE
5
17C
100
AcDbEntity
8
SK2
62
256
6
ByLayer
370
13
48
1
60
0
100
AcDbLine
10
-239.0875
20
-30
30
0
11
-271.749356
21
-30
31
0
39
0
210
0
220
0
230
1
0
LINE
5
17D
100
AcDbEntity
8
SK2
62
256
6
ByLayer
370
13
48
1
60
0
100
AcDbLine
10
-268.574356
20
30
30
0
11
-268.574356
21
-30
31
0
39
0
210
0
220
0
230
1
0
SOLID
5
17E
100
AcDbEntity
8
SK2
62
256
6
ByLayer
370
13
48
1
60
0
100
AcDbTrace
10
-268.574356
20
30
30
0
11
-268.15636
21
26.825002
31
0
12
-268.992353
22
26.824998
32
0
13
-268.574356
23
30
33
0
39
0
210
0
220
0
230
1
0
SOLID
5
17F
100
AcDbEntity
8
SK2
62
256
6
ByLayer
370
13
48
1
60
0
100
AcDbTrace
10
-268.574356
20
-30
30
0
11
-268.992353
21
-26.825002
31
0
12
-268.15636
22
-26.824998
32
0
13
-268.574356
23
-30
33
0
39
0
210
0
220
0
230
1
0
ENDBLK
5
181
100
AcDbEntity
8
0
100
AcDbBlockEnd
0
BLOCK
5
18A
100
AcDbEntity
8
0
100
AcDbBlockBegin
2
DimnDraft3D3
70
0
10
0
20
0
30
0
3
DimnDraft3D3
0
MTEXT
5
184
100
AcDbEntity
8
SK2
62
256
6
ByLayer
370
13
48
1
60
0
100
AcDbMText
10
161.710658
20
56.135106
30
0
210
0
220
0
230
1
1
\W0.7138;808
40
3.175
41
0
44
1.084337
50
0
71
7
72
5
7
iso_b_vert
0
LINE
5
185
100
AcDbEntity
8
SK2
62
256
6
ByLayer
370
13
48
1
60
0
100
AcDbLine
10
-240
20
29.0875
30
0
11
-240
21
58.516356
31
0
39
0
210
0
220
0
230
1
0
LINE
5
186
100
AcDbEntity
8
SK2
62
256
6
ByLayer
370
13
48
1
60
0
100
AcDbLine
10
568
20
11.5875
30
0
11
568
21
58.516356
31
0
39
0
210
0
220
0
230
1
0
LINE
5
187
100
AcDbEntity
8
SK2
62
256
6
ByLayer
370
13
48
1
60
0
100
AcDbLine
10
-240
20
55.341356
30
0
11
568
21
55.341356
31
0
39
0
210
0
220
0
230
1
0
SOLID
5
188
100
AcDbEntity
8
SK2
62
256
6
ByLayer
370
13
48
1
60
0
100
AcDbTrace
10
-240
20
55.341356
30
0
11
-236.825002
21
55.759353
31
0
12
-236.824998
22
54.923359
32
0
13
-240
23
55.341356
33
0
39
0
210
0
220
0
230
1
0
SOLID
5
189
100
AcDbEntity
8
SK2
62
256
6
ByLayer
370
13
48
1
60
0
100
AcDbTrace
10
568
20
55.341356
30
0
11
564.825002
21
54.923359
31
0
12
564.824998
22
55.759353
32
0
13
568
23
55.341356
33
0
39
0
210
0
220
0
230
1
0
ENDBLK
5
18B
100
AcDbEntity
8
0
100
AcDbBlockEnd
0
BLOCK
5
18E
100
AcDbEntity
8
0
100
AcDbBlockBegin
2
DimnDraft3D44
70
0
10
0
20
0
30
0
3
DimnDraft3D44
0
LINE
5
190
100
AcDbEntity
8
SK2
62
256
6
ByLayer
370
25
48
1
60
0
100
AcDbLine
10
569.9125
20
10
30
0
11
592.842199
21
10
31
0
39
0
210
0
220
0
230
1
0
LINE
5
191
100
AcDbEntity
8
SK2
62
256
6
ByLayer
370
25
48
1
60
0
100
AcDbLine
10
576.5875
20
0
30
0
11
592.842199
21
0
31
0
39
0
210
0
220
0
230
1
0
LINE
5
192
100
AcDbEntity
8
SK2
62
256
6
ByLayer
370
25
48
1
60
0
100
AcDbLine
10
589.667199
20
0
30
0
11
589.667199
21
22.33882
31
0
39
0
210
0
220
0
230
1
0
SOLID
5
193
100
AcDbEntity
8
SK2
62
256
6
ByLayer
370
25
48
1
60
0
100
AcDbTrace
10
589.667199
20
10
30
0
11
590.085196
21
6.825002
31
0
12
589.249203
22
6.824998
32
0
13
589.667199
23
10
33
0
39
0
210
0
220
0
230
1
0
SOLID
5
194
100
AcDbEntity
8
SK2
62
256
6
ByLayer
370
25
48
1
60
0
100
AcDbTrace
10
589.667199
20
0
30
0
11
589.249203
21
3.174998
31
0
12
590.085196
22
3.175002
32
0
13
589.667199
23
0
33
0
39
0
210
0
220
0
230
1
0
MTEXT
5
195
100
AcDbEntity
8
SK2
62
256
6
ByLayer
370
13
48
1
60
0
100
AcDbMText
10
588.873449
20
20.13303
30
0
210
0
220
0
230
1
1
\W0.5321;10
40
3.175
41
0
44
1.084337
50
90
71
7
72
5
7
iso_b_vert
0
ENDBLK
5
18F
100
AcDbEntity
8
0
100
AcDbBlockEnd
0
BLOCK
5
19F
100
AcDbEntity
8
0
100
AcDbBlockBegin
2
DimnDraft3D5
70
0
10
0
20
0
30
0
3
DimnDraft3D5
0
MTEXT
5
198
100
AcDbEntity
8
SK2
62
256
6
ByLayer
370
13
48
1
60
0
100
AcDbMText
10
602.865135
20
42.759867
30
0
210
0
220
0
230
1
1
%%c
40
3.175
41
0
44
1.084337
50
90
71
7
72
5
7
iso_b_vert
0
MTEXT
5
199
100
AcDbEntity
8
SK2
62
256
6
ByLayer
370
13
48
1
60
0
100
AcDbMText
10
602.865135
20
50.672563
30
0
210
0
220
0
230
1
1
\W0.7361;40
40
3.175
41
0
44
1.084337
50
90
71
7
72
5
7
iso_b_vert
0
LINE
5
19A
100
AcDbEntity
8
SK2
62
256
6
ByLayer
370
13
48
1
60
0
100
AcDbLine
10
568.9125
20
-10
30
0
11
607.627635
21
-10
31
0
39
0
210
0
220
0
230
1
0
LINE
5
19B
100
AcDbEntity
8
SK2
62
256
6
ByLayer
370
13
48
1
60
0
100
AcDbLine
10
568.9125
20
30
30
0
11
607.627635
21
30
31
0
39
0
210
0
220
0
230
1
0
LINE
5
19C
100
AcDbEntity
8
SK2
62
256
6
ByLayer
370
13
48
1
60
0
100
AcDbLine
10
604.452635
20
-10
30
0
11
604.452635
21
54.006313
31
0
39
0
210
0
220
0
230
1
0
SOLID
5
19D
100
AcDbEntity
8
SK2
62
256
6
ByLayer
370
13
48
1
60
0
100
AcDbTrace
10
604.452635
20
-10
30
0
11
604.034639
21
-6.825002
31
0
12
604.870632
22
-6.824998
32
0
13
604.452635
23
-10
33
0
39
0
210
0
220
0
230
1
0
SOLID
5
19E
100
AcDbEntity
8
SK2
62
256
6
ByLayer
370
13
48
1
60
0
100
AcDbTrace
10
604.452635
20
30
30
0
11
604.870632
21
26.825002
31
0
12
604.034639
22
26.824998
32
0
13
604.452635
23
30
33
0
39
0
210
0
220
0
230
1
0
ENDBLK
5
1A0
100
AcDbEntity
8
0
100
AcDbBlockEnd
0
ENDSEC
0
SECTION
2
ENTITIES
0
ARC
5
F0
100
AcDbEntity
8
1
62
256
6
ByLayer
370
18
48
1
60
0
100
AcDbCircle
39
0
10
563.6
20
-29.6
30
0
40
0.4
210
0
220
0
230
1
100
AcDbArc
50
270
51
0
0
ARC
5
F1
100
AcDbEntity
8
1
62
256
6
ByLayer
370
18
48
1
60
0
100
AcDbCircle
39
0
10
563.6
20
29.6
30
0
40
0.4
210
0
220
0
230
1
100
AcDbArc
50
0
51
90
0
ARC
5
F2
100
AcDbEntity
8
1
62
256
6
ByLayer
370
18
48
1
60
0
100
AcDbCircle
39
0
10
564.4
20
29.6
30
0
40
0.4
210
0
220
0
230
1
100
AcDbArc
50
90
51
180
0
ARC
5
F3
100
AcDbEntity
8
1
62
256
6
ByLayer
370
18
48
1
60
0
100
AcDbCircle
39
0
10
564.4
20
-29.6
30
0
40
0.4
210
0
220
0
230
1
100
AcDbArc
50
180
51
270
0
ARC
5
F4
100
AcDbEntity
8
1
62
256
6
ByLayer
370
18
48
1
60
0
100
AcDbCircle
39
0
10
-567
20
-11
30
0
40
1
210
0
220
0
230
-1
100
AcDbArc
50
0
51
90
0
CIRCLE
5
EF
100
AcDbEntity
8
1
62
256
6
ByLayer
370
18
48
1
60
0
100
AcDbCircle
10
554
20
0
30
0
40
2
39
0
210
0
220
0
230
1
0
ELLIPSE
5
F5
100
AcDbEntity
8
1
62
256
6
ByLayer
370
18
48
1
60
0
100
AcDbEllipse
10
567
20
27.95
30
0
11
1.000000000006
21
0
31
0
210
0
220
0
230
1
40
0.854762
41
-2.79624344720811
42
-1.5707963267949
0
POINT
5
6C
100
AcDbEntity
8
80
62
256
6
ByLayer
370
18
48
1
60
0
100
AcDbPoint
10
0
20
0
30
0
39
0
210
0
220
0
230
1
50
360
0
POINT
5
6E
100
AcDbEntity
8
81
62
256
6
ByLayer
370
18
48
1
60
0
100
AcDbPoint
10
568
20
10
30
0
39
0
210
0
220
0
230
1
50
360
0
SPLINE
5
F6
100
AcDbEntity
8
1
62
256
6
ByLayer
370
18
48
1
60
0
100
AcDbSpline
70
4
71
1
72
4
73
2
40
0
40
0
40
1
40
1
41
1
10
566
20
26.4625
30
0
41
1
10
565.5
20
26.9110169491526
30
0
0
SPLINE
5
F7
100
AcDbEntity
8
1
62
256
6
ByLayer
370
18
48
1
60
0
100
AcDbSpline
70
4
71
3
72
13
73
9
40
0
40
0
40
0
40
0
40
0.150404286365304
40
0.317028573705163
40
0.49988247904673
40
0.666599581305613
40
0.833305149793905
40
1
40
1
40
1
40
1
41
1
10
565.588564057811
20
27.9823344634338
30
0
41
1
10
565.620425984439
20
28.1823633960999
30
0
41
1
10
565.682774547244
20
28.5731357044897
30
0
41
1
10
565.763278577095
20
29.0877345531623
30
0
41
1
10
565.832136738584
20
29.5002260562154
30
0
41
1
10
565.893181162549
20
29.7920799607194
30
0
41
1
10
565.949083374416
20
29.9621730064427
30
0
41
1
10
565.983468051537
20
29.9999618169814
30
0
41
1
10
566
20
30
30
0
0
SPLINE
5
F8
100
AcDbEntity
8
1
62
256
6
ByLayer
370
18
48
1
60
0
100
AcDbSpline
70
4
71
2
72
6
73
3
40
0
40
0
40
0
40
1
40
1
40
1
41
1
10
565.5
20
26.9110169491526
30
0
41
1
10
565.503170054093
20
27.501521737375
30
0
41
1
10
565.58856405781
20
27.9823344634338
30
0
0
SPLINE
5
F9
100
AcDbEntity
8
1
62
256
6
ByLayer
370
18
48
1
60
0
100
AcDbSpline
70
4
71
1
72
4
73
2
40
0
40
0
40
1
40
1
41
1
10
566.000121768637
20
26.5230820550306
30
0
41
1
10
566
20
26.4625
30
0
0
SPLINE
5
FA
100
AcDbEntity
8
1
62
256
6
ByLayer
370
18
48
1
60
0
100
AcDbSpline
70
4
71
2
72
6
73
3
40
0
40
0
40
0
40
1
40
1
40
1
41
1
10
566.059042705207
20
27.6606414815844
30
0
41
1
10
566.002673002419
20
27.15453240118
30
0
41
1
10
566.000121768637
20
26.5230820550306
30
0
0
SPLINE
5
FB
100
AcDbEntity
8
1
62
256
6
ByLayer
370
18
48
1
60
0
100
AcDbSpline
70
4
71
3
72
18
73
14
40
0
40
0
40
0
40
0
40
0.0048006420614852
40
0.118741637592211
40
0.233116403521628
40
0.331416022910781
40
0.429715017524763
40
0.529181010475046
40
0.628645680946796
40
0.72092984650552
40
0.813211997979983
40
0.906608677943823
40
1
40
1
40
1
40
1
41
1
10
566
20
30
30
0
41
1
10
566.002264780055
20
30.0000000017482
30
0
41
1
10
566.058271115145
20
29.9994384570483
30
0
41
1
10
566.168221514237
20
29.9710437463426
30
0
41
1
10
566.319088298831
20
29.857855592596
30
0
41
1
10
566.457172084615
20
29.6851876467554
30
0
41
1
10
566.581437466047
20
29.4641347299147
30
0
41
1
10
566.696566722091
20
29.1852261125039
30
0
41
1
10
566.796927515069
20
28.8565902467449
30
0
41
1
10
566.880366271712
20
28.4844845905702
30
0
41
1
10
566.944714073044
20
28.0727112955849
30
0
41
1
10
566.989057011344
20
27.6117777355256
30
0
41
1
10
566.999272823304
20
27.2725992495063
30
0
41
1
10
567
20
27.0952380952381
30
0
0
SPLINE
5
FC
100
AcDbEntity
8
1
62
256
6
ByLayer
370
18
48
1
60
0
100
AcDbSpline
70
4
71
3
72
12
73
8
40
0
40
0
40
0
40
0
40
0.0814684080198409
40
0.282954387161733
40
0.49649480003279
40
0.831758491133103
40
1
40
1
40
1
40
1
41
1
10
567.555
20
29.77
30
0
41
1
10
567.555015582329
20
29.7699841495472
30
0
41
1
10
567.556077393944
20
29.7689115960186
30
0
41
1
10
567.564760637255
20
29.7601387505968
30
0
41
1
10
567.58938141421
20
29.7352841727276
30
0
41
1
10
567.622628100026
20
29.7017721569451
30
0
41
1
10
567.648254823464
20
29.6759963201806
30
0
41
1
10
567.657250000005
20
29.6669526077322
30
0
0
SPLINE
5
FD
100
AcDbEntity
8
1
62
256
6
ByLayer
370
18
48
1
60
0
100
AcDbSpline
70
4
71
1
72
4
73
2
40
0
40
0
40
1
40
1
41
1
10
567.65725
20
29.6669526077377
30
0
41
1
10
568.325
20
28.991667907708
30
0
0
SPLINE
5
FE
100
AcDbEntity
8
1
62
256
6
ByLayer
370
18
48
1
60
0
100
AcDbSpline
70
4
71
1
72
4
73
2
40
0
40
0
40
1
40
1
41
1
10
568.325
20
28.9768631082337
30
0
41
1
10
567.65725
20
29.6232090000648
30
0
0
SPLINE
5
FF
100
AcDbEntity
8
1
62
256
6
ByLayer
370
18
48
1
60
0
100
AcDbSpline
70
4
71
3
72
10
73
6
40
0
40
0
40
0
40
0
40
0.420813233720074
40
0.709275987469489
40
1
40
1
40
1
40
1
41
1
10
567.65725
20
29.6232090000648
30
0
41
1
10
567.636507587212
20
29.6432655346522
30
0
41
1
10
567.606247411039
20
29.6718183371002
30
0
41
1
10
567.570645937365
20
29.7037065058532
30
0
41
1
10
567.560087947498
20
29.7114894215747
30
0
41
1
10
567.556760432117
20
29.7132672240648
30
0
0
SPLINE
5
100
100
AcDbEntity
8
1
62
256
6
ByLayer
370
18
48
1
60
0
100
AcDbSpline
70
4
71
1
72
4
73
2
40
0
40
0
40
1
40
1
41
1
10
567.65725
20
29.5961148774388
30
0
41
1
10
568.325
20
28.8877094006841
30
0
0
SPLINE
5
101
100
AcDbEntity
8
1
62
256
6
ByLayer
370
18
48
1
60
0
100
AcDbSpline
70
4
71
1
72
4
73
2
40
0
40
0
40
1
40
1
41
1
10
568.325
20
28.8430150703283
30
0
41
1
10
567.65725
20
29.4641115400998
30
0
0
SPLINE
5
102
100
AcDbEntity
8
1
62
256
6
ByLayer
370
18
48
1
60
0
100
AcDbSpline
70
4
71
3
72
11
73
7
40
0
40
0
40
0
40
0
40
0.304632312554426
40
0.566084194491736
40
0.784880098668194
40
1
40
1
40
1
40
1
41
1
10
567.65725
20
29.4641115400997
30
0
41
1
10
567.64055915088
20
29.4796684885192
30
0
41
1
10
567.612558144472
20
29.5047063539096
30
0
41
1
10
567.578899199237
20
29.5321569777169
30
0
41
1
10
567.559153228533
20
29.5445727998412
30
0
41
1
10
567.555154530637
20
29.5435466217527
30
0
41
1
10
567.555000003065
20
29.5410513391963
30
0
0
SPLINE
5
103
100
AcDbEntity
8
1
62
256
6
ByLayer
370
18
48
1
60
0
100
AcDbSpline
70
4
71
1
72
4
73
2
40
0
40
0
40
1
40
1
41
1
10
567.65725
20
29.4094413032565
30
0
41
1
10
568.325
20
28.6630030512968
30
0
0
SPLINE
5
104
100
AcDbEntity
8
1
62
256
6
ByLayer
370
18
48
1
60
0
100
AcDbSpline
70
4
71
1
72
4
73
2
40
0
40
0
40
1
40
1
41
1
10
568.325
20
28.587552298584
30
0
41
1
10
567.65725
20
29.1867908893245
30
0
0
SPLINE
5
105
100
AcDbEntity
8
1
62
256
6
ByLayer
370
18
48
1
60
0
100
AcDbSpline
70
4
71
3
72
12
73
8
40
0
40
0
40
0
40
0
40
0.282977018566566
40
0.536553999364005
40
0.750837094272323
40
0.965613435476436
40
1
40
1
40
1
40
1
41
1
10
567.65725
20
29.1867908893245
30
0
41
1
10
567.641760186522
20
29.2007697381244
30
0
41
1
10
567.614943225208
20
29.2235385350738
30
0
41
1
10
567.581692039333
20
29.248055497566
30
0
41
1
10
567.561024500697
20
29.2581756177889
30
0
41
1
10
567.555340370392
20
29.2556494640045
30
0
41
1
10
567.554996731975
20
29.2516310044636
30
0
41
1
10
567.555000030128
20
29.2510233429179
30
0
0
SPLINE
5
106
100
AcDbEntity
8
1
62
256
6
ByLayer
370
18
48
1
60
0
100
AcDbSpline
70
4
71
1
72
4
73
2
40
0
40
0
40
1
40
1
41
1
10
567.65725
20
29.1035364558329
30
0
41
1
10
568.325
20
28.3131045806204
30
0
0
SPLINE
5
107
100
AcDbEntity
8
1
62
256
6
ByLayer
370
18
48
1
60
0
100
AcDbSpline
70
4
71
1
72
4
73
2
40
0
40
0
40
1
40
1
41
1
10
568.325
20
28.2053559142514
30
0
41
1
10
567.65725
20
28.786012115824
30
0
0
SPLINE
5
108
100
AcDbEntity
8
1
62
256
6
ByLayer
370
18
48
1
60
0
100
AcDbSpline
70
4
71
3
72
12
73
8
40
0
40
0
40
0
40
0
40
0.261192139426482
40
0.505956728872375
40
0.752535483089764
40
0.961563574781936
40
1
40
1
40
1
40
1
41
1
10
567.65725
20
28.786012115824
30
0
41
1
10
567.64295433266
20
28.798555389981
30
0
41
1
10
567.617380061953
20
28.8192714267596
30
0
41
1
10
567.583004380813
20
28.8423427456429
30
0
41
1
10
567.561085004117
20
28.8496710722452
30
0
41
1
10
567.555355221633
20
28.843753190742
30
0
41
1
10
567.554994103839
20
28.8383826837501
30
0
41
1
10
567.555000075114
20
28.8374837408244
30
0
0
SPLINE
5
109
100
AcDbEntity
8
1
62
256
6
ByLayer
370
18
48
1
60
0
100
AcDbSpline
70
4
71
1
72
4
73
2
40
0
40
0
40
1
40
1
41
1
10
567.65725
20
28.6725412982303
30
0
41
1
10
568.325
20
27.8306454136905
30
0
0
SPLINE
5
10A
100
AcDbEntity
8
1
62
256
6
ByLayer
370
18
48
1
60
0
100
AcDbSpline
70
4
71
1
72
4
73
2
40
0
40
0
40
1
40
1
41
1
10
568.325
20
27.6882126704918
30
0
41
1
10
567.65725
20
28.2536450551968
30
0
0
SPLINE
5
10B
100
AcDbEntity
8
1
62
256
6
ByLayer
370
18
48
1
60
0
100
AcDbSpline
70
4
71
3
72
12
73
8
40
0
40
0
40
0
40
0
40
0.238383637776025
40
0.472578322840639
40
0.70842283041373
40
0.909970655360686
40
1
40
1
40
1
40
1
41
1
10
567.65725
20
28.2536450551967
30
0
41
1
10
567.644154353144
20
28.264869634683
30
0
41
1
10
567.619908768226
20
28.2837252912934
30
0
41
1
10
567.586411318166
20
28.3043177379196
30
0
41
1
10
567.563744385307
20
28.3097189328798
30
0
41
1
10
567.555900889282
20
28.3020816888986
30
0
41
1
10
567.554957692868
20
28.2945959471498
30
0
41
1
10
567.555000724703
20
28.2919300405605
30
0
0
SPLINE
5
10C
100
AcDbEntity
8
1
62
256
6
ByLayer
370
18
48
1
60
0
100
AcDbSpline
70
4
71
1
72
4
73
2
40
0
40
0
40
1
40
1
41
1
10
567.65725
20
28.1075258373112
30
0
41
1
10
568.325
20
27.204477102103
30
0
0
SPLINE
5
10D
100
AcDbEntity
8
1
62
256
6
ByLayer
370
18
48
1
60
0
100
AcDbSpline
70
4
71
1
72
4
73
2
40
0
40
0
40
1
40
1
41
1
10
568.325
20
27.0238289168014
30
0
41
1
10
567.65725
20
27.57773774939
30
0
0
SPLINE
5
10E
100
AcDbEntity
8
1
62
256
6
ByLayer
370
18
48
1
60
0
100
AcDbSpline
70
4
71
3
72
12
73
8
40
0
40
0
40
0
40
0
40
0.215086515550314
40
0.437438636714229
40
0.661293538621194
40
0.853843971396825
40
1
40
1
40
1
40
1
41
1
10
567.65725
20
27.5777377493899
30
0
41
1
10
567.645373678305
20
27.5877389163178
30
0
41
1
10
567.622562049811
20
27.6048994976594
30
0
41
1
10
567.590147318655
20
27.6233332368948
30
0
41
1
10
567.566888680885
20
27.6271121694883
30
0
41
1
10
567.556591726899
20
27.6176023962012
30
0
41
1
10
567.554873954984
20
27.607528238927
30
0
41
1
10
567.55500147232
20
27.6022405721771
30
0
0
SPLINE
5
10F
100
AcDbEntity
8
1
62
256
6
ByLayer
370
18
48
1
60
0
100
AcDbSpline
70
4
71
1
72
4
73
2
40
0
40
0
40
1
40
1
41
1
10
567.65725
20
27.3954357623968
30
0
41
1
10
568.325
20
26.4181652094505
30
0
0
SPLINE
5
110
100
AcDbEntity
8
1
62
256
6
ByLayer
370
18
48
1
60
0
100
AcDbSpline
70
4
71
1
72
4
73
2
40
0
40
0
40
1
40
1
41
1
10
568.325
20
26.1940925803361
30
0
41
1
10
567.65725
20
26.7409130865539
30
0
0
SPLINE
5
111
100
AcDbEntity
8
1
62
256
6
ByLayer
370
18
48
1
60
0
100
AcDbSpline
70
4
71
3
72
12
73
8
40
0
40
0
40
0
40
0
40
0.191366235578254
40
0.400705424394839
40
0.611426159911695
40
0.793354321085274
40
1
40
1
40
1
40
1
41
1
10
567.657250000001
20
26.7409130865538
30
0
41
1
10
567.646627503722
20
26.7497667997621
30
0
41
1
10
567.625380799525
20
26.7653795144078
30
0
41
1
10
567.594288505919
20
26.7819777186297
30
0
41
1
10
567.570624438789
20
26.7844723098295
30
0
41
1
10
567.557467676365
20
26.772957705561
30
0
41
1
10
567.554735111694
20
26.7597810462402
30
0
41
1
10
567.555000725937
20
26.7508635079356
30
0
0
SPLINE
5
112
100
AcDbEntity
8
1
62
256
6
ByLayer
370
18
48
1
60
0
100
AcDbSpline
70
4
71
1
72
4
73
2
40
0
40
0
40
1
40
1
41
1
10
567.65725
20
26.5172600263618
30
0
41
1
10
568.325
20
25.4472737184539
30
0
0
SPLINE
5
113
100
AcDbEntity
8
1
62
256
6
ByLayer
370
18
48
1
60
0
100
AcDbSpline
70
4
71
1
72
4
73
2
40
0
40
0
40
1
40
1
41
1
10
568.325
20
25.1718989586826
30
0
41
1
10
567.65725
20
25.7174895437145
30
0
0
SPLINE
5
114
100
AcDbEntity
8
1
62
256
6
ByLayer
370
18
48
1
60
0
100
AcDbSpline
70
4
71
3
72
13
73
9
40
0
40
0
40
0
40
0
40
0.166242911183049
40
0.360375890725405
40
0.555799720089362
40
0.724316208407311
40
0.963610848020779
40
1
40
1
40
1
40
1
41
1
10
567.657250000001
20
25.7174895437142
30
0
41
1
10
567.647934269862
20
25.7252528119712
30
0
41
1
10
567.628418910791
20
25.739446680958
30
0
41
1
10
567.598923790555
20
25.7545791493184
30
0
41
1
10
567.575130693618
20
25.756077901086
30
0
41
1
10
567.559249471884
20
25.7435020486445
30
0
41
1
10
567.555257148098
20
25.7256644826509
30
0
41
1
10
567.554989085093
20
25.712940665717
30
0
41
1
10
567.555000472764
20
25.7112166191105
30
0
0
SPLINE
5
115
100
AcDbEntity
8
1
62
256
6
ByLayer
370
18
48
1
60
0
100
AcDbSpline
70
4
71
1
72
4
73
2
40
0
40
0
40
1
40
1
41
1
10
567.65725
20
25.4446939818576
30
0
41
1
10
568.325
20
24.2541356041277
30
0
0
SPLINE
5
116
100
AcDbEntity
8
1
62
256
6
ByLayer
370
18
48
1
60
0
100
AcDbSpline
70
4
71
1
72
4
73
2
40
0
40
0
40
1
40
1
41
1
10
568.325
20
23.9148985452446
30
0
41
1
10
567.65725
20
24.4679225924801
30
0
0
SPLINE
5
117
100
AcDbEntity
8
1
62
256
6
ByLayer
370
18
48
1
60
0
100
AcDbSpline
70
4
71
3
72
13
73
9
40
0
40
0
40
0
40
0
40
0.138853390640376
40
0.341511995921608
40
0.51849475997361
40
0.669260172089
40
0.905494557461817
40
1
40
1
40
1
40
1
41
1
10
567.657250000002
20
24.4679225924795
30
0
41
1
10
567.64930360173
20
24.4746550714136
30
0
41
1
10
567.63025527438
20
24.4886415791471
30
0
41
1
10
567.60109405941
20
24.5028441627021
30
0
41
1
10
567.577380561363
20
24.5015211440536
30
0
41
1
10
567.561214372379
20
24.4866340293345
30
0
41
1
10
567.55569115143
20
24.4645423845891
30
0
41
1
10
567.554915850397
20
24.4472215794256
30
0
41
1
10
567.555003412463
20
24.4419827618974
30
0
0
SPLINE
5
118
100
AcDbEntity
8
1
62
256
6
ByLayer
370
18
48
1
60
0
100
AcDbSpline
70
4
71
1
72
4
73
2
40
0
40
0
40
1
40
1
41
1
10
567.65725
20
24.1335510614993
30
0
41
1
10
568.325
20
22.7766387719495
30
0
0
SPLINE
5
119
100
AcDbEntity
8
1
62
256
6
ByLayer
370
18
48
1
60
0
100
AcDbSpline
70
4
71
1
72
4
73
2
40
0
40
0
40
1
40
1
41
1
10
568.325
20
22.3516106251948
30
0
41
1
10
567.65725
20
22.9267973886504
30
0
0
SPLINE
5
11A
100
AcDbEntity
8
1
62
256
6
ByLayer
370
18
48
1
60
0
100
AcDbSpline
70
4
71
3
72
13
73
9
40
0
40
0
40
0
40
0
40
0.110242213151676
40
0.28255727552954
40
0.412606166269072
40
0.542428032765915
40
0.733732087688744
40
1
40
1
40
1
40
1
41
1
10
567.657250000004
20
22.9267973886487
30
0
41
1
10
567.650803050241
20
22.9324740321066
30
0
41
1
10
567.634460670417
20
22.9449728016786
30
0
41
1
10
567.609769049184
20
22.9576961890999
30
0
41
1
10
567.587437063047
20
22.9584727781846
30
0
41
1
10
567.569985716961
20
22.9480918057827
30
0
41
1
10
567.557500913943
20
22.9211431497263
30
0
41
1
10
567.554230160885
20
22.8950860188414
30
0
41
1
10
567.555002425299
20
22.8772250208738
30
0
0
SPLINE
5
11B
100
AcDbEntity
8
1
62
256
6
ByLayer
370
18
48
1
60
0
100
AcDbSpline
70
4
71
1
72
4
73
2
40
0
40
0
40
1
40
1
41
1
10
567.65725
20
22.5090350955934
30
0
41
1
10
568.325
20
20.899752969536
30
0
0
SPLINE
5
11C
100
AcDbEntity
8
1
62
256
6
ByLayer
370
18
48
1
60
0
100
AcDbSpline
70
4
71
1
72
4
73
2
40
0
40
0
40
1
40
1
41
1
10
568.325
20
20.3440885798799
30
0
41
1
10
567.65725
20
20.9719368077126
30
0
0
SPLINE
5
11D
100
AcDbEntity
8
1
62
256
6
ByLayer
370
18
48
1
60
0
100
AcDbSpline
70
4
71
3
72
14
73
10
40
0
40
0
40
0
40
0
40
0.0783829871389214
40
0.215707446421149
40
0.317812290823103
40
0.419869148103578
40
0.563517127420438
40
0.809794822448462
40
1
40
1
40
1
40
1
41
1
10
567.65725000001
20
20.9719368077072
30
0
41
1
10
567.652444151996
20
20.9765324929058
30
0
41
1
10
567.639151691486
20
20.9877108997616
30
0
41
1
10
567.618336548231
20
21.0001173756791
30
0
41
1
10
567.597444554273
20
21.0028007933594
30
0
41
1
10
567.580149715048
20
20.995355575134
30
0
41
1
10
567.563926018899
20
20.9720067645133
30
0
41
1
10
567.556259895161
20
20.932851065505
30
0
41
1
10
567.554587480467
20
20.9011800376172
30
0
41
1
10
567.555017244399
20
20.8864398912318
30
0
0
SPLINE
5
11E
100
AcDbEntity
8
1
62
256
6
ByLayer
370
18
48
1
60
0
100
AcDbSpline
70
4
71
1
72
4
73
2
40
0
40
0
40
1
40
1
41
1
10
567.65725
20
20.4256727570726
30
0
41
1
10
568.325
20
18.3586321419795
30
0
0
SPLINE
5
11F
100
AcDbEntity
8
1
62
256
6
ByLayer
370
18
48
1
60
0
100
AcDbSpline
70
4
71
1
72
4
73
2
40
0
40
0
40
1
40
1
41
1
10
568.325
20
17.5457307174572
30
0
41
1
10
567.65725
20
18.3165319633644
30
0
0
SPLINE
5
120
100
AcDbEntity
8
1
62
256
6
ByLayer
370
18
48
1
60
0
100
AcDbSpline
70
4
71
3
72
14
73
10
40
0
40
0
40
0
40
0
40
0.108418701022043
40
0.180167597011014
40
0.252422528712169
40
0.317844072553393
40
0.41864947918773
40
0.607004012533929
40
1
40
1
40
1
40
1
41
1
10
567.657250000027
20
18.3165319633417
30
0
41
1
10
567.64997141586
20
18.3252661533819
30
0
41
1
10
567.637423488915
20
18.3367232035546
30
0
41
1
10
567.6181585045
20
18.3474656485804
30
0
41
1
10
567.602527381033
20
18.3486467044096
30
0
41
1
10
567.587727804689
20
18.3412071876312
30
0
41
1
10
567.572043538821
20
18.3193318484154
30
0
41
1
10
567.557258581185
20
18.2613586317059
30
0
41
1
10
567.552549383968
20
18.208024994444
30
0
41
1
10
567.555038128083
20
18.1675712688108
30
0
0
SPLINE
5
121
100
AcDbEntity
8
1
62
256
6
ByLayer
370
18
48
1
60
0
100
AcDbSpline
70
4
71
2
72
6
73
3
40
0
40
0
40
0
40
1
40
1
40
1
41
1
10
567.65725
20
17.5108818292092
30
0
41
1
10
568.083894802745
20
15.8059612581618
30
0
41
1
10
568.325
20
14.0532515062548
30
0
0
SPLINE
5
122
100
AcDbEntity
8
1
62
256
6
ByLayer
370
18
48
1
60
0
100
AcDbSpline
70
4
71
2
72
6
73
3
40
0
40
0
40
0
40
1
40
1
40
1
41
1
10
568.325
20
11.5414070106085
30
0
41
1
10
568.10386024345
20
12.6512945594196
30
0
41
1
10
567.65725
20
13.6668802111467
30
0
0
SPLINE
5
123
100
AcDbEntity
8
1
62
256
6
ByLayer
370
18
48
1
60
0
100
AcDbSpline
70
4
71
3
72
18
73
14
40
0
40
0
40
0
40
0
40
0.009276299903739
40
0.0685629895046104
40
0.0951304196521331
40
0.117592414041025
40
0.133540352750763
40
0.149529937945225
40
0.16995042204373
40
0.205700982088338
40
0.318776697949825
40
0.839906372198465
40
1
40
1
40
1
40
1
41
1
10
567.657249999999
20
13.6668802111463
30
0
41
1
10
567.656530488488
20
13.6685631789281
30
0
41
1
10
567.651090051696
20
13.6808852222394
30
0
41
1
10
567.642732472879
20
13.697601541462
30
0
41
1
10
567.630691624417
20
13.7135695448212
30
0
41
1
10
567.622113310393
20
13.7207104323246
30
0
41
1
10
567.614212181307
20
13.7231127764669
30
0
41
1
10
567.606874679365
20
13.7215233840358
30
0
41
1
10
567.598465296464
20
13.7143767022246
30
0
41
1
10
567.584596086648
20
13.6888833145969
30
0
41
1
10
567.558360975624
20
13.563906054245
30
0
41
1
10
567.556219231416
20
13.4050532787705
30
0
41
1
10
567.554724613401
20
13.2697515585733
30
0
41
1
10
567.555022756186
20
13.237748237267
30
0
0
SPLINE
5
124
100
AcDbEntity
8
1
62
256
6
ByLayer
370
18
48
1
60
0
100
AcDbSpline
70
4
71
2
72
6
73
3
40
0
40
0
40
0
40
1
40
1
40
1
41
1
10
567.65725
20
6.33311978885511
30
0
41
1
10
568.10370184491
20
7.34863682979552
30
0
41
1
10
568.325
20
8.45859298939155
30
0
0
SPLINE
5
125
100
AcDbEntity
8
1
62
256
6
ByLayer
370
18
48
1
60
0
100
AcDbSpline
70
4
71
2
72
6
73
3
40
0
40
0
40
0
40
1
40
1
40
1
41
1
10
568.325
20
5.9467484937452
30
0
41
1
10
568.083904837032
20
4.19404952352342
30
0
41
1
10
567.65725
20
2.48911817079085
30
0
0
SPLINE
5
126
100
AcDbEntity
8
1
62
256
6
ByLayer
370
18
48
1
60
0
100
AcDbSpline
70
4
71
3
72
10
73
6
40
0
40
0
40
0
40
0
40
0.532327471743733
40
0.833599534487865
40
1
40
1
40
1
40
1
41
1
10
567.65725
20
2.48911817079084
30
0
41
1
10
567.627311546927
20
2.37052410937613
30
0
41
1
10
567.591106560034
20
2.18676744357673
30
0
41
1
10
567.558371562559
20
1.96607651328291
30
0
41
1
10
567.55512048653
20
1.86668100652047
30
0
41
1
10
567.55503138987
20
1.8316060267774
30
0
0
SPLINE
5
127
100
AcDbEntity
8
1
62
256
6
ByLayer
370
18
48
1
60
0
100
AcDbSpline
70
4
71
1
72
4
73
2
40
0
40
0
40
1
40
1
41
1
10
567.65725
20
1.68346803663566
30
0
41
1
10
568.325
20
2.4542692825428
30
0
0
SPLINE
5
128
100
AcDbEntity
8
1
62
256
6
ByLayer
370
18
48
1
60
0
100
AcDbSpline
70
4
71
1
72
4
73
2
40
0
40
0
40
1
40
1
41
1
10
568.325
20
1.64136785802053
30
0
41
1
10
567.65725
20
-0.425672757072636
30
0
0
SPLINE
5
129
100
AcDbEntity
8
1
62
256
6
ByLayer
370
18
48
1
60
0
100
AcDbSpline
70
4
71
2
72
6
73
3
40
0
40
0
40
0
40
1
40
1
40
1
41
1
10
567.65725
20
-0.425672757072643
30
0
41
1
10
567.564248120375
20
-0.668794774766778
30
0
41
1
10
567.555011360507
20
-0.88720871497629
30
0
0
SPLINE
5
12A
100
AcDbEntity
8
1
62
256
6
ByLayer
370
18
48
1
60
0
100
AcDbSpline
70
4
71
1
72
4
73
2
40
0
40
0
40
1
40
1
41
1
10
567.65725
20
-0.971936807712612
30
0
41
1
10
568.325
20
-0.344088579879873
30
0
0
SPLINE
5
12B
100
AcDbEntity
8
1
62
256
6
ByLayer
370
18
48
1
60
0
100
AcDbSpline
70
4
71
1
72
4
73
2
40
0
40
0
40
1
40
1
41
1
10
568.325
20
-0.899752969535981
30
0
41
1
10
567.65725
20
-2.50903509559339
30
0
0
SPLINE
5
12C
100
AcDbEntity
8
1
62
256
6
ByLayer
370
18
48
1
60
0
100
AcDbSpline
70
4
71
2
72
6
73
3
40
0
40
0
40
0
40
1
40
1
40
1
41
1
10
567.65725
20
-2.50903509559341
30
0
41
1
10
567.56449452426
20
-2.7076362690426
30
0
41
1
10
567.555002402522
20
-2.87723051658865
30
0
0
SPLINE
5
12D
100
AcDbEntity
8
1
62
256
6
ByLayer
370
18
48
1
60
0
100
AcDbSpline
70
4
71
1
72
4
73
2
40
0
40
0
40
1
40
1
41
1
10
567.65725
20
-2.92679738865034
30
0
41
1
10
568.325
20
-2.35161062519482
30
0
0
SPLINE
5
12E
100
AcDbEntity
8
1
62
256
6
ByLayer
370
18
48
1
60
0
100
AcDbSpline
70
4
71
1
72
4
73
2
40
0
40
0
40
1
40
1
41
1
10
568.325
20
-2.77663877194953
30
0
41
1
10
567.65725
20
-4.13355106149932
30
0
0
SPLINE
5
12F
100
AcDbEntity
8
1
62
256
6
ByLayer
370
18
48
1
60
0
100
AcDbSpline
70
4
71
3
72
10
73
6
40
0
40
0
40
0
40
0
40
0.613007207669581
40
0.839592277898027
40
1
40
1
40
1
40
1
41
1
10
567.65725
20
-4.1335510614993
30
0
41
1
10
567.621142460231
20
-4.20196192581195
30
0
41
1
10
567.584893743717
20
-4.29074427879304
30
0
41
1
10
567.558712646655
20
-4.39260619921632
30
0
41
1
10
567.555429709201
20
-4.42786247776354
30
0
41
1
10
567.555003423148
20
-4.44198101996942
30
0
0
SPLINE
5
130
100
AcDbEntity
8
1
62
256
6
ByLayer
370
18
48
1
60
0
100
AcDbSpline
70
4
71
1
72
4
73
2
40
0
40
0
40
1
40
1
41
1
10
567.65725
20
-4.46792259248008
30
0
41
1
10
568.325
20
-3.91489854524457
30
0
0
SPLINE
5
131
100
AcDbEntity
8
1
62
256
6
ByLayer
370
18
48
1
60
0
100
AcDbSpline
70
4
71
1
72
4
73
2
40
0
40
0
40
1
40
1
41
1
10
568.325
20
-4.25413560412767
30
0
41
1
10
567.65725
20
-5.44469398185763
30
0
0
SPLINE
5
132
100
AcDbEntity
8
1
62
256
6
ByLayer
370
18
48
1
60
0
100
AcDbSpline
70
4
71
3
72
10
73
6
40
0
40
0
40
0
40
0
40
0.547301222737329
40
0.825627972936582
40
1
40
1
40
1
40
1
41
1
10
567.65725
20
-5.44469398185762
30
0
41
1
10
567.625542403748
20
-5.49827079513353
30
0
41
1
10
567.588937240184
20
-5.57440183807079
30
0
41
1
10
567.559737360317
20
-5.6632659657322
30
0
41
1
10
567.555569917055
20
-5.69751789420707
30
0
41
1
10
567.555008535533
20
-5.71011512203547
30
0
0
SPLINE
5
133
100
AcDbEntity
8
1
62
256
6
ByLayer
370
18
48
1
60
0
100
AcDbSpline
70
4
71
1
72
4
73
2
40
0
40
0
40
1
40
1
41
1
10
567.65725
20
-5.71748954371448
30
0
41
1
10
568.325
20
-5.17189895868259
30
0
0
SPLINE
5
134
100
AcDbEntity
8
1
62
256
6
ByLayer
370
18
48
1
60
0
100
AcDbSpline
70
4
71
1
72
4
73
2
40
0
40
0
40
1
40
1
41
1
10
568.325
20
-5.44727371845388
30
0
41
1
10
567.65725
20
-6.51726002636184
30
0
0
SPLINE
5
135
100
AcDbEntity
8
1
62
256
6
ByLayer
370
18
48
1
60
0
100
AcDbSpline
70
4
71
3
72
10
73
6
40
0
40
0
40
0
40
0
40
0.538057462057161
40
0.81813013882178
40
1
40
1
40
1
40
1
41
1
10
567.65725
20
-6.51726002636183
30
0
41
1
10
567.626027033555
20
-6.56506666340611
30
0
41
1
10
567.589523572285
20
-6.63247965231935
30
0
41
1
10
567.559690658731
20
-6.71075633175921
30
0
41
1
10
567.55549982106
20
-6.74002354170152
30
0
41
1
10
567.555000929876
20
-6.75081825358064
30
0
0
SPLINE
5
136
100
AcDbEntity
8
1
62
256
6
ByLayer
370
18
48
1
60
0
100
AcDbSpline
70
4
71
1
72
4
73
2
40
0
40
0
40
1
40
1
41
1
10
567.65725
20
-6.74091308655392
30
0
41
1
10
568.325
20
-6.19409258033613
30
0
0
SPLINE
5
137
100
AcDbEntity
8
1
62
256
6
ByLayer
370
18
48
1
60
0
100
AcDbSpline
70
4
71
1
72
4
73
2
40
0
40
0
40
1
40
1
41
1
10
568.325
20
-6.41816520945052
30
0
41
1
10
567.65725
20
-7.39543576239674
30
0
0
SPLINE
5
138
100
AcDbEntity
8
1
62
256
6
ByLayer
370
18
48
1
60
0
100
AcDbSpline
70
4
71
3
72
10
73
6
40
0
40
0
40
0
40
0
40
0.500655634822129
40
0.790172015434927
40
1
40
1
40
1
40
1
41
1
10
567.65725
20
-7.39543576239674
30
0
41
1
10
567.628459400728
20
-7.43605133598316
30
0
41
1
10
567.592593064923
20
-7.49505410059201
30
0
41
1
10
567.560646526087
20
-7.565410693159
30
0
41
1
10
567.555617495467
20
-7.59227133147388
30
0
41
1
10
567.555000081396
20
-7.60254562574501
30
0
0
SPLINE
5
139
100
AcDbEntity
8
1
62
256
6
ByLayer
370
18
48
1
60
0
100
AcDbSpline
70
4
71
1
72
4
73
2
40
0
40
0
40
1
40
1
41
1
10
567.65725
20
-7.57773774939001
30
0
41
1
10
568.325
20
-7.02382891680135
30
0
0
SPLINE
5
13A
100
AcDbEntity
8
1
62
256
6
ByLayer
370
18
48
1
60
0
100
AcDbSpline
70
4
71
1
72
4
73
2
40
0
40
0
40
1
40
1
41
1
10
568.325
20
-7.20447710210303
30
0
41
1
10
567.65725
20
-8.10752583731121
30
0
0
SPLINE
5
13B
100
AcDbEntity
8
1
62
256
6
ByLayer
370
18
48
1
60
0
100
AcDbSpline
70
4
71
3
72
11
73
7
40
0
40
0
40
0
40
0
40
0.469351758654438
40
0.761993777863473
40
0.988709287791775
40
1
40
1
40
1
40
1
41
1
10
567.65725
20
-8.10752583731122
30
0
41
1
10
567.630514136621
20
-8.14262321483818
30
0
41
1
10
567.595252507035
20
-8.19494849384424
30
0
41
1
10
567.562509008142
20
-8.25708633813109
30
0
41
1
10
567.555160567668
20
-8.28299015132043
30
0
41
1
10
567.555001680443
20
-8.29167942370461
30
0
41
1
10
567.555000066086
20
-8.29208657548702
30
0
0
SPLINE
5
13C
100
AcDbEntity
8
1
62
256
6
ByLayer
370
18
48
1
60
0
100
AcDbSpline
70
4
71
1
72
4
73
2
40
0
40
0
40
1
40
1
41
1
10
567.65725
20
-8.25364505519675
30
0
41
1
10
568.325
20
-7.68821267049178
30
0
0
SPLINE
5
13D
100
AcDbEntity
8
1
62
256
6
ByLayer
370
18
48
1
60
0
100
AcDbSpline
70
4
71
1
72
4
73
2
40
0
40
0
40
1
40
1
41
1
10
568.325
20
-7.83064541369054
30
0
41
1
10
567.65725
20
-8.67254129823025
30
0
0
SPLINE
5
13E
100
AcDbEntity
8
1
62
256
6
ByLayer
370
18
48
1
60
0
100
AcDbSpline
70
4
71
3
72
11
73
7
40
0
40
0
40
0
40
0
40
0.441839920560007
40
0.734050487715005
40
0.961867500839341
40
1
40
1
40
1
40
1
41
1
10
567.65725
20
-8.67254129823026
30
0
41
1
10
567.632309326616
20
-8.7032457165448
30
0
41
1
10
567.59797900152
20
-8.74973898570258
30
0
41
1
10
567.564594625596
20
-8.80464831703826
30
0
41
1
10
567.555573313104
20
-8.82852269695488
30
0
41
1
10
567.555015021059
20
-8.83635947173543
30
0
41
1
10
567.555000312325
20
-8.83742547741925
30
0
0
SPLINE
5
13F
100
AcDbEntity
8
1
62
256
6
ByLayer
370
18
48
1
60
0
100
AcDbSpline
70
4
71
1
72
4
73
2
40
0
40
0
40
1
40
1
41
1
10
567.65725
20
-8.78601211582403
30
0
41
1
10
568.325
20
-8.20535591425145
30
0
0
SPLINE
5
140
100
AcDbEntity
8
1
62
256
6
ByLayer
370
18
48
1
60
0
100
AcDbSpline
70
4
71
1
72
4
73
2
40
0
40
0
40
1
40
1
41
1
10
568.325
20
-8.31310458062038
30
0
41
1
10
567.65725
20
-9.10353645583288
30
0
0
SPLINE
5
141
100
AcDbEntity
8
1
62
256
6
ByLayer
370
18
48
1
60
0
100
AcDbSpline
70
4
71
3
72
11
73
7
40
0
40
0
40
0
40
0
40
0.329250067109448
40
0.647313353418085
40
0.887590104473787
40
1
40
1
40
1
40
1
41
1
10
567.65725
20
-9.10353645583289
30
0
41
1
10
567.639125826007
20
-9.12464063176141
30
0
41
1
10
567.607605573011
20
-9.16334055714127
30
0
41
1
10
567.572379703215
20
-9.21190759983645
30
0
41
1
10
567.557086797366
20
-9.23968900769928
30
0
41
1
10
567.555109283245
20
-9.24860113689858
30
0
41
1
10
567.555000241862
20
-9.250975551376
30
0
0
SPLINE
5
142
100
AcDbEntity
8
1
62
256
6
ByLayer
370
18
48
1
60
0
100
AcDbSpline
70
4
71
1
72
4
73
2
40
0
40
0
40
1
40
1
41
1
10
567.65725
20
-9.1867908893245
30
0
41
1
10
568.325
20
-8.58755229858398
30
0
0
SPLINE
5
143
100
AcDbEntity
8
1
62
256
6
ByLayer
370
18
48
1
60
0
100
AcDbSpline
70
4
71
1
72
4
73
2
40
0
40
0
40
1
40
1
41
1
10
568.325
20
-8.66300305129684
30
0
41
1
10
567.65725
20
-9.40944130325644
30
0
0
SPLINE
5
144
100
AcDbEntity
8
1
62
256
6
ByLayer
370
18
48
1
60
0
100
AcDbSpline
70
4
71
3
72
11
73
7
40
0
40
0
40
0
40
0
40
0.342011787836733
40
0.642198228721718
40
0.876725351047455
40
1
40
1
40
1
40
1
41
1
10
567.65725
20
-9.40944130325646
30
0
41
1
10
567.638405962705
20
-9.43023152168823
30
0
41
1
10
567.607246454179
20
-9.46597832353638
30
0
41
1
10
567.572478698653
20
-9.50938125448707
30
0
41
1
10
567.557238712117
20
-9.53262169175954
30
0
41
1
10
567.555107377871
20
-9.53931124263749
30
0
41
1
10
567.555000074588
20
-9.54102988726207
30
0
0
SPLINE
5
145
100
AcDbEntity
8
1
62
256
6
ByLayer
370
18
48
1
60
0
100
AcDbSpline
70
4
71
1
72
4
73
2
40
0
40
0
40
1
40
1
41
1
10
567.65725
20
-9.46411154009974
30
0
41
1
10
568.325
20
-8.84301507032827
30
0
0
SPLINE
5
146
100
AcDbEntity
8
1
62
256
6
ByLayer
370
18
48
1
60
0
100
AcDbSpline
70
4
71
1
72
4
73
2
40
0
40
0
40
1
40
1
41
1
10
568.325
20
-8.88770940068411
30
0
41
1
10
567.65725
20
-9.59611487743882
30
0
0
SPLINE
5
147
100
AcDbEntity
8
1
62
256
6
ByLayer
370
18
48
1
60
0
100
AcDbSpline
70
4
71
3
72
11
73
7
40
0
40
0
40
0
40
0
40
0.353544895004727
40
0.637649992213752
40
0.866481616419164
40
1
40
1
40
1
40
1
41
1
10
567.65725
20
-9.59611487743883
30
0
41
1
10
567.637736231932
20
-9.6166212011108
30
0
41
1
10
567.606877005414
20
-9.64976242080799
30
0
41
1
10
567.572532958045
20
-9.68843414922989
30
0
41
1
10
567.557376965567
20
-9.70751353900981
30
0
41
1
10
567.555102572038
20
-9.71204957208263
30
0
41
1
10
567.555000029089
20
-9.71300513910092
30
0
0
SPLINE
5
148
100
AcDbEntity
8
1
62
256
6
ByLayer
370
18
48
1
60
0
100
AcDbSpline
70
4
71
1
72
4
73
2
40
0
40
0
40
1
40
1
41
1
10
567.65725
20
-9.62320900006475
30
0
41
1
10
568.325
20
-8.97686310823374
30
0
0
SPLINE
5
149
100
AcDbEntity
8
1
62
256
6
ByLayer
370
18
48
1
60
0
100
AcDbSpline
70
4
71
1
72
4
73
2
40
0
40
0
40
1
40
1
41
1
10
568.325
20
-8.99166790770802
30
0
41
1
10
567.65725
20
-9.6669526077377
30
0
0
SPLINE
5
14A
100
AcDbEntity
8
1
62
256
6
ByLayer
370
18
48
1
60
0
100
AcDbSpline
70
4
71
3
72
11
73
7
40
0
40
0
40
0
40
0
40
0.363787721949964
40
0.633109824668349
40
0.856330372739868
40
1
40
1
40
1
40
1
41
1
10
567.65725
20
-9.6669526077377
30
0
41
1
10
567.637106503078
20
-9.68721199693143
30
0
41
1
10
567.606499723285
20
-9.71801584235944
30
0
41
1
10
567.572549591027
20
-9.75227249198013
30
0
41
1
10
567.557491476118
20
-9.76748294072094
30
0
41
1
10
567.555088777225
20
-9.76990974091864
30
0
41
1
10
567.555
20
-9.77000000000001
30
0
0
SPLINE
5
14B
100
AcDbEntity
8
1
62
256
6
ByLayer
370
18
48
1
60
0
100
AcDbSpline
70
4
71
3
72
18
73
14
40
0
40
0
40
0
40
0
40
0.0395444285546366
40
0.678020344593895
40
0.738430857536137
40
0.801710634764001
40
0.823803287787268
40
0.846100958305211
40
0.862570653675328
40
0.879008358520852
40
0.905141278317918
40
0.957073783460579
40
1
40
1
40
1
40
1
41
1
10
567.55502714837
20
6.72406232064906
30
0
41
1
10
567.553140836076
20
6.7167801463652
30
0
41
1
10
567.522476480582
20
6.5921336340394
30
0
41
1
10
567.555777472252
20
6.45008558681493
30
0
41
1
10
567.58352979887
20
6.31927294274565
30
0
41
1
10
567.59201001328
20
6.29578980216913
30
0
41
1
10
567.60164332981
20
6.28248486296213
30
0
41
1
10
567.608716698742
20
6.27759935177041
30
0
41
1
10
567.61616749737
20
6.27717104100129
30
0
41
1
10
567.624105074743
20
6.28055530270281
30
0
41
1
10
567.635418046789
20
6.29130243275445
30
0
41
1
10
567.646658383322
20
6.31014202751859
30
0
41
1
10
567.654218463867
20
6.32565238044456
30
0
41
1
10
567.65725
20
6.3331197888551
30
0
0
SPLINE
5
14C
100
AcDbEntity
8
1
62
256
6
ByLayer
370
18
48
1
60
0
100
AcDbSpline
70
4
71
3
72
13
73
9
40
0
40
0
40
0
40
0
40
0.0811644644506268
40
0.177297495013595
40
0.43385616087598
40
0.690627755606279
40
0.946967123454821
40
1
40
1
40
1
40
1
41
1
10
567.555022756186
20
13.237748237267
30
0
41
1
10
567.556685354627
20
13.0629443615115
30
0
41
1
10
567.563432827021
20
12.680353559239
30
0
41
1
10
567.615581614574
20
11.7386196864308
30
0
41
1
10
567.637544089998
20
10.412467172217
30
0
41
1
10
567.612774682814
20
8.73611925429116
30
0
41
1
10
567.565957676769
20
7.50477944647325
30
0
41
1
10
567.556512388558
20
6.83821624320748
30
0
41
1
10
567.55502714837
20
6.72406232064906
30
0
0
SPLINE
5
14D
100
AcDbEntity
8
1
62
256
6
ByLayer
370
18
48
1
60
0
100
AcDbSpline
70
4
71
3
72
14
73
10
40
0
40
0
40
0
40
0
40
0.287575987652889
40
0.590056088248672
40
0.679730591769932
40
0.750554707084461
40
0.821712627379464
40
0.902192848597169
40
1
40
1
40
1
40
1
41
1
10
567.55503138987
20
1.8316060267774
30
0
41
1
10
567.553750469309
20
1.80274150389196
30
0
41
1
10
567.557233909262
20
1.74827528017312
30
0
41
1
10
567.567713507383
20
1.68614308568199
30
0
41
1
10
567.588436644206
20
1.65830785731397
30
0
41
1
10
567.602870634491
20
1.65120877241602
30
0
41
1
10
567.619472193805
20
1.65286077652302
30
0
41
1
10
567.638437550163
20
1.66419082283286
30
0
41
1
10
567.650736120681
20
1.67570078629761
30
0
41
1
10
567.65725
20
1.68346803663554
30
0
0
SPLINE
5
14E
100
AcDbEntity
8
1
62
256
6
ByLayer
370
18
48
1
60
0
100
AcDbSpline
70
4
71
3
72
10
73
6
40
0
40
0
40
0
40
0
40
0.0927554397793
40
0.545697818068068
40
1
40
1
40
1
40
1
41
1
10
567.555038128083
20
18.1675712688108
30
0
41
1
10
567.555388989701
20
18.1479841945516
30
0
41
1
10
567.559039956352
20
18.0323212615758
30
0
41
1
10
567.588693640007
20
17.8116779316107
30
0
41
1
10
567.630758281869
20
17.6119288053598
30
0
41
1
10
567.65725
20
17.5108818292092
30
0
0
SPLINE
5
14F
100
AcDbEntity
8
1
62
256
6
ByLayer
370
18
48
1
60
0
100
AcDbSpline
70
4
71
3
72
14
73
10
40
0
40
0
40
0
40
0
40
0.134830546589822
40
0.43227857117495
40
0.556416845271842
40
0.681679785607283
40
0.793859150360332
40
0.921826329766577
40
1
40
1
40
1
40
1
41
1
10
567.555011360507
20
-0.88720871497629
30
0
41
1
10
567.554794910832
20
-0.897521353889725
30
0
41
1
10
567.555917857637
20
-0.929116645489206
30
0
41
1
10
567.562018268893
20
-0.967838796523706
30
0
41
1
10
567.579160760749
20
-0.994361584869749
30
0
41
1
10
567.596635088183
20
-1.00325990897652
30
0
41
1
10
567.619157766394
20
-0.999752268205372
30
0
41
1
10
567.639812086509
20
-0.987154565654814
30
0
41
1
10
567.652478051636
20
-0.976493840301481
30
0
41
1
10
567.65725
20
-0.971936807712729
30
0
0
SPLINE
5
150
100
AcDbEntity
8
1
62
256
6
ByLayer
370
18
48
1
60
0
100
AcDbSpline
70
4
71
3
72
10
73
6
40
0
40
0
40
0
40
0
40
0.183048331563977
40
0.859515705816318
40
1
40
1
40
1
40
1
41
1
10
567.555017244399
20
20.8864398912318
30
0
41
1
10
567.555942472328
20
20.8599843976353
30
0
41
1
10
567.564464988637
20
20.7346650724018
30
0
41
1
10
567.606509813794
20
20.5749695797473
30
0
41
1
10
567.649401846817
20
20.4476588174966
30
0
41
1
10
567.65725
20
20.4256727570728
30
0
0
SPLINE
5
151
100
AcDbEntity
8
1
62
256
6
ByLayer
370
18
48
1
60
0
100
AcDbSpline
70
4
71
3
72
12
73
8
40
0
40
0
40
0
40
0
40
0.0979770994025654
40
0.417761348084522
40
0.739992192872166
40
0.956420333148092
40
1
40
1
40
1
40
1
41
1
10
567.555002402522
20
-2.87723051658865
30
0
41
1
10
567.554969421878
20
-2.88114455028815
30
0
41
1
10
567.555291463342
20
-2.89747134314104
30
0
41
1
10
567.558605880554
20
-2.92456314953187
30
0
41
1
10
567.570428322714
20
-2.94900370630714
30
0
41
1
10
567.585130850077
20
-2.95680379660469
30
0
41
1
10
567.592932332293
20
-2.95762985583139
30
0
41
1
10
567.594277264759
20
-2.95770342968759
30
0
0
SPLINE
5
152
100
AcDbEntity
8
1
62
256
6
ByLayer
370
18
48
1
60
0
100
AcDbSpline
70
4
71
3
72
10
73
6
40
0
40
0
40
0
40
0
40
0.29608374807203
40
0.646553452434236
40
1
40
1
40
1
40
1
41
1
10
567.594277264759
20
-2.95770342968759
30
0
41
1
10
567.599841711318
20
-2.95785074718485
30
0
41
1
10
567.612429874276
20
-2.95608305997821
30
0
41
1
10
567.634453442418
20
-2.94485774792138
30
0
41
1
10
567.649564454984
20
-2.93357622746186
30
0
41
1
10
567.65725
20
-2.92679738865042
30
0
0
SPLINE
5
153
100
AcDbEntity
8
1
62
256
6
ByLayer
370
18
48
1
60
0
100
AcDbSpline
70
4
71
3
72
10
73
6
40
0
40
0
40
0
40
0
40
0.0340274245099761
40
0.415044787858746
40
1
40
1
40
1
40
1
41
1
10
567.555002425299
20
22.8772250208738
30
0
41
1
10
567.555036900652
20
22.8735391069519
30
0
41
1
10
567.555984630121
20
22.8283224309489
30
0
41
1
10
567.580896885639
20
22.7052962332344
30
0
41
1
10
567.622322050846
20
22.585293665942
30
0
41
1
10
567.65725
20
22.5090350955934
30
0
0
SPLINE
5
154
100
AcDbEntity
8
1
62
256
6
ByLayer
370
18
48
1
60
0
100
AcDbSpline
70
4
71
3
72
13
73
9
40
0
40
0
40
0
40
0
40
0.106322020951553
40
0.308092026541448
40
0.511861720184073
40
0.687387669813733
40
0.838178876361611
40
1
40
1
40
1
40
1
41
1
10
567.555003423148
20
-4.44198101996942
30
0
41
1
10
567.554902748484
20
-4.44788074348428
30
0
41
1
10
567.5557309423
20
-4.46395285738035
30
0
41
1
10
567.561449200834
20
-4.48733599954962
30
0
41
1
10
567.578391104751
20
-4.50284483394634
30
0
41
1
10
567.603424866665
20
-4.50148916190902
30
0
41
1
10
567.630477830277
20
-4.48835017570581
30
0
41
1
10
567.647958903936
20
-4.47580161303448
30
0
41
1
10
567.65725
20
-4.46792259248015
30
0
0
SPLINE
5
155
100
AcDbEntity
8
1
62
256
6
ByLayer
370
18
48
1
60
0
100
AcDbSpline
70
4
71
3
72
10
73
6
40
0
40
0
40
0
40
0
40
0.192958189275749
40
0.662877134872495
40
1
40
1
40
1
40
1
41
1
10
567.555003412463
20
24.4419827618974
30
0
41
1
10
567.555775357579
20
24.4247468535211
30
0
41
1
10
567.562247184345
20
24.3638370838714
30
0
41
1
10
567.599082328815
20
24.2562196219806
30
0
41
1
10
567.638177661418
20
24.1703207309281
30
0
41
1
10
567.65725
20
24.1335510614993
30
0
0
SPLINE
5
156
100
AcDbEntity
8
1
62
256
6
ByLayer
370
18
48
1
60
0
100
AcDbSpline
70
4
71
1
72
4
73
2
40
0
40
0
40
1
40
1
41
1
10
566.059042705207
20
27.6606414815843
30
0
41
1
10
565.58856405781
20
27.9823344634338
30
0
0
SPLINE
5
157
100
AcDbEntity
8
1
62
256
6
ByLayer
370
18
48
1
60
0
100
AcDbSpline
70
4
71
3
72
10
73
6
40
0
40
0
40
0
40
0
40
0.230543928052924
40
0.670249368460701
40
1
40
1
40
1
40
1
41
1
10
567.555000472764
20
25.7112166191105
30
0
41
1
10
567.555973870088
20
25.6941926951023
30
0
41
1
10
567.563390370998
20
25.6424094026312
30
0
41
1
10
567.601280134767
20
25.548398000889
30
0
41
1
10
567.638677503405
20
25.4764629670545
30
0
41
1
10
567.65725
20
25.4446939818576
30
0
0
SPLINE
5
158
100
AcDbEntity
8
1
62
256
6
ByLayer
370
18
48
1
60
0
100
AcDbSpline
70
4
71
3
72
13
73
9
40
0
40
0
40
0
40
0
40
0.156938698583174
40
0.349316531427344
40
0.543113493975568
40
0.714312677860264
40
0.930589975771558
40
1
40
1
40
1
40
1
41
1
10
567.555008535533
20
-5.71011512203547
30
0
41
1
10
567.554764424077
20
-5.71788257424267
30
0
41
1
10
567.556326840232
20
-5.73301995238036
30
0
41
1
10
567.565117235662
20
-5.75101916999045
30
0
41
1
10
567.58431428651
20
-5.75710963497732
30
0
41
1
10
567.612372194197
20
-5.74899564906002
30
0
41
1
10
567.63767922616
20
-5.7329360348716
30
0
41
1
10
567.653396743984
20
-5.72066053656
30
0
41
1
10
567.657250000002
20
-5.71748954371394
30
0
0
SPLINE
5
159
100
AcDbEntity
8
1
62
256
6
ByLayer
370
18
48
1
60
0
100
AcDbSpline
70
4
71
3
72
13
73
9
40
0
40
0
40
0
40
0
40
0.166744196503614
40
0.333420031538871
40
0.499708238098187
40
0.666788419012119
40
0.833481745095767
40
1
40
1
40
1
40
1
41
1
10
566
20
30
30
0
41
1
10
566.013888457047
20
30.0001446679326
30
0
41
1
10
566.040809370023
20
29.9563759930654
30
0
41
1
10
566.081529017272
20
29.7589906768713
30
0
41
1
10
566.11389127285
20
29.4290342374043
30
0
41
1
10
566.129761424671
20
28.9688797048101
30
0
41
1
10
566.120806684019
20
28.3809419195368
30
0
41
1
10
566.083967273989
20
27.9137582978018
30
0
41
1
10
566.059042705207
20
27.660641481585
30
0
0
SPLINE
5
15A
100
AcDbEntity
8
1
62
256
6
ByLayer
370
18
48
1
60
0
100
AcDbSpline
70
4
71
3
72
13
73
9
40
0
40
0
40
0
40
0
40
0.0632694644458722
40
0.276663840458725
40
0.491667190860606
40
0.676297285291904
40
0.911346290098159
40
1
40
1
40
1
40
1
41
1
10
567.555000929876
20
-6.75081825358064
30
0
41
1
10
567.554969985234
20
-6.75342970234351
30
0
41
1
10
567.55550091994
20
-6.76418291230981
30
0
41
1
10
567.560935326728
20
-6.77947481258402
30
0
41
1
10
567.579425426929
20
-6.78514783188438
30
0
41
1
10
567.607960906403
20
-6.77592740243696
30
0
41
1
10
567.635043745723
20
-6.75848021994963
30
0
41
1
10
567.652419939031
20
-6.74489668026595
30
0
41
1
10
567.657250000006
20
-6.74091308655229
30
0
0
SPLINE
5
15B
100
AcDbEntity
8
1
62
256
6
ByLayer
370
18
48
1
60
0
100
AcDbSpline
70
4
71
3
72
11
73
7
40
0
40
0
40
0
40
0
40
0.0302362271658325
40
0.300567593954824
40
0.740596753790253
40
1
40
1
40
1
40
1
41
1
10
567.555000725937
20
26.7508635079356
30
0
41
1
10
567.555017361135
20
26.7491477519593
30
0
41
1
10
567.555575568672
20
26.7318046022458
30
0
41
1
10
567.569149254964
20
26.6789954170122
30
0
41
1
10
567.607837049872
20
26.5985027415873
30
0
41
1
10
567.642867396602
20
26.5396035419022
30
0
41
1
10
567.65725
20
26.5172600263618
30
0
0
SPLINE
5
15C
100
AcDbEntity
8
1
62
256
6
ByLayer
370
18
48
1
60
0
100
AcDbSpline
70
4
71
3
72
13
73
9
40
0
40
0
40
0
40
0
40
0.0212809377381109
40
0.238561386112248
40
0.457168607694744
40
0.649648659773634
40
0.903508497126217
40
1
40
1
40
1
40
1
41
1
10
567.555000081396
20
-7.60254562574501
30
0
41
1
10
567.55499712244
20
-7.60328523213858
30
0
41
1
10
567.555161987585
20
-7.61137723928319
30
0
41
1
10
567.559253003597
20
-7.6236047693758
30
0
41
1
10
567.576881560241
20
-7.62692444517213
30
0
41
1
10
567.605349565434
20
-7.61585804479342
30
0
41
1
10
567.633524661658
20
-7.59683292807724
30
0
41
1
10
567.652052428589
20
-7.58207319629564
30
0
41
1
10
567.657250000005
20
-7.57773774938839
30
0
0
SPLINE
5
15D
100
AcDbEntity
8
1
62
256
6
ByLayer
370
18
48
1
60
0
100
AcDbSpline
70
4
71
3
72
11
73
7
40
0
40
0
40
0
40
0
40
0.08123299222845
40
0.361133281663032
40
0.796537058091938
40
1
40
1
40
1
40
1
41
1
10
567.55500147232
20
27.6022405721771
30
0
41
1
10
567.555099462372
20
27.5984504549655
30
0
41
1
10
567.556719074078
20
27.580709703447
30
0
41
1
10
567.574802179399
20
27.5294836558492
30
0
41
1
10
567.613632517066
20
27.4603267694139
30
0
41
1
10
567.646115482642
20
27.4113458694242
30
0
41
1
10
567.65725
20
27.3954357623967
30
0
0
SPLINE
5
15E
100
AcDbEntity
8
1
62
256
6
ByLayer
370
18
48
1
60
0
100
AcDbSpline
70
4
71
3
72
11
73
7
40
0
40
0
40
0
40
0
40
0.130632392229599
40
0.415548682631276
40
0.843413418810489
40
1
40
1
40
1
40
1
41
1
10
567.555000724703
20
28.2919300405605
30
0
41
1
10
567.555219444984
20
28.2869735895815
30
0
41
1
10
567.55799512545
20
28.2695849031442
30
0
41
1
10
567.580249725646
20
28.2201944449456
30
0
41
1
10
567.618700276632
20
28.1601189387493
30
0
41
1
10
567.648761892694
20
28.1187907830027
30
0
41
1
10
567.65725
20
28.1075258373112
30
0
0
SPLINE
5
15F
100
AcDbEntity
8
1
62
256
6
ByLayer
370
18
48
1
60
0
100
AcDbSpline
70
4
71
3
72
12
73
8
40
0
40
0
40
0
40
0
40
0.203982101215694
40
0.422892038301047
40
0.621225759785537
40
0.890379488772091
40
1
40
1
40
1
40
1
41
1
10
567.555000066086
20
-8.29208657548702
30
0
41
1
10
567.554897963952
20
-8.29830037852107
30
0
41
1
10
567.558176529177
20
-8.30717357536942
30
0
41
1
10
567.574243124086
20
-8.3084735293176
30
0
41
1
10
567.602275393741
20
-8.2955987473305
30
0
41
1
10
567.631553976018
20
-8.27482459649753
30
0
41
1
10
567.651377526234
20
-8.25863847176403
30
0
41
1
10
567.657250000007
20
-8.25364505519426
30
0
0
SPLINE
5
160
100
AcDbEntity
8
1
62
256
6
ByLayer
370
18
48
1
60
0
100
AcDbSpline
70
4
71
3
72
12
73
8
40
0
40
0
40
0
40
0
40
0.171820385506448
40
0.389124108029
40
0.591678114719858
40
0.873622739350525
40
1
40
1
40
1
40
1
41
1
10
567.555000312326
20
-8.83742547741926
30
0
41
1
10
567.554945951919
20
-8.84158594212342
30
0
41
1
10
567.557566085497
20
-8.8479456508417
30
0
41
1
10
567.571645644365
20
-8.8471547875957
30
0
41
1
10
567.598948282838
20
-8.83252461006486
30
0
41
1
10
567.629289303415
20
-8.80975173405267
30
0
41
1
10
567.650490893341
20
-8.7919055473377
30
0
41
1
10
567.657250000011
20
-8.78601211581954
30
0
0
SPLINE
5
161
100
AcDbEntity
8
1
62
256
6
ByLayer
370
18
48
1
60
0
100
AcDbSpline
70
4
71
3
72
11
73
7
40
0
40
0
40
0
40
0
40
0.143406160135588
40
0.41617940966082
40
0.813457131820101
40
1
40
1
40
1
40
1
41
1
10
567.555000075114
20
28.8374837408244
30
0
41
1
10
567.555218734815
20
28.8332559112073
30
0
41
1
10
567.558158421244
20
28.8190743086719
30
0
41
1
10
567.579864871635
20
28.7772067985675
30
0
41
1
10
567.617427602226
20
28.7232747229728
30
0
41
1
10
567.647143977536
20
28.685075854437
30
0
41
1
10
567.65725
20
28.6725412982299
30
0
0
SPLINE
5
162
100
AcDbEntity
8
1
62
256
6
ByLayer
370
18
48
1
60
0
100
AcDbSpline
70
4
71
3
72
11
73
7
40
0
40
0
40
0
40
0
40
0.151510210552062
40
0.411847092875988
40
0.780628591293487
40
1
40
1
40
1
40
1
41
1
10
567.555000030128
20
29.2510233429179
30
0
41
1
10
567.555213291713
20
29.2477351167947
30
0
41
1
10
567.558226651058
20
29.2366590343581
30
0
41
1
10
567.579017327131
20
29.2017481251854
30
0
41
1
10
567.615762487581
20
29.1531383553435
30
0
41
1
10
567.645364287079
20
29.1174078722661
30
0
41
1
10
567.65725
20
29.1035364558304
30
0
0
SPLINE
5
163
100
AcDbEntity
8
1
62
256
6
ByLayer
370
18
48
1
60
0
100
AcDbSpline
70
4
71
3
72
12
73
8
40
0
40
0
40
0
40
0
40
0.093775004352085
40
0.31507929396433
40
0.520086113400941
40
0.799364997268681
40
1
40
1
40
1
40
1
41
1
10
567.555000241862
20
-9.250975551376
30
0
41
1
10
567.554980723119
20
-9.25266033055196
30
0
41
1
10
567.556166673441
20
-9.25698204609553
30
0
41
1
10
567.56547045096
20
-9.25671815226703
30
0
41
1
10
567.589775411851
20
-9.24265193129517
30
0
41
1
10
567.621987058706
20
-9.21763866786432
30
0
41
1
10
567.646436280984
20
-9.19652251828053
30
0
41
1
10
567.65725
20
-9.18679088932452
30
0
0
SPLINE
5
164
100
AcDbEntity
8
1
62
256
6
ByLayer
370
18
48
1
60
0
100
AcDbSpline
70
4
71
3
72
12
73
8
40
0
40
0
40
0
40
0
40
0.0805814427706154
40
0.294856636486453
40
0.501424598236277
40
0.795507813486135
40
1
40
1
40
1
40
1
41
1
10
567.555000074588
20
-9.54102988726207
30
0
41
1
10
567.554994909587
20
-9.54199805620341
30
0
41
1
10
567.555997909948
20
-9.54446591988108
30
0
41
1
10
567.564538790173
20
-9.54174157756296
30
0
41
1
10
567.588322652417
20
-9.52490050612502
30
0
41
1
10
567.620983720609
20
-9.49723378358648
30
0
41
1
10
567.646251711464
20
-9.47433995069365
30
0
41
1
10
567.65725
20
-9.46411154009976
30
0
0
SPLINE
5
165
100
AcDbEntity
8
1
62
256
6
ByLayer
370
18
48
1
60
0
100
AcDbSpline
70
4
71
3
72
12
73
8
40
0
40
0
40
0
40
0
40
0.0040678379005963
40
0.19325918499379
40
0.453930994611968
40
0.81650393693014
40
1
40
1
40
1
40
1
41
1
10
567.555000003065
20
29.5410513391963
30
0
41
1
10
567.555000102346
20
29.540998898705
30
0
41
1
10
567.555041908088
20
29.5384715788752
30
0
41
1
10
567.55976336621
20
29.5278958526447
30
0
41
1
10
567.583394766298
20
29.4949534400491
30
0
41
1
10
567.619681799929
20
29.4515850423523
30
0
41
1
10
567.64738507519
20
29.4203496943217
30
0
41
1
10
567.657250000001
20
29.4094413032536
30
0
0
SPLINE
5
166
100
AcDbEntity
8
1
62
256
6
ByLayer
370
18
48
1
60
0
100
AcDbSpline
70
4
71
3
72
11
73
7
40
0
40
0
40
0
40
0
40
0.231131739999551
40
0.466628672010399
40
0.825968942986613
40
1
40
1
40
1
40
1
41
1
10
567.556420372693
20
-9.71340517318358
30
0
41
1
10
567.558679533271
20
-9.71239410088867
30
0
41
1
10
567.566217544613
20
-9.70717662938002
30
0
41
1
10
567.591921726394
20
-9.68491956401672
30
0
41
1
10
567.62442260669
20
-9.65466173136033
30
0
41
1
10
567.648908641859
20
-9.6312544707722
30
0
41
1
10
567.657250000007
20
-9.6232090000593
30
0
0
SPLINE
5
167
100
AcDbEntity
8
1
62
256
6
ByLayer
370
18
48
1
60
0
100
AcDbSpline
70
4
71
3
72
12
73
8
40
0
40
0
40
0
40
0
40
0.101523682145585
40
0.298670259603669
40
0.579960061486648
40
0.971009684659182
40
1
40
1
40
1
40
1
41
1
10
567.555000044759
20
29.7130031276509
30
0
41
1
10
567.555046733676
20
29.7123126748356
30
0
41
1
10
567.556492157933
20
29.7090003075641
30
0
41
1
10
567.567719690897
20
29.6941913394474
30
0
41
1
10
567.599047395786
20
29.6582641268284
30
0
41
1
10
567.633679505406
20
29.6209690724059
30
0
41
1
10
567.655717722444
20
29.5977282863562
30
0
41
1
10
567.65725
20
29.5961148774388
30
0
0
INSERT
5
196
100
AcDbEntity
8
SK2
62
256
6
ByLayer
370
25
48
1
60
0
100
AcDbBlockReference
2
DimnDraft3D44
10
0
20
0
30
0
41
1
42
1
43
1
50
0
210
0
220
0
230
1
0
LINE
5
70
100
AcDbEntity
8
81
62
256
6
ByLayer
370
18
48
1
60
0
100
AcDbLine
10
568
20
10
30
0
11
624.8
21
10
31
0
39
0
210
0
220
0
230
1
0
LINE
5
71
100
AcDbEntity
8
4
62
256
6
ByLayer
370
18
48
0.05
60
0
100
AcDbLine
10
0
20
0
30
0
11
568
21
0
31
0
39
0
210
0
220
0
230
1
0
LINE
5
73
100
AcDbEntity
8
SK4
62
256
6
ByLayer
370
18
48
0.05
60
0
100
AcDbLine
10
-250
20
0
30
0
11
575
21
0
31
0
39
0
210
0
220
0
230
1
0
LINE
5
75
100
AcDbEntity
8
80
62
256
6
ByLayer
370
18
48
1
60
0
100
AcDbLine
10
0
20
0
30
0
11
-56.8
21
0
31
0
39
0
210
0
220
0
230
1
0
LINE
5
76
100
AcDbEntity
8
SK1
62
256
6
ByLayer
370
18
48
1
60
0
100
AcDbLine
10
577
20
24.899495
30
0
11
571
21
24.899495
31
0
39
0
210
0
220
0
230
1
0
LINE
5
78
100
AcDbEntity
8
SK1
62
256
6
ByLayer
370
18
48
1
60
0
100
AcDbLine
10
571
20
14.899495
30
0
11
577
21
14.899495
31
0
39
0
210
0
220
0
230
1
0
LINE
5
79
100
AcDbEntity
8
SK1
62
256
6
ByLayer
370
18
48
1
60
0
100
AcDbLine
10
571
20
22.899495
30
0
11
568.325
21
22.899495
31
0
39
0
210
0
220
0
230
1
0
LINE
5
7A
100
AcDbEntity
8
SK1
62
256
6
ByLayer
370
18
48
1
60
0
100
AcDbLine
10
568.325
20
16.899495
30
0
11
571
21
16.899495
31
0
39
0
210
0
220
0
230
1
0
LINE
5
7B
100
AcDbEntity
8
SK1
62
256
6
ByLayer
370
18
48
1
60
0
100
AcDbLine
10
577
20
5.100505
30
0
11
571
21
5.100505
31
0
39
0
210
0
220
0
230
1
0
LINE
5
7C
100
AcDbEntity
8
SK1
62
256
6
ByLayer
370
18
48
1
60
0
100
AcDbLine
10
571
20
-4.899495
30
0
11
577
21
-4.899495
31
0
39
0
210
0
220
0
230
1
0
LINE
5
7D
100
AcDbEntity
8
SK1
62
256
6
ByLayer
370
18
48
1
60
0
100
AcDbLine
10
571
20
3.100505
30
0
11
568.325
21
3.100505
31
0
39
0
210
0
220
0
230
1
0
LINE
5
7E
100
AcDbEntity
8
SK1
62
256
6
ByLayer
370
18
48
1
60
0
100
AcDbLine
10
568.325
20
-2.899495
30
0
11
571
21
-2.899495
31
0
39
0
210
0
220
0
230
1
0
LINE
5
7F
100
AcDbEntity
8
SK1
62
256
6
ByLayer
370
18
48
1
60
0
100
AcDbLine
10
-237.5
20
30
30
0
11
-240
21
27.5
31
0
39
0
210
0
220
0
230
1
0
LINE
5
80
100
AcDbEntity
8
SK1
62
256
6
ByLayer
370
18
48
1
60
0
100
AcDbLine
10
-240
20
-27.5
30
0
11
-237.5
21
-30
31
0
39
0
210
0
220
0
230
1
0
LINE
5
81
100
AcDbEntity
8
1
62
256
6
ByLayer
370
18
48
1
60
0
100
AcDbLine
10
563.6
20
30
30
0
11
0
21
30
31
0
39
0
210
0
220
0
230
1
0
LINE
5
83
100
AcDbEntity
8
SK1
62
256
6
ByLayer
370
18
48
1
60
0
100
AcDbLine
10
-237.5
20
-30
30
0
11
0
21
-30
31
0
39
0
210
0
220
0
230
1
0
LINE
5
84
100
AcDbEntity
8
1
62
256
6
ByLayer
370
18
48
1
60
0
100
AcDbLine
10
565.5
20
-30
30
0
11
566
21
-29.5
31
0
39
0
210
0
220
0
230
1
0
LINE
5
85
100
AcDbEntity
8
1
62
256
6
ByLayer
370
18
48
1
60
0
100
AcDbLine
10
564.4
20
-30
30
0
11
565.5
21
-30
31
0
39
0
210
0
220
0
230
1
0
LINE
5
86
100
AcDbEntity
8
1
62
256
6
ByLayer
370
18
48
1
60
0
100
AcDbLine
10
566
20
30
30
0
11
564.4
21
30
31
0
39
0
210
0
220
0
230
1
0
LINE
5
87
100
AcDbEntity
8
1
62
256
6
ByLayer
370
18
48
1
60
0
100
AcDbLine
10
567
20
-10
30
0
11
567.325
21
-10
31
0
39
0
210
0
220
0
230
1
0
LINE
5
88
100
AcDbEntity
8
1
62
256
6
ByLayer
370
18
48
1
60
0
100
AcDbLine
10
567.325
20
30
30
0
11
566
21
30
31
0
39
0
210
0
220
0
230
1
0
LINE
5
89
100
AcDbEntity
8
1
62
256
6
ByLayer
370
18
48
1
60
0
100
AcDbLine
10
567.325
20
-10
30
0
11
567.556678
21
-9.768322
31
0
39
0
210
0
220
0
230
1
0
LINE
5
8A
100
AcDbEntity
8
1
62
256
6
ByLayer
370
18
48
1
60
0
100
AcDbLine
10
567.556678
20
29.768322
30
0
11
567.325
21
30
31
0
39
0
210
0
220
0
230
1
0
LINE
5
8B
100
AcDbEntity
8
1
62
256
6
ByLayer
370
18
48
1
60
0
100
AcDbLine
10
567.65725
20
13.66688
30
0
11
567.65725
21
6.33312
31
0
39
0
210
0
220
0
230
1
0
LINE
5
8C
100
AcDbEntity
8
1
62
256
6
ByLayer
370
18
48
1
60
0
100
AcDbLine
10
568.325
20
11.541407
30
0
11
568.325
21
8.458593
31
0
39
0
210
0
220
0
230
1
0
LINE
5
8D
100
AcDbEntity
8
1
62
256
6
ByLayer
370
18
48
1
60
0
100
AcDbLine
10
567.65725
20
18.316532
30
0
11
567.65725
21
17.510882
31
0
39
0
210
0
220
0
230
1
0
LINE
5
8E
100
AcDbEntity
8
1
62
256
6
ByLayer
370
18
48
1
60
0
100
AcDbLine
10
567.65725
20
2.489118
30
0
11
567.65725
21
1.683468
31
0
39
0
210
0
220
0
230
1
0
LINE
5
8F
100
AcDbEntity
8
1
62
256
6
ByLayer
370
18
48
1
60
0
100
AcDbLine
10
568.325
20
17.545731
30
0
11
568.325
21
14.053252
31
0
39
0
210
0
220
0
230
1
0
LINE
5
90
100
AcDbEntity
8
1
62
256
6
ByLayer
370
18
48
1
60
0
100
AcDbLine
10
568.325
20
5.946748
30
0
11
568.325
21
2.454269
31
0
39
0
210
0
220
0
230
1
0
LINE
5
91
100
AcDbEntity
8
1
62
256
6
ByLayer
370
18
48
1
60
0
100
AcDbLine
10
567.65725
20
20.971937
30
0
11
567.65725
21
20.425673
31
0
39
0
210
0
220
0
230
1
0
LINE
5
92
100
AcDbEntity
8
1
62
256
6
ByLayer
370
18
48
1
60
0
100
AcDbLine
10
567.65725
20
-0.425673
30
0
11
567.65725
21
-0.971937
31
0
39
0
210
0
220
0
230
1
0
LINE
5
93
100
AcDbEntity
8
1
62
256
6
ByLayer
370
18
48
1
60
0
100
AcDbLine
10
568.325
20
20.344089
30
0
11
568.325
21
18.358632
31
0
39
0
210
0
220
0
230
1
0
LINE
5
94
100
AcDbEntity
8
1
62
256
6
ByLayer
370
18
48
1
60
0
100
AcDbLine
10
568.325
20
1.641368
30
0
11
568.325
21
-0.344089
31
0
39
0
210
0
220
0
230
1
0
LINE
5
95
100
AcDbEntity
8
1
62
256
6
ByLayer
370
18
48
1
60
0
100
AcDbLine
10
567.65725
20
22.926797
30
0
11
567.65725
21
22.509035
31
0
39
0
210
0
220
0
230
1
0
LINE
5
96
100
AcDbEntity
8
1
62
256
6
ByLayer
370
18
48
1
60
0
100
AcDbLine
10
567.65725
20
-2.509035
30
0
11
567.65725
21
-2.926797
31
0
39
0
210
0
220
0
230
1
0
LINE
5
97
100
AcDbEntity
8
1
62
256
6
ByLayer
370
18
48
1
60
0
100
AcDbLine
10
568.325
20
22.351611
30
0
11
568.325
21
20.899753
31
0
39
0
210
0
220
0
230
1
0
LINE
5
98
100
AcDbEntity
8
1
62
256
6
ByLayer
370
18
48
1
60
0
100
AcDbLine
10
568.325
20
-0.899753
30
0
11
568.325
21
-2.351611
31
0
39
0
210
0
220
0
230
1
0
LINE
5
99
100
AcDbEntity
8
1
62
256
6
ByLayer
370
18
48
1
60
0
100
AcDbLine
10
567.65725
20
24.467923
30
0
11
567.65725
21
24.133551
31
0
39
0
210
0
220
0
230
1
0
LINE
5
9A
100
AcDbEntity
8
1
62
256
6
ByLayer
370
18
48
1
60
0
100
AcDbLine
10
567.65725
20
-4.133551
30
0
11
567.65725
21
-4.467923
31
0
39
0
210
0
220
0
230
1
0
LINE
5
9B
100
AcDbEntity
8
1
62
256
6
ByLayer
370
18
48
1
60
0
100
AcDbLine
10
568.325
20
-2.776639
30
0
11
568.325
21
-3.914899
31
0
39
0
210
0
220
0
230
1
0
LINE
5
9C
100
AcDbEntity
8
1
62
256
6
ByLayer
370
18
48
1
60
0
100
AcDbLine
10
568.325
20
23.914899
30
0
11
568.325
21
22.776639
31
0
39
0
210
0
220
0
230
1
0
LINE
5
9D
100
AcDbEntity
8
1
62
256
6
ByLayer
370
18
48
1
60
0
100
AcDbLine
10
567.65725
20
25.71749
30
0
11
567.65725
21
25.444694
31
0
39
0
210
0
220
0
230
1
0
LINE
5
9E
100
AcDbEntity
8
1
62
256
6
ByLayer
370
18
48
1
60
0
100
AcDbLine
10
567.65725
20
-5.444694
30
0
11
567.65725
21
-5.71749
31
0
39
0
210
0
220
0
230
1
0
LINE
5
9F
100
AcDbEntity
8
1
62
256
6
ByLayer
370
18
48
1
60
0
100
AcDbLine
10
568.325
20
-4.254136
30
0
11
568.325
21
-5.171899
31
0
39
0
210
0
220
0
230
1
0
LINE
5
A0
100
AcDbEntity
8
1
62
256
6
ByLayer
370
18
48
1
60
0
100
AcDbLine
10
568.325
20
25.171899
30
0
11
568.325
21
24.254136
31
0
39
0
210
0
220
0
230
1
0
LINE
5
A1
100
AcDbEntity
8
1
62
256
6
ByLayer
370
18
48
1
60
0
100
AcDbLine
10
567.65725
20
-6.51726
30
0
11
567.65725
21
-6.740913
31
0
39
0
210
0
220
0
230
1
0
LINE
5
A2
100
AcDbEntity
8
1
62
256
6
ByLayer
370
18
48
1
60
0
100
AcDbLine
10
567.65725
20
26.740913
30
0
11
567.65725
21
26.51726
31
0
39
0
210
0
220
0
230
1
0
LINE
5
A3
100
AcDbEntity
8
1
62
256
6
ByLayer
370
18
48
1
60
0
100
AcDbLine
10
568.325
20
26.194093
30
0
11
568.325
21
25.447274
31
0
39
0
210
0
220
0
230
1
0
LINE
5
A4
100
AcDbEntity
8
1
62
256
6
ByLayer
370
18
48
1
60
0
100
AcDbLine
10
568.325
20
-5.447274
30
0
11
568.325
21
-6.194093
31
0
39
0
210
0
220
0
230
1
0
LINE
5
A5
100
AcDbEntity
8
1
62
256
6
ByLayer
370
18
48
1
60
0
100
AcDbLine
10
567.65725
20
-7.395436
30
0
11
567.65725
21
-7.577738
31
0
39
0
210
0
220
0
230
1
0
LINE
5
A6
100
AcDbEntity
8
1
62
256
6
ByLayer
370
18
48
1
60
0
100
AcDbLine
10
567.65725
20
27.577738
30
0
11
567.65725
21
27.395436
31
0
39
0
210
0
220
0
230
1
0
LINE
5
A7
100
AcDbEntity
8
1
62
256
6
ByLayer
370
18
48
1
60
0
100
AcDbLine
10
568.325
20
-6.418165
30
0
11
568.325
21
-7.023829
31
0
39
0
210
0
220
0
230
1
0
LINE
5
A8
100
AcDbEntity
8
1
62
256
6
ByLayer
370
18
48
1
60
0
100
AcDbLine
10
568.325
20
27.023829
30
0
11
568.325
21
26.418165
31
0
39
0
210
0
220
0
230
1
0
LINE
5
A9
100
AcDbEntity
8
1
62
256
6
ByLayer
370
18
48
1
60
0
100
AcDbLine
10
567.65725
20
28.253645
30
0
11
567.65725
21
28.107526
31
0
39
0
210
0
220
0
230
1
0
LINE
5
AA
100
AcDbEntity
8
1
62
256
6
ByLayer
370
18
48
1
60
0
100
AcDbLine
10
567.65725
20
-8.107526
30
0
11
567.65725
21
-8.253645
31
0
39
0
210
0
220
0
230
1
0
LINE
5
AB
100
AcDbEntity
8
1
62
256
6
ByLayer
370
18
48
1
60
0
100
AcDbLine
10
568.325
20
27.688213
30
0
11
568.325
21
27.204477
31
0
39
0
210
0
220
0
230
1
0
LINE
5
AC
100
AcDbEntity
8
1
62
256
6
ByLayer
370
18
48
1
60
0
100
AcDbLine
10
568.325
20
-7.204477
30
0
11
568.325
21
-7.688213
31
0
39
0
210
0
220
0
230
1
0
LINE
5
AD
100
AcDbEntity
8
1
62
256
6
ByLayer
370
18
48
1
60
0
100
AcDbLine
10
567.65725
20
28.786012
30
0
11
567.65725
21
28.672541
31
0
39
0
210
0
220
0
230
1
0
LINE
5
AE
100
AcDbEntity
8
1
62
256
6
ByLayer
370
18
48
1
60
0
100
AcDbLine
10
567.65725
20
-8.672541
30
0
11
567.65725
21
-8.786012
31
0
39
0
210
0
220
0
230
1
0
LINE
5
AF
100
AcDbEntity
8
1
62
256
6
ByLayer
370
18
48
1
60
0
100
AcDbLine
10
568.325
20
28.205356
30
0
11
568.325
21
27.830645
31
0
39
0
210
0
220
0
230
1
0
LINE
5
B0
100
AcDbEntity
8
1
62
256
6
ByLayer
370
18
48
1
60
0
100
AcDbLine
10
568.325
20
-7.830645
30
0
11
568.325
21
-8.205356
31
0
39
0
210
0
220
0
230
1
0
LINE
5
B1
100
AcDbEntity
8
1
62
256
6
ByLayer
370
18
48
1
60
0
100
AcDbLine
10
567.65725
20
29.186791
30
0
11
567.65725
21
29.103536
31
0
39
0
210
0
220
0
230
1
0
LINE
5
B2
100
AcDbEntity
8
1
62
256
6
ByLayer
370
18
48
1
60
0
100
AcDbLine
10
567.65725
20
-9.103536
30
0
11
567.65725
21
-9.186791
31
0
39
0
210
0
220
0
230
1
0
LINE
5
B3
100
AcDbEntity
8
1
62
256
6
ByLayer
370
18
48
1
60
0
100
AcDbLine
10
568.325
20
28.587552
30
0
11
568.325
21
28.313105
31
0
39
0
210
0
220
0
230
1
0
LINE
5
B4
100
AcDbEntity
8
1
62
256
6
ByLayer
370
18
48
1
60
0
100
AcDbLine
10
568.325
20
-8.313105
30
0
11
568.325
21
-8.587552
31
0
39
0
210
0
220
0
230
1
0
LINE
5
B5
100
AcDbEntity
8
1
62
256
6
ByLayer
370
18
48
1
60
0
100
AcDbLine
10
567.65725
20
-9.409441
30
0
11
567.65725
21
-9.464112
31
0
39
0
210
0
220
0
230
1
0
LINE
5
B6
100
AcDbEntity
8
1
62
256
6
ByLayer
370
18
48
1
60
0
100
AcDbLine
10
567.65725
20
29.464112
30
0
11
567.65725
21
29.409441
31
0
39
0
210
0
220
0
230
1
0
LINE
5
B7
100
AcDbEntity
8
1
62
256
6
ByLayer
370
18
48
1
60
0
100
AcDbLine
10
568.325
20
28.843015
30
0
11
568.325
21
28.663003
31
0
39
0
210
0
220
0
230
1
0
LINE
5
B8
100
AcDbEntity
8
1
62
256
6
ByLayer
370
18
48
1
60
0
100
AcDbLine
10
568.325
20
-8.663003
30
0
11
568.325
21
-8.843015
31
0
39
0
210
0
220
0
230
1
0
LINE
5
B9
100
AcDbEntity
8
1
62
256
6
ByLayer
370
18
48
1
60
0
100
AcDbLine
10
567.65725
20
-9.596115
30
0
11
567.65725
21
-9.623209
31
0
39
0
210
0
220
0
230
1
0
LINE
5
BA
100
AcDbEntity
8
1
62
256
6
ByLayer
370
18
48
1
60
0
100
AcDbLine
10
567.65725
20
29.623209
30
0
11
567.65725
21
29.596115
31
0
39
0
210
0
220
0
230
1
0
LINE
5
BB
100
AcDbEntity
8
1
62
256
6
ByLayer
370
18
48
1
60
0
100
AcDbLine
10
568.325
20
28.976863
30
0
11
568.325
21
28.887709
31
0
39
0
210
0
220
0
230
1
0
LINE
5
BC
100
AcDbEntity
8
1
62
256
6
ByLayer
370
18
48
1
60
0
100
AcDbLine
10
568.325
20
-8.887709
30
0
11
568.325
21
-8.976863
31
0
39
0
210
0
220
0
230
1
0
LINE
5
BD
100
AcDbEntity
8
SK1
62
256
6
ByLayer
370
18
48
1
60
0
100
AcDbLine
10
577
20
24.899495
30
0
11
577
21
19.899495
31
0
39
0
210
0
220
0
230
1
0
LINE
5
BE
100
AcDbEntity
8
SK1
62
256
6
ByLayer
370
18
48
1
60
0
100
AcDbLine
10
571
20
24.899495
30
0
11
571
21
19.899495
31
0
39
0
210
0
220
0
230
1
0
LINE
5
BF
100
AcDbEntity
8
SK1
62
256
6
ByLayer
370
18
48
1
60
0
100
AcDbLine
10
577
20
19.899495
30
0
11
577
21
14.899495
31
0
39
0
210
0
220
0
230
1
0
LINE
5
C0
100
AcDbEntity
8
SK1
62
256
6
ByLayer
370
18
48
1
60
0
100
AcDbLine
10
571
20
19.899495
30
0
11
571
21
14.899495
31
0
39
0
210
0
220
0
230
1
0
LINE
5
C1
100
AcDbEntity
8
SK1
62
256
6
ByLayer
370
18
48
1
60
0
100
AcDbLine
10
577
20
5.100505
30
0
11
577
21
0.100505
31
0
39
0
210
0
220
0
230
1
0
LINE
5
C2
100
AcDbEntity
8
SK1
62
256
6
ByLayer
370
18
48
1
60
0
100
AcDbLine
10
571
20
5.100505
30
0
11
571
21
0.100505
31
0
39
0
210
0
220
0
230
1
0
LINE
5
C3
100
AcDbEntity
8
SK1
62
256
6
ByLayer
370
18
48
1
60
0
100
AcDbLine
10
577
20
0.100505
30
0
11
577
21
-4.899495
31
0
39
0
210
0
220
0
230
1
0
LINE
5
C4
100
AcDbEntity
8
SK1
62
256
6
ByLayer
370
18
48
1
60
0
100
AcDbLine
10
571
20
0.100505
30
0
11
571
21
-4.899495
31
0
39
0
210
0
220
0
230
1
0
LINE
5
C5
100
AcDbEntity
8
SK1
62
256
6
ByLayer
370
18
48
1
60
0
100
AcDbLine
10
-240
20
27.5
30
0
11
-240
21
-27.5
31
0
39
0
210
0
220
0
230
1
0
LINE
5
C6
100
AcDbEntity
8
SK1
62
256
6
ByLayer
370
18
48
1
60
0
100
AcDbLine
10
-237.5
20
30
30
0
11
-237.5
21
-30
31
0
39
0
210
0
220
0
230
1
0
LINE
5
C7
100
AcDbEntity
8
1
62
256
6
ByLayer
370
18
48
1
60
0
100
AcDbLine
10
563.6
20
-30
30
0
11
563.6
21
0
31
0
39
0
210
0
220
0
230
1
0
LINE
5
C8
100
AcDbEntity
8
1
62
256
6
ByLayer
370
18
48
1
60
0
100
AcDbLine
10
564
20
29.6
30
0
11
564
21
0
31
0
39
0
210
0
220
0
230
1
0
LINE
5
C9
100
AcDbEntity
8
1
62
256
6
ByLayer
370
18
48
1
60
0
100
AcDbLine
10
564
20
0
30
0
11
564
21
-29.6
31
0
39
0
210
0
220
0
230
1
0
LINE
5
CA
100
AcDbEntity
8
1
62
256
6
ByLayer
370
18
48
1
60
0
100
AcDbLine
10
563.6
20
0
30
0
11
563.6
21
30
31
0
39
0
210
0
220
0
230
1
0
LINE
5
CB
100
AcDbEntity
8
1
62
256
6
ByLayer
370
18
48
1
60
0
100
AcDbLine
10
565.5
20
-30
30
0
11
565.5
21
26.911017
31
0
39
0
210
0
220
0
230
1
0
LINE
5
CC
100
AcDbEntity
8
1
62
256
6
ByLayer
370
18
48
1
60
0
100
AcDbLine
10
566
20
26.4625
30
0
11
566
21
-29.5
31
0
39
0
210
0
220
0
230
1
0
LINE
5
CD
100
AcDbEntity
8
1
62
256
6
ByLayer
370
18
48
1
60
0
100
AcDbLine
10
564.4
20
30
30
0
11
564.4
21
-30
31
0
39
0
210
0
220
0
230
1
0
LINE
5
CE
100
AcDbEntity
8
1
62
256
6
ByLayer
370
18
48
1
60
0
100
AcDbLine
10
564
20
-29.6
30
0
11
564
21
0
31
0
39
0
210
0
220
0
230
1
0
LINE
5
CF
100
AcDbEntity
8
1
62
256
6
ByLayer
370
18
48
1
60
0
100
AcDbLine
10
564
20
0
30
0
11
564
21
29.6
31
0
39
0
210
0
220
0
230
1
0
LINE
5
D0
100
AcDbEntity
8
1
62
256
6
ByLayer
370
18
48
1
60
0
100
AcDbLine
10
567
20
27.095238
30
0
11
567
21
-10
31
0
39
0
210
0
220
0
230
1
0
LINE
5
D1
100
AcDbEntity
8
1
62
256
6
ByLayer
370
18
48
1
60
0
100
AcDbLine
10
567.325
20
-10
30
0
11
567.325
21
10
31
0
39
0
210
0
220
0
230
1
0
LINE
5
D2
100
AcDbEntity
8
1
62
256
6
ByLayer
370
18
48
1
60
0
100
AcDbLine
10
567.325
20
10
30
0
11
567.325
21
30
31
0
39
0
210
0
220
0
230
1
0
LINE
5
D3
100
AcDbEntity
8
1
62
256
6
ByLayer
370
18
48
1
60
0
100
AcDbLine
10
568.325
20
28.976863
30
0
11
568.325
21
28.991668
31
0
39
0
210
0
220
0
230
1
0
LINE
5
D4
100
AcDbEntity
8
1
62
256
6
ByLayer
370
18
48
1
60
0
100
AcDbLine
10
568.325
20
28.843015
30
0
11
568.325
21
28.887709
31
0
39
0
210
0
220
0
230
1
0
LINE
5
D5
100
AcDbEntity
8
1
62
256
6
ByLayer
370
18
48
1
60
0
100
AcDbLine
10
568.325
20
28.587552
30
0
11
568.325
21
28.663003
31
0
39
0
210
0
220
0
230
1
0
LINE
5
D6
100
AcDbEntity
8
1
62
256
6
ByLayer
370
18
48
1
60
0
100
AcDbLine
10
568.325
20
28.205356
30
0
11
568.325
21
28.313105
31
0
39
0
210
0
220
0
230
1
0
LINE
5
D7
100
AcDbEntity
8
1
62
256
6
ByLayer
370
18
48
1
60
0
100
AcDbLine
10
568.325
20
27.688213
30
0
11
568.325
21
27.830645
31
0
39
0
210
0
220
0
230
1
0
LINE
5
D8
100
AcDbEntity
8
1
62
256
6
ByLayer
370
18
48
1
60
0
100
AcDbLine
10
568.325
20
27.023829
30
0
11
568.325
21
27.204477
31
0
39
0
210
0
220
0
230
1
0
LINE
5
D9
100
AcDbEntity
8
1
62
256
6
ByLayer
370
18
48
1
60
0
100
AcDbLine
10
568.325
20
26.194093
30
0
11
568.325
21
26.418165
31
0
39
0
210
0
220
0
230
1
0
LINE
5
DA
100
AcDbEntity
8
1
62
256
6
ByLayer
370
18
48
1
60
0
100
AcDbLine
10
568.325
20
25.171899
30
0
11
568.325
21
25.447274
31
0
39
0
210
0
220
0
230
1
0
LINE
5
DB
100
AcDbEntity
8
1
62
256
6
ByLayer
370
18
48
1
60
0
100
AcDbLine
10
568.325
20
23.914899
30
0
11
568.325
21
24.254136
31
0
39
0
210
0
220
0
230
1
0
LINE
5
DC
100
AcDbEntity
8
1
62
256
6
ByLayer
370
18
48
1
60
0
100
AcDbLine
10
568.325
20
22.351611
30
0
11
568.325
21
22.776639
31
0
39
0
210
0
220
0
230
1
0
LINE
5
DD
100
AcDbEntity
8
1
62
256
6
ByLayer
370
18
48
1
60
0
100
AcDbLine
10
568.325
20
20.344089
30
0
11
568.325
21
20.899753
31
0
39
0
210
0
220
0
230
1
0
LINE
5
DE
100
AcDbEntity
8
1
62
256
6
ByLayer
370
18
48
1
60
0
100
AcDbLine
10
568.325
20
17.545731
30
0
11
568.325
21
18.358632
31
0
39
0
210
0
220
0
230
1
0
LINE
5
DF
100
AcDbEntity
8
1
62
256
6
ByLayer
370
18
48
1
60
0
100
AcDbLine
10
568.325
20
11.541407
30
0
11
568.325
21
14.053252
31
0
39
0
210
0
220
0
230
1
0
LINE
5
E0
100
AcDbEntity
8
1
62
256
6
ByLayer
370
18
48
1
60
0
100
AcDbLine
10
568.325
20
5.946748
30
0
11
568.325
21
8.458593
31
0
39
0
210
0
220
0
230
1
0
LINE
5
E1
100
AcDbEntity
8
1
62
256
6
ByLayer
370
18
48
1
60
0
100
AcDbLine
10
568.325
20
1.641368
30
0
11
568.325
21
2.454269
31
0
39
0
210
0
220
0
230
1
0
LINE
5
E2
100
AcDbEntity
8
1
62
256
6
ByLayer
370
18
48
1
60
0
100
AcDbLine
10
568.325
20
-0.899753
30
0
11
568.325
21
-0.344089
31
0
39
0
210
0
220
0
230
1
0
LINE
5
E3
100
AcDbEntity
8
1
62
256
6
ByLayer
370
18
48
1
60
0
100
AcDbLine
10
568.325
20
-2.776639
30
0
11
568.325
21
-2.351611
31
0
39
0
210
0
220
0
230
1
0
LINE
5
E4
100
AcDbEntity
8
1
62
256
6
ByLayer
370
18
48
1
60
0
100
AcDbLine
10
568.325
20
-4.254136
30
0
11
568.325
21
-3.914899
31
0
39
0
210
0
220
0
230
1
0
LINE
5
E5
100
AcDbEntity
8
1
62
256
6
ByLayer
370
18
48
1
60
0
100
AcDbLine
10
568.325
20
-5.447274
30
0
11
568.325
21
-5.171899
31
0
39
0
210
0
220
0
230
1
0
LINE
5
E6
100
AcDbEntity
8
1
62
256
6
ByLayer
370
18
48
1
60
0
100
AcDbLine
10
568.325
20
-6.418165
30
0
11
568.325
21
-6.194093
31
0
39
0
210
0
220
0
230
1
0
LINE
5
E7
100
AcDbEntity
8
1
62
256
6
ByLayer
370
18
48
1
60
0
100
AcDbLine
10
568.325
20
-7.204477
30
0
11
568.325
21
-7.023829
31
0
39
0
210
0
220
0
230
1
0
LINE
5
E8
100
AcDbEntity
8
1
62
256
6
ByLayer
370
18
48
1
60
0
100
AcDbLine
10
568.325
20
-7.830645
30
0
11
568.325
21
-7.688213
31
0
39
0
210
0
220
0
230
1
0
LINE
5
E9
100
AcDbEntity
8
1
62
256
6
ByLayer
370
18
48
1
60
0
100
AcDbLine
10
568.325
20
-8.313105
30
0
11
568.325
21
-8.205356
31
0
39
0
210
0
220
0
230
1
0
LINE
5
EA
100
AcDbEntity
8
1
62
256
6
ByLayer
370
18
48
1
60
0
100
AcDbLine
10
568.325
20
-8.663003
30
0
11
568.325
21
-8.587552
31
0
39
0
210
0
220
0
230
1
0
LINE
5
EB
100
AcDbEntity
8
1
62
256
6
ByLayer
370
18
48
1
60
0
100
AcDbLine
10
568.325
20
-8.887709
30
0
11
568.325
21
-8.843015
31
0
39
0
210
0
220
0
230
1
0
LINE
5
EC
100
AcDbEntity
8
1
62
256
6
ByLayer
370
18
48
1
60
0
100
AcDbLine
10
568.325
20
-8.991668
30
0
11
568.325
21
-8.976863
31
0
39
0
210
0
220
0
230
1
0
LINE
5
ED
100
AcDbEntity
8
SK1
62
256
6
ByLayer
370
18
48
1
60
0
100
AcDbLine
10
0
20
30
30
0
11
-237.5
21
30
31
0
39
0
210
0
220
0
230
1
0
LINE
5
EE
100
AcDbEntity
8
1
62
256
6
ByLayer
370
18
48
1
60
0
100
AcDbLine
10
0
20
-30
30
0
11
563.6
21
-30
31
0
39
0
210
0
220
0
230
1
0
MTEXT
5
168
100
AcDbEntity
8
SK6
62
256
6
ByLayer
370
13
48
1
60
0
100
AcDbMText
10
4.244063
20
63.526532
30
0
210
0
220
0
230
1
1
\W0.7254;570-3C 60 808-40
40
3.175
41
0
44
1.084337
50
0
71
7
72
5
7
iso_b_vert
0
DIMENSION
5
176
100
AcDbEntity
8
2
62
256
6
ByLayer
370
13
48
1
60
0
100
AcDbDimension
2
DimnDraft3D1
10
568
20
42.879674
30
0
11
280.916908
21
42.879674
31
0
70
32
71
5
72
1
41
1
210
0
220
0
230
1
3
Standard
100
AcDbAlignedDimension
13
0
23
1.5875
33
0
14
568
24
11.5875
34
0
50
0
100
AcDbRotatedDimension
1001
ACAD
1000
DSTYLE
1002
{
1070
   279
1070
     0
1070
   173
1070
     1
1070
   340
1005
169
1070
   271
1070
     1
1070
   272
1070
     2
1070
    77
1070
     1
1070
    73
1070
     0
1070
   171
1070
     3
1070
   274
1070
     4
1070
   177
1070
     7
1070
   176
1070
     7
1070
   178
1070
     7
1070
    78
1070
     8
1070
    48
1040
-0.005
1070
    41
1041
3.175
1070
   147
1041
1.5875
1070
    42
1041
1.5875
1070
    44
1041
3.175
1070
   140
1041
3.175
1070
   343
1005
0
1070
   344
1005
0
1002
}
0
DIMENSION
5
182
100
AcDbEntity
8
SK2
62
256
6
ByLayer
370
13
48
1
60
0
100
AcDbDimension
2
DimnDraft3D2
10
-268.574356
20
-30
30
0
11
-268.574356
21
-6.659145
31
0
70
32
71
5
72
1
41
1
210
0
220
0
230
1
3
Standard
100
AcDbAlignedDimension
13
-239.0875
23
30
33
0
14
-239.0875
24
-30
34
0
50
90
100
AcDbRotatedDimension
1001
ACAD
1000
DSTYLE
1002
{
1070
    74
1070
     0
1070
   279
1070
     0
1070
   173
1070
     1
1070
   340
1005
169
1070
   271
1070
     1
1070
   272
1070
     2
1070
    77
1070
     1
1070
    73
1070
     0
1070
   171
1070
     3
1070
   274
1070
     4
1070
   177
1070
     7
1070
   176
1070
     7
1070
   178
1070
     7
1070
    78
1070
     8
1070
    48
1040
-0.005
1070
    41
1041
3.175
1070
   147
1041
1.5875
1070
    42
1041
1.5875
1070
    44
1041
3.175
1070
   140
1041
3.175
1070
   343
1005
0
1070
   344
1005
0
1002
}
0
DIMENSION
5
18C
100
AcDbEntity
8
SK2
62
256
6
ByLayer
370
13
48
1
60
0
100
AcDbDimension
2
DimnDraft3D3
10
568
20
55.341356
30
0
11
160.916908
21
55.341356
31
0
70
32
71
5
72
1
41
1
210
0
220
0
230
1
3
Standard
100
AcDbAlignedDimension
13
-240
23
29.0875
33
0
14
568
24
11.5875
34
0
50
0
100
AcDbRotatedDimension
1001
ACAD
1000
DSTYLE
1002
{
1070
   279
1070
     0
1070
   173
1070
     1
1070
   340
1005
169
1070
   271
1070
     1
1070
   272
1070
     2
1070
    77
1070
     1
1070
    73
1070
     0
1070
   171
1070
     3
1070
   274
1070
     4
1070
   177
1070
     7
1070
   176
1070
     7
1070
   178
1070
     7
1070
    78
1070
     8
1070
    48
1040
-0.005
1070
    41
1041
3.175
1070
   147
1041
1.5875
1070
    42
1041
1.5875
1070
    44
1041
3.175
1070
   140
1041
3.175
1070
   343
1005
0
1070
   344
1005
0
1002
}
0
DIMENSION
5
1A1
100
AcDbEntity
8
SK2
62
256
6
ByLayer
370
13
48
1
60
0
100
AcDbDimension
2
DimnDraft3D5
10
604.452635
20
30
30
0
11
604.452635
21
40.353813
31
0
70
32
71
5
72
1
41
1
210
0
220
0
230
1
3
Standard
100
AcDbAlignedDimension
13
568.9125
23
-10
33
0
14
568.9125
24
30
34
0
50
90
100
AcDbRotatedDimension
1001
ACAD
1000
DSTYLE
1002
{
1070
    74
1070
     0
1070
   279
1070
     0
1070
   173
1070
     1
1070
   340
1005
169
1070
   271
1070
     1
1070
   272
1070
     2
1070
    77
1070
     1
1070
    73
1070
     0
1070
   171
1070
     3
1070
   274
1070
     4
1070
   177
1070
     7
1070
   176
1070
     7
1070
   178
1070
     7
1070
    78
1070
     8
1070
    48
1040
-0.005
1070
    41
1041
3.175
1070
   147
1041
1.5875
1070
    42
1041
1.5875
1070
    44
1041
3.175
1070
   140
1041
3.175
1070
   343
1005
0
1070
   344
1005
0
1002
}
0
ENDSEC
0
SECTION
2
OBJECTS
0
DICTIONARY
5
20c
330
0
100
AcDbDictionary
280
0
281
1
3
ACAD_GROUP
350
20d
3
ACAD_MLINESTYLE
350
20e
0
DICTIONARY
5
20d
330
0
100
AcDbDictionary
280
0
281
1
0
DICTIONARY
5
20e
330
0
100
AcDbDictionary
280
0
281
1
3
Standard
350
18
0
MLINESTYLE
5
18
330
20e
100
AcDbMlineStyle
2
Standard
70
0
3

62
256
51
90
52
90
71
2
49
-0.5
62
256
6
ByLayer
49
0.5
62
256
6
ByLayer
0
RASTERVARIABLES
5
1fa
330

100
AcDbRasterVariables
90
0
70
1
71
1
72
1
0
ENDSEC
0
EOF
