0
SECTION
2
HEADER
9
$ACADVER
1
AC1015
9
$DWGCODEPAGE
3
ANSI_1252
9
$HANDSEED
5
1f3
9
$ANGBASE
50
0
9
$ANGDIR
70
0
9
$ATTMODE
70
1
9
$AUNITS
70
0
9
$AUPREC
70
0
9
$CECOLOR
62
256
9
$CELTSCALE
40
1
9
$CELTYPE
6
ByLayer
9
$CELWEIGHT
370
18
9
$CLAYER
8
0
9
$CMLJUST
70
0
9
$CMLSCALE
40
1
9
$CMLSTYLE
2
Standard
9
$DIMSTYLE
2
Standard
9
$TEXTSIZE
40
0.2
9
$TEXTSTYLE
7
Standard
9
$LUNITS
70
2
9
$LUPREC
70
4
9
$EXTNAMES
290
1
9
$INSUNITS
70
4
9
$LTSCALE
40
1
9
$LWDISPLAY
290
1
9
$PDMODE
70
0
9
$PDSIZE
40
0
9
$PLINEGEN
70
0
0
ENDSEC
0
SECTION
2
CLASSES
0
CLASS
1
RASTERVARIABLES
2
AcDbRasterVariables
3
ISM
90
0
280
0
281
0
0
ENDSEC
0
SECTION
2
TABLES
0
TABLE
2
VPORT
5
1e9
100
AcDbSymbolTable
0
VPORT
5
1
100
AcDbSymbolTableRecord
100
AcDbViewportTableRecord
2
*Active
70
0
10
0
20
0
11
1
21
1
12
-1
22
1
13
0
23
0
14
0.5
24
0.5
15
10
25
10
16
0
26
0
36
1
17
0
27
0
37
0
0
ENDTAB
0
TABLE
2
LTYPE
5
1ea
100
AcDbSymbolTable
0
LTYPE
5
14
100
AcDbSymbolTableRecord
100
AcDbLinetypeTableRecord
70
0
2
ByBlock
3

72
65
73
0
40
0
0
LTYPE
5
15
100
AcDbSymbolTableRecord
100
AcDbLinetypeTableRecord
70
0
2
ByLayer
3

72
65
73
0
40
0
0
LTYPE
5
16
100
AcDbSymbolTableRecord
100
AcDbLinetypeTableRecord
70
0
2
CONTINUOUS
3
Solid line
72
65
73
0
40
0
0
LTYPE
5
6A
100
AcDbSymbolTableRecord
100
AcDbLinetypeTableRecord
70
0
2
CENTER
3
____ _ ____ _ ____ _ ____
72
65
73
4
40
47.5
49
22
74
0
49
-8.5
74
0
49
8.5
74
0
49
-8.5
74
0
0
LTYPE
5
6B
100
AcDbSymbolTableRecord
100
AcDbLinetypeTableRecord
70
0
2
DASHED
3
__ __ __ __ __ __ __ __ __
72
65
73
2
40
25.72
49
12.86
74
0
49
-12.86
74
0
0
ENDTAB
0
TABLE
2
LAYER
5
1eb
100
AcDbSymbolTable
0
LAYER
5
10
100
AcDbSymbolTableRecord
100
AcDbLayerTableRecord
2
0
70
0
62
7
6
CONTINUOUS
290
1
370
-3
390
0
0
LAYER
5
6D
100
AcDbSymbolTableRecord
100
AcDbLayerTableRecord
2
80
70
0
62
-6
6
CONTINUOUS
290
1
370
-3
390
0
0
LAYER
5
6F
100
AcDbSymbolTableRecord
100
AcDbLayerTableRecord
2
81
70
0
62
-3
6
CONTINUOUS
290
1
370
-3
390
0
0
LAYER
5
72
100
AcDbSymbolTableRecord
100
AcDbLayerTableRecord
2
4
70
0
62
-2
6
CENTER
290
1
370
-3
390
0
0
LAYER
5
7C
100
AcDbSymbolTableRecord
100
AcDbLayerTableRecord
2
1
70
0
62
4
6
CONTINUOUS
290
1
370
-3
390
0
0
LAYER
5
15D
100
AcDbSymbolTableRecord
100
AcDbLayerTableRecord
2
2
70
0
62
7
6
CONTINUOUS
290
1
370
-3
390
0
0
LAYER
5
1d5
100
AcDbSymbolTableRecord
100
AcDbLayerTableRecord
2
SK4
70
0
62
2
6
CENTER
290
1
370
-3
390
0
0
LAYER
5
1d6
100
AcDbSymbolTableRecord
100
AcDbLayerTableRecord
2
SK1
70
0
62
4
6
CONTINUOUS
290
1
370
-3
390
0
0
LAYER
5
1d7
100
AcDbSymbolTableRecord
100
AcDbLayerTableRecord
2
SK6
70
0
62
5
6
CONTINUOUS
290
1
370
-3
390
0
0
LAYER
5
1d8
100
AcDbSymbolTableRecord
100
AcDbLayerTableRecord
2
SK2
70
0
62
7
6
CONTINUOUS
290
1
370
-3
390
0
0
ENDTAB
0
TABLE
2
STYLE
5
1ec
100
AcDbSymbolTable
0
STYLE
5
11
100
AcDbSymbolTableRecord
100
AcDbTextStyleTableRecord
2
Standard
3
txt
70
0
71
0
40
0
41
1
42
0
50
0
0
STYLE
5
158
100
AcDbSymbolTableRecord
100
AcDbTextStyleTableRecord
2
iso_b_vert
3
simplex.shx
70
0
71
0
40
0
41
1
42
0
50
0
0
STYLE
5
159
100
AcDbSymbolTableRecord
100
AcDbTextStyleTableRecord
2
DWGDirectTextStyle
3
simplex
70
0
71
0
40
0
41
1
42
0
50
0
0
ENDTAB
0
TABLE
2
DIMSTYLE
5
1ed
100
AcDbSymbolTable
100
AcDbDimStyleTable
0
DIMSTYLE
105
27
100
AcDbSymbolTableRecord
100
AcDbDimStyleTableRecord
2
Standard
70
0
3
<>
41
0.18
42
0.0625
44
0.18
140
0.18
147
0.09
73
0
74
0
77
1
271
2
275
0
278
52
280
0
340
11
0
ENDTAB
0
TABLE
2
VIEW
5
1ee
100
AcDbSymbolTable
0
ENDTAB
0
TABLE
2
UCS
5
1ef
100
AcDbSymbolTable
0
ENDTAB
0
TABLE
2
APPID
5
1f0
100
AcDbSymbolTable
0
APPID
5
12
100
AcDbSymbolTableRecord
100
AcDbRegAppTableRecord
2
ACAD
70
0
0
ENDTAB
0
TABLE
2
BLOCK_RECORD
5
1f1
100
AcDbSymbolTable
0
BLOCK_RECORD
5
1F
100
AcDbSymbolTableRecord
100
AcDbBlockTableRecord
2
*Model_Space
340
0
70
0
0
BLOCK_RECORD
5
1B
100
AcDbSymbolTableRecord
100
AcDbBlockTableRecord
2
*Paper_Space
340
0
70
0
0
BLOCK_RECORD
5
23
100
AcDbSymbolTableRecord
100
AcDbBlockTableRecord
2
*Paper_Space0
340
0
70
0
0
BLOCK_RECORD
5
15B
100
AcDbSymbolTableRecord
100
AcDbBlockTableRecord
2
DimnDraft3D1
340
0
70
0
0
BLOCK_RECORD
5
166
100
AcDbSymbolTableRecord
100
AcDbBlockTableRecord
2
DimnDraft3D22
340
0
70
0
0
BLOCK_RECORD
5
171
100
AcDbSymbolTableRecord
100
AcDbBlockTableRecord
2
DimnDraft3D3
340
0
70
0
0
ENDTAB
0
ENDSEC
0
SECTION
2
BLOCKS
0
BLOCK
5
20
100
AcDbEntity
8
0
100
AcDbBlockBegin
2
*Model_Space
70
0
10
0
20
0
30
0
3
*Model_Space
0
ENDBLK
5
21
100
AcDbEntity
8
0
100
AcDbBlockEnd
0
BLOCK
5
1C
100
AcDbEntity
8
0
100
AcDbBlockBegin
2
*Paper_Space
70
0
10
0
20
0
30
0
3
*Paper_Space
0
ENDBLK
5
1D
100
AcDbEntity
8
0
100
AcDbBlockEnd
0
BLOCK
5
24
100
AcDbEntity
8
0
100
AcDbBlockBegin
2
*Paper_Space0
70
0
10
0
20
0
30
0
3
*Paper_Space0
0
ENDBLK
5
25
100
AcDbEntity
8
0
100
AcDbBlockEnd
0
BLOCK
5
163
100
AcDbEntity
8
0
100
AcDbBlockBegin
2
DimnDraft3D1
70
0
10
0
20
0
30
0
3
DimnDraft3D1
0
MTEXT
5
15C
100
AcDbEntity
8
2
62
256
6
ByLayer
370
13
48
1
60
0
100
AcDbMText
10
181.710658
20
31.962899
30
0
210
0
220
0
230
1
1
\W0.7138;368
40
3.175
41
0
44
1.084337
50
0
71
7
72
5
7
iso_b_vert
0
LINE
5
15E
100
AcDbEntity
8
2
62
256
6
ByLayer
370
13
48
1
60
0
100
AcDbLine
10
0
20
1.5875
30
0
11
0
21
34.344149
31
0
39
0
210
0
220
0
230
1
0
LINE
5
15F
100
AcDbEntity
8
2
62
256
6
ByLayer
370
13
48
1
60
0
100
AcDbLine
10
368
20
1.5875
30
0
11
368
21
34.344149
31
0
39
0
210
0
220
0
230
1
0
LINE
5
160
100
AcDbEntity
8
2
62
256
6
ByLayer
370
13
48
1
60
0
100
AcDbLine
10
0
20
31.169149
30
0
11
368
21
31.169149
31
0
39
0
210
0
220
0
230
1
0
SOLID
5
161
100
AcDbEntity
8
2
62
256
6
ByLayer
370
13
48
1
60
0
100
AcDbTrace
10
0
20
31.169149
30
0
11
3.174998
21
31.587146
31
0
12
3.175002
22
30.751152
32
0
13
0
23
31.169149
33
0
39
0
210
0
220
0
230
1
0
SOLID
5
162
100
AcDbEntity
8
2
62
256
6
ByLayer
370
13
48
1
60
0
100
AcDbTrace
10
368
20
31.169149
30
0
11
364.825002
21
30.751152
31
0
12
364.824998
22
31.587146
32
0
13
368
23
31.169149
33
0
39
0
210
0
220
0
230
1
0
ENDBLK
5
164
100
AcDbEntity
8
0
100
AcDbBlockEnd
0
BLOCK
5
167
100
AcDbEntity
8
0
100
AcDbBlockBegin
2
DimnDraft3D22
70
0
10
0
20
0
30
0
3
DimnDraft3D22
0
LINE
5
169
100
AcDbEntity
8
SK2
62
256
6
ByLayer
370
25
48
1
60
0
100
AcDbLine
10
368
20
1.5875
30
0
11
368
21
47.807657
31
0
39
0
210
0
220
0
230
1
0
LINE
5
16B
100
AcDbEntity
8
SK2
62
256
6
ByLayer
370
25
48
1
60
0
100
AcDbLine
10
-160
20
20.5875
30
0
11
-160
21
47.807657
31
0
39
0
210
0
220
0
230
1
0
LINE
5
16C
100
AcDbEntity
8
SK2
62
256
6
ByLayer
370
25
48
1
60
0
100
AcDbLine
10
368
20
44.632657
30
0
11
-160
21
44.632657
31
0
39
0
210
0
220
0
230
1
0
SOLID
5
16D
100
AcDbEntity
8
SK2
62
256
6
ByLayer
370
25
48
1
60
0
100
AcDbTrace
10
368
20
44.632657
30
0
11
364.825002
21
44.214661
31
0
12
364.824998
22
45.050654
32
0
13
368
23
44.632657
33
0
39
0
210
0
220
0
230
1
0
SOLID
5
16E
100
AcDbEntity
8
SK2
62
256
6
ByLayer
370
25
48
1
60
0
100
AcDbTrace
10
-160
20
44.632657
30
0
11
-156.825002
21
45.050654
31
0
12
-156.824998
22
44.214661
32
0
13
-160
23
44.632657
33
0
39
0
210
0
220
0
230
1
0
MTEXT
5
16F
100
AcDbEntity
8
SK2
62
256
6
ByLayer
370
13
48
1
60
0
100
AcDbMText
10
101.710658
20
45.426407
30
0
210
0
220
0
230
1
1
\W0.7138;528
40
3.175
41
0
44
1.084337
50
0
71
7
72
5
7
iso_b_vert
0
ENDBLK
5
168
100
AcDbEntity
8
0
100
AcDbBlockEnd
0
BLOCK
5
179
100
AcDbEntity
8
0
100
AcDbBlockBegin
2
DimnDraft3D3
70
0
10
0
20
0
30
0
3
DimnDraft3D3
0
MTEXT
5
172
100
AcDbEntity
8
SK2
62
256
6
ByLayer
370
13
48
1
60
0
100
AcDbMText
10
-175.07239
20
-4.420195
30
0
210
0
220
0
230
1
1
%%c
40
3.175
41
0
44
1.084337
50
90
71
7
72
5
7
iso_b_vert
0
MTEXT
5
173
100
AcDbEntity
8
SK2
62
256
6
ByLayer
370
13
48
1
60
0
100
AcDbMText
10
-175.07239
20
3.4925
30
0
210
0
220
0
230
1
1
\W0.7361;40
40
3.175
41
0
44
1.084337
50
90
71
7
72
5
7
iso_b_vert
0
LINE
5
174
100
AcDbEntity
8
SK2
62
256
6
ByLayer
370
13
48
1
60
0
100
AcDbLine
10
-160.5875
20
20
30
0
11
-176.65989
21
20
31
0
39
0
210
0
220
0
230
1
0
LINE
5
175
100
AcDbEntity
8
SK2
62
256
6
ByLayer
370
13
48
1
60
0
100
AcDbLine
10
-160.5875
20
-20
30
0
11
-176.65989
21
-20
31
0
39
0
210
0
220
0
230
1
0
LINE
5
176
100
AcDbEntity
8
SK2
62
256
6
ByLayer
370
13
48
1
60
0
100
AcDbLine
10
-173.48489
20
20
30
0
11
-173.48489
21
-20
31
0
39
0
210
0
220
0
230
1
0
SOLID
5
177
100
AcDbEntity
8
SK2
62
256
6
ByLayer
370
13
48
1
60
0
100
AcDbTrace
10
-173.48489
20
20
30
0
11
-173.066893
21
16.825002
31
0
12
-173.902887
22
16.824998
32
0
13
-173.48489
23
20
33
0
39
0
210
0
220
0
230
1
0
SOLID
5
178
100
AcDbEntity
8
SK2
62
256
6
ByLayer
370
13
48
1
60
0
100
AcDbTrace
10
-173.48489
20
-20
30
0
11
-173.902887
21
-16.825002
31
0
12
-173.066893
22
-16.824998
32
0
13
-173.48489
23
-20
33
0
39
0
210
0
220
0
230
1
0
ENDBLK
5
17A
100
AcDbEntity
8
0
100
AcDbBlockEnd
0
ENDSEC
0
SECTION
2
ENTITIES
0
ARC
5
E9
100
AcDbEntity
8
1
62
256
6
ByLayer
370
18
48
1
60
0
100
AcDbCircle
39
0
10
366.3
20
-19.7
30
0
40
0.3
210
0
220
0
230
1
100
AcDbArc
50
180
51
270
0
ARC
5
EA
100
AcDbEntity
8
1
62
256
6
ByLayer
370
18
48
1
60
0
100
AcDbCircle
39
0
10
366.3
20
19.7
30
0
40
0.3
210
0
220
0
230
1
100
AcDbArc
50
90
51
180
0
ARC
5
EB
100
AcDbEntity
8
1
62
256
6
ByLayer
370
18
48
1
60
0
100
AcDbCircle
39
0
10
365.7
20
-19.7
30
0
40
0.3
210
0
220
0
230
1
100
AcDbArc
50
270
51
0
0
ARC
5
EC
100
AcDbEntity
8
1
62
256
6
ByLayer
370
18
48
1
60
0
100
AcDbCircle
39
0
10
365.7
20
19.7
30
0
40
0.3
210
0
220
0
230
1
100
AcDbArc
50
0
51
90
0
CIRCLE
5
ED
100
AcDbEntity
8
1
62
256
6
ByLayer
370
18
48
1
60
0
100
AcDbCircle
10
360
20
0
30
0
40
1
39
0
210
0
220
0
230
1
0
POINT
5
6C
100
AcDbEntity
8
80
62
256
6
ByLayer
370
18
48
1
60
0
100
AcDbPoint
10
0
20
0
30
0
39
0
210
0
220
0
230
1
50
360
0
POINT
5
6E
100
AcDbEntity
8
81
62
256
6
ByLayer
370
18
48
1
60
0
100
AcDbPoint
10
368
20
0
30
0
39
0
210
0
220
0
230
1
50
360
0
SPLINE
5
EE
100
AcDbEntity
8
1
62
256
6
ByLayer
370
18
48
1
60
0
100
AcDbSpline
70
4
71
3
72
12
73
8
40
0
40
0
40
0
40
0
40
0.0814684080198002
40
0.282954387161728
40
0.496494800032527
40
0.83175849113273
40
1
40
1
40
1
40
1
41
1
10
367.555
20
-19.77
30
0
41
1
10
367.555015582329
20
-19.7699841495472
30
0
41
1
10
367.556077393944
20
-19.7689115960186
30
0
41
1
10
367.564760637255
20
-19.7601387505968
30
0
41
1
10
367.589381414209
20
-19.7352841727275
30
0
41
1
10
367.622628100026
20
-19.701772156945
30
0
41
1
10
367.648254823464
20
-19.6759963201806
30
0
41
1
10
367.657250000005
20
-19.6669526077322
30
0
0
SPLINE
5
EF
100
AcDbEntity
8
1
62
256
6
ByLayer
370
18
48
1
60
0
100
AcDbSpline
70
4
71
3
72
11
73
7
40
0
40
0
40
0
40
0
40
0.36378772195019
40
0.633109824668584
40
0.856330372739884
40
1
40
1
40
1
40
1
41
1
10
367.65725
20
19.6669526077377
30
0
41
1
10
367.637106503078
20
19.6872119969314
30
0
41
1
10
367.606499723285
20
19.7180158423594
30
0
41
1
10
367.572549591026
20
19.7522724919801
30
0
41
1
10
367.557491476118
20
19.7674829407209
30
0
41
1
10
367.555088777225
20
19.7699097409187
30
0
41
1
10
367.555
20
19.77
30
0
0
SPLINE
5
F0
100
AcDbEntity
8
1
62
256
6
ByLayer
370
18
48
1
60
0
100
AcDbSpline
70
4
71
1
72
4
73
2
40
0
40
0
40
1
40
1
41
1
10
368.325
20
18.991667907708
30
0
41
1
10
367.65725
20
19.6669526077377
30
0
0
SPLINE
5
F1
100
AcDbEntity
8
1
62
256
6
ByLayer
370
18
48
1
60
0
100
AcDbSpline
70
4
71
1
72
4
73
2
40
0
40
0
40
1
40
1
41
1
10
367.65725
20
19.6232090000648
30
0
41
1
10
368.325
20
18.9768631082337
30
0
0
SPLINE
5
F2
100
AcDbEntity
8
1
62
256
6
ByLayer
370
18
48
1
60
0
100
AcDbSpline
70
4
71
3
72
11
73
7
40
0
40
0
40
0
40
0
40
0.35354489500492
40
0.637649992213695
40
0.866481616419213
40
1
40
1
40
1
40
1
41
1
10
367.65725
20
19.5961148774388
30
0
41
1
10
367.637736231931
20
19.6166212011108
30
0
41
1
10
367.606877005414
20
19.649762420808
30
0
41
1
10
367.572532958045
20
19.6884341492299
30
0
41
1
10
367.557376965567
20
19.7075135390098
30
0
41
1
10
367.555102572038
20
19.7120495720826
30
0
41
1
10
367.555000029089
20
19.7130051391009
30
0
0
SPLINE
5
F3
100
AcDbEntity
8
1
62
256
6
ByLayer
370
18
48
1
60
0
100
AcDbSpline
70
4
71
1
72
4
73
2
40
0
40
0
40
1
40
1
41
1
10
368.325
20
18.8877094006841
30
0
41
1
10
367.65725
20
19.5961148774388
30
0
0
SPLINE
5
F4
100
AcDbEntity
8
1
62
256
6
ByLayer
370
18
48
1
60
0
100
AcDbSpline
70
4
71
1
72
4
73
2
40
0
40
0
40
1
40
1
41
1
10
367.65725
20
19.4641115400998
30
0
41
1
10
368.325
20
18.8430150703283
30
0
0
SPLINE
5
F5
100
AcDbEntity
8
1
62
256
6
ByLayer
370
18
48
1
60
0
100
AcDbSpline
70
4
71
3
72
11
73
7
40
0
40
0
40
0
40
0
40
0.342011787836958
40
0.642198228721837
40
0.876725351047479
40
1
40
1
40
1
40
1
41
1
10
367.65725
20
19.4094413032564
30
0
41
1
10
367.638405962704
20
19.4302315216882
30
0
41
1
10
367.607246454178
20
19.4659783235364
30
0
41
1
10
367.572478698652
20
19.5093812544871
30
0
41
1
10
367.557238712117
20
19.5326216917595
30
0
41
1
10
367.555107377871
20
19.5393112426375
30
0
41
1
10
367.555000074588
20
19.5410298872621
30
0
0
SPLINE
5
F6
100
AcDbEntity
8
1
62
256
6
ByLayer
370
18
48
1
60
0
100
AcDbSpline
70
4
71
1
72
4
73
2
40
0
40
0
40
1
40
1
41
1
10
368.325
20
18.6630030512968
30
0
41
1
10
367.65725
20
19.4094413032565
30
0
0
SPLINE
5
F7
100
AcDbEntity
8
1
62
256
6
ByLayer
370
18
48
1
60
0
100
AcDbSpline
70
4
71
1
72
4
73
2
40
0
40
0
40
1
40
1
41
1
10
367.65725
20
19.1867908893245
30
0
41
1
10
368.325
20
18.587552298584
30
0
0
SPLINE
5
F8
100
AcDbEntity
8
1
62
256
6
ByLayer
370
18
48
1
60
0
100
AcDbSpline
70
4
71
3
72
11
73
7
40
0
40
0
40
0
40
0
40
0.329250067109492
40
0.647313353418179
40
0.887590104473782
40
1
40
1
40
1
40
1
41
1
10
367.65725
20
19.1035364558329
30
0
41
1
10
367.639125826007
20
19.1246406317614
30
0
41
1
10
367.607605573011
20
19.1633405571413
30
0
41
1
10
367.572379703214
20
19.2119075998364
30
0
41
1
10
367.557086797367
20
19.2396890076993
30
0
41
1
10
367.555109283244
20
19.2486011368986
30
0
41
1
10
367.555000241861
20
19.250975551376
30
0
0
SPLINE
5
F9
100
AcDbEntity
8
1
62
256
6
ByLayer
370
18
48
1
60
0
100
AcDbSpline
70
4
71
1
72
4
73
2
40
0
40
0
40
1
40
1
41
1
10
368.325
20
18.3131045806204
30
0
41
1
10
367.65725
20
19.1035364558329
30
0
0
SPLINE
5
FA
100
AcDbEntity
8
1
62
256
6
ByLayer
370
18
48
1
60
0
100
AcDbSpline
70
4
71
1
72
4
73
2
40
0
40
0
40
1
40
1
41
1
10
367.65725
20
18.786012115824
30
0
41
1
10
368.325
20
18.2053559142514
30
0
0
SPLINE
5
FB
100
AcDbEntity
8
1
62
256
6
ByLayer
370
18
48
1
60
0
100
AcDbSpline
70
4
71
3
72
11
73
7
40
0
40
0
40
0
40
0
40
0.441839920560032
40
0.73405048771499
40
0.961867500839299
40
1
40
1
40
1
40
1
41
1
10
367.65725
20
18.6725412982303
30
0
41
1
10
367.632309326615
20
18.7032457165448
30
0
41
1
10
367.59797900152
20
18.7497389857026
30
0
41
1
10
367.564594625596
20
18.8046483170383
30
0
41
1
10
367.555573313104
20
18.8285226969549
30
0
41
1
10
367.555015021059
20
18.8363594717354
30
0
41
1
10
367.555000312325
20
18.8374254774193
30
0
0
SPLINE
5
FC
100
AcDbEntity
8
1
62
256
6
ByLayer
370
18
48
1
60
0
100
AcDbSpline
70
4
71
1
72
4
73
2
40
0
40
0
40
1
40
1
41
1
10
368.325
20
17.8306454136905
30
0
41
1
10
367.65725
20
18.6725412982303
30
0
0
SPLINE
5
FD
100
AcDbEntity
8
1
62
256
6
ByLayer
370
18
48
1
60
0
100
AcDbSpline
70
4
71
1
72
4
73
2
40
0
40
0
40
1
40
1
41
1
10
367.65725
20
18.2536450551968
30
0
41
1
10
368.325
20
17.6882126704918
30
0
0
SPLINE
5
FE
100
AcDbEntity
8
1
62
256
6
ByLayer
370
18
48
1
60
0
100
AcDbSpline
70
4
71
3
72
11
73
7
40
0
40
0
40
0
40
0
40
0.469351758654464
40
0.761993777863438
40
0.98870928779179
40
1
40
1
40
1
40
1
41
1
10
367.65725
20
18.1075258373112
30
0
41
1
10
367.630514136621
20
18.1426232148382
30
0
41
1
10
367.595252507034
20
18.1949484938443
30
0
41
1
10
367.562509008144
20
18.2570863381311
30
0
41
1
10
367.555160567665
20
18.2829901513205
30
0
41
1
10
367.555001680443
20
18.2916794237046
30
0
41
1
10
367.555000066085
20
18.292086575487
30
0
0
SPLINE
5
FF
100
AcDbEntity
8
1
62
256
6
ByLayer
370
18
48
1
60
0
100
AcDbSpline
70
4
71
1
72
4
73
2
40
0
40
0
40
1
40
1
41
1
10
368.325
20
17.204477102103
30
0
41
1
10
367.65725
20
18.1075258373112
30
0
0
SPLINE
5
100
100
AcDbEntity
8
1
62
256
6
ByLayer
370
18
48
1
60
0
100
AcDbSpline
70
4
71
1
72
4
73
2
40
0
40
0
40
1
40
1
41
1
10
367.65725
20
17.57773774939
30
0
41
1
10
368.325
20
17.0238289168013
30
0
0
SPLINE
5
101
100
AcDbEntity
8
1
62
256
6
ByLayer
370
18
48
1
60
0
100
AcDbSpline
70
4
71
3
72
10
73
6
40
0
40
0
40
0
40
0
40
0.500655634822128
40
0.79017201543491
40
1
40
1
40
1
40
1
41
1
10
367.65725
20
17.3954357623968
30
0
41
1
10
367.628459400728
20
17.4360513359832
30
0
41
1
10
367.592593064923
20
17.495054100592
30
0
41
1
10
367.560646526087
20
17.565410693159
30
0
41
1
10
367.555617495467
20
17.5922713314739
30
0
41
1
10
367.555000081396
20
17.602545625745
30
0
0
SPLINE
5
102
100
AcDbEntity
8
1
62
256
6
ByLayer
370
18
48
1
60
0
100
AcDbSpline
70
4
71
1
72
4
73
2
40
0
40
0
40
1
40
1
41
1
10
368.325
20
16.4181652094505
30
0
41
1
10
367.65725
20
17.3954357623968
30
0
0
SPLINE
5
103
100
AcDbEntity
8
1
62
256
6
ByLayer
370
18
48
1
60
0
100
AcDbSpline
70
4
71
1
72
4
73
2
40
0
40
0
40
1
40
1
41
1
10
367.65725
20
16.7409130865539
30
0
41
1
10
368.325
20
16.1940925803361
30
0
0
SPLINE
5
104
100
AcDbEntity
8
1
62
256
6
ByLayer
370
18
48
1
60
0
100
AcDbSpline
70
4
71
3
72
10
73
6
40
0
40
0
40
0
40
0
40
0.538057462057139
40
0.818130138821771
40
1
40
1
40
1
40
1
41
1
10
367.65725
20
16.5172600263619
30
0
41
1
10
367.626027033555
20
16.5650666634061
30
0
41
1
10
367.589523572285
20
16.6324796523194
30
0
41
1
10
367.55969065873
20
16.7107563317592
30
0
41
1
10
367.55549982106
20
16.7400235417015
30
0
41
1
10
367.555000929875
20
16.7508182535806
30
0
0
SPLINE
5
105
100
AcDbEntity
8
1
62
256
6
ByLayer
370
18
48
1
60
0
100
AcDbSpline
70
4
71
1
72
4
73
2
40
0
40
0
40
1
40
1
41
1
10
368.325
20
15.4472737184539
30
0
41
1
10
367.65725
20
16.5172600263618
30
0
0
SPLINE
5
106
100
AcDbEntity
8
1
62
256
6
ByLayer
370
18
48
1
60
0
100
AcDbSpline
70
4
71
1
72
4
73
2
40
0
40
0
40
1
40
1
41
1
10
367.65725
20
15.7174895437145
30
0
41
1
10
368.325
20
15.1718989586826
30
0
0
SPLINE
5
107
100
AcDbEntity
8
1
62
256
6
ByLayer
370
18
48
1
60
0
100
AcDbSpline
70
4
71
3
72
10
73
6
40
0
40
0
40
0
40
0
40
0.547301222737345
40
0.82562797293656
40
1
40
1
40
1
40
1
41
1
10
367.65725
20
15.4446939818576
30
0
41
1
10
367.625542403747
20
15.4982707951335
30
0
41
1
10
367.588937240184
20
15.5744018380708
30
0
41
1
10
367.559737360316
20
15.6632659657322
30
0
41
1
10
367.555569917055
20
15.6975178942071
30
0
41
1
10
367.555008535533
20
15.7101151220355
30
0
0
SPLINE
5
108
100
AcDbEntity
8
1
62
256
6
ByLayer
370
18
48
1
60
0
100
AcDbSpline
70
4
71
1
72
4
73
2
40
0
40
0
40
1
40
1
41
1
10
368.325
20
14.2541356041277
30
0
41
1
10
367.65725
20
15.4446939818576
30
0
0
SPLINE
5
109
100
AcDbEntity
8
1
62
256
6
ByLayer
370
18
48
1
60
0
100
AcDbSpline
70
4
71
1
72
4
73
2
40
0
40
0
40
1
40
1
41
1
10
367.65725
20
14.4679225924801
30
0
41
1
10
368.325
20
13.9148985452446
30
0
0
SPLINE
5
10A
100
AcDbEntity
8
1
62
256
6
ByLayer
370
18
48
1
60
0
100
AcDbSpline
70
4
71
3
72
10
73
6
40
0
40
0
40
0
40
0
40
0.613007207669492
40
0.839592277898018
40
1
40
1
40
1
40
1
41
1
10
367.65725
20
14.1335510614993
30
0
41
1
10
367.621142460231
20
14.201961925812
30
0
41
1
10
367.584893743717
20
14.2907442787931
30
0
41
1
10
367.558712646654
20
14.3926061992163
30
0
41
1
10
367.555429709201
20
14.4278624777636
30
0
41
1
10
367.555003423148
20
14.4419810199694
30
0
0
SPLINE
5
10B
100
AcDbEntity
8
1
62
256
6
ByLayer
370
18
48
1
60
0
100
AcDbSpline
70
4
71
1
72
4
73
2
40
0
40
0
40
1
40
1
41
1
10
368.325
20
12.7766387719495
30
0
41
1
10
367.65725
20
14.1335510614993
30
0
0
SPLINE
5
10C
100
AcDbEntity
8
1
62
256
6
ByLayer
370
18
48
1
60
0
100
AcDbSpline
70
4
71
1
72
4
73
2
40
0
40
0
40
1
40
1
41
1
10
367.65725
20
12.9267973886503
30
0
41
1
10
368.325
20
12.3516106251948
30
0
0
SPLINE
5
10D
100
AcDbEntity
8
1
62
256
6
ByLayer
370
18
48
1
60
0
100
AcDbSpline
70
4
71
2
72
6
73
3
40
0
40
0
40
0
40
1
40
1
40
1
41
1
10
367.65725
20
12.5090350955934
30
0
41
1
10
367.56449452426
20
12.7076362690426
30
0
41
1
10
367.555002402522
20
12.8772305165887
30
0
0
SPLINE
5
10E
100
AcDbEntity
8
1
62
256
6
ByLayer
370
18
48
1
60
0
100
AcDbSpline
70
4
71
1
72
4
73
2
40
0
40
0
40
1
40
1
41
1
10
368.325
20
10.8997529695359
30
0
41
1
10
367.65725
20
12.5090350955934
30
0
0
SPLINE
5
10F
100
AcDbEntity
8
1
62
256
6
ByLayer
370
18
48
1
60
0
100
AcDbSpline
70
4
71
1
72
4
73
2
40
0
40
0
40
1
40
1
41
1
10
367.65725
20
10.9719368077126
30
0
41
1
10
368.325
20
10.3440885798798
30
0
0
SPLINE
5
110
100
AcDbEntity
8
1
62
256
6
ByLayer
370
18
48
1
60
0
100
AcDbSpline
70
4
71
2
72
6
73
3
40
0
40
0
40
0
40
1
40
1
40
1
41
1
10
367.65725
20
10.4256727570727
30
0
41
1
10
367.564248120374
20
10.6687947747668
30
0
41
1
10
367.555011360507
20
10.8872087149763
30
0
0
SPLINE
5
111
100
AcDbEntity
8
1
62
256
6
ByLayer
370
18
48
1
60
0
100
AcDbSpline
70
4
71
1
72
4
73
2
40
0
40
0
40
1
40
1
41
1
10
368.325
20
8.35863214197942
30
0
41
1
10
367.65725
20
10.4256727570727
30
0
0
SPLINE
5
112
100
AcDbEntity
8
1
62
256
6
ByLayer
370
18
48
1
60
0
100
AcDbSpline
70
4
71
1
72
4
73
2
40
0
40
0
40
1
40
1
41
1
10
367.65725
20
8.31653196336435
30
0
41
1
10
368.325
20
7.54573071745718
30
0
0
SPLINE
5
113
100
AcDbEntity
8
1
62
256
6
ByLayer
370
18
48
1
60
0
100
AcDbSpline
70
4
71
3
72
10
73
6
40
0
40
0
40
0
40
0
40
0.532327471743742
40
0.833599534487852
40
1
40
1
40
1
40
1
41
1
10
367.65725
20
7.51088182920916
30
0
41
1
10
367.627311546927
20
7.62947589062387
30
0
41
1
10
367.591106560034
20
7.81323255642326
30
0
41
1
10
367.558371562559
20
8.03392348671711
30
0
41
1
10
367.55512048653
20
8.13331899347954
30
0
41
1
10
367.55503138987
20
8.16839397322262
30
0
0
SPLINE
5
114
100
AcDbEntity
8
1
62
256
6
ByLayer
370
18
48
1
60
0
100
AcDbSpline
70
4
71
2
72
6
73
3
40
0
40
0
40
0
40
1
40
1
40
1
41
1
10
368.325
20
4.05325150625469
30
0
41
1
10
368.083904837031
20
5.80595047647647
30
0
41
1
10
367.65725
20
7.51088182920917
30
0
0
SPLINE
5
115
100
AcDbEntity
8
1
62
256
6
ByLayer
370
18
48
1
60
0
100
AcDbSpline
70
4
71
2
72
6
73
3
40
0
40
0
40
0
40
1
40
1
40
1
41
1
10
367.65725
20
3.6668802111449
30
0
41
1
10
368.10370184491
20
2.65136317020442
30
0
41
1
10
368.325
20
1.54140701060834
30
0
0
SPLINE
5
116
100
AcDbEntity
8
1
62
256
6
ByLayer
370
18
48
1
60
0
100
AcDbSpline
70
4
71
3
72
18
73
14
40
0
40
0
40
0
40
0
40
0.0092762999038491
40
0.068562989504778
40
0.0951304196522684
40
0.117592414041112
40
0.133540352750915
40
0.149529937945372
40
0.16995042204384
40
0.20570098208847
40
0.318776697950105
40
0.839906372199322
40
1
40
1
40
1
40
1
41
1
10
367.657249999999
20
-3.66688021114634
30
0
41
1
10
367.656530488487
20
-3.66856317892815
30
0
41
1
10
367.651090051696
20
-3.6808852222394
30
0
41
1
10
367.642732472879
20
-3.69760154146208
30
0
41
1
10
367.630691624416
20
-3.71356954482124
30
0
41
1
10
367.622113310392
20
-3.72071043232467
30
0
41
1
10
367.614212181307
20
-3.72311277646692
30
0
41
1
10
367.606874679365
20
-3.72152338403578
30
0
41
1
10
367.598465296463
20
-3.71437670222455
30
0
41
1
10
367.584596086649
20
-3.68888331459692
30
0
41
1
10
367.558360975622
20
-3.5639060542448
30
0
41
1
10
367.556219231417
20
-3.40505327877037
30
0
41
1
10
367.554724613401
20
-3.26975155857323
30
0
41
1
10
367.555022756186
20
-3.23774823726714
30
0
0
SPLINE
5
117
100
AcDbEntity
8
1
62
256
6
ByLayer
370
18
48
1
60
0
100
AcDbSpline
70
4
71
2
72
6
73
3
40
0
40
0
40
0
40
1
40
1
40
1
41
1
10
368.325
20
-1.54140701062896
30
0
41
1
10
368.103860243444
20
-2.65129455942786
30
0
41
1
10
367.65725
20
-3.6668802111467
30
0
0
SPLINE
5
118
100
AcDbEntity
8
1
62
256
6
ByLayer
370
18
48
1
60
0
100
AcDbSpline
70
4
71
2
72
6
73
3
40
0
40
0
40
0
40
1
40
1
40
1
41
1
10
367.65725
20
-7.51088182920917
30
0
41
1
10
368.083894802745
20
-5.80596125816181
30
0
41
1
10
368.325
20
-4.05325150625469
30
0
0
SPLINE
5
119
100
AcDbEntity
8
1
62
256
6
ByLayer
370
18
48
1
60
0
100
AcDbSpline
70
4
71
3
72
14
73
10
40
0
40
0
40
0
40
0
40
0.108418701022075
40
0.180167597011163
40
0.252422528712433
40
0.317844072553428
40
0.418649479187763
40
0.60700401253404
40
1
40
1
40
1
40
1
41
1
10
367.657250000027
20
-8.31653196334169
30
0
41
1
10
367.64997141586
20
-8.32526615338188
30
0
41
1
10
367.637423488915
20
-8.33672320355457
30
0
41
1
10
367.6181585045
20
-8.34746564858042
30
0
41
1
10
367.602527381033
20
-8.3486467044096
30
0
41
1
10
367.587727804689
20
-8.34120718763121
30
0
41
1
10
367.572043538821
20
-8.31933184841542
30
0
41
1
10
367.557258581184
20
-8.26135863170592
30
0
41
1
10
367.552549383968
20
-8.20802499444396
30
0
41
1
10
367.555038128083
20
-8.16757126881083
30
0
0
SPLINE
5
11A
100
AcDbEntity
8
1
62
256
6
ByLayer
370
18
48
1
60
0
100
AcDbSpline
70
4
71
1
72
4
73
2
40
0
40
0
40
1
40
1
41
1
10
368.325
20
-7.54573071745703
30
0
41
1
10
367.65725
20
-8.31653196336435
30
0
0
SPLINE
5
11B
100
AcDbEntity
8
1
62
256
6
ByLayer
370
18
48
1
60
0
100
AcDbSpline
70
4
71
1
72
4
73
2
40
0
40
0
40
1
40
1
41
1
10
367.65725
20
-10.4256727570727
30
0
41
1
10
368.325
20
-8.35863214197942
30
0
0
SPLINE
5
11C
100
AcDbEntity
8
1
62
256
6
ByLayer
370
18
48
1
60
0
100
AcDbSpline
70
4
71
3
72
14
73
10
40
0
40
0
40
0
40
0
40
0.0783829871389815
40
0.215707446421054
40
0.317812290823408
40
0.419869148103639
40
0.563517127420579
40
0.809794822448572
40
1
40
1
40
1
40
1
41
1
10
367.65725000001
20
-10.9719368077072
30
0
41
1
10
367.652444151996
20
-10.9765324929058
30
0
41
1
10
367.639151691486
20
-10.9877108997616
30
0
41
1
10
367.618336548231
20
-11.0001173756792
30
0
41
1
10
367.597444554273
20
-11.0028007933594
30
0
41
1
10
367.580149715048
20
-10.995355575134
30
0
41
1
10
367.563926018898
20
-10.9720067645134
30
0
41
1
10
367.556259895161
20
-10.932851065505
30
0
41
1
10
367.554587480467
20
-10.9011800376172
30
0
41
1
10
367.555017244399
20
-10.8864398912318
30
0
0
SPLINE
5
11D
100
AcDbEntity
8
1
62
256
6
ByLayer
370
18
48
1
60
0
100
AcDbSpline
70
4
71
1
72
4
73
2
40
0
40
0
40
1
40
1
41
1
10
368.325
20
-10.3440885798798
30
0
41
1
10
367.65725
20
-10.9719368077126
30
0
0
SPLINE
5
11E
100
AcDbEntity
8
1
62
256
6
ByLayer
370
18
48
1
60
0
100
AcDbSpline
70
4
71
1
72
4
73
2
40
0
40
0
40
1
40
1
41
1
10
367.65725
20
-12.5090350955934
30
0
41
1
10
368.325
20
-10.8997529695359
30
0
0
SPLINE
5
11F
100
AcDbEntity
8
1
62
256
6
ByLayer
370
18
48
1
60
0
100
AcDbSpline
70
4
71
3
72
13
73
9
40
0
40
0
40
0
40
0
40
0.110242213151864
40
0.28255727552981
40
0.412606166269291
40
0.542428032766175
40
0.733732087688939
40
1
40
1
40
1
40
1
41
1
10
367.657250000004
20
-12.9267973886487
30
0
41
1
10
367.650803050241
20
-12.9324740321065
30
0
41
1
10
367.634460670417
20
-12.9449728016787
30
0
41
1
10
367.609769049183
20
-12.9576961890999
30
0
41
1
10
367.587437063047
20
-12.9584727781846
30
0
41
1
10
367.569985716961
20
-12.9480918057827
30
0
41
1
10
367.557500913942
20
-12.9211431497263
30
0
41
1
10
367.554230160885
20
-12.8950860188414
30
0
41
1
10
367.555002425298
20
-12.8772250208738
30
0
0
SPLINE
5
120
100
AcDbEntity
8
1
62
256
6
ByLayer
370
18
48
1
60
0
100
AcDbSpline
70
4
71
1
72
4
73
2
40
0
40
0
40
1
40
1
41
1
10
368.325
20
-12.3516106251948
30
0
41
1
10
367.65725
20
-12.9267973886503
30
0
0
SPLINE
5
121
100
AcDbEntity
8
1
62
256
6
ByLayer
370
18
48
1
60
0
100
AcDbSpline
70
4
71
1
72
4
73
2
40
0
40
0
40
1
40
1
41
1
10
367.65725
20
-14.1335510614993
30
0
41
1
10
368.325
20
-12.7766387719495
30
0
0
SPLINE
5
122
100
AcDbEntity
8
1
62
256
6
ByLayer
370
18
48
1
60
0
100
AcDbSpline
70
4
71
3
72
13
73
9
40
0
40
0
40
0
40
0
40
0.138853390640406
40
0.341511995921895
40
0.518494759973701
40
0.669260172089135
40
0.905494557461887
40
1
40
1
40
1
40
1
41
1
10
367.657250000002
20
-14.4679225924795
30
0
41
1
10
367.64930360173
20
-14.4746550714136
30
0
41
1
10
367.63025527438
20
-14.4886415791471
30
0
41
1
10
367.60109405941
20
-14.5028441627021
30
0
41
1
10
367.577380561363
20
-14.5015211440536
30
0
41
1
10
367.561214372378
20
-14.4866340293345
30
0
41
1
10
367.55569115143
20
-14.4645423845891
30
0
41
1
10
367.554915850397
20
-14.4472215794256
30
0
41
1
10
367.555003412463
20
-14.4419827618974
30
0
0
SPLINE
5
123
100
AcDbEntity
8
1
62
256
6
ByLayer
370
18
48
1
60
0
100
AcDbSpline
70
4
71
1
72
4
73
2
40
0
40
0
40
1
40
1
41
1
10
368.325
20
-13.9148985452446
30
0
41
1
10
367.65725
20
-14.4679225924801
30
0
0
SPLINE
5
124
100
AcDbEntity
8
1
62
256
6
ByLayer
370
18
48
1
60
0
100
AcDbSpline
70
4
71
1
72
4
73
2
40
0
40
0
40
1
40
1
41
1
10
367.65725
20
-15.4446939818576
30
0
41
1
10
368.325
20
-14.2541356041277
30
0
0
SPLINE
5
125
100
AcDbEntity
8
1
62
256
6
ByLayer
370
18
48
1
60
0
100
AcDbSpline
70
4
71
3
72
13
73
9
40
0
40
0
40
0
40
0
40
0.166242911183271
40
0.360375890725291
40
0.555799720089365
40
0.724316208407463
40
0.963610848020827
40
1
40
1
40
1
40
1
41
1
10
367.657250000001
20
-15.7174895437142
30
0
41
1
10
367.647934269861
20
-15.7252528119712
30
0
41
1
10
367.628418910791
20
-15.739446680958
30
0
41
1
10
367.598923790555
20
-15.7545791493185
30
0
41
1
10
367.575130693618
20
-15.756077901086
30
0
41
1
10
367.559249471884
20
-15.7435020486445
30
0
41
1
10
367.555257148098
20
-15.7256644826509
30
0
41
1
10
367.554989085093
20
-15.712940665717
30
0
41
1
10
367.555000472764
20
-15.7112166191105
30
0
0
SPLINE
5
126
100
AcDbEntity
8
1
62
256
6
ByLayer
370
18
48
1
60
0
100
AcDbSpline
70
4
71
1
72
4
73
2
40
0
40
0
40
1
40
1
41
1
10
368.325
20
-15.1718989586826
30
0
41
1
10
367.65725
20
-15.7174895437145
30
0
0
SPLINE
5
127
100
AcDbEntity
8
1
62
256
6
ByLayer
370
18
48
1
60
0
100
AcDbSpline
70
4
71
1
72
4
73
2
40
0
40
0
40
1
40
1
41
1
10
367.65725
20
-16.5172600263618
30
0
41
1
10
368.325
20
-15.4472737184539
30
0
0
SPLINE
5
128
100
AcDbEntity
8
1
62
256
6
ByLayer
370
18
48
1
60
0
100
AcDbSpline
70
4
71
3
72
12
73
8
40
0
40
0
40
0
40
0
40
0.191366235578432
40
0.400705424394768
40
0.611426159911792
40
0.793354321085359
40
1
40
1
40
1
40
1
41
1
10
367.65725
20
-16.7409130865538
30
0
41
1
10
367.646627503721
20
-16.7497667997621
30
0
41
1
10
367.625380799525
20
-16.7653795144078
30
0
41
1
10
367.594288505919
20
-16.7819777186297
30
0
41
1
10
367.570624438789
20
-16.7844723098295
30
0
41
1
10
367.557467676365
20
-16.7729577055611
30
0
41
1
10
367.554735111693
20
-16.7597810462402
30
0
41
1
10
367.555000725937
20
-16.7508635079356
30
0
0
SPLINE
5
129
100
AcDbEntity
8
1
62
256
6
ByLayer
370
18
48
1
60
0
100
AcDbSpline
70
4
71
1
72
4
73
2
40
0
40
0
40
1
40
1
41
1
10
368.325
20
-16.1940925803361
30
0
41
1
10
367.65725
20
-16.7409130865539
30
0
0
SPLINE
5
12A
100
AcDbEntity
8
1
62
256
6
ByLayer
370
18
48
1
60
0
100
AcDbSpline
70
4
71
1
72
4
73
2
40
0
40
0
40
1
40
1
41
1
10
367.65725
20
-17.3954357623968
30
0
41
1
10
368.325
20
-16.4181652094505
30
0
0
SPLINE
5
12B
100
AcDbEntity
8
1
62
256
6
ByLayer
370
18
48
1
60
0
100
AcDbSpline
70
4
71
3
72
12
73
8
40
0
40
0
40
0
40
0
40
0.215086515550335
40
0.437438636714347
40
0.661293538621366
40
0.853843971396755
40
1
40
1
40
1
40
1
41
1
10
367.65725
20
-17.5777377493899
30
0
41
1
10
367.645373678305
20
-17.5877389163178
30
0
41
1
10
367.622562049811
20
-17.6048994976594
30
0
41
1
10
367.590147318654
20
-17.6233332368948
30
0
41
1
10
367.566888680885
20
-17.6271121694884
30
0
41
1
10
367.556591726899
20
-17.6176023962012
30
0
41
1
10
367.554873954984
20
-17.607528238927
30
0
41
1
10
367.55500147232
20
-17.6022405721771
30
0
0
SPLINE
5
12C
100
AcDbEntity
8
1
62
256
6
ByLayer
370
18
48
1
60
0
100
AcDbSpline
70
4
71
1
72
4
73
2
40
0
40
0
40
1
40
1
41
1
10
368.325
20
-17.0238289168013
30
0
41
1
10
367.65725
20
-17.57773774939
30
0
0
SPLINE
5
12D
100
AcDbEntity
8
1
62
256
6
ByLayer
370
18
48
1
60
0
100
AcDbSpline
70
4
71
1
72
4
73
2
40
0
40
0
40
1
40
1
41
1
10
367.65725
20
-18.1075258373112
30
0
41
1
10
368.325
20
-17.204477102103
30
0
0
SPLINE
5
12E
100
AcDbEntity
8
1
62
256
6
ByLayer
370
18
48
1
60
0
100
AcDbSpline
70
4
71
3
72
12
73
8
40
0
40
0
40
0
40
0
40
0.238383637776405
40
0.472578322840672
40
0.708422830413709
40
0.909970655360721
40
1
40
1
40
1
40
1
41
1
10
367.65725
20
-18.2536450551967
30
0
41
1
10
367.644154353144
20
-18.264869634683
30
0
41
1
10
367.619908768226
20
-18.2837252912934
30
0
41
1
10
367.586411318166
20
-18.3043177379196
30
0
41
1
10
367.563744385307
20
-18.3097189328798
30
0
41
1
10
367.555900889281
20
-18.3020816888986
30
0
41
1
10
367.554957692868
20
-18.2945959471498
30
0
41
1
10
367.555000724703
20
-18.2919300405605
30
0
0
SPLINE
5
12F
100
AcDbEntity
8
1
62
256
6
ByLayer
370
18
48
1
60
0
100
AcDbSpline
70
4
71
1
72
4
73
2
40
0
40
0
40
1
40
1
41
1
10
368.325
20
-17.6882126704918
30
0
41
1
10
367.65725
20
-18.2536450551968
30
0
0
SPLINE
5
130
100
AcDbEntity
8
1
62
256
6
ByLayer
370
18
48
1
60
0
100
AcDbSpline
70
4
71
1
72
4
73
2
40
0
40
0
40
1
40
1
41
1
10
367.65725
20
-18.6725412982303
30
0
41
1
10
368.325
20
-17.8306454136905
30
0
0
SPLINE
5
131
100
AcDbEntity
8
1
62
256
6
ByLayer
370
18
48
1
60
0
100
AcDbSpline
70
4
71
3
72
12
73
8
40
0
40
0
40
0
40
0
40
0.261192139426519
40
0.505956728872235
40
0.752535483089868
40
0.96156357478199
40
1
40
1
40
1
40
1
41
1
10
367.65725
20
-18.786012115824
30
0
41
1
10
367.64295433266
20
-18.7985553899809
30
0
41
1
10
367.617380061952
20
-18.8192714267596
30
0
41
1
10
367.583004380813
20
-18.8423427456429
30
0
41
1
10
367.561085004116
20
-18.8496710722452
30
0
41
1
10
367.555355221633
20
-18.8437531907419
30
0
41
1
10
367.554994103838
20
-18.8383826837501
30
0
41
1
10
367.555000075114
20
-18.8374837408244
30
0
0
SPLINE
5
132
100
AcDbEntity
8
1
62
256
6
ByLayer
370
18
48
1
60
0
100
AcDbSpline
70
4
71
1
72
4
73
2
40
0
40
0
40
1
40
1
41
1
10
368.325
20
-18.2053559142514
30
0
41
1
10
367.65725
20
-18.786012115824
30
0
0
SPLINE
5
133
100
AcDbEntity
8
1
62
256
6
ByLayer
370
18
48
1
60
0
100
AcDbSpline
70
4
71
1
72
4
73
2
40
0
40
0
40
1
40
1
41
1
10
367.65725
20
-19.1035364558329
30
0
41
1
10
368.325
20
-18.3131045806204
30
0
0
SPLINE
5
134
100
AcDbEntity
8
1
62
256
6
ByLayer
370
18
48
1
60
0
100
AcDbSpline
70
4
71
3
72
12
73
8
40
0
40
0
40
0
40
0
40
0.28297701856678
40
0.536553999364202
40
0.750837094272304
40
0.965613435476437
40
1
40
1
40
1
40
1
41
1
10
367.65725
20
-19.1867908893245
30
0
41
1
10
367.641760186522
20
-19.2007697381244
30
0
41
1
10
367.614943225208
20
-19.2235385350738
30
0
41
1
10
367.581692039333
20
-19.248055497566
30
0
41
1
10
367.561024500697
20
-19.2581756177889
30
0
41
1
10
367.555340370391
20
-19.2556494640045
30
0
41
1
10
367.554996731975
20
-19.2516310044636
30
0
41
1
10
367.555000030127
20
-19.2510233429179
30
0
0
SPLINE
5
135
100
AcDbEntity
8
1
62
256
6
ByLayer
370
18
48
1
60
0
100
AcDbSpline
70
4
71
1
72
4
73
2
40
0
40
0
40
1
40
1
41
1
10
368.325
20
-18.587552298584
30
0
41
1
10
367.65725
20
-19.1867908893245
30
0
0
SPLINE
5
136
100
AcDbEntity
8
1
62
256
6
ByLayer
370
18
48
1
60
0
100
AcDbSpline
70
4
71
1
72
4
73
2
40
0
40
0
40
1
40
1
41
1
10
367.65725
20
-19.4094413032565
30
0
41
1
10
368.325
20
-18.6630030512968
30
0
0
SPLINE
5
137
100
AcDbEntity
8
1
62
256
6
ByLayer
370
18
48
1
60
0
100
AcDbSpline
70
4
71
3
72
11
73
7
40
0
40
0
40
0
40
0
40
0.304632312554625
40
0.566084194491747
40
0.784880098668172
40
1
40
1
40
1
40
1
41
1
10
367.65725
20
-19.4641115400997
30
0
41
1
10
367.64055915088
20
-19.4796684885192
30
0
41
1
10
367.612558144472
20
-19.5047063539096
30
0
41
1
10
367.578899199237
20
-19.5321569777169
30
0
41
1
10
367.559153228532
20
-19.5445727998412
30
0
41
1
10
367.555154530637
20
-19.5435466217527
30
0
41
1
10
367.555000003065
20
-19.5410513391963
30
0
0
SPLINE
5
138
100
AcDbEntity
8
1
62
256
6
ByLayer
370
18
48
1
60
0
100
AcDbSpline
70
4
71
1
72
4
73
2
40
0
40
0
40
1
40
1
41
1
10
368.325
20
-18.8430150703283
30
0
41
1
10
367.65725
20
-19.4641115400998
30
0
0
SPLINE
5
139
100
AcDbEntity
8
1
62
256
6
ByLayer
370
18
48
1
60
0
100
AcDbSpline
70
4
71
1
72
4
73
2
40
0
40
0
40
1
40
1
41
1
10
367.65725
20
-19.5961148774388
30
0
41
1
10
368.325
20
-18.8877094006841
30
0
0
SPLINE
5
13A
100
AcDbEntity
8
1
62
256
6
ByLayer
370
18
48
1
60
0
100
AcDbSpline
70
4
71
3
72
11
73
7
40
0
40
0
40
0
40
0
40
0.372996890536611
40
0.628682077128815
40
0.886371579237604
40
1
40
1
40
1
40
1
41
1
10
367.65725
20
-19.6232090000647
30
0
41
1
10
367.636507587211
20
-19.6432655346522
30
0
41
1
10
367.606116904081
20
-19.6719382822497
30
0
41
1
10
367.57095169087
20
-19.7034254966986
30
0
41
1
10
367.556864851729
20
-19.7140265710949
30
0
41
1
10
367.55502596866
20
-19.7136706022192
30
0
41
1
10
367.555000044758
20
-19.7130031276509
30
0
0
SPLINE
5
13B
100
AcDbEntity
8
1
62
256
6
ByLayer
370
18
48
1
60
0
100
AcDbSpline
70
4
71
1
72
4
73
2
40
0
40
0
40
1
40
1
41
1
10
368.325
20
-18.9768631082337
30
0
41
1
10
367.65725
20
-19.6232090000648
30
0
0
SPLINE
5
13C
100
AcDbEntity
8
1
62
256
6
ByLayer
370
18
48
1
60
0
100
AcDbSpline
70
4
71
1
72
4
73
2
40
0
40
0
40
1
40
1
41
1
10
367.65725
20
-19.6669526077377
30
0
41
1
10
368.325
20
-18.991667907708
30
0
0
SPLINE
5
13D
100
AcDbEntity
8
1
62
256
6
ByLayer
370
18
48
1
60
0
100
AcDbSpline
70
4
71
3
72
18
73
14
40
0
40
0
40
0
40
0
40
0.039544428562292
40
0.67802034459451
40
0.738430857537984
40
0.801710634766664
40
0.823803287789372
40
0.846100958306917
40
0.86257065367696
40
0.879008358522346
40
0.905141278320458
40
0.957073783466201
40
1
40
1
40
1
40
1
41
1
10
367.55502714837
20
3.27593767934985
30
0
41
1
10
367.553140836076
20
3.28321985363526
30
0
41
1
10
367.522476480589
20
3.40786636596353
30
0
41
1
10
367.555777472251
20
3.54991441318633
30
0
41
1
10
367.58352979887
20
3.6807270572551
30
0
41
1
10
367.592010013281
20
3.70421019783176
30
0
41
1
10
367.601643329811
20
3.71751513703854
30
0
41
1
10
367.608716698743
20
3.72240064822982
30
0
41
1
10
367.616167497371
20
3.72282895899862
30
0
41
1
10
367.624105074744
20
3.71944469729671
30
0
41
1
10
367.63541804679
20
3.70869756724435
30
0
41
1
10
367.646658383324
20
3.6898579724801
30
0
41
1
10
367.654218463866
20
3.67434761955444
30
0
41
1
10
367.65725
20
3.66688021114491
30
0
0
SPLINE
5
13E
100
AcDbEntity
8
1
62
256
6
ByLayer
370
18
48
1
60
0
100
AcDbSpline
70
4
71
3
72
13
73
9
40
0
40
0
40
0
40
0
40
0.0811644644508212
40
0.177297495013906
40
0.433856160876608
40
0.690627755607223
40
0.946967123456077
40
1
40
1
40
1
40
1
41
1
10
367.555022756186
20
-3.23774823726714
30
0
41
1
10
367.556685354627
20
-3.06294436151124
30
0
41
1
10
367.563432827021
20
-2.68035355923812
30
0
41
1
10
367.615581614574
20
-1.73861968642869
30
0
41
1
10
367.637544089998
20
-0.412467172213471
30
0
41
1
10
367.612774682813
20
1.2638807457142
30
0
41
1
10
367.565957676769
20
2.49522055353055
30
0
41
1
10
367.556512388558
20
3.16178375679415
30
0
41
1
10
367.55502714837
20
3.27593767934985
30
0
0
SPLINE
5
13F
100
AcDbEntity
8
1
62
256
6
ByLayer
370
18
48
1
60
0
100
AcDbSpline
70
4
71
3
72
14
73
10
40
0
40
0
40
0
40
0
40
0.287575987652827
40
0.590056088248568
40
0.679730591769891
40
0.750554707084411
40
0.821712627379408
40
0.902192848596982
40
1
40
1
40
1
40
1
41
1
10
367.55503138987
20
8.16839397322262
30
0
41
1
10
367.553750469308
20
8.19725849610805
30
0
41
1
10
367.557233909262
20
8.25172471982687
30
0
41
1
10
367.567713507383
20
8.31385691431805
30
0
41
1
10
367.588436644206
20
8.34169214268602
30
0
41
1
10
367.60287063449
20
8.34879122758399
30
0
41
1
10
367.619472193805
20
8.347139223477
30
0
41
1
10
367.638437550163
20
8.33580917716713
30
0
41
1
10
367.650736120681
20
8.32429921370238
30
0
41
1
10
367.65725
20
8.31653196336445
30
0
0
SPLINE
5
140
100
AcDbEntity
8
1
62
256
6
ByLayer
370
18
48
1
60
0
100
AcDbSpline
70
4
71
3
72
10
73
6
40
0
40
0
40
0
40
0
40
0.0927554397793506
40
0.545697818068074
40
1
40
1
40
1
40
1
41
1
10
367.555038128083
20
-8.16757126881083
30
0
41
1
10
367.555388989701
20
-8.14798419455162
30
0
41
1
10
367.559039956352
20
-8.0323212615758
30
0
41
1
10
367.588693640007
20
-7.81167793161065
30
0
41
1
10
367.630758281869
20
-7.61192880535976
30
0
41
1
10
367.65725
20
-7.51088182920919
30
0
0
SPLINE
5
141
100
AcDbEntity
8
1
62
256
6
ByLayer
370
18
48
1
60
0
100
AcDbSpline
70
4
71
3
72
14
73
10
40
0
40
0
40
0
40
0
40
0.13483054658982
40
0.432278571174938
40
0.556416845271817
40
0.681679785607115
40
0.793859150360426
40
0.92182632976651
40
1
40
1
40
1
40
1
41
1
10
367.555011360507
20
10.8872087149763
30
0
41
1
10
367.554794910832
20
10.8975213538897
30
0
41
1
10
367.555917857636
20
10.9291166454892
30
0
41
1
10
367.562018268893
20
10.9678387965237
30
0
41
1
10
367.579160760749
20
10.9943615848698
30
0
41
1
10
367.596635088183
20
11.0032599089765
30
0
41
1
10
367.619157766394
20
10.9997522682054
30
0
41
1
10
367.639812086508
20
10.9871545656548
30
0
41
1
10
367.652478051637
20
10.9764938403015
30
0
41
1
10
367.65725
20
10.9719368077127
30
0
0
SPLINE
5
142
100
AcDbEntity
8
1
62
256
6
ByLayer
370
18
48
1
60
0
100
AcDbSpline
70
4
71
3
72
10
73
6
40
0
40
0
40
0
40
0
40
0.183048331564047
40
0.859515705816356
40
1
40
1
40
1
40
1
41
1
10
367.555017244399
20
-10.8864398912318
30
0
41
1
10
367.555942472327
20
-10.8599843976353
30
0
41
1
10
367.564464988637
20
-10.7346650724018
30
0
41
1
10
367.606509813793
20
-10.5749695797472
30
0
41
1
10
367.649401846816
20
-10.4476588174966
30
0
41
1
10
367.65725
20
-10.4256727570729
30
0
0
SPLINE
5
143
100
AcDbEntity
8
1
62
256
6
ByLayer
370
18
48
1
60
0
100
AcDbSpline
70
4
71
3
72
14
73
10
40
0
40
0
40
0
40
0
40
0.0617078890033147
40
0.263114248683457
40
0.466061522330656
40
0.602372188177963
40
0.739176880901652
40
0.869036933416027
40
1
40
1
40
1
40
1
41
1
10
367.555002402522
20
12.8772305165887
30
0
41
1
10
367.554969421878
20
12.8811445502882
30
0
41
1
10
367.555292053417
20
12.8974714445143
30
0
41
1
10
367.55859860252
20
12.9245618991858
30
0
41
1
10
367.570451001359
20
12.9490076024356
30
0
41
1
10
367.589461027341
20
12.959120570745
30
0
41
1
10
367.610946039811
20
12.956830747443
30
0
41
1
10
367.634417727209
20
12.9448783803618
30
0
41
1
10
367.649564454983
20
12.9335762274619
30
0
41
1
10
367.65725
20
12.9267973886504
30
0
0
SPLINE
5
144
100
AcDbEntity
8
1
62
256
6
ByLayer
370
18
48
1
60
0
100
AcDbSpline
70
4
71
3
72
10
73
6
40
0
40
0
40
0
40
0
40
0.0340274245100371
40
0.415044787858873
40
1
40
1
40
1
40
1
41
1
10
367.555002425298
20
-12.8772250208738
30
0
41
1
10
367.555036900651
20
-12.873539106952
30
0
41
1
10
367.555984630121
20
-12.8283224309488
30
0
41
1
10
367.58089688564
20
-12.7052962332345
30
0
41
1
10
367.622322050846
20
-12.585293665942
30
0
41
1
10
367.65725
20
-12.5090350955934
30
0
0
SPLINE
5
145
100
AcDbEntity
8
1
62
256
6
ByLayer
370
18
48
1
60
0
100
AcDbSpline
70
4
71
3
72
13
73
9
40
0
40
0
40
0
40
0
40
0.106322020951502
40
0.308092026541302
40
0.511861720183944
40
0.687387669813408
40
0.83817887636126
40
1
40
1
40
1
40
1
41
1
10
367.555003423148
20
14.4419810199694
30
0
41
1
10
367.554902748484
20
14.4478807434843
30
0
41
1
10
367.5557309423
20
14.4639528573804
30
0
41
1
10
367.561449200833
20
14.4873359995496
30
0
41
1
10
367.578391104751
20
14.5028448339463
30
0
41
1
10
367.603424866665
20
14.501489161909
30
0
41
1
10
367.630477830277
20
14.4883501757058
30
0
41
1
10
367.647958903935
20
14.4758016130345
30
0
41
1
10
367.65725
20
14.4679225924801
30
0
0
SPLINE
5
146
100
AcDbEntity
8
1
62
256
6
ByLayer
370
18
48
1
60
0
100
AcDbSpline
70
4
71
3
72
10
73
6
40
0
40
0
40
0
40
0
40
0.192958189275806
40
0.662877134872613
40
1
40
1
40
1
40
1
41
1
10
367.555003412463
20
-14.4419827618974
30
0
41
1
10
367.555775357579
20
-14.4247468535211
30
0
41
1
10
367.562247184345
20
-14.3638370838714
30
0
41
1
10
367.599082328815
20
-14.2562196219807
30
0
41
1
10
367.638177661417
20
-14.1703207309281
30
0
41
1
10
367.65725
20
-14.1335510614993
30
0
0
SPLINE
5
147
100
AcDbEntity
8
1
62
256
6
ByLayer
370
18
48
1
60
0
100
AcDbSpline
70
4
71
3
72
13
73
9
40
0
40
0
40
0
40
0
40
0.15693869858317
40
0.349316531427312
40
0.543113493975452
40
0.714312677860162
40
0.930589975771634
40
1
40
1
40
1
40
1
41
1
10
367.555008535533
20
15.7101151220355
30
0
41
1
10
367.554764424077
20
15.7178825742427
30
0
41
1
10
367.556326840231
20
15.7330199523804
30
0
41
1
10
367.565117235662
20
15.7510191699904
30
0
41
1
10
367.58431428651
20
15.7571096349773
30
0
41
1
10
367.612372194197
20
15.74899564906
30
0
41
1
10
367.63767922616
20
15.7329360348716
30
0
41
1
10
367.653396743984
20
15.72066053656
30
0
41
1
10
367.657250000002
20
15.7174895437139
30
0
0
SPLINE
5
148
100
AcDbEntity
8
1
62
256
6
ByLayer
370
18
48
1
60
0
100
AcDbSpline
70
4
71
3
72
10
73
6
40
0
40
0
40
0
40
0
40
0.230543928052988
40
0.670249368460762
40
1
40
1
40
1
40
1
41
1
10
367.555000472764
20
-15.7112166191105
30
0
41
1
10
367.555973870088
20
-15.6941926951023
30
0
41
1
10
367.563390370998
20
-15.6424094026312
30
0
41
1
10
367.601280134767
20
-15.5483980008889
30
0
41
1
10
367.638677503405
20
-15.4764629670545
30
0
41
1
10
367.65725
20
-15.4446939818576
30
0
0
SPLINE
5
149
100
AcDbEntity
8
1
62
256
6
ByLayer
370
18
48
1
60
0
100
AcDbSpline
70
4
71
3
72
13
73
9
40
0
40
0
40
0
40
0
40
0.0632694644458555
40
0.27666384045861
40
0.491667190860423
40
0.676297285291794
40
0.911346290098306
40
1
40
1
40
1
40
1
41
1
10
367.555000929875
20
16.7508182535806
30
0
41
1
10
367.554969985234
20
16.7534297023435
30
0
41
1
10
367.55550091994
20
16.7641829123098
30
0
41
1
10
367.560935326727
20
16.779474812584
30
0
41
1
10
367.579425426928
20
16.7851478318844
30
0
41
1
10
367.607960906403
20
16.7759274024369
30
0
41
1
10
367.635043745723
20
16.7584802199497
30
0
41
1
10
367.652419939031
20
16.7448966802659
30
0
41
1
10
367.657250000005
20
16.7409130865523
30
0
0
SPLINE
5
14A
100
AcDbEntity
8
1
62
256
6
ByLayer
370
18
48
1
60
0
100
AcDbSpline
70
4
71
3
72
11
73
7
40
0
40
0
40
0
40
0
40
0.0302362271658177
40
0.300567593954839
40
0.740596753790131
40
1
40
1
40
1
40
1
41
1
10
367.555000725937
20
-16.7508635079356
30
0
41
1
10
367.555017361135
20
-16.7491477519593
30
0
41
1
10
367.555575568673
20
-16.7318046022458
30
0
41
1
10
367.569149254963
20
-16.6789954170122
30
0
41
1
10
367.607837049872
20
-16.5985027415873
30
0
41
1
10
367.642867396602
20
-16.5396035419022
30
0
41
1
10
367.65725
20
-16.5172600263618
30
0
0
SPLINE
5
14B
100
AcDbEntity
8
1
62
256
6
ByLayer
370
18
48
1
60
0
100
AcDbSpline
70
4
71
3
72
13
73
9
40
0
40
0
40
0
40
0
40
0.0212809377381083
40
0.2385613861122
40
0.457168607694644
40
0.649648659773481
40
0.903508497126165
40
1
40
1
40
1
40
1
41
1
10
367.555000081396
20
17.602545625745
30
0
41
1
10
367.55499712244
20
17.6032852321386
30
0
41
1
10
367.555161987585
20
17.6113772392832
30
0
41
1
10
367.559253003597
20
17.6236047693758
30
0
41
1
10
367.57688156024
20
17.6269244451721
30
0
41
1
10
367.605349565434
20
17.6158580447934
30
0
41
1
10
367.633524661658
20
17.5968329280773
30
0
41
1
10
367.652052428589
20
17.5820731962956
30
0
41
1
10
367.657250000005
20
17.5777377493884
30
0
0
SPLINE
5
14C
100
AcDbEntity
8
1
62
256
6
ByLayer
370
18
48
1
60
0
100
AcDbSpline
70
4
71
3
72
11
73
7
40
0
40
0
40
0
40
0
40
0.081232992228414
40
0.361133281662901
40
0.796537058091838
40
1
40
1
40
1
40
1
41
1
10
367.55500147232
20
-17.6022405721771
30
0
41
1
10
367.555099462372
20
-17.5984504549655
30
0
41
1
10
367.556719074078
20
-17.580709703447
30
0
41
1
10
367.574802179398
20
-17.5294836558493
30
0
41
1
10
367.613632517066
20
-17.4603267694139
30
0
41
1
10
367.646115482642
20
-17.4113458694242
30
0
41
1
10
367.65725
20
-17.3954357623967
30
0
0
SPLINE
5
14D
100
AcDbEntity
8
1
62
256
6
ByLayer
370
18
48
1
60
0
100
AcDbSpline
70
4
71
3
72
12
73
8
40
0
40
0
40
0
40
0
40
0.203982101215662
40
0.422892038300963
40
0.621225759785412
40
0.89037948877223
40
1
40
1
40
1
40
1
41
1
10
367.555000066085
20
18.292086575487
30
0
41
1
10
367.554897963952
20
18.2983003785211
30
0
41
1
10
367.558176529177
20
18.3071735753694
30
0
41
1
10
367.574243124086
20
18.3084735293176
30
0
41
1
10
367.602275393741
20
18.2955987473305
30
0
41
1
10
367.631553976018
20
18.2748245964976
30
0
41
1
10
367.651377526233
20
18.258638471764
30
0
41
1
10
367.657250000007
20
18.2536450551942
30
0
0
SPLINE
5
14E
100
AcDbEntity
8
1
62
256
6
ByLayer
370
18
48
1
60
0
100
AcDbSpline
70
4
71
3
72
11
73
7
40
0
40
0
40
0
40
0
40
0.130632392229605
40
0.415548682631256
40
0.843413418810596
40
1
40
1
40
1
40
1
41
1
10
367.555000724703
20
-18.2919300405605
30
0
41
1
10
367.555219444984
20
-18.2869735895815
30
0
41
1
10
367.55799512545
20
-18.2695849031442
30
0
41
1
10
367.580249725645
20
-18.2201944449455
30
0
41
1
10
367.618700276632
20
-18.1601189387494
30
0
41
1
10
367.648761892694
20
-18.1187907830027
30
0
41
1
10
367.65725
20
-18.1075258373112
30
0
0
SPLINE
5
14F
100
AcDbEntity
8
1
62
256
6
ByLayer
370
18
48
1
60
0
100
AcDbSpline
70
4
71
3
72
12
73
8
40
0
40
0
40
0
40
0
40
0.171820385506346
40
0.389124108028768
40
0.591678114719564
40
0.873622739350156
40
1
40
1
40
1
40
1
41
1
10
367.555000312325
20
18.8374254774193
30
0
41
1
10
367.554945951919
20
18.8415859421234
30
0
41
1
10
367.557566085496
20
18.8479456508417
30
0
41
1
10
367.571645644364
20
18.8471547875957
30
0
41
1
10
367.598948282838
20
18.8325246100649
30
0
41
1
10
367.629289303415
20
18.8097517340526
30
0
41
1
10
367.650490893341
20
18.7919055473377
30
0
41
1
10
367.657250000011
20
18.7860121158195
30
0
0
SPLINE
5
150
100
AcDbEntity
8
1
62
256
6
ByLayer
370
18
48
1
60
0
100
AcDbSpline
70
4
71
3
72
11
73
7
40
0
40
0
40
0
40
0
40
0.143406160135601
40
0.416179409661023
40
0.81345713182013
40
1
40
1
40
1
40
1
41
1
10
367.555000075114
20
-18.8374837408244
30
0
41
1
10
367.555218734815
20
-18.8332559112073
30
0
41
1
10
367.558158421244
20
-18.8190743086719
30
0
41
1
10
367.579864871635
20
-18.7772067985676
30
0
41
1
10
367.617427602226
20
-18.7232747229728
30
0
41
1
10
367.647143977536
20
-18.685075854437
30
0
41
1
10
367.65725
20
-18.6725412982299
30
0
0
SPLINE
5
151
100
AcDbEntity
8
1
62
256
6
ByLayer
370
18
48
1
60
0
100
AcDbSpline
70
4
71
3
72
12
73
8
40
0
40
0
40
0
40
0
40
0.0937750043520332
40
0.315079293964368
40
0.520086113400703
40
0.799364997268501
40
1
40
1
40
1
40
1
41
1
10
367.555000241861
20
19.250975551376
30
0
41
1
10
367.554980723118
20
19.252660330552
30
0
41
1
10
367.55616667344
20
19.2569820460955
30
0
41
1
10
367.56547045096
20
19.2567181522671
30
0
41
1
10
367.589775411851
20
19.2426519312952
30
0
41
1
10
367.621987058705
20
19.2176386678643
30
0
41
1
10
367.646436280983
20
19.1965225182805
30
0
41
1
10
367.65725
20
19.1867908893245
30
0
0
SPLINE
5
152
100
AcDbEntity
8
1
62
256
6
ByLayer
370
18
48
1
60
0
100
AcDbSpline
70
4
71
3
72
11
73
7
40
0
40
0
40
0
40
0
40
0.151510210552072
40
0.411847092875885
40
0.780628591293311
40
1
40
1
40
1
40
1
41
1
10
367.555000030127
20
-19.2510233429179
30
0
41
1
10
367.555213291713
20
-19.2477351167947
30
0
41
1
10
367.558226651058
20
-19.2366590343581
30
0
41
1
10
367.57901732713
20
-19.2017481251854
30
0
41
1
10
367.615762487581
20
-19.1531383553435
30
0
41
1
10
367.645364287079
20
-19.1174078722661
30
0
41
1
10
367.65725
20
-19.1035364558304
30
0
0
SPLINE
5
153
100
AcDbEntity
8
1
62
256
6
ByLayer
370
18
48
1
60
0
100
AcDbSpline
70
4
71
3
72
12
73
8
40
0
40
0
40
0
40
0
40
0.0040678379005729
40
0.193259184993738
40
0.453930994611811
40
0.816503936930041
40
1
40
1
40
1
40
1
41
1
10
367.555000003065
20
-19.5410513391963
30
0
41
1
10
367.555000102346
20
-19.540998898705
30
0
41
1
10
367.555041908086
20
-19.5384715788751
30
0
41
1
10
367.559763366211
20
-19.5278958526447
30
0
41
1
10
367.583394766297
20
-19.494953440049
30
0
41
1
10
367.61968179993
20
-19.4515850423524
30
0
41
1
10
367.64738507519
20
-19.4203496943217
30
0
41
1
10
367.657250000001
20
-19.4094413032536
30
0
0
SPLINE
5
154
100
AcDbEntity
8
1
62
256
6
ByLayer
370
18
48
1
60
0
100
AcDbSpline
70
4
71
3
72
12
73
8
40
0
40
0
40
0
40
0
40
0.0805814427705844
40
0.294856636486428
40
0.501424598235893
40
0.795507813486099
40
1
40
1
40
1
40
1
41
1
10
367.555000074588
20
19.5410298872621
30
0
41
1
10
367.554994909587
20
19.5419980562034
30
0
41
1
10
367.555997909948
20
19.5444659198811
30
0
41
1
10
367.564538790173
20
19.541741577563
30
0
41
1
10
367.588322652416
20
19.524900506125
30
0
41
1
10
367.620983720608
20
19.4972337835865
30
0
41
1
10
367.646251711464
20
19.4743399506937
30
0
41
1
10
367.65725
20
19.4641115400997
30
0
0
SPLINE
5
155
100
AcDbEntity
8
1
62
256
6
ByLayer
370
18
48
1
60
0
100
AcDbSpline
70
4
71
3
72
12
73
8
40
0
40
0
40
0
40
0
40
0.101523682145532
40
0.29867025960361
40
0.579960061486408
40
0.971009684658942
40
1
40
1
40
1
40
1
41
1
10
367.555000044758
20
-19.7130031276509
30
0
41
1
10
367.555046733676
20
-19.7123126748356
30
0
41
1
10
367.556492157933
20
-19.7090003075641
30
0
41
1
10
367.567719690897
20
-19.6941913394474
30
0
41
1
10
367.599047395786
20
-19.6582641268284
30
0
41
1
10
367.633679505405
20
-19.6209690724058
30
0
41
1
10
367.655717722443
20
-19.5977282863562
30
0
41
1
10
367.65725
20
-19.5961148774388
30
0
0
SPLINE
5
156
100
AcDbEntity
8
1
62
256
6
ByLayer
370
18
48
1
60
0
100
AcDbSpline
70
4
71
3
72
12
73
8
40
0
40
0
40
0
40
0
40
0.101897259976059
40
0.309477308976146
40
0.520977748882413
40
0.843702230846951
40
1
40
1
40
1
40
1
41
1
10
367.555000029089
20
19.7130051391009
30
0
41
1
10
367.555013028712
20
19.7136125625675
30
0
41
1
10
367.556404817249
20
19.7140568873087
30
0
41
1
10
367.566369579928
20
19.7070410064692
30
0
41
1
10
367.591854792125
20
19.6849792726466
30
0
41
1
10
367.624433074224
20
19.6546523938096
30
0
41
1
10
367.648908641859
20
19.6312544707722
30
0
41
1
10
367.657250000007
20
19.6232090000593
30
0
0
INSERT
5
170
100
AcDbEntity
8
SK2
62
256
6
ByLayer
370
25
48
1
60
0
100
AcDbBlockReference
2
DimnDraft3D22
10
0
20
0
30
0
41
1
42
1
43
1
50
0
210
0
220
0
230
1
0
LINE
5
70
100
AcDbEntity
8
81
62
256
6
ByLayer
370
18
48
1
60
0
100
AcDbLine
10
368
20
0
30
0
11
404.8
21
0
31
0
39
0
210
0
220
0
230
1
0
LINE
5
71
100
AcDbEntity
8
4
62
256
6
ByLayer
370
18
48
0.05
60
0
100
AcDbLine
10
0
20
0
30
0
11
368
21
0
31
0
39
0
210
0
220
0
230
1
0
LINE
5
73
100
AcDbEntity
8
SK4
62
256
6
ByLayer
370
18
48
0.05
60
0
100
AcDbLine
10
-165
20
0
30
0
11
373
21
0
31
0
39
0
210
0
220
0
230
1
0
LINE
5
75
100
AcDbEntity
8
80
62
256
6
ByLayer
370
18
48
1
60
0
100
AcDbLine
10
0
20
0
30
0
11
-36.8
21
0
31
0
39
0
210
0
220
0
230
1
0
LINE
5
76
100
AcDbEntity
8
SK1
62
256
6
ByLayer
370
18
48
1
60
0
100
AcDbLine
10
378.325
20
14.899495
30
0
11
372.325
21
14.899495
31
0
39
0
210
0
220
0
230
1
0
LINE
5
78
100
AcDbEntity
8
SK1
62
256
6
ByLayer
370
18
48
1
60
0
100
AcDbLine
10
372.325
20
4.899495
30
0
11
378.325
21
4.899495
31
0
39
0
210
0
220
0
230
1
0
LINE
5
79
100
AcDbEntity
8
SK1
62
256
6
ByLayer
370
18
48
1
60
0
100
AcDbLine
10
372.325
20
12.899495
30
0
11
368.325
21
12.899495
31
0
39
0
210
0
220
0
230
1
0
LINE
5
7A
100
AcDbEntity
8
SK1
62
256
6
ByLayer
370
18
48
1
60
0
100
AcDbLine
10
368.325
20
6.899495
30
0
11
372.325
21
6.899495
31
0
39
0
210
0
220
0
230
1
0
LINE
5
7B
100
AcDbEntity
8
1
62
256
6
ByLayer
370
18
48
1
60
0
100
AcDbLine
10
367.325
20
20
30
0
11
366.3
21
20
31
0
39
0
210
0
220
0
230
1
0
LINE
5
7D
100
AcDbEntity
8
1
62
256
6
ByLayer
370
18
48
1
60
0
100
AcDbLine
10
366.3
20
-20
30
0
11
367.325
21
-20
31
0
39
0
210
0
220
0
230
1
0
LINE
5
7E
100
AcDbEntity
8
1
62
256
6
ByLayer
370
18
48
1
60
0
100
AcDbLine
10
367.325
20
-20
30
0
11
367.556678
21
-19.768322
31
0
39
0
210
0
220
0
230
1
0
LINE
5
7F
100
AcDbEntity
8
1
62
256
6
ByLayer
370
18
48
1
60
0
100
AcDbLine
10
367.556678
20
19.768322
30
0
11
367.325
21
20
31
0
39
0
210
0
220
0
230
1
0
LINE
5
80
100
AcDbEntity
8
1
62
256
6
ByLayer
370
18
48
1
60
0
100
AcDbLine
10
367.65725
20
3.66688
30
0
11
367.65725
21
-3.66688
31
0
39
0
210
0
220
0
230
1
0
LINE
5
81
100
AcDbEntity
8
1
62
256
6
ByLayer
370
18
48
1
60
0
100
AcDbLine
10
368.325
20
1.541407
30
0
11
368.325
21
-1.541407
31
0
39
0
210
0
220
0
230
1
0
LINE
5
82
100
AcDbEntity
8
1
62
256
6
ByLayer
370
18
48
1
60
0
100
AcDbLine
10
367.65725
20
8.316532
30
0
11
367.65725
21
7.510882
31
0
39
0
210
0
220
0
230
1
0
LINE
5
83
100
AcDbEntity
8
1
62
256
6
ByLayer
370
18
48
1
60
0
100
AcDbLine
10
367.65725
20
-7.510882
30
0
11
367.65725
21
-8.316532
31
0
39
0
210
0
220
0
230
1
0
LINE
5
84
100
AcDbEntity
8
1
62
256
6
ByLayer
370
18
48
1
60
0
100
AcDbLine
10
368.325
20
7.545731
30
0
11
368.325
21
4.053252
31
0
39
0
210
0
220
0
230
1
0
LINE
5
85
100
AcDbEntity
8
1
62
256
6
ByLayer
370
18
48
1
60
0
100
AcDbLine
10
368.325
20
-4.053252
30
0
11
368.325
21
-7.545731
31
0
39
0
210
0
220
0
230
1
0
LINE
5
86
100
AcDbEntity
8
1
62
256
6
ByLayer
370
18
48
1
60
0
100
AcDbLine
10
367.65725
20
10.971937
30
0
11
367.65725
21
10.425673
31
0
39
0
210
0
220
0
230
1
0
LINE
5
87
100
AcDbEntity
8
1
62
256
6
ByLayer
370
18
48
1
60
0
100
AcDbLine
10
367.65725
20
-10.425673
30
0
11
367.65725
21
-10.971937
31
0
39
0
210
0
220
0
230
1
0
LINE
5
88
100
AcDbEntity
8
1
62
256
6
ByLayer
370
18
48
1
60
0
100
AcDbLine
10
368.325
20
10.344089
30
0
11
368.325
21
8.358632
31
0
39
0
210
0
220
0
230
1
0
LINE
5
89
100
AcDbEntity
8
1
62
256
6
ByLayer
370
18
48
1
60
0
100
AcDbLine
10
368.325
20
-8.358632
30
0
11
368.325
21
-10.344089
31
0
39
0
210
0
220
0
230
1
0
LINE
5
8A
100
AcDbEntity
8
1
62
256
6
ByLayer
370
18
48
1
60
0
100
AcDbLine
10
367.65725
20
12.926797
30
0
11
367.65725
21
12.509035
31
0
39
0
210
0
220
0
230
1
0
LINE
5
8B
100
AcDbEntity
8
1
62
256
6
ByLayer
370
18
48
1
60
0
100
AcDbLine
10
367.65725
20
-12.509035
30
0
11
367.65725
21
-12.926797
31
0
39
0
210
0
220
0
230
1
0
LINE
5
8C
100
AcDbEntity
8
1
62
256
6
ByLayer
370
18
48
1
60
0
100
AcDbLine
10
368.325
20
12.351611
30
0
11
368.325
21
10.899753
31
0
39
0
210
0
220
0
230
1
0
LINE
5
8D
100
AcDbEntity
8
1
62
256
6
ByLayer
370
18
48
1
60
0
100
AcDbLine
10
368.325
20
-10.899753
30
0
11
368.325
21
-12.351611
31
0
39
0
210
0
220
0
230
1
0
LINE
5
8E
100
AcDbEntity
8
1
62
256
6
ByLayer
370
18
48
1
60
0
100
AcDbLine
10
367.65725
20
14.467923
30
0
11
367.65725
21
14.133551
31
0
39
0
210
0
220
0
230
1
0
LINE
5
8F
100
AcDbEntity
8
1
62
256
6
ByLayer
370
18
48
1
60
0
100
AcDbLine
10
367.65725
20
-14.133551
30
0
11
367.65725
21
-14.467923
31
0
39
0
210
0
220
0
230
1
0
LINE
5
90
100
AcDbEntity
8
1
62
256
6
ByLayer
370
18
48
1
60
0
100
AcDbLine
10
368.325
20
-12.776639
30
0
11
368.325
21
-13.914899
31
0
39
0
210
0
220
0
230
1
0
LINE
5
91
100
AcDbEntity
8
1
62
256
6
ByLayer
370
18
48
1
60
0
100
AcDbLine
10
368.325
20
13.914899
30
0
11
368.325
21
12.776639
31
0
39
0
210
0
220
0
230
1
0
LINE
5
92
100
AcDbEntity
8
1
62
256
6
ByLayer
370
18
48
1
60
0
100
AcDbLine
10
367.65725
20
15.71749
30
0
11
367.65725
21
15.444694
31
0
39
0
210
0
220
0
230
1
0
LINE
5
93
100
AcDbEntity
8
1
62
256
6
ByLayer
370
18
48
1
60
0
100
AcDbLine
10
367.65725
20
-15.444694
30
0
11
367.65725
21
-15.71749
31
0
39
0
210
0
220
0
230
1
0
LINE
5
94
100
AcDbEntity
8
1
62
256
6
ByLayer
370
18
48
1
60
0
100
AcDbLine
10
368.325
20
15.171899
30
0
11
368.325
21
14.254136
31
0
39
0
210
0
220
0
230
1
0
LINE
5
95
100
AcDbEntity
8
1
62
256
6
ByLayer
370
18
48
1
60
0
100
AcDbLine
10
368.325
20
-14.254136
30
0
11
368.325
21
-15.171899
31
0
39
0
210
0
220
0
230
1
0
LINE
5
96
100
AcDbEntity
8
1
62
256
6
ByLayer
370
18
48
1
60
0
100
AcDbLine
10
367.65725
20
16.740913
30
0
11
367.65725
21
16.51726
31
0
39
0
210
0
220
0
230
1
0
LINE
5
97
100
AcDbEntity
8
1
62
256
6
ByLayer
370
18
48
1
60
0
100
AcDbLine
10
367.65725
20
-16.51726
30
0
11
367.65725
21
-16.740913
31
0
39
0
210
0
220
0
230
1
0
LINE
5
98
100
AcDbEntity
8
1
62
256
6
ByLayer
370
18
48
1
60
0
100
AcDbLine
10
368.325
20
-15.447274
30
0
11
368.325
21
-16.194093
31
0
39
0
210
0
220
0
230
1
0
LINE
5
99
100
AcDbEntity
8
1
62
256
6
ByLayer
370
18
48
1
60
0
100
AcDbLine
10
368.325
20
16.194093
30
0
11
368.325
21
15.447274
31
0
39
0
210
0
220
0
230
1
0
LINE
5
9A
100
AcDbEntity
8
1
62
256
6
ByLayer
370
18
48
1
60
0
100
AcDbLine
10
367.65725
20
17.577738
30
0
11
367.65725
21
17.395436
31
0
39
0
210
0
220
0
230
1
0
LINE
5
9B
100
AcDbEntity
8
1
62
256
6
ByLayer
370
18
48
1
60
0
100
AcDbLine
10
367.65725
20
-17.395436
30
0
11
367.65725
21
-17.577738
31
0
39
0
210
0
220
0
230
1
0
LINE
5
9C
100
AcDbEntity
8
1
62
256
6
ByLayer
370
18
48
1
60
0
100
AcDbLine
10
368.325
20
-16.418165
30
0
11
368.325
21
-17.023829
31
0
39
0
210
0
220
0
230
1
0
LINE
5
9D
100
AcDbEntity
8
1
62
256
6
ByLayer
370
18
48
1
60
0
100
AcDbLine
10
368.325
20
17.023829
30
0
11
368.325
21
16.418165
31
0
39
0
210
0
220
0
230
1
0
LINE
5
9E
100
AcDbEntity
8
1
62
256
6
ByLayer
370
18
48
1
60
0
100
AcDbLine
10
367.65725
20
18.253645
30
0
11
367.65725
21
18.107526
31
0
39
0
210
0
220
0
230
1
0
LINE
5
9F
100
AcDbEntity
8
1
62
256
6
ByLayer
370
18
48
1
60
0
100
AcDbLine
10
367.65725
20
-18.107526
30
0
11
367.65725
21
-18.253645
31
0
39
0
210
0
220
0
230
1
0
LINE
5
A0
100
AcDbEntity
8
1
62
256
6
ByLayer
370
18
48
1
60
0
100
AcDbLine
10
368.325
20
-17.204477
30
0
11
368.325
21
-17.688213
31
0
39
0
210
0
220
0
230
1
0
LINE
5
A1
100
AcDbEntity
8
1
62
256
6
ByLayer
370
18
48
1
60
0
100
AcDbLine
10
368.325
20
17.688213
30
0
11
368.325
21
17.204477
31
0
39
0
210
0
220
0
230
1
0
LINE
5
A2
100
AcDbEntity
8
1
62
256
6
ByLayer
370
18
48
1
60
0
100
AcDbLine
10
367.65725
20
18.786012
30
0
11
367.65725
21
18.672541
31
0
39
0
210
0
220
0
230
1
0
LINE
5
A3
100
AcDbEntity
8
1
62
256
6
ByLayer
370
18
48
1
60
0
100
AcDbLine
10
367.65725
20
-18.672541
30
0
11
367.65725
21
-18.786012
31
0
39
0
210
0
220
0
230
1
0
LINE
5
A4
100
AcDbEntity
8
1
62
256
6
ByLayer
370
18
48
1
60
0
100
AcDbLine
10
368.325
20
18.205356
30
0
11
368.325
21
17.830645
31
0
39
0
210
0
220
0
230
1
0
LINE
5
A5
100
AcDbEntity
8
1
62
256
6
ByLayer
370
18
48
1
60
0
100
AcDbLine
10
368.325
20
-17.830645
30
0
11
368.325
21
-18.205356
31
0
39
0
210
0
220
0
230
1
0
LINE
5
A6
100
AcDbEntity
8
1
62
256
6
ByLayer
370
18
48
1
60
0
100
AcDbLine
10
367.65725
20
19.186791
30
0
11
367.65725
21
19.103536
31
0
39
0
210
0
220
0
230
1
0
LINE
5
A7
100
AcDbEntity
8
1
62
256
6
ByLayer
370
18
48
1
60
0
100
AcDbLine
10
367.65725
20
-19.103536
30
0
11
367.65725
21
-19.186791
31
0
39
0
210
0
220
0
230
1
0
LINE
5
A8
100
AcDbEntity
8
1
62
256
6
ByLayer
370
18
48
1
60
0
100
AcDbLine
10
368.325
20
-18.313105
30
0
11
368.325
21
-18.587552
31
0
39
0
210
0
220
0
230
1
0
LINE
5
A9
100
AcDbEntity
8
1
62
256
6
ByLayer
370
18
48
1
60
0
100
AcDbLine
10
368.325
20
18.587552
30
0
11
368.325
21
18.313105
31
0
39
0
210
0
220
0
230
1
0
LINE
5
AA
100
AcDbEntity
8
1
62
256
6
ByLayer
370
18
48
1
60
0
100
AcDbLine
10
367.65725
20
-19.409441
30
0
11
367.65725
21
-19.464112
31
0
39
0
210
0
220
0
230
1
0
LINE
5
AB
100
AcDbEntity
8
1
62
256
6
ByLayer
370
18
48
1
60
0
100
AcDbLine
10
367.65725
20
19.464112
30
0
11
367.65725
21
19.409441
31
0
39
0
210
0
220
0
230
1
0
LINE
5
AC
100
AcDbEntity
8
1
62
256
6
ByLayer
370
18
48
1
60
0
100
AcDbLine
10
368.325
20
-18.663003
30
0
11
368.325
21
-18.843015
31
0
39
0
210
0
220
0
230
1
0
LINE
5
AD
100
AcDbEntity
8
1
62
256
6
ByLayer
370
18
48
1
60
0
100
AcDbLine
10
368.325
20
18.843015
30
0
11
368.325
21
18.663003
31
0
39
0
210
0
220
0
230
1
0
LINE
5
AE
100
AcDbEntity
8
1
62
256
6
ByLayer
370
18
48
1
60
0
100
AcDbLine
10
367.65725
20
-19.596115
30
0
11
367.65725
21
-19.623209
31
0
39
0
210
0
220
0
230
1
0
LINE
5
AF
100
AcDbEntity
8
1
62
256
6
ByLayer
370
18
48
1
60
0
100
AcDbLine
10
367.65725
20
19.623209
30
0
11
367.65725
21
19.596115
31
0
39
0
210
0
220
0
230
1
0
LINE
5
B0
100
AcDbEntity
8
1
62
256
6
ByLayer
370
18
48
1
60
0
100
AcDbLine
10
368.325
20
-18.887709
30
0
11
368.325
21
-18.976863
31
0
39
0
210
0
220
0
230
1
0
LINE
5
B1
100
AcDbEntity
8
1
62
256
6
ByLayer
370
18
48
1
60
0
100
AcDbLine
10
368.325
20
18.976863
30
0
11
368.325
21
18.887709
31
0
39
0
210
0
220
0
230
1
0
LINE
5
B2
100
AcDbEntity
8
1
62
256
6
ByLayer
370
18
48
1
60
0
100
AcDbLine
10
365.7
20
20
30
0
11
0
21
20
31
0
39
0
210
0
220
0
230
1
0
LINE
5
B3
100
AcDbEntity
8
SK1
62
256
6
ByLayer
370
18
48
1
60
0
100
AcDbLine
10
-159
20
-20
30
0
11
0
21
-20
31
0
39
0
210
0
220
0
230
1
0
LINE
5
B4
100
AcDbEntity
8
SK1
62
256
6
ByLayer
370
18
48
1
60
0
100
AcDbLine
10
-159
20
20
30
0
11
-160
21
19
31
0
39
0
210
0
220
0
230
1
0
LINE
5
B5
100
AcDbEntity
8
SK1
62
256
6
ByLayer
370
18
48
1
60
0
100
AcDbLine
10
-160
20
-19
30
0
11
-159
21
-20
31
0
39
0
210
0
220
0
230
1
0
LINE
5
B6
100
AcDbEntity
8
SK1
62
256
6
ByLayer
370
18
48
1
60
0
100
AcDbLine
10
378.325
20
-4.899495
30
0
11
372.325
21
-4.899495
31
0
39
0
210
0
220
0
230
1
0
LINE
5
B7
100
AcDbEntity
8
SK1
62
256
6
ByLayer
370
18
48
1
60
0
100
AcDbLine
10
372.325
20
-14.899495
30
0
11
378.325
21
-14.899495
31
0
39
0
210
0
220
0
230
1
0
LINE
5
B8
100
AcDbEntity
8
SK1
62
256
6
ByLayer
370
18
48
1
60
0
100
AcDbLine
10
372.325
20
-6.899495
30
0
11
368.325
21
-6.899495
31
0
39
0
210
0
220
0
230
1
0
LINE
5
B9
100
AcDbEntity
8
SK1
62
256
6
ByLayer
370
18
48
1
60
0
100
AcDbLine
10
368.325
20
-12.899495
30
0
11
372.325
21
-12.899495
31
0
39
0
210
0
220
0
230
1
0
LINE
5
BA
100
AcDbEntity
8
SK1
62
256
6
ByLayer
370
18
48
1
60
0
100
AcDbLine
10
378.325
20
14.899495
30
0
11
378.325
21
9.899495
31
0
39
0
210
0
220
0
230
1
0
LINE
5
BB
100
AcDbEntity
8
SK1
62
256
6
ByLayer
370
18
48
1
60
0
100
AcDbLine
10
372.325
20
14.899495
30
0
11
372.325
21
9.899495
31
0
39
0
210
0
220
0
230
1
0
LINE
5
BC
100
AcDbEntity
8
SK1
62
256
6
ByLayer
370
18
48
1
60
0
100
AcDbLine
10
372.325
20
9.899495
30
0
11
372.325
21
4.899495
31
0
39
0
210
0
220
0
230
1
0
LINE
5
BD
100
AcDbEntity
8
SK1
62
256
6
ByLayer
370
18
48
1
60
0
100
AcDbLine
10
378.325
20
9.899495
30
0
11
378.325
21
4.899495
31
0
39
0
210
0
220
0
230
1
0
LINE
5
BE
100
AcDbEntity
8
1
62
256
6
ByLayer
370
18
48
1
60
0
100
AcDbLine
10
367.325
20
20
30
0
11
367.325
21
-20
31
0
39
0
210
0
220
0
230
1
0
LINE
5
BF
100
AcDbEntity
8
1
62
256
6
ByLayer
370
18
48
1
60
0
100
AcDbLine
10
366.3
20
20
30
0
11
366.3
21
0
31
0
39
0
210
0
220
0
230
1
0
LINE
5
C0
100
AcDbEntity
8
1
62
256
6
ByLayer
370
18
48
1
60
0
100
AcDbLine
10
366.3
20
0
30
0
11
366.3
21
-20
31
0
39
0
210
0
220
0
230
1
0
LINE
5
C1
100
AcDbEntity
8
1
62
256
6
ByLayer
370
18
48
1
60
0
100
AcDbLine
10
368.325
20
18.991668
30
0
11
368.325
21
18.976863
31
0
39
0
210
0
220
0
230
1
0
LINE
5
C2
100
AcDbEntity
8
1
62
256
6
ByLayer
370
18
48
1
60
0
100
AcDbLine
10
368.325
20
18.887709
30
0
11
368.325
21
18.843015
31
0
39
0
210
0
220
0
230
1
0
LINE
5
C3
100
AcDbEntity
8
1
62
256
6
ByLayer
370
18
48
1
60
0
100
AcDbLine
10
368.325
20
18.663003
30
0
11
368.325
21
18.587552
31
0
39
0
210
0
220
0
230
1
0
LINE
5
C4
100
AcDbEntity
8
1
62
256
6
ByLayer
370
18
48
1
60
0
100
AcDbLine
10
368.325
20
18.313105
30
0
11
368.325
21
18.205356
31
0
39
0
210
0
220
0
230
1
0
LINE
5
C5
100
AcDbEntity
8
1
62
256
6
ByLayer
370
18
48
1
60
0
100
AcDbLine
10
368.325
20
17.830645
30
0
11
368.325
21
17.688213
31
0
39
0
210
0
220
0
230
1
0
LINE
5
C6
100
AcDbEntity
8
1
62
256
6
ByLayer
370
18
48
1
60
0
100
AcDbLine
10
368.325
20
17.204477
30
0
11
368.325
21
17.023829
31
0
39
0
210
0
220
0
230
1
0
LINE
5
C7
100
AcDbEntity
8
1
62
256
6
ByLayer
370
18
48
1
60
0
100
AcDbLine
10
368.325
20
16.418165
30
0
11
368.325
21
16.194093
31
0
39
0
210
0
220
0
230
1
0
LINE
5
C8
100
AcDbEntity
8
1
62
256
6
ByLayer
370
18
48
1
60
0
100
AcDbLine
10
368.325
20
15.447274
30
0
11
368.325
21
15.171899
31
0
39
0
210
0
220
0
230
1
0
LINE
5
C9
100
AcDbEntity
8
1
62
256
6
ByLayer
370
18
48
1
60
0
100
AcDbLine
10
368.325
20
14.254136
30
0
11
368.325
21
13.914899
31
0
39
0
210
0
220
0
230
1
0
LINE
5
CA
100
AcDbEntity
8
1
62
256
6
ByLayer
370
18
48
1
60
0
100
AcDbLine
10
368.325
20
12.776639
30
0
11
368.325
21
12.351611
31
0
39
0
210
0
220
0
230
1
0
LINE
5
CB
100
AcDbEntity
8
1
62
256
6
ByLayer
370
18
48
1
60
0
100
AcDbLine
10
368.325
20
10.899753
30
0
11
368.325
21
10.344089
31
0
39
0
210
0
220
0
230
1
0
LINE
5
CC
100
AcDbEntity
8
1
62
256
6
ByLayer
370
18
48
1
60
0
100
AcDbLine
10
368.325
20
8.358632
30
0
11
368.325
21
7.545731
31
0
39
0
210
0
220
0
230
1
0
LINE
5
CD
100
AcDbEntity
8
1
62
256
6
ByLayer
370
18
48
1
60
0
100
AcDbLine
10
368.325
20
4.053252
30
0
11
368.325
21
1.541407
31
0
39
0
210
0
220
0
230
1
0
LINE
5
CE
100
AcDbEntity
8
1
62
256
6
ByLayer
370
18
48
1
60
0
100
AcDbLine
10
368.325
20
-1.541407
30
0
11
368.325
21
-4.053252
31
0
39
0
210
0
220
0
230
1
0
LINE
5
CF
100
AcDbEntity
8
1
62
256
6
ByLayer
370
18
48
1
60
0
100
AcDbLine
10
368.325
20
-7.545731
30
0
11
368.325
21
-8.358632
31
0
39
0
210
0
220
0
230
1
0
LINE
5
D0
100
AcDbEntity
8
1
62
256
6
ByLayer
370
18
48
1
60
0
100
AcDbLine
10
368.325
20
-10.344089
30
0
11
368.325
21
-10.899753
31
0
39
0
210
0
220
0
230
1
0
LINE
5
D1
100
AcDbEntity
8
1
62
256
6
ByLayer
370
18
48
1
60
0
100
AcDbLine
10
368.325
20
-12.351611
30
0
11
368.325
21
-12.776639
31
0
39
0
210
0
220
0
230
1
0
LINE
5
D2
100
AcDbEntity
8
1
62
256
6
ByLayer
370
18
48
1
60
0
100
AcDbLine
10
368.325
20
-13.914899
30
0
11
368.325
21
-14.254136
31
0
39
0
210
0
220
0
230
1
0
LINE
5
D3
100
AcDbEntity
8
1
62
256
6
ByLayer
370
18
48
1
60
0
100
AcDbLine
10
368.325
20
-15.171899
30
0
11
368.325
21
-15.447274
31
0
39
0
210
0
220
0
230
1
0
LINE
5
D4
100
AcDbEntity
8
1
62
256
6
ByLayer
370
18
48
1
60
0
100
AcDbLine
10
368.325
20
-16.194093
30
0
11
368.325
21
-16.418165
31
0
39
0
210
0
220
0
230
1
0
LINE
5
D5
100
AcDbEntity
8
1
62
256
6
ByLayer
370
18
48
1
60
0
100
AcDbLine
10
368.325
20
-17.023829
30
0
11
368.325
21
-17.204477
31
0
39
0
210
0
220
0
230
1
0
LINE
5
D6
100
AcDbEntity
8
1
62
256
6
ByLayer
370
18
48
1
60
0
100
AcDbLine
10
368.325
20
-17.688213
30
0
11
368.325
21
-17.830645
31
0
39
0
210
0
220
0
230
1
0
LINE
5
D7
100
AcDbEntity
8
1
62
256
6
ByLayer
370
18
48
1
60
0
100
AcDbLine
10
368.325
20
-18.205356
30
0
11
368.325
21
-18.313105
31
0
39
0
210
0
220
0
230
1
0
LINE
5
D8
100
AcDbEntity
8
1
62
256
6
ByLayer
370
18
48
1
60
0
100
AcDbLine
10
368.325
20
-18.587552
30
0
11
368.325
21
-18.663003
31
0
39
0
210
0
220
0
230
1
0
LINE
5
D9
100
AcDbEntity
8
1
62
256
6
ByLayer
370
18
48
1
60
0
100
AcDbLine
10
368.325
20
-18.843015
30
0
11
368.325
21
-18.887709
31
0
39
0
210
0
220
0
230
1
0
LINE
5
DA
100
AcDbEntity
8
1
62
256
6
ByLayer
370
18
48
1
60
0
100
AcDbLine
10
368.325
20
-18.976863
30
0
11
368.325
21
-18.991668
31
0
39
0
210
0
220
0
230
1
0
LINE
5
DB
100
AcDbEntity
8
1
62
256
6
ByLayer
370
18
48
1
60
0
100
AcDbLine
10
366
20
-19.7
30
0
11
366
21
0
31
0
39
0
210
0
220
0
230
1
0
LINE
5
DC
100
AcDbEntity
8
1
62
256
6
ByLayer
370
18
48
1
60
0
100
AcDbLine
10
366
20
0
30
0
11
366
21
19.7
31
0
39
0
210
0
220
0
230
1
0
LINE
5
DD
100
AcDbEntity
8
SK1
62
256
6
ByLayer
370
18
48
1
60
0
100
AcDbLine
10
-159
20
20
30
0
11
-159
21
-20
31
0
39
0
210
0
220
0
230
1
0
LINE
5
DE
100
AcDbEntity
8
1
62
256
6
ByLayer
370
18
48
1
60
0
100
AcDbLine
10
365.7
20
-20
30
0
11
365.7
21
0
31
0
39
0
210
0
220
0
230
1
0
LINE
5
DF
100
AcDbEntity
8
1
62
256
6
ByLayer
370
18
48
1
60
0
100
AcDbLine
10
365.7
20
0
30
0
11
365.7
21
20
31
0
39
0
210
0
220
0
230
1
0
LINE
5
E0
100
AcDbEntity
8
SK1
62
256
6
ByLayer
370
18
48
1
60
0
100
AcDbLine
10
-160
20
19
30
0
11
-160
21
-19
31
0
39
0
210
0
220
0
230
1
0
LINE
5
E1
100
AcDbEntity
8
1
62
256
6
ByLayer
370
18
48
1
60
0
100
AcDbLine
10
366
20
19.7
30
0
11
366
21
0
31
0
39
0
210
0
220
0
230
1
0
LINE
5
E2
100
AcDbEntity
8
1
62
256
6
ByLayer
370
18
48
1
60
0
100
AcDbLine
10
366
20
0
30
0
11
366
21
-19.7
31
0
39
0
210
0
220
0
230
1
0
LINE
5
E3
100
AcDbEntity
8
SK1
62
256
6
ByLayer
370
18
48
1
60
0
100
AcDbLine
10
378.325
20
-4.899495
30
0
11
378.325
21
-9.899495
31
0
39
0
210
0
220
0
230
1
0
LINE
5
E4
100
AcDbEntity
8
SK1
62
256
6
ByLayer
370
18
48
1
60
0
100
AcDbLine
10
372.325
20
-4.899495
30
0
11
372.325
21
-9.899495
31
0
39
0
210
0
220
0
230
1
0
LINE
5
E5
100
AcDbEntity
8
SK1
62
256
6
ByLayer
370
18
48
1
60
0
100
AcDbLine
10
372.325
20
-9.899495
30
0
11
372.325
21
-14.899495
31
0
39
0
210
0
220
0
230
1
0
LINE
5
E6
100
AcDbEntity
8
SK1
62
256
6
ByLayer
370
18
48
1
60
0
100
AcDbLine
10
378.325
20
-9.899495
30
0
11
378.325
21
-14.899495
31
0
39
0
210
0
220
0
230
1
0
LINE
5
E7
100
AcDbEntity
8
SK1
62
256
6
ByLayer
370
18
48
1
60
0
100
AcDbLine
10
0
20
20
30
0
11
-159
21
20
31
0
39
0
210
0
220
0
230
1
0
LINE
5
E8
100
AcDbEntity
8
1
62
256
6
ByLayer
370
18
48
1
60
0
100
AcDbLine
10
0
20
-20
30
0
11
365.7
21
-20
31
0
39
0
210
0
220
0
230
1
0
MTEXT
5
157
100
AcDbEntity
8
SK6
62
256
6
ByLayer
370
13
48
1
60
0
100
AcDbMText
10
-147.068263
20
63.931286
30
0
210
0
220
0
230
1
1
\W0.7278;570-3C 40 528
40
3.175
41
0
44
1.084337
50
0
71
7
72
5
7
iso_b_vert
0
DIMENSION
5
165
100
AcDbEntity
8
2
62
256
6
ByLayer
370
13
48
1
60
0
100
AcDbDimension
2
DimnDraft3D1
10
368
20
31.169149
30
0
11
180.916908
21
31.169149
31
0
70
32
71
5
72
1
41
1
210
0
220
0
230
1
3
Standard
100
AcDbAlignedDimension
13
0
23
1.5875
33
0
14
368
24
1.5875
34
0
50
0
100
AcDbRotatedDimension
1001
ACAD
1000
DSTYLE
1002
{
1070
   279
1070
     0
1070
   173
1070
     1
1070
   340
1005
158
1070
   271
1070
     1
1070
   272
1070
     2
1070
    77
1070
     1
1070
    73
1070
     0
1070
   171
1070
     3
1070
   274
1070
     4
1070
   177
1070
     7
1070
   176
1070
     7
1070
   178
1070
     7
1070
    78
1070
     8
1070
    48
1040
-0.005
1070
    41
1041
3.175
1070
   147
1041
1.5875
1070
    42
1041
1.5875
1070
    44
1041
3.175
1070
   140
1041
3.175
1070
   343
1005
0
1070
   344
1005
0
1002
}
0
DIMENSION
5
17B
100
AcDbEntity
8
SK2
62
256
6
ByLayer
370
13
48
1
60
0
100
AcDbDimension
2
DimnDraft3D3
10
-173.48489
20
-20
30
0
11
-173.48489
21
-6.82625
31
0
70
32
71
5
72
1
41
1
210
0
220
0
230
1
3
Standard
100
AcDbAlignedDimension
13
-160.5875
23
20
33
0
14
-160.5875
24
-20
34
0
50
90
100
AcDbRotatedDimension
1001
ACAD
1000
DSTYLE
1002
{
1070
    74
1070
     0
1070
   279
1070
     0
1070
   173
1070
     1
1070
   340
1005
158
1070
   271
1070
     1
1070
   272
1070
     2
1070
    77
1070
     1
1070
    73
1070
     0
1070
   171
1070
     3
1070
   274
1070
     4
1070
   177
1070
     7
1070
   176
1070
     7
1070
   178
1070
     7
1070
    78
1070
     8
1070
    48
1040
-0.005
1070
    41
1041
3.175
1070
   147
1041
1.5875
1070
    42
1041
1.5875
1070
    44
1041
3.175
1070
   140
1041
3.175
1070
   343
1005
0
1070
   344
1005
0
1002
}
0
ENDSEC
0
SECTION
2
OBJECTS
0
DICTIONARY
5
1e6
330
0
100
AcDbDictionary
280
0
281
1
3
ACAD_GROUP
350
1e7
3
ACAD_MLINESTYLE
350
1e8
0
DICTIONARY
5
1e7
330
0
100
AcDbDictionary
280
0
281
1
0
DICTIONARY
5
1e8
330
0
100
AcDbDictionary
280
0
281
1
3
Standard
350
18
0
MLINESTYLE
5
18
330
1e8
100
AcDbMlineStyle
2
Standard
70
0
3

62
256
51
90
52
90
71
2
49
-0.5
62
256
6
ByLayer
49
0.5
62
256
6
ByLayer
0
RASTERVARIABLES
5
1d4
330

100
AcDbRasterVariables
90
0
70
1
71
1
72
1
0
ENDSEC
0
EOF
