0
SECTION
2
HEADER
9
$ACADVER
1
AC1015
9
$DWGCODEPAGE
3
ANSI_1252
9
$HANDSEED
5
1f5
9
$ANGBASE
50
0
9
$ANGDIR
70
0
9
$ATTMODE
70
1
9
$AUNITS
70
0
9
$AUPREC
70
0
9
$CECOLOR
62
256
9
$CELTSCALE
40
1
9
$CELTYPE
6
ByLayer
9
$CELWEIGHT
370
18
9
$CLAYER
8
0
9
$CMLJUST
70
0
9
$CMLSCALE
40
1
9
$CMLSTYLE
2
Standard
9
$DIMSTYLE
2
Standard
9
$TEXTSIZE
40
0.2
9
$TEXTSTYLE
7
Standard
9
$LUNITS
70
2
9
$LUPREC
70
4
9
$EXTNAMES
290
1
9
$INSUNITS
70
4
9
$LTSCALE
40
1
9
$LWDISPLAY
290
1
9
$PDMODE
70
0
9
$PDSIZE
40
0
9
$PLINEGEN
70
0
0
ENDSEC
0
SECTION
2
CLASSES
0
CLASS
1
RASTERVARIABLES
2
AcDbRasterVariables
3
ISM
90
0
280
0
281
0
0
ENDSEC
0
SECTION
2
TABLES
0
TABLE
2
VPORT
5
1eb
100
AcDbSymbolTable
0
VPORT
5
1
100
AcDbSymbolTableRecord
100
AcDbViewportTableRecord
2
*Active
70
0
10
0
20
0
11
1
21
1
12
-1
22
1
13
0
23
0
14
0.5
24
0.5
15
10
25
10
16
0
26
0
36
1
17
0
27
0
37
0
0
ENDTAB
0
TABLE
2
LTYPE
5
1ec
100
AcDbSymbolTable
0
LTYPE
5
14
100
AcDbSymbolTableRecord
100
AcDbLinetypeTableRecord
70
0
2
ByBlock
3

72
65
73
0
40
0
0
LTYPE
5
15
100
AcDbSymbolTableRecord
100
AcDbLinetypeTableRecord
70
0
2
ByLayer
3

72
65
73
0
40
0
0
LTYPE
5
16
100
AcDbSymbolTableRecord
100
AcDbLinetypeTableRecord
70
0
2
CONTINUOUS
3
Solid line
72
65
73
0
40
0
0
LTYPE
5
6A
100
AcDbSymbolTableRecord
100
AcDbLinetypeTableRecord
70
0
2
CENTER
3
____ _ ____ _ ____ _ ____
72
65
73
4
40
47.5
49
22
74
0
49
-8.5
74
0
49
8.5
74
0
49
-8.5
74
0
0
LTYPE
5
6B
100
AcDbSymbolTableRecord
100
AcDbLinetypeTableRecord
70
0
2
DASHED
3
__ __ __ __ __ __ __ __ __
72
65
73
2
40
25.72
49
12.86
74
0
49
-12.86
74
0
0
ENDTAB
0
TABLE
2
LAYER
5
1ed
100
AcDbSymbolTable
0
LAYER
5
10
100
AcDbSymbolTableRecord
100
AcDbLayerTableRecord
2
0
70
0
62
7
6
CONTINUOUS
290
1
370
-3
390
0
0
LAYER
5
6D
100
AcDbSymbolTableRecord
100
AcDbLayerTableRecord
2
80
70
0
62
-6
6
CONTINUOUS
290
1
370
-3
390
0
0
LAYER
5
6F
100
AcDbSymbolTableRecord
100
AcDbLayerTableRecord
2
81
70
0
62
-3
6
CONTINUOUS
290
1
370
-3
390
0
0
LAYER
5
72
100
AcDbSymbolTableRecord
100
AcDbLayerTableRecord
2
4
70
0
62
-2
6
CENTER
290
1
370
-3
390
0
0
LAYER
5
77
100
AcDbSymbolTableRecord
100
AcDbLayerTableRecord
2
1
70
0
62
4
6
CONTINUOUS
290
1
370
-3
390
0
0
LAYER
5
15F
100
AcDbSymbolTableRecord
100
AcDbLayerTableRecord
2
2
70
0
62
7
6
CONTINUOUS
290
1
370
-3
390
0
0
LAYER
5
1d7
100
AcDbSymbolTableRecord
100
AcDbLayerTableRecord
2
SK4
70
0
62
2
6
CENTER
290
1
370
-3
390
0
0
LAYER
5
1d8
100
AcDbSymbolTableRecord
100
AcDbLayerTableRecord
2
SK1
70
0
62
4
6
CONTINUOUS
290
1
370
-3
390
0
0
LAYER
5
1d9
100
AcDbSymbolTableRecord
100
AcDbLayerTableRecord
2
SK6
70
0
62
5
6
CONTINUOUS
290
1
370
-3
390
0
0
LAYER
5
1da
100
AcDbSymbolTableRecord
100
AcDbLayerTableRecord
2
SK2
70
0
62
7
6
CONTINUOUS
290
1
370
-3
390
0
0
ENDTAB
0
TABLE
2
STYLE
5
1ee
100
AcDbSymbolTable
0
STYLE
5
11
100
AcDbSymbolTableRecord
100
AcDbTextStyleTableRecord
2
Standard
3
txt
70
0
71
0
40
0
41
1
42
0
50
0
0
STYLE
5
15A
100
AcDbSymbolTableRecord
100
AcDbTextStyleTableRecord
2
iso_b_vert
3
simplex.shx
70
0
71
0
40
0
41
1
42
0
50
0
0
STYLE
5
15B
100
AcDbSymbolTableRecord
100
AcDbTextStyleTableRecord
2
DWGDirectTextStyle
3
simplex
70
0
71
0
40
0
41
1
42
0
50
0
0
ENDTAB
0
TABLE
2
DIMSTYLE
5
1ef
100
AcDbSymbolTable
100
AcDbDimStyleTable
0
DIMSTYLE
105
27
100
AcDbSymbolTableRecord
100
AcDbDimStyleTableRecord
2
Standard
70
0
3
<>
41
0.18
42
0.0625
44
0.18
140
0.18
147
0.09
73
0
74
0
77
1
271
2
275
0
278
52
280
0
340
11
0
ENDTAB
0
TABLE
2
VIEW
5
1f0
100
AcDbSymbolTable
0
ENDTAB
0
TABLE
2
UCS
5
1f1
100
AcDbSymbolTable
0
ENDTAB
0
TABLE
2
APPID
5
1f2
100
AcDbSymbolTable
0
APPID
5
12
100
AcDbSymbolTableRecord
100
AcDbRegAppTableRecord
2
ACAD
70
0
0
ENDTAB
0
TABLE
2
BLOCK_RECORD
5
1f3
100
AcDbSymbolTable
0
BLOCK_RECORD
5
1F
100
AcDbSymbolTableRecord
100
AcDbBlockTableRecord
2
*Model_Space
340
0
70
0
0
BLOCK_RECORD
5
1B
100
AcDbSymbolTableRecord
100
AcDbBlockTableRecord
2
*Paper_Space
340
0
70
0
0
BLOCK_RECORD
5
23
100
AcDbSymbolTableRecord
100
AcDbBlockTableRecord
2
*Paper_Space0
340
0
70
0
0
BLOCK_RECORD
5
15D
100
AcDbSymbolTableRecord
100
AcDbBlockTableRecord
2
DimnDraft3D1
340
0
70
0
0
BLOCK_RECORD
5
168
100
AcDbSymbolTableRecord
100
AcDbBlockTableRecord
2
DimnDraft3D2
340
0
70
0
0
BLOCK_RECORD
5
173
100
AcDbSymbolTableRecord
100
AcDbBlockTableRecord
2
DimnDraft3D3
340
0
70
0
0
ENDTAB
0
ENDSEC
0
SECTION
2
BLOCKS
0
BLOCK
5
20
100
AcDbEntity
8
0
100
AcDbBlockBegin
2
*Model_Space
70
0
10
0
20
0
30
0
3
*Model_Space
0
ENDBLK
5
21
100
AcDbEntity
8
0
100
AcDbBlockEnd
0
BLOCK
5
1C
100
AcDbEntity
8
0
100
AcDbBlockBegin
2
*Paper_Space
70
0
10
0
20
0
30
0
3
*Paper_Space
0
ENDBLK
5
1D
100
AcDbEntity
8
0
100
AcDbBlockEnd
0
BLOCK
5
24
100
AcDbEntity
8
0
100
AcDbBlockBegin
2
*Paper_Space0
70
0
10
0
20
0
30
0
3
*Paper_Space0
0
ENDBLK
5
25
100
AcDbEntity
8
0
100
AcDbBlockEnd
0
BLOCK
5
165
100
AcDbEntity
8
0
100
AcDbBlockBegin
2
DimnDraft3D1
70
0
10
0
20
0
30
0
3
DimnDraft3D1
0
MTEXT
5
15E
100
AcDbEntity
8
2
62
256
6
ByLayer
370
13
48
1
60
0
100
AcDbMText
10
121.543553
20
33.04329
30
0
210
0
220
0
230
1
1
\W0.7541;248
40
3.175
41
0
44
1.084337
50
0
71
7
72
5
7
iso_b_vert
0
LINE
5
160
100
AcDbEntity
8
2
62
256
6
ByLayer
370
13
48
1
60
0
100
AcDbLine
10
0
20
1.5875
30
0
11
0
21
35.42454
31
0
39
0
210
0
220
0
230
1
0
LINE
5
161
100
AcDbEntity
8
2
62
256
6
ByLayer
370
13
48
1
60
0
100
AcDbLine
10
248
20
1.5875
30
0
11
248
21
35.42454
31
0
39
0
210
0
220
0
230
1
0
LINE
5
162
100
AcDbEntity
8
2
62
256
6
ByLayer
370
13
48
1
60
0
100
AcDbLine
10
0
20
32.24954
30
0
11
248
21
32.24954
31
0
39
0
210
0
220
0
230
1
0
SOLID
5
163
100
AcDbEntity
8
2
62
256
6
ByLayer
370
13
48
1
60
0
100
AcDbTrace
10
0
20
32.24954
30
0
11
3.174998
21
32.667536
31
0
12
3.175002
22
31.831543
32
0
13
0
23
32.24954
33
0
39
0
210
0
220
0
230
1
0
SOLID
5
164
100
AcDbEntity
8
2
62
256
6
ByLayer
370
13
48
1
60
0
100
AcDbTrace
10
248
20
32.24954
30
0
11
244.825002
21
31.831543
31
0
12
244.824998
22
32.667536
32
0
13
248
23
32.24954
33
0
39
0
210
0
220
0
230
1
0
ENDBLK
5
166
100
AcDbEntity
8
0
100
AcDbBlockEnd
0
BLOCK
5
170
100
AcDbEntity
8
0
100
AcDbBlockBegin
2
DimnDraft3D2
70
0
10
0
20
0
30
0
3
DimnDraft3D2
0
MTEXT
5
169
100
AcDbEntity
8
SK2
62
256
6
ByLayer
370
13
48
1
60
0
100
AcDbMText
10
41.543553
20
49.688682
30
0
210
0
220
0
230
1
1
\W0.7541;408
40
3.175
41
0
44
1.084337
50
0
71
7
72
5
7
iso_b_vert
0
LINE
5
16B
100
AcDbEntity
8
SK2
62
256
6
ByLayer
370
13
48
1
60
0
100
AcDbLine
10
-160
20
20.5875
30
0
11
-160
21
52.069932
31
0
39
0
210
0
220
0
230
1
0
LINE
5
16C
100
AcDbEntity
8
SK2
62
256
6
ByLayer
370
13
48
1
60
0
100
AcDbLine
10
248
20
1.5875
30
0
11
248
21
52.069932
31
0
39
0
210
0
220
0
230
1
0
LINE
5
16D
100
AcDbEntity
8
SK2
62
256
6
ByLayer
370
13
48
1
60
0
100
AcDbLine
10
-160
20
48.894932
30
0
11
248
21
48.894932
31
0
39
0
210
0
220
0
230
1
0
SOLID
5
16E
100
AcDbEntity
8
SK2
62
256
6
ByLayer
370
13
48
1
60
0
100
AcDbTrace
10
-160
20
48.894932
30
0
11
-156.825002
21
49.312928
31
0
12
-156.824998
22
48.476935
32
0
13
-160
23
48.894932
33
0
39
0
210
0
220
0
230
1
0
SOLID
5
16F
100
AcDbEntity
8
SK2
62
256
6
ByLayer
370
13
48
1
60
0
100
AcDbTrace
10
248
20
48.894932
30
0
11
244.825002
21
48.476935
31
0
12
244.824998
22
49.312928
32
0
13
248
23
48.894932
33
0
39
0
210
0
220
0
230
1
0
ENDBLK
5
171
100
AcDbEntity
8
0
100
AcDbBlockEnd
0
BLOCK
5
17B
100
AcDbEntity
8
0
100
AcDbBlockBegin
2
DimnDraft3D3
70
0
10
0
20
0
30
0
3
DimnDraft3D3
0
MTEXT
5
174
100
AcDbEntity
8
SK2
62
256
6
ByLayer
370
13
48
1
60
0
100
AcDbMText
10
-180.808531
20
-4.420195
30
0
210
0
220
0
230
1
1
%%c
40
3.175
41
0
44
1.084337
50
90
71
7
72
5
7
iso_b_vert
0
MTEXT
5
175
100
AcDbEntity
8
SK2
62
256
6
ByLayer
370
13
48
1
60
0
100
AcDbMText
10
-180.808531
20
3.4925
30
0
210
0
220
0
230
1
1
\W0.7361;40
40
3.175
41
0
44
1.084337
50
90
71
7
72
5
7
iso_b_vert
0
LINE
5
176
100
AcDbEntity
8
SK2
62
256
6
ByLayer
370
13
48
1
60
0
100
AcDbLine
10
-160.5875
20
20
30
0
11
-182.396031
21
20
31
0
39
0
210
0
220
0
230
1
0
LINE
5
177
100
AcDbEntity
8
SK2
62
256
6
ByLayer
370
13
48
1
60
0
100
AcDbLine
10
-160.5875
20
-20
30
0
11
-182.396031
21
-20
31
0
39
0
210
0
220
0
230
1
0
LINE
5
178
100
AcDbEntity
8
SK2
62
256
6
ByLayer
370
13
48
1
60
0
100
AcDbLine
10
-179.221031
20
20
30
0
11
-179.221031
21
-20
31
0
39
0
210
0
220
0
230
1
0
SOLID
5
179
100
AcDbEntity
8
SK2
62
256
6
ByLayer
370
13
48
1
60
0
100
AcDbTrace
10
-179.221031
20
20
30
0
11
-178.803034
21
16.825002
31
0
12
-179.639027
22
16.824998
32
0
13
-179.221031
23
20
33
0
39
0
210
0
220
0
230
1
0
SOLID
5
17A
100
AcDbEntity
8
SK2
62
256
6
ByLayer
370
13
48
1
60
0
100
AcDbTrace
10
-179.221031
20
-20
30
0
11
-179.639027
21
-16.825002
31
0
12
-178.803034
22
-16.824998
32
0
13
-179.221031
23
-20
33
0
39
0
210
0
220
0
230
1
0
ENDBLK
5
17C
100
AcDbEntity
8
0
100
AcDbBlockEnd
0
ENDSEC
0
SECTION
2
ENTITIES
0
ARC
5
EA
100
AcDbEntity
8
1
62
256
6
ByLayer
370
18
48
1
60
0
100
AcDbCircle
39
0
10
246.3
20
19.7
30
0
40
0.3
210
0
220
0
230
1
100
AcDbArc
50
90
51
180
0
ARC
5
EB
100
AcDbEntity
8
1
62
256
6
ByLayer
370
18
48
1
60
0
100
AcDbCircle
39
0
10
246.3
20
-19.7
30
0
40
0.3
210
0
220
0
230
1
100
AcDbArc
50
180
51
270
0
ARC
5
EC
100
AcDbEntity
8
1
62
256
6
ByLayer
370
18
48
1
60
0
100
AcDbCircle
39
0
10
245.7
20
-19.7
30
0
40
0.3
210
0
220
0
230
1
100
AcDbArc
50
270
51
0
0
ARC
5
ED
100
AcDbEntity
8
1
62
256
6
ByLayer
370
18
48
1
60
0
100
AcDbCircle
39
0
10
245.7
20
19.7
30
0
40
0.3
210
0
220
0
230
1
100
AcDbArc
50
0
51
90
0
CIRCLE
5
E9
100
AcDbEntity
8
1
62
256
6
ByLayer
370
18
48
1
60
0
100
AcDbCircle
10
240
20
0
30
0
40
1
39
0
210
0
220
0
230
1
0
POINT
5
6C
100
AcDbEntity
8
80
62
256
6
ByLayer
370
18
48
1
60
0
100
AcDbPoint
10
0
20
0
30
0
39
0
210
0
220
0
230
1
50
360
0
POINT
5
6E
100
AcDbEntity
8
81
62
256
6
ByLayer
370
18
48
1
60
0
100
AcDbPoint
10
248
20
0
30
0
39
0
210
0
220
0
230
1
50
360
0
SPLINE
5
EE
100
AcDbEntity
8
1
62
256
6
ByLayer
370
18
48
1
60
0
100
AcDbSpline
70
4
71
3
72
12
73
8
40
0
40
0
40
0
40
0
40
0.0814684080197982
40
0.282954387161679
40
0.496494800032568
40
0.831758491132773
40
1
40
1
40
1
40
1
41
1
10
247.555
20
19.77
30
0
41
1
10
247.555015582329
20
19.7699841495472
30
0
41
1
10
247.556077393944
20
19.7689115960186
30
0
41
1
10
247.564760637255
20
19.7601387505968
30
0
41
1
10
247.589381414209
20
19.7352841727275
30
0
41
1
10
247.622628100026
20
19.701772156945
30
0
41
1
10
247.648254823464
20
19.6759963201806
30
0
41
1
10
247.657250000005
20
19.6669526077322
30
0
0
SPLINE
5
EF
100
AcDbEntity
8
1
62
256
6
ByLayer
370
18
48
1
60
0
100
AcDbSpline
70
4
71
1
72
4
73
2
40
0
40
0
40
1
40
1
41
1
10
247.65725
20
19.6669526077377
30
0
41
1
10
248.325
20
18.991667907708
30
0
0
SPLINE
5
F0
100
AcDbEntity
8
1
62
256
6
ByLayer
370
18
48
1
60
0
100
AcDbSpline
70
4
71
1
72
4
73
2
40
0
40
0
40
1
40
1
41
1
10
248.325
20
18.9768631082337
30
0
41
1
10
247.65725
20
19.6232090000648
30
0
0
SPLINE
5
F1
100
AcDbEntity
8
1
62
256
6
ByLayer
370
18
48
1
60
0
100
AcDbSpline
70
4
71
3
72
10
73
6
40
0
40
0
40
0
40
0
40
0.42081323372029
40
0.709275987469712
40
1
40
1
40
1
40
1
41
1
10
247.65725
20
19.6232090000648
30
0
41
1
10
247.636507587211
20
19.6432655346522
30
0
41
1
10
247.606247411039
20
19.6718183371001
30
0
41
1
10
247.570645937365
20
19.7037065058532
30
0
41
1
10
247.560087947498
20
19.7114894215747
30
0
41
1
10
247.556760432117
20
19.7132672240648
30
0
0
SPLINE
5
F2
100
AcDbEntity
8
1
62
256
6
ByLayer
370
18
48
1
60
0
100
AcDbSpline
70
4
71
1
72
4
73
2
40
0
40
0
40
1
40
1
41
1
10
247.65725
20
19.5961148774388
30
0
41
1
10
248.325
20
18.8877094006841
30
0
0
SPLINE
5
F3
100
AcDbEntity
8
1
62
256
6
ByLayer
370
18
48
1
60
0
100
AcDbSpline
70
4
71
1
72
4
73
2
40
0
40
0
40
1
40
1
41
1
10
248.325
20
18.8430150703283
30
0
41
1
10
247.65725
20
19.4641115400998
30
0
0
SPLINE
5
F4
100
AcDbEntity
8
1
62
256
6
ByLayer
370
18
48
1
60
0
100
AcDbSpline
70
4
71
3
72
11
73
7
40
0
40
0
40
0
40
0
40
0.30463231255465
40
0.566084194491782
40
0.784880098668194
40
1
40
1
40
1
40
1
41
1
10
247.65725
20
19.4641115400997
30
0
41
1
10
247.64055915088
20
19.4796684885192
30
0
41
1
10
247.612558144472
20
19.5047063539096
30
0
41
1
10
247.578899199237
20
19.5321569777169
30
0
41
1
10
247.559153228532
20
19.5445727998412
30
0
41
1
10
247.555154530637
20
19.5435466217527
30
0
41
1
10
247.555000003065
20
19.5410513391963
30
0
0
SPLINE
5
F5
100
AcDbEntity
8
1
62
256
6
ByLayer
370
18
48
1
60
0
100
AcDbSpline
70
4
71
1
72
4
73
2
40
0
40
0
40
1
40
1
41
1
10
247.65725
20
19.4094413032565
30
0
41
1
10
248.325
20
18.6630030512968
30
0
0
SPLINE
5
F6
100
AcDbEntity
8
1
62
256
6
ByLayer
370
18
48
1
60
0
100
AcDbSpline
70
4
71
1
72
4
73
2
40
0
40
0
40
1
40
1
41
1
10
248.325
20
18.587552298584
30
0
41
1
10
247.65725
20
19.1867908893245
30
0
0
SPLINE
5
F7
100
AcDbEntity
8
1
62
256
6
ByLayer
370
18
48
1
60
0
100
AcDbSpline
70
4
71
3
72
12
73
8
40
0
40
0
40
0
40
0
40
0.282977018566831
40
0.536553999364183
40
0.75083709427225
40
0.965613435476431
40
1
40
1
40
1
40
1
41
1
10
247.65725
20
19.1867908893245
30
0
41
1
10
247.641760186522
20
19.2007697381244
30
0
41
1
10
247.614943225208
20
19.2235385350738
30
0
41
1
10
247.581692039333
20
19.248055497566
30
0
41
1
10
247.561024500697
20
19.2581756177889
30
0
41
1
10
247.555340370391
20
19.2556494640045
30
0
41
1
10
247.554996731975
20
19.2516310044636
30
0
41
1
10
247.555000030128
20
19.2510233429179
30
0
0
SPLINE
5
F8
100
AcDbEntity
8
1
62
256
6
ByLayer
370
18
48
1
60
0
100
AcDbSpline
70
4
71
1
72
4
73
2
40
0
40
0
40
1
40
1
41
1
10
247.65725
20
19.1035364558329
30
0
41
1
10
248.325
20
18.3131045806204
30
0
0
SPLINE
5
F9
100
AcDbEntity
8
1
62
256
6
ByLayer
370
18
48
1
60
0
100
AcDbSpline
70
4
71
1
72
4
73
2
40
0
40
0
40
1
40
1
41
1
10
248.325
20
18.2053559142514
30
0
41
1
10
247.65725
20
18.786012115824
30
0
0
SPLINE
5
FA
100
AcDbEntity
8
1
62
256
6
ByLayer
370
18
48
1
60
0
100
AcDbSpline
70
4
71
3
72
12
73
8
40
0
40
0
40
0
40
0
40
0.261192139426403
40
0.505956728872185
40
0.752535483089862
40
0.961563574781991
40
1
40
1
40
1
40
1
41
1
10
247.65725
20
18.786012115824
30
0
41
1
10
247.64295433266
20
18.798555389981
30
0
41
1
10
247.617380061953
20
18.8192714267596
30
0
41
1
10
247.583004380813
20
18.8423427456429
30
0
41
1
10
247.561085004117
20
18.8496710722452
30
0
41
1
10
247.555355221632
20
18.8437531907419
30
0
41
1
10
247.554994103838
20
18.8383826837501
30
0
41
1
10
247.555000075114
20
18.8374837408244
30
0
0
SPLINE
5
FB
100
AcDbEntity
8
1
62
256
6
ByLayer
370
18
48
1
60
0
100
AcDbSpline
70
4
71
1
72
4
73
2
40
0
40
0
40
1
40
1
41
1
10
247.65725
20
18.6725412982303
30
0
41
1
10
248.325
20
17.8306454136905
30
0
0
SPLINE
5
FC
100
AcDbEntity
8
1
62
256
6
ByLayer
370
18
48
1
60
0
100
AcDbSpline
70
4
71
1
72
4
73
2
40
0
40
0
40
1
40
1
41
1
10
248.325
20
17.6882126704918
30
0
41
1
10
247.65725
20
18.2536450551968
30
0
0
SPLINE
5
FD
100
AcDbEntity
8
1
62
256
6
ByLayer
370
18
48
1
60
0
100
AcDbSpline
70
4
71
3
72
12
73
8
40
0
40
0
40
0
40
0
40
0.238383637776535
40
0.472578322840839
40
0.708422830413785
40
0.909970655360738
40
1
40
1
40
1
40
1
41
1
10
247.65725
20
18.2536450551967
30
0
41
1
10
247.644154353144
20
18.264869634683
30
0
41
1
10
247.619908768226
20
18.2837252912934
30
0
41
1
10
247.586411318166
20
18.3043177379196
30
0
41
1
10
247.563744385306
20
18.3097189328798
30
0
41
1
10
247.555900889281
20
18.3020816888986
30
0
41
1
10
247.554957692867
20
18.2945959471498
30
0
41
1
10
247.555000724703
20
18.2919300405605
30
0
0
SPLINE
5
FE
100
AcDbEntity
8
1
62
256
6
ByLayer
370
18
48
1
60
0
100
AcDbSpline
70
4
71
1
72
4
73
2
40
0
40
0
40
1
40
1
41
1
10
247.65725
20
18.1075258373112
30
0
41
1
10
248.325
20
17.204477102103
30
0
0
SPLINE
5
FF
100
AcDbEntity
8
1
62
256
6
ByLayer
370
18
48
1
60
0
100
AcDbSpline
70
4
71
1
72
4
73
2
40
0
40
0
40
1
40
1
41
1
10
248.325
20
17.0238289168013
30
0
41
1
10
247.65725
20
17.57773774939
30
0
0
SPLINE
5
100
100
AcDbEntity
8
1
62
256
6
ByLayer
370
18
48
1
60
0
100
AcDbSpline
70
4
71
3
72
11
73
7
40
0
40
0
40
0
40
0
40
0.251903770191843
40
0.512316829969247
40
0.774489907728119
40
1
40
1
40
1
40
1
41
1
10
247.65725
20
17.5777377493899
30
0
41
1
10
247.645373678305
20
17.5877389163178
30
0
41
1
10
247.622561317996
20
17.6048874369878
30
0
41
1
10
247.590149980525
20
17.6233771058183
30
0
41
1
10
247.5668793199
20
17.6269578958826
30
0
41
1
10
247.559284153767
20
17.6203570523906
30
0
41
1
10
247.557190960659
20
17.6154127785628
30
0
0
SPLINE
5
101
100
AcDbEntity
8
1
62
256
6
ByLayer
370
18
48
1
60
0
100
AcDbSpline
70
4
71
1
72
4
73
2
40
0
40
0
40
1
40
1
41
1
10
247.557190960659
20
17.6154127785628
30
0
41
1
10
247.55500147232
20
17.6022405721771
30
0
0
SPLINE
5
102
100
AcDbEntity
8
1
62
256
6
ByLayer
370
18
48
1
60
0
100
AcDbSpline
70
4
71
1
72
4
73
2
40
0
40
0
40
1
40
1
41
1
10
247.65725
20
17.3954357623968
30
0
41
1
10
248.325
20
16.4181652094505
30
0
0
SPLINE
5
103
100
AcDbEntity
8
1
62
256
6
ByLayer
370
18
48
1
60
0
100
AcDbSpline
70
4
71
1
72
4
73
2
40
0
40
0
40
1
40
1
41
1
10
248.325
20
16.1940925803361
30
0
41
1
10
247.65725
20
16.7409130865539
30
0
0
SPLINE
5
104
100
AcDbEntity
8
1
62
256
6
ByLayer
370
18
48
1
60
0
100
AcDbSpline
70
4
71
3
72
12
73
8
40
0
40
0
40
0
40
0
40
0.191366235578445
40
0.400705424394726
40
0.611426159911776
40
0.793354321085297
40
1
40
1
40
1
40
1
41
1
10
247.65725
20
16.7409130865538
30
0
41
1
10
247.646627503721
20
16.7497667997621
30
0
41
1
10
247.625380799525
20
16.7653795144078
30
0
41
1
10
247.594288505919
20
16.7819777186297
30
0
41
1
10
247.570624438789
20
16.7844723098295
30
0
41
1
10
247.557467676365
20
16.7729577055611
30
0
41
1
10
247.554735111693
20
16.7597810462402
30
0
41
1
10
247.555000725937
20
16.7508635079356
30
0
0
SPLINE
5
105
100
AcDbEntity
8
1
62
256
6
ByLayer
370
18
48
1
60
0
100
AcDbSpline
70
4
71
1
72
4
73
2
40
0
40
0
40
1
40
1
41
1
10
247.65725
20
16.5172600263618
30
0
41
1
10
248.325
20
15.4472737184539
30
0
0
SPLINE
5
106
100
AcDbEntity
8
1
62
256
6
ByLayer
370
18
48
1
60
0
100
AcDbSpline
70
4
71
1
72
4
73
2
40
0
40
0
40
1
40
1
41
1
10
248.325
20
15.1718989586826
30
0
41
1
10
247.65725
20
15.7174895437145
30
0
0
SPLINE
5
107
100
AcDbEntity
8
1
62
256
6
ByLayer
370
18
48
1
60
0
100
AcDbSpline
70
4
71
3
72
13
73
9
40
0
40
0
40
0
40
0
40
0.166242911183119
40
0.360375890725316
40
0.555799720089342
40
0.724316208407374
40
0.963610848020808
40
1
40
1
40
1
40
1
41
1
10
247.657250000001
20
15.7174895437142
30
0
41
1
10
247.647934269862
20
15.7252528119712
30
0
41
1
10
247.628418910791
20
15.739446680958
30
0
41
1
10
247.598923790555
20
15.7545791493184
30
0
41
1
10
247.575130693618
20
15.756077901086
30
0
41
1
10
247.559249471884
20
15.7435020486445
30
0
41
1
10
247.555257148098
20
15.7256644826509
30
0
41
1
10
247.554989085093
20
15.712940665717
30
0
41
1
10
247.555000472764
20
15.7112166191105
30
0
0
SPLINE
5
108
100
AcDbEntity
8
1
62
256
6
ByLayer
370
18
48
1
60
0
100
AcDbSpline
70
4
71
1
72
4
73
2
40
0
40
0
40
1
40
1
41
1
10
247.65725
20
15.4446939818576
30
0
41
1
10
248.325
20
14.2541356041277
30
0
0
SPLINE
5
109
100
AcDbEntity
8
1
62
256
6
ByLayer
370
18
48
1
60
0
100
AcDbSpline
70
4
71
1
72
4
73
2
40
0
40
0
40
1
40
1
41
1
10
248.325
20
13.9148985452446
30
0
41
1
10
247.65725
20
14.4679225924801
30
0
0
SPLINE
5
10A
100
AcDbEntity
8
1
62
256
6
ByLayer
370
18
48
1
60
0
100
AcDbSpline
70
4
71
3
72
13
73
9
40
0
40
0
40
0
40
0
40
0.138853390640507
40
0.341511995921934
40
0.518494759973617
40
0.669260172089052
40
0.905494557461824
40
1
40
1
40
1
40
1
41
1
10
247.657250000002
20
14.4679225924795
30
0
41
1
10
247.64930360173
20
14.4746550714136
30
0
41
1
10
247.63025527438
20
14.4886415791471
30
0
41
1
10
247.60109405941
20
14.5028441627021
30
0
41
1
10
247.577380561363
20
14.5015211440536
30
0
41
1
10
247.561214372378
20
14.4866340293345
30
0
41
1
10
247.55569115143
20
14.4645423845891
30
0
41
1
10
247.554915850397
20
14.4472215794256
30
0
41
1
10
247.555003412463
20
14.4419827618974
30
0
0
SPLINE
5
10B
100
AcDbEntity
8
1
62
256
6
ByLayer
370
18
48
1
60
0
100
AcDbSpline
70
4
71
1
72
4
73
2
40
0
40
0
40
1
40
1
41
1
10
247.65725
20
14.1335510614993
30
0
41
1
10
248.325
20
12.7766387719495
30
0
0
SPLINE
5
10C
100
AcDbEntity
8
1
62
256
6
ByLayer
370
18
48
1
60
0
100
AcDbSpline
70
4
71
1
72
4
73
2
40
0
40
0
40
1
40
1
41
1
10
248.325
20
12.3516106251948
30
0
41
1
10
247.65725
20
12.9267973886503
30
0
0
SPLINE
5
10D
100
AcDbEntity
8
1
62
256
6
ByLayer
370
18
48
1
60
0
100
AcDbSpline
70
4
71
3
72
13
73
9
40
0
40
0
40
0
40
0
40
0.110242213151796
40
0.282557275529679
40
0.412606166269227
40
0.54242803276602
40
0.733732087688833
40
1
40
1
40
1
40
1
41
1
10
247.657250000004
20
12.9267973886487
30
0
41
1
10
247.650803050241
20
12.9324740321065
30
0
41
1
10
247.634460670417
20
12.9449728016787
30
0
41
1
10
247.609769049183
20
12.9576961890999
30
0
41
1
10
247.587437063048
20
12.9584727781846
30
0
41
1
10
247.569985716961
20
12.9480918057826
30
0
41
1
10
247.557500913943
20
12.9211431497263
30
0
41
1
10
247.554230160885
20
12.8950860188414
30
0
41
1
10
247.555002425298
20
12.8772250208738
30
0
0
SPLINE
5
10E
100
AcDbEntity
8
1
62
256
6
ByLayer
370
18
48
1
60
0
100
AcDbSpline
70
4
71
1
72
4
73
2
40
0
40
0
40
1
40
1
41
1
10
247.65725
20
12.5090350955934
30
0
41
1
10
248.325
20
10.899752969536
30
0
0
SPLINE
5
10F
100
AcDbEntity
8
1
62
256
6
ByLayer
370
18
48
1
60
0
100
AcDbSpline
70
4
71
1
72
4
73
2
40
0
40
0
40
1
40
1
41
1
10
248.325
20
10.3440885798799
30
0
41
1
10
247.65725
20
10.9719368077126
30
0
0
SPLINE
5
110
100
AcDbEntity
8
1
62
256
6
ByLayer
370
18
48
1
60
0
100
AcDbSpline
70
4
71
3
72
14
73
10
40
0
40
0
40
0
40
0
40
0.0783829871390539
40
0.215707446421117
40
0.317812290823324
40
0.419869148103608
40
0.563517127420535
40
0.809794822448507
40
1
40
1
40
1
40
1
41
1
10
247.65725000001
20
10.9719368077072
30
0
41
1
10
247.652444151996
20
10.9765324929058
30
0
41
1
10
247.639151691486
20
10.9877108997616
30
0
41
1
10
247.618336548231
20
11.0001173756792
30
0
41
1
10
247.597444554273
20
11.0028007933594
30
0
41
1
10
247.580149715048
20
10.995355575134
30
0
41
1
10
247.563926018898
20
10.9720067645134
30
0
41
1
10
247.556259895161
20
10.932851065505
30
0
41
1
10
247.554587480467
20
10.9011800376172
30
0
41
1
10
247.555017244399
20
10.8864398912318
30
0
0
SPLINE
5
111
100
AcDbEntity
8
1
62
256
6
ByLayer
370
18
48
1
60
0
100
AcDbSpline
70
4
71
1
72
4
73
2
40
0
40
0
40
1
40
1
41
1
10
247.65725
20
10.4256727570727
30
0
41
1
10
248.325
20
8.35863214197945
30
0
0
SPLINE
5
112
100
AcDbEntity
8
1
62
256
6
ByLayer
370
18
48
1
60
0
100
AcDbSpline
70
4
71
1
72
4
73
2
40
0
40
0
40
1
40
1
41
1
10
248.325
20
7.5457307174572
30
0
41
1
10
247.65725
20
8.31653196336435
30
0
0
SPLINE
5
113
100
AcDbEntity
8
1
62
256
6
ByLayer
370
18
48
1
60
0
100
AcDbSpline
70
4
71
3
72
14
73
10
40
0
40
0
40
0
40
0
40
0.108418701022083
40
0.180167597011233
40
0.252422528712383
40
0.317844072553431
40
0.418649479187805
40
0.607004012534013
40
1
40
1
40
1
40
1
41
1
10
247.657250000027
20
8.31653196334169
30
0
41
1
10
247.64997141586
20
8.32526615338188
30
0
41
1
10
247.637423488915
20
8.33672320355458
30
0
41
1
10
247.6181585045
20
8.34746564858042
30
0
41
1
10
247.602527381033
20
8.3486467044096
30
0
41
1
10
247.587727804689
20
8.34120718763121
30
0
41
1
10
247.572043538821
20
8.31933184841543
30
0
41
1
10
247.557258581184
20
8.26135863170593
30
0
41
1
10
247.552549383968
20
8.20802499444397
30
0
41
1
10
247.555038128083
20
8.16757126881084
30
0
0
SPLINE
5
114
100
AcDbEntity
8
1
62
256
6
ByLayer
370
18
48
1
60
0
100
AcDbSpline
70
4
71
2
72
6
73
3
40
0
40
0
40
0
40
1
40
1
40
1
41
1
10
247.65725
20
7.51088182920916
30
0
41
1
10
248.083894802745
20
5.80596125816184
30
0
41
1
10
248.325
20
4.05325150625475
30
0
0
SPLINE
5
115
100
AcDbEntity
8
1
62
256
6
ByLayer
370
18
48
1
60
0
100
AcDbSpline
70
4
71
2
72
6
73
3
40
0
40
0
40
0
40
1
40
1
40
1
41
1
10
248.325
20
1.54140701060841
30
0
41
1
10
248.10386024345
20
2.65129455941959
30
0
41
1
10
247.65725
20
3.66688021114669
30
0
0
SPLINE
5
116
100
AcDbEntity
8
1
62
256
6
ByLayer
370
18
48
1
60
0
100
AcDbSpline
70
4
71
3
72
18
73
14
40
0
40
0
40
0
40
0
40
0.0092762999038213
40
0.0685629895047926
40
0.0951304196522644
40
0.117592414041165
40
0.133540352750931
40
0.149529937945354
40
0.169950422043824
40
0.20570098208845
40
0.318776697950098
40
0.839906372199452
40
1
40
1
40
1
40
1
41
1
10
247.657249999999
20
3.66688021114634
30
0
41
1
10
247.656530488488
20
3.66856317892814
30
0
41
1
10
247.651090051696
20
3.68088522223942
30
0
41
1
10
247.642732472879
20
3.69760154146207
30
0
41
1
10
247.630691624416
20
3.71356954482126
30
0
41
1
10
247.622113310393
20
3.72071043232466
30
0
41
1
10
247.614212181307
20
3.72311277646691
30
0
41
1
10
247.606874679365
20
3.72152338403579
30
0
41
1
10
247.598465296463
20
3.71437670222454
30
0
41
1
10
247.584596086648
20
3.68888331459693
30
0
41
1
10
247.558360975623
20
3.56390605424471
30
0
41
1
10
247.556219231416
20
3.40505327877033
30
0
41
1
10
247.554724613401
20
3.26975155857317
30
0
41
1
10
247.555022756186
20
3.23774823726711
30
0
0
SPLINE
5
117
100
AcDbEntity
8
1
62
256
6
ByLayer
370
18
48
1
60
0
100
AcDbSpline
70
4
71
2
72
6
73
3
40
0
40
0
40
0
40
1
40
1
40
1
41
1
10
247.65725
20
-3.66688021114491
30
0
41
1
10
248.10370184491
20
-2.65136317020443
30
0
41
1
10
248.325
20
-1.54140701060841
30
0
0
SPLINE
5
118
100
AcDbEntity
8
1
62
256
6
ByLayer
370
18
48
1
60
0
100
AcDbSpline
70
4
71
2
72
6
73
3
40
0
40
0
40
0
40
1
40
1
40
1
41
1
10
248.325
20
-4.05325150625479
30
0
41
1
10
248.083904837032
20
-5.80595047647655
30
0
41
1
10
247.65725
20
-7.51088182920916
30
0
0
SPLINE
5
119
100
AcDbEntity
8
1
62
256
6
ByLayer
370
18
48
1
60
0
100
AcDbSpline
70
4
71
3
72
10
73
6
40
0
40
0
40
0
40
0
40
0.532327471743735
40
0.833599534487848
40
1
40
1
40
1
40
1
41
1
10
247.65725
20
-7.51088182920917
30
0
41
1
10
247.627311546927
20
-7.62947589062387
30
0
41
1
10
247.591106560034
20
-7.81323255642326
30
0
41
1
10
247.55837156256
20
-8.03392348671711
30
0
41
1
10
247.55512048653
20
-8.13331899347954
30
0
41
1
10
247.55503138987
20
-8.16839397322262
30
0
0
SPLINE
5
11A
100
AcDbEntity
8
1
62
256
6
ByLayer
370
18
48
1
60
0
100
AcDbSpline
70
4
71
1
72
4
73
2
40
0
40
0
40
1
40
1
41
1
10
247.65725
20
-8.31653196336435
30
0
41
1
10
248.325
20
-7.5457307174572
30
0
0
SPLINE
5
11B
100
AcDbEntity
8
1
62
256
6
ByLayer
370
18
48
1
60
0
100
AcDbSpline
70
4
71
1
72
4
73
2
40
0
40
0
40
1
40
1
41
1
10
248.325
20
-8.35863214197946
30
0
41
1
10
247.65725
20
-10.4256727570727
30
0
0
SPLINE
5
11C
100
AcDbEntity
8
1
62
256
6
ByLayer
370
18
48
1
60
0
100
AcDbSpline
70
4
71
2
72
6
73
3
40
0
40
0
40
0
40
1
40
1
40
1
41
1
10
247.65725
20
-10.4256727570726
30
0
41
1
10
247.564248120374
20
-10.6687947747668
30
0
41
1
10
247.555011360507
20
-10.8872087149763
30
0
0
SPLINE
5
11D
100
AcDbEntity
8
1
62
256
6
ByLayer
370
18
48
1
60
0
100
AcDbSpline
70
4
71
1
72
4
73
2
40
0
40
0
40
1
40
1
41
1
10
247.65725
20
-10.9719368077126
30
0
41
1
10
248.325
20
-10.3440885798799
30
0
0
SPLINE
5
11E
100
AcDbEntity
8
1
62
256
6
ByLayer
370
18
48
1
60
0
100
AcDbSpline
70
4
71
1
72
4
73
2
40
0
40
0
40
1
40
1
41
1
10
248.325
20
-10.899752969536
30
0
41
1
10
247.65725
20
-12.5090350955934
30
0
0
SPLINE
5
11F
100
AcDbEntity
8
1
62
256
6
ByLayer
370
18
48
1
60
0
100
AcDbSpline
70
4
71
2
72
6
73
3
40
0
40
0
40
0
40
1
40
1
40
1
41
1
10
247.65725
20
-12.5090350955934
30
0
41
1
10
247.56449452426
20
-12.7076362690426
30
0
41
1
10
247.555002402522
20
-12.8772305165887
30
0
0
SPLINE
5
120
100
AcDbEntity
8
1
62
256
6
ByLayer
370
18
48
1
60
0
100
AcDbSpline
70
4
71
1
72
4
73
2
40
0
40
0
40
1
40
1
41
1
10
247.65725
20
-12.9267973886503
30
0
41
1
10
248.325
20
-12.3516106251948
30
0
0
SPLINE
5
121
100
AcDbEntity
8
1
62
256
6
ByLayer
370
18
48
1
60
0
100
AcDbSpline
70
4
71
1
72
4
73
2
40
0
40
0
40
1
40
1
41
1
10
248.325
20
-12.7766387719495
30
0
41
1
10
247.65725
20
-14.1335510614993
30
0
0
SPLINE
5
122
100
AcDbEntity
8
1
62
256
6
ByLayer
370
18
48
1
60
0
100
AcDbSpline
70
4
71
3
72
10
73
6
40
0
40
0
40
0
40
0
40
0.613007207669475
40
0.839592277897987
40
1
40
1
40
1
40
1
41
1
10
247.65725
20
-14.1335510614993
30
0
41
1
10
247.621142460231
20
-14.201961925812
30
0
41
1
10
247.584893743717
20
-14.2907442787931
30
0
41
1
10
247.558712646654
20
-14.3926061992163
30
0
41
1
10
247.555429709201
20
-14.4278624777636
30
0
41
1
10
247.555003423148
20
-14.4419810199694
30
0
0
SPLINE
5
123
100
AcDbEntity
8
1
62
256
6
ByLayer
370
18
48
1
60
0
100
AcDbSpline
70
4
71
1
72
4
73
2
40
0
40
0
40
1
40
1
41
1
10
247.65725
20
-14.4679225924801
30
0
41
1
10
248.325
20
-13.9148985452446
30
0
0
SPLINE
5
124
100
AcDbEntity
8
1
62
256
6
ByLayer
370
18
48
1
60
0
100
AcDbSpline
70
4
71
1
72
4
73
2
40
0
40
0
40
1
40
1
41
1
10
248.325
20
-14.2541356041277
30
0
41
1
10
247.65725
20
-15.4446939818576
30
0
0
SPLINE
5
125
100
AcDbEntity
8
1
62
256
6
ByLayer
370
18
48
1
60
0
100
AcDbSpline
70
4
71
3
72
10
73
6
40
0
40
0
40
0
40
0
40
0.547301222737328
40
0.825627972936546
40
1
40
1
40
1
40
1
41
1
10
247.65725
20
-15.4446939818576
30
0
41
1
10
247.625542403747
20
-15.4982707951335
30
0
41
1
10
247.588937240184
20
-15.5744018380708
30
0
41
1
10
247.559737360317
20
-15.6632659657322
30
0
41
1
10
247.555569917055
20
-15.6975178942071
30
0
41
1
10
247.555008535533
20
-15.7101151220355
30
0
0
SPLINE
5
126
100
AcDbEntity
8
1
62
256
6
ByLayer
370
18
48
1
60
0
100
AcDbSpline
70
4
71
1
72
4
73
2
40
0
40
0
40
1
40
1
41
1
10
247.65725
20
-15.7174895437145
30
0
41
1
10
248.325
20
-15.1718989586826
30
0
0
SPLINE
5
127
100
AcDbEntity
8
1
62
256
6
ByLayer
370
18
48
1
60
0
100
AcDbSpline
70
4
71
1
72
4
73
2
40
0
40
0
40
1
40
1
41
1
10
248.325
20
-15.4472737184539
30
0
41
1
10
247.65725
20
-16.5172600263618
30
0
0
SPLINE
5
128
100
AcDbEntity
8
1
62
256
6
ByLayer
370
18
48
1
60
0
100
AcDbSpline
70
4
71
3
72
10
73
6
40
0
40
0
40
0
40
0
40
0.538057462057163
40
0.818130138821772
40
1
40
1
40
1
40
1
41
1
10
247.65725
20
-16.5172600263618
30
0
41
1
10
247.626027033555
20
-16.5650666634061
30
0
41
1
10
247.589523572285
20
-16.6324796523194
30
0
41
1
10
247.55969065873
20
-16.7107563317592
30
0
41
1
10
247.55549982106
20
-16.7400235417015
30
0
41
1
10
247.555000929875
20
-16.7508182535806
30
0
0
SPLINE
5
129
100
AcDbEntity
8
1
62
256
6
ByLayer
370
18
48
1
60
0
100
AcDbSpline
70
4
71
1
72
4
73
2
40
0
40
0
40
1
40
1
41
1
10
247.65725
20
-16.7409130865539
30
0
41
1
10
248.325
20
-16.1940925803361
30
0
0
SPLINE
5
12A
100
AcDbEntity
8
1
62
256
6
ByLayer
370
18
48
1
60
0
100
AcDbSpline
70
4
71
1
72
4
73
2
40
0
40
0
40
1
40
1
41
1
10
248.325
20
-16.4181652094505
30
0
41
1
10
247.65725
20
-17.3954357623968
30
0
0
SPLINE
5
12B
100
AcDbEntity
8
1
62
256
6
ByLayer
370
18
48
1
60
0
100
AcDbSpline
70
4
71
3
72
10
73
6
40
0
40
0
40
0
40
0
40
0.500655634822162
40
0.790172015434924
40
1
40
1
40
1
40
1
41
1
10
247.65725
20
-17.3954357623968
30
0
41
1
10
247.628459400728
20
-17.4360513359832
30
0
41
1
10
247.592593064923
20
-17.495054100592
30
0
41
1
10
247.560646526087
20
-17.565410693159
30
0
41
1
10
247.555617495467
20
-17.5922713314739
30
0
41
1
10
247.555000081396
20
-17.602545625745
30
0
0
SPLINE
5
12C
100
AcDbEntity
8
1
62
256
6
ByLayer
370
18
48
1
60
0
100
AcDbSpline
70
4
71
1
72
4
73
2
40
0
40
0
40
1
40
1
41
1
10
247.65725
20
-17.57773774939
30
0
41
1
10
248.325
20
-17.0238289168013
30
0
0
SPLINE
5
12D
100
AcDbEntity
8
1
62
256
6
ByLayer
370
18
48
1
60
0
100
AcDbSpline
70
4
71
1
72
4
73
2
40
0
40
0
40
1
40
1
41
1
10
248.325
20
-17.204477102103
30
0
41
1
10
247.65725
20
-18.1075258373112
30
0
0
SPLINE
5
12E
100
AcDbEntity
8
1
62
256
6
ByLayer
370
18
48
1
60
0
100
AcDbSpline
70
4
71
3
72
11
73
7
40
0
40
0
40
0
40
0
40
0.469351758654552
40
0.761993777863443
40
0.988709287791779
40
1
40
1
40
1
40
1
41
1
10
247.65725
20
-18.1075258373112
30
0
41
1
10
247.630514136621
20
-18.1426232148382
30
0
41
1
10
247.595252507034
20
-18.1949484938442
30
0
41
1
10
247.562509008143
20
-18.2570863381311
30
0
41
1
10
247.555160567667
20
-18.2829901513205
30
0
41
1
10
247.555001680443
20
-18.2916794237046
30
0
41
1
10
247.555000066086
20
-18.292086575487
30
0
0
SPLINE
5
12F
100
AcDbEntity
8
1
62
256
6
ByLayer
370
18
48
1
60
0
100
AcDbSpline
70
4
71
1
72
4
73
2
40
0
40
0
40
1
40
1
41
1
10
247.65725
20
-18.2536450551968
30
0
41
1
10
248.325
20
-17.6882126704918
30
0
0
SPLINE
5
130
100
AcDbEntity
8
1
62
256
6
ByLayer
370
18
48
1
60
0
100
AcDbSpline
70
4
71
1
72
4
73
2
40
0
40
0
40
1
40
1
41
1
10
248.325
20
-17.8306454136905
30
0
41
1
10
247.65725
20
-18.6725412982303
30
0
0
SPLINE
5
131
100
AcDbEntity
8
1
62
256
6
ByLayer
370
18
48
1
60
0
100
AcDbSpline
70
4
71
3
72
11
73
7
40
0
40
0
40
0
40
0
40
0.441839920560084
40
0.73405048771502
40
0.961867500839289
40
1
40
1
40
1
40
1
41
1
10
247.65725
20
-18.6725412982303
30
0
41
1
10
247.632309326615
20
-18.7032457165448
30
0
41
1
10
247.59797900152
20
-18.7497389857026
30
0
41
1
10
247.564594625596
20
-18.8046483170382
30
0
41
1
10
247.555573313104
20
-18.8285226969549
30
0
41
1
10
247.555015021059
20
-18.8363594717354
30
0
41
1
10
247.555000312325
20
-18.8374254774193
30
0
0
SPLINE
5
132
100
AcDbEntity
8
1
62
256
6
ByLayer
370
18
48
1
60
0
100
AcDbSpline
70
4
71
1
72
4
73
2
40
0
40
0
40
1
40
1
41
1
10
247.65725
20
-18.786012115824
30
0
41
1
10
248.325
20
-18.2053559142514
30
0
0
SPLINE
5
133
100
AcDbEntity
8
1
62
256
6
ByLayer
370
18
48
1
60
0
100
AcDbSpline
70
4
71
1
72
4
73
2
40
0
40
0
40
1
40
1
41
1
10
248.325
20
-18.3131045806204
30
0
41
1
10
247.65725
20
-19.1035364558329
30
0
0
SPLINE
5
134
100
AcDbEntity
8
1
62
256
6
ByLayer
370
18
48
1
60
0
100
AcDbSpline
70
4
71
3
72
11
73
7
40
0
40
0
40
0
40
0
40
0.329250067109456
40
0.647313353418117
40
0.887590104473778
40
1
40
1
40
1
40
1
41
1
10
247.65725
20
-19.1035364558329
30
0
41
1
10
247.639125826007
20
-19.1246406317614
30
0
41
1
10
247.60760557301
20
-19.1633405571413
30
0
41
1
10
247.572379703214
20
-19.2119075998364
30
0
41
1
10
247.557086797367
20
-19.2396890076993
30
0
41
1
10
247.555109283244
20
-19.2486011368986
30
0
41
1
10
247.555000241862
20
-19.250975551376
30
0
0
SPLINE
5
135
100
AcDbEntity
8
1
62
256
6
ByLayer
370
18
48
1
60
0
100
AcDbSpline
70
4
71
1
72
4
73
2
40
0
40
0
40
1
40
1
41
1
10
247.65725
20
-19.1867908893245
30
0
41
1
10
248.325
20
-18.587552298584
30
0
0
SPLINE
5
136
100
AcDbEntity
8
1
62
256
6
ByLayer
370
18
48
1
60
0
100
AcDbSpline
70
4
71
1
72
4
73
2
40
0
40
0
40
1
40
1
41
1
10
248.325
20
-18.6630030512968
30
0
41
1
10
247.65725
20
-19.4094413032565
30
0
0
SPLINE
5
137
100
AcDbEntity
8
1
62
256
6
ByLayer
370
18
48
1
60
0
100
AcDbSpline
70
4
71
3
72
11
73
7
40
0
40
0
40
0
40
0
40
0.342011787836875
40
0.642198228721821
40
0.87672535104749
40
1
40
1
40
1
40
1
41
1
10
247.65725
20
-19.4094413032565
30
0
41
1
10
247.638405962704
20
-19.4302315216882
30
0
41
1
10
247.607246454178
20
-19.4659783235364
30
0
41
1
10
247.572478698652
20
-19.5093812544871
30
0
41
1
10
247.557238712117
20
-19.5326216917595
30
0
41
1
10
247.555107377871
20
-19.5393112426375
30
0
41
1
10
247.555000074588
20
-19.5410298872621
30
0
0
SPLINE
5
138
100
AcDbEntity
8
1
62
256
6
ByLayer
370
18
48
1
60
0
100
AcDbSpline
70
4
71
1
72
4
73
2
40
0
40
0
40
1
40
1
41
1
10
247.65725
20
-19.4641115400998
30
0
41
1
10
248.325
20
-18.8430150703283
30
0
0
SPLINE
5
139
100
AcDbEntity
8
1
62
256
6
ByLayer
370
18
48
1
60
0
100
AcDbSpline
70
4
71
1
72
4
73
2
40
0
40
0
40
1
40
1
41
1
10
248.325
20
-18.8877094006841
30
0
41
1
10
247.65725
20
-19.5961148774388
30
0
0
SPLINE
5
13A
100
AcDbEntity
8
1
62
256
6
ByLayer
370
18
48
1
60
0
100
AcDbSpline
70
4
71
3
72
11
73
7
40
0
40
0
40
0
40
0
40
0.353544895004883
40
0.637649992213713
40
0.866481616419202
40
1
40
1
40
1
40
1
41
1
10
247.65725
20
-19.5961148774388
30
0
41
1
10
247.637736231931
20
-19.6166212011108
30
0
41
1
10
247.606877005414
20
-19.649762420808
30
0
41
1
10
247.572532958045
20
-19.6884341492299
30
0
41
1
10
247.557376965567
20
-19.7075135390098
30
0
41
1
10
247.555102572038
20
-19.7120495720826
30
0
41
1
10
247.555000029089
20
-19.7130051391009
30
0
0
SPLINE
5
13B
100
AcDbEntity
8
1
62
256
6
ByLayer
370
18
48
1
60
0
100
AcDbSpline
70
4
71
1
72
4
73
2
40
0
40
0
40
1
40
1
41
1
10
247.65725
20
-19.6232090000648
30
0
41
1
10
248.325
20
-18.9768631082337
30
0
0
SPLINE
5
13C
100
AcDbEntity
8
1
62
256
6
ByLayer
370
18
48
1
60
0
100
AcDbSpline
70
4
71
1
72
4
73
2
40
0
40
0
40
1
40
1
41
1
10
248.325
20
-18.991667907708
30
0
41
1
10
247.65725
20
-19.6669526077377
30
0
0
SPLINE
5
13D
100
AcDbEntity
8
1
62
256
6
ByLayer
370
18
48
1
60
0
100
AcDbSpline
70
4
71
3
72
11
73
7
40
0
40
0
40
0
40
0
40
0.363787721950108
40
0.633109824668524
40
0.856330372739873
40
1
40
1
40
1
40
1
41
1
10
247.65725
20
-19.6669526077377
30
0
41
1
10
247.637106503078
20
-19.6872119969314
30
0
41
1
10
247.606499723284
20
-19.7180158423594
30
0
41
1
10
247.572549591026
20
-19.7522724919801
30
0
41
1
10
247.557491476118
20
-19.7674829407209
30
0
41
1
10
247.555088777225
20
-19.7699097409186
30
0
41
1
10
247.555
20
-19.77
30
0
0
SPLINE
5
13E
100
AcDbEntity
8
1
62
256
6
ByLayer
370
18
48
1
60
0
100
AcDbSpline
70
4
71
3
72
18
73
14
40
0
40
0
40
0
40
0
40
0.0395444285643957
40
0.678020344594691
40
0.738430857538468
40
0.801710634767354
40
0.823803287789902
40
0.846100958307321
40
0.862570653677305
40
0.879008358522713
40
0.905141278321034
40
0.957073783467521
40
1
40
1
40
1
40
1
41
1
10
247.55502714837
20
-3.27593767934952
30
0
41
1
10
247.553140836075
20
-3.28321985363536
30
0
41
1
10
247.522476480591
20
-3.40786636596437
30
0
41
1
10
247.555777472251
20
-3.54991441318667
30
0
41
1
10
247.58352979887
20
-3.6807270572553
30
0
41
1
10
247.592010013281
20
-3.70421019783199
30
0
41
1
10
247.601643329811
20
-3.71751513703869
30
0
41
1
10
247.608716698743
20
-3.72240064822986
30
0
41
1
10
247.616167497371
20
-3.72282895899859
30
0
41
1
10
247.624105074744
20
-3.71944469729663
30
0
41
1
10
247.63541804679
20
-3.70869756724403
30
0
41
1
10
247.646658383324
20
-3.68985797247978
30
0
41
1
10
247.654218463867
20
-3.67434761955419
30
0
41
1
10
247.65725
20
-3.6668802111449
30
0
0
SPLINE
5
13F
100
AcDbEntity
8
1
62
256
6
ByLayer
370
18
48
1
60
0
100
AcDbSpline
70
4
71
3
72
13
73
9
40
0
40
0
40
0
40
0
40
0.0811644644508647
40
0.177297495013983
40
0.433856160876773
40
0.690627755607478
40
0.946967123456419
40
1
40
1
40
1
40
1
41
1
10
247.555022756186
20
3.23774823726711
30
0
41
1
10
247.556685354627
20
3.06294436151112
30
0
41
1
10
247.563432827021
20
2.68035355923785
30
0
41
1
10
247.615581614574
20
1.73861968642812
30
0
41
1
10
247.637544089998
20
0.412467172212512
30
0
41
1
10
247.612774682813
20
-1.26388074571564
30
0
41
1
10
247.565957676768
20
-2.49522055353157
30
0
41
1
10
247.556512388558
20
-3.16178375679456
30
0
41
1
10
247.55502714837
20
-3.27593767934952
30
0
0
SPLINE
5
140
100
AcDbEntity
8
1
62
256
6
ByLayer
370
18
48
1
60
0
100
AcDbSpline
70
4
71
3
72
14
73
10
40
0
40
0
40
0
40
0
40
0.287575987652803
40
0.590056088248516
40
0.679730591769896
40
0.750554707084247
40
0.821712627379352
40
0.902192848596917
40
1
40
1
40
1
40
1
41
1
10
247.55503138987
20
-8.16839397322262
30
0
41
1
10
247.553750469308
20
-8.19725849610805
30
0
41
1
10
247.557233909262
20
-8.25172471982687
30
0
41
1
10
247.567713507382
20
-8.31385691431806
30
0
41
1
10
247.588436644206
20
-8.34169214268601
30
0
41
1
10
247.60287063449
20
-8.34879122758399
30
0
41
1
10
247.619472193805
20
-8.34713922347701
30
0
41
1
10
247.638437550163
20
-8.33580917716713
30
0
41
1
10
247.65073612068
20
-8.32429921370239
30
0
41
1
10
247.65725
20
-8.31653196336445
30
0
0
SPLINE
5
141
100
AcDbEntity
8
1
62
256
6
ByLayer
370
18
48
1
60
0
100
AcDbSpline
70
4
71
3
72
10
73
6
40
0
40
0
40
0
40
0
40
0.0927554397792936
40
0.54569781806804
40
1
40
1
40
1
40
1
41
1
10
247.555038128083
20
8.16757126881084
30
0
41
1
10
247.555388989701
20
8.14798419455164
30
0
41
1
10
247.559039956352
20
8.03232126157582
30
0
41
1
10
247.588693640007
20
7.81167793161067
30
0
41
1
10
247.630758281869
20
7.61192880535977
30
0
41
1
10
247.65725
20
7.5108818292092
30
0
0
SPLINE
5
142
100
AcDbEntity
8
1
62
256
6
ByLayer
370
18
48
1
60
0
100
AcDbSpline
70
4
71
3
72
14
73
10
40
0
40
0
40
0
40
0
40
0.13483054658984
40
0.432278571174968
40
0.556416845271842
40
0.681679785607138
40
0.793859150360369
40
0.921826329766384
40
1
40
1
40
1
40
1
41
1
10
247.555011360507
20
-10.8872087149763
30
0
41
1
10
247.554794910831
20
-10.8975213538897
30
0
41
1
10
247.555917857636
20
-10.9291166454892
30
0
41
1
10
247.562018268893
20
-10.9678387965237
30
0
41
1
10
247.579160760749
20
-10.9943615848698
30
0
41
1
10
247.596635088183
20
-11.0032599089765
30
0
41
1
10
247.619157766394
20
-10.9997522682054
30
0
41
1
10
247.639812086508
20
-10.9871545656548
30
0
41
1
10
247.652478051636
20
-10.9764938403015
30
0
41
1
10
247.65725
20
-10.9719368077127
30
0
0
SPLINE
5
143
100
AcDbEntity
8
1
62
256
6
ByLayer
370
18
48
1
60
0
100
AcDbSpline
70
4
71
3
72
10
73
6
40
0
40
0
40
0
40
0
40
0.183048331564004
40
0.859515705816286
40
1
40
1
40
1
40
1
41
1
10
247.555017244399
20
10.8864398912318
30
0
41
1
10
247.555942472327
20
10.8599843976352
30
0
41
1
10
247.564464988636
20
10.7346650724018
30
0
41
1
10
247.606509813794
20
10.5749695797472
30
0
41
1
10
247.649401846816
20
10.4476588174966
30
0
41
1
10
247.65725
20
10.4256727570728
30
0
0
SPLINE
5
144
100
AcDbEntity
8
1
62
256
6
ByLayer
370
18
48
1
60
0
100
AcDbSpline
70
4
71
3
72
12
73
8
40
0
40
0
40
0
40
0
40
0.097977099402417
40
0.417761348084505
40
0.739992192872092
40
0.956420333148176
40
1
40
1
40
1
40
1
41
1
10
247.555002402522
20
-12.8772305165887
30
0
41
1
10
247.554969421878
20
-12.8811445502882
30
0
41
1
10
247.555291463342
20
-12.897471343141
30
0
41
1
10
247.558605880554
20
-12.9245631495319
30
0
41
1
10
247.570428322714
20
-12.9490037063072
30
0
41
1
10
247.585130850077
20
-12.9568037966047
30
0
41
1
10
247.592932332292
20
-12.9576298558314
30
0
41
1
10
247.594277264759
20
-12.9577034296876
30
0
0
SPLINE
5
145
100
AcDbEntity
8
1
62
256
6
ByLayer
370
18
48
1
60
0
100
AcDbSpline
70
4
71
3
72
10
73
6
40
0
40
0
40
0
40
0
40
0.296083748072479
40
0.646553452433719
40
1
40
1
40
1
40
1
41
1
10
247.594277264759
20
-12.9577034296876
30
0
41
1
10
247.599841711318
20
-12.9578507471849
30
0
41
1
10
247.612429874276
20
-12.9560830599782
30
0
41
1
10
247.634453442418
20
-12.9448577479214
30
0
41
1
10
247.649564454984
20
-12.9335762274619
30
0
41
1
10
247.65725
20
-12.9267973886504
30
0
0
SPLINE
5
146
100
AcDbEntity
8
1
62
256
6
ByLayer
370
18
48
1
60
0
100
AcDbSpline
70
4
71
3
72
10
73
6
40
0
40
0
40
0
40
0
40
0.0340274245099484
40
0.41504478785866
40
1
40
1
40
1
40
1
41
1
10
247.555002425298
20
12.8772250208738
30
0
41
1
10
247.555036900651
20
12.873539106952
30
0
41
1
10
247.55598463012
20
12.8283224309489
30
0
41
1
10
247.58089688564
20
12.7052962332345
30
0
41
1
10
247.622322050846
20
12.585293665942
30
0
41
1
10
247.65725
20
12.5090350955934
30
0
0
SPLINE
5
147
100
AcDbEntity
8
1
62
256
6
ByLayer
370
18
48
1
60
0
100
AcDbSpline
70
4
71
3
72
13
73
9
40
0
40
0
40
0
40
0
40
0.106322020951469
40
0.308092026541265
40
0.511861720183861
40
0.687387669813512
40
0.838178876361266
40
1
40
1
40
1
40
1
41
1
10
247.555003423148
20
-14.4419810199694
30
0
41
1
10
247.554902748484
20
-14.4478807434843
30
0
41
1
10
247.5557309423
20
-14.4639528573804
30
0
41
1
10
247.561449200833
20
-14.4873359995496
30
0
41
1
10
247.578391104751
20
-14.5028448339463
30
0
41
1
10
247.603424866665
20
-14.501489161909
30
0
41
1
10
247.630477830277
20
-14.4883501757058
30
0
41
1
10
247.647958903935
20
-14.4758016130345
30
0
41
1
10
247.65725
20
-14.4679225924801
30
0
0
SPLINE
5
148
100
AcDbEntity
8
1
62
256
6
ByLayer
370
18
48
1
60
0
100
AcDbSpline
70
4
71
3
72
10
73
6
40
0
40
0
40
0
40
0
40
0.192958189275755
40
0.662877134872595
40
1
40
1
40
1
40
1
41
1
10
247.555003412463
20
14.4419827618974
30
0
41
1
10
247.555775357579
20
14.4247468535211
30
0
41
1
10
247.562247184345
20
14.3638370838714
30
0
41
1
10
247.599082328815
20
14.2562196219807
30
0
41
1
10
247.638177661418
20
14.1703207309281
30
0
41
1
10
247.65725
20
14.1335510614993
30
0
0
SPLINE
5
149
100
AcDbEntity
8
1
62
256
6
ByLayer
370
18
48
1
60
0
100
AcDbSpline
70
4
71
3
72
13
73
9
40
0
40
0
40
0
40
0
40
0.156938698583131
40
0.349316531427296
40
0.543113493975442
40
0.714312677860152
40
0.930589975771631
40
1
40
1
40
1
40
1
41
1
10
247.555008535533
20
-15.7101151220355
30
0
41
1
10
247.554764424077
20
-15.7178825742427
30
0
41
1
10
247.556326840231
20
-15.7330199523803
30
0
41
1
10
247.565117235662
20
-15.7510191699904
30
0
41
1
10
247.58431428651
20
-15.7571096349773
30
0
41
1
10
247.612372194197
20
-15.74899564906
30
0
41
1
10
247.63767922616
20
-15.7329360348716
30
0
41
1
10
247.653396743984
20
-15.72066053656
30
0
41
1
10
247.657250000002
20
-15.7174895437139
30
0
0
SPLINE
5
14A
100
AcDbEntity
8
1
62
256
6
ByLayer
370
18
48
1
60
0
100
AcDbSpline
70
4
71
3
72
10
73
6
40
0
40
0
40
0
40
0
40
0.230543928052943
40
0.670249368460697
40
1
40
1
40
1
40
1
41
1
10
247.555000472764
20
15.7112166191105
30
0
41
1
10
247.555973870088
20
15.6941926951023
30
0
41
1
10
247.563390370997
20
15.6424094026312
30
0
41
1
10
247.601280134767
20
15.548398000889
30
0
41
1
10
247.638677503405
20
15.4764629670545
30
0
41
1
10
247.65725
20
15.4446939818576
30
0
0
SPLINE
5
14B
100
AcDbEntity
8
1
62
256
6
ByLayer
370
18
48
1
60
0
100
AcDbSpline
70
4
71
3
72
13
73
9
40
0
40
0
40
0
40
0
40
0.0632694644458303
40
0.276663840458569
40
0.491667190860382
40
0.67629728529168
40
0.911346290098101
40
1
40
1
40
1
40
1
41
1
10
247.555000929875
20
-16.7508182535806
30
0
41
1
10
247.554969985234
20
-16.7534297023435
30
0
41
1
10
247.55550091994
20
-16.7641829123098
30
0
41
1
10
247.560935326727
20
-16.779474812584
30
0
41
1
10
247.579425426929
20
-16.7851478318844
30
0
41
1
10
247.607960906402
20
-16.7759274024369
30
0
41
1
10
247.635043745723
20
-16.7584802199497
30
0
41
1
10
247.652419939031
20
-16.7448966802659
30
0
41
1
10
247.657250000005
20
-16.7409130865523
30
0
0
SPLINE
5
14C
100
AcDbEntity
8
1
62
256
6
ByLayer
370
18
48
1
60
0
100
AcDbSpline
70
4
71
3
72
11
73
7
40
0
40
0
40
0
40
0
40
0.030236227165793
40
0.300567593954799
40
0.740596753790106
40
1
40
1
40
1
40
1
41
1
10
247.555000725937
20
16.7508635079356
30
0
41
1
10
247.555017361135
20
16.7491477519593
30
0
41
1
10
247.555575568672
20
16.7318046022458
30
0
41
1
10
247.569149254964
20
16.6789954170123
30
0
41
1
10
247.607837049872
20
16.5985027415873
30
0
41
1
10
247.642867396602
20
16.5396035419022
30
0
41
1
10
247.65725
20
16.5172600263618
30
0
0
SPLINE
5
14D
100
AcDbEntity
8
1
62
256
6
ByLayer
370
18
48
1
60
0
100
AcDbSpline
70
4
71
3
72
13
73
9
40
0
40
0
40
0
40
0
40
0.0212809377381234
40
0.238561386112178
40
0.457168607694654
40
0.649648659773491
40
0.903508497126335
40
1
40
1
40
1
40
1
41
1
10
247.555000081396
20
-17.602545625745
30
0
41
1
10
247.55499712244
20
-17.6032852321386
30
0
41
1
10
247.555161987586
20
-17.6113772392832
30
0
41
1
10
247.559253003597
20
-17.6236047693758
30
0
41
1
10
247.57688156024
20
-17.6269244451721
30
0
41
1
10
247.605349565434
20
-17.6158580447934
30
0
41
1
10
247.633524661658
20
-17.5968329280773
30
0
41
1
10
247.652052428589
20
-17.5820731962956
30
0
41
1
10
247.657250000005
20
-17.5777377493884
30
0
0
SPLINE
5
14E
100
AcDbEntity
8
1
62
256
6
ByLayer
370
18
48
1
60
0
100
AcDbSpline
70
4
71
3
72
11
73
7
40
0
40
0
40
0
40
0
40
0.0812329922284191
40
0.361133281662983
40
0.796537058091887
40
1
40
1
40
1
40
1
41
1
10
247.55500147232
20
17.6022405721771
30
0
41
1
10
247.555099462372
20
17.5984504549655
30
0
41
1
10
247.556719074078
20
17.580709703447
30
0
41
1
10
247.574802179398
20
17.5294836558493
30
0
41
1
10
247.613632517066
20
17.4603267694139
30
0
41
1
10
247.646115482642
20
17.4113458694242
30
0
41
1
10
247.65725
20
17.3954357623967
30
0
0
SPLINE
5
14F
100
AcDbEntity
8
1
62
256
6
ByLayer
370
18
48
1
60
0
100
AcDbSpline
70
4
71
3
72
12
73
8
40
0
40
0
40
0
40
0
40
0.203982101215642
40
0.422892038300875
40
0.621225759785366
40
0.89037948877207
40
1
40
1
40
1
40
1
41
1
10
247.555000066086
20
-18.292086575487
30
0
41
1
10
247.554897963952
20
-18.2983003785211
30
0
41
1
10
247.558176529177
20
-18.3071735753694
30
0
41
1
10
247.574243124086
20
-18.3084735293176
30
0
41
1
10
247.602275393741
20
-18.2955987473305
30
0
41
1
10
247.631553976018
20
-18.2748245964975
30
0
41
1
10
247.651377526233
20
-18.258638471764
30
0
41
1
10
247.657250000007
20
-18.2536450551942
30
0
0
SPLINE
5
150
100
AcDbEntity
8
1
62
256
6
ByLayer
370
18
48
1
60
0
100
AcDbSpline
70
4
71
3
72
11
73
7
40
0
40
0
40
0
40
0
40
0.130632392229601
40
0.415548682631278
40
0.843413418810633
40
1
40
1
40
1
40
1
41
1
10
247.555000724703
20
18.2919300405605
30
0
41
1
10
247.555219444984
20
18.2869735895815
30
0
41
1
10
247.55799512545
20
18.2695849031442
30
0
41
1
10
247.580249725645
20
18.2201944449455
30
0
41
1
10
247.618700276632
20
18.1601189387494
30
0
41
1
10
247.648761892694
20
18.1187907830027
30
0
41
1
10
247.65725
20
18.1075258373112
30
0
0
SPLINE
5
151
100
AcDbEntity
8
1
62
256
6
ByLayer
370
18
48
1
60
0
100
AcDbSpline
70
4
71
3
72
12
73
8
40
0
40
0
40
0
40
0
40
0.171820385506367
40
0.38912410802876
40
0.59167811471951
40
0.873622739350189
40
1
40
1
40
1
40
1
41
1
10
247.555000312325
20
-18.8374254774193
30
0
41
1
10
247.554945951919
20
-18.8415859421234
30
0
41
1
10
247.557566085496
20
-18.8479456508417
30
0
41
1
10
247.571645644365
20
-18.8471547875957
30
0
41
1
10
247.598948282838
20
-18.8325246100649
30
0
41
1
10
247.629289303415
20
-18.8097517340526
30
0
41
1
10
247.650490893341
20
-18.7919055473377
30
0
41
1
10
247.657250000011
20
-18.7860121158195
30
0
0
SPLINE
5
152
100
AcDbEntity
8
1
62
256
6
ByLayer
370
18
48
1
60
0
100
AcDbSpline
70
4
71
3
72
11
73
7
40
0
40
0
40
0
40
0
40
0.143406160135622
40
0.416179409661006
40
0.813457131820054
40
1
40
1
40
1
40
1
41
1
10
247.555000075114
20
18.8374837408244
30
0
41
1
10
247.555218734815
20
18.8332559112073
30
0
41
1
10
247.558158421244
20
18.8190743086718
30
0
41
1
10
247.579864871635
20
18.7772067985676
30
0
41
1
10
247.617427602227
20
18.7232747229728
30
0
41
1
10
247.647143977536
20
18.685075854437
30
0
41
1
10
247.65725
20
18.6725412982299
30
0
0
SPLINE
5
153
100
AcDbEntity
8
1
62
256
6
ByLayer
370
18
48
1
60
0
100
AcDbSpline
70
4
71
3
72
11
73
7
40
0
40
0
40
0
40
0
40
0.15151021055204
40
0.411847092875884
40
0.780628591293145
40
1
40
1
40
1
40
1
41
1
10
247.555000030127
20
19.2510233429179
30
0
41
1
10
247.555213291713
20
19.2477351167947
30
0
41
1
10
247.558226651058
20
19.2366590343581
30
0
41
1
10
247.579017327131
20
19.2017481251854
30
0
41
1
10
247.61576248758
20
19.1531383553434
30
0
41
1
10
247.645364287079
20
19.1174078722661
30
0
41
1
10
247.65725
20
19.1035364558304
30
0
0
SPLINE
5
154
100
AcDbEntity
8
1
62
256
6
ByLayer
370
18
48
1
60
0
100
AcDbSpline
70
4
71
3
72
12
73
8
40
0
40
0
40
0
40
0
40
0.0937750043520382
40
0.315079293964307
40
0.520086113400803
40
0.799364997268625
40
1
40
1
40
1
40
1
41
1
10
247.555000241862
20
-19.250975551376
30
0
41
1
10
247.554980723118
20
-19.252660330552
30
0
41
1
10
247.556166673441
20
-19.2569820460955
30
0
41
1
10
247.56547045096
20
-19.256718152267
30
0
41
1
10
247.589775411851
20
-19.2426519312952
30
0
41
1
10
247.621987058705
20
-19.2176386678643
30
0
41
1
10
247.646436280983
20
-19.1965225182805
30
0
41
1
10
247.65725
20
-19.1867908893245
30
0
0
SPLINE
5
155
100
AcDbEntity
8
1
62
256
6
ByLayer
370
18
48
1
60
0
100
AcDbSpline
70
4
71
3
72
12
73
8
40
0
40
0
40
0
40
0
40
0.080581442770608
40
0.294856636486406
40
0.501424598235988
40
0.795507813486208
40
1
40
1
40
1
40
1
41
1
10
247.555000074588
20
-19.5410298872621
30
0
41
1
10
247.554994909587
20
-19.5419980562034
30
0
41
1
10
247.555997909948
20
-19.5444659198811
30
0
41
1
10
247.564538790173
20
-19.541741577563
30
0
41
1
10
247.588322652416
20
-19.524900506125
30
0
41
1
10
247.620983720609
20
-19.4972337835865
30
0
41
1
10
247.646251711464
20
-19.4743399506937
30
0
41
1
10
247.65725
20
-19.4641115400998
30
0
0
SPLINE
5
156
100
AcDbEntity
8
1
62
256
6
ByLayer
370
18
48
1
60
0
100
AcDbSpline
70
4
71
3
72
12
73
8
40
0
40
0
40
0
40
0
40
0.0040678379005767
40
0.193259184993777
40
0.453930994611829
40
0.816503936930207
40
1
40
1
40
1
40
1
41
1
10
247.555000003065
20
19.5410513391963
30
0
41
1
10
247.555000102346
20
19.540998898705
30
0
41
1
10
247.555041908087
20
19.5384715788753
30
0
41
1
10
247.559763366211
20
19.5278958526446
30
0
41
1
10
247.583394766297
20
19.4949534400491
30
0
41
1
10
247.61968179993
20
19.4515850423524
30
0
41
1
10
247.64738507519
20
19.4203496943217
30
0
41
1
10
247.657250000001
20
19.4094413032536
30
0
0
SPLINE
5
157
100
AcDbEntity
8
1
62
256
6
ByLayer
370
18
48
1
60
0
100
AcDbSpline
70
4
71
3
72
11
73
7
40
0
40
0
40
0
40
0
40
0.231131739999581
40
0.46662867201049
40
0.82596894298649
40
1
40
1
40
1
40
1
41
1
10
247.556420372692
20
-19.7134051731836
30
0
41
1
10
247.55867953327
20
-19.7123941008887
30
0
41
1
10
247.566217544612
20
-19.70717662938
30
0
41
1
10
247.591921726394
20
-19.6849195640167
30
0
41
1
10
247.62442260669
20
-19.6546617313603
30
0
41
1
10
247.648908641859
20
-19.6312544707722
30
0
41
1
10
247.657250000007
20
-19.6232090000593
30
0
0
SPLINE
5
158
100
AcDbEntity
8
1
62
256
6
ByLayer
370
18
48
1
60
0
100
AcDbSpline
70
4
71
3
72
12
73
8
40
0
40
0
40
0
40
0
40
0.101523682145539
40
0.298670259603608
40
0.579960061486477
40
0.971009684658977
40
1
40
1
40
1
40
1
41
1
10
247.555000044758
20
19.7130031276509
30
0
41
1
10
247.555046733676
20
19.7123126748356
30
0
41
1
10
247.556492157933
20
19.7090003075641
30
0
41
1
10
247.567719690897
20
19.6941913394474
30
0
41
1
10
247.599047395785
20
19.6582641268284
30
0
41
1
10
247.633679505405
20
19.6209690724058
30
0
41
1
10
247.655717722444
20
19.5977282863562
30
0
41
1
10
247.65725
20
19.5961148774388
30
0
0
LINE
5
70
100
AcDbEntity
8
81
62
256
6
ByLayer
370
18
48
1
60
0
100
AcDbLine
10
248
20
0
30
0
11
272.8
21
0
31
0
39
0
210
0
220
0
230
1
0
LINE
5
71
100
AcDbEntity
8
4
62
256
6
ByLayer
370
18
48
0.05
60
0
100
AcDbLine
10
0
20
0
30
0
11
248
21
0
31
0
39
0
210
0
220
0
230
1
0
LINE
5
73
100
AcDbEntity
8
SK4
62
256
6
ByLayer
370
18
48
0.05
60
0
100
AcDbLine
10
-165
20
0
30
0
11
253
21
0
31
0
39
0
210
0
220
0
230
1
0
LINE
5
75
100
AcDbEntity
8
80
62
256
6
ByLayer
370
18
48
1
60
0
100
AcDbLine
10
0
20
0
30
0
11
-24.8
21
0
31
0
39
0
210
0
220
0
230
1
0
LINE
5
76
100
AcDbEntity
8
1
62
256
6
ByLayer
370
18
48
1
60
0
100
AcDbLine
10
246.3
20
-20
30
0
11
247.325
21
-20
31
0
39
0
210
0
220
0
230
1
0
LINE
5
78
100
AcDbEntity
8
1
62
256
6
ByLayer
370
18
48
1
60
0
100
AcDbLine
10
247.325
20
20
30
0
11
246.3
21
20
31
0
39
0
210
0
220
0
230
1
0
LINE
5
79
100
AcDbEntity
8
1
62
256
6
ByLayer
370
18
48
1
60
0
100
AcDbLine
10
247.325
20
-20
30
0
11
247.556678
21
-19.768322
31
0
39
0
210
0
220
0
230
1
0
LINE
5
7A
100
AcDbEntity
8
1
62
256
6
ByLayer
370
18
48
1
60
0
100
AcDbLine
10
247.556678
20
19.768322
30
0
11
247.325
21
20
31
0
39
0
210
0
220
0
230
1
0
LINE
5
7B
100
AcDbEntity
8
1
62
256
6
ByLayer
370
18
48
1
60
0
100
AcDbLine
10
247.65725
20
3.66688
30
0
11
247.65725
21
-3.66688
31
0
39
0
210
0
220
0
230
1
0
LINE
5
7C
100
AcDbEntity
8
1
62
256
6
ByLayer
370
18
48
1
60
0
100
AcDbLine
10
248.325
20
1.541407
30
0
11
248.325
21
-1.541407
31
0
39
0
210
0
220
0
230
1
0
LINE
5
7D
100
AcDbEntity
8
1
62
256
6
ByLayer
370
18
48
1
60
0
100
AcDbLine
10
247.65725
20
8.316532
30
0
11
247.65725
21
7.510882
31
0
39
0
210
0
220
0
230
1
0
LINE
5
7E
100
AcDbEntity
8
1
62
256
6
ByLayer
370
18
48
1
60
0
100
AcDbLine
10
247.65725
20
-7.510882
30
0
11
247.65725
21
-8.316532
31
0
39
0
210
0
220
0
230
1
0
LINE
5
7F
100
AcDbEntity
8
1
62
256
6
ByLayer
370
18
48
1
60
0
100
AcDbLine
10
248.325
20
7.545731
30
0
11
248.325
21
4.053252
31
0
39
0
210
0
220
0
230
1
0
LINE
5
80
100
AcDbEntity
8
1
62
256
6
ByLayer
370
18
48
1
60
0
100
AcDbLine
10
248.325
20
-4.053252
30
0
11
248.325
21
-7.545731
31
0
39
0
210
0
220
0
230
1
0
LINE
5
81
100
AcDbEntity
8
1
62
256
6
ByLayer
370
18
48
1
60
0
100
AcDbLine
10
247.65725
20
10.971937
30
0
11
247.65725
21
10.425673
31
0
39
0
210
0
220
0
230
1
0
LINE
5
82
100
AcDbEntity
8
1
62
256
6
ByLayer
370
18
48
1
60
0
100
AcDbLine
10
247.65725
20
-10.425673
30
0
11
247.65725
21
-10.971937
31
0
39
0
210
0
220
0
230
1
0
LINE
5
83
100
AcDbEntity
8
1
62
256
6
ByLayer
370
18
48
1
60
0
100
AcDbLine
10
248.325
20
10.344089
30
0
11
248.325
21
8.358632
31
0
39
0
210
0
220
0
230
1
0
LINE
5
84
100
AcDbEntity
8
1
62
256
6
ByLayer
370
18
48
1
60
0
100
AcDbLine
10
248.325
20
-8.358632
30
0
11
248.325
21
-10.344089
31
0
39
0
210
0
220
0
230
1
0
LINE
5
85
100
AcDbEntity
8
1
62
256
6
ByLayer
370
18
48
1
60
0
100
AcDbLine
10
247.65725
20
12.926797
30
0
11
247.65725
21
12.509035
31
0
39
0
210
0
220
0
230
1
0
LINE
5
86
100
AcDbEntity
8
1
62
256
6
ByLayer
370
18
48
1
60
0
100
AcDbLine
10
247.65725
20
-12.509035
30
0
11
247.65725
21
-12.926797
31
0
39
0
210
0
220
0
230
1
0
LINE
5
87
100
AcDbEntity
8
1
62
256
6
ByLayer
370
18
48
1
60
0
100
AcDbLine
10
248.325
20
12.351611
30
0
11
248.325
21
10.899753
31
0
39
0
210
0
220
0
230
1
0
LINE
5
88
100
AcDbEntity
8
1
62
256
6
ByLayer
370
18
48
1
60
0
100
AcDbLine
10
248.325
20
-10.899753
30
0
11
248.325
21
-12.351611
31
0
39
0
210
0
220
0
230
1
0
LINE
5
89
100
AcDbEntity
8
1
62
256
6
ByLayer
370
18
48
1
60
0
100
AcDbLine
10
247.65725
20
14.467923
30
0
11
247.65725
21
14.133551
31
0
39
0
210
0
220
0
230
1
0
LINE
5
8A
100
AcDbEntity
8
1
62
256
6
ByLayer
370
18
48
1
60
0
100
AcDbLine
10
247.65725
20
-14.133551
30
0
11
247.65725
21
-14.467923
31
0
39
0
210
0
220
0
230
1
0
LINE
5
8B
100
AcDbEntity
8
1
62
256
6
ByLayer
370
18
48
1
60
0
100
AcDbLine
10
248.325
20
-12.776639
30
0
11
248.325
21
-13.914899
31
0
39
0
210
0
220
0
230
1
0
LINE
5
8C
100
AcDbEntity
8
1
62
256
6
ByLayer
370
18
48
1
60
0
100
AcDbLine
10
248.325
20
13.914899
30
0
11
248.325
21
12.776639
31
0
39
0
210
0
220
0
230
1
0
LINE
5
8D
100
AcDbEntity
8
1
62
256
6
ByLayer
370
18
48
1
60
0
100
AcDbLine
10
247.65725
20
-15.444694
30
0
11
247.65725
21
-15.71749
31
0
39
0
210
0
220
0
230
1
0
LINE
5
8E
100
AcDbEntity
8
1
62
256
6
ByLayer
370
18
48
1
60
0
100
AcDbLine
10
247.65725
20
15.71749
30
0
11
247.65725
21
15.444694
31
0
39
0
210
0
220
0
230
1
0
LINE
5
8F
100
AcDbEntity
8
1
62
256
6
ByLayer
370
18
48
1
60
0
100
AcDbLine
10
248.325
20
-14.254136
30
0
11
248.325
21
-15.171899
31
0
39
0
210
0
220
0
230
1
0
LINE
5
90
100
AcDbEntity
8
1
62
256
6
ByLayer
370
18
48
1
60
0
100
AcDbLine
10
248.325
20
15.171899
30
0
11
248.325
21
14.254136
31
0
39
0
210
0
220
0
230
1
0
LINE
5
91
100
AcDbEntity
8
1
62
256
6
ByLayer
370
18
48
1
60
0
100
AcDbLine
10
247.65725
20
-16.51726
30
0
11
247.65725
21
-16.740913
31
0
39
0
210
0
220
0
230
1
0
LINE
5
92
100
AcDbEntity
8
1
62
256
6
ByLayer
370
18
48
1
60
0
100
AcDbLine
10
247.65725
20
16.740913
30
0
11
247.65725
21
16.51726
31
0
39
0
210
0
220
0
230
1
0
LINE
5
93
100
AcDbEntity
8
1
62
256
6
ByLayer
370
18
48
1
60
0
100
AcDbLine
10
248.325
20
16.194093
30
0
11
248.325
21
15.447274
31
0
39
0
210
0
220
0
230
1
0
LINE
5
94
100
AcDbEntity
8
1
62
256
6
ByLayer
370
18
48
1
60
0
100
AcDbLine
10
248.325
20
-15.447274
30
0
11
248.325
21
-16.194093
31
0
39
0
210
0
220
0
230
1
0
LINE
5
95
100
AcDbEntity
8
1
62
256
6
ByLayer
370
18
48
1
60
0
100
AcDbLine
10
247.65725
20
-17.395436
30
0
11
247.65725
21
-17.577738
31
0
39
0
210
0
220
0
230
1
0
LINE
5
96
100
AcDbEntity
8
1
62
256
6
ByLayer
370
18
48
1
60
0
100
AcDbLine
10
247.65725
20
17.577738
30
0
11
247.65725
21
17.395436
31
0
39
0
210
0
220
0
230
1
0
LINE
5
97
100
AcDbEntity
8
1
62
256
6
ByLayer
370
18
48
1
60
0
100
AcDbLine
10
248.325
20
17.023829
30
0
11
248.325
21
16.418165
31
0
39
0
210
0
220
0
230
1
0
LINE
5
98
100
AcDbEntity
8
1
62
256
6
ByLayer
370
18
48
1
60
0
100
AcDbLine
10
248.325
20
-16.418165
30
0
11
248.325
21
-17.023829
31
0
39
0
210
0
220
0
230
1
0
LINE
5
99
100
AcDbEntity
8
1
62
256
6
ByLayer
370
18
48
1
60
0
100
AcDbLine
10
247.65725
20
-18.107526
30
0
11
247.65725
21
-18.253645
31
0
39
0
210
0
220
0
230
1
0
LINE
5
9A
100
AcDbEntity
8
1
62
256
6
ByLayer
370
18
48
1
60
0
100
AcDbLine
10
247.65725
20
18.253645
30
0
11
247.65725
21
18.107526
31
0
39
0
210
0
220
0
230
1
0
LINE
5
9B
100
AcDbEntity
8
1
62
256
6
ByLayer
370
18
48
1
60
0
100
AcDbLine
10
248.325
20
-17.204477
30
0
11
248.325
21
-17.688213
31
0
39
0
210
0
220
0
230
1
0
LINE
5
9C
100
AcDbEntity
8
1
62
256
6
ByLayer
370
18
48
1
60
0
100
AcDbLine
10
248.325
20
17.688213
30
0
11
248.325
21
17.204477
31
0
39
0
210
0
220
0
230
1
0
LINE
5
9D
100
AcDbEntity
8
1
62
256
6
ByLayer
370
18
48
1
60
0
100
AcDbLine
10
247.65725
20
18.786012
30
0
11
247.65725
21
18.672541
31
0
39
0
210
0
220
0
230
1
0
LINE
5
9E
100
AcDbEntity
8
1
62
256
6
ByLayer
370
18
48
1
60
0
100
AcDbLine
10
247.65725
20
-18.672541
30
0
11
247.65725
21
-18.786012
31
0
39
0
210
0
220
0
230
1
0
LINE
5
9F
100
AcDbEntity
8
1
62
256
6
ByLayer
370
18
48
1
60
0
100
AcDbLine
10
248.325
20
18.205356
30
0
11
248.325
21
17.830645
31
0
39
0
210
0
220
0
230
1
0
LINE
5
A0
100
AcDbEntity
8
1
62
256
6
ByLayer
370
18
48
1
60
0
100
AcDbLine
10
248.325
20
-17.830645
30
0
11
248.325
21
-18.205356
31
0
39
0
210
0
220
0
230
1
0
LINE
5
A1
100
AcDbEntity
8
1
62
256
6
ByLayer
370
18
48
1
60
0
100
AcDbLine
10
247.65725
20
19.186791
30
0
11
247.65725
21
19.103536
31
0
39
0
210
0
220
0
230
1
0
LINE
5
A2
100
AcDbEntity
8
1
62
256
6
ByLayer
370
18
48
1
60
0
100
AcDbLine
10
247.65725
20
-19.103536
30
0
11
247.65725
21
-19.186791
31
0
39
0
210
0
220
0
230
1
0
LINE
5
A3
100
AcDbEntity
8
1
62
256
6
ByLayer
370
18
48
1
60
0
100
AcDbLine
10
248.325
20
18.587552
30
0
11
248.325
21
18.313105
31
0
39
0
210
0
220
0
230
1
0
LINE
5
A4
100
AcDbEntity
8
1
62
256
6
ByLayer
370
18
48
1
60
0
100
AcDbLine
10
248.325
20
-18.313105
30
0
11
248.325
21
-18.587552
31
0
39
0
210
0
220
0
230
1
0
LINE
5
A5
100
AcDbEntity
8
1
62
256
6
ByLayer
370
18
48
1
60
0
100
AcDbLine
10
247.65725
20
-19.409441
30
0
11
247.65725
21
-19.464112
31
0
39
0
210
0
220
0
230
1
0
LINE
5
A6
100
AcDbEntity
8
1
62
256
6
ByLayer
370
18
48
1
60
0
100
AcDbLine
10
247.65725
20
19.464112
30
0
11
247.65725
21
19.409441
31
0
39
0
210
0
220
0
230
1
0
LINE
5
A7
100
AcDbEntity
8
1
62
256
6
ByLayer
370
18
48
1
60
0
100
AcDbLine
10
248.325
20
-18.663003
30
0
11
248.325
21
-18.843015
31
0
39
0
210
0
220
0
230
1
0
LINE
5
A8
100
AcDbEntity
8
1
62
256
6
ByLayer
370
18
48
1
60
0
100
AcDbLine
10
248.325
20
18.843015
30
0
11
248.325
21
18.663003
31
0
39
0
210
0
220
0
230
1
0
LINE
5
A9
100
AcDbEntity
8
1
62
256
6
ByLayer
370
18
48
1
60
0
100
AcDbLine
10
247.65725
20
-19.596115
30
0
11
247.65725
21
-19.623209
31
0
39
0
210
0
220
0
230
1
0
LINE
5
AA
100
AcDbEntity
8
1
62
256
6
ByLayer
370
18
48
1
60
0
100
AcDbLine
10
247.65725
20
19.623209
30
0
11
247.65725
21
19.596115
31
0
39
0
210
0
220
0
230
1
0
LINE
5
AB
100
AcDbEntity
8
1
62
256
6
ByLayer
370
18
48
1
60
0
100
AcDbLine
10
248.325
20
18.976863
30
0
11
248.325
21
18.887709
31
0
39
0
210
0
220
0
230
1
0
LINE
5
AC
100
AcDbEntity
8
1
62
256
6
ByLayer
370
18
48
1
60
0
100
AcDbLine
10
248.325
20
-18.887709
30
0
11
248.325
21
-18.976863
31
0
39
0
210
0
220
0
230
1
0
LINE
5
AD
100
AcDbEntity
8
SK1
62
256
6
ByLayer
370
18
48
1
60
0
100
AcDbLine
10
261
20
-4.899495
30
0
11
255
21
-4.899495
31
0
39
0
210
0
220
0
230
1
0
LINE
5
AF
100
AcDbEntity
8
SK1
62
256
6
ByLayer
370
18
48
1
60
0
100
AcDbLine
10
255
20
-14.899495
30
0
11
261
21
-14.899495
31
0
39
0
210
0
220
0
230
1
0
LINE
5
B0
100
AcDbEntity
8
SK1
62
256
6
ByLayer
370
18
48
1
60
0
100
AcDbLine
10
255
20
-6.899495
30
0
11
248.325
21
-6.899495
31
0
39
0
210
0
220
0
230
1
0
LINE
5
B1
100
AcDbEntity
8
SK1
62
256
6
ByLayer
370
18
48
1
60
0
100
AcDbLine
10
248.325
20
-12.899495
30
0
11
255
21
-12.899495
31
0
39
0
210
0
220
0
230
1
0
LINE
5
B2
100
AcDbEntity
8
SK1
62
256
6
ByLayer
370
18
48
1
60
0
100
AcDbLine
10
261
20
14.899495
30
0
11
255
21
14.899495
31
0
39
0
210
0
220
0
230
1
0
LINE
5
B3
100
AcDbEntity
8
SK1
62
256
6
ByLayer
370
18
48
1
60
0
100
AcDbLine
10
255
20
4.899495
30
0
11
261
21
4.899495
31
0
39
0
210
0
220
0
230
1
0
LINE
5
B4
100
AcDbEntity
8
SK1
62
256
6
ByLayer
370
18
48
1
60
0
100
AcDbLine
10
255
20
12.899495
30
0
11
248.325
21
12.899495
31
0
39
0
210
0
220
0
230
1
0
LINE
5
B5
100
AcDbEntity
8
SK1
62
256
6
ByLayer
370
18
48
1
60
0
100
AcDbLine
10
248.325
20
6.899495
30
0
11
255
21
6.899495
31
0
39
0
210
0
220
0
230
1
0
LINE
5
B6
100
AcDbEntity
8
SK1
62
256
6
ByLayer
370
18
48
1
60
0
100
AcDbLine
10
-159
20
20
30
0
11
-160
21
19
31
0
39
0
210
0
220
0
230
1
0
LINE
5
B7
100
AcDbEntity
8
SK1
62
256
6
ByLayer
370
18
48
1
60
0
100
AcDbLine
10
-160
20
-19
30
0
11
-159
21
-20
31
0
39
0
210
0
220
0
230
1
0
LINE
5
B8
100
AcDbEntity
8
1
62
256
6
ByLayer
370
18
48
1
60
0
100
AcDbLine
10
245.7
20
20
30
0
11
0
21
20
31
0
39
0
210
0
220
0
230
1
0
LINE
5
B9
100
AcDbEntity
8
SK1
62
256
6
ByLayer
370
18
48
1
60
0
100
AcDbLine
10
-159
20
-20
30
0
11
0
21
-20
31
0
39
0
210
0
220
0
230
1
0
LINE
5
BA
100
AcDbEntity
8
1
62
256
6
ByLayer
370
18
48
1
60
0
100
AcDbLine
10
247.325
20
-20
30
0
11
247.325
21
0
31
0
39
0
210
0
220
0
230
1
0
LINE
5
BB
100
AcDbEntity
8
1
62
256
6
ByLayer
370
18
48
1
60
0
100
AcDbLine
10
246.3
20
20
30
0
11
246.3
21
-20
31
0
39
0
210
0
220
0
230
1
0
LINE
5
BC
100
AcDbEntity
8
1
62
256
6
ByLayer
370
18
48
1
60
0
100
AcDbLine
10
247.325
20
0
30
0
11
247.325
21
20
31
0
39
0
210
0
220
0
230
1
0
LINE
5
BD
100
AcDbEntity
8
1
62
256
6
ByLayer
370
18
48
1
60
0
100
AcDbLine
10
248.325
20
18.976863
30
0
11
248.325
21
18.991668
31
0
39
0
210
0
220
0
230
1
0
LINE
5
BE
100
AcDbEntity
8
1
62
256
6
ByLayer
370
18
48
1
60
0
100
AcDbLine
10
248.325
20
18.843015
30
0
11
248.325
21
18.887709
31
0
39
0
210
0
220
0
230
1
0
LINE
5
BF
100
AcDbEntity
8
1
62
256
6
ByLayer
370
18
48
1
60
0
100
AcDbLine
10
248.325
20
18.587552
30
0
11
248.325
21
18.663003
31
0
39
0
210
0
220
0
230
1
0
LINE
5
C0
100
AcDbEntity
8
1
62
256
6
ByLayer
370
18
48
1
60
0
100
AcDbLine
10
248.325
20
18.205356
30
0
11
248.325
21
18.313105
31
0
39
0
210
0
220
0
230
1
0
LINE
5
C1
100
AcDbEntity
8
1
62
256
6
ByLayer
370
18
48
1
60
0
100
AcDbLine
10
248.325
20
17.688213
30
0
11
248.325
21
17.830645
31
0
39
0
210
0
220
0
230
1
0
LINE
5
C2
100
AcDbEntity
8
1
62
256
6
ByLayer
370
18
48
1
60
0
100
AcDbLine
10
248.325
20
17.023829
30
0
11
248.325
21
17.204477
31
0
39
0
210
0
220
0
230
1
0
LINE
5
C3
100
AcDbEntity
8
1
62
256
6
ByLayer
370
18
48
1
60
0
100
AcDbLine
10
248.325
20
16.194093
30
0
11
248.325
21
16.418165
31
0
39
0
210
0
220
0
230
1
0
LINE
5
C4
100
AcDbEntity
8
1
62
256
6
ByLayer
370
18
48
1
60
0
100
AcDbLine
10
248.325
20
15.171899
30
0
11
248.325
21
15.447274
31
0
39
0
210
0
220
0
230
1
0
LINE
5
C5
100
AcDbEntity
8
1
62
256
6
ByLayer
370
18
48
1
60
0
100
AcDbLine
10
248.325
20
13.914899
30
0
11
248.325
21
14.254136
31
0
39
0
210
0
220
0
230
1
0
LINE
5
C6
100
AcDbEntity
8
1
62
256
6
ByLayer
370
18
48
1
60
0
100
AcDbLine
10
248.325
20
12.351611
30
0
11
248.325
21
12.776639
31
0
39
0
210
0
220
0
230
1
0
LINE
5
C7
100
AcDbEntity
8
1
62
256
6
ByLayer
370
18
48
1
60
0
100
AcDbLine
10
248.325
20
10.344089
30
0
11
248.325
21
10.899753
31
0
39
0
210
0
220
0
230
1
0
LINE
5
C8
100
AcDbEntity
8
1
62
256
6
ByLayer
370
18
48
1
60
0
100
AcDbLine
10
248.325
20
7.545731
30
0
11
248.325
21
8.358632
31
0
39
0
210
0
220
0
230
1
0
LINE
5
C9
100
AcDbEntity
8
1
62
256
6
ByLayer
370
18
48
1
60
0
100
AcDbLine
10
248.325
20
1.541407
30
0
11
248.325
21
4.053252
31
0
39
0
210
0
220
0
230
1
0
LINE
5
CA
100
AcDbEntity
8
1
62
256
6
ByLayer
370
18
48
1
60
0
100
AcDbLine
10
248.325
20
-4.053252
30
0
11
248.325
21
-1.541407
31
0
39
0
210
0
220
0
230
1
0
LINE
5
CB
100
AcDbEntity
8
1
62
256
6
ByLayer
370
18
48
1
60
0
100
AcDbLine
10
248.325
20
-8.358632
30
0
11
248.325
21
-7.545731
31
0
39
0
210
0
220
0
230
1
0
LINE
5
CC
100
AcDbEntity
8
1
62
256
6
ByLayer
370
18
48
1
60
0
100
AcDbLine
10
248.325
20
-10.899753
30
0
11
248.325
21
-10.344089
31
0
39
0
210
0
220
0
230
1
0
LINE
5
CD
100
AcDbEntity
8
1
62
256
6
ByLayer
370
18
48
1
60
0
100
AcDbLine
10
248.325
20
-12.776639
30
0
11
248.325
21
-12.351611
31
0
39
0
210
0
220
0
230
1
0
LINE
5
CE
100
AcDbEntity
8
1
62
256
6
ByLayer
370
18
48
1
60
0
100
AcDbLine
10
248.325
20
-14.254136
30
0
11
248.325
21
-13.914899
31
0
39
0
210
0
220
0
230
1
0
LINE
5
CF
100
AcDbEntity
8
1
62
256
6
ByLayer
370
18
48
1
60
0
100
AcDbLine
10
248.325
20
-15.447274
30
0
11
248.325
21
-15.171899
31
0
39
0
210
0
220
0
230
1
0
LINE
5
D0
100
AcDbEntity
8
1
62
256
6
ByLayer
370
18
48
1
60
0
100
AcDbLine
10
248.325
20
-16.418165
30
0
11
248.325
21
-16.194093
31
0
39
0
210
0
220
0
230
1
0
LINE
5
D1
100
AcDbEntity
8
1
62
256
6
ByLayer
370
18
48
1
60
0
100
AcDbLine
10
248.325
20
-17.204477
30
0
11
248.325
21
-17.023829
31
0
39
0
210
0
220
0
230
1
0
LINE
5
D2
100
AcDbEntity
8
1
62
256
6
ByLayer
370
18
48
1
60
0
100
AcDbLine
10
248.325
20
-17.830645
30
0
11
248.325
21
-17.688213
31
0
39
0
210
0
220
0
230
1
0
LINE
5
D3
100
AcDbEntity
8
1
62
256
6
ByLayer
370
18
48
1
60
0
100
AcDbLine
10
248.325
20
-18.313105
30
0
11
248.325
21
-18.205356
31
0
39
0
210
0
220
0
230
1
0
LINE
5
D4
100
AcDbEntity
8
1
62
256
6
ByLayer
370
18
48
1
60
0
100
AcDbLine
10
248.325
20
-18.663003
30
0
11
248.325
21
-18.587552
31
0
39
0
210
0
220
0
230
1
0
LINE
5
D5
100
AcDbEntity
8
1
62
256
6
ByLayer
370
18
48
1
60
0
100
AcDbLine
10
248.325
20
-18.887709
30
0
11
248.325
21
-18.843015
31
0
39
0
210
0
220
0
230
1
0
LINE
5
D6
100
AcDbEntity
8
1
62
256
6
ByLayer
370
18
48
1
60
0
100
AcDbLine
10
248.325
20
-18.991668
30
0
11
248.325
21
-18.976863
31
0
39
0
210
0
220
0
230
1
0
LINE
5
D7
100
AcDbEntity
8
1
62
256
6
ByLayer
370
18
48
1
60
0
100
AcDbLine
10
246
20
-19.7
30
0
11
246
21
0
31
0
39
0
210
0
220
0
230
1
0
LINE
5
D8
100
AcDbEntity
8
1
62
256
6
ByLayer
370
18
48
1
60
0
100
AcDbLine
10
246
20
0
30
0
11
246
21
19.7
31
0
39
0
210
0
220
0
230
1
0
LINE
5
D9
100
AcDbEntity
8
SK1
62
256
6
ByLayer
370
18
48
1
60
0
100
AcDbLine
10
261
20
-4.899495
30
0
11
261
21
-9.899495
31
0
39
0
210
0
220
0
230
1
0
LINE
5
DA
100
AcDbEntity
8
SK1
62
256
6
ByLayer
370
18
48
1
60
0
100
AcDbLine
10
255
20
-4.899495
30
0
11
255
21
-9.899495
31
0
39
0
210
0
220
0
230
1
0
LINE
5
DB
100
AcDbEntity
8
SK1
62
256
6
ByLayer
370
18
48
1
60
0
100
AcDbLine
10
261
20
-9.899495
30
0
11
261
21
-14.899495
31
0
39
0
210
0
220
0
230
1
0
LINE
5
DC
100
AcDbEntity
8
SK1
62
256
6
ByLayer
370
18
48
1
60
0
100
AcDbLine
10
255
20
-9.899495
30
0
11
255
21
-14.899495
31
0
39
0
210
0
220
0
230
1
0
LINE
5
DD
100
AcDbEntity
8
SK1
62
256
6
ByLayer
370
18
48
1
60
0
100
AcDbLine
10
261
20
14.899495
30
0
11
261
21
9.899495
31
0
39
0
210
0
220
0
230
1
0
LINE
5
DE
100
AcDbEntity
8
SK1
62
256
6
ByLayer
370
18
48
1
60
0
100
AcDbLine
10
255
20
14.899495
30
0
11
255
21
9.899495
31
0
39
0
210
0
220
0
230
1
0
LINE
5
DF
100
AcDbEntity
8
SK1
62
256
6
ByLayer
370
18
48
1
60
0
100
AcDbLine
10
261
20
9.899495
30
0
11
261
21
4.899495
31
0
39
0
210
0
220
0
230
1
0
LINE
5
E0
100
AcDbEntity
8
SK1
62
256
6
ByLayer
370
18
48
1
60
0
100
AcDbLine
10
255
20
9.899495
30
0
11
255
21
4.899495
31
0
39
0
210
0
220
0
230
1
0
LINE
5
E1
100
AcDbEntity
8
1
62
256
6
ByLayer
370
18
48
1
60
0
100
AcDbLine
10
245.7
20
-20
30
0
11
245.7
21
0
31
0
39
0
210
0
220
0
230
1
0
LINE
5
E2
100
AcDbEntity
8
1
62
256
6
ByLayer
370
18
48
1
60
0
100
AcDbLine
10
246
20
19.7
30
0
11
246
21
0
31
0
39
0
210
0
220
0
230
1
0
LINE
5
E3
100
AcDbEntity
8
1
62
256
6
ByLayer
370
18
48
1
60
0
100
AcDbLine
10
246
20
0
30
0
11
246
21
-19.7
31
0
39
0
210
0
220
0
230
1
0
LINE
5
E4
100
AcDbEntity
8
1
62
256
6
ByLayer
370
18
48
1
60
0
100
AcDbLine
10
245.7
20
0
30
0
11
245.7
21
20
31
0
39
0
210
0
220
0
230
1
0
LINE
5
E5
100
AcDbEntity
8
SK1
62
256
6
ByLayer
370
18
48
1
60
0
100
AcDbLine
10
-160
20
19
30
0
11
-160
21
-19
31
0
39
0
210
0
220
0
230
1
0
LINE
5
E6
100
AcDbEntity
8
SK1
62
256
6
ByLayer
370
18
48
1
60
0
100
AcDbLine
10
-159
20
20
30
0
11
-159
21
-20
31
0
39
0
210
0
220
0
230
1
0
LINE
5
E7
100
AcDbEntity
8
SK1
62
256
6
ByLayer
370
18
48
1
60
0
100
AcDbLine
10
0
20
20
30
0
11
-159
21
20
31
0
39
0
210
0
220
0
230
1
0
LINE
5
E8
100
AcDbEntity
8
1
62
256
6
ByLayer
370
18
48
1
60
0
100
AcDbLine
10
0
20
-20
30
0
11
245.7
21
-20
31
0
39
0
210
0
220
0
230
1
0
MTEXT
5
159
100
AcDbEntity
8
SK6
62
256
6
ByLayer
370
13
48
1
60
0
100
AcDbMText
10
-146.383229
20
59.963086
30
0
210
0
220
0
230
1
1
\W0.7364;570-3C 40 408
40
3.175
41
0
44
1.084337
50
0
71
7
72
5
7
iso_b_vert
0
DIMENSION
5
167
100
AcDbEntity
8
2
62
256
6
ByLayer
370
13
48
1
60
0
100
AcDbDimension
2
DimnDraft3D1
10
248
20
32.24954
30
0
11
120.749803
21
32.24954
31
0
70
32
71
5
72
1
41
1
210
0
220
0
230
1
3
Standard
100
AcDbAlignedDimension
13
0
23
1.5875
33
0
14
248
24
1.5875
34
0
50
0
100
AcDbRotatedDimension
1001
ACAD
1000
DSTYLE
1002
{
1070
   279
1070
     0
1070
   173
1070
     1
1070
   340
1005
15A
1070
   271
1070
     1
1070
   272
1070
     2
1070
    77
1070
     1
1070
    73
1070
     0
1070
   171
1070
     3
1070
   274
1070
     4
1070
   177
1070
     7
1070
   176
1070
     7
1070
   178
1070
     7
1070
    78
1070
     8
1070
    48
1040
-0.005
1070
    41
1041
3.175
1070
   147
1041
1.5875
1070
    42
1041
1.5875
1070
    44
1041
3.175
1070
   140
1041
3.175
1070
   343
1005
0
1070
   344
1005
0
1002
}
0
DIMENSION
5
172
100
AcDbEntity
8
SK2
62
256
6
ByLayer
370
13
48
1
60
0
100
AcDbDimension
2
DimnDraft3D2
10
248
20
48.894932
30
0
11
40.749803
21
48.894932
31
0
70
32
71
5
72
1
41
1
210
0
220
0
230
1
3
Standard
100
AcDbAlignedDimension
13
-160
23
20.5875
33
0
14
248
24
1.5875
34
0
50
0
100
AcDbRotatedDimension
1001
ACAD
1000
DSTYLE
1002
{
1070
   279
1070
     0
1070
   173
1070
     1
1070
   340
1005
15A
1070
   271
1070
     1
1070
   272
1070
     2
1070
    77
1070
     1
1070
    73
1070
     0
1070
   171
1070
     3
1070
   274
1070
     4
1070
   177
1070
     7
1070
   176
1070
     7
1070
   178
1070
     7
1070
    78
1070
     8
1070
    48
1040
-0.005
1070
    41
1041
3.175
1070
   147
1041
1.5875
1070
    42
1041
1.5875
1070
    44
1041
3.175
1070
   140
1041
3.175
1070
   343
1005
0
1070
   344
1005
0
1002
}
0
DIMENSION
5
17D
100
AcDbEntity
8
SK2
62
256
6
ByLayer
370
13
48
1
60
0
100
AcDbDimension
2
DimnDraft3D3
10
-179.221031
20
-20
30
0
11
-179.221031
21
-6.82625
31
0
70
32
71
5
72
1
41
1
210
0
220
0
230
1
3
Standard
100
AcDbAlignedDimension
13
-160.5875
23
20
33
0
14
-160.5875
24
-20
34
0
50
90
100
AcDbRotatedDimension
1001
ACAD
1000
DSTYLE
1002
{
1070
    74
1070
     0
1070
   279
1070
     0
1070
   173
1070
     1
1070
   340
1005
15A
1070
   271
1070
     1
1070
   272
1070
     2
1070
    77
1070
     1
1070
    73
1070
     0
1070
   171
1070
     3
1070
   274
1070
     4
1070
   177
1070
     7
1070
   176
1070
     7
1070
   178
1070
     7
1070
    78
1070
     8
1070
    48
1040
-0.005
1070
    41
1041
3.175
1070
   147
1041
1.5875
1070
    42
1041
1.5875
1070
    44
1041
3.175
1070
   140
1041
3.175
1070
   343
1005
0
1070
   344
1005
0
1002
}
0
ENDSEC
0
SECTION
2
OBJECTS
0
DICTIONARY
5
1e8
330
0
100
AcDbDictionary
280
0
281
1
3
ACAD_GROUP
350
1e9
3
ACAD_MLINESTYLE
350
1ea
0
DICTIONARY
5
1e9
330
0
100
AcDbDictionary
280
0
281
1
0
DICTIONARY
5
1ea
330
0
100
AcDbDictionary
280
0
281
1
3
Standard
350
18
0
MLINESTYLE
5
18
330
1ea
100
AcDbMlineStyle
2
Standard
70
0
3

62
256
51
90
52
90
71
2
49
-0.5
62
256
6
ByLayer
49
0.5
62
256
6
ByLayer
0
RASTERVARIABLES
5
1d6
330

100
AcDbRasterVariables
90
0
70
1
71
1
72
1
0
ENDSEC
0
EOF
