0
SECTION
2
HEADER
9
$ACADVER
1
AC1015
9
$DWGCODEPAGE
3
ANSI_1252
9
$HANDSEED
5
1cc
9
$ANGBASE
50
0
9
$ANGDIR
70
0
9
$ATTMODE
70
1
9
$AUNITS
70
0
9
$AUPREC
70
0
9
$CECOLOR
62
256
9
$CELTSCALE
40
1
9
$CELTYPE
6
ByLayer
9
$CELWEIGHT
370
18
9
$CLAYER
8
0
9
$CMLJUST
70
0
9
$CMLSCALE
40
1
9
$CMLSTYLE
2
Standard
9
$DIMSTYLE
2
Standard
9
$TEXTSIZE
40
0.2
9
$TEXTSTYLE
7
Standard
9
$LUNITS
70
2
9
$LUPREC
70
4
9
$EXTNAMES
290
1
9
$INSUNITS
70
4
9
$LTSCALE
40
1
9
$LWDISPLAY
290
1
9
$PDMODE
70
0
9
$PDSIZE
40
0
9
$PLINEGEN
70
0
0
ENDSEC
0
SECTION
2
CLASSES
0
CLASS
1
RASTERVARIABLES
2
AcDbRasterVariables
3
ISM
90
0
280
0
281
0
0
ENDSEC
0
SECTION
2
TABLES
0
TABLE
2
VPORT
5
1c2
100
AcDbSymbolTable
0
VPORT
5
1
100
AcDbSymbolTableRecord
100
AcDbViewportTableRecord
2
*Active
70
0
10
0
20
0
11
1
21
1
12
-1
22
1
13
0
23
0
14
0.5
24
0.5
15
10
25
10
16
0
26
0
36
1
17
0
27
0
37
0
0
ENDTAB
0
TABLE
2
LTYPE
5
1c3
100
AcDbSymbolTable
0
LTYPE
5
14
100
AcDbSymbolTableRecord
100
AcDbLinetypeTableRecord
70
0
2
ByBlock
3

72
65
73
0
40
0
0
LTYPE
5
15
100
AcDbSymbolTableRecord
100
AcDbLinetypeTableRecord
70
0
2
ByLayer
3

72
65
73
0
40
0
0
LTYPE
5
16
100
AcDbSymbolTableRecord
100
AcDbLinetypeTableRecord
70
0
2
CONTINUOUS
3
Solid line
72
65
73
0
40
0
0
LTYPE
5
6A
100
AcDbSymbolTableRecord
100
AcDbLinetypeTableRecord
70
0
2
CENTER
3
____ _ ____ _ ____ _ ____
72
65
73
4
40
47.5
49
22
74
0
49
-8.5
74
0
49
8.5
74
0
49
-8.5
74
0
0
LTYPE
5
6B
100
AcDbSymbolTableRecord
100
AcDbLinetypeTableRecord
70
0
2
DASHED
3
__ __ __ __ __ __ __ __ __
72
65
73
2
40
25.72
49
12.86
74
0
49
-12.86
74
0
0
ENDTAB
0
TABLE
2
LAYER
5
1c4
100
AcDbSymbolTable
0
LAYER
5
10
100
AcDbSymbolTableRecord
100
AcDbLayerTableRecord
2
0
70
0
62
7
6
CONTINUOUS
290
1
370
-3
390
0
0
LAYER
5
6D
100
AcDbSymbolTableRecord
100
AcDbLayerTableRecord
2
80
70
0
62
-6
6
CONTINUOUS
290
1
370
-3
390
0
0
LAYER
5
6F
100
AcDbSymbolTableRecord
100
AcDbLayerTableRecord
2
81
70
0
62
-3
6
CONTINUOUS
290
1
370
-3
390
0
0
LAYER
5
72
100
AcDbSymbolTableRecord
100
AcDbLayerTableRecord
2
4
70
0
62
-2
6
CENTER
290
1
370
-3
390
0
0
LAYER
5
77
100
AcDbSymbolTableRecord
100
AcDbLayerTableRecord
2
1
70
0
62
4
6
CONTINUOUS
290
1
370
-3
390
0
0
LAYER
5
136
100
AcDbSymbolTableRecord
100
AcDbLayerTableRecord
2
2
70
0
62
7
6
CONTINUOUS
290
1
370
-3
390
0
0
LAYER
5
1ae
100
AcDbSymbolTableRecord
100
AcDbLayerTableRecord
2
SK4
70
0
62
2
6
CENTER
290
1
370
-3
390
0
0
LAYER
5
1af
100
AcDbSymbolTableRecord
100
AcDbLayerTableRecord
2
SK1
70
0
62
4
6
CONTINUOUS
290
1
370
-3
390
0
0
LAYER
5
1b0
100
AcDbSymbolTableRecord
100
AcDbLayerTableRecord
2
SK6
70
0
62
5
6
CONTINUOUS
290
1
370
-3
390
0
0
LAYER
5
1b1
100
AcDbSymbolTableRecord
100
AcDbLayerTableRecord
2
SK2
70
0
62
7
6
CONTINUOUS
290
1
370
-3
390
0
0
ENDTAB
0
TABLE
2
STYLE
5
1c5
100
AcDbSymbolTable
0
STYLE
5
11
100
AcDbSymbolTableRecord
100
AcDbTextStyleTableRecord
2
Standard
3
txt
70
0
71
0
40
0
41
1
42
0
50
0
0
STYLE
5
131
100
AcDbSymbolTableRecord
100
AcDbTextStyleTableRecord
2
iso_b_vert
3
simplex.shx
70
0
71
0
40
0
41
1
42
0
50
0
0
STYLE
5
132
100
AcDbSymbolTableRecord
100
AcDbTextStyleTableRecord
2
DWGDirectTextStyle
3
simplex
70
0
71
0
40
0
41
1
42
0
50
0
0
ENDTAB
0
TABLE
2
DIMSTYLE
5
1c6
100
AcDbSymbolTable
100
AcDbDimStyleTable
0
DIMSTYLE
105
27
100
AcDbSymbolTableRecord
100
AcDbDimStyleTableRecord
2
Standard
70
0
3
<>
41
0.18
42
0.0625
44
0.18
140
0.18
147
0.09
73
0
74
0
77
1
271
2
275
0
278
52
280
0
340
11
0
ENDTAB
0
TABLE
2
VIEW
5
1c7
100
AcDbSymbolTable
0
ENDTAB
0
TABLE
2
UCS
5
1c8
100
AcDbSymbolTable
0
ENDTAB
0
TABLE
2
APPID
5
1c9
100
AcDbSymbolTable
0
APPID
5
12
100
AcDbSymbolTableRecord
100
AcDbRegAppTableRecord
2
ACAD
70
0
0
ENDTAB
0
TABLE
2
BLOCK_RECORD
5
1ca
100
AcDbSymbolTable
0
BLOCK_RECORD
5
1F
100
AcDbSymbolTableRecord
100
AcDbBlockTableRecord
2
*Model_Space
340
0
70
0
0
BLOCK_RECORD
5
1B
100
AcDbSymbolTableRecord
100
AcDbBlockTableRecord
2
*Paper_Space
340
0
70
0
0
BLOCK_RECORD
5
23
100
AcDbSymbolTableRecord
100
AcDbBlockTableRecord
2
*Paper_Space0
340
0
70
0
0
BLOCK_RECORD
5
134
100
AcDbSymbolTableRecord
100
AcDbBlockTableRecord
2
DimnDraft3D1
340
0
70
0
0
BLOCK_RECORD
5
13F
100
AcDbSymbolTableRecord
100
AcDbBlockTableRecord
2
DimnDraft3D2
340
0
70
0
0
BLOCK_RECORD
5
14B
100
AcDbSymbolTableRecord
100
AcDbBlockTableRecord
2
DimnDraft3D33
340
0
70
0
0
ENDTAB
0
ENDSEC
0
SECTION
2
BLOCKS
0
BLOCK
5
20
100
AcDbEntity
8
0
100
AcDbBlockBegin
2
*Model_Space
70
0
10
0
20
0
30
0
3
*Model_Space
0
ENDBLK
5
21
100
AcDbEntity
8
0
100
AcDbBlockEnd
0
BLOCK
5
1C
100
AcDbEntity
8
0
100
AcDbBlockBegin
2
*Paper_Space
70
0
10
0
20
0
30
0
3
*Paper_Space
0
ENDBLK
5
1D
100
AcDbEntity
8
0
100
AcDbBlockEnd
0
BLOCK
5
24
100
AcDbEntity
8
0
100
AcDbBlockBegin
2
*Paper_Space0
70
0
10
0
20
0
30
0
3
*Paper_Space0
0
ENDBLK
5
25
100
AcDbEntity
8
0
100
AcDbBlockEnd
0
BLOCK
5
13C
100
AcDbEntity
8
0
100
AcDbBlockBegin
2
DimnDraft3D1
70
0
10
0
20
0
30
0
3
DimnDraft3D1
0
MTEXT
5
135
100
AcDbEntity
8
2
62
256
6
ByLayer
370
13
48
1
60
0
100
AcDbMText
10
94.107533
20
24.64638
30
0
210
0
220
0
230
1
1
\W0.6217;192
40
3.175
41
0
44
1.084337
50
0
71
7
72
5
7
iso_b_vert
0
LINE
5
137
100
AcDbEntity
8
2
62
256
6
ByLayer
370
13
48
1
60
0
100
AcDbLine
10
0
20
1.5875
30
0
11
0
21
27.02763
31
0
39
0
210
0
220
0
230
1
0
LINE
5
138
100
AcDbEntity
8
2
62
256
6
ByLayer
370
13
48
1
60
0
100
AcDbLine
10
192
20
1.5875
30
0
11
192
21
27.02763
31
0
39
0
210
0
220
0
230
1
0
LINE
5
139
100
AcDbEntity
8
2
62
256
6
ByLayer
370
13
48
1
60
0
100
AcDbLine
10
0
20
23.85263
30
0
11
192
21
23.85263
31
0
39
0
210
0
220
0
230
1
0
SOLID
5
13A
100
AcDbEntity
8
2
62
256
6
ByLayer
370
13
48
1
60
0
100
AcDbTrace
10
0
20
23.85263
30
0
11
3.174998
21
24.270627
31
0
12
3.175002
22
23.434634
32
0
13
0
23
23.85263
33
0
39
0
210
0
220
0
230
1
0
SOLID
5
13B
100
AcDbEntity
8
2
62
256
6
ByLayer
370
13
48
1
60
0
100
AcDbTrace
10
192
20
23.85263
30
0
11
188.825002
21
23.434634
31
0
12
188.824998
22
24.270627
32
0
13
192
23
23.85263
33
0
39
0
210
0
220
0
230
1
0
ENDBLK
5
13D
100
AcDbEntity
8
0
100
AcDbBlockEnd
0
BLOCK
5
148
100
AcDbEntity
8
0
100
AcDbBlockBegin
2
DimnDraft3D2
70
0
10
0
20
0
30
0
3
DimnDraft3D2
0
MTEXT
5
140
100
AcDbEntity
8
SK2
62
256
6
ByLayer
370
13
48
1
60
0
100
AcDbMText
10
-147.132801
20
-4.25309
30
0
210
0
220
0
230
1
1
%%c
40
3.175
41
0
44
1.084337
50
90
71
7
72
5
7
iso_b_vert
0
MTEXT
5
142
100
AcDbEntity
8
SK2
62
256
6
ByLayer
370
13
48
1
60
0
100
AcDbMText
10
-147.132801
20
3.659605
30
0
210
0
220
0
230
1
1
\W0.6740;32
40
3.175
41
0
44
1.084337
50
90
71
7
72
5
7
iso_b_vert
0
LINE
5
143
100
AcDbEntity
8
SK2
62
256
6
ByLayer
370
13
48
1
60
0
100
AcDbLine
10
-128.5875
20
16
30
0
11
-148.720301
21
16
31
0
39
0
210
0
220
0
230
1
0
LINE
5
144
100
AcDbEntity
8
SK2
62
256
6
ByLayer
370
13
48
1
60
0
100
AcDbLine
10
-128.5875
20
-16
30
0
11
-148.720301
21
-16
31
0
39
0
210
0
220
0
230
1
0
LINE
5
145
100
AcDbEntity
8
SK2
62
256
6
ByLayer
370
13
48
1
60
0
100
AcDbLine
10
-145.545301
20
16
30
0
11
-145.545301
21
-16
31
0
39
0
210
0
220
0
230
1
0
SOLID
5
146
100
AcDbEntity
8
SK2
62
256
6
ByLayer
370
13
48
1
60
0
100
AcDbTrace
10
-145.545301
20
16
30
0
11
-145.127304
21
12.825002
31
0
12
-145.963298
22
12.824998
32
0
13
-145.545301
23
16
33
0
39
0
210
0
220
0
230
1
0
SOLID
5
147
100
AcDbEntity
8
SK2
62
256
6
ByLayer
370
13
48
1
60
0
100
AcDbTrace
10
-145.545301
20
-16
30
0
11
-145.963298
21
-12.825002
31
0
12
-145.127304
22
-12.824998
32
0
13
-145.545301
23
-16
33
0
39
0
210
0
220
0
230
1
0
ENDBLK
5
149
100
AcDbEntity
8
0
100
AcDbBlockEnd
0
BLOCK
5
14C
100
AcDbEntity
8
0
100
AcDbBlockBegin
2
DimnDraft3D33
70
0
10
0
20
0
30
0
3
DimnDraft3D33
0
LINE
5
14E
100
AcDbEntity
8
SK2
62
256
6
ByLayer
370
25
48
1
60
0
100
AcDbLine
10
192
20
1.5875
30
0
11
192
21
36.452445
31
0
39
0
210
0
220
0
230
1
0
LINE
5
14F
100
AcDbEntity
8
SK2
62
256
6
ByLayer
370
25
48
1
60
0
100
AcDbLine
10
-128
20
16.5875
30
0
11
-128
21
36.452445
31
0
39
0
210
0
220
0
230
1
0
LINE
5
150
100
AcDbEntity
8
SK2
62
256
6
ByLayer
370
25
48
1
60
0
100
AcDbLine
10
192
20
33.277445
30
0
11
-128
21
33.277445
31
0
39
0
210
0
220
0
230
1
0
SOLID
5
151
100
AcDbEntity
8
SK2
62
256
6
ByLayer
370
25
48
1
60
0
100
AcDbTrace
10
192
20
33.277445
30
0
11
188.825002
21
32.859448
31
0
12
188.824998
22
33.695441
32
0
13
192
23
33.277445
33
0
39
0
210
0
220
0
230
1
0
SOLID
5
152
100
AcDbEntity
8
SK2
62
256
6
ByLayer
370
25
48
1
60
0
100
AcDbTrace
10
-128
20
33.277445
30
0
11
-124.825002
21
33.695441
31
0
12
-124.824998
22
32.859448
32
0
13
-128
23
33.277445
33
0
39
0
210
0
220
0
230
1
0
MTEXT
5
153
100
AcDbEntity
8
SK2
62
256
6
ByLayer
370
13
48
1
60
0
100
AcDbMText
10
29.710658
20
34.071195
30
0
210
0
220
0
230
1
1
\W0.7138;320
40
3.175
41
0
44
1.084337
50
0
71
7
72
5
7
iso_b_vert
0
ENDBLK
5
14D
100
AcDbEntity
8
0
100
AcDbBlockEnd
0
ENDSEC
0
SECTION
2
ENTITIES
0
ARC
5
D9
100
AcDbEntity
8
1
62
256
6
ByLayer
370
18
48
1
60
0
100
AcDbCircle
39
0
10
190.3
20
-15.7
30
0
40
0.3
210
0
220
0
230
1
100
AcDbArc
50
180
51
270
0
ARC
5
DA
100
AcDbEntity
8
1
62
256
6
ByLayer
370
18
48
1
60
0
100
AcDbCircle
39
0
10
190.3
20
15.7
30
0
40
0.3
210
0
220
0
230
1
100
AcDbArc
50
90
51
180
0
ARC
5
DB
100
AcDbEntity
8
1
62
256
6
ByLayer
370
18
48
1
60
0
100
AcDbCircle
39
0
10
189.7
20
-15.7
30
0
40
0.3
210
0
220
0
230
1
100
AcDbArc
50
270
51
0
0
ARC
5
DC
100
AcDbEntity
8
1
62
256
6
ByLayer
370
18
48
1
60
0
100
AcDbCircle
39
0
10
189.7
20
15.7
30
0
40
0.3
210
0
220
0
230
1
100
AcDbArc
50
0
51
90
0
CIRCLE
5
D8
100
AcDbEntity
8
1
62
256
6
ByLayer
370
18
48
1
60
0
100
AcDbCircle
10
185
20
0
30
0
40
1
39
0
210
0
220
0
230
1
0
POINT
5
6C
100
AcDbEntity
8
80
62
256
6
ByLayer
370
18
48
1
60
0
100
AcDbPoint
10
0
20
0
30
0
39
0
210
0
220
0
230
1
50
360
0
POINT
5
6E
100
AcDbEntity
8
81
62
256
6
ByLayer
370
18
48
1
60
0
100
AcDbPoint
10
192
20
0
30
0
39
0
210
0
220
0
230
1
50
360
0
SPLINE
5
DD
100
AcDbEntity
8
1
62
256
6
ByLayer
370
18
48
1
60
0
100
AcDbSpline
70
4
71
3
72
12
73
8
40
0
40
0
40
0
40
0
40
0.0808708751432936
40
0.282038329412632
40
0.495199376874005
40
0.830211183043358
40
1
40
1
40
1
40
1
41
1
10
191.555
20
-15.77
30
0
41
1
10
191.555015319704
20
-15.7699843509512
30
0
41
1
10
191.556066808903
20
-15.7689195232193
30
0
41
1
10
191.56470010548
20
-15.760174527767
30
0
41
1
10
191.589244029227
20
-15.7353381492093
30
0
41
1
10
191.622493669363
20
-15.7017549802954
30
0
41
1
10
191.648172210506
20
-15.6758884391968
30
0
41
1
10
191.657250000006
20
-15.666749020611
30
0
0
SPLINE
5
DE
100
AcDbEntity
8
1
62
256
6
ByLayer
370
18
48
1
60
0
100
AcDbSpline
70
4
71
3
72
11
73
7
40
0
40
0
40
0
40
0
40
0.363578969377351
40
0.63286185493968
40
0.855904512839019
40
1
40
1
40
1
40
1
41
1
10
191.65725
20
15.6667490206169
30
0
41
1
10
191.637125012204
20
15.6870195713516
30
0
41
1
10
191.606533602044
20
15.7178584549805
30
0
41
1
10
191.572592398456
20
15.7521840190522
30
0
41
1
10
191.557502883861
20
15.767464893308
30
0
41
1
10
191.555089954309
20
15.7699081702943
30
0
41
1
10
191.555
20
15.77
30
0
0
SPLINE
5
DF
100
AcDbEntity
8
1
62
256
6
ByLayer
370
18
48
1
60
0
100
AcDbSpline
70
4
71
1
72
4
73
2
40
0
40
0
40
1
40
1
41
1
10
192.325
20
14.989444616685
30
0
41
1
10
191.65725
20
15.6667490206169
30
0
0
SPLINE
5
E0
100
AcDbEntity
8
1
62
256
6
ByLayer
370
18
48
1
60
0
100
AcDbSpline
70
4
71
1
72
4
73
2
40
0
40
0
40
1
40
1
41
1
10
191.65725
20
15.6118010319188
30
0
41
1
10
192.325
20
14.9706824636902
30
0
0
SPLINE
5
E1
100
AcDbEntity
8
1
62
256
6
ByLayer
370
18
48
1
60
0
100
AcDbSpline
70
4
71
3
72
11
73
7
40
0
40
0
40
0
40
0
40
0.350543250870101
40
0.638577219282386
40
0.868698664699086
40
1
40
1
40
1
40
1
41
1
10
191.65725
20
15.5777314872795
30
0
41
1
10
191.637922937838
20
15.5983192929337
30
0
41
1
10
191.607010737924
20
15.632133039613
30
0
41
1
10
191.572571643515
20
15.6720428421825
30
0
41
1
10
191.557359765722
20
15.69222102332
30
0
41
1
10
191.555107367993
20
15.6973193503362
30
0
41
1
10
191.555000062035
20
15.6984846452879
30
0
0
SPLINE
5
E2
100
AcDbEntity
8
1
62
256
6
ByLayer
370
18
48
1
60
0
100
AcDbSpline
70
4
71
1
72
4
73
2
40
0
40
0
40
1
40
1
41
1
10
192.325
20
14.8575087549929
30
0
41
1
10
191.65725
20
15.5777314872795
30
0
0
SPLINE
5
E3
100
AcDbEntity
8
1
62
256
6
ByLayer
370
18
48
1
60
0
100
AcDbSpline
70
4
71
1
72
4
73
2
40
0
40
0
40
1
40
1
41
1
10
191.65725
20
15.4113477037358
30
0
41
1
10
192.325
20
14.800649206728
30
0
0
SPLINE
5
E4
100
AcDbEntity
8
1
62
256
6
ByLayer
370
18
48
1
60
0
100
AcDbSpline
70
4
71
3
72
11
73
7
40
0
40
0
40
0
40
0
40
0.335425084384284
40
0.644374219271855
40
0.881647369579588
40
1
40
1
40
1
40
1
41
1
10
191.65725
20
15.3422427208201
30
0
41
1
10
191.638788317287
20
15.3632029078342
30
0
41
1
10
191.607476410272
20
15.40044393676
30
0
41
1
10
191.572490845072
20
15.4464812272089
30
0
41
1
10
191.557178349874
20
15.4720597398652
30
0
41
1
10
191.555110551384
20
15.4798939549681
30
0
41
1
10
191.555000143883
20
15.4819714470496
30
0
0
SPLINE
5
E5
100
AcDbEntity
8
1
62
256
6
ByLayer
370
18
48
1
60
0
100
AcDbSpline
70
4
71
1
72
4
73
2
40
0
40
0
40
1
40
1
41
1
10
192.325
20
14.5707818216016
30
0
41
1
10
191.65725
20
15.3422427208201
30
0
0
SPLINE
5
E6
100
AcDbEntity
8
1
62
256
6
ByLayer
370
18
48
1
60
0
100
AcDbSpline
70
4
71
1
72
4
73
2
40
0
40
0
40
1
40
1
41
1
10
191.65725
20
15.0595798291541
30
0
41
1
10
192.325
20
14.4740146625805
30
0
0
SPLINE
5
E7
100
AcDbEntity
8
1
62
256
6
ByLayer
370
18
48
1
60
0
100
AcDbSpline
70
4
71
3
72
11
73
7
40
0
40
0
40
0
40
0
40
0.436398724975294
40
0.727487434092872
40
0.955143082872771
40
1
40
1
40
1
40
1
41
1
10
191.65725
20
14.9533643411553
30
0
41
1
10
191.632672448326
20
14.9832589395575
30
0
41
1
10
191.598586137248
20
15.0285892297749
30
0
41
1
10
191.565106074362
20
15.0820186342503
30
0
41
1
10
191.555683027035
20
15.1054295238238
30
0
41
1
10
191.55501969209
20
15.1130432435525
30
0
41
1
10
191.555000339311
20
15.1142163670995
30
0
0
SPLINE
5
E8
100
AcDbEntity
8
1
62
256
6
ByLayer
370
18
48
1
60
0
100
AcDbSpline
70
4
71
1
72
4
73
2
40
0
40
0
40
1
40
1
41
1
10
192.325
20
14.1198370876133
30
0
41
1
10
191.65725
20
14.9533643411553
30
0
0
SPLINE
5
E9
100
AcDbEntity
8
1
62
256
6
ByLayer
370
18
48
1
60
0
100
AcDbSpline
70
4
71
1
72
4
73
2
40
0
40
0
40
1
40
1
41
1
10
191.65725
20
14.5455234081104
30
0
41
1
10
192.325
20
13.9798062920975
30
0
0
SPLINE
5
EA
100
AcDbEntity
8
1
62
256
6
ByLayer
370
18
48
1
60
0
100
AcDbSpline
70
4
71
3
72
11
73
7
40
0
40
0
40
0
40
0
40
0.470820745489559
40
0.76252703923765
40
0.988895960790978
40
1
40
1
40
1
40
1
41
1
10
191.65725
20
14.3986734991149
30
0
41
1
10
191.630438630342
20
14.4340000228696
30
0
41
1
10
191.595185313405
20
14.4865320199931
30
0
41
1
10
191.562481453989
20
14.5488855051814
30
0
41
1
10
191.555157949281
20
14.5748185392747
30
0
41
1
10
191.555001636105
20
14.5835254796849
30
0
41
1
10
191.55500006462
20
14.5839276968501
30
0
0
SPLINE
5
EB
100
AcDbEntity
8
1
62
256
6
ByLayer
370
18
48
1
60
0
100
AcDbSpline
70
4
71
1
72
4
73
2
40
0
40
0
40
1
40
1
41
1
10
192.325
20
13.4882139614095
30
0
41
1
10
191.65725
20
14.3986734991149
30
0
0
SPLINE
5
EC
100
AcDbEntity
8
1
62
256
6
ByLayer
370
18
48
1
60
0
100
AcDbSpline
70
4
71
1
72
4
73
2
40
0
40
0
40
1
40
1
41
1
10
191.65725
20
13.8511211748764
30
0
41
1
10
192.325
20
13.2993559045747
30
0
0
SPLINE
5
ED
100
AcDbEntity
8
1
62
256
6
ByLayer
370
18
48
1
60
0
100
AcDbSpline
70
4
71
3
72
10
73
6
40
0
40
0
40
0
40
0
40
0.511473752737902
40
0.797853586510545
40
1
40
1
40
1
40
1
41
1
10
191.65725
20
13.6579827188678
30
0
41
1
10
191.627783127297
20
13.700564943516
30
0
41
1
10
191.591759261431
20
13.7618065575538
30
0
41
1
10
191.560378444441
20
13.8342802198638
30
0
41
1
10
191.555585421846
20
13.861780152969
30
0
41
1
10
191.55500019818
20
13.872224880247
30
0
0
SPLINE
5
EE
100
AcDbEntity
8
1
62
256
6
ByLayer
370
18
48
1
60
0
100
AcDbSpline
70
4
71
1
72
4
73
2
40
0
40
0
40
1
40
1
41
1
10
192.325
20
12.6488747466637
30
0
41
1
10
191.65725
20
13.6579827188678
30
0
0
SPLINE
5
EF
100
AcDbEntity
8
1
62
256
6
ByLayer
370
18
48
1
60
0
100
AcDbSpline
70
4
71
1
72
4
73
2
40
0
40
0
40
1
40
1
41
1
10
191.65725
20
12.9473883229913
30
0
41
1
10
192.325
20
12.4020462419926
30
0
0
SPLINE
5
F0
100
AcDbEntity
8
1
62
256
6
ByLayer
370
18
48
1
60
0
100
AcDbSpline
70
4
71
3
72
10
73
6
40
0
40
0
40
0
40
0
40
0.564559165450941
40
0.833679780141682
40
1
40
1
40
1
40
1
41
1
10
191.65725
20
12.6987867673913
30
0
41
1
10
191.624442247881
20
12.7516786044385
30
0
41
1
10
191.587797552176
20
12.8243683780209
30
0
41
1
10
191.559317818936
20
12.9073886960659
30
0
41
1
10
191.555496597614
20
12.9375384740065
30
0
41
1
10
191.555006815614
20
12.9484605100656
30
0
0
SPLINE
5
F1
100
AcDbEntity
8
1
62
256
6
ByLayer
370
18
48
1
60
0
100
AcDbSpline
70
4
71
1
72
4
73
2
40
0
40
0
40
1
40
1
41
1
10
192.325
20
11.5566495510079
30
0
41
1
10
191.65725
20
12.6987867673913
30
0
0
SPLINE
5
F2
100
AcDbEntity
8
1
62
256
6
ByLayer
370
18
48
1
60
0
100
AcDbSpline
70
4
71
1
72
4
73
2
40
0
40
0
40
1
40
1
41
1
10
191.65725
20
11.7862704436795
30
0
41
1
10
192.325
20
11.2360417630275
30
0
0
SPLINE
5
F3
100
AcDbEntity
8
1
62
256
6
ByLayer
370
18
48
1
60
0
100
AcDbSpline
70
4
71
3
72
10
73
6
40
0
40
0
40
0
40
0
40
0.502468664270304
40
0.799113764679292
40
1
40
1
40
1
40
1
41
1
10
191.65725
20
11.4663803695172
30
0
41
1
10
191.628437656016
20
11.5201878917496
30
0
41
1
10
191.592278738028
20
11.6023379821241
30
0
41
1
10
191.56102030905
20
11.7031512167938
30
0
41
1
10
191.55579969744
20
11.7471707976408
30
0
41
1
10
191.555010865472
20
11.7642799984961
30
0
0
SPLINE
5
F4
100
AcDbEntity
8
1
62
256
6
ByLayer
370
18
48
1
60
0
100
AcDbSpline
70
4
71
1
72
4
73
2
40
0
40
0
40
1
40
1
41
1
10
192.325
20
10.1300673903403
30
0
41
1
10
191.65725
20
11.4663803695172
30
0
0
SPLINE
5
F5
100
AcDbEntity
8
1
62
256
6
ByLayer
370
18
48
1
60
0
100
AcDbSpline
70
4
71
1
72
4
73
2
40
0
40
0
40
1
40
1
41
1
10
191.65725
20
10.280927854857
30
0
41
1
10
192.325
20
9.70497388005107
30
0
0
SPLINE
5
F6
100
AcDbEntity
8
1
62
256
6
ByLayer
370
18
48
1
60
0
100
AcDbSpline
70
4
71
2
72
6
73
3
40
0
40
0
40
0
40
1
40
1
40
1
41
1
10
191.65725
20
9.85883219216296
30
0
41
1
10
191.564368541533
20
10.059692618832
30
0
41
1
10
191.555001999236
20
10.2308911596919
30
0
0
SPLINE
5
F7
100
AcDbEntity
8
1
62
256
6
ByLayer
370
18
48
1
60
0
100
AcDbSpline
70
4
71
1
72
4
73
2
40
0
40
0
40
1
40
1
41
1
10
192.325
20
8.19636393901953
30
0
41
1
10
191.65725
20
9.85883219216296
30
0
0
SPLINE
5
F8
100
AcDbEntity
8
1
62
256
6
ByLayer
370
18
48
1
60
0
100
AcDbSpline
70
4
71
1
72
4
73
2
40
0
40
0
40
1
40
1
41
1
10
191.65725
20
8.24492475053567
30
0
41
1
10
192.325
20
7.59107380575695
30
0
0
SPLINE
5
F9
100
AcDbEntity
8
1
62
256
6
ByLayer
370
18
48
1
60
0
100
AcDbSpline
70
4
71
3
72
10
73
6
40
0
40
0
40
0
40
0
40
0.691793682195287
40
0.953700703658519
40
1
40
1
40
1
40
1
41
1
10
191.65725
20
7.64298800260787
30
0
41
1
10
191.615500100971
20
7.76421834547184
30
0
41
1
10
191.576768087846
20
7.92583896396979
30
0
41
1
10
191.556099364627
20
8.0924649650571
30
0
41
1
10
191.555074987852
20
8.14117077355684
30
0
41
1
10
191.555006914843
20
8.14845219122414
30
0
0
SPLINE
5
FA
100
AcDbEntity
8
1
62
256
6
ByLayer
370
18
48
1
60
0
100
AcDbSpline
70
4
71
2
72
6
73
3
40
0
40
0
40
0
40
1
40
1
40
1
41
1
10
192.325
20
5.2194346733036
30
0
41
1
10
192.045378433028
20
6.45113981071764
30
0
41
1
10
191.65725
20
7.64298800260787
30
0
0
SPLINE
5
FB
100
AcDbEntity
8
1
62
256
6
ByLayer
370
18
48
1
60
0
100
AcDbSpline
70
4
71
1
72
4
73
2
40
0
40
0
40
1
40
1
41
1
10
191.65725
20
5.07543995405497
30
0
41
1
10
192.325
20
4.06967873872439
30
0
0
SPLINE
5
FC
100
AcDbEntity
8
1
62
256
6
ByLayer
370
18
48
1
60
0
100
AcDbSpline
70
4
71
3
72
10
73
6
40
0
40
0
40
0
40
0
40
0.347465612418247
40
0.888848738615243
40
1
40
1
40
1
40
1
41
1
10
191.65725
20
3.89023894160583
30
0
41
1
10
191.63866903701
20
4.00314884738808
30
0
41
1
10
191.59817379307
20
4.29071670221284
30
0
41
1
10
191.560746532789
20
4.61534473172477
30
0
41
1
10
191.555556970587
20
4.82169983096195
30
0
41
1
10
191.555029244808
20
4.85676999500984
30
0
0
SPLINE
5
FD
100
AcDbEntity
8
1
62
256
6
ByLayer
370
18
48
1
60
0
100
AcDbSpline
70
4
71
3
72
15
73
11
40
0
40
0
40
0
40
0
40
0.0839441107734292
40
0.134028681517199
40
0.184579985654935
40
0.229616264100839
40
0.286342810069779
40
0.385404388322701
40
0.686841981346505
40
1
40
1
40
1
40
1
41
1
10
191.65725
20
-5.07543995405505
30
0
41
1
10
191.651389084165
20
-5.08426950832666
30
0
41
1
10
191.641210840152
20
-5.09598908996086
30
0
41
1
10
191.625294913341
20
-5.10850764653029
30
0
41
1
10
191.611815063431
20
-5.11273937890495
30
0
41
1
10
191.598949555034
20
-5.10945568106226
30
0
41
1
10
191.585722032547
20
-5.09661106273904
30
0
41
1
10
191.566561479004
20
-5.05313557877881
30
0
41
1
10
191.557227579104
20
-4.96931836735309
30
0
41
1
10
191.553706850376
20
-4.89685076007187
30
0
41
1
10
191.555022641011
20
-4.8580744715685
30
0
0
SPLINE
5
FE
100
AcDbEntity
8
1
62
256
6
ByLayer
370
18
48
1
60
0
100
AcDbSpline
70
4
71
1
72
4
73
2
40
0
40
0
40
1
40
1
41
1
10
192.325
20
-4.06967873872439
30
0
41
1
10
191.65725
20
-5.07543995405497
30
0
0
SPLINE
5
FF
100
AcDbEntity
8
1
62
256
6
ByLayer
370
18
48
1
60
0
100
AcDbSpline
70
4
71
2
72
6
73
3
40
0
40
0
40
0
40
1
40
1
40
1
41
1
10
191.65725
20
-7.64298800260787
30
0
41
1
10
192.045373471135
20
-6.45114275179284
30
0
41
1
10
192.325
20
-5.2194346733036
30
0
0
SPLINE
5
100
100
AcDbEntity
8
1
62
256
6
ByLayer
370
18
48
1
60
0
100
AcDbSpline
70
4
71
3
72
14
73
10
40
0
40
0
40
0
40
0
40
0.0692363263382032
40
0.196052900841204
40
0.289107914011782
40
0.382179745470573
40
0.509733763168689
40
0.72741220846612
40
1
40
1
40
1
40
1
41
1
10
191.657250000013
20
-8.24492475052782
30
0
41
1
10
191.65290720485
20
-8.24922579968659
30
0
41
1
10
191.640491932154
20
-8.2600996314206
30
0
41
1
10
191.62088618578
20
-8.27250797402739
30
0
41
1
10
191.60057644735
20
-8.27590082765082
30
0
41
1
10
191.583601234565
20
-8.26952921924051
30
0
41
1
10
191.567228734446
20
-8.24839317962814
30
0
41
1
10
191.55673911481
20
-8.20520822662039
30
0
41
1
10
191.554008157092
20
-8.16778309708034
30
0
41
1
10
191.55503554698
20
-8.14486455910578
30
0
0
SPLINE
5
101
100
AcDbEntity
8
1
62
256
6
ByLayer
370
18
48
1
60
0
100
AcDbSpline
70
4
71
1
72
4
73
2
40
0
40
0
40
1
40
1
41
1
10
192.325
20
-7.59107380575695
30
0
41
1
10
191.65725
20
-8.24492475053567
30
0
0
SPLINE
5
102
100
AcDbEntity
8
1
62
256
6
ByLayer
370
18
48
1
60
0
100
AcDbSpline
70
4
71
1
72
4
73
2
40
0
40
0
40
1
40
1
41
1
10
191.65725
20
-9.85883219216296
30
0
41
1
10
192.325
20
-8.19636393901953
30
0
0
SPLINE
5
103
100
AcDbEntity
8
1
62
256
6
ByLayer
370
18
48
1
60
0
100
AcDbSpline
70
4
71
3
72
13
73
9
40
0
40
0
40
0
40
0
40
0.109815341689418
40
0.281661077429857
40
0.411300046918824
40
0.54071675543759
40
0.731132699874375
40
1
40
1
40
1
40
1
41
1
10
191.657250000004
20
-10.2809278548553
30
0
41
1
10
191.650824219489
20
-10.2865896349837
30
0
41
1
10
191.63452073831
20
-10.2990684517944
30
0
41
1
10
191.609880142434
20
-10.3117840267762
30
0
41
1
10
191.587566844409
20
-10.3125839409717
30
0
41
1
10
191.57012122277
20
-10.3022429628086
30
0
41
1
10
191.55752857514
20
-10.2751941317946
30
0
41
1
10
191.554212537579
20
-10.2489623938217
30
0
41
1
10
191.555002180032
20
-10.2308439578287
30
0
0
SPLINE
5
104
100
AcDbEntity
8
1
62
256
6
ByLayer
370
18
48
1
60
0
100
AcDbSpline
70
4
71
1
72
4
73
2
40
0
40
0
40
1
40
1
41
1
10
192.325
20
-9.70497388005107
30
0
41
1
10
191.65725
20
-10.280927854857
30
0
0
SPLINE
5
105
100
AcDbEntity
8
1
62
256
6
ByLayer
370
18
48
1
60
0
100
AcDbSpline
70
4
71
1
72
4
73
2
40
0
40
0
40
1
40
1
41
1
10
191.65725
20
-11.4663803695172
30
0
41
1
10
192.325
20
-10.1300673903403
30
0
0
SPLINE
5
106
100
AcDbEntity
8
1
62
256
6
ByLayer
370
18
48
1
60
0
100
AcDbSpline
70
4
71
3
72
13
73
9
40
0
40
0
40
0
40
0
40
0.145707763476185
40
0.355689716314544
40
0.53749383170086
40
0.692805978487555
40
0.934750606327421
40
1
40
1
40
1
40
1
41
1
10
191.657250000001
20
-11.786270443679
30
0
41
1
10
191.648959540505
20
-11.793257468915
30
0
41
1
10
191.629301885864
20
-11.8076256330826
30
0
41
1
10
191.599525215823
20
-11.8220631845059
30
0
41
1
10
191.575817733141
20
-11.8206262209754
30
0
41
1
10
191.560093579864
20
-11.8055181957874
30
0
41
1
10
191.555459739101
20
-11.7846099197191
30
0
41
1
10
191.554961550913
20
-11.7688934377708
30
0
41
1
10
191.555001749851
20
-11.7654187542591
30
0
0
SPLINE
5
107
100
AcDbEntity
8
1
62
256
6
ByLayer
370
18
48
1
60
0
100
AcDbSpline
70
4
71
1
72
4
73
2
40
0
40
0
40
1
40
1
41
1
10
192.325
20
-11.2360417630275
30
0
41
1
10
191.65725
20
-11.7862704436795
30
0
0
SPLINE
5
108
100
AcDbEntity
8
1
62
256
6
ByLayer
370
18
48
1
60
0
100
AcDbSpline
70
4
71
1
72
4
73
2
40
0
40
0
40
1
40
1
41
1
10
191.65725
20
-12.6987867673913
30
0
41
1
10
192.325
20
-11.5566495510079
30
0
0
SPLINE
5
109
100
AcDbEntity
8
1
62
256
6
ByLayer
370
18
48
1
60
0
100
AcDbSpline
70
4
71
3
72
12
73
8
40
0
40
0
40
0
40
0
40
0.179230167484954
40
0.381544012992393
40
0.585196504024825
40
0.760944314470112
40
1
40
1
40
1
40
1
41
1
10
191.657250000001
20
-12.9473883229911
30
0
41
1
10
191.6472792261
20
-12.9556860553768
30
0
41
1
10
191.626884447
20
-12.9705680463781
30
0
41
1
10
191.596570048645
20
-12.9863706715297
30
0
41
1
10
191.572789868212
20
-12.9883600165958
30
0
41
1
10
191.558004589973
20
-12.9757743423688
30
0
41
1
10
191.554645370598
20
-12.9607910917792
30
0
41
1
10
191.555000021334
20
-12.9495643905384
30
0
0
SPLINE
5
10A
100
AcDbEntity
8
1
62
256
6
ByLayer
370
18
48
1
60
0
100
AcDbSpline
70
4
71
1
72
4
73
2
40
0
40
0
40
1
40
1
41
1
10
192.325
20
-12.4020462419926
30
0
41
1
10
191.65725
20
-12.9473883229913
30
0
0
SPLINE
5
10B
100
AcDbEntity
8
1
62
256
6
ByLayer
370
18
48
1
60
0
100
AcDbSpline
70
4
71
1
72
4
73
2
40
0
40
0
40
1
40
1
41
1
10
191.65725
20
-13.6579827188678
30
0
41
1
10
192.325
20
-12.6488747466637
30
0
0
SPLINE
5
10C
100
AcDbEntity
8
1
62
256
6
ByLayer
370
18
48
1
60
0
100
AcDbSpline
70
4
71
3
72
12
73
8
40
0
40
0
40
0
40
0
40
0.209155254885985
40
0.428242584532139
40
0.64880446323446
40
0.838645103039215
40
1
40
1
40
1
40
1
41
1
10
191.65725
20
-13.8511211748763
30
0
41
1
10
191.64568421386
20
-13.8608294446369
30
0
41
1
10
191.623255582744
20
-13.8775872603551
30
0
41
1
10
191.591155768353
20
-13.895532913778
30
0
41
1
10
191.56778188102
20
-13.8989544901757
30
0
41
1
10
191.556795753814
20
-13.8889273985982
30
0
41
1
10
191.554842859109
20
-13.8780888885181
30
0
41
1
10
191.555001480327
20
-13.8719566383921
30
0
0
SPLINE
5
10D
100
AcDbEntity
8
1
62
256
6
ByLayer
370
18
48
1
60
0
100
AcDbSpline
70
4
71
1
72
4
73
2
40
0
40
0
40
1
40
1
41
1
10
192.325
20
-13.2993559045747
30
0
41
1
10
191.65725
20
-13.8511211748764
30
0
0
SPLINE
5
10E
100
AcDbEntity
8
1
62
256
6
ByLayer
370
18
48
1
60
0
100
AcDbSpline
70
4
71
1
72
4
73
2
40
0
40
0
40
1
40
1
41
1
10
191.65725
20
-14.3986734991149
30
0
41
1
10
192.325
20
-13.4882139614095
30
0
0
SPLINE
5
10F
100
AcDbEntity
8
1
62
256
6
ByLayer
370
18
48
1
60
0
100
AcDbSpline
70
4
71
3
72
12
73
8
40
0
40
0
40
0
40
0
40
0.238446189618261
40
0.472536138168416
40
0.708281469955371
40
0.909626749361423
40
1
40
1
40
1
40
1
41
1
10
191.65725
20
-14.5455234081103
30
0
41
1
10
191.644150588114
20
-14.55675446328
30
0
41
1
10
191.619906672539
20
-14.57561407731
30
0
41
1
10
191.586416192945
20
-14.5962162430477
30
0
41
1
10
191.563755921652
20
-14.6016189057095
30
0
41
1
10
191.555903878388
20
-14.593962452966
30
0
41
1
10
191.554957167571
20
-14.5864528020332
30
0
41
1
10
191.555000735559
20
-14.5837681891278
30
0
0
SPLINE
5
110
100
AcDbEntity
8
1
62
256
6
ByLayer
370
18
48
1
60
0
100
AcDbSpline
70
4
71
1
72
4
73
2
40
0
40
0
40
1
40
1
41
1
10
192.325
20
-13.9798062920975
30
0
41
1
10
191.65725
20
-14.5455234081104
30
0
0
SPLINE
5
111
100
AcDbEntity
8
1
62
256
6
ByLayer
370
18
48
1
60
0
100
AcDbSpline
70
4
71
1
72
4
73
2
40
0
40
0
40
1
40
1
41
1
10
191.65725
20
-14.9533643411553
30
0
41
1
10
192.325
20
-14.1198370876133
30
0
0
SPLINE
5
112
100
AcDbEntity
8
1
62
256
6
ByLayer
370
18
48
1
60
0
100
AcDbSpline
70
4
71
3
72
12
73
8
40
0
40
0
40
0
40
0
40
0.266587403552641
40
0.51332308273384
40
0.723189296348936
40
0.933422438650517
40
1
40
1
40
1
40
1
41
1
10
191.65725
20
-15.0595798291541
30
0
41
1
10
191.642647485915
20
-15.0724840820605
30
0
41
1
10
191.616755469921
20
-15.0937099933848
30
0
41
1
10
191.583948386254
20
-15.1162475644618
30
0
41
1
10
191.562688709869
20
-15.1247758117844
30
0
41
1
10
191.555696215958
20
-15.1210533451289
30
0
41
1
10
191.554984290279
20
-15.1157264662602
30
0
41
1
10
191.555000180052
20
-15.1142466541857
30
0
0
SPLINE
5
113
100
AcDbEntity
8
1
62
256
6
ByLayer
370
18
48
1
60
0
100
AcDbSpline
70
4
71
1
72
4
73
2
40
0
40
0
40
1
40
1
41
1
10
192.325
20
-14.4740146625805
30
0
41
1
10
191.65725
20
-15.0595798291541
30
0
0
SPLINE
5
114
100
AcDbEntity
8
1
62
256
6
ByLayer
370
18
48
1
60
0
100
AcDbSpline
70
4
71
1
72
4
73
2
40
0
40
0
40
1
40
1
41
1
10
191.65725
20
-15.3422427208201
30
0
41
1
10
192.325
20
-14.5707818216016
30
0
0
SPLINE
5
115
100
AcDbEntity
8
1
62
256
6
ByLayer
370
18
48
1
60
0
100
AcDbSpline
70
4
71
3
72
12
73
8
40
0
40
0
40
0
40
0
40
0.294153510240048
40
0.551723063447479
40
0.768220933165703
40
0.985308388173556
40
1
40
1
40
1
40
1
41
1
10
191.65725
20
-15.4113477037358
30
0
41
1
10
191.641148488631
20
-15.4261193838951
30
0
41
1
10
191.613734030583
20
-15.4500146000013
30
0
41
1
10
191.580256317671
20
-15.4759893783787
30
0
41
1
10
191.560036946568
20
-15.4872664205176
30
0
41
1
10
191.555140098941
20
-15.4854991219622
30
0
41
1
10
191.554999537867
20
-15.4822291856871
30
0
41
1
10
191.555000002708
20
-15.4820121509128
30
0
0
SPLINE
5
116
100
AcDbEntity
8
1
62
256
6
ByLayer
370
18
48
1
60
0
100
AcDbSpline
70
4
71
1
72
4
73
2
40
0
40
0
40
1
40
1
41
1
10
192.325
20
-14.800649206728
30
0
41
1
10
191.65725
20
-15.4113477037358
30
0
0
SPLINE
5
117
100
AcDbEntity
8
1
62
256
6
ByLayer
370
18
48
1
60
0
100
AcDbSpline
70
4
71
1
72
4
73
2
40
0
40
0
40
1
40
1
41
1
10
191.65725
20
-15.5777314872795
30
0
41
1
10
192.325
20
-14.8575087549929
30
0
0
SPLINE
5
118
100
AcDbEntity
8
1
62
256
6
ByLayer
370
18
48
1
60
0
100
AcDbSpline
70
4
71
3
72
11
73
7
40
0
40
0
40
0
40
0
40
0.374905131140362
40
0.627189141385274
40
0.881388716262849
40
1
40
1
40
1
40
1
41
1
10
191.65725
20
-15.6118010319188
30
0
41
1
10
191.636376066301
20
-15.6318234862362
30
0
41
1
10
191.606047720447
20
-15.6600155147313
30
0
41
1
10
191.571058634398
20
-15.6904233624892
30
0
41
1
10
191.556933215959
20
-15.7002067055556
30
0
41
1
10
191.555023131955
20
-15.6993651118391
30
0
41
1
10
191.555000073645
20
-15.6984832702223
30
0
0
SPLINE
5
119
100
AcDbEntity
8
1
62
256
6
ByLayer
370
18
48
1
60
0
100
AcDbSpline
70
4
71
1
72
4
73
2
40
0
40
0
40
1
40
1
41
1
10
192.325
20
-14.9706824636902
30
0
41
1
10
191.65725
20
-15.6118010319188
30
0
0
SPLINE
5
11A
100
AcDbEntity
8
1
62
256
6
ByLayer
370
18
48
1
60
0
100
AcDbSpline
70
4
71
1
72
4
73
2
40
0
40
0
40
1
40
1
41
1
10
191.65725
20
-15.6667490206169
30
0
41
1
10
192.325
20
-14.989444616685
30
0
0
SPLINE
5
11B
100
AcDbEntity
8
1
62
256
6
ByLayer
370
18
48
1
60
0
100
AcDbSpline
70
4
71
3
72
11
73
7
40
0
40
0
40
0
40
0
40
0.244811255350474
40
0.491567663268503
40
0.744677633371495
40
1
40
1
40
1
40
1
41
1
10
191.65725
20
-3.89023894160583
30
0
41
1
10
191.758164284421
20
-3.26074630092458
30
0
41
1
10
191.911206130757
20
-1.99213894738969
30
0
41
1
10
191.99492140588
20
-0.0495686524285586
30
0
41
1
10
191.918694319849
20
1.9211550236208
30
0
41
1
10
191.762555078912
20
3.2335608753998
30
0
41
1
10
191.65725
20
3.89023894160583
30
0
0
SPLINE
5
11C
100
AcDbEntity
8
1
62
256
6
ByLayer
370
18
48
1
60
0
100
AcDbSpline
70
4
71
3
72
16
73
12
40
0
40
0
40
0
40
0
40
0.318440268048291
40
0.622120945561549
40
0.703447924890913
40
0.762063789612651
40
0.805979694407129
40
0.850040121473254
40
0.903849105004349
40
0.994262706517727
40
1
40
1
40
1
40
1
41
1
10
191.555029244808
20
4.85676999500984
30
0
41
1
10
191.553605856968
20
4.89639109781707
30
0
41
1
10
191.557259603187
20
4.96985565960344
30
0
41
1
10
191.56656684004
20
5.05306125713379
30
0
41
1
10
191.58521031514
20
5.0950654732457
30
0
41
1
10
191.596691276593
20
5.10790783022575
30
0
41
1
10
191.608629960391
20
5.11248516138866
30
0
41
1
10
191.621647450909
20
5.11030774566828
30
0
41
1
10
191.638453205518
20
5.0992235034406
30
0
41
1
10
191.650039815067
20
5.085432406235
30
0
41
1
10
191.656846326545
20
5.07600708967396
30
0
41
1
10
191.65725
20
5.07543995405505
30
0
0
SPLINE
5
11D
100
AcDbEntity
8
1
62
256
6
ByLayer
370
18
48
1
60
0
100
AcDbSpline
70
4
71
3
72
10
73
6
40
0
40
0
40
0
40
0
40
0.114852010976743
40
0.351349684798295
40
1
40
1
40
1
40
1
41
1
10
191.555022641011
20
-4.8580744715685
30
0
41
1
10
191.554966155735
20
-4.82193994132285
30
0
41
1
10
191.556672457452
20
-4.71092849545198
30
0
41
1
10
191.586149172536
20
-4.38835269291439
30
0
41
1
10
191.621362632105
20
-4.10204805744241
30
0
41
1
10
191.65725
20
-3.89023894160583
30
0
0
SPLINE
5
11E
100
AcDbEntity
8
1
62
256
6
ByLayer
370
18
48
1
60
0
100
AcDbSpline
70
4
71
3
72
14
73
10
40
0
40
0
40
0
40
0
40
0.3170305835119
40
0.45913691604144
40
0.602313064805076
40
0.699753417129837
40
0.797511721728961
40
0.913486262661502
40
1
40
1
40
1
40
1
41
1
10
191.555006914843
20
8.14845219122414
30
0
41
1
10
191.553894824123
20
8.17481689364489
30
0
41
1
10
191.557076340046
20
8.20907085131895
30
0
41
1
10
191.56848436881
20
8.24887033824509
30
0
41
1
10
191.581713093676
20
8.26824408046301
30
0
41
1
10
191.599348861511
20
8.27588055432026
30
0
41
1
10
191.619170446955
20
8.27306319173057
30
0
41
1
10
191.639198533621
20
8.26110025032817
30
0
41
1
10
191.651886024151
20
8.25026694305
30
0
41
1
10
191.65725
20
8.24492475053573
30
0
0
SPLINE
5
11F
100
AcDbEntity
8
1
62
256
6
ByLayer
370
18
48
1
60
0
100
AcDbSpline
70
4
71
2
72
6
73
3
40
0
40
0
40
0
40
1
40
1
40
1
41
1
10
191.55503554698
20
-8.14486455910578
30
0
41
1
10
191.563187014575
20
-7.90717817951065
30
0
41
1
10
191.65725
20
-7.64298800260787
30
0
0
SPLINE
5
120
100
AcDbEntity
8
1
62
256
6
ByLayer
370
18
48
1
60
0
100
AcDbSpline
70
4
71
3
72
14
73
10
40
0
40
0
40
0
40
0
40
0.0570207991383824
40
0.263961614176369
40
0.472632180512071
40
0.60786128715602
40
0.743539272551639
40
0.873270914085314
40
1
40
1
40
1
40
1
41
1
10
191.555001999236
20
10.2308911596919
30
0
41
1
10
191.554974013076
20
10.2345182945579
30
0
41
1
10
191.555272493571
20
10.2509749422988
30
0
41
1
10
191.558547088363
20
10.2786107088628
30
0
41
1
10
191.570764727009
20
10.3035385854928
30
0
41
1
10
191.590225156296
20
10.3133120870529
30
0
41
1
10
191.611732326913
20
10.3106834540282
30
0
41
1
10
191.634918282148
20
10.2986604797642
30
0
41
1
10
191.649818903659
20
10.28748026499
30
0
41
1
10
191.65725
20
10.280927854857
30
0
0
SPLINE
5
121
100
AcDbEntity
8
1
62
256
6
ByLayer
370
18
48
1
60
0
100
AcDbSpline
70
4
71
3
72
10
73
6
40
0
40
0
40
0
40
0
40
0.0313950439724201
40
0.409106482677429
40
1
40
1
40
1
40
1
41
1
10
191.555002180032
20
-10.2308439578287
30
0
41
1
10
191.555032140104
20
-10.2274083003614
30
0
41
1
10
191.555905591469
20
-10.1823992524632
30
0
41
1
10
191.580632605378
20
-10.0582360897642
30
0
41
1
10
191.621968748872
20
-9.93670107993417
30
0
41
1
10
191.65725
20
-9.85883219216296
30
0
0
SPLINE
5
122
100
AcDbEntity
8
1
62
256
6
ByLayer
370
18
48
1
60
0
100
AcDbSpline
70
4
71
3
72
13
73
9
40
0
40
0
40
0
40
0
40
0.153003490220145
40
0.341855264139561
40
0.532340067717492
40
0.70075719368008
40
0.855961860769121
40
1
40
1
40
1
40
1
41
1
10
191.555010865472
20
11.7642799984961
30
0
41
1
10
191.554763911784
20
11.7726893366041
30
0
41
1
10
191.556118217465
20
11.7896327586414
30
0
41
1
10
191.563770759756
20
11.8114801755506
30
0
41
1
10
191.581465762499
20
11.8227346802581
30
0
41
1
10
191.606304011127
20
11.8191251315851
30
0
41
1
10
191.632285612308
20
11.805427642142
30
0
41
1
10
191.64901984543
20
11.7931828654578
30
0
41
1
10
191.65725
20
11.7862704436795
30
0
0
SPLINE
5
123
100
AcDbEntity
8
1
62
256
6
ByLayer
370
18
48
1
60
0
100
AcDbSpline
70
4
71
3
72
10
73
6
40
0
40
0
40
0
40
0
40
0.217572190450039
40
0.691645712711581
40
1
40
1
40
1
40
1
41
1
10
191.555001749851
20
-11.7654187542591
30
0
41
1
10
191.555949698682
20
-11.7466991141743
30
0
41
1
10
191.563356602447
20
-11.6852146180713
30
0
41
1
10
191.601571567374
20
-11.5802208098777
30
0
41
1
10
191.639902017015
20
-11.499090237355
30
0
41
1
10
191.65725
20
-11.4663803695172
30
0
0
SPLINE
5
124
100
AcDbEntity
8
1
62
256
6
ByLayer
370
18
48
1
60
0
100
AcDbSpline
70
4
71
3
72
13
73
9
40
0
40
0
40
0
40
0
40
0.150964821983279
40
0.345506690992584
40
0.541280972025129
40
0.716506534493546
40
0.94939030583956
40
1
40
1
40
1
40
1
41
1
10
191.555006815614
20
12.9484605100656
30
0
41
1
10
191.554793999666
20
12.9554290791048
30
0
41
1
10
191.556347989575
20
12.9692474572525
30
0
41
1
10
191.565322128444
20
12.985026382851
30
0
41
1
10
191.584968310909
20
12.9887893588075
30
0
41
1
10
191.613840131215
20
12.978701179018
30
0
41
1
10
191.638998517422
20
12.9619426371367
30
0
41
1
10
191.654469529282
20
12.9496690752399
30
0
41
1
10
191.65725
20
12.9473883229912
30
0
0
SPLINE
5
125
100
AcDbEntity
8
1
62
256
6
ByLayer
370
18
48
1
60
0
100
AcDbSpline
70
4
71
3
72
11
73
7
40
0
40
0
40
0
40
0
40
0.0038806264270876
40
0.266110408093516
40
0.706109209318641
40
1
40
1
40
1
40
1
41
1
10
191.555000021334
20
-12.9495643905384
30
0
41
1
10
191.55500033404
20
-12.9493202838164
30
0
41
1
10
191.55506858432
20
-12.93254688327
30
0
41
1
10
191.566164163196
20
-12.8789991823453
30
0
41
1
10
191.604464719229
20
-12.7912019513021
30
0
41
1
10
191.640824857324
20
-12.7256777804562
30
0
41
1
10
191.65725
20
-12.6987867673913
30
0
0
SPLINE
5
126
100
AcDbEntity
8
1
62
256
6
ByLayer
370
18
48
1
60
0
100
AcDbSpline
70
4
71
3
72
13
73
9
40
0
40
0
40
0
40
0
40
0.0316467329731593
40
0.247953033205152
40
0.465658269207543
40
0.65608219305687
40
0.905285723914657
40
1
40
1
40
1
40
1
41
1
10
191.55500019818
20
13.872224880247
30
0
41
1
10
191.554993303941
20
13.8733784563274
30
0
41
1
10
191.555243334421
20
13.8821107648866
30
0
41
1
10
191.559658832774
20
13.8950908538812
30
0
41
1
10
191.577501262407
20
13.8990142072381
30
0
41
1
10
191.605978274093
20
13.8884385694065
30
0
41
1
10
191.633883819865
20
13.8698318398498
30
0
41
1
10
191.652134674244
20
13.8553729355459
30
0
41
1
10
191.657250000005
20
13.8511211748747
30
0
0
SPLINE
5
127
100
AcDbEntity
8
1
62
256
6
ByLayer
370
18
48
1
60
0
100
AcDbSpline
70
4
71
3
72
11
73
7
40
0
40
0
40
0
40
0
40
0.0678328292522701
40
0.345194292779797
40
0.782280401492441
40
1
40
1
40
1
40
1
41
1
10
191.555001480327
20
-13.8719566383921
30
0
41
1
10
191.555073554164
20
-13.8686143955396
30
0
41
1
10
191.55640176263
20
-13.8508853215756
30
0
41
1
10
191.573326695281
20
-13.7991067656449
30
0
41
1
10
191.612161563373
20
-13.7270029364371
30
0
41
1
10
191.645308120586
20
-13.6754715408638
30
0
41
1
10
191.657249999999
20
-13.6579827188678
30
0
0
SPLINE
5
128
100
AcDbEntity
8
1
62
256
6
ByLayer
370
18
48
1
60
0
100
AcDbSpline
70
4
71
3
72
11
73
7
40
0
40
0
40
0
40
0
40
0.129925738040846
40
0.414393514086553
40
0.842521180391786
40
1
40
1
40
1
40
1
41
1
10
191.555000735559
20
-14.5837681891278
30
0
41
1
10
191.55521837351
20
-14.5788171004692
30
0
41
1
10
191.55797784648
20
-14.5614100141145
30
0
41
1
10
191.58017688089
20
-14.511905399438
30
0
41
1
10
191.618618393237
20
-14.4515808831509
30
0
41
1
10
191.648717291089
20
-14.4100393607564
30
0
41
1
10
191.65725
20
-14.3986734991149
30
0
0
SPLINE
5
129
100
AcDbEntity
8
1
62
256
6
ByLayer
370
18
48
1
60
0
100
AcDbSpline
70
4
71
3
72
12
73
8
40
0
40
0
40
0
40
0
40
0.203909305538622
40
0.4225375751085
40
0.620621181424576
40
0.889563649497833
40
1
40
1
40
1
40
1
41
1
10
191.55500006462
20
14.5839276968501
30
0
41
1
10
191.55489722557
20
14.5901578709605
30
0
41
1
10
191.558171190867
20
14.5990547487475
30
0
41
1
10
191.574210240404
20
14.6003820075661
30
0
41
1
10
191.602194524323
20
14.5875413988447
30
0
41
1
10
191.631480055287
20
14.5667658287614
30
0
41
1
10
191.651333150623
20
14.5505559271693
30
0
41
1
10
191.657250000007
20
14.5455234081077
30
0
0
SPLINE
5
12A
100
AcDbEntity
8
1
62
256
6
ByLayer
370
18
48
1
60
0
100
AcDbSpline
70
4
71
3
72
11
73
7
40
0
40
0
40
0
40
0
40
0.118390271290265
40
0.377029769009241
40
0.750112275091675
40
1
40
1
40
1
40
1
41
1
10
191.555000180052
20
-15.1142466541857
30
0
41
1
10
191.555138843389
20
-15.1110319892323
30
0
41
1
10
191.557375576907
20
-15.0992567118334
30
0
41
1
10
191.575569952472
20
-15.0632988083935
30
0
41
1
10
191.612547162924
20
-15.0098531241828
30
0
41
1
10
191.643629062905
20
-14.9700200127624
30
0
41
1
10
191.65725
20
-14.9533643411547
30
0
0
SPLINE
5
12B
100
AcDbEntity
8
1
62
256
6
ByLayer
370
18
48
1
60
0
100
AcDbSpline
70
4
71
3
72
12
73
8
40
0
40
0
40
0
40
0
40
0.163694215286415
40
0.380159134767569
40
0.583338143107347
40
0.868065820968462
40
1
40
1
40
1
40
1
41
1
10
191.555000339311
20
15.1142163670995
30
0
41
1
10
191.55495500721
20
15.1179393145092
30
0
41
1
10
191.557413915113
20
15.1237367982327
30
0
41
1
10
191.57097196141
20
15.1224878826465
30
0
41
1
10
191.598007553038
20
15.1074346127982
30
0
41
1
10
191.628607656369
20
15.084109475487
30
0
41
1
10
191.650194818144
20
15.0657778997347
30
0
41
1
10
191.657250000013
20
15.0595798291486
30
0
0
SPLINE
5
12C
100
AcDbEntity
8
1
62
256
6
ByLayer
370
18
48
1
60
0
100
AcDbSpline
70
4
71
3
72
11
73
7
40
0
40
0
40
0
40
0
40
0.171984954810256
40
0.432268023587659
40
0.797919176781433
40
1
40
1
40
1
40
1
41
1
10
191.555000002708
20
-15.4820121509128
30
0
41
1
10
191.555269673015
20
-15.4788542463461
30
0
41
1
10
191.558796949562
20
-15.4683563881702
30
0
41
1
10
191.581173921823
20
-15.4341201383482
30
0
41
1
10
191.6176570447
20
-15.3881714625811
30
0
41
1
10
191.646345886059
20
-15.354651084431
30
0
41
1
10
191.65725
20
-15.342242720817
30
0
0
SPLINE
5
12D
100
AcDbEntity
8
1
62
256
6
ByLayer
370
18
48
1
60
0
100
AcDbSpline
70
4
71
3
72
12
73
8
40
0
40
0
40
0
40
0
40
0.086189448575471
40
0.303723852816754
40
0.509191504298517
40
0.795485245746934
40
1
40
1
40
1
40
1
41
1
10
191.555000143883
20
15.4819714470496
30
0
41
1
10
191.554988712237
20
15.4832675118198
30
0
41
1
10
191.55606642218
20
15.4866459812621
30
0
41
1
10
191.564917416711
20
15.4851765366456
30
0
41
1
10
191.588870494627
20
15.4698043665341
30
0
41
1
10
191.621317389901
20
15.4434731342726
30
0
41
1
10
191.64623875025
20
15.4214238420894
30
0
41
1
10
191.65725
20
15.4113477037358
30
0
0
SPLINE
5
12E
100
AcDbEntity
8
1
62
256
6
ByLayer
370
18
48
1
60
0
100
AcDbSpline
70
4
71
3
72
12
73
8
40
0
40
0
40
0
40
0
40
0.0941508455462883
40
0.289889332262211
40
0.572509325602312
40
0.966989265767987
40
1
40
1
40
1
40
1
41
1
10
191.555000073645
20
-15.6984832702223
30
0
41
1
10
191.55504291129
20
-15.6976880198622
30
0
41
1
10
191.556360709931
20
-15.6940834986305
30
0
41
1
10
191.567102576772
20
-15.6788757361525
30
0
41
1
10
191.598163157722
20
-15.6419560755432
30
0
41
1
10
191.633088231275
20
-15.6035825332731
30
0
41
1
10
191.655504226588
20
-15.5795955704073
30
0
41
1
10
191.65725
20
-15.5777314872795
30
0
0
SPLINE
5
12F
100
AcDbEntity
8
1
62
256
6
ByLayer
370
18
48
1
60
0
100
AcDbSpline
70
4
71
3
72
12
73
8
40
0
40
0
40
0
40
0
40
0.106825144771993
40
0.31572586137759
40
0.526328162313761
40
0.845761088623672
40
1
40
1
40
1
40
1
41
1
10
191.555000062035
20
15.6984846452879
30
0
41
1
10
191.555010324262
20
15.699287567001
30
0
41
1
10
191.556481680304
20
15.7001552974596
30
0
41
1
10
191.566746704078
20
15.6936093593332
30
0
41
1
10
191.592394443878
20
15.6722068580406
30
0
41
1
10
191.624797922366
20
15.6425727315407
30
0
41
1
10
191.64902047667
20
15.6196694966357
30
0
41
1
10
191.657250000008
20
15.6118010319132
30
0
0
INSERT
5
154
100
AcDbEntity
8
SK2
62
256
6
ByLayer
370
25
48
1
60
0
100
AcDbBlockReference
2
DimnDraft3D33
10
0
20
0
30
0
41
1
42
1
43
1
50
0
210
0
220
0
230
1
0
LINE
5
70
100
AcDbEntity
8
81
62
256
6
ByLayer
370
18
48
1
60
0
100
AcDbLine
10
192
20
0
30
0
11
211.2
21
0
31
0
39
0
210
0
220
0
230
1
0
LINE
5
71
100
AcDbEntity
8
4
62
256
6
ByLayer
370
18
48
0.05
60
0
100
AcDbLine
10
0
20
0
30
0
11
192
21
0
31
0
39
0
210
0
220
0
230
1
0
LINE
5
73
100
AcDbEntity
8
SK4
62
256
6
ByLayer
370
18
48
0.05
60
0
100
AcDbLine
10
-133
20
0
30
0
11
197
21
0
31
0
39
0
210
0
220
0
230
1
0
LINE
5
75
100
AcDbEntity
8
80
62
256
6
ByLayer
370
18
48
1
60
0
100
AcDbLine
10
0
20
0
30
0
11
-19.2
21
0
31
0
39
0
210
0
220
0
230
1
0
LINE
5
76
100
AcDbEntity
8
1
62
256
6
ByLayer
370
18
48
1
60
0
100
AcDbLine
10
191.325
20
-16
30
0
11
191.556675
21
-15.768325
31
0
39
0
210
0
220
0
230
1
0
LINE
5
78
100
AcDbEntity
8
1
62
256
6
ByLayer
370
18
48
1
60
0
100
AcDbLine
10
191.556675
20
15.768325
30
0
11
191.325
21
16
31
0
39
0
210
0
220
0
230
1
0
LINE
5
79
100
AcDbEntity
8
1
62
256
6
ByLayer
370
18
48
1
60
0
100
AcDbLine
10
191.325
20
16
30
0
11
190.3
21
16
31
0
39
0
210
0
220
0
230
1
0
LINE
5
7A
100
AcDbEntity
8
1
62
256
6
ByLayer
370
18
48
1
60
0
100
AcDbLine
10
190.3
20
-16
30
0
11
191.325
21
-16
31
0
39
0
210
0
220
0
230
1
0
LINE
5
7B
100
AcDbEntity
8
1
62
256
6
ByLayer
370
18
48
1
60
0
100
AcDbLine
10
191.65725
20
5.07544
30
0
11
191.65725
21
3.890239
31
0
39
0
210
0
220
0
230
1
0
LINE
5
7C
100
AcDbEntity
8
1
62
256
6
ByLayer
370
18
48
1
60
0
100
AcDbLine
10
191.65725
20
-3.890239
30
0
11
191.65725
21
-5.07544
31
0
39
0
210
0
220
0
230
1
0
LINE
5
7D
100
AcDbEntity
8
1
62
256
6
ByLayer
370
18
48
1
60
0
100
AcDbLine
10
192.325
20
4.069679
30
0
11
192.325
21
-4.069679
31
0
39
0
210
0
220
0
230
1
0
LINE
5
7E
100
AcDbEntity
8
1
62
256
6
ByLayer
370
18
48
1
60
0
100
AcDbLine
10
191.65725
20
8.244925
30
0
11
191.65725
21
7.642988
31
0
39
0
210
0
220
0
230
1
0
LINE
5
7F
100
AcDbEntity
8
1
62
256
6
ByLayer
370
18
48
1
60
0
100
AcDbLine
10
191.65725
20
-7.642988
30
0
11
191.65725
21
-8.244925
31
0
39
0
210
0
220
0
230
1
0
LINE
5
80
100
AcDbEntity
8
1
62
256
6
ByLayer
370
18
48
1
60
0
100
AcDbLine
10
192.325
20
7.591074
30
0
11
192.325
21
5.219435
31
0
39
0
210
0
220
0
230
1
0
LINE
5
81
100
AcDbEntity
8
1
62
256
6
ByLayer
370
18
48
1
60
0
100
AcDbLine
10
192.325
20
-5.219435
30
0
11
192.325
21
-7.591074
31
0
39
0
210
0
220
0
230
1
0
LINE
5
82
100
AcDbEntity
8
1
62
256
6
ByLayer
370
18
48
1
60
0
100
AcDbLine
10
191.65725
20
10.280928
30
0
11
191.65725
21
9.858832
31
0
39
0
210
0
220
0
230
1
0
LINE
5
83
100
AcDbEntity
8
1
62
256
6
ByLayer
370
18
48
1
60
0
100
AcDbLine
10
191.65725
20
-9.858832
30
0
11
191.65725
21
-10.280928
31
0
39
0
210
0
220
0
230
1
0
LINE
5
84
100
AcDbEntity
8
1
62
256
6
ByLayer
370
18
48
1
60
0
100
AcDbLine
10
192.325
20
9.704974
30
0
11
192.325
21
8.196364
31
0
39
0
210
0
220
0
230
1
0
LINE
5
85
100
AcDbEntity
8
1
62
256
6
ByLayer
370
18
48
1
60
0
100
AcDbLine
10
192.325
20
-8.196364
30
0
11
192.325
21
-9.704974
31
0
39
0
210
0
220
0
230
1
0
LINE
5
86
100
AcDbEntity
8
1
62
256
6
ByLayer
370
18
48
1
60
0
100
AcDbLine
10
191.65725
20
11.78627
30
0
11
191.65725
21
11.46638
31
0
39
0
210
0
220
0
230
1
0
LINE
5
87
100
AcDbEntity
8
1
62
256
6
ByLayer
370
18
48
1
60
0
100
AcDbLine
10
191.65725
20
-11.46638
30
0
11
191.65725
21
-11.78627
31
0
39
0
210
0
220
0
230
1
0
LINE
5
88
100
AcDbEntity
8
1
62
256
6
ByLayer
370
18
48
1
60
0
100
AcDbLine
10
192.325
20
-10.130067
30
0
11
192.325
21
-11.236042
31
0
39
0
210
0
220
0
230
1
0
LINE
5
89
100
AcDbEntity
8
1
62
256
6
ByLayer
370
18
48
1
60
0
100
AcDbLine
10
192.325
20
11.236042
30
0
11
192.325
21
10.130067
31
0
39
0
210
0
220
0
230
1
0
LINE
5
8A
100
AcDbEntity
8
1
62
256
6
ByLayer
370
18
48
1
60
0
100
AcDbLine
10
191.65725
20
12.947388
30
0
11
191.65725
21
12.698787
31
0
39
0
210
0
220
0
230
1
0
LINE
5
8B
100
AcDbEntity
8
1
62
256
6
ByLayer
370
18
48
1
60
0
100
AcDbLine
10
191.65725
20
-12.698787
30
0
11
191.65725
21
-12.947388
31
0
39
0
210
0
220
0
230
1
0
LINE
5
8C
100
AcDbEntity
8
1
62
256
6
ByLayer
370
18
48
1
60
0
100
AcDbLine
10
192.325
20
12.402046
30
0
11
192.325
21
11.55665
31
0
39
0
210
0
220
0
230
1
0
LINE
5
8D
100
AcDbEntity
8
1
62
256
6
ByLayer
370
18
48
1
60
0
100
AcDbLine
10
192.325
20
-11.55665
30
0
11
192.325
21
-12.402046
31
0
39
0
210
0
220
0
230
1
0
LINE
5
8E
100
AcDbEntity
8
1
62
256
6
ByLayer
370
18
48
1
60
0
100
AcDbLine
10
191.65725
20
13.851121
30
0
11
191.65725
21
13.657983
31
0
39
0
210
0
220
0
230
1
0
LINE
5
8F
100
AcDbEntity
8
1
62
256
6
ByLayer
370
18
48
1
60
0
100
AcDbLine
10
191.65725
20
-13.657983
30
0
11
191.65725
21
-13.851121
31
0
39
0
210
0
220
0
230
1
0
LINE
5
90
100
AcDbEntity
8
1
62
256
6
ByLayer
370
18
48
1
60
0
100
AcDbLine
10
192.325
20
13.299356
30
0
11
192.325
21
12.648875
31
0
39
0
210
0
220
0
230
1
0
LINE
5
91
100
AcDbEntity
8
1
62
256
6
ByLayer
370
18
48
1
60
0
100
AcDbLine
10
192.325
20
-12.648875
30
0
11
192.325
21
-13.299356
31
0
39
0
210
0
220
0
230
1
0
LINE
5
92
100
AcDbEntity
8
1
62
256
6
ByLayer
370
18
48
1
60
0
100
AcDbLine
10
191.65725
20
-14.398673
30
0
11
191.65725
21
-14.545523
31
0
39
0
210
0
220
0
230
1
0
LINE
5
93
100
AcDbEntity
8
1
62
256
6
ByLayer
370
18
48
1
60
0
100
AcDbLine
10
191.65725
20
14.545523
30
0
11
191.65725
21
14.398673
31
0
39
0
210
0
220
0
230
1
0
LINE
5
94
100
AcDbEntity
8
1
62
256
6
ByLayer
370
18
48
1
60
0
100
AcDbLine
10
192.325
20
-13.488214
30
0
11
192.325
21
-13.979806
31
0
39
0
210
0
220
0
230
1
0
LINE
5
95
100
AcDbEntity
8
1
62
256
6
ByLayer
370
18
48
1
60
0
100
AcDbLine
10
192.325
20
13.979806
30
0
11
192.325
21
13.488214
31
0
39
0
210
0
220
0
230
1
0
LINE
5
96
100
AcDbEntity
8
1
62
256
6
ByLayer
370
18
48
1
60
0
100
AcDbLine
10
191.65725
20
-14.953364
30
0
11
191.65725
21
-15.05958
31
0
39
0
210
0
220
0
230
1
0
LINE
5
97
100
AcDbEntity
8
1
62
256
6
ByLayer
370
18
48
1
60
0
100
AcDbLine
10
191.65725
20
15.05958
30
0
11
191.65725
21
14.953364
31
0
39
0
210
0
220
0
230
1
0
LINE
5
98
100
AcDbEntity
8
1
62
256
6
ByLayer
370
18
48
1
60
0
100
AcDbLine
10
192.325
20
14.474015
30
0
11
192.325
21
14.119837
31
0
39
0
210
0
220
0
230
1
0
LINE
5
99
100
AcDbEntity
8
1
62
256
6
ByLayer
370
18
48
1
60
0
100
AcDbLine
10
192.325
20
-14.119837
30
0
11
192.325
21
-14.474015
31
0
39
0
210
0
220
0
230
1
0
LINE
5
9A
100
AcDbEntity
8
1
62
256
6
ByLayer
370
18
48
1
60
0
100
AcDbLine
10
191.65725
20
-15.342243
30
0
11
191.65725
21
-15.411348
31
0
39
0
210
0
220
0
230
1
0
LINE
5
9B
100
AcDbEntity
8
1
62
256
6
ByLayer
370
18
48
1
60
0
100
AcDbLine
10
191.65725
20
15.411348
30
0
11
191.65725
21
15.342243
31
0
39
0
210
0
220
0
230
1
0
LINE
5
9C
100
AcDbEntity
8
1
62
256
6
ByLayer
370
18
48
1
60
0
100
AcDbLine
10
192.325
20
14.800649
30
0
11
192.325
21
14.570782
31
0
39
0
210
0
220
0
230
1
0
LINE
5
9D
100
AcDbEntity
8
1
62
256
6
ByLayer
370
18
48
1
60
0
100
AcDbLine
10
192.325
20
-14.570782
30
0
11
192.325
21
-14.800649
31
0
39
0
210
0
220
0
230
1
0
LINE
5
9E
100
AcDbEntity
8
1
62
256
6
ByLayer
370
18
48
1
60
0
100
AcDbLine
10
191.65725
20
-15.577731
30
0
11
191.65725
21
-15.611801
31
0
39
0
210
0
220
0
230
1
0
LINE
5
9F
100
AcDbEntity
8
1
62
256
6
ByLayer
370
18
48
1
60
0
100
AcDbLine
10
191.65725
20
15.611801
30
0
11
191.65725
21
15.577731
31
0
39
0
210
0
220
0
230
1
0
LINE
5
A0
100
AcDbEntity
8
1
62
256
6
ByLayer
370
18
48
1
60
0
100
AcDbLine
10
192.325
20
14.970682
30
0
11
192.325
21
14.857509
31
0
39
0
210
0
220
0
230
1
0
LINE
5
A1
100
AcDbEntity
8
1
62
256
6
ByLayer
370
18
48
1
60
0
100
AcDbLine
10
192.325
20
-14.857509
30
0
11
192.325
21
-14.970682
31
0
39
0
210
0
220
0
230
1
0
LINE
5
A2
100
AcDbEntity
8
SK1
62
256
6
ByLayer
370
18
48
1
60
0
100
AcDbLine
10
201.325
20
-3.528175
30
0
11
196.325
21
-3.528175
31
0
39
0
210
0
220
0
230
1
0
LINE
5
A4
100
AcDbEntity
8
SK1
62
256
6
ByLayer
370
18
48
1
60
0
100
AcDbLine
10
196.325
20
-12.028175
30
0
11
201.325
21
-12.028175
31
0
39
0
210
0
220
0
230
1
0
LINE
5
A5
100
AcDbEntity
8
SK1
62
256
6
ByLayer
370
18
48
1
60
0
100
AcDbLine
10
196.325
20
-5.278175
30
0
11
192.325
21
-5.278175
31
0
39
0
210
0
220
0
230
1
0
LINE
5
A6
100
AcDbEntity
8
SK1
62
256
6
ByLayer
370
18
48
1
60
0
100
AcDbLine
10
192.325
20
-10.278175
30
0
11
196.325
21
-10.278175
31
0
39
0
210
0
220
0
230
1
0
LINE
5
A7
100
AcDbEntity
8
SK1
62
256
6
ByLayer
370
18
48
1
60
0
100
AcDbLine
10
201.325
20
12.028175
30
0
11
196.325
21
12.028175
31
0
39
0
210
0
220
0
230
1
0
LINE
5
A8
100
AcDbEntity
8
SK1
62
256
6
ByLayer
370
18
48
1
60
0
100
AcDbLine
10
196.325
20
3.528175
30
0
11
201.325
21
3.528175
31
0
39
0
210
0
220
0
230
1
0
LINE
5
A9
100
AcDbEntity
8
SK1
62
256
6
ByLayer
370
18
48
1
60
0
100
AcDbLine
10
196.325
20
10.278175
30
0
11
192.325
21
10.278175
31
0
39
0
210
0
220
0
230
1
0
LINE
5
AA
100
AcDbEntity
8
SK1
62
256
6
ByLayer
370
18
48
1
60
0
100
AcDbLine
10
192.325
20
5.278175
30
0
11
196.325
21
5.278175
31
0
39
0
210
0
220
0
230
1
0
LINE
5
AB
100
AcDbEntity
8
SK1
62
256
6
ByLayer
370
18
48
1
60
0
100
AcDbLine
10
-127
20
16
30
0
11
-128
21
15
31
0
39
0
210
0
220
0
230
1
0
LINE
5
AC
100
AcDbEntity
8
SK1
62
256
6
ByLayer
370
18
48
1
60
0
100
AcDbLine
10
-128
20
-15
30
0
11
-127
21
-16
31
0
39
0
210
0
220
0
230
1
0
LINE
5
AD
100
AcDbEntity
8
1
62
256
6
ByLayer
370
18
48
1
60
0
100
AcDbLine
10
189.7
20
16
30
0
11
0
21
16
31
0
39
0
210
0
220
0
230
1
0
LINE
5
AE
100
AcDbEntity
8
SK1
62
256
6
ByLayer
370
18
48
1
60
0
100
AcDbLine
10
-127
20
-16
30
0
11
0
21
-16
31
0
39
0
210
0
220
0
230
1
0
LINE
5
AF
100
AcDbEntity
8
1
62
256
6
ByLayer
370
18
48
1
60
0
100
AcDbLine
10
191.325
20
16
30
0
11
191.325
21
-16
31
0
39
0
210
0
220
0
230
1
0
LINE
5
B0
100
AcDbEntity
8
1
62
256
6
ByLayer
370
18
48
1
60
0
100
AcDbLine
10
192.325
20
14.989445
30
0
11
192.325
21
14.970682
31
0
39
0
210
0
220
0
230
1
0
LINE
5
B1
100
AcDbEntity
8
1
62
256
6
ByLayer
370
18
48
1
60
0
100
AcDbLine
10
192.325
20
14.857509
30
0
11
192.325
21
14.800649
31
0
39
0
210
0
220
0
230
1
0
LINE
5
B2
100
AcDbEntity
8
1
62
256
6
ByLayer
370
18
48
1
60
0
100
AcDbLine
10
192.325
20
14.570782
30
0
11
192.325
21
14.474015
31
0
39
0
210
0
220
0
230
1
0
LINE
5
B3
100
AcDbEntity
8
1
62
256
6
ByLayer
370
18
48
1
60
0
100
AcDbLine
10
192.325
20
14.119837
30
0
11
192.325
21
13.979806
31
0
39
0
210
0
220
0
230
1
0
LINE
5
B4
100
AcDbEntity
8
1
62
256
6
ByLayer
370
18
48
1
60
0
100
AcDbLine
10
192.325
20
13.488214
30
0
11
192.325
21
13.299356
31
0
39
0
210
0
220
0
230
1
0
LINE
5
B5
100
AcDbEntity
8
1
62
256
6
ByLayer
370
18
48
1
60
0
100
AcDbLine
10
192.325
20
12.648875
30
0
11
192.325
21
12.402046
31
0
39
0
210
0
220
0
230
1
0
LINE
5
B6
100
AcDbEntity
8
1
62
256
6
ByLayer
370
18
48
1
60
0
100
AcDbLine
10
192.325
20
11.55665
30
0
11
192.325
21
11.236042
31
0
39
0
210
0
220
0
230
1
0
LINE
5
B7
100
AcDbEntity
8
1
62
256
6
ByLayer
370
18
48
1
60
0
100
AcDbLine
10
192.325
20
10.130067
30
0
11
192.325
21
9.704974
31
0
39
0
210
0
220
0
230
1
0
LINE
5
B8
100
AcDbEntity
8
1
62
256
6
ByLayer
370
18
48
1
60
0
100
AcDbLine
10
192.325
20
8.196364
30
0
11
192.325
21
7.591074
31
0
39
0
210
0
220
0
230
1
0
LINE
5
B9
100
AcDbEntity
8
1
62
256
6
ByLayer
370
18
48
1
60
0
100
AcDbLine
10
192.325
20
5.219435
30
0
11
192.325
21
4.069679
31
0
39
0
210
0
220
0
230
1
0
LINE
5
BA
100
AcDbEntity
8
1
62
256
6
ByLayer
370
18
48
1
60
0
100
AcDbLine
10
192.325
20
-4.069679
30
0
11
192.325
21
-5.219435
31
0
39
0
210
0
220
0
230
1
0
LINE
5
BB
100
AcDbEntity
8
1
62
256
6
ByLayer
370
18
48
1
60
0
100
AcDbLine
10
192.325
20
-7.591074
30
0
11
192.325
21
-8.196364
31
0
39
0
210
0
220
0
230
1
0
LINE
5
BC
100
AcDbEntity
8
1
62
256
6
ByLayer
370
18
48
1
60
0
100
AcDbLine
10
192.325
20
-9.704974
30
0
11
192.325
21
-10.130067
31
0
39
0
210
0
220
0
230
1
0
LINE
5
BD
100
AcDbEntity
8
1
62
256
6
ByLayer
370
18
48
1
60
0
100
AcDbLine
10
192.325
20
-11.236042
30
0
11
192.325
21
-11.55665
31
0
39
0
210
0
220
0
230
1
0
LINE
5
BE
100
AcDbEntity
8
1
62
256
6
ByLayer
370
18
48
1
60
0
100
AcDbLine
10
192.325
20
-12.402046
30
0
11
192.325
21
-12.648875
31
0
39
0
210
0
220
0
230
1
0
LINE
5
BF
100
AcDbEntity
8
1
62
256
6
ByLayer
370
18
48
1
60
0
100
AcDbLine
10
192.325
20
-13.299356
30
0
11
192.325
21
-13.488214
31
0
39
0
210
0
220
0
230
1
0
LINE
5
C0
100
AcDbEntity
8
1
62
256
6
ByLayer
370
18
48
1
60
0
100
AcDbLine
10
192.325
20
-13.979806
30
0
11
192.325
21
-14.119837
31
0
39
0
210
0
220
0
230
1
0
LINE
5
C1
100
AcDbEntity
8
1
62
256
6
ByLayer
370
18
48
1
60
0
100
AcDbLine
10
192.325
20
-14.474015
30
0
11
192.325
21
-14.570782
31
0
39
0
210
0
220
0
230
1
0
LINE
5
C2
100
AcDbEntity
8
1
62
256
6
ByLayer
370
18
48
1
60
0
100
AcDbLine
10
192.325
20
-14.800649
30
0
11
192.325
21
-14.857509
31
0
39
0
210
0
220
0
230
1
0
LINE
5
C3
100
AcDbEntity
8
1
62
256
6
ByLayer
370
18
48
1
60
0
100
AcDbLine
10
192.325
20
-14.970682
30
0
11
192.325
21
-14.989445
31
0
39
0
210
0
220
0
230
1
0
LINE
5
C4
100
AcDbEntity
8
1
62
256
6
ByLayer
370
18
48
1
60
0
100
AcDbLine
10
190.3
20
16
30
0
11
190.3
21
0
31
0
39
0
210
0
220
0
230
1
0
LINE
5
C5
100
AcDbEntity
8
1
62
256
6
ByLayer
370
18
48
1
60
0
100
AcDbLine
10
190.3
20
0
30
0
11
190.3
21
-16
31
0
39
0
210
0
220
0
230
1
0
LINE
5
C6
100
AcDbEntity
8
1
62
256
6
ByLayer
370
18
48
1
60
0
100
AcDbLine
10
190
20
-15.7
30
0
11
190
21
0
31
0
39
0
210
0
220
0
230
1
0
LINE
5
C7
100
AcDbEntity
8
1
62
256
6
ByLayer
370
18
48
1
60
0
100
AcDbLine
10
190
20
0
30
0
11
190
21
15.7
31
0
39
0
210
0
220
0
230
1
0
LINE
5
C8
100
AcDbEntity
8
SK1
62
256
6
ByLayer
370
18
48
1
60
0
100
AcDbLine
10
201.325
20
-3.528175
30
0
11
201.325
21
-7.778175
31
0
39
0
210
0
220
0
230
1
0
LINE
5
C9
100
AcDbEntity
8
SK1
62
256
6
ByLayer
370
18
48
1
60
0
100
AcDbLine
10
196.325
20
-3.528175
30
0
11
196.325
21
-7.778175
31
0
39
0
210
0
220
0
230
1
0
LINE
5
CA
100
AcDbEntity
8
SK1
62
256
6
ByLayer
370
18
48
1
60
0
100
AcDbLine
10
201.325
20
-7.778175
30
0
11
201.325
21
-12.028175
31
0
39
0
210
0
220
0
230
1
0
LINE
5
CB
100
AcDbEntity
8
SK1
62
256
6
ByLayer
370
18
48
1
60
0
100
AcDbLine
10
196.325
20
-7.778175
30
0
11
196.325
21
-12.028175
31
0
39
0
210
0
220
0
230
1
0
LINE
5
CC
100
AcDbEntity
8
SK1
62
256
6
ByLayer
370
18
48
1
60
0
100
AcDbLine
10
201.325
20
12.028175
30
0
11
201.325
21
7.778175
31
0
39
0
210
0
220
0
230
1
0
LINE
5
CD
100
AcDbEntity
8
SK1
62
256
6
ByLayer
370
18
48
1
60
0
100
AcDbLine
10
196.325
20
12.028175
30
0
11
196.325
21
7.778175
31
0
39
0
210
0
220
0
230
1
0
LINE
5
CE
100
AcDbEntity
8
SK1
62
256
6
ByLayer
370
18
48
1
60
0
100
AcDbLine
10
201.325
20
7.778175
30
0
11
201.325
21
3.528175
31
0
39
0
210
0
220
0
230
1
0
LINE
5
CF
100
AcDbEntity
8
SK1
62
256
6
ByLayer
370
18
48
1
60
0
100
AcDbLine
10
196.325
20
7.778175
30
0
11
196.325
21
3.528175
31
0
39
0
210
0
220
0
230
1
0
LINE
5
D0
100
AcDbEntity
8
SK1
62
256
6
ByLayer
370
18
48
1
60
0
100
AcDbLine
10
-128
20
15
30
0
11
-128
21
-15
31
0
39
0
210
0
220
0
230
1
0
LINE
5
D1
100
AcDbEntity
8
SK1
62
256
6
ByLayer
370
18
48
1
60
0
100
AcDbLine
10
-127
20
16
30
0
11
-127
21
-16
31
0
39
0
210
0
220
0
230
1
0
LINE
5
D2
100
AcDbEntity
8
1
62
256
6
ByLayer
370
18
48
1
60
0
100
AcDbLine
10
189.7
20
-16
30
0
11
189.7
21
0
31
0
39
0
210
0
220
0
230
1
0
LINE
5
D3
100
AcDbEntity
8
1
62
256
6
ByLayer
370
18
48
1
60
0
100
AcDbLine
10
190
20
15.7
30
0
11
190
21
0
31
0
39
0
210
0
220
0
230
1
0
LINE
5
D4
100
AcDbEntity
8
1
62
256
6
ByLayer
370
18
48
1
60
0
100
AcDbLine
10
190
20
0
30
0
11
190
21
-15.7
31
0
39
0
210
0
220
0
230
1
0
LINE
5
D5
100
AcDbEntity
8
1
62
256
6
ByLayer
370
18
48
1
60
0
100
AcDbLine
10
189.7
20
0
30
0
11
189.7
21
16
31
0
39
0
210
0
220
0
230
1
0
LINE
5
D6
100
AcDbEntity
8
SK1
62
256
6
ByLayer
370
18
48
1
60
0
100
AcDbLine
10
0
20
16
30
0
11
-127
21
16
31
0
39
0
210
0
220
0
230
1
0
LINE
5
D7
100
AcDbEntity
8
1
62
256
6
ByLayer
370
18
48
1
60
0
100
AcDbLine
10
0
20
-16
30
0
11
189.7
21
-16
31
0
39
0
210
0
220
0
230
1
0
MTEXT
5
130
100
AcDbEntity
8
SK6
62
256
6
ByLayer
370
13
48
1
60
0
100
AcDbMText
10
3.486115
20
43.142387
30
0
210
0
220
0
230
1
1
\W0.7204;570-3C 32 320
40
3.175
41
0
44
1.084337
50
0
71
7
72
5
7
iso_b_vert
0
DIMENSION
5
13E
100
AcDbEntity
8
2
62
256
6
ByLayer
370
13
48
1
60
0
100
AcDbDimension
2
DimnDraft3D1
10
192
20
23.85263
30
0
11
93.313783
21
23.85263
31
0
70
32
71
5
72
1
41
1
210
0
220
0
230
1
3
Standard
100
AcDbAlignedDimension
13
0
23
1.5875
33
0
14
192
24
1.5875
34
0
50
0
100
AcDbRotatedDimension
1001
ACAD
1000
DSTYLE
1002
{
1070
   279
1070
     0
1070
   173
1070
     1
1070
   340
1005
131
1070
   271
1070
     1
1070
   272
1070
     2
1070
    77
1070
     1
1070
    73
1070
     0
1070
   171
1070
     3
1070
   274
1070
     4
1070
   177
1070
     7
1070
   176
1070
     7
1070
   178
1070
     7
1070
    78
1070
     8
1070
    48
1040
-0.005
1070
    41
1041
3.175
1070
   147
1041
1.5875
1070
    42
1041
1.5875
1070
    44
1041
3.175
1070
   140
1041
3.175
1070
   343
1005
0
1070
   344
1005
0
1002
}
0
DIMENSION
5
14A
100
AcDbEntity
8
SK2
62
256
6
ByLayer
370
13
48
1
60
0
100
AcDbDimension
2
DimnDraft3D2
10
-145.545301
20
-16
30
0
11
-145.545301
21
-6.659145
31
0
70
32
71
5
72
1
41
1
210
0
220
0
230
1
3
Standard
100
AcDbAlignedDimension
13
-128.5875
23
16
33
0
14
-128.5875
24
-16
34
0
50
90
100
AcDbRotatedDimension
1001
ACAD
1000
DSTYLE
1002
{
1070
    74
1070
     0
1070
   279
1070
     0
1070
   173
1070
     1
1070
   340
1005
131
1070
   271
1070
     1
1070
   272
1070
     2
1070
    77
1070
     1
1070
    73
1070
     0
1070
   171
1070
     3
1070
   274
1070
     4
1070
   177
1070
     7
1070
   176
1070
     7
1070
   178
1070
     7
1070
    78
1070
     8
1070
    48
1040
-0.005
1070
    41
1041
3.175
1070
   147
1041
1.5875
1070
    42
1041
1.5875
1070
    44
1041
3.175
1070
   140
1041
3.175
1070
   343
1005
0
1070
   344
1005
0
1002
}
0
ENDSEC
0
SECTION
2
OBJECTS
0
DICTIONARY
5
1bf
330
0
100
AcDbDictionary
280
0
281
1
3
ACAD_GROUP
350
1c0
3
ACAD_MLINESTYLE
350
1c1
0
DICTIONARY
5
1c0
330
0
100
AcDbDictionary
280
0
281
1
0
DICTIONARY
5
1c1
330
0
100
AcDbDictionary
280
0
281
1
3
Standard
350
18
0
MLINESTYLE
5
18
330
1c1
100
AcDbMlineStyle
2
Standard
70
0
3

62
256
51
90
52
90
71
2
49
-0.5
62
256
6
ByLayer
49
0.5
62
256
6
ByLayer
0
RASTERVARIABLES
5
1ad
330

100
AcDbRasterVariables
90
0
70
1
71
1
72
1
0
ENDSEC
0
EOF
