0
SECTION
2
HEADER
9
$ACADVER
1
AC1015
9
$DWGCODEPAGE
3
ANSI_1252
9
$HANDSEED
5
1b6
9
$ANGBASE
50
0
9
$ANGDIR
70
0
9
$ATTMODE
70
1
9
$AUNITS
70
0
9
$AUPREC
70
0
9
$CECOLOR
62
256
9
$CELTSCALE
40
1
9
$CELTYPE
6
ByLayer
9
$CELWEIGHT
370
18
9
$CLAYER
8
0
9
$CMLJUST
70
0
9
$CMLSCALE
40
1
9
$CMLSTYLE
2
Standard
9
$DIMSTYLE
2
Standard
9
$TEXTSIZE
40
0.2
9
$TEXTSTYLE
7
Standard
9
$LUNITS
70
2
9
$LUPREC
70
4
9
$EXTNAMES
290
1
9
$INSUNITS
70
4
9
$LTSCALE
40
1
9
$LWDISPLAY
290
1
9
$PDMODE
70
0
9
$PDSIZE
40
0
9
$PLINEGEN
70
0
0
ENDSEC
0
SECTION
2
CLASSES
0
CLASS
1
RASTERVARIABLES
2
AcDbRasterVariables
3
ISM
90
0
280
0
281
0
0
ENDSEC
0
SECTION
2
TABLES
0
TABLE
2
VPORT
5
1ac
100
AcDbSymbolTable
0
VPORT
5
1
100
AcDbSymbolTableRecord
100
AcDbViewportTableRecord
2
*Active
70
0
10
0
20
0
11
1
21
1
12
-1
22
1
13
0
23
0
14
0.5
24
0.5
15
10
25
10
16
0
26
0
36
1
17
0
27
0
37
0
0
ENDTAB
0
TABLE
2
LTYPE
5
1ad
100
AcDbSymbolTable
0
LTYPE
5
14
100
AcDbSymbolTableRecord
100
AcDbLinetypeTableRecord
70
0
2
ByBlock
3

72
65
73
0
40
0
0
LTYPE
5
15
100
AcDbSymbolTableRecord
100
AcDbLinetypeTableRecord
70
0
2
ByLayer
3

72
65
73
0
40
0
0
LTYPE
5
16
100
AcDbSymbolTableRecord
100
AcDbLinetypeTableRecord
70
0
2
CONTINUOUS
3
Solid line
72
65
73
0
40
0
0
LTYPE
5
6A
100
AcDbSymbolTableRecord
100
AcDbLinetypeTableRecord
70
0
2
CENTER
3
____ _ ____ _ ____ _ ____
72
65
73
4
40
47.5
49
22
74
0
49
-8.5
74
0
49
8.5
74
0
49
-8.5
74
0
0
LTYPE
5
6B
100
AcDbSymbolTableRecord
100
AcDbLinetypeTableRecord
70
0
2
DASHED
3
__ __ __ __ __ __ __ __ __
72
65
73
2
40
25.72
49
12.86
74
0
49
-12.86
74
0
0
ENDTAB
0
TABLE
2
LAYER
5
1ae
100
AcDbSymbolTable
0
LAYER
5
10
100
AcDbSymbolTableRecord
100
AcDbLayerTableRecord
2
0
70
0
62
7
6
CONTINUOUS
290
1
370
-3
390
0
0
LAYER
5
6D
100
AcDbSymbolTableRecord
100
AcDbLayerTableRecord
2
80
70
0
62
-6
6
CONTINUOUS
290
1
370
-3
390
0
0
LAYER
5
6F
100
AcDbSymbolTableRecord
100
AcDbLayerTableRecord
2
81
70
0
62
-3
6
CONTINUOUS
290
1
370
-3
390
0
0
LAYER
5
72
100
AcDbSymbolTableRecord
100
AcDbLayerTableRecord
2
4
70
0
62
-2
6
CENTER
290
1
370
-3
390
0
0
LAYER
5
7C
100
AcDbSymbolTableRecord
100
AcDbLayerTableRecord
2
1
70
0
62
4
6
CONTINUOUS
290
1
370
-3
390
0
0
LAYER
5
120
100
AcDbSymbolTableRecord
100
AcDbLayerTableRecord
2
2
70
0
62
7
6
CONTINUOUS
290
1
370
-3
390
0
0
LAYER
5
198
100
AcDbSymbolTableRecord
100
AcDbLayerTableRecord
2
SK4
70
0
62
2
6
CENTER
290
1
370
-3
390
0
0
LAYER
5
199
100
AcDbSymbolTableRecord
100
AcDbLayerTableRecord
2
SK1
70
0
62
4
6
CONTINUOUS
290
1
370
-3
390
0
0
LAYER
5
19a
100
AcDbSymbolTableRecord
100
AcDbLayerTableRecord
2
SK6
70
0
62
5
6
CONTINUOUS
290
1
370
-3
390
0
0
LAYER
5
19b
100
AcDbSymbolTableRecord
100
AcDbLayerTableRecord
2
SK2
70
0
62
7
6
CONTINUOUS
290
1
370
-3
390
0
0
ENDTAB
0
TABLE
2
STYLE
5
1af
100
AcDbSymbolTable
0
STYLE
5
11
100
AcDbSymbolTableRecord
100
AcDbTextStyleTableRecord
2
Standard
3
txt
70
0
71
0
40
0
41
1
42
0
50
0
0
STYLE
5
11B
100
AcDbSymbolTableRecord
100
AcDbTextStyleTableRecord
2
iso_b_vert
3
simplex.shx
70
0
71
0
40
0
41
1
42
0
50
0
0
STYLE
5
11C
100
AcDbSymbolTableRecord
100
AcDbTextStyleTableRecord
2
DWGDirectTextStyle
3
simplex
70
0
71
0
40
0
41
1
42
0
50
0
0
ENDTAB
0
TABLE
2
DIMSTYLE
5
1b0
100
AcDbSymbolTable
100
AcDbDimStyleTable
0
DIMSTYLE
105
27
100
AcDbSymbolTableRecord
100
AcDbDimStyleTableRecord
2
Standard
70
0
3
<>
41
0.18
42
0.0625
44
0.18
140
0.18
147
0.09
73
0
74
0
77
1
271
2
275
0
278
52
280
0
340
11
0
ENDTAB
0
TABLE
2
VIEW
5
1b1
100
AcDbSymbolTable
0
ENDTAB
0
TABLE
2
UCS
5
1b2
100
AcDbSymbolTable
0
ENDTAB
0
TABLE
2
APPID
5
1b3
100
AcDbSymbolTable
0
APPID
5
12
100
AcDbSymbolTableRecord
100
AcDbRegAppTableRecord
2
ACAD
70
0
0
ENDTAB
0
TABLE
2
BLOCK_RECORD
5
1b4
100
AcDbSymbolTable
0
BLOCK_RECORD
5
1F
100
AcDbSymbolTableRecord
100
AcDbBlockTableRecord
2
*Model_Space
340
0
70
0
0
BLOCK_RECORD
5
1B
100
AcDbSymbolTableRecord
100
AcDbBlockTableRecord
2
*Paper_Space
340
0
70
0
0
BLOCK_RECORD
5
23
100
AcDbSymbolTableRecord
100
AcDbBlockTableRecord
2
*Paper_Space0
340
0
70
0
0
BLOCK_RECORD
5
11E
100
AcDbSymbolTableRecord
100
AcDbBlockTableRecord
2
DimnDraft3D1
340
0
70
0
0
BLOCK_RECORD
5
129
100
AcDbSymbolTableRecord
100
AcDbBlockTableRecord
2
DimnDraft3D22
340
0
70
0
0
BLOCK_RECORD
5
134
100
AcDbSymbolTableRecord
100
AcDbBlockTableRecord
2
DimnDraft3D3
340
0
70
0
0
ENDTAB
0
ENDSEC
0
SECTION
2
BLOCKS
0
BLOCK
5
20
100
AcDbEntity
8
0
100
AcDbBlockBegin
2
*Model_Space
70
0
10
0
20
0
30
0
3
*Model_Space
0
ENDBLK
5
21
100
AcDbEntity
8
0
100
AcDbBlockEnd
0
BLOCK
5
1C
100
AcDbEntity
8
0
100
AcDbBlockBegin
2
*Paper_Space
70
0
10
0
20
0
30
0
3
*Paper_Space
0
ENDBLK
5
1D
100
AcDbEntity
8
0
100
AcDbBlockEnd
0
BLOCK
5
24
100
AcDbEntity
8
0
100
AcDbBlockBegin
2
*Paper_Space0
70
0
10
0
20
0
30
0
3
*Paper_Space0
0
ENDBLK
5
25
100
AcDbEntity
8
0
100
AcDbBlockEnd
0
BLOCK
5
126
100
AcDbEntity
8
0
100
AcDbBlockBegin
2
DimnDraft3D1
70
0
10
0
20
0
30
0
3
DimnDraft3D1
0
MTEXT
5
11F
100
AcDbEntity
8
2
62
256
6
ByLayer
370
13
48
1
60
0
100
AcDbMText
10
54.215347
20
21.249625
30
0
210
0
220
0
230
1
1
\W0.7138;230
40
3.175
41
0
44
1.084337
50
0
71
7
72
5
7
iso_b_vert
0
LINE
5
121
100
AcDbEntity
8
2
62
256
6
ByLayer
370
13
48
1
60
0
100
AcDbLine
10
0
20
1.5875
30
0
11
0
21
23.630875
31
0
39
0
210
0
220
0
230
1
0
LINE
5
122
100
AcDbEntity
8
2
62
256
6
ByLayer
370
13
48
1
60
0
100
AcDbLine
10
230
20
1.5875
30
0
11
230
21
23.630875
31
0
39
0
210
0
220
0
230
1
0
LINE
5
123
100
AcDbEntity
8
2
62
256
6
ByLayer
370
13
48
1
60
0
100
AcDbLine
10
0
20
20.455875
30
0
11
230
21
20.455875
31
0
39
0
210
0
220
0
230
1
0
SOLID
5
124
100
AcDbEntity
8
2
62
256
6
ByLayer
370
13
48
1
60
0
100
AcDbTrace
10
0
20
20.455875
30
0
11
3.174998
21
20.873871
31
0
12
3.175002
22
20.037878
32
0
13
0
23
20.455875
33
0
39
0
210
0
220
0
230
1
0
SOLID
5
125
100
AcDbEntity
8
2
62
256
6
ByLayer
370
13
48
1
60
0
100
AcDbTrace
10
230
20
20.455875
30
0
11
226.825002
21
20.037878
31
0
12
226.824998
22
20.873871
32
0
13
230
23
20.455875
33
0
39
0
210
0
220
0
230
1
0
ENDBLK
5
127
100
AcDbEntity
8
0
100
AcDbBlockEnd
0
BLOCK
5
12A
100
AcDbEntity
8
0
100
AcDbBlockBegin
2
DimnDraft3D22
70
0
10
0
20
0
30
0
3
DimnDraft3D22
0
LINE
5
12C
100
AcDbEntity
8
SK2
62
256
6
ByLayer
370
25
48
1
60
0
100
AcDbLine
10
230
20
1.5875
30
0
11
230
21
31.173214
31
0
39
0
210
0
220
0
230
1
0
LINE
5
12E
100
AcDbEntity
8
SK2
62
256
6
ByLayer
370
25
48
1
60
0
100
AcDbLine
10
-100
20
13.0875
30
0
11
-100
21
31.173214
31
0
39
0
210
0
220
0
230
1
0
LINE
5
12F
100
AcDbEntity
8
SK2
62
256
6
ByLayer
370
25
48
1
60
0
100
AcDbLine
10
230
20
27.998214
30
0
11
-100
21
27.998214
31
0
39
0
210
0
220
0
230
1
0
SOLID
5
130
100
AcDbEntity
8
SK2
62
256
6
ByLayer
370
25
48
1
60
0
100
AcDbTrace
10
230
20
27.998214
30
0
11
226.825002
21
27.580217
31
0
12
226.824998
22
28.416211
32
0
13
230
23
27.998214
33
0
39
0
210
0
220
0
230
1
0
SOLID
5
131
100
AcDbEntity
8
SK2
62
256
6
ByLayer
370
25
48
1
60
0
100
AcDbTrace
10
-100
20
27.998214
30
0
11
-96.825002
21
28.416211
31
0
12
-96.824998
22
27.580217
32
0
13
-100
23
27.998214
33
0
39
0
210
0
220
0
230
1
0
MTEXT
5
132
100
AcDbEntity
8
SK2
62
256
6
ByLayer
370
13
48
1
60
0
100
AcDbMText
10
62.710658
20
28.791964
30
0
210
0
220
0
230
1
1
\W0.7138;330
40
3.175
41
0
44
1.084337
50
0
71
7
72
5
7
iso_b_vert
0
ENDBLK
5
12B
100
AcDbEntity
8
0
100
AcDbBlockEnd
0
BLOCK
5
13C
100
AcDbEntity
8
0
100
AcDbBlockBegin
2
DimnDraft3D3
70
0
10
0
20
0
30
0
3
DimnDraft3D3
0
MTEXT
5
135
100
AcDbEntity
8
SK2
62
256
6
ByLayer
370
13
48
1
60
0
100
AcDbMText
10
-126.244716
20
-4.25309
30
0
210
0
220
0
230
1
1
%%c
40
3.175
41
0
44
1.084337
50
90
71
7
72
5
7
iso_b_vert
0
MTEXT
5
136
100
AcDbEntity
8
SK2
62
256
6
ByLayer
370
13
48
1
60
0
100
AcDbMText
10
-126.244716
20
3.659605
30
0
210
0
220
0
230
1
1
\W0.6740;25
40
3.175
41
0
44
1.084337
50
90
71
7
72
5
7
iso_b_vert
0
LINE
5
137
100
AcDbEntity
8
SK2
62
256
6
ByLayer
370
13
48
1
60
0
100
AcDbLine
10
-100.5875
20
12.5
30
0
11
-127.832216
21
12.5
31
0
39
0
210
0
220
0
230
1
0
LINE
5
138
100
AcDbEntity
8
SK2
62
256
6
ByLayer
370
13
48
1
60
0
100
AcDbLine
10
-100.5875
20
-12.5
30
0
11
-127.832216
21
-12.5
31
0
39
0
210
0
220
0
230
1
0
LINE
5
139
100
AcDbEntity
8
SK2
62
256
6
ByLayer
370
13
48
1
60
0
100
AcDbLine
10
-124.657216
20
12.5
30
0
11
-124.657216
21
-12.5
31
0
39
0
210
0
220
0
230
1
0
SOLID
5
13A
100
AcDbEntity
8
SK2
62
256
6
ByLayer
370
13
48
1
60
0
100
AcDbTrace
10
-124.657216
20
12.5
30
0
11
-124.239219
21
9.325002
31
0
12
-125.075212
22
9.324998
32
0
13
-124.657216
23
12.5
33
0
39
0
210
0
220
0
230
1
0
SOLID
5
13B
100
AcDbEntity
8
SK2
62
256
6
ByLayer
370
13
48
1
60
0
100
AcDbTrace
10
-124.657216
20
-12.5
30
0
11
-125.075212
21
-9.325002
31
0
12
-124.239219
22
-9.324998
32
0
13
-124.657216
23
-12.5
33
0
39
0
210
0
220
0
230
1
0
ENDBLK
5
13D
100
AcDbEntity
8
0
100
AcDbBlockEnd
0
ENDSEC
0
SECTION
2
ENTITIES
0
ARC
5
D1
100
AcDbEntity
8
1
62
256
6
ByLayer
370
18
48
1
60
0
100
AcDbCircle
39
0
10
227.8
20
-12.3
30
0
40
0.2
210
0
220
0
230
1
100
AcDbArc
50
270
51
0
0
ARC
5
D2
100
AcDbEntity
8
1
62
256
6
ByLayer
370
18
48
1
60
0
100
AcDbCircle
39
0
10
227.8
20
12.3
30
0
40
0.2
210
0
220
0
230
1
100
AcDbArc
50
0
51
90
0
CIRCLE
5
D3
100
AcDbEntity
8
1
62
256
6
ByLayer
370
18
48
1
60
0
100
AcDbCircle
10
222
20
0
30
0
40
1
39
0
210
0
220
0
230
1
0
POINT
5
6C
100
AcDbEntity
8
80
62
256
6
ByLayer
370
18
48
1
60
0
100
AcDbPoint
10
0
20
0
30
0
39
0
210
0
220
0
230
1
50
360
0
POINT
5
6E
100
AcDbEntity
8
81
62
256
6
ByLayer
370
18
48
1
60
0
100
AcDbPoint
10
230
20
0
30
0
39
0
210
0
220
0
230
1
50
360
0
SPLINE
5
D4
100
AcDbEntity
8
1
62
256
6
ByLayer
370
18
48
1
60
0
100
AcDbSpline
70
4
71
3
72
12
73
8
40
0
40
0
40
0
40
0
40
0.161041411172452
40
0.378077417277448
40
0.594336089218298
40
0.809144954305073
40
1
40
1
40
1
40
1
41
1
10
228
20
12.2081939696255
30
0
41
1
10
228.000072883785
20
12.2254826724895
30
0
41
1
10
228.004905478706
20
12.2644874705019
30
0
41
1
10
228.030774997812
20
12.3228036501493
30
0
41
1
10
228.078157106319
20
12.3728931578656
30
0
41
1
10
228.137672606473
20
12.4032634191512
30
0
41
1
10
228.179329921607
20
12.4095223707118
30
0
41
1
10
228.2
20
12.4096736459909
30
0
0
SPLINE
5
D5
100
AcDbEntity
8
1
62
256
6
ByLayer
370
18
48
1
60
0
100
AcDbSpline
70
4
71
3
72
13
73
9
40
0
40
0
40
0
40
0
40
0.139344704209803
40
0.270121078087855
40
0.484185705642497
40
0.698205281888937
40
0.913344316749219
40
1
40
1
40
1
40
1
41
1
10
228.2
20
-12.4096736459938
30
0
41
1
10
228.185148869071
20
-12.4096342929657
30
0
41
1
10
228.157118686187
20
-12.4065370094304
30
0
41
1
10
228.108605844172
20
-12.3902688738491
30
0
41
1
10
228.059254855499
20
-12.3566911572723
30
0
41
1
10
228.018459864189
20
-12.3015865017274
30
0
41
1
10
228.002098340451
20
-12.2487755492513
30
0
41
1
10
228.000008885495
20
-12.2173607818455
30
0
41
1
10
227.999999999988
20
-12.208193969627
30
0
0
SPLINE
5
D6
100
AcDbEntity
8
1
62
256
6
ByLayer
370
18
48
1
60
0
100
AcDbSpline
70
4
71
1
72
4
73
2
40
0
40
0
40
1
40
1
41
1
10
229.891512701874
20
12.0363807731143
30
0
41
1
10
229.521
20
12.4096736459909
30
0
0
SPLINE
5
D7
100
AcDbEntity
8
1
62
256
6
ByLayer
370
18
48
1
60
0
100
AcDbSpline
70
4
71
1
72
4
73
2
40
0
40
0
40
1
40
1
41
1
10
230.271
20
11.6235624996115
30
0
41
1
10
229.891512701874
20
12.0363807731143
30
0
0
SPLINE
5
D8
100
AcDbEntity
8
1
62
256
6
ByLayer
370
18
48
1
60
0
100
AcDbSpline
70
4
71
1
72
4
73
2
40
0
40
0
40
1
40
1
41
1
10
229.73225
20
12.0635253991507
30
0
41
1
10
230.271
20
11.5731557228463
30
0
0
SPLINE
5
D9
100
AcDbEntity
8
1
62
256
6
ByLayer
370
18
48
1
60
0
100
AcDbSpline
70
4
71
3
72
11
73
7
40
0
40
0
40
0
40
0
40
0.333087953316357
40
0.644813062810248
40
0.88287126776504
40
1
40
1
40
1
40
1
41
1
10
229.73225
20
11.9978393343988
30
0
41
1
10
229.715897099759
20
12.0165880876396
30
0
41
1
10
229.687920771365
20
12.0502576314821
30
0
41
1
10
229.65664016433
20
12.0921054132819
30
0
41
1
10
229.642933659516
20
12.1156284907934
30
0
41
1
10
229.641099965024
20
12.1229478471312
30
0
41
1
10
229.641000150798
20
12.1249009548997
30
0
0
SPLINE
5
DA
100
AcDbEntity
8
1
62
256
6
ByLayer
370
18
48
1
60
0
100
AcDbSpline
70
4
71
1
72
4
73
2
40
0
40
0
40
1
40
1
41
1
10
230.271
20
11.3686834087366
30
0
41
1
10
229.73225
20
11.9978393343988
30
0
0
SPLINE
5
DB
100
AcDbEntity
8
1
62
256
6
ByLayer
370
18
48
1
60
0
100
AcDbSpline
70
4
71
1
72
4
73
2
40
0
40
0
40
1
40
1
41
1
10
229.73225
20
11.7520750995911
30
0
41
1
10
230.271
20
11.282649339563
30
0
0
SPLINE
5
DC
100
AcDbEntity
8
1
62
256
6
ByLayer
370
18
48
1
60
0
100
AcDbSpline
70
4
71
3
72
11
73
7
40
0
40
0
40
0
40
0
40
0.442944605750124
40
0.734057798056082
40
0.961334347078453
40
1
40
1
40
1
40
1
41
1
10
229.73225
20
11.6507735624537
30
0
41
1
10
229.709952755053
20
11.6783205754549
30
0
41
1
10
229.679343684123
20
11.7199159520568
30
0
41
1
10
229.649582559341
20
11.7690068420046
30
0
41
1
10
229.641519733339
20
11.7903216832456
30
0
41
1
10
229.641013824334
20
11.7973188971531
30
0
41
1
10
229.641000283227
20
11.7982829874517
30
0
0
SPLINE
5
DD
100
AcDbEntity
8
1
62
256
6
ByLayer
370
18
48
1
60
0
100
AcDbSpline
70
4
71
1
72
4
73
2
40
0
40
0
40
1
40
1
41
1
10
230.271
20
10.9663904596632
30
0
41
1
10
229.73225
20
11.6507735624537
30
0
0
SPLINE
5
DE
100
AcDbEntity
8
1
62
256
6
ByLayer
370
18
48
1
60
0
100
AcDbSpline
70
4
71
1
72
4
73
2
40
0
40
0
40
1
40
1
41
1
10
229.73225
20
11.2946400224578
30
0
41
1
10
230.271
20
10.8412830815283
30
0
0
SPLINE
5
DF
100
AcDbEntity
8
1
62
256
6
ByLayer
370
18
48
1
60
0
100
AcDbSpline
70
4
71
3
72
11
73
7
40
0
40
0
40
0
40
0
40
0.480609355804178
40
0.770968203727937
40
0.996743393635326
40
1
40
1
40
1
40
1
41
1
10
229.73225
20
11.1538289619795
30
0
41
1
10
229.707756501219
20
11.1868640022235
30
0
41
1
10
229.676074980673
20
11.2356212246285
30
0
41
1
10
229.647127234278
20
11.2935532216922
30
0
41
1
10
229.641040607639
20
11.3172665208872
30
0
41
1
10
229.641000135914
20
11.3252530445039
30
0
41
1
10
229.641000006299
20
11.3253662263497
30
0
0
SPLINE
5
E0
100
AcDbEntity
8
1
62
256
6
ByLayer
370
18
48
1
60
0
100
AcDbSpline
70
4
71
1
72
4
73
2
40
0
40
0
40
1
40
1
41
1
10
230.271
20
10.3995902313265
30
0
41
1
10
229.73225
20
11.1538289619795
30
0
0
SPLINE
5
E1
100
AcDbEntity
8
1
62
256
6
ByLayer
370
18
48
1
60
0
100
AcDbSpline
70
4
71
1
72
4
73
2
40
0
40
0
40
1
40
1
41
1
10
229.73225
20
10.672465381878
30
0
41
1
10
230.271
20
10.2295484547522
30
0
0
SPLINE
5
E2
100
AcDbEntity
8
1
62
256
6
ByLayer
370
18
48
1
60
0
100
AcDbSpline
70
4
71
3
72
10
73
6
40
0
40
0
40
0
40
0
40
0.526917465956955
40
0.808564407963996
40
1
40
1
40
1
40
1
41
1
10
229.73225
20
10.4857177352157
30
0
41
1
10
229.705076955431
20
10.5263368124714
30
0
41
1
10
229.672737278581
20
10.5839549418005
30
0
41
1
10
229.645469848686
20
10.6514284861078
30
0
41
1
10
229.641483416014
20
10.6767751808335
30
0
41
1
10
229.641000443446
20
10.6862930857991
30
0
0
SPLINE
5
E3
100
AcDbEntity
8
1
62
256
6
ByLayer
370
18
48
1
60
0
100
AcDbSpline
70
4
71
1
72
4
73
2
40
0
40
0
40
1
40
1
41
1
10
230.271
20
9.63930673052837
30
0
41
1
10
229.73225
20
10.4857177352157
30
0
0
SPLINE
5
E4
100
AcDbEntity
8
1
62
256
6
ByLayer
370
18
48
1
60
0
100
AcDbSpline
70
4
71
1
72
4
73
2
40
0
40
0
40
1
40
1
41
1
10
229.73225
20
9.85439706008743
30
0
41
1
10
230.271
20
9.41429255559945
30
0
0
SPLINE
5
E5
100
AcDbEntity
8
1
62
256
6
ByLayer
370
18
48
1
60
0
100
AcDbSpline
70
4
71
3
72
10
73
6
40
0
40
0
40
0
40
0
40
0.545679595672345
40
0.822040952921996
40
1
40
1
40
1
40
1
41
1
10
229.73225
20
9.61080914034506
30
0
41
1
10
229.704102118531
20
9.65864874010422
30
0
41
1
10
229.671578235156
20
9.72653713101795
30
0
41
1
10
229.645330471689
20
9.80611535457746
30
0
41
1
10
229.641527699899
20
9.83687106211837
30
0
41
1
10
229.641007037684
20
9.84835937641311
30
0
0
SPLINE
5
E6
100
AcDbEntity
8
1
62
256
6
ByLayer
370
18
48
1
60
0
100
AcDbSpline
70
4
71
1
72
4
73
2
40
0
40
0
40
1
40
1
41
1
10
230.271
20
8.63458114276067
30
0
41
1
10
229.73225
20
9.61080914034506
30
0
0
SPLINE
5
E7
100
AcDbEntity
8
1
62
256
6
ByLayer
370
18
48
1
60
0
100
AcDbSpline
70
4
71
1
72
4
73
2
40
0
40
0
40
1
40
1
41
1
10
229.73225
20
8.78588444656179
30
0
41
1
10
230.271
20
8.33601505857005
30
0
0
SPLINE
5
E8
100
AcDbEntity
8
1
62
256
6
ByLayer
370
18
48
1
60
0
100
AcDbSpline
70
4
71
3
72
10
73
6
40
0
40
0
40
0
40
0
40
0.64574155255497
40
0.977472555209762
40
1
40
1
40
1
40
1
41
1
10
229.73225
20
8.46522464212637
30
0
41
1
10
229.697315858198
20
8.53382923621456
30
0
41
1
10
229.661112963557
20
8.63044234160287
30
0
41
1
10
229.641463524553
20
8.72628753385642
30
0
41
1
10
229.641011251805
20
8.7556970564151
30
0
41
1
10
229.641000449002
20
8.75755697857318
30
0
0
SPLINE
5
E9
100
AcDbEntity
8
1
62
256
6
ByLayer
370
18
48
1
60
0
100
AcDbSpline
70
4
71
1
72
4
73
2
40
0
40
0
40
1
40
1
41
1
10
230.271
20
7.28496731472603
30
0
41
1
10
229.73225
20
8.46522464212637
30
0
0
SPLINE
5
EA
100
AcDbEntity
8
1
62
256
6
ByLayer
370
18
48
1
60
0
100
AcDbSpline
70
4
71
1
72
4
73
2
40
0
40
0
40
1
40
1
41
1
10
229.73225
20
7.35862688270121
30
0
41
1
10
230.271
20
6.87200042134735
30
0
0
SPLINE
5
EB
100
AcDbEntity
8
1
62
256
6
ByLayer
370
18
48
1
60
0
100
AcDbSpline
70
4
71
2
72
6
73
3
40
0
40
0
40
0
40
1
40
1
40
1
41
1
10
229.73225
20
6.91573598044249
30
0
41
1
10
229.647341250578
20
7.12057655727495
30
0
41
1
10
229.64100051912
20
7.29764901403886
30
0
0
SPLINE
5
EC
100
AcDbEntity
8
1
62
256
6
ByLayer
370
18
48
1
60
0
100
AcDbSpline
70
4
71
2
72
6
73
3
40
0
40
0
40
0
40
1
40
1
40
1
41
1
10
230.271
20
5.3348388956308
30
0
41
1
10
230.029400440244
20
6.13790750134479
30
0
41
1
10
229.73225
20
6.91573598044249
30
0
0
SPLINE
5
ED
100
AcDbEntity
8
1
62
256
6
ByLayer
370
18
48
1
60
0
100
AcDbSpline
70
4
71
1
72
4
73
2
40
0
40
0
40
1
40
1
41
1
10
229.73225
20
5.28980280249555
30
0
41
1
10
230.271
20
4.67275427615122
30
0
0
SPLINE
5
EE
100
AcDbEntity
8
1
62
256
6
ByLayer
370
18
48
1
60
0
100
AcDbSpline
70
4
71
3
72
10
73
6
40
0
40
0
40
0
40
0
40
0.525934623504237
40
0.824622818104746
40
1
40
1
40
1
40
1
41
1
10
229.73225
20
4.5683454401687
30
0
41
1
10
229.706220797638
20
4.67396709893657
30
0
41
1
10
229.674366906058
20
4.83778484638592
30
0
41
1
10
229.644503167958
20
5.03646938686784
30
0
41
1
10
229.641208193085
20
5.12715336956575
30
0
41
1
10
229.641027593363
20
5.16040734629456
30
0
0
SPLINE
5
EF
100
AcDbEntity
8
1
62
256
6
ByLayer
370
18
48
1
60
0
100
AcDbSpline
70
4
71
3
72
11
73
7
40
0
40
0
40
0
40
0
40
0.248044878400228
40
0.496900885465194
40
0.748091501936513
40
1
40
1
40
1
40
1
41
1
10
230.271
20
0.851623924067277
30
0
41
1
10
230.256504058157
20
1.16372341807578
30
0
41
1
10
230.212263697489
20
1.78685316374695
30
0
41
1
10
230.099071724144
20
2.71989445377738
30
0
41
1
10
229.940419097326
20
3.64892858913388
30
0
41
1
10
229.80648277038
20
4.26277359037254
30
0
41
1
10
229.73225
20
4.5683454401687
30
0
0
SPLINE
5
F0
100
AcDbEntity
8
1
62
256
6
ByLayer
370
18
48
1
60
0
100
AcDbSpline
70
4
71
3
72
11
73
7
40
0
40
0
40
0
40
0
40
0.248186657667955
40
0.497039963561376
40
0.748107727826597
40
1
40
1
40
1
40
1
41
1
10
229.73225
20
-4.5683454401687
30
0
41
1
10
229.805377571448
20
-4.2672954994748
30
0
41
1
10
229.937905855759
20
-3.66089892394095
30
0
41
1
10
230.096581763782
20
-2.73682557745096
30
0
41
1
10
230.211254211075
20
-1.79927606954585
30
0
41
1
10
230.256273819696
20
-1.16857474579321
30
0
41
1
10
230.271
20
-0.851623924067277
30
0
0
SPLINE
5
F1
100
AcDbEntity
8
1
62
256
6
ByLayer
370
18
48
1
60
0
100
AcDbSpline
70
4
71
3
72
14
73
10
40
0
40
0
40
0
40
0
40
0.109342584805034
40
0.182599253080247
40
0.256361666700858
40
0.323283419577416
40
0.426821569309514
40
0.620067492932235
40
1
40
1
40
1
40
1
41
1
10
229.732250000024
20
-5.28980280247635
30
0
41
1
10
229.725687804626
20
-5.297560282759
30
0
41
1
10
229.714353399258
20
-5.30777349770063
30
0
41
1
10
229.696968508131
20
-5.31729474570022
30
0
41
1
10
229.682858246388
20
-5.31822483399799
30
0
41
1
10
229.669531938377
20
-5.31136225733769
30
0
41
1
10
229.655485794365
20
-5.29135768964446
30
0
41
1
10
229.642912628438
20
-5.24024681003285
30
0
41
1
10
229.638980621897
20
-5.19359825871477
30
0
41
1
10
229.641039150681
20
-5.15905671087024
30
0
0
SPLINE
5
F2
100
AcDbEntity
8
1
62
256
6
ByLayer
370
18
48
1
60
0
100
AcDbSpline
70
4
71
1
72
4
73
2
40
0
40
0
40
1
40
1
41
1
10
230.271
20
-4.67275427615122
30
0
41
1
10
229.73225
20
-5.28980280249553
30
0
0
SPLINE
5
F3
100
AcDbEntity
8
1
62
256
6
ByLayer
370
18
48
1
60
0
100
AcDbSpline
70
4
71
2
72
6
73
3
40
0
40
0
40
0
40
1
40
1
40
1
41
1
10
229.73225
20
-6.91573598044248
30
0
41
1
10
230.029398887468
20
-6.13790803285793
30
0
41
1
10
230.271
20
-5.3348388956308
30
0
0
SPLINE
5
F4
100
AcDbEntity
8
1
62
256
6
ByLayer
370
18
48
1
60
0
100
AcDbSpline
70
4
71
3
72
14
73
10
40
0
40
0
40
0
40
0
40
0.0907799683164166
40
0.242088607027766
40
0.355695581184134
40
0.469180356968464
40
0.632539634262432
40
0.912014528228863
40
1
40
1
40
1
40
1
41
1
10
229.732250000006
20
-7.35862688269814
30
0
41
1
10
229.727395342641
20
-7.36309200926983
30
0
41
1
10
229.71446466206
20
-7.37348895244817
30
0
41
1
10
229.694483105227
20
-7.38461738912767
30
0
41
1
10
229.675240870768
20
-7.38626791884762
30
0
41
1
10
229.659631515193
20
-7.37846582208443
30
0
41
1
10
229.645717173161
20
-7.35534584137324
30
0
41
1
10
229.641483505943
20
-7.32455555062663
30
0
41
1
10
229.640930912185
20
-7.30200736902691
30
0
41
1
10
229.641004696959
20
-7.29644401145868
30
0
0
SPLINE
5
F5
100
AcDbEntity
8
1
62
256
6
ByLayer
370
18
48
1
60
0
100
AcDbSpline
70
4
71
1
72
4
73
2
40
0
40
0
40
1
40
1
41
1
10
230.271
20
-6.87200042134735
30
0
41
1
10
229.73225
20
-7.35862688270122
30
0
0
SPLINE
5
F6
100
AcDbEntity
8
1
62
256
6
ByLayer
370
18
48
1
60
0
100
AcDbSpline
70
4
71
1
72
4
73
2
40
0
40
0
40
1
40
1
41
1
10
229.73225
20
-8.46522464212636
30
0
41
1
10
230.271
20
-7.28496731472603
30
0
0
SPLINE
5
F7
100
AcDbEntity
8
1
62
256
6
ByLayer
370
18
48
1
60
0
100
AcDbSpline
70
4
71
3
72
13
73
9
40
0
40
0
40
0
40
0
40
0.13030710374994
40
0.323908710135316
40
0.494817830063475
40
0.639384076730625
40
0.866836580659612
40
1
40
1
40
1
40
1
41
1
10
229.732250000002
20
-8.78588444656102
30
0
41
1
10
229.725538358709
20
-8.79161630959275
30
0
41
1
10
229.709210578845
20
-8.80369891602727
30
0
41
1
10
229.683879739629
20
-8.81617024418504
30
0
41
1
10
229.662748752799
20
-8.81515089058575
30
0
41
1
10
229.647921319459
20
-8.80213138192732
30
0
41
1
10
229.64190188829
20
-8.78097308248885
30
0
41
1
10
229.640842118157
20
-8.76353317479932
30
0
41
1
10
229.641005277412
20
-8.75656778647347
30
0
0
SPLINE
5
F8
100
AcDbEntity
8
1
62
256
6
ByLayer
370
18
48
1
60
0
100
AcDbSpline
70
4
71
1
72
4
73
2
40
0
40
0
40
1
40
1
41
1
10
230.271
20
-8.33601505857005
30
0
41
1
10
229.73225
20
-8.78588444656179
30
0
0
SPLINE
5
F9
100
AcDbEntity
8
1
62
256
6
ByLayer
370
18
48
1
60
0
100
AcDbSpline
70
4
71
1
72
4
73
2
40
0
40
0
40
1
40
1
41
1
10
229.73225
20
-9.61080914034506
30
0
41
1
10
230.271
20
-8.63458114276067
30
0
0
SPLINE
5
FA
100
AcDbEntity
8
1
62
256
6
ByLayer
370
18
48
1
60
0
100
AcDbSpline
70
4
71
3
72
13
73
9
40
0
40
0
40
0
40
0
40
0.167240470114986
40
0.362015125418121
40
0.558092142198179
40
0.727011612384611
40
0.966209183304108
40
1
40
1
40
1
40
1
41
1
10
229.732250000001
20
-9.85439706008715
30
0
41
1
10
229.723889335677
20
-9.86136274545269
30
0
41
1
10
229.706408324265
20
-9.87407950636638
30
0
41
1
10
229.68002421729
20
-9.88764270671052
30
0
41
1
10
229.658795135828
20
-9.88901189296134
30
0
41
1
10
229.6446930768
20
-9.87779025991197
30
0
41
1
10
229.641211388179
20
-9.86196359465082
30
0
41
1
10
229.640991603466
20
-9.85073318741976
30
0
41
1
10
229.641000369587
20
-9.84930867733357
30
0
0
SPLINE
5
FB
100
AcDbEntity
8
1
62
256
6
ByLayer
370
18
48
1
60
0
100
AcDbSpline
70
4
71
1
72
4
73
2
40
0
40
0
40
1
40
1
41
1
10
230.271
20
-9.41429255559945
30
0
41
1
10
229.73225
20
-9.85439706008743
30
0
0
SPLINE
5
FC
100
AcDbEntity
8
1
62
256
6
ByLayer
370
18
48
1
60
0
100
AcDbSpline
70
4
71
1
72
4
73
2
40
0
40
0
40
1
40
1
41
1
10
229.73225
20
-10.4857177352157
30
0
41
1
10
230.271
20
-9.63930673052837
30
0
0
SPLINE
5
FD
100
AcDbEntity
8
1
62
256
6
ByLayer
370
18
48
1
60
0
100
AcDbSpline
70
4
71
3
72
12
73
8
40
0
40
0
40
0
40
0
40
0.200181900414808
40
0.414389023711284
40
0.630028444429564
40
0.815820213355149
40
1
40
1
40
1
40
1
41
1
10
229.73225
20
-10.6724653818778
30
0
41
1
10
229.722350770154
20
-10.6807412049953
30
0
41
1
10
229.70285888451
20
-10.6951744690972
30
0
41
1
10
229.67465213726
20
-10.7105743498161
30
0
41
1
10
229.653651694288
20
-10.7131954498675
30
0
41
1
10
229.642892486012
20
-10.7035659632027
30
0
41
1
10
229.640813208929
20
-10.6928448237194
30
0
41
1
10
229.641001095817
20
-10.6861577308969
30
0
0
SPLINE
5
FE
100
AcDbEntity
8
1
62
256
6
ByLayer
370
18
48
1
60
0
100
AcDbSpline
70
4
71
1
72
4
73
2
40
0
40
0
40
1
40
1
41
1
10
230.271
20
-10.2295484547522
30
0
41
1
10
229.73225
20
-10.672465381878
30
0
0
SPLINE
5
FF
100
AcDbEntity
8
1
62
256
6
ByLayer
370
18
48
1
60
0
100
AcDbSpline
70
4
71
1
72
4
73
2
40
0
40
0
40
1
40
1
41
1
10
229.73225
20
-11.1538289619795
30
0
41
1
10
230.271
20
-10.3995902313265
30
0
0
SPLINE
5
100
100
AcDbEntity
8
1
62
256
6
ByLayer
370
18
48
1
60
0
100
AcDbSpline
70
4
71
3
72
12
73
8
40
0
40
0
40
0
40
0
40
0.231480102558278
40
0.462123651622545
40
0.694380869318144
40
0.893083043456558
40
1
40
1
40
1
40
1
41
1
10
229.73225
20
-11.2946400224578
30
0
41
1
10
229.720885070444
20
-11.3043276532536
30
0
41
1
10
229.699624154611
20
-11.3206922624265
30
0
41
1
10
229.670008557052
20
-11.3384806826822
30
0
41
1
10
229.649612503947
20
-11.3428461089969
30
0
41
1
10
229.64197820197
20
-11.3355180180313
30
0
41
1
10
229.640943894422
20
-11.328156115494
30
0
41
1
10
229.641000908894
20
-11.3251321151027
30
0
0
SPLINE
5
101
100
AcDbEntity
8
1
62
256
6
ByLayer
370
18
48
1
60
0
100
AcDbSpline
70
4
71
1
72
4
73
2
40
0
40
0
40
1
40
1
41
1
10
230.271
20
-10.8412830815283
30
0
41
1
10
229.73225
20
-11.2946400224579
30
0
0
SPLINE
5
102
100
AcDbEntity
8
1
62
256
6
ByLayer
370
18
48
1
60
0
100
AcDbSpline
70
4
71
1
72
4
73
2
40
0
40
0
40
1
40
1
41
1
10
229.73225
20
-11.6507735624537
30
0
41
1
10
230.271
20
-10.9663904596632
30
0
0
SPLINE
5
103
100
AcDbEntity
8
1
62
256
6
ByLayer
370
18
48
1
60
0
100
AcDbSpline
70
4
71
3
72
12
73
8
40
0
40
0
40
0
40
0
40
0.261950786946849
40
0.506820095807973
40
0.753518780296037
40
0.962397106901304
40
1
40
1
40
1
40
1
41
1
10
229.73225
20
-11.7520750995911
30
0
41
1
10
229.719457057234
20
-11.7633166138184
30
0
41
1
10
229.696605576442
20
-11.7818651776419
30
0
41
1
10
229.665919907703
20
-11.802547568362
30
0
41
1
10
229.646386257931
20
-11.8091517857849
30
0
41
1
10
229.641309208965
20
-11.8038910801297
30
0
41
1
10
229.640994952719
20
-11.7991200467866
30
0
41
1
10
229.641000064647
20
-11.7983365902929
30
0
0
SPLINE
5
104
100
AcDbEntity
8
1
62
256
6
ByLayer
370
18
48
1
60
0
100
AcDbSpline
70
4
71
1
72
4
73
2
40
0
40
0
40
1
40
1
41
1
10
230.271
20
-11.282649339563
30
0
41
1
10
229.73225
20
-11.7520750995911
30
0
0
SPLINE
5
105
100
AcDbEntity
8
1
62
256
6
ByLayer
370
18
48
1
60
0
100
AcDbSpline
70
4
71
1
72
4
73
2
40
0
40
0
40
1
40
1
41
1
10
229.73225
20
-11.9978393343988
30
0
41
1
10
230.271
20
-11.3686834087366
30
0
0
SPLINE
5
106
100
AcDbEntity
8
1
62
256
6
ByLayer
370
18
48
1
60
0
100
AcDbSpline
70
4
71
3
72
12
73
8
40
0
40
0
40
0
40
0
40
0.290983322097181
40
0.547294733627023
40
0.762967008538249
40
0.979204130115366
40
1
40
1
40
1
40
1
41
1
10
229.73225
20
-12.0635253991507
30
0
41
1
10
229.718037755791
20
-12.0765081431125
30
0
41
1
10
229.693730705964
20
-12.0975441788766
30
0
41
1
10
229.663921863982
20
-12.1203534086869
30
0
41
1
10
229.645762867166
20
-12.1301210985049
30
0
41
1
10
229.64117904947
20
-12.1283485956463
30
0
41
1
10
229.640999091513
20
-12.1252304965168
30
0
41
1
10
229.641000006457
20
-12.1249394678571
30
0
0
SPLINE
5
107
100
AcDbEntity
8
1
62
256
6
ByLayer
370
18
48
1
60
0
100
AcDbSpline
70
4
71
1
72
4
73
2
40
0
40
0
40
1
40
1
41
1
10
230.271
20
-11.5731557228463
30
0
41
1
10
229.73225
20
-12.0635253991507
30
0
0
SPLINE
5
108
100
AcDbEntity
8
1
62
256
6
ByLayer
370
18
48
1
60
0
100
AcDbSpline
70
4
71
1
72
4
73
2
40
0
40
0
40
1
40
1
41
1
10
229.891512701892
20
-12.0363807730961
30
0
41
1
10
230.271
20
-11.6235624996115
30
0
0
SPLINE
5
109
100
AcDbEntity
8
1
62
256
6
ByLayer
370
18
48
1
60
0
100
AcDbSpline
70
4
71
1
72
4
73
2
40
0
40
0
40
1
40
1
41
1
10
229.521
20
-12.4096736459909
30
0
41
1
10
229.891512701892
20
-12.0363807730961
30
0
0
SPLINE
5
10A
100
AcDbEntity
8
1
62
256
6
ByLayer
370
18
48
1
60
0
100
AcDbSpline
70
4
71
3
72
14
73
10
40
0
40
0
40
0
40
0
40
0.267120466906939
40
0.575029237593566
40
0.670372036100255
40
0.743598405040165
40
0.817203495589852
40
0.884392368803756
40
1
40
1
40
1
40
1
41
1
10
229.641027593363
20
5.16040734629456
30
0
41
1
10
229.640074209011
20
5.18399829609843
30
0
41
1
10
229.64280075747
20
5.23110439232335
30
0
41
1
10
229.651390926651
20
5.28535142767696
30
0
41
1
10
229.669601020314
20
5.31133846389615
30
0
41
1
10
229.682704964574
20
5.31829009007506
30
0
41
1
10
229.696754376304
20
5.31724730425011
30
0
41
1
10
229.71401352582
20
5.30807017581153
30
0
41
1
10
229.725334917773
20
5.29799592781705
30
0
41
1
10
229.73225
20
5.28980280249555
30
0
0
SPLINE
5
10B
100
AcDbEntity
8
1
62
256
6
ByLayer
370
18
48
1
60
0
100
AcDbSpline
70
4
71
3
72
10
73
6
40
0
40
0
40
0
40
0
40
0.103288009068171
40
0.550967073567645
40
1
40
1
40
1
40
1
41
1
10
229.641039150681
20
-5.15905671087024
30
0
41
1
10
229.641432470523
20
-5.13946378441799
30
0
41
1
10
229.645099443266
20
-5.03450250879099
30
0
41
1
10
229.672470237674
20
-4.83600437177487
30
0
41
1
10
229.709256831476
20
-4.6582743889595
30
0
41
1
10
229.73225
20
-4.56834544016871
30
0
0
SPLINE
5
10C
100
AcDbEntity
8
1
62
256
6
ByLayer
370
18
48
1
60
0
100
AcDbSpline
70
4
71
3
72
14
73
10
40
0
40
0
40
0
40
0
40
0.0390141540525789
40
0.337072844639803
40
0.490534566057347
40
0.618613520646313
40
0.747478255881249
40
0.861074918597936
40
1
40
1
40
1
40
1
41
1
10
229.64100051912
20
7.29764901403886
30
0
41
1
10
229.640988669223
20
7.30008174002103
30
0
41
1
10
229.641216609858
20
7.3208430539651
30
0
41
1
10
229.64426479956
20
7.34977579165449
30
0
41
1
10
229.657011557995
20
7.3753623663644
30
0
41
1
10
229.671943896654
20
7.3858780725401
30
0
41
1
10
229.690336405742
20
7.38558726106177
30
0
41
1
10
229.711284997506
20
7.3757241746976
30
0
41
1
10
229.72477625305
20
7.36558081082204
30
0
41
1
10
229.73225
20
7.35862688270121
30
0
0
SPLINE
5
10D
100
AcDbEntity
8
1
62
256
6
ByLayer
370
18
48
1
60
0
100
AcDbSpline
70
4
71
2
72
6
73
3
40
0
40
0
40
0
40
1
40
1
40
1
41
1
10
229.641004696959
20
-7.29644401145868
30
0
41
1
10
229.649760437173
20
-7.11785984629924
30
0
41
1
10
229.73225
20
-6.91573598044247
30
0
0
SPLINE
5
10E
100
AcDbEntity
8
1
62
256
6
ByLayer
370
18
48
1
60
0
100
AcDbSpline
70
4
71
3
72
13
73
9
40
0
40
0
40
0
40
0
40
0.197408238358968
40
0.433517811964354
40
0.583072919887689
40
0.732915986575603
40
0.91410026674257
40
1
40
1
40
1
40
1
41
1
10
229.641000449002
20
8.75755697857318
30
0
41
1
10
229.640670355196
20
8.76802344691722
30
0
41
1
10
229.642840548213
20
8.78800347088268
30
0
41
1
10
229.652740403298
20
8.80952052104318
30
0
41
1
10
229.671174644796
20
8.81675099498914
30
0
41
1
10
229.693111653422
20
8.81252282735976
30
0
41
1
10
229.714483797195
20
8.79994491151436
30
0
41
1
10
229.727901031238
20
8.78956030944887
30
0
41
1
10
229.732250000033
20
8.78588444655162
30
0
0
SPLINE
5
10F
100
AcDbEntity
8
1
62
256
6
ByLayer
370
18
48
1
60
0
100
AcDbSpline
70
4
71
3
72
10
73
6
40
0
40
0
40
0
40
0
40
0.158074141884703
40
0.61872332098089
40
1
40
1
40
1
40
1
41
1
10
229.641005277412
20
-8.75656778647347
30
0
41
1
10
229.641509504893
20
-8.74313839359063
30
0
41
1
10
229.646174533825
20
-8.68935801067675
30
0
41
1
10
229.677340766494
20
-8.58857099215641
30
0
41
1
10
229.712930301786
20
-8.5044024755659
30
0
41
1
10
229.73225
20
-8.46522464212637
30
0
0
SPLINE
5
110
100
AcDbEntity
8
1
62
256
6
ByLayer
370
18
48
1
60
0
100
AcDbSpline
70
4
71
3
72
13
73
9
40
0
40
0
40
0
40
0
40
0.149091420999589
40
0.342542673938134
40
0.537436452174659
40
0.709329403864467
40
0.925170870121832
40
1
40
1
40
1
40
1
41
1
10
229.641007037684
20
9.84835937641311
30
0
41
1
10
229.64081143298
20
9.85490965216278
30
0
41
1
10
229.642105620229
20
9.86817996442208
30
0
41
1
10
229.649602776803
20
9.88424598499666
30
0
41
1
10
229.666558963067
20
9.88994274271424
30
0
41
1
10
229.69148433463
20
9.88290254486097
30
0
41
1
10
229.714287821628
20
9.86854415598924
30
0
41
1
10
229.728542939606
20
9.85744887478989
30
0
41
1
10
229.732250000003
20
9.85439706008651
30
0
0
SPLINE
5
111
100
AcDbEntity
8
1
62
256
6
ByLayer
370
18
48
1
60
0
100
AcDbSpline
70
4
71
3
72
10
73
6
40
0
40
0
40
0
40
0
40
0.231487098965093
40
0.670623613354806
40
1
40
1
40
1
40
1
41
1
10
229.641000369587
20
-9.84930867733357
30
0
41
1
10
229.641884898263
20
-9.83403972200337
30
0
41
1
10
229.648550907168
20
-9.78772811218212
30
0
41
1
10
229.682448406439
20
-9.70356230246134
30
0
41
1
10
229.715730844019
20
-9.63922941005738
30
0
41
1
10
229.73225
20
-9.61080914034506
30
0
0
SPLINE
5
112
100
AcDbEntity
8
1
62
256
6
ByLayer
370
18
48
1
60
0
100
AcDbSpline
70
4
71
3
72
13
73
9
40
0
40
0
40
0
40
0
40
0.0474900768900224
40
0.262176384730764
40
0.478365749104854
40
0.665736863586067
40
0.907797407895766
40
1
40
1
40
1
40
1
41
1
10
229.641000443446
20
10.6862930857991
30
0
41
1
10
229.640985630284
20
10.6879440243469
30
0
41
1
10
229.641330344465
20
10.6966292438394
30
0
41
1
10
229.645715173158
20
10.7092414453006
30
0
41
1
10
229.661908261157
20
10.7135427262871
30
0
41
1
10
229.687321347321
20
10.7047460876007
30
0
41
1
10
229.711867750692
20
10.6886761888625
30
0
41
1
10
229.727786622405
20
10.6761589357035
30
0
41
1
10
229.732250000005
20
10.6724653818764
30
0
0
SPLINE
5
113
100
AcDbEntity
8
1
62
256
6
ByLayer
370
18
48
1
60
0
100
AcDbSpline
70
4
71
3
72
11
73
7
40
0
40
0
40
0
40
0
40
0.0483188377386297
40
0.321676692793162
40
0.760544060736416
40
1
40
1
40
1
40
1
41
1
10
229.641001095817
20
-10.6861577308969
30
0
41
1
10
229.641036468705
20
-10.6838642190676
30
0
41
1
10
229.64185702375
20
-10.6681603154257
30
0
41
1
10
229.655423283263
20
-10.6213509600996
30
0
41
1
10
229.690032029038
20
-10.5530332434686
30
0
41
1
10
229.720478739271
20
-10.5035635793041
30
0
41
1
10
229.732249999995
20
-10.4857177352159
30
0
0
SPLINE
5
114
100
AcDbEntity
8
1
62
256
6
ByLayer
370
18
48
1
60
0
100
AcDbSpline
70
4
71
3
72
12
73
8
40
0
40
0
40
0
40
0
40
0.213484102384092
40
0.432168674349048
40
0.628620877039048
40
0.893256422038382
40
1
40
1
40
1
40
1
41
1
10
229.641000006299
20
11.3253662263497
30
0
41
1
10
229.640891758172
20
11.3315613616354
30
0
41
1
10
229.643993477246
20
11.3402431446011
30
0
41
1
10
229.658815665029
20
11.3420594990345
30
0
41
1
10
229.683909325859
20
11.3310850013292
30
0
41
1
10
229.709758570348
20
11.3130368323155
30
0
41
1
10
229.727142031516
20
11.2989573809917
30
0
41
1
10
229.732250000006
20
11.2946400224557
30
0
0
SPLINE
5
115
100
AcDbEntity
8
1
62
256
6
ByLayer
370
18
48
1
60
0
100
AcDbSpline
70
4
71
3
72
11
73
7
40
0
40
0
40
0
40
0
40
0.114908749294122
40
0.397853912834095
40
0.828489753563152
40
1
40
1
40
1
40
1
41
1
10
229.641000908895
20
-11.3251321151027
30
0
41
1
10
229.641159414802
20
-11.3209561428857
30
0
41
1
10
229.643297472435
20
-11.3052649910631
30
0
41
1
10
229.661986939534
20
-11.260521717925
30
0
41
1
10
229.696422459188
20
-11.2042674299904
30
0
41
1
10
229.723938246981
20
-11.165168813805
30
0
41
1
10
229.73225
20
-11.1538289619795
30
0
0
SPLINE
5
116
100
AcDbEntity
8
1
62
256
6
ByLayer
370
18
48
1
60
0
100
AcDbSpline
70
4
71
3
72
12
73
8
40
0
40
0
40
0
40
0
40
0.170659557561955
40
0.38745126176446
40
0.589665989295094
40
0.871605397554957
40
1
40
1
40
1
40
1
41
1
10
229.641000283227
20
11.7982829874517
30
0
41
1
10
229.640952071143
20
11.8019637786855
30
0
41
1
10
229.643266227553
20
11.8076075159008
30
0
41
1
10
229.655736710408
20
11.8068897417832
30
0
41
1
10
229.68000598631
20
11.7938342496183
30
0
41
1
10
229.707117248023
20
11.7734439340102
30
0
41
1
10
229.726121115317
20
11.7574269990051
30
0
41
1
10
229.732250000011
20
11.7520750995866
30
0
0
SPLINE
5
117
100
AcDbEntity
8
1
62
256
6
ByLayer
370
18
48
1
60
0
100
AcDbSpline
70
4
71
3
72
11
73
7
40
0
40
0
40
0
40
0
40
0.143612839063687
40
0.415788673195538
40
0.813100232698575
40
1
40
1
40
1
40
1
41
1
10
229.641000064647
20
-11.7983365902929
30
0
41
1
10
229.641196935113
20
-11.7945588509816
30
0
41
1
10
229.643826138242
20
-11.7819032940043
30
0
41
1
10
229.663209853271
20
-11.7444605532104
30
0
41
1
10
229.696704781508
20
-11.6962103252866
30
0
41
1
10
229.723221037978
20
-11.6620103753937
30
0
41
1
10
229.73225
20
-11.6507735624533
30
0
0
SPLINE
5
118
100
AcDbEntity
8
1
62
256
6
ByLayer
370
18
48
1
60
0
100
AcDbSpline
70
4
71
3
72
11
73
7
40
0
40
0
40
0
40
0
40
0.16525299931745
40
0.425192053112741
40
0.791705976488182
40
1
40
1
40
1
40
1
41
1
10
229.641000006457
20
-12.1249394678571
30
0
41
1
10
229.64122382811
20
-12.1220767441879
30
0
41
1
10
229.644217894085
20
-12.1125470916562
30
0
41
1
10
229.663709176019
20
-12.0817929418507
30
0
41
1
10
229.696333454391
20
-12.0399776818316
30
0
41
1
10
229.722209659759
20
-12.0093765331493
30
0
41
1
10
229.73225
20
-11.997839334396
30
0
0
SPLINE
5
119
100
AcDbEntity
8
1
62
256
6
ByLayer
370
18
48
1
60
0
100
AcDbSpline
70
4
71
3
72
12
73
8
40
0
40
0
40
0
40
0
40
0.087540420870783
40
0.306019354289522
40
0.511065355130463
40
0.794892985150591
40
1
40
1
40
1
40
1
41
1
10
229.641000150798
20
12.1249009548997
30
0
41
1
10
229.640988042082
20
12.1261473956113
30
0
41
1
10
229.641964833701
20
12.1294168157099
30
0
41
1
10
229.649924908218
20
12.1284642409282
30
0
41
1
10
229.671321865837
20
12.1151467098039
30
0
41
1
10
229.700224472356
20
12.091987134192
30
0
41
1
10
229.722390423519
20
12.0725084367706
30
0
41
1
10
229.73225
20
12.0635253991507
30
0
0
INSERT
5
133
100
AcDbEntity
8
SK2
62
256
6
ByLayer
370
25
48
1
60
0
100
AcDbBlockReference
2
DimnDraft3D22
10
0
20
0
30
0
41
1
42
1
43
1
50
0
210
0
220
0
230
1
0
LINE
5
70
100
AcDbEntity
8
81
62
256
6
ByLayer
370
18
48
1
60
0
100
AcDbLine
10
230
20
0
30
0
11
253
21
0
31
0
39
0
210
0
220
0
230
1
0
LINE
5
71
100
AcDbEntity
8
4
62
256
6
ByLayer
370
18
48
0.05
60
0
100
AcDbLine
10
0
20
0
30
0
11
230
21
0
31
0
39
0
210
0
220
0
230
1
0
LINE
5
73
100
AcDbEntity
8
SK4
62
256
6
ByLayer
370
18
48
0.05
60
0
100
AcDbLine
10
-105
20
0
30
0
11
235
21
0
31
0
39
0
210
0
220
0
230
1
0
LINE
5
75
100
AcDbEntity
8
80
62
256
6
ByLayer
370
18
48
1
60
0
100
AcDbLine
10
0
20
0
30
0
11
-23
21
0
31
0
39
0
210
0
220
0
230
1
0
LINE
5
76
100
AcDbEntity
8
SK1
62
256
6
ByLayer
370
18
48
1
60
0
100
AcDbLine
10
238
20
9.156854
30
0
11
234
21
9.156854
31
0
39
0
210
0
220
0
230
1
0
LINE
5
78
100
AcDbEntity
8
SK1
62
256
6
ByLayer
370
18
48
1
60
0
100
AcDbLine
10
234
20
2.156854
30
0
11
238
21
2.156854
31
0
39
0
210
0
220
0
230
1
0
LINE
5
79
100
AcDbEntity
8
SK1
62
256
6
ByLayer
370
18
48
1
60
0
100
AcDbLine
10
234
20
7.656854
30
0
11
230.271
21
7.656854
31
0
39
0
210
0
220
0
230
1
0
LINE
5
7A
100
AcDbEntity
8
SK1
62
256
6
ByLayer
370
18
48
1
60
0
100
AcDbLine
10
230.271
20
3.656854
30
0
11
234
21
3.656854
31
0
39
0
210
0
220
0
230
1
0
LINE
5
7B
100
AcDbEntity
8
1
62
256
6
ByLayer
370
18
48
1
60
0
100
AcDbLine
10
227.8
20
12.5
30
0
11
0
21
12.5
31
0
39
0
210
0
220
0
230
1
0
LINE
5
7D
100
AcDbEntity
8
SK1
62
256
6
ByLayer
370
18
48
1
60
0
100
AcDbLine
10
-99
20
-12.5
30
0
11
0
21
-12.5
31
0
39
0
210
0
220
0
230
1
0
LINE
5
7E
100
AcDbEntity
8
1
62
256
6
ByLayer
370
18
48
1
60
0
100
AcDbLine
10
100
20
0.21073
30
0
11
0
21
0.21073
31
0
39
0
210
0
220
0
230
1
0
LINE
5
7F
100
AcDbEntity
8
SK1
62
256
6
ByLayer
370
18
48
1
60
0
100
AcDbLine
10
-25
20
-0.21073
30
0
11
0
21
-0.21073
31
0
39
0
210
0
220
0
230
1
0
LINE
5
80
100
AcDbEntity
8
SK1
62
256
6
ByLayer
370
18
48
1
60
0
100
AcDbLine
10
-99
20
12.5
30
0
11
-100
21
11.5
31
0
39
0
210
0
220
0
230
1
0
LINE
5
81
100
AcDbEntity
8
SK1
62
256
6
ByLayer
370
18
48
1
60
0
100
AcDbLine
10
-100
20
-11.5
30
0
11
-99
21
-12.5
31
0
39
0
210
0
220
0
230
1
0
LINE
5
82
100
AcDbEntity
8
SK1
62
256
6
ByLayer
370
18
48
1
60
0
100
AcDbLine
10
238
20
-2.156854
30
0
11
234
21
-2.156854
31
0
39
0
210
0
220
0
230
1
0
LINE
5
83
100
AcDbEntity
8
SK1
62
256
6
ByLayer
370
18
48
1
60
0
100
AcDbLine
10
234
20
-9.156854
30
0
11
238
21
-9.156854
31
0
39
0
210
0
220
0
230
1
0
LINE
5
84
100
AcDbEntity
8
SK1
62
256
6
ByLayer
370
18
48
1
60
0
100
AcDbLine
10
234
20
-3.656854
30
0
11
230.271
21
-3.656854
31
0
39
0
210
0
220
0
230
1
0
LINE
5
85
100
AcDbEntity
8
SK1
62
256
6
ByLayer
370
18
48
1
60
0
100
AcDbLine
10
230.271
20
-7.656854
30
0
11
234
21
-7.656854
31
0
39
0
210
0
220
0
230
1
0
LINE
5
86
100
AcDbEntity
8
1
62
256
6
ByLayer
370
18
48
1
60
0
100
AcDbLine
10
229.521
20
12.409674
30
0
11
228.2
21
12.409674
31
0
39
0
210
0
220
0
230
1
0
LINE
5
87
100
AcDbEntity
8
1
62
256
6
ByLayer
370
18
48
1
60
0
100
AcDbLine
10
228.2
20
-12.409674
30
0
11
229.521
21
-12.409674
31
0
39
0
210
0
220
0
230
1
0
LINE
5
88
100
AcDbEntity
8
1
62
256
6
ByLayer
370
18
48
1
60
0
100
AcDbLine
10
229.73225
20
5.289803
30
0
11
229.73225
21
4.568345
31
0
39
0
210
0
220
0
230
1
0
LINE
5
89
100
AcDbEntity
8
1
62
256
6
ByLayer
370
18
48
1
60
0
100
AcDbLine
10
229.73225
20
-4.568345
30
0
11
229.73225
21
-5.289803
31
0
39
0
210
0
220
0
230
1
0
LINE
5
8A
100
AcDbEntity
8
1
62
256
6
ByLayer
370
18
48
1
60
0
100
AcDbLine
10
230.271
20
4.672754
30
0
11
230.271
21
0.851624
31
0
39
0
210
0
220
0
230
1
0
LINE
5
8B
100
AcDbEntity
8
1
62
256
6
ByLayer
370
18
48
1
60
0
100
AcDbLine
10
230.271
20
-0.851624
30
0
11
230.271
21
-4.672754
31
0
39
0
210
0
220
0
230
1
0
LINE
5
8C
100
AcDbEntity
8
1
62
256
6
ByLayer
370
18
48
1
60
0
100
AcDbLine
10
229.73225
20
7.358627
30
0
11
229.73225
21
6.915736
31
0
39
0
210
0
220
0
230
1
0
LINE
5
8D
100
AcDbEntity
8
1
62
256
6
ByLayer
370
18
48
1
60
0
100
AcDbLine
10
229.73225
20
-6.915736
30
0
11
229.73225
21
-7.358627
31
0
39
0
210
0
220
0
230
1
0
LINE
5
8E
100
AcDbEntity
8
1
62
256
6
ByLayer
370
18
48
1
60
0
100
AcDbLine
10
230.271
20
6.872
30
0
11
230.271
21
5.334839
31
0
39
0
210
0
220
0
230
1
0
LINE
5
8F
100
AcDbEntity
8
1
62
256
6
ByLayer
370
18
48
1
60
0
100
AcDbLine
10
230.271
20
-5.334839
30
0
11
230.271
21
-6.872
31
0
39
0
210
0
220
0
230
1
0
LINE
5
90
100
AcDbEntity
8
1
62
256
6
ByLayer
370
18
48
1
60
0
100
AcDbLine
10
229.73225
20
8.785884
30
0
11
229.73225
21
8.465225
31
0
39
0
210
0
220
0
230
1
0
LINE
5
91
100
AcDbEntity
8
1
62
256
6
ByLayer
370
18
48
1
60
0
100
AcDbLine
10
229.73225
20
-8.465225
30
0
11
229.73225
21
-8.785884
31
0
39
0
210
0
220
0
230
1
0
LINE
5
92
100
AcDbEntity
8
1
62
256
6
ByLayer
370
18
48
1
60
0
100
AcDbLine
10
230.271
20
8.336015
30
0
11
230.271
21
7.284967
31
0
39
0
210
0
220
0
230
1
0
LINE
5
93
100
AcDbEntity
8
1
62
256
6
ByLayer
370
18
48
1
60
0
100
AcDbLine
10
230.271
20
-7.284967
30
0
11
230.271
21
-8.336015
31
0
39
0
210
0
220
0
230
1
0
LINE
5
94
100
AcDbEntity
8
1
62
256
6
ByLayer
370
18
48
1
60
0
100
AcDbLine
10
229.73225
20
9.854397
30
0
11
229.73225
21
9.610809
31
0
39
0
210
0
220
0
230
1
0
LINE
5
95
100
AcDbEntity
8
1
62
256
6
ByLayer
370
18
48
1
60
0
100
AcDbLine
10
229.73225
20
-9.610809
30
0
11
229.73225
21
-9.854397
31
0
39
0
210
0
220
0
230
1
0
LINE
5
96
100
AcDbEntity
8
1
62
256
6
ByLayer
370
18
48
1
60
0
100
AcDbLine
10
230.271
20
9.414293
30
0
11
230.271
21
8.634581
31
0
39
0
210
0
220
0
230
1
0
LINE
5
97
100
AcDbEntity
8
1
62
256
6
ByLayer
370
18
48
1
60
0
100
AcDbLine
10
230.271
20
-8.634581
30
0
11
230.271
21
-9.414293
31
0
39
0
210
0
220
0
230
1
0
LINE
5
98
100
AcDbEntity
8
1
62
256
6
ByLayer
370
18
48
1
60
0
100
AcDbLine
10
229.73225
20
10.672465
30
0
11
229.73225
21
10.485718
31
0
39
0
210
0
220
0
230
1
0
LINE
5
99
100
AcDbEntity
8
1
62
256
6
ByLayer
370
18
48
1
60
0
100
AcDbLine
10
229.73225
20
-10.485718
30
0
11
229.73225
21
-10.672465
31
0
39
0
210
0
220
0
230
1
0
LINE
5
9A
100
AcDbEntity
8
1
62
256
6
ByLayer
370
18
48
1
60
0
100
AcDbLine
10
230.271
20
10.229548
30
0
11
230.271
21
9.639307
31
0
39
0
210
0
220
0
230
1
0
LINE
5
9B
100
AcDbEntity
8
1
62
256
6
ByLayer
370
18
48
1
60
0
100
AcDbLine
10
230.271
20
-9.639307
30
0
11
230.271
21
-10.229548
31
0
39
0
210
0
220
0
230
1
0
LINE
5
9C
100
AcDbEntity
8
1
62
256
6
ByLayer
370
18
48
1
60
0
100
AcDbLine
10
229.73225
20
11.29464
30
0
11
229.73225
21
11.153829
31
0
39
0
210
0
220
0
230
1
0
LINE
5
9D
100
AcDbEntity
8
1
62
256
6
ByLayer
370
18
48
1
60
0
100
AcDbLine
10
229.73225
20
-11.153829
30
0
11
229.73225
21
-11.29464
31
0
39
0
210
0
220
0
230
1
0
LINE
5
9E
100
AcDbEntity
8
1
62
256
6
ByLayer
370
18
48
1
60
0
100
AcDbLine
10
230.271
20
10.841283
30
0
11
230.271
21
10.39959
31
0
39
0
210
0
220
0
230
1
0
LINE
5
9F
100
AcDbEntity
8
1
62
256
6
ByLayer
370
18
48
1
60
0
100
AcDbLine
10
230.271
20
-10.39959
30
0
11
230.271
21
-10.841283
31
0
39
0
210
0
220
0
230
1
0
LINE
5
A0
100
AcDbEntity
8
1
62
256
6
ByLayer
370
18
48
1
60
0
100
AcDbLine
10
229.73225
20
11.752075
30
0
11
229.73225
21
11.650774
31
0
39
0
210
0
220
0
230
1
0
LINE
5
A1
100
AcDbEntity
8
1
62
256
6
ByLayer
370
18
48
1
60
0
100
AcDbLine
10
229.73225
20
-11.650774
30
0
11
229.73225
21
-11.752075
31
0
39
0
210
0
220
0
230
1
0
LINE
5
A2
100
AcDbEntity
8
1
62
256
6
ByLayer
370
18
48
1
60
0
100
AcDbLine
10
230.271
20
11.282649
30
0
11
230.271
21
10.96639
31
0
39
0
210
0
220
0
230
1
0
LINE
5
A3
100
AcDbEntity
8
1
62
256
6
ByLayer
370
18
48
1
60
0
100
AcDbLine
10
230.271
20
-10.96639
30
0
11
230.271
21
-11.282649
31
0
39
0
210
0
220
0
230
1
0
LINE
5
A4
100
AcDbEntity
8
1
62
256
6
ByLayer
370
18
48
1
60
0
100
AcDbLine
10
229.73225
20
-11.997839
30
0
11
229.73225
21
-12.063525
31
0
39
0
210
0
220
0
230
1
0
LINE
5
A5
100
AcDbEntity
8
1
62
256
6
ByLayer
370
18
48
1
60
0
100
AcDbLine
10
229.73225
20
12.063525
30
0
11
229.73225
21
11.997839
31
0
39
0
210
0
220
0
230
1
0
LINE
5
A6
100
AcDbEntity
8
1
62
256
6
ByLayer
370
18
48
1
60
0
100
AcDbLine
10
230.271
20
11.573156
30
0
11
230.271
21
11.368683
31
0
39
0
210
0
220
0
230
1
0
LINE
5
A7
100
AcDbEntity
8
1
62
256
6
ByLayer
370
18
48
1
60
0
100
AcDbLine
10
230.271
20
-11.368683
30
0
11
230.271
21
-11.573156
31
0
39
0
210
0
220
0
230
1
0
LINE
5
A8
100
AcDbEntity
8
SK1
62
256
6
ByLayer
370
18
48
1
60
0
100
AcDbLine
10
238
20
9.156854
30
0
11
238
21
2.156854
31
0
39
0
210
0
220
0
230
1
0
LINE
5
A9
100
AcDbEntity
8
SK1
62
256
6
ByLayer
370
18
48
1
60
0
100
AcDbLine
10
234
20
9.156854
30
0
11
234
21
2.156854
31
0
39
0
210
0
220
0
230
1
0
LINE
5
AA
100
AcDbEntity
8
1
62
256
6
ByLayer
370
18
48
1
60
0
100
AcDbLine
10
227.8
20
-12.5
30
0
11
227.8
21
0
31
0
39
0
210
0
220
0
230
1
0
LINE
5
AB
100
AcDbEntity
8
1
62
256
6
ByLayer
370
18
48
1
60
0
100
AcDbLine
10
228
20
12.3
30
0
11
228
21
12.23334
31
0
39
0
210
0
220
0
230
1
0
LINE
5
AC
100
AcDbEntity
8
1
62
256
6
ByLayer
370
18
48
1
60
0
100
AcDbLine
10
228
20
12.23334
30
0
11
228
21
12.208194
31
0
39
0
210
0
220
0
230
1
0
LINE
5
AD
100
AcDbEntity
8
1
62
256
6
ByLayer
370
18
48
1
60
0
100
AcDbLine
10
228
20
12.208194
30
0
11
228
21
0
31
0
39
0
210
0
220
0
230
1
0
LINE
5
AE
100
AcDbEntity
8
1
62
256
6
ByLayer
370
18
48
1
60
0
100
AcDbLine
10
228
20
0
30
0
11
228
21
-12.208194
31
0
39
0
210
0
220
0
230
1
0
LINE
5
AF
100
AcDbEntity
8
1
62
256
6
ByLayer
370
18
48
1
60
0
100
AcDbLine
10
228
20
-12.208194
30
0
11
228
21
-12.232542
31
0
39
0
210
0
220
0
230
1
0
LINE
5
B0
100
AcDbEntity
8
1
62
256
6
ByLayer
370
18
48
1
60
0
100
AcDbLine
10
228
20
-12.232542
30
0
11
228
21
-12.3
31
0
39
0
210
0
220
0
230
1
0
LINE
5
B1
100
AcDbEntity
8
1
62
256
6
ByLayer
370
18
48
1
60
0
100
AcDbLine
10
227.8
20
0
30
0
11
227.8
21
12.5
31
0
39
0
210
0
220
0
230
1
0
LINE
5
B2
100
AcDbEntity
8
SK1
62
256
6
ByLayer
370
18
48
1
60
0
100
AcDbLine
10
-99
20
12.5
30
0
11
-99
21
-12.5
31
0
39
0
210
0
220
0
230
1
0
LINE
5
B3
100
AcDbEntity
8
1
62
256
6
ByLayer
370
18
48
1
60
0
100
AcDbLine
10
100
20
-0.21073
30
0
11
100
21
0.21073
31
0
39
0
210
0
220
0
230
1
0
LINE
5
B4
100
AcDbEntity
8
SK1
62
256
6
ByLayer
370
18
48
1
60
0
100
AcDbLine
10
-25
20
0.21073
30
0
11
-25
21
-0.21073
31
0
39
0
210
0
220
0
230
1
0
LINE
5
B5
100
AcDbEntity
8
SK1
62
256
6
ByLayer
370
18
48
1
60
0
100
AcDbLine
10
-100
20
11.5
30
0
11
-100
21
-11.5
31
0
39
0
210
0
220
0
230
1
0
LINE
5
B6
100
AcDbEntity
8
SK1
62
256
6
ByLayer
370
18
48
1
60
0
100
AcDbLine
10
238
20
-2.156854
30
0
11
238
21
-9.156854
31
0
39
0
210
0
220
0
230
1
0
LINE
5
B7
100
AcDbEntity
8
SK1
62
256
6
ByLayer
370
18
48
1
60
0
100
AcDbLine
10
234
20
-2.156854
30
0
11
234
21
-9.156854
31
0
39
0
210
0
220
0
230
1
0
LINE
5
B8
100
AcDbEntity
8
1
62
256
6
ByLayer
370
18
48
1
60
0
100
AcDbLine
10
228
20
-12.208194
30
0
11
228
21
0
31
0
39
0
210
0
220
0
230
1
0
LINE
5
B9
100
AcDbEntity
8
1
62
256
6
ByLayer
370
18
48
1
60
0
100
AcDbLine
10
228
20
0
30
0
11
228
21
12.208194
31
0
39
0
210
0
220
0
230
1
0
LINE
5
BA
100
AcDbEntity
8
1
62
256
6
ByLayer
370
18
48
1
60
0
100
AcDbLine
10
228.2
20
12.409674
30
0
11
228.2
21
-12.409674
31
0
39
0
210
0
220
0
230
1
0
LINE
5
BB
100
AcDbEntity
8
1
62
256
6
ByLayer
370
18
48
1
60
0
100
AcDbLine
10
230.271
20
11.573156
30
0
11
230.271
21
11.623562
31
0
39
0
210
0
220
0
230
1
0
LINE
5
BC
100
AcDbEntity
8
1
62
256
6
ByLayer
370
18
48
1
60
0
100
AcDbLine
10
230.271
20
11.282649
30
0
11
230.271
21
11.368683
31
0
39
0
210
0
220
0
230
1
0
LINE
5
BD
100
AcDbEntity
8
1
62
256
6
ByLayer
370
18
48
1
60
0
100
AcDbLine
10
230.271
20
10.841283
30
0
11
230.271
21
10.96639
31
0
39
0
210
0
220
0
230
1
0
LINE
5
BE
100
AcDbEntity
8
1
62
256
6
ByLayer
370
18
48
1
60
0
100
AcDbLine
10
230.271
20
10.229548
30
0
11
230.271
21
10.39959
31
0
39
0
210
0
220
0
230
1
0
LINE
5
BF
100
AcDbEntity
8
1
62
256
6
ByLayer
370
18
48
1
60
0
100
AcDbLine
10
230.271
20
9.414293
30
0
11
230.271
21
9.639307
31
0
39
0
210
0
220
0
230
1
0
LINE
5
C0
100
AcDbEntity
8
1
62
256
6
ByLayer
370
18
48
1
60
0
100
AcDbLine
10
230.271
20
8.336015
30
0
11
230.271
21
8.634581
31
0
39
0
210
0
220
0
230
1
0
LINE
5
C1
100
AcDbEntity
8
1
62
256
6
ByLayer
370
18
48
1
60
0
100
AcDbLine
10
230.271
20
6.872
30
0
11
230.271
21
7.284967
31
0
39
0
210
0
220
0
230
1
0
LINE
5
C2
100
AcDbEntity
8
1
62
256
6
ByLayer
370
18
48
1
60
0
100
AcDbLine
10
230.271
20
4.672754
30
0
11
230.271
21
5.334839
31
0
39
0
210
0
220
0
230
1
0
LINE
5
C3
100
AcDbEntity
8
1
62
256
6
ByLayer
370
18
48
1
60
0
100
AcDbLine
10
230.271
20
-0.851624
30
0
11
230.271
21
0.851624
31
0
39
0
210
0
220
0
230
1
0
LINE
5
C4
100
AcDbEntity
8
1
62
256
6
ByLayer
370
18
48
1
60
0
100
AcDbLine
10
230.271
20
-5.334839
30
0
11
230.271
21
-4.672754
31
0
39
0
210
0
220
0
230
1
0
LINE
5
C5
100
AcDbEntity
8
1
62
256
6
ByLayer
370
18
48
1
60
0
100
AcDbLine
10
230.271
20
-7.284967
30
0
11
230.271
21
-6.872
31
0
39
0
210
0
220
0
230
1
0
LINE
5
C6
100
AcDbEntity
8
1
62
256
6
ByLayer
370
18
48
1
60
0
100
AcDbLine
10
230.271
20
-8.634581
30
0
11
230.271
21
-8.336015
31
0
39
0
210
0
220
0
230
1
0
LINE
5
C7
100
AcDbEntity
8
1
62
256
6
ByLayer
370
18
48
1
60
0
100
AcDbLine
10
230.271
20
-9.639307
30
0
11
230.271
21
-9.414293
31
0
39
0
210
0
220
0
230
1
0
LINE
5
C8
100
AcDbEntity
8
1
62
256
6
ByLayer
370
18
48
1
60
0
100
AcDbLine
10
230.271
20
-10.39959
30
0
11
230.271
21
-10.229548
31
0
39
0
210
0
220
0
230
1
0
LINE
5
C9
100
AcDbEntity
8
1
62
256
6
ByLayer
370
18
48
1
60
0
100
AcDbLine
10
230.271
20
-10.96639
30
0
11
230.271
21
-10.841283
31
0
39
0
210
0
220
0
230
1
0
LINE
5
CA
100
AcDbEntity
8
1
62
256
6
ByLayer
370
18
48
1
60
0
100
AcDbLine
10
230.271
20
-11.368683
30
0
11
230.271
21
-11.282649
31
0
39
0
210
0
220
0
230
1
0
LINE
5
CB
100
AcDbEntity
8
1
62
256
6
ByLayer
370
18
48
1
60
0
100
AcDbLine
10
230.271
20
-11.623562
30
0
11
230.271
21
-11.573156
31
0
39
0
210
0
220
0
230
1
0
LINE
5
CC
100
AcDbEntity
8
1
62
256
6
ByLayer
370
18
48
1
60
0
100
AcDbLine
10
229.521
20
-12.409674
30
0
11
229.521
21
12.409674
31
0
39
0
210
0
220
0
230
1
0
LINE
5
CD
100
AcDbEntity
8
SK1
62
256
6
ByLayer
370
18
48
1
60
0
100
AcDbLine
10
0
20
12.5
30
0
11
-99
21
12.5
31
0
39
0
210
0
220
0
230
1
0
LINE
5
CE
100
AcDbEntity
8
SK1
62
256
6
ByLayer
370
18
48
1
60
0
100
AcDbLine
10
0
20
0.21073
30
0
11
-25
21
0.21073
31
0
39
0
210
0
220
0
230
1
0
LINE
5
CF
100
AcDbEntity
8
1
62
256
6
ByLayer
370
18
48
1
60
0
100
AcDbLine
10
0
20
-0.21073
30
0
11
100
21
-0.21073
31
0
39
0
210
0
220
0
230
1
0
LINE
5
D0
100
AcDbEntity
8
1
62
256
6
ByLayer
370
18
48
1
60
0
100
AcDbLine
10
0
20
-12.5
30
0
11
227.8
21
-12.5
31
0
39
0
210
0
220
0
230
1
0
MTEXT
5
11A
100
AcDbEntity
8
SK6
62
256
6
ByLayer
370
13
48
1
60
0
100
AcDbMText
10
5.618498
20
31.519113
30
0
210
0
220
0
230
1
1
\W0.7204;570-3C 25 330
40
3.175
41
0
44
1.084337
50
0
71
7
72
5
7
iso_b_vert
0
DIMENSION
5
128
100
AcDbEntity
8
2
62
256
6
ByLayer
370
13
48
1
60
0
100
AcDbDimension
2
DimnDraft3D1
10
230
20
20.455875
30
0
11
53.421597
21
20.455875
31
0
70
32
71
5
72
1
41
1
210
0
220
0
230
1
3
Standard
100
AcDbAlignedDimension
13
0
23
1.5875
33
0
14
230
24
1.5875
34
0
50
0
100
AcDbRotatedDimension
1001
ACAD
1000
DSTYLE
1002
{
1070
   279
1070
     0
1070
   173
1070
     1
1070
   340
1005
11B
1070
   271
1070
     1
1070
   272
1070
     2
1070
    77
1070
     1
1070
    73
1070
     0
1070
   171
1070
     3
1070
   274
1070
     4
1070
   177
1070
     7
1070
   176
1070
     7
1070
   178
1070
     7
1070
    78
1070
     8
1070
    48
1040
-0.005
1070
    41
1041
3.175
1070
   147
1041
1.5875
1070
    42
1041
1.5875
1070
    44
1041
3.175
1070
   140
1041
3.175
1070
   343
1005
0
1070
   344
1005
0
1002
}
0
DIMENSION
5
13E
100
AcDbEntity
8
SK2
62
256
6
ByLayer
370
13
48
1
60
0
100
AcDbDimension
2
DimnDraft3D3
10
-124.657216
20
-12.5
30
0
11
-124.657216
21
-6.659145
31
0
70
32
71
5
72
1
41
1
210
0
220
0
230
1
3
Standard
100
AcDbAlignedDimension
13
-100.5875
23
12.5
33
0
14
-100.5875
24
-12.5
34
0
50
90
100
AcDbRotatedDimension
1001
ACAD
1000
DSTYLE
1002
{
1070
    74
1070
     0
1070
   279
1070
     0
1070
   173
1070
     1
1070
   340
1005
11B
1070
   271
1070
     1
1070
   272
1070
     2
1070
    77
1070
     1
1070
    73
1070
     0
1070
   171
1070
     3
1070
   274
1070
     4
1070
   177
1070
     7
1070
   176
1070
     7
1070
   178
1070
     7
1070
    78
1070
     8
1070
    48
1040
-0.005
1070
    41
1041
3.175
1070
   147
1041
1.5875
1070
    42
1041
1.5875
1070
    44
1041
3.175
1070
   140
1041
3.175
1070
   343
1005
0
1070
   344
1005
0
1002
}
0
ENDSEC
0
SECTION
2
OBJECTS
0
DICTIONARY
5
1a9
330
0
100
AcDbDictionary
280
0
281
1
3
ACAD_GROUP
350
1aa
3
ACAD_MLINESTYLE
350
1ab
0
DICTIONARY
5
1aa
330
0
100
AcDbDictionary
280
0
281
1
0
DICTIONARY
5
1ab
330
0
100
AcDbDictionary
280
0
281
1
3
Standard
350
18
0
MLINESTYLE
5
18
330
1ab
100
AcDbMlineStyle
2
Standard
70
0
3

62
256
51
90
52
90
71
2
49
-0.5
62
256
6
ByLayer
49
0.5
62
256
6
ByLayer
0
RASTERVARIABLES
5
197
330

100
AcDbRasterVariables
90
0
70
1
71
1
72
1
0
ENDSEC
0
EOF
