0
SECTION
2
HEADER
9
$ACADVER
1
AC1015
9
$DWGCODEPAGE
3
ANSI_1252
9
$HANDSEED
5
19e
9
$ANGBASE
50
0
9
$ANGDIR
70
0
9
$ATTMODE
70
1
9
$AUNITS
70
0
9
$AUPREC
70
0
9
$CECOLOR
62
256
9
$CELTSCALE
40
1
9
$CELTYPE
6
ByLayer
9
$CELWEIGHT
370
18
9
$CLAYER
8
0
9
$CMLJUST
70
0
9
$CMLSCALE
40
1
9
$CMLSTYLE
2
Standard
9
$DIMSTYLE
2
Standard
9
$TEXTSIZE
40
0.2
9
$TEXTSTYLE
7
Standard
9
$LUNITS
70
2
9
$LUPREC
70
4
9
$EXTNAMES
290
1
9
$INSUNITS
70
4
9
$LTSCALE
40
1
9
$LWDISPLAY
290
1
9
$PDMODE
70
0
9
$PDSIZE
40
0
9
$PLINEGEN
70
0
0
ENDSEC
0
SECTION
2
CLASSES
0
CLASS
1
RASTERVARIABLES
2
AcDbRasterVariables
3
ISM
90
0
280
0
281
0
0
ENDSEC
0
SECTION
2
TABLES
0
TABLE
2
VPORT
5
194
100
AcDbSymbolTable
0
VPORT
5
1
100
AcDbSymbolTableRecord
100
AcDbViewportTableRecord
2
*Active
70
0
10
0
20
0
11
1
21
1
12
-1
22
1
13
0
23
0
14
0.5
24
0.5
15
10
25
10
16
0
26
0
36
1
17
0
27
0
37
0
0
ENDTAB
0
TABLE
2
LTYPE
5
195
100
AcDbSymbolTable
0
LTYPE
5
14
100
AcDbSymbolTableRecord
100
AcDbLinetypeTableRecord
70
0
2
ByBlock
3

72
65
73
0
40
0
0
LTYPE
5
15
100
AcDbSymbolTableRecord
100
AcDbLinetypeTableRecord
70
0
2
ByLayer
3

72
65
73
0
40
0
0
LTYPE
5
16
100
AcDbSymbolTableRecord
100
AcDbLinetypeTableRecord
70
0
2
CONTINUOUS
3
Solid line
72
65
73
0
40
0
0
LTYPE
5
6A
100
AcDbSymbolTableRecord
100
AcDbLinetypeTableRecord
70
0
2
CENTER
3
____ _ ____ _ ____ _ ____
72
65
73
4
40
47.5
49
22
74
0
49
-8.5
74
0
49
8.5
74
0
49
-8.5
74
0
0
LTYPE
5
6B
100
AcDbSymbolTableRecord
100
AcDbLinetypeTableRecord
70
0
2
DASHED
3
__ __ __ __ __ __ __ __ __
72
65
73
2
40
25.72
49
12.86
74
0
49
-12.86
74
0
0
ENDTAB
0
TABLE
2
LAYER
5
196
100
AcDbSymbolTable
0
LAYER
5
10
100
AcDbSymbolTableRecord
100
AcDbLayerTableRecord
2
0
70
0
62
7
6
CONTINUOUS
290
1
370
-3
390
0
0
LAYER
5
6D
100
AcDbSymbolTableRecord
100
AcDbLayerTableRecord
2
80
70
0
62
-6
6
CONTINUOUS
290
1
370
-3
390
0
0
LAYER
5
6F
100
AcDbSymbolTableRecord
100
AcDbLayerTableRecord
2
81
70
0
62
-3
6
CONTINUOUS
290
1
370
-3
390
0
0
LAYER
5
72
100
AcDbSymbolTableRecord
100
AcDbLayerTableRecord
2
4
70
0
62
-2
6
CENTER
290
1
370
-3
390
0
0
LAYER
5
80
100
AcDbSymbolTableRecord
100
AcDbLayerTableRecord
2
1
70
0
62
4
6
CONTINUOUS
290
1
370
-3
390
0
0
LAYER
5
108
100
AcDbSymbolTableRecord
100
AcDbLayerTableRecord
2
2
70
0
62
7
6
CONTINUOUS
290
1
370
-3
390
0
0
LAYER
5
180
100
AcDbSymbolTableRecord
100
AcDbLayerTableRecord
2
SK4
70
0
62
2
6
CENTER
290
1
370
-3
390
0
0
LAYER
5
181
100
AcDbSymbolTableRecord
100
AcDbLayerTableRecord
2
SK1
70
0
62
4
6
CONTINUOUS
290
1
370
-3
390
0
0
LAYER
5
182
100
AcDbSymbolTableRecord
100
AcDbLayerTableRecord
2
SK6
70
0
62
5
6
CONTINUOUS
290
1
370
-3
390
0
0
LAYER
5
183
100
AcDbSymbolTableRecord
100
AcDbLayerTableRecord
2
SK2
70
0
62
7
6
CONTINUOUS
290
1
370
-3
390
0
0
ENDTAB
0
TABLE
2
STYLE
5
197
100
AcDbSymbolTable
0
STYLE
5
11
100
AcDbSymbolTableRecord
100
AcDbTextStyleTableRecord
2
Standard
3
txt
70
0
71
0
40
0
41
1
42
0
50
0
0
STYLE
5
103
100
AcDbSymbolTableRecord
100
AcDbTextStyleTableRecord
2
iso_b_vert
3
simplex.shx
70
0
71
0
40
0
41
1
42
0
50
0
0
STYLE
5
104
100
AcDbSymbolTableRecord
100
AcDbTextStyleTableRecord
2
DWGDirectTextStyle
3
simplex
70
0
71
0
40
0
41
1
42
0
50
0
0
ENDTAB
0
TABLE
2
DIMSTYLE
5
198
100
AcDbSymbolTable
100
AcDbDimStyleTable
0
DIMSTYLE
105
27
100
AcDbSymbolTableRecord
100
AcDbDimStyleTableRecord
2
Standard
70
0
3
<>
41
0.18
42
0.0625
44
0.18
140
0.18
147
0.09
73
0
74
0
77
1
271
2
275
0
278
52
280
0
340
11
0
ENDTAB
0
TABLE
2
VIEW
5
199
100
AcDbSymbolTable
0
ENDTAB
0
TABLE
2
UCS
5
19a
100
AcDbSymbolTable
0
ENDTAB
0
TABLE
2
APPID
5
19b
100
AcDbSymbolTable
0
APPID
5
12
100
AcDbSymbolTableRecord
100
AcDbRegAppTableRecord
2
ACAD
70
0
0
ENDTAB
0
TABLE
2
BLOCK_RECORD
5
19c
100
AcDbSymbolTable
0
BLOCK_RECORD
5
1F
100
AcDbSymbolTableRecord
100
AcDbBlockTableRecord
2
*Model_Space
340
0
70
0
0
BLOCK_RECORD
5
1B
100
AcDbSymbolTableRecord
100
AcDbBlockTableRecord
2
*Paper_Space
340
0
70
0
0
BLOCK_RECORD
5
23
100
AcDbSymbolTableRecord
100
AcDbBlockTableRecord
2
*Paper_Space0
340
0
70
0
0
BLOCK_RECORD
5
106
100
AcDbSymbolTableRecord
100
AcDbBlockTableRecord
2
DimnDraft3D1
340
0
70
0
0
BLOCK_RECORD
5
111
100
AcDbSymbolTableRecord
100
AcDbBlockTableRecord
2
DimnDraft3D2
340
0
70
0
0
BLOCK_RECORD
5
11D
100
AcDbSymbolTableRecord
100
AcDbBlockTableRecord
2
DimnDraft3D3
340
0
70
0
0
ENDTAB
0
ENDSEC
0
SECTION
2
BLOCKS
0
BLOCK
5
20
100
AcDbEntity
8
0
100
AcDbBlockBegin
2
*Model_Space
70
0
10
0
20
0
30
0
3
*Model_Space
0
ENDBLK
5
21
100
AcDbEntity
8
0
100
AcDbBlockEnd
0
BLOCK
5
1C
100
AcDbEntity
8
0
100
AcDbBlockBegin
2
*Paper_Space
70
0
10
0
20
0
30
0
3
*Paper_Space
0
ENDBLK
5
1D
100
AcDbEntity
8
0
100
AcDbBlockEnd
0
BLOCK
5
24
100
AcDbEntity
8
0
100
AcDbBlockBegin
2
*Paper_Space0
70
0
10
0
20
0
30
0
3
*Paper_Space0
0
ENDBLK
5
25
100
AcDbEntity
8
0
100
AcDbBlockEnd
0
BLOCK
5
10E
100
AcDbEntity
8
0
100
AcDbBlockBegin
2
DimnDraft3D1
70
0
10
0
20
0
30
0
3
DimnDraft3D1
0
MTEXT
5
107
100
AcDbEntity
8
2
62
256
6
ByLayer
370
13
48
1
60
0
100
AcDbMText
10
58.107533
20
19.591734
30
0
210
0
220
0
230
1
1
\W0.6217;120
40
3.175
41
0
44
1.084337
50
0
71
7
72
5
7
iso_b_vert
0
LINE
5
109
100
AcDbEntity
8
2
62
256
6
ByLayer
370
13
48
1
60
0
100
AcDbLine
10
0
20
1.5875
30
0
11
0
21
21.972984
31
0
39
0
210
0
220
0
230
1
0
LINE
5
10A
100
AcDbEntity
8
2
62
256
6
ByLayer
370
13
48
1
60
0
100
AcDbLine
10
120
20
1.5875
30
0
11
120
21
21.972984
31
0
39
0
210
0
220
0
230
1
0
LINE
5
10B
100
AcDbEntity
8
2
62
256
6
ByLayer
370
13
48
1
60
0
100
AcDbLine
10
0
20
18.797984
30
0
11
120
21
18.797984
31
0
39
0
210
0
220
0
230
1
0
SOLID
5
10C
100
AcDbEntity
8
2
62
256
6
ByLayer
370
13
48
1
60
0
100
AcDbTrace
10
0
20
18.797984
30
0
11
3.174998
21
19.215981
31
0
12
3.175002
22
18.379987
32
0
13
0
23
18.797984
33
0
39
0
210
0
220
0
230
1
0
SOLID
5
10D
100
AcDbEntity
8
2
62
256
6
ByLayer
370
13
48
1
60
0
100
AcDbTrace
10
120
20
18.797984
30
0
11
116.825002
21
18.379987
31
0
12
116.824998
22
19.215981
32
0
13
120
23
18.797984
33
0
39
0
210
0
220
0
230
1
0
ENDBLK
5
10F
100
AcDbEntity
8
0
100
AcDbBlockEnd
0
BLOCK
5
11A
100
AcDbEntity
8
0
100
AcDbBlockBegin
2
DimnDraft3D2
70
0
10
0
20
0
30
0
3
DimnDraft3D2
0
MTEXT
5
112
100
AcDbEntity
8
SK2
62
256
6
ByLayer
370
13
48
1
60
0
100
AcDbMText
10
-98.453727
20
-5.086148
30
0
210
0
220
0
230
1
1
%%c
40
3.175
41
0
44
1.084337
50
90
71
7
72
5
7
iso_b_vert
0
MTEXT
5
114
100
AcDbEntity
8
SK2
62
256
6
ByLayer
370
13
48
1
60
0
100
AcDbMText
10
-98.453727
20
2.826547
30
0
210
0
220
0
230
1
1
\W0.6740;20
40
3.175
41
0
44
1.084337
50
90
71
7
72
5
7
iso_b_vert
0
LINE
5
115
100
AcDbEntity
8
SK2
62
256
6
ByLayer
370
13
48
1
60
0
100
AcDbLine
10
-80.5875
20
10
30
0
11
-100.041227
21
10
31
0
39
0
210
0
220
0
230
1
0
LINE
5
116
100
AcDbEntity
8
SK2
62
256
6
ByLayer
370
13
48
1
60
0
100
AcDbLine
10
-80.5875
20
-10
30
0
11
-100.041227
21
-10
31
0
39
0
210
0
220
0
230
1
0
LINE
5
117
100
AcDbEntity
8
SK2
62
256
6
ByLayer
370
13
48
1
60
0
100
AcDbLine
10
-96.866227
20
10
30
0
11
-96.866227
21
-10
31
0
39
0
210
0
220
0
230
1
0
SOLID
5
118
100
AcDbEntity
8
SK2
62
256
6
ByLayer
370
13
48
1
60
0
100
AcDbTrace
10
-96.866227
20
10
30
0
11
-96.44823
21
6.825002
31
0
12
-97.284224
22
6.824998
32
0
13
-96.866227
23
10
33
0
39
0
210
0
220
0
230
1
0
SOLID
5
119
100
AcDbEntity
8
SK2
62
256
6
ByLayer
370
13
48
1
60
0
100
AcDbTrace
10
-96.866227
20
-10
30
0
11
-97.284224
21
-6.825002
31
0
12
-96.44823
22
-6.824998
32
0
13
-96.866227
23
-10
33
0
39
0
210
0
220
0
230
1
0
ENDBLK
5
11B
100
AcDbEntity
8
0
100
AcDbBlockEnd
0
BLOCK
5
124
100
AcDbEntity
8
0
100
AcDbBlockBegin
2
DimnDraft3D3
70
0
10
0
20
0
30
0
3
DimnDraft3D3
0
MTEXT
5
11E
100
AcDbEntity
8
SK2
62
256
6
ByLayer
370
13
48
1
60
0
100
AcDbMText
10
17.710658
20
25.804255
30
0
210
0
220
0
230
1
1
\W0.7138;200
40
3.175
41
0
44
1.084337
50
0
71
7
72
5
7
iso_b_vert
0
LINE
5
11F
100
AcDbEntity
8
SK2
62
256
6
ByLayer
370
13
48
1
60
0
100
AcDbLine
10
120
20
1.5875
30
0
11
120
21
28.185505
31
0
39
0
210
0
220
0
230
1
0
LINE
5
120
100
AcDbEntity
8
SK2
62
256
6
ByLayer
370
13
48
1
60
0
100
AcDbLine
10
-80
20
10.5875
30
0
11
-80
21
28.185505
31
0
39
0
210
0
220
0
230
1
0
LINE
5
121
100
AcDbEntity
8
SK2
62
256
6
ByLayer
370
13
48
1
60
0
100
AcDbLine
10
120
20
25.010505
30
0
11
-80
21
25.010505
31
0
39
0
210
0
220
0
230
1
0
SOLID
5
122
100
AcDbEntity
8
SK2
62
256
6
ByLayer
370
13
48
1
60
0
100
AcDbTrace
10
120
20
25.010505
30
0
11
116.825002
21
24.592508
31
0
12
116.824998
22
25.428501
32
0
13
120
23
25.010505
33
0
39
0
210
0
220
0
230
1
0
SOLID
5
123
100
AcDbEntity
8
SK2
62
256
6
ByLayer
370
13
48
1
60
0
100
AcDbTrace
10
-80
20
25.010505
30
0
11
-76.825002
21
25.428501
31
0
12
-76.824998
22
24.592508
32
0
13
-80
23
25.010505
33
0
39
0
210
0
220
0
230
1
0
ENDBLK
5
125
100
AcDbEntity
8
0
100
AcDbBlockEnd
0
ENDSEC
0
SECTION
2
ENTITIES
0
ARC
5
C8
100
AcDbEntity
8
1
62
256
6
ByLayer
370
18
48
1
60
0
100
AcDbCircle
39
0
10
117.8
20
-9.8
30
0
40
0.2
210
0
220
0
230
1
100
AcDbArc
50
270
51
0
0
ARC
5
C9
100
AcDbEntity
8
1
62
256
6
ByLayer
370
18
48
1
60
0
100
AcDbCircle
39
0
10
117.8
20
9.8
30
0
40
0.2
210
0
220
0
230
1
100
AcDbArc
50
0
51
90
0
CIRCLE
5
C7
100
AcDbEntity
8
1
62
256
6
ByLayer
370
18
48
1
60
0
100
AcDbCircle
10
113
20
0
30
0
40
1
39
0
210
0
220
0
230
1
0
POINT
5
6C
100
AcDbEntity
8
80
62
256
6
ByLayer
370
18
48
1
60
0
100
AcDbPoint
10
0
20
0
30
0
39
0
210
0
220
0
230
1
50
360
0
POINT
5
6E
100
AcDbEntity
8
81
62
256
6
ByLayer
370
18
48
1
60
0
100
AcDbPoint
10
120
20
0
30
0
39
0
210
0
220
0
230
1
50
360
0
SPLINE
5
CA
100
AcDbEntity
8
1
62
256
6
ByLayer
370
18
48
1
60
0
100
AcDbSpline
70
4
71
3
72
12
73
8
40
0
40
0
40
0
40
0
40
0.147931800942683
40
0.360119596213465
40
0.573002749468647
40
0.787353735811217
40
1
40
1
40
1
40
1
41
1
10
118.2
20
9.92156741649305
30
0
41
1
10
118.184153615263
20
9.92150407387699
30
0
41
1
10
118.146939101723
20
9.91718110892539
30
0
41
1
10
118.090348273687
20
9.89310981359361
30
0
41
1
10
118.040067554307
20
9.84731629026464
30
0
41
1
10
118.007376980538
20
9.78684855578624
30
0
41
1
10
118.00018965583
20
9.74310668656124
30
0
41
1
10
118
20
9.71995370359345
30
0
0
SPLINE
5
CB
100
AcDbEntity
8
1
62
256
6
ByLayer
370
18
48
1
60
0
100
AcDbSpline
70
4
71
3
72
13
73
9
40
0
40
0
40
0
40
0
40
0.167636786690735
40
0.384795011676302
40
0.601061225787599
40
0.737053797008552
40
0.949314578189711
40
1
40
1
40
1
40
1
41
1
10
118
20
-9.71995370359344
30
0
41
1
10
118.000083225878
20
-9.73799357301566
30
0
41
1
10
118.005214121411
20
-9.77768979278073
30
0
41
1
10
118.031932584023
20
-9.83643671713128
30
0
41
1
10
118.074268599237
20
-9.88009071091419
30
0
41
1
10
118.125708892017
20
-9.90992612212819
30
0
41
1
10
118.167216606338
20
-9.92047820143182
30
0
41
1
10
118.194664689502
20
-9.92156546558743
30
0
41
1
10
118.2
20
-9.92156741649222
30
0
0
SPLINE
5
CC
100
AcDbEntity
8
1
62
256
6
ByLayer
370
18
48
1
60
0
100
AcDbSpline
70
4
71
1
72
4
73
2
40
0
40
0
40
1
40
1
41
1
10
119.521
20
9.92156741649222
30
0
41
1
10
119.641
20
9.80060712405104
30
0
0
SPLINE
5
CD
100
AcDbEntity
8
1
62
256
6
ByLayer
370
18
48
1
60
0
100
AcDbSpline
70
4
71
3
72
11
73
7
40
0
40
0
40
0
40
0
40
0.344835256703684
40
0.639201800847807
40
0.871157698918705
40
1
40
1
40
1
40
1
41
1
10
119.73225
20
9.68695116042831
30
0
41
1
10
119.715298802875
20
9.7054452225165
30
0
41
1
10
119.687643090795
20
9.73665375011635
30
0
41
1
10
119.656770016441
20
9.77414962513337
30
0
41
1
10
119.643066727157
20
9.79387694379504
30
0
41
1
10
119.641093013827
20
9.79926685390055
30
0
41
1
10
119.641
20
9.80060712405104
30
0
0
SPLINE
5
CE
100
AcDbEntity
8
1
62
256
6
ByLayer
370
18
48
1
60
0
100
AcDbSpline
70
4
71
1
72
4
73
2
40
0
40
0
40
1
40
1
41
1
10
120.271
20
9.08885059742844
30
0
41
1
10
119.73225
20
9.68695116042831
30
0
0
SPLINE
5
CF
100
AcDbEntity
8
1
62
256
6
ByLayer
370
18
48
1
60
0
100
AcDbSpline
70
4
71
1
72
4
73
2
40
0
40
0
40
1
40
1
41
1
10
119.73225
20
9.50446711057244
30
0
41
1
10
120.271
20
9.02429683605595
30
0
0
SPLINE
5
D0
100
AcDbEntity
8
1
62
256
6
ByLayer
370
18
48
1
60
0
100
AcDbSpline
70
4
71
3
72
11
73
7
40
0
40
0
40
0
40
0
40
0.426943763151584
40
0.715788592080792
40
0.942980405022928
40
1
40
1
40
1
40
1
41
1
10
119.73225
20
9.42095529625561
30
0
41
1
10
119.710875114546
20
9.44643346903061
30
0
41
1
10
119.68084863108
20
9.48514856544601
30
0
41
1
10
119.650845299224
20
9.53061134565228
30
0
41
1
10
119.641791897551
20
9.55079194882438
30
0
41
1
10
119.641025852437
20
9.55721339844811
30
0
41
1
10
119.641000305115
20
9.55838507615469
30
0
0
SPLINE
5
D1
100
AcDbEntity
8
1
62
256
6
ByLayer
370
18
48
1
60
0
100
AcDbSpline
70
4
71
1
72
4
73
2
40
0
40
0
40
1
40
1
41
1
10
120.271
20
8.76053437000756
30
0
41
1
10
119.73225
20
9.42095529625561
30
0
0
SPLINE
5
D2
100
AcDbEntity
8
1
62
256
6
ByLayer
370
18
48
1
60
0
100
AcDbSpline
70
4
71
1
72
4
73
2
40
0
40
0
40
1
40
1
41
1
10
119.73225
20
9.10590572905463
30
0
41
1
10
120.271
20
8.64859388106188
30
0
0
SPLINE
5
D3
100
AcDbEntity
8
1
62
256
6
ByLayer
370
18
48
1
60
0
100
AcDbSpline
70
4
71
3
72
11
73
7
40
0
40
0
40
0
40
0
40
0.472584459329692
40
0.762401132804289
40
0.988122550848396
40
1
40
1
40
1
40
1
41
1
10
119.73225
20
8.97478549067163
30
0
41
1
10
119.708259914214
20
9.00654931173167
30
0
41
1
10
119.676850292649
20
9.05357231960651
30
0
41
1
10
119.647706922153
20
9.10932327038775
30
0
41
1
10
119.641151279322
20
9.13244909983414
30
0
41
1
10
119.641001675971
20
9.14022579497509
30
0
41
1
10
119.641000065189
20
9.14060948686557
30
0
0
SPLINE
5
D4
100
AcDbEntity
8
1
62
256
6
ByLayer
370
18
48
1
60
0
100
AcDbSpline
70
4
71
1
72
4
73
2
40
0
40
0
40
1
40
1
41
1
10
120.271
20
8.23175070770443
30
0
41
1
10
119.73225
20
8.97478549067163
30
0
0
SPLINE
5
D5
100
AcDbEntity
8
1
62
256
6
ByLayer
370
18
48
1
60
0
100
AcDbSpline
70
4
71
1
72
4
73
2
40
0
40
0
40
1
40
1
41
1
10
119.73225
20
8.50735818200377
30
0
41
1
10
120.271
20
8.06433003130653
30
0
0
SPLINE
5
D6
100
AcDbEntity
8
1
62
256
6
ByLayer
370
18
48
1
60
0
100
AcDbSpline
70
4
71
3
72
10
73
6
40
0
40
0
40
0
40
0
40
0.529921945493692
40
0.808976631098395
40
1
40
1
40
1
40
1
41
1
10
119.73225
20
8.31950422279437
30
0
41
1
10
119.704940788652
20
8.36058099810438
30
0
41
1
10
119.672649607136
20
8.41852076893262
30
0
41
1
10
119.64545118197
20
8.48629734930264
30
0
41
1
10
119.641484764609
20
8.51161968523989
30
0
41
1
10
119.641000458546
20
8.52116774250908
30
0
0
SPLINE
5
D7
100
AcDbEntity
8
1
62
256
6
ByLayer
370
18
48
1
60
0
100
AcDbSpline
70
4
71
1
72
4
73
2
40
0
40
0
40
1
40
1
41
1
10
120.271
20
7.45999175465368
30
0
41
1
10
119.73225
20
8.31950422279437
30
0
0
SPLINE
5
D8
100
AcDbEntity
8
1
62
256
6
ByLayer
370
18
48
1
60
0
100
AcDbSpline
70
4
71
1
72
4
73
2
40
0
40
0
40
1
40
1
41
1
10
119.73225
20
7.66209940730236
30
0
41
1
10
120.271
20
7.2210568193391
30
0
0
SPLINE
5
D9
100
AcDbEntity
8
1
62
256
6
ByLayer
370
18
48
1
60
0
100
AcDbSpline
70
4
71
3
72
10
73
6
40
0
40
0
40
0
40
0
40
0.524318757639837
40
0.807380547740987
40
1
40
1
40
1
40
1
41
1
10
119.73225
20
7.3997652951034
30
0
41
1
10
119.705379095855
20
7.4477130322249
30
0
41
1
10
119.67314190308
20
7.51792167864215
30
0
41
1
10
119.645917621476
20
7.6024475876778
30
0
41
1
10
119.641633490223
20
7.63713645705621
30
0
41
1
10
119.641007345444
20
7.65057415146391
30
0
0
SPLINE
5
DA
100
AcDbEntity
8
1
62
256
6
ByLayer
370
18
48
1
60
0
100
AcDbSpline
70
4
71
1
72
4
73
2
40
0
40
0
40
1
40
1
41
1
10
120.271
20
6.35737636491733
30
0
41
1
10
119.73225
20
7.3997652951034
30
0
0
SPLINE
5
DB
100
AcDbEntity
8
1
62
256
6
ByLayer
370
18
48
1
60
0
100
AcDbSpline
70
4
71
1
72
4
73
2
40
0
40
0
40
1
40
1
41
1
10
119.73225
20
6.47420971376892
30
0
41
1
10
120.271
20
6.01073242811683
30
0
0
SPLINE
5
DC
100
AcDbEntity
8
1
62
256
6
ByLayer
370
18
48
1
60
0
100
AcDbSpline
70
4
71
2
72
6
73
3
40
0
40
0
40
0
40
1
40
1
40
1
41
1
10
119.73225
20
6.0970404568233
30
0
41
1
10
119.649318886255
20
6.27776604519894
30
0
41
1
10
119.641001054084
20
6.43079113964255
30
0
0
SPLINE
5
DD
100
AcDbEntity
8
1
62
256
6
ByLayer
370
18
48
1
60
0
100
AcDbSpline
70
4
71
1
72
4
73
2
40
0
40
0
40
1
40
1
41
1
10
120.271
20
4.69638068206977
30
0
41
1
10
119.73225
20
6.0970404568233
30
0
0
SPLINE
5
DE
100
AcDbEntity
8
1
62
256
6
ByLayer
370
18
48
1
60
0
100
AcDbSpline
70
4
71
1
72
4
73
2
40
0
40
0
40
1
40
1
41
1
10
119.73225
20
4.69020420753889
30
0
41
1
10
120.271
20
4.12178930280365
30
0
0
SPLINE
5
DF
100
AcDbEntity
8
1
62
256
6
ByLayer
370
18
48
1
60
0
100
AcDbSpline
70
4
71
3
72
10
73
6
40
0
40
0
40
0
40
0
40
0.592242083233599
40
0.913391784935275
40
1
40
1
40
1
40
1
41
1
10
119.73225
20
4.05786621781244
30
0
41
1
10
119.701697354308
20
4.16465314015545
30
0
41
1
10
119.667147709168
20
4.32609846864008
30
0
41
1
10
119.643327382282
20
4.50175393865955
30
0
41
1
10
119.641216067913
20
4.57010981685773
30
0
41
1
10
119.641010141347
20
4.58454220303772
30
0
0
SPLINE
5
E0
100
AcDbEntity
8
1
62
256
6
ByLayer
370
18
48
1
60
0
100
AcDbSpline
70
4
71
3
72
11
73
7
40
0
40
0
40
0
40
0
40
0.248060259071794
40
0.496132659995128
40
0.748056591010279
40
1
40
1
40
1
40
1
41
1
10
120.271
20
0.75547917021359
30
0
41
1
10
120.256348250268
20
1.03390940171239
30
0
41
1
10
120.211878411806
20
1.58843155260308
30
0
41
1
10
120.098293450234
20
2.41879057321092
30
0
41
1
10
119.939411679325
20
3.24352627821589
30
0
41
1
10
119.805979519801
20
3.78772414379367
30
0
41
1
10
119.73225
20
4.05786621781244
30
0
0
SPLINE
5
E1
100
AcDbEntity
8
1
62
256
6
ByLayer
370
18
48
1
60
0
100
AcDbSpline
70
4
71
3
72
11
73
7
40
0
40
0
40
0
40
0
40
0.248184551038198
40
0.496350739476732
40
0.74818185506007
40
1
40
1
40
1
40
1
41
1
10
119.73225
20
-4.05786621781244
30
0
41
1
10
119.804869206102
20
-3.79176260507306
30
0
41
1
10
119.936514560191
20
-3.2557433774022
30
0
41
1
10
120.095538870867
20
-2.43539842742802
30
0
41
1
10
120.210737708065
20
-1.60103123492677
30
0
41
1
10
120.256117222857
20
-1.03813914590036
30
0
41
1
10
120.271
20
-0.75547917021359
30
0
0
SPLINE
5
E2
100
AcDbEntity
8
1
62
256
6
ByLayer
370
18
48
1
60
0
100
AcDbSpline
70
4
71
3
72
14
73
10
40
0
40
0
40
0
40
0
40
0.11831750100687
40
0.203529941894833
40
0.289263213988709
40
0.367860665107523
40
0.492781165562434
40
0.72568264353982
40
1
40
1
40
1
40
1
41
1
10
119.732250000017
20
-4.69020420751855
30
0
41
1
10
119.725279740288
20
-4.69777166537223
30
0
41
1
10
119.713083822021
20
-4.70798121185698
30
0
41
1
10
119.694499032572
20
-4.71722320910677
30
0
41
1
10
119.679397693241
20
-4.71745827847571
30
0
41
1
10
119.665344528169
20
-4.70924715863045
30
0
41
1
10
119.651037519982
20
-4.68616743162585
30
0
41
1
10
119.642368777184
20
-4.64104438406615
30
0
41
1
10
119.640085127665
20
-4.60257652178114
30
0
41
1
10
119.641048541312
20
-4.58009460208404
30
0
0
SPLINE
5
E3
100
AcDbEntity
8
1
62
256
6
ByLayer
370
18
48
1
60
0
100
AcDbSpline
70
4
71
1
72
4
73
2
40
0
40
0
40
1
40
1
41
1
10
120.271
20
-4.12178930280365
30
0
41
1
10
119.73225
20
-4.69020420753046
30
0
0
SPLINE
5
E4
100
AcDbEntity
8
1
62
256
6
ByLayer
370
18
48
1
60
0
100
AcDbSpline
70
4
71
1
72
4
73
2
40
0
40
0
40
1
40
1
41
1
10
119.73225
20
-6.0970404568233
30
0
41
1
10
120.271
20
-4.69638068206977
30
0
0
SPLINE
5
E5
100
AcDbEntity
8
1
62
256
6
ByLayer
370
18
48
1
60
0
100
AcDbSpline
70
4
71
3
72
13
73
9
40
0
40
0
40
0
40
0
40
0.111220406668312
40
0.284618876828638
40
0.415252406722623
40
0.54566314129806
40
0.737201890705349
40
1
40
1
40
1
40
1
41
1
10
119.732250000003
20
-6.47420971376747
30
0
41
1
10
119.726441240444
20
-6.4793107811293
30
0
41
1
10
119.711749285961
20
-6.4905169128019
30
0
41
1
10
119.689598604878
20
-6.50189437775496
30
0
41
1
10
119.669643050136
20
-6.50255316501014
30
0
41
1
10
119.654126459326
20
-6.49322955748317
30
0
41
1
10
119.643175048846
20
-6.46925553129711
30
0
41
1
10
119.640327450063
20
-6.44614600964491
30
0
41
1
10
119.641002375718
20
-6.43042644030621
30
0
0
SPLINE
5
E6
100
AcDbEntity
8
1
62
256
6
ByLayer
370
18
48
1
60
0
100
AcDbSpline
70
4
71
1
72
4
73
2
40
0
40
0
40
1
40
1
41
1
10
120.271
20
-6.01073242811683
30
0
41
1
10
119.73225
20
-6.47420971376892
30
0
0
SPLINE
5
E7
100
AcDbEntity
8
1
62
256
6
ByLayer
370
18
48
1
60
0
100
AcDbSpline
70
4
71
1
72
4
73
2
40
0
40
0
40
1
40
1
41
1
10
119.73225
20
-7.3997652951034
30
0
41
1
10
120.271
20
-6.35737636491733
30
0
0
SPLINE
5
E8
100
AcDbEntity
8
1
62
256
6
ByLayer
370
18
48
1
60
0
100
AcDbSpline
70
4
71
3
72
13
73
9
40
0
40
0
40
0
40
0
40
0.158871926878137
40
0.383048726302179
40
0.57395985934169
40
0.737490204310085
40
0.989079711591569
40
1
40
1
40
1
40
1
41
1
10
119.732250000001
20
-7.66209940730202
30
0
41
1
10
119.724267591715
20
-7.66878031110023
30
0
41
1
10
119.705694283879
20
-7.68229529217949
30
0
41
1
10
119.678111782065
20
-7.69566941645313
30
0
41
1
10
119.657034438437
20
-7.69426805256329
30
0
41
1
10
119.643854847208
20
-7.68048966049627
30
0
41
1
10
119.641063487741
20
-7.66376860837757
30
0
41
1
10
119.640999124013
20
-7.65229636536016
30
0
41
1
10
119.641000045705
20
-7.65181577059177
30
0
0
SPLINE
5
E9
100
AcDbEntity
8
1
62
256
6
ByLayer
370
18
48
1
60
0
100
AcDbSpline
70
4
71
1
72
4
73
2
40
0
40
0
40
1
40
1
41
1
10
120.271
20
-7.22105681933911
30
0
41
1
10
119.73225
20
-7.66209940730236
30
0
0
SPLINE
5
EA
100
AcDbEntity
8
1
62
256
6
ByLayer
370
18
48
1
60
0
100
AcDbSpline
70
4
71
1
72
4
73
2
40
0
40
0
40
1
40
1
41
1
10
119.73225
20
-8.31950422279437
30
0
41
1
10
120.271
20
-7.45999175465369
30
0
0
SPLINE
5
EB
100
AcDbEntity
8
1
62
256
6
ByLayer
370
18
48
1
60
0
100
AcDbSpline
70
4
71
3
72
12
73
8
40
0
40
0
40
0
40
0
40
0.200354770529462
40
0.41453845440683
40
0.630162450655959
40
0.815771967332559
40
1
40
1
40
1
40
1
41
1
10
119.73225
20
-8.50735818200365
30
0
41
1
10
119.722341201785
20
-8.51564390805874
30
0
41
1
10
119.702841690599
20
-8.53008720119963
30
0
41
1
10
119.674633126049
20
-8.54550462777471
30
0
41
1
10
119.653642406098
20
-8.5481334110447
30
0
41
1
10
119.642890239412
20
-8.53848693574856
30
0
41
1
10
119.640812306362
20
-8.52774307312154
30
0
41
1
10
119.641001092945
20
-8.52103643722437
30
0
0
SPLINE
5
EC
100
AcDbEntity
8
1
62
256
6
ByLayer
370
18
48
1
60
0
100
AcDbSpline
70
4
71
1
72
4
73
2
40
0
40
0
40
1
40
1
41
1
10
120.271
20
-8.06433003130653
30
0
41
1
10
119.73225
20
-8.50735818200377
30
0
0
SPLINE
5
ED
100
AcDbEntity
8
1
62
256
6
ByLayer
370
18
48
1
60
0
100
AcDbSpline
70
4
71
1
72
4
73
2
40
0
40
0
40
1
40
1
41
1
10
119.73225
20
-8.97478549067163
30
0
41
1
10
120.271
20
-8.23175070770443
30
0
0
SPLINE
5
EE
100
AcDbEntity
8
1
62
256
6
ByLayer
370
18
48
1
60
0
100
AcDbSpline
70
4
71
3
72
12
73
8
40
0
40
0
40
0
40
0
40
0.239468250701433
40
0.473826258016639
40
0.709858566950339
40
0.911131640515888
40
1
40
1
40
1
40
1
41
1
10
119.73225
20
-9.10590572905457
30
0
41
1
10
119.720511672113
20
-9.11598501463493
30
0
41
1
10
119.69883006647
20
-9.13288909560218
30
0
41
1
10
119.668919444346
20
-9.15138384070253
30
0
41
1
10
119.648730687118
20
-9.15628061350121
30
0
41
1
10
119.641789761647
20
-9.14948184433591
30
0
41
1
10
119.640962934412
20
-9.14282346033366
30
0
41
1
10
119.641000642988
20
-9.1404733846314
30
0
0
SPLINE
5
EF
100
AcDbEntity
8
1
62
256
6
ByLayer
370
18
48
1
60
0
100
AcDbSpline
70
4
71
1
72
4
73
2
40
0
40
0
40
1
40
1
41
1
10
120.271
20
-8.64859388106188
30
0
41
1
10
119.73225
20
-9.10590572905463
30
0
0
SPLINE
5
F0
100
AcDbEntity
8
1
62
256
6
ByLayer
370
18
48
1
60
0
100
AcDbSpline
70
4
71
1
72
4
73
2
40
0
40
0
40
1
40
1
41
1
10
119.73225
20
-9.42095529625561
30
0
41
1
10
120.271
20
-8.76053437000756
30
0
0
SPLINE
5
F1
100
AcDbEntity
8
1
62
256
6
ByLayer
370
18
48
1
60
0
100
AcDbSpline
70
4
71
3
72
12
73
8
40
0
40
0
40
0
40
0
40
0.276786559678019
40
0.527366240654229
40
0.739380766167602
40
0.951846909176798
40
1
40
1
40
1
40
1
41
1
10
119.73225
20
-9.50446711057241
30
0
41
1
10
119.718729506886
20
-9.51658173241974
30
0
41
1
10
119.695128611904
20
-9.53636521391851
30
0
41
1
10
119.665634880893
20
-9.55755738213725
30
0
41
1
10
119.646992932251
20
-9.56602762088854
30
0
41
1
10
119.641435273035
20
-9.56334715108428
30
0
41
1
10
119.640993474559
20
-9.55927626023121
30
0
41
1
10
119.641000070507
20
-9.55843064917509
30
0
0
SPLINE
5
F2
100
AcDbEntity
8
1
62
256
6
ByLayer
370
18
48
1
60
0
100
AcDbSpline
70
4
71
1
72
4
73
2
40
0
40
0
40
1
40
1
41
1
10
120.271
20
-9.02429683605595
30
0
41
1
10
119.73225
20
-9.50446711057244
30
0
0
SPLINE
5
F3
100
AcDbEntity
8
1
62
256
6
ByLayer
370
18
48
1
60
0
100
AcDbSpline
70
4
71
1
72
4
73
2
40
0
40
0
40
1
40
1
41
1
10
119.73225
20
-9.68695116042831
30
0
41
1
10
120.271
20
-9.08885059742844
30
0
0
SPLINE
5
F4
100
AcDbEntity
8
1
62
256
6
ByLayer
370
18
48
1
60
0
100
AcDbSpline
70
4
71
3
72
12
73
8
40
0
40
0
40
0
40
0
40
0.0831285709158178
40
0.276162736829841
40
0.560498067184021
40
0.960417503661639
40
1
40
1
40
1
40
1
41
1
10
119.641
20
-9.80060712405104
30
0
41
1
10
119.641026215563
20
-9.79978375628781
30
0
41
1
10
119.642016761998
20
-9.7961730954385
30
0
41
1
10
119.650921439731
20
-9.78199311932951
30
0
41
1
10
119.678233245335
20
-9.7475068087238
30
0
41
1
10
119.709815153354
20
-9.71157510233382
30
0
41
1
10
119.73037849399
20
-9.68899891388902
30
0
41
1
10
119.73225
20
-9.68695116042831
30
0
0
SPLINE
5
F5
100
AcDbEntity
8
1
62
256
6
ByLayer
370
18
48
1
60
0
100
AcDbSpline
70
4
71
1
72
4
73
2
40
0
40
0
40
1
40
1
41
1
10
119.641
20
-9.80060712405104
30
0
41
1
10
119.521
20
-9.92156741649221
30
0
0
SPLINE
5
F6
100
AcDbEntity
8
1
62
256
6
ByLayer
370
18
48
1
60
0
100
AcDbSpline
70
4
71
3
72
15
73
11
40
0
40
0
40
0
40
0
40
0.249761477092322
40
0.421361329057683
40
0.594351000214961
40
0.683859550934289
40
0.774024269494308
40
0.854693307909121
40
0.975842298537923
40
1
40
1
40
1
40
1
41
1
10
119.641010141347
20
4.58454220303772
30
0
41
1
10
119.640483736767
20
4.60435875737098
30
0
41
1
10
119.642180123855
20
4.63601728273924
30
0
41
1
10
119.649196823373
20
4.67783705036809
30
0
41
1
10
119.660233715337
20
4.70383212876742
30
0
41
1
10
119.67557682942
20
4.7163352076608
30
0
41
1
10
119.690504410511
20
4.71799868443316
30
0
41
1
10
119.708798651626
20
4.71098599744198
30
0
41
1
10
119.722597343773
20
4.69985230826945
30
0
41
1
10
119.730883361715
20
4.69162188826238
30
0
41
1
10
119.732249999996
20
4.69020420753416
30
0
0
SPLINE
5
F7
100
AcDbEntity
8
1
62
256
6
ByLayer
370
18
48
1
60
0
100
AcDbSpline
70
4
71
2
72
6
73
3
40
0
40
0
40
0
40
1
40
1
40
1
41
1
10
119.641048541312
20
-4.58009460208404
30
0
41
1
10
119.6506158203
20
-4.32914847806055
30
0
41
1
10
119.73225
20
-4.05786621781244
30
0
0
SPLINE
5
F8
100
AcDbEntity
8
1
62
256
6
ByLayer
370
18
48
1
60
0
100
AcDbSpline
70
4
71
3
72
14
73
10
40
0
40
0
40
0
40
0
40
0.0443998806716013
40
0.261987838647765
40
0.481711827099053
40
0.616720169107878
40
0.752065877445244
40
0.91348107898754
40
1
40
1
40
1
40
1
41
1
10
119.641001054084
20
6.43079113964255
30
0
41
1
10
119.640986040376
20
6.43329249402535
30
0
41
1
10
119.641192718984
20
6.44782021314458
30
0
41
1
10
119.643991953407
20
6.47290885525526
30
0
41
1
10
119.65554354483
20
6.49559607055653
30
0
41
1
10
119.673766389424
20
6.50339573923796
30
0
41
1
10
119.694607951272
20
6.49997262254247
30
0
41
1
10
119.714986571966
20
6.4881480481025
30
0
41
1
10
119.727769862897
20
6.47811477068414
30
0
41
1
10
119.73225
20
6.47420971376892
30
0
0
SPLINE
5
F9
100
AcDbEntity
8
1
62
256
6
ByLayer
370
18
48
1
60
0
100
AcDbSpline
70
4
71
3
72
10
73
6
40
0
40
0
40
0
40
0
40
0.0354895374321918
40
0.412562172270287
40
1
40
1
40
1
40
1
41
1
10
119.641002375718
20
-6.43042644030621
30
0
41
1
10
119.641036831889
20
-6.42695396448998
30
0
41
1
10
119.64192733539
20
-6.38633931743115
30
0
41
1
10
119.66444041272
20
-6.27502302577578
30
0
41
1
10
119.701127392554
20
-6.16648471719063
30
0
41
1
10
119.73225
20
-6.0970404568233
30
0
0
SPLINE
5
FA
100
AcDbEntity
8
1
62
256
6
ByLayer
370
18
48
1
60
0
100
AcDbSpline
70
4
71
3
72
13
73
9
40
0
40
0
40
0
40
0
40
0.141057635230383
40
0.334281417416905
40
0.529097637091987
40
0.699946131212959
40
0.901816530463315
40
1
40
1
40
1
40
1
41
1
10
119.641007345444
20
7.65057415146391
30
0
41
1
10
119.640827368104
20
7.65705953373971
30
0
41
1
10
119.641968550513
20
7.67086748356008
30
0
41
1
10
119.6487680221
20
7.68850402160358
30
0
41
1
10
119.66504249373
20
7.69647910096811
30
0
41
1
10
119.689215020252
20
7.6912876627014
30
0
41
1
10
119.712536180304
20
7.6774681604265
30
0
41
1
10
119.727338120766
20
7.66616716099978
30
0
41
1
10
119.732250000035
20
7.66209940729228
30
0
0
SPLINE
5
FB
100
AcDbEntity
8
1
62
256
6
ByLayer
370
18
48
1
60
0
100
AcDbSpline
70
4
71
3
72
10
73
6
40
0
40
0
40
0
40
0
40
0.263205080768052
40
0.743106203415726
40
1
40
1
40
1
40
1
41
1
10
119.641000045705
20
-7.65181577059177
30
0
41
1
10
119.642179070562
20
-7.63297660686306
30
0
41
1
10
119.650400295824
20
-7.57753021245427
30
0
41
1
10
119.686647893424
20
-7.48792717111226
30
0
41
1
10
119.719472648406
20
-7.42289292601847
30
0
41
1
10
119.73225
20
-7.3997652951034
30
0
0
SPLINE
5
FC
100
AcDbEntity
8
1
62
256
6
ByLayer
370
18
48
1
60
0
100
AcDbSpline
70
4
71
3
72
13
73
9
40
0
40
0
40
0
40
0
40
0.0478662592780065
40
0.262023340745078
40
0.477675480701778
40
0.664760094022515
40
0.90659064091849
40
1
40
1
40
1
40
1
41
1
10
119.641000458546
20
8.52116774250908
30
0
41
1
10
119.640985313868
20
8.52283640141339
30
0
41
1
10
119.641331983116
20
8.53153719227367
30
0
41
1
10
119.645710164933
20
8.54415830313539
30
0
41
1
10
119.661847139352
20
8.54847694502515
30
0
41
1
10
119.687192389419
20
8.53972363537294
30
0
41
1
10
119.711761302511
20
8.52365190684486
30
0
41
1
10
119.727726811672
20
8.51110226172375
30
0
41
1
10
119.732250000005
20
8.50735818200202
30
0
0
SPLINE
5
FD
100
AcDbEntity
8
1
62
256
6
ByLayer
370
18
48
1
60
0
100
AcDbSpline
70
4
71
3
72
11
73
7
40
0
40
0
40
0
40
0
40
0.0478192781795636
40
0.320242335730675
40
0.759128962337384
40
1
40
1
40
1
40
1
41
1
10
119.641001092945
20
-8.52103643722437
30
0
41
1
10
119.641036070544
20
-8.51875467707424
30
0
41
1
10
119.641848244914
20
-8.50304156943016
30
0
41
1
10
119.655372857718
20
-8.45608916166532
30
0
41
1
10
119.68995648005
20
-8.38738246103486
30
0
41
1
10
119.72042177681
20
-8.33755129747419
30
0
41
1
10
119.732249999995
20
-8.31950422279463
30
0
0
SPLINE
5
FE
100
AcDbEntity
8
1
62
256
6
ByLayer
370
18
48
1
60
0
100
AcDbSpline
70
4
71
3
72
12
73
8
40
0
40
0
40
0
40
0
40
0.202327225693203
40
0.420330174366692
40
0.618089281738351
40
0.887147091715874
40
1
40
1
40
1
40
1
41
1
10
119.641000065189
20
9.14060948686557
30
0
41
1
10
119.640909040833
20
9.1461120478036
30
0
41
1
10
119.643795173692
20
9.15399442516752
30
0
41
1
10
119.657978609923
20
9.15514770794264
30
0
41
1
10
119.682837617836
20
9.14368895172856
30
0
41
1
10
119.7090279433
20
9.12507380153797
30
0
41
1
10
119.726853325705
20
9.11050294307055
30
0
41
1
10
119.732250000007
20
9.1059057290518
30
0
0
SPLINE
5
FF
100
AcDbEntity
8
1
62
256
6
ByLayer
370
18
48
1
60
0
100
AcDbSpline
70
4
71
3
72
11
73
7
40
0
40
0
40
0
40
0
40
0.130427626213329
40
0.414060988980622
40
0.842328976227084
40
1
40
1
40
1
40
1
41
1
10
119.641000642988
20
-9.1404733846314
30
0
41
1
10
119.64119779382
20
-9.13603837975884
30
0
41
1
10
119.643673536542
20
-9.1204993819276
30
0
41
1
10
119.663524752033
20
-9.07619099206891
30
0
41
1
10
119.697791305209
20
-9.02219782269258
30
0
41
1
10
119.724635754611
20
-8.98497647434806
30
0
41
1
10
119.73225
20
-8.9747854906716
30
0
0
SPLINE
5
100
100
AcDbEntity
8
1
62
256
6
ByLayer
370
18
48
1
60
0
100
AcDbSpline
70
4
71
3
72
12
73
8
40
0
40
0
40
0
40
0
40
0.149123106799829
40
0.363866632805375
40
0.567893375916332
40
0.857309475229577
40
1
40
1
40
1
40
1
41
1
10
119.641000305115
20
9.55838507615469
30
0
41
1
10
119.640972307302
20
9.56106539480851
30
0
41
1
10
119.642915759747
20
9.56538794423823
30
0
41
1
10
119.654180664624
20
9.56358479905601
30
0
41
1
10
119.677836648078
20
9.54947030692496
30
0
41
1
10
119.70554431058
20
9.5277227469468
30
0
41
1
10
119.725441297359
20
9.5105361122375
30
0
41
1
10
119.732250000015
20
9.50446711056512
30
0
0
SPLINE
5
101
100
AcDbEntity
8
1
62
256
6
ByLayer
370
18
48
1
60
0
100
AcDbSpline
70
4
71
3
72
11
73
7
40
0
40
0
40
0
40
0
40
0.136297694521932
40
0.394909042408296
40
0.765285420055067
40
1
40
1
40
1
40
1
41
1
10
119.641000070507
20
-9.55843064917508
30
0
41
1
10
119.641159152171
20
-9.55549726658038
30
0
41
1
10
119.643522224771
20
-9.54533210452277
30
0
41
1
10
119.660983411298
20
-9.51371622801763
30
0
41
1
10
119.693845147255
20
-9.46825480677562
30
0
41
1
10
119.720881450894
20
-9.43456966081857
30
0
41
1
10
119.73225
20
-9.42095529625381
30
0
0
LINE
5
70
100
AcDbEntity
8
81
62
256
6
ByLayer
370
18
48
1
60
0
100
AcDbLine
10
120
20
0
30
0
11
132
21
0
31
0
39
0
210
0
220
0
230
1
0
LINE
5
71
100
AcDbEntity
8
4
62
256
6
ByLayer
370
18
48
0.05
60
0
100
AcDbLine
10
0
20
0
30
0
11
120
21
0
31
0
39
0
210
0
220
0
230
1
0
LINE
5
73
100
AcDbEntity
8
SK4
62
256
6
ByLayer
370
18
48
0.05
60
0
100
AcDbLine
10
-89
20
0
30
0
11
125
21
0
31
0
39
0
210
0
220
0
230
1
0
LINE
5
75
100
AcDbEntity
8
80
62
256
6
ByLayer
370
18
48
1
60
0
100
AcDbLine
10
0
20
0
30
0
11
-12
21
0
31
0
39
0
210
0
220
0
230
1
0
LINE
5
76
100
AcDbEntity
8
SK1
62
256
6
ByLayer
370
18
48
1
60
0
100
AcDbLine
10
126.225
20
-1.746194
30
0
11
122.725
21
-1.746194
31
0
39
0
210
0
220
0
230
1
0
LINE
5
78
100
AcDbEntity
8
SK1
62
256
6
ByLayer
370
18
48
1
60
0
100
AcDbLine
10
122.725
20
-7.446194
30
0
11
126.225
21
-7.446194
31
0
39
0
210
0
220
0
230
1
0
LINE
5
79
100
AcDbEntity
8
SK1
62
256
6
ByLayer
370
18
48
1
60
0
100
AcDbLine
10
122.725
20
-2.843694
30
0
11
120.271
21
-2.843694
31
0
39
0
210
0
220
0
230
1
0
LINE
5
7A
100
AcDbEntity
8
SK1
62
256
6
ByLayer
370
18
48
1
60
0
100
AcDbLine
10
120.271
20
-6.348694
30
0
11
122.725
21
-6.348694
31
0
39
0
210
0
220
0
230
1
0
LINE
5
7B
100
AcDbEntity
8
SK1
62
256
6
ByLayer
370
18
48
1
60
0
100
AcDbLine
10
126.225
20
7.446194
30
0
11
122.725
21
7.446194
31
0
39
0
210
0
220
0
230
1
0
LINE
5
7C
100
AcDbEntity
8
SK1
62
256
6
ByLayer
370
18
48
1
60
0
100
AcDbLine
10
122.725
20
1.746194
30
0
11
126.225
21
1.746194
31
0
39
0
210
0
220
0
230
1
0
LINE
5
7D
100
AcDbEntity
8
SK1
62
256
6
ByLayer
370
18
48
1
60
0
100
AcDbLine
10
122.725
20
6.348694
30
0
11
120.271
21
6.348694
31
0
39
0
210
0
220
0
230
1
0
LINE
5
7E
100
AcDbEntity
8
SK1
62
256
6
ByLayer
370
18
48
1
60
0
100
AcDbLine
10
120.271
20
2.843694
30
0
11
122.725
21
2.843694
31
0
39
0
210
0
220
0
230
1
0
LINE
5
7F
100
AcDbEntity
8
1
62
256
6
ByLayer
370
18
48
1
60
0
100
AcDbLine
10
118.2
20
9.921567
30
0
11
119.521
21
9.921567
31
0
39
0
210
0
220
0
230
1
0
LINE
5
81
100
AcDbEntity
8
1
62
256
6
ByLayer
370
18
48
1
60
0
100
AcDbLine
10
119.521
20
-9.921567
30
0
11
118.2
21
-9.921567
31
0
39
0
210
0
220
0
230
1
0
LINE
5
82
100
AcDbEntity
8
1
62
256
6
ByLayer
370
18
48
1
60
0
100
AcDbLine
10
119.73225
20
4.690204
30
0
11
119.73225
21
4.057866
31
0
39
0
210
0
220
0
230
1
0
LINE
5
83
100
AcDbEntity
8
1
62
256
6
ByLayer
370
18
48
1
60
0
100
AcDbLine
10
119.73225
20
-4.057866
30
0
11
119.73225
21
-4.690204
31
0
39
0
210
0
220
0
230
1
0
LINE
5
84
100
AcDbEntity
8
1
62
256
6
ByLayer
370
18
48
1
60
0
100
AcDbLine
10
120.271
20
4.121789
30
0
11
120.271
21
0.755479
31
0
39
0
210
0
220
0
230
1
0
LINE
5
85
100
AcDbEntity
8
1
62
256
6
ByLayer
370
18
48
1
60
0
100
AcDbLine
10
120.271
20
-0.755479
30
0
11
120.271
21
-4.121789
31
0
39
0
210
0
220
0
230
1
0
LINE
5
86
100
AcDbEntity
8
1
62
256
6
ByLayer
370
18
48
1
60
0
100
AcDbLine
10
119.73225
20
6.47421
30
0
11
119.73225
21
6.09704
31
0
39
0
210
0
220
0
230
1
0
LINE
5
87
100
AcDbEntity
8
1
62
256
6
ByLayer
370
18
48
1
60
0
100
AcDbLine
10
119.73225
20
-6.09704
30
0
11
119.73225
21
-6.47421
31
0
39
0
210
0
220
0
230
1
0
LINE
5
88
100
AcDbEntity
8
1
62
256
6
ByLayer
370
18
48
1
60
0
100
AcDbLine
10
120.271
20
6.010732
30
0
11
120.271
21
4.696381
31
0
39
0
210
0
220
0
230
1
0
LINE
5
89
100
AcDbEntity
8
1
62
256
6
ByLayer
370
18
48
1
60
0
100
AcDbLine
10
120.271
20
-4.696381
30
0
11
120.271
21
-6.010732
31
0
39
0
210
0
220
0
230
1
0
LINE
5
8A
100
AcDbEntity
8
1
62
256
6
ByLayer
370
18
48
1
60
0
100
AcDbLine
10
119.73225
20
7.662099
30
0
11
119.73225
21
7.399765
31
0
39
0
210
0
220
0
230
1
0
LINE
5
8B
100
AcDbEntity
8
1
62
256
6
ByLayer
370
18
48
1
60
0
100
AcDbLine
10
119.73225
20
-7.399765
30
0
11
119.73225
21
-7.662099
31
0
39
0
210
0
220
0
230
1
0
LINE
5
8C
100
AcDbEntity
8
1
62
256
6
ByLayer
370
18
48
1
60
0
100
AcDbLine
10
120.271
20
-6.449965
30
0
11
120.271
21
-7.221057
31
0
39
0
210
0
220
0
230
1
0
LINE
5
8D
100
AcDbEntity
8
1
62
256
6
ByLayer
370
18
48
1
60
0
100
AcDbLine
10
120.271
20
7.221057
30
0
11
120.271
21
6.449965
31
0
39
0
210
0
220
0
230
1
0
LINE
5
8E
100
AcDbEntity
8
1
62
256
6
ByLayer
370
18
48
1
60
0
100
AcDbLine
10
119.73225
20
8.507358
30
0
11
119.73225
21
8.319504
31
0
39
0
210
0
220
0
230
1
0
LINE
5
8F
100
AcDbEntity
8
1
62
256
6
ByLayer
370
18
48
1
60
0
100
AcDbLine
10
119.73225
20
-8.319504
30
0
11
119.73225
21
-8.507358
31
0
39
0
210
0
220
0
230
1
0
LINE
5
90
100
AcDbEntity
8
1
62
256
6
ByLayer
370
18
48
1
60
0
100
AcDbLine
10
120.271
20
8.06433
30
0
11
120.271
21
7.459992
31
0
39
0
210
0
220
0
230
1
0
LINE
5
91
100
AcDbEntity
8
1
62
256
6
ByLayer
370
18
48
1
60
0
100
AcDbLine
10
120.271
20
-7.459992
30
0
11
120.271
21
-8.06433
31
0
39
0
210
0
220
0
230
1
0
LINE
5
92
100
AcDbEntity
8
1
62
256
6
ByLayer
370
18
48
1
60
0
100
AcDbLine
10
119.73225
20
9.105906
30
0
11
119.73225
21
8.974785
31
0
39
0
210
0
220
0
230
1
0
LINE
5
93
100
AcDbEntity
8
1
62
256
6
ByLayer
370
18
48
1
60
0
100
AcDbLine
10
119.73225
20
-8.974785
30
0
11
119.73225
21
-9.105906
31
0
39
0
210
0
220
0
230
1
0
LINE
5
94
100
AcDbEntity
8
1
62
256
6
ByLayer
370
18
48
1
60
0
100
AcDbLine
10
120.271
20
8.648594
30
0
11
120.271
21
8.231751
31
0
39
0
210
0
220
0
230
1
0
LINE
5
95
100
AcDbEntity
8
1
62
256
6
ByLayer
370
18
48
1
60
0
100
AcDbLine
10
120.271
20
6.449965
30
0
11
120.271
21
6.359716
31
0
39
0
210
0
220
0
230
1
0
LINE
5
96
100
AcDbEntity
8
1
62
256
6
ByLayer
370
18
48
1
60
0
100
AcDbLine
10
120.271
20
-6.359716
30
0
11
120.271
21
-6.449965
31
0
39
0
210
0
220
0
230
1
0
LINE
5
97
100
AcDbEntity
8
1
62
256
6
ByLayer
370
18
48
1
60
0
100
AcDbLine
10
120.271
20
-8.231751
30
0
11
120.271
21
-8.648594
31
0
39
0
210
0
220
0
230
1
0
LINE
5
98
100
AcDbEntity
8
1
62
256
6
ByLayer
370
18
48
1
60
0
100
AcDbLine
10
119.73225
20
9.504467
30
0
11
119.73225
21
9.420955
31
0
39
0
210
0
220
0
230
1
0
LINE
5
99
100
AcDbEntity
8
1
62
256
6
ByLayer
370
18
48
1
60
0
100
AcDbLine
10
119.73225
20
-9.420955
30
0
11
119.73225
21
-9.504467
31
0
39
0
210
0
220
0
230
1
0
LINE
5
9A
100
AcDbEntity
8
1
62
256
6
ByLayer
370
18
48
1
60
0
100
AcDbLine
10
120.271
20
9.024297
30
0
11
120.271
21
8.760534
31
0
39
0
210
0
220
0
230
1
0
LINE
5
9B
100
AcDbEntity
8
1
62
256
6
ByLayer
370
18
48
1
60
0
100
AcDbLine
10
120.271
20
-8.760534
30
0
11
120.271
21
-9.024297
31
0
39
0
210
0
220
0
230
1
0
LINE
5
9C
100
AcDbEntity
8
SK1
62
256
6
ByLayer
370
18
48
1
60
0
100
AcDbLine
10
-79
20
10
30
0
11
-80
21
9
31
0
39
0
210
0
220
0
230
1
0
LINE
5
9D
100
AcDbEntity
8
SK1
62
256
6
ByLayer
370
18
48
1
60
0
100
AcDbLine
10
-80
20
-9
30
0
11
-79
21
-10
31
0
39
0
210
0
220
0
230
1
0
LINE
5
9E
100
AcDbEntity
8
1
62
256
6
ByLayer
370
18
48
1
60
0
100
AcDbLine
10
117.8
20
10
30
0
11
0
21
10
31
0
39
0
210
0
220
0
230
1
0
LINE
5
9F
100
AcDbEntity
8
SK1
62
256
6
ByLayer
370
18
48
1
60
0
100
AcDbLine
10
-79
20
-10
30
0
11
0
21
-10
31
0
39
0
210
0
220
0
230
1
0
LINE
5
A0
100
AcDbEntity
8
1
62
256
6
ByLayer
370
18
48
1
60
0
100
AcDbLine
10
60
20
0.244359
30
0
11
0
21
0.244359
31
0
39
0
210
0
220
0
230
1
0
LINE
5
A1
100
AcDbEntity
8
SK1
62
256
6
ByLayer
370
18
48
1
60
0
100
AcDbLine
10
-20
20
-0.244359
30
0
11
0
21
-0.244359
31
0
39
0
210
0
220
0
230
1
0
LINE
5
A2
100
AcDbEntity
8
SK1
62
256
6
ByLayer
370
18
48
1
60
0
100
AcDbLine
10
126.225
20
-1.746194
30
0
11
126.225
21
-7.446194
31
0
39
0
210
0
220
0
230
1
0
LINE
5
A3
100
AcDbEntity
8
SK1
62
256
6
ByLayer
370
18
48
1
60
0
100
AcDbLine
10
122.725
20
-1.746194
30
0
11
122.725
21
-7.446194
31
0
39
0
210
0
220
0
230
1
0
LINE
5
A4
100
AcDbEntity
8
SK1
62
256
6
ByLayer
370
18
48
1
60
0
100
AcDbLine
10
126.225
20
7.446194
30
0
11
126.225
21
1.746194
31
0
39
0
210
0
220
0
230
1
0
LINE
5
A5
100
AcDbEntity
8
SK1
62
256
6
ByLayer
370
18
48
1
60
0
100
AcDbLine
10
122.725
20
7.446194
30
0
11
122.725
21
1.746194
31
0
39
0
210
0
220
0
230
1
0
LINE
5
A6
100
AcDbEntity
8
1
62
256
6
ByLayer
370
18
48
1
60
0
100
AcDbLine
10
118.2
20
9.921567
30
0
11
118.2
21
-9.921567
31
0
39
0
210
0
220
0
230
1
0
LINE
5
A7
100
AcDbEntity
8
1
62
256
6
ByLayer
370
18
48
1
60
0
100
AcDbLine
10
118
20
-9.719954
30
0
11
118
21
0
31
0
39
0
210
0
220
0
230
1
0
LINE
5
A8
100
AcDbEntity
8
1
62
256
6
ByLayer
370
18
48
1
60
0
100
AcDbLine
10
118
20
0
30
0
11
118
21
9.719954
31
0
39
0
210
0
220
0
230
1
0
LINE
5
A9
100
AcDbEntity
8
1
62
256
6
ByLayer
370
18
48
1
60
0
100
AcDbLine
10
119.521
20
-9.921567
30
0
11
119.521
21
9.921567
31
0
39
0
210
0
220
0
230
1
0
LINE
5
AA
100
AcDbEntity
8
1
62
256
6
ByLayer
370
18
48
1
60
0
100
AcDbLine
10
120.271
20
9.024297
30
0
11
120.271
21
9.088851
31
0
39
0
210
0
220
0
230
1
0
LINE
5
AB
100
AcDbEntity
8
1
62
256
6
ByLayer
370
18
48
1
60
0
100
AcDbLine
10
120.271
20
8.648594
30
0
11
120.271
21
8.760534
31
0
39
0
210
0
220
0
230
1
0
LINE
5
AC
100
AcDbEntity
8
1
62
256
6
ByLayer
370
18
48
1
60
0
100
AcDbLine
10
120.271
20
8.06433
30
0
11
120.271
21
8.231751
31
0
39
0
210
0
220
0
230
1
0
LINE
5
AD
100
AcDbEntity
8
1
62
256
6
ByLayer
370
18
48
1
60
0
100
AcDbLine
10
120.271
20
7.221057
30
0
11
120.271
21
7.459992
31
0
39
0
210
0
220
0
230
1
0
LINE
5
AE
100
AcDbEntity
8
1
62
256
6
ByLayer
370
18
48
1
60
0
100
AcDbLine
10
120.271
20
6.010732
30
0
11
120.271
21
6.357376
31
0
39
0
210
0
220
0
230
1
0
LINE
5
AF
100
AcDbEntity
8
1
62
256
6
ByLayer
370
18
48
1
60
0
100
AcDbLine
10
120.271
20
4.121789
30
0
11
120.271
21
4.696381
31
0
39
0
210
0
220
0
230
1
0
LINE
5
B0
100
AcDbEntity
8
1
62
256
6
ByLayer
370
18
48
1
60
0
100
AcDbLine
10
120.271
20
-0.755479
30
0
11
120.271
21
0.755479
31
0
39
0
210
0
220
0
230
1
0
LINE
5
B1
100
AcDbEntity
8
1
62
256
6
ByLayer
370
18
48
1
60
0
100
AcDbLine
10
120.271
20
-4.696381
30
0
11
120.271
21
-4.121789
31
0
39
0
210
0
220
0
230
1
0
LINE
5
B2
100
AcDbEntity
8
1
62
256
6
ByLayer
370
18
48
1
60
0
100
AcDbLine
10
120.271
20
-6.357376
30
0
11
120.271
21
-6.010732
31
0
39
0
210
0
220
0
230
1
0
LINE
5
B3
100
AcDbEntity
8
1
62
256
6
ByLayer
370
18
48
1
60
0
100
AcDbLine
10
120.271
20
-7.459992
30
0
11
120.271
21
-7.221057
31
0
39
0
210
0
220
0
230
1
0
LINE
5
B4
100
AcDbEntity
8
1
62
256
6
ByLayer
370
18
48
1
60
0
100
AcDbLine
10
120.271
20
-8.231751
30
0
11
120.271
21
-8.06433
31
0
39
0
210
0
220
0
230
1
0
LINE
5
B5
100
AcDbEntity
8
1
62
256
6
ByLayer
370
18
48
1
60
0
100
AcDbLine
10
120.271
20
-8.760534
30
0
11
120.271
21
-8.648594
31
0
39
0
210
0
220
0
230
1
0
LINE
5
B6
100
AcDbEntity
8
1
62
256
6
ByLayer
370
18
48
1
60
0
100
AcDbLine
10
120.271
20
-9.088851
30
0
11
120.271
21
-9.024297
31
0
39
0
210
0
220
0
230
1
0
LINE
5
B7
100
AcDbEntity
8
1
62
256
6
ByLayer
370
18
48
1
60
0
100
AcDbLine
10
117.8
20
-10
30
0
11
117.8
21
0
31
0
39
0
210
0
220
0
230
1
0
LINE
5
B8
100
AcDbEntity
8
1
62
256
6
ByLayer
370
18
48
1
60
0
100
AcDbLine
10
118
20
9.8
30
0
11
118
21
9.744994
31
0
39
0
210
0
220
0
230
1
0
LINE
5
B9
100
AcDbEntity
8
1
62
256
6
ByLayer
370
18
48
1
60
0
100
AcDbLine
10
118
20
9.744994
30
0
11
118
21
9.719954
31
0
39
0
210
0
220
0
230
1
0
LINE
5
BA
100
AcDbEntity
8
1
62
256
6
ByLayer
370
18
48
1
60
0
100
AcDbLine
10
118
20
9.719954
30
0
11
118
21
0
31
0
39
0
210
0
220
0
230
1
0
LINE
5
BB
100
AcDbEntity
8
1
62
256
6
ByLayer
370
18
48
1
60
0
100
AcDbLine
10
118
20
0
30
0
11
118
21
-9.719954
31
0
39
0
210
0
220
0
230
1
0
LINE
5
BC
100
AcDbEntity
8
1
62
256
6
ByLayer
370
18
48
1
60
0
100
AcDbLine
10
118
20
-9.719954
30
0
11
118
21
-9.723867
31
0
39
0
210
0
220
0
230
1
0
LINE
5
BD
100
AcDbEntity
8
1
62
256
6
ByLayer
370
18
48
1
60
0
100
AcDbLine
10
118
20
-9.723867
30
0
11
118
21
-9.8
31
0
39
0
210
0
220
0
230
1
0
LINE
5
BE
100
AcDbEntity
8
1
62
256
6
ByLayer
370
18
48
1
60
0
100
AcDbLine
10
117.8
20
0
30
0
11
117.8
21
10
31
0
39
0
210
0
220
0
230
1
0
LINE
5
BF
100
AcDbEntity
8
SK1
62
256
6
ByLayer
370
18
48
1
60
0
100
AcDbLine
10
-80
20
9
30
0
11
-80
21
-9
31
0
39
0
210
0
220
0
230
1
0
LINE
5
C0
100
AcDbEntity
8
SK1
62
256
6
ByLayer
370
18
48
1
60
0
100
AcDbLine
10
-79
20
10
30
0
11
-79
21
-10
31
0
39
0
210
0
220
0
230
1
0
LINE
5
C1
100
AcDbEntity
8
SK1
62
256
6
ByLayer
370
18
48
1
60
0
100
AcDbLine
10
-20
20
0.244359
30
0
11
-20
21
-0.244359
31
0
39
0
210
0
220
0
230
1
0
LINE
5
C2
100
AcDbEntity
8
1
62
256
6
ByLayer
370
18
48
1
60
0
100
AcDbLine
10
60
20
-0.244359
30
0
11
60
21
0.244359
31
0
39
0
210
0
220
0
230
1
0
LINE
5
C3
100
AcDbEntity
8
SK1
62
256
6
ByLayer
370
18
48
1
60
0
100
AcDbLine
10
0
20
10
30
0
11
-79
21
10
31
0
39
0
210
0
220
0
230
1
0
LINE
5
C4
100
AcDbEntity
8
SK1
62
256
6
ByLayer
370
18
48
1
60
0
100
AcDbLine
10
0
20
0.244359
30
0
11
-20
21
0.244359
31
0
39
0
210
0
220
0
230
1
0
LINE
5
C5
100
AcDbEntity
8
1
62
256
6
ByLayer
370
18
48
1
60
0
100
AcDbLine
10
0
20
-0.244359
30
0
11
60
21
-0.244359
31
0
39
0
210
0
220
0
230
1
0
LINE
5
C6
100
AcDbEntity
8
1
62
256
6
ByLayer
370
18
48
1
60
0
100
AcDbLine
10
0
20
-10
30
0
11
117.8
21
-10
31
0
39
0
210
0
220
0
230
1
0
MTEXT
5
102
100
AcDbEntity
8
SK6
62
256
6
ByLayer
370
13
48
1
60
0
100
AcDbMText
10
19.982974
20
35.264646
30
0
210
0
220
0
230
1
1
\W0.7204;570-3C 20 200
40
3.175
41
0
44
1.084337
50
0
71
7
72
5
7
iso_b_vert
0
DIMENSION
5
110
100
AcDbEntity
8
2
62
256
6
ByLayer
370
13
48
1
60
0
100
AcDbDimension
2
DimnDraft3D1
10
120
20
18.797984
30
0
11
57.313783
21
18.797984
31
0
70
32
71
5
72
1
41
1
210
0
220
0
230
1
3
Standard
100
AcDbAlignedDimension
13
0
23
1.5875
33
0
14
120
24
1.5875
34
0
50
0
100
AcDbRotatedDimension
1001
ACAD
1000
DSTYLE
1002
{
1070
   279
1070
     0
1070
   173
1070
     1
1070
   340
1005
103
1070
   271
1070
     1
1070
   272
1070
     2
1070
    77
1070
     1
1070
    73
1070
     0
1070
   171
1070
     3
1070
   274
1070
     4
1070
   177
1070
     7
1070
   176
1070
     7
1070
   178
1070
     7
1070
    78
1070
     8
1070
    48
1040
-0.005
1070
    41
1041
3.175
1070
   147
1041
1.5875
1070
    42
1041
1.5875
1070
    44
1041
3.175
1070
   140
1041
3.175
1070
   343
1005
0
1070
   344
1005
0
1002
}
0
DIMENSION
5
11C
100
AcDbEntity
8
SK2
62
256
6
ByLayer
370
13
48
1
60
0
100
AcDbDimension
2
DimnDraft3D2
10
-96.866227
20
-10
30
0
11
-96.866227
21
-7.492203
31
0
70
32
71
5
72
1
41
1
210
0
220
0
230
1
3
Standard
100
AcDbAlignedDimension
13
-80.5875
23
10
33
0
14
-80.5875
24
-10
34
0
50
90
100
AcDbRotatedDimension
1001
ACAD
1000
DSTYLE
1002
{
1070
    74
1070
     0
1070
   279
1070
     0
1070
   173
1070
     1
1070
   340
1005
103
1070
   271
1070
     1
1070
   272
1070
     2
1070
    77
1070
     1
1070
    73
1070
     0
1070
   171
1070
     3
1070
   274
1070
     4
1070
   177
1070
     7
1070
   176
1070
     7
1070
   178
1070
     7
1070
    78
1070
     8
1070
    48
1040
-0.005
1070
    41
1041
3.175
1070
   147
1041
1.5875
1070
    42
1041
1.5875
1070
    44
1041
3.175
1070
   140
1041
3.175
1070
   343
1005
0
1070
   344
1005
0
1002
}
0
DIMENSION
5
126
100
AcDbEntity
8
SK2
62
256
6
ByLayer
370
13
48
1
60
0
100
AcDbDimension
2
DimnDraft3D3
10
-80
20
25.010505
30
0
11
16.916908
21
25.010505
31
0
70
32
71
5
72
1
41
1
210
0
220
0
230
1
3
Standard
100
AcDbAlignedDimension
13
120
23
1.5875
33
0
14
-80
24
10.5875
34
0
50
0
100
AcDbRotatedDimension
1001
ACAD
1000
DSTYLE
1002
{
1070
   279
1070
     0
1070
   173
1070
     1
1070
   340
1005
103
1070
   271
1070
     1
1070
   272
1070
     2
1070
    77
1070
     1
1070
    73
1070
     0
1070
   171
1070
     3
1070
   274
1070
     4
1070
   177
1070
     7
1070
   176
1070
     7
1070
   178
1070
     7
1070
    78
1070
     8
1070
    48
1040
-0.005
1070
    41
1041
3.175
1070
   147
1041
1.5875
1070
    42
1041
1.5875
1070
    44
1041
3.175
1070
   140
1041
3.175
1070
   343
1005
0
1070
   344
1005
0
1002
}
0
ENDSEC
0
SECTION
2
OBJECTS
0
DICTIONARY
5
191
330
0
100
AcDbDictionary
280
0
281
1
3
ACAD_GROUP
350
192
3
ACAD_MLINESTYLE
350
193
0
DICTIONARY
5
192
330
0
100
AcDbDictionary
280
0
281
1
0
DICTIONARY
5
193
330
0
100
AcDbDictionary
280
0
281
1
3
Standard
350
18
0
MLINESTYLE
5
18
330
193
100
AcDbMlineStyle
2
Standard
70
0
3

62
256
51
90
52
90
71
2
49
-0.5
62
256
6
ByLayer
49
0.5
62
256
6
ByLayer
0
RASTERVARIABLES
5
17f
330

100
AcDbRasterVariables
90
0
70
1
71
1
72
1
0
ENDSEC
0
EOF
