0
SECTION
2
HEADER
9
$ACADVER
1
AC1015
9
$DWGCODEPAGE
3
ANSI_1252
9
$HANDSEED
5
1e5
9
$ANGBASE
50
0
9
$ANGDIR
70
0
9
$ATTMODE
70
1
9
$AUNITS
70
0
9
$AUPREC
70
0
9
$CECOLOR
62
256
9
$CELTSCALE
40
1
9
$CELTYPE
6
ByLayer
9
$CELWEIGHT
370
18
9
$CLAYER
8
0
9
$CMLJUST
70
0
9
$CMLSCALE
40
1
9
$CMLSTYLE
2
Standard
9
$DIMSTYLE
2
Standard
9
$TEXTSIZE
40
0.2
9
$TEXTSTYLE
7
Standard
9
$LUNITS
70
2
9
$LUPREC
70
4
9
$EXTNAMES
290
1
9
$INSUNITS
70
4
9
$LTSCALE
40
1
9
$LWDISPLAY
290
1
9
$PDMODE
70
0
9
$PDSIZE
40
0
9
$PLINEGEN
70
0
0
ENDSEC
0
SECTION
2
CLASSES
0
CLASS
1
RASTERVARIABLES
2
AcDbRasterVariables
3
ISM
90
0
280
0
281
0
0
ENDSEC
0
SECTION
2
TABLES
0
TABLE
2
VPORT
5
1db
100
AcDbSymbolTable
0
VPORT
5
1
100
AcDbSymbolTableRecord
100
AcDbViewportTableRecord
2
*Active
70
0
10
0
20
0
11
1
21
1
12
-1
22
1
13
0
23
0
14
0.5
24
0.5
15
10
25
10
16
0
26
0
36
1
17
0
27
0
37
0
0
ENDTAB
0
TABLE
2
LTYPE
5
1dc
100
AcDbSymbolTable
0
LTYPE
5
14
100
AcDbSymbolTableRecord
100
AcDbLinetypeTableRecord
70
0
2
ByBlock
3

72
65
73
0
40
0
0
LTYPE
5
15
100
AcDbSymbolTableRecord
100
AcDbLinetypeTableRecord
70
0
2
ByLayer
3

72
65
73
0
40
0
0
LTYPE
5
16
100
AcDbSymbolTableRecord
100
AcDbLinetypeTableRecord
70
0
2
CONTINUOUS
3
Solid line
72
65
73
0
40
0
0
LTYPE
5
6A
100
AcDbSymbolTableRecord
100
AcDbLinetypeTableRecord
70
0
2
CENTER
3
____ _ ____ _ ____ _ ____
72
65
73
4
40
47.5
49
22
74
0
49
-8.5
74
0
49
8.5
74
0
49
-8.5
74
0
0
LTYPE
5
6B
100
AcDbSymbolTableRecord
100
AcDbLinetypeTableRecord
70
0
2
DASHED
3
__ __ __ __ __ __ __ __ __
72
65
73
2
40
25.72
49
12.86
74
0
49
-12.86
74
0
0
ENDTAB
0
TABLE
2
LAYER
5
1dd
100
AcDbSymbolTable
0
LAYER
5
10
100
AcDbSymbolTableRecord
100
AcDbLayerTableRecord
2
0
70
0
62
7
6
CONTINUOUS
290
1
370
-3
390
0
0
LAYER
5
6D
100
AcDbSymbolTableRecord
100
AcDbLayerTableRecord
2
80
70
0
62
-6
6
CONTINUOUS
290
1
370
-3
390
0
0
LAYER
5
6F
100
AcDbSymbolTableRecord
100
AcDbLayerTableRecord
2
81
70
0
62
-3
6
CONTINUOUS
290
1
370
-3
390
0
0
LAYER
5
72
100
AcDbSymbolTableRecord
100
AcDbLayerTableRecord
2
4
70
0
62
-2
6
CENTER
290
1
370
-3
390
0
0
LAYER
5
81
100
AcDbSymbolTableRecord
100
AcDbLayerTableRecord
2
1
70
0
62
4
6
CONTINUOUS
290
1
370
-3
390
0
0
LAYER
5
13B
100
AcDbSymbolTableRecord
100
AcDbLayerTableRecord
2
2
70
0
62
7
6
CONTINUOUS
290
1
370
-3
390
0
0
LAYER
5
1c7
100
AcDbSymbolTableRecord
100
AcDbLayerTableRecord
2
SK4
70
0
62
2
6
CENTER
290
1
370
-3
390
0
0
LAYER
5
1c8
100
AcDbSymbolTableRecord
100
AcDbLayerTableRecord
2
SK1
70
0
62
4
6
CONTINUOUS
290
1
370
-3
390
0
0
LAYER
5
1c9
100
AcDbSymbolTableRecord
100
AcDbLayerTableRecord
2
SK6
70
0
62
5
6
CONTINUOUS
290
1
370
-3
390
0
0
LAYER
5
1ca
100
AcDbSymbolTableRecord
100
AcDbLayerTableRecord
2
SK2
70
0
62
7
6
CONTINUOUS
290
1
370
-3
390
0
0
ENDTAB
0
TABLE
2
STYLE
5
1de
100
AcDbSymbolTable
0
STYLE
5
11
100
AcDbSymbolTableRecord
100
AcDbTextStyleTableRecord
2
Standard
3
txt
70
0
71
0
40
0
41
1
42
0
50
0
0
STYLE
5
136
100
AcDbSymbolTableRecord
100
AcDbTextStyleTableRecord
2
iso_b_vert
3
simplex.shx
70
0
71
0
40
0
41
1
42
0
50
0
0
STYLE
5
137
100
AcDbSymbolTableRecord
100
AcDbTextStyleTableRecord
2
DWGDirectTextStyle
3
simplex
70
0
71
0
40
0
41
1
42
0
50
0
0
ENDTAB
0
TABLE
2
DIMSTYLE
5
1df
100
AcDbSymbolTable
100
AcDbDimStyleTable
0
DIMSTYLE
105
27
100
AcDbSymbolTableRecord
100
AcDbDimStyleTableRecord
2
Standard
70
0
3
<>
41
0.18
42
0.0625
44
0.18
140
0.18
147
0.09
73
0
74
0
77
1
271
2
275
0
278
52
280
0
340
11
0
ENDTAB
0
TABLE
2
VIEW
5
1e0
100
AcDbSymbolTable
0
ENDTAB
0
TABLE
2
UCS
5
1e1
100
AcDbSymbolTable
0
ENDTAB
0
TABLE
2
APPID
5
1e2
100
AcDbSymbolTable
0
APPID
5
12
100
AcDbSymbolTableRecord
100
AcDbRegAppTableRecord
2
ACAD
70
0
0
ENDTAB
0
TABLE
2
BLOCK_RECORD
5
1e3
100
AcDbSymbolTable
0
BLOCK_RECORD
5
1F
100
AcDbSymbolTableRecord
100
AcDbBlockTableRecord
2
*Model_Space
340
0
70
0
0
BLOCK_RECORD
5
1B
100
AcDbSymbolTableRecord
100
AcDbBlockTableRecord
2
*Paper_Space
340
0
70
0
0
BLOCK_RECORD
5
23
100
AcDbSymbolTableRecord
100
AcDbBlockTableRecord
2
*Paper_Space0
340
0
70
0
0
BLOCK_RECORD
5
139
100
AcDbSymbolTableRecord
100
AcDbBlockTableRecord
2
DimnDraft3D1
340
0
70
0
0
BLOCK_RECORD
5
144
100
AcDbSymbolTableRecord
100
AcDbBlockTableRecord
2
DimnDraft3D2
340
0
70
0
0
BLOCK_RECORD
5
14F
100
AcDbSymbolTableRecord
100
AcDbBlockTableRecord
2
DimnDraft3D3
340
0
70
0
0
BLOCK_RECORD
5
159
100
AcDbSymbolTableRecord
100
AcDbBlockTableRecord
2
DimnDraft3D4
340
0
70
0
0
BLOCK_RECORD
5
164
100
AcDbSymbolTableRecord
100
AcDbBlockTableRecord
2
DimnDraft3D5
340
0
70
0
0
ENDTAB
0
ENDSEC
0
SECTION
2
BLOCKS
0
BLOCK
5
20
100
AcDbEntity
8
0
100
AcDbBlockBegin
2
*Model_Space
70
0
10
0
20
0
30
0
3
*Model_Space
0
ENDBLK
5
21
100
AcDbEntity
8
0
100
AcDbBlockEnd
0
BLOCK
5
1C
100
AcDbEntity
8
0
100
AcDbBlockBegin
2
*Paper_Space
70
0
10
0
20
0
30
0
3
*Paper_Space
0
ENDBLK
5
1D
100
AcDbEntity
8
0
100
AcDbBlockEnd
0
BLOCK
5
24
100
AcDbEntity
8
0
100
AcDbBlockBegin
2
*Paper_Space0
70
0
10
0
20
0
30
0
3
*Paper_Space0
0
ENDBLK
5
25
100
AcDbEntity
8
0
100
AcDbBlockEnd
0
BLOCK
5
141
100
AcDbEntity
8
0
100
AcDbBlockBegin
2
DimnDraft3D1
70
0
10
0
20
0
30
0
3
DimnDraft3D1
0
MTEXT
5
13A
100
AcDbEntity
8
2
62
256
6
ByLayer
370
13
48
1
60
0
100
AcDbMText
10
62.107533
20
30.428599
30
0
210
0
220
0
230
1
1
\W0.6217;128
40
3.175
41
0
44
1.084337
50
0
71
7
72
5
7
iso_b_vert
0
LINE
5
13C
100
AcDbEntity
8
2
62
256
6
ByLayer
370
13
48
1
60
0
100
AcDbLine
10
0
20
1.5875
30
0
11
0
21
32.809849
31
0
39
0
210
0
220
0
230
1
0
LINE
5
13D
100
AcDbEntity
8
2
62
256
6
ByLayer
370
13
48
1
60
0
100
AcDbLine
10
128
20
1.5875
30
0
11
128
21
32.809849
31
0
39
0
210
0
220
0
230
1
0
LINE
5
13E
100
AcDbEntity
8
2
62
256
6
ByLayer
370
13
48
1
60
0
100
AcDbLine
10
0
20
29.634849
30
0
11
128
21
29.634849
31
0
39
0
210
0
220
0
230
1
0
SOLID
5
13F
100
AcDbEntity
8
2
62
256
6
ByLayer
370
13
48
1
60
0
100
AcDbTrace
10
0
20
29.634849
30
0
11
3.174998
21
30.052846
31
0
12
3.175002
22
29.216853
32
0
13
0
23
29.634849
33
0
39
0
210
0
220
0
230
1
0
SOLID
5
140
100
AcDbEntity
8
2
62
256
6
ByLayer
370
13
48
1
60
0
100
AcDbTrace
10
128
20
29.634849
30
0
11
124.825002
21
29.216853
31
0
12
124.824998
22
30.052846
32
0
13
128
23
29.634849
33
0
39
0
210
0
220
0
230
1
0
ENDBLK
5
142
100
AcDbEntity
8
0
100
AcDbBlockEnd
0
BLOCK
5
14C
100
AcDbEntity
8
0
100
AcDbBlockBegin
2
DimnDraft3D2
70
0
10
0
20
0
30
0
3
DimnDraft3D2
0
MTEXT
5
145
100
AcDbEntity
8
SK2
62
256
6
ByLayer
370
13
48
1
60
0
100
AcDbMText
10
-15.789342
20
44.928437
30
0
210
0
220
0
230
1
1
\W0.7138;283
40
3.175
41
0
44
1.084337
50
0
71
7
72
5
7
iso_b_vert
0
LINE
5
147
100
AcDbEntity
8
SK2
62
256
6
ByLayer
370
13
48
1
60
0
100
AcDbLine
10
128
20
1.5875
30
0
11
128
21
47.309687
31
0
39
0
210
0
220
0
230
1
0
LINE
5
148
100
AcDbEntity
8
SK2
62
256
6
ByLayer
370
13
48
1
60
0
100
AcDbLine
10
-155
20
19.5875
30
0
11
-155
21
47.309687
31
0
39
0
210
0
220
0
230
1
0
LINE
5
149
100
AcDbEntity
8
SK2
62
256
6
ByLayer
370
13
48
1
60
0
100
AcDbLine
10
128
20
44.134687
30
0
11
-155
21
44.134687
31
0
39
0
210
0
220
0
230
1
0
SOLID
5
14A
100
AcDbEntity
8
SK2
62
256
6
ByLayer
370
13
48
1
60
0
100
AcDbTrace
10
128
20
44.134687
30
0
11
124.825002
21
43.71669
31
0
12
124.824998
22
44.552684
32
0
13
128
23
44.134687
33
0
39
0
210
0
220
0
230
1
0
SOLID
5
14B
100
AcDbEntity
8
SK2
62
256
6
ByLayer
370
13
48
1
60
0
100
AcDbTrace
10
-155
20
44.134687
30
0
11
-151.825002
21
44.552684
31
0
12
-151.824998
22
43.71669
32
0
13
-155
23
44.134687
33
0
39
0
210
0
220
0
230
1
0
ENDBLK
5
14D
100
AcDbEntity
8
0
100
AcDbBlockEnd
0
BLOCK
5
156
100
AcDbEntity
8
0
100
AcDbBlockBegin
2
DimnDraft3D3
70
0
10
0
20
0
30
0
3
DimnDraft3D3
0
MTEXT
5
150
100
AcDbEntity
8
SK2
62
256
6
ByLayer
370
13
48
1
60
0
100
AcDbMText
10
-165.194086
20
-3.599145
30
0
210
0
220
0
230
1
1
\W0.7150;38,5
40
3.175
41
0
44
1.084337
50
90
71
7
72
5
7
iso_b_vert
0
LINE
5
151
100
AcDbEntity
8
SK2
62
256
6
ByLayer
370
13
48
1
60
0
100
AcDbLine
10
-154.5875
20
18.5
30
0
11
-167.575336
21
18.5
31
0
39
0
210
0
220
0
230
1
0
LINE
5
152
100
AcDbEntity
8
SK2
62
256
6
ByLayer
370
13
48
1
60
0
100
AcDbLine
10
-154.5875
20
-20
30
0
11
-167.575336
21
-20
31
0
39
0
210
0
220
0
230
1
0
LINE
5
153
100
AcDbEntity
8
SK2
62
256
6
ByLayer
370
13
48
1
60
0
100
AcDbLine
10
-164.400336
20
18.5
30
0
11
-164.400336
21
-20
31
0
39
0
210
0
220
0
230
1
0
SOLID
5
154
100
AcDbEntity
8
SK2
62
256
6
ByLayer
370
13
48
1
60
0
100
AcDbTrace
10
-164.400336
20
18.5
30
0
11
-163.982339
21
15.325002
31
0
12
-164.818333
22
15.324998
32
0
13
-164.400336
23
18.5
33
0
39
0
210
0
220
0
230
1
0
SOLID
5
155
100
AcDbEntity
8
SK2
62
256
6
ByLayer
370
13
48
1
60
0
100
AcDbTrace
10
-164.400336
20
-20
30
0
11
-164.818333
21
-16.825002
31
0
12
-163.982339
22
-16.824998
32
0
13
-164.400336
23
-20
33
0
39
0
210
0
220
0
230
1
0
ENDBLK
5
157
100
AcDbEntity
8
0
100
AcDbBlockEnd
0
BLOCK
5
161
100
AcDbEntity
8
0
100
AcDbBlockBegin
2
DimnDraft3D4
70
0
10
0
20
0
30
0
3
DimnDraft3D4
0
MTEXT
5
15A
100
AcDbEntity
8
SK2
62
256
6
ByLayer
370
13
48
1
60
0
100
AcDbMText
10
144.107311
20
38.675341
30
0
210
0
220
0
230
1
1
\W0.7361;40
40
3.175
41
0
44
1.084337
50
90
71
7
72
5
7
iso_b_vert
0
MTEXT
5
15B
100
AcDbEntity
8
SK2
62
256
6
ByLayer
370
13
48
1
60
0
100
AcDbMText
10
144.107311
20
31.556395
30
0
210
0
220
0
230
1
1
%%c
40
3.175
41
0
44
1.084337
50
90
71
7
72
5
7
iso_b_vert
0
LINE
5
15C
100
AcDbEntity
8
SK2
62
256
6
ByLayer
370
13
48
1
60
0
100
AcDbLine
10
128.9125
20
-20
30
0
11
148.869811
21
-20
31
0
39
0
210
0
220
0
230
1
0
LINE
5
15D
100
AcDbEntity
8
SK2
62
256
6
ByLayer
370
13
48
1
60
0
100
AcDbLine
10
128.9125
20
18.5
30
0
11
148.869811
21
18.5
31
0
39
0
210
0
220
0
230
1
0
LINE
5
15E
100
AcDbEntity
8
SK2
62
256
6
ByLayer
370
13
48
1
60
0
100
AcDbLine
10
145.694811
20
-20
30
0
11
145.694811
21
42.009091
31
0
39
0
210
0
220
0
230
1
0
SOLID
5
15F
100
AcDbEntity
8
SK2
62
256
6
ByLayer
370
13
48
1
60
0
100
AcDbTrace
10
145.694811
20
-20
30
0
11
145.276814
21
-16.825002
31
0
12
146.112808
22
-16.824998
32
0
13
145.694811
23
-20
33
0
39
0
210
0
220
0
230
1
0
SOLID
5
160
100
AcDbEntity
8
SK2
62
256
6
ByLayer
370
13
48
1
60
0
100
AcDbTrace
10
145.694811
20
18.5
30
0
11
146.112808
21
15.325002
31
0
12
145.276814
22
15.324998
32
0
13
145.694811
23
18.5
33
0
39
0
210
0
220
0
230
1
0
ENDBLK
5
162
100
AcDbEntity
8
0
100
AcDbBlockEnd
0
BLOCK
5
16B
100
AcDbEntity
8
0
100
AcDbBlockBegin
2
DimnDraft3D5
70
0
10
0
20
0
30
0
3
DimnDraft3D5
0
MTEXT
5
165
100
AcDbEntity
8
SK2
62
256
6
ByLayer
370
13
48
1
60
0
100
AcDbMText
10
-79.392467
20
30.347378
30
0
210
0
220
0
230
1
1
\W0.6217;155
40
3.175
41
0
44
1.084337
50
0
71
7
72
5
7
iso_b_vert
0
LINE
5
166
100
AcDbEntity
8
SK2
62
256
6
ByLayer
370
13
48
1
60
0
100
AcDbLine
10
-155
20
19.5875
30
0
11
-155
21
32.728628
31
0
39
0
210
0
220
0
230
1
0
LINE
5
167
100
AcDbEntity
8
SK2
62
256
6
ByLayer
370
13
48
1
60
0
100
AcDbLine
10
0
20
20.0875
30
0
11
0
21
32.728628
31
0
39
0
210
0
220
0
230
1
0
LINE
5
168
100
AcDbEntity
8
SK2
62
256
6
ByLayer
370
13
48
1
60
0
100
AcDbLine
10
-155
20
29.553628
30
0
11
0
21
29.553628
31
0
39
0
210
0
220
0
230
1
0
SOLID
5
169
100
AcDbEntity
8
SK2
62
256
6
ByLayer
370
13
48
1
60
0
100
AcDbTrace
10
-155
20
29.553628
30
0
11
-151.825002
21
29.971624
31
0
12
-151.824998
22
29.135631
32
0
13
-155
23
29.553628
33
0
39
0
210
0
220
0
230
1
0
SOLID
5
16A
100
AcDbEntity
8
SK2
62
256
6
ByLayer
370
13
48
1
60
0
100
AcDbTrace
10
0
20
29.553628
30
0
11
-3.174998
21
29.135631
31
0
12
-3.175002
22
29.971624
32
0
13
0
23
29.553628
33
0
39
0
210
0
220
0
230
1
0
ENDBLK
5
16C
100
AcDbEntity
8
0
100
AcDbBlockEnd
0
ENDSEC
0
SECTION
2
ENTITIES
0
POINT
5
6C
100
AcDbEntity
8
80
62
256
6
ByLayer
370
18
48
1
60
0
100
AcDbPoint
10
0
20
0
30
0
39
0
210
0
220
0
230
1
50
360
0
POINT
5
6E
100
AcDbEntity
8
81
62
256
6
ByLayer
370
18
48
1
60
0
100
AcDbPoint
10
128
20
0
30
0
39
0
210
0
220
0
230
1
50
360
0
SPLINE
5
DB
100
AcDbEntity
8
SK1
62
256
6
ByLayer
370
18
48
1
60
0
100
AcDbSpline
70
4
71
3
72
16
73
12
40
0
40
0
40
0
40
0
40
0.104190480397548
40
0.208361003884219
40
0.314758849065903
40
0.421137809332937
40
0.53097629666959
40
0.640819116236325
40
0.754261771930678
40
0.867732763702424
40
1
40
1
40
1
40
1
41
1
10
-153
20
-7.59934207678534
30
0
41
1
10
-153.193848947804
20
-7.09342533428516
30
0
41
1
10
-153.546848939113
20
-6.07137023405653
30
0
41
1
10
-153.983285344198
20
-4.49483519955335
30
0
41
1
10
-154.30014190867
20
-2.87847429765577
30
0
41
1
10
-154.486142867264
20
-1.21180194070349
30
0
41
1
10
-154.519256806611
20
0.48309378478525
30
0
41
1
10
-154.395151830943
20
2.21050446840666
30
0
41
1
10
-154.110626799948
20
3.93774632007476
30
0
41
1
10
-153.653222178841
20
5.74809142405058
30
0
41
1
10
-153.247329571924
20
6.95682518437252
30
0
41
1
10
-153
20
7.59934207678535
30
0
0
SPLINE
5
DC
100
AcDbEntity
8
1
62
256
6
ByLayer
370
18
48
1
60
0
100
AcDbSpline
70
4
71
3
72
12
73
8
40
0
40
0
40
0
40
0
40
0.0814684080197949
40
0.282954387161687
40
0.496494800032559
40
0.831758491132773
40
1
40
1
40
1
40
1
41
1
10
127.555
20
-19.7700000000001
30
0
41
1
10
127.555015582329
20
-19.7699841495472
30
0
41
1
10
127.556077393944
20
-19.7689115960187
30
0
41
1
10
127.564760637255
20
-19.7601387505969
30
0
41
1
10
127.589381414209
20
-19.7352841727276
30
0
41
1
10
127.622628100026
20
-19.7017721569451
30
0
41
1
10
127.648254823464
20
-19.6759963201806
30
0
41
1
10
127.657250000005
20
-19.6669526077322
30
0
0
SPLINE
5
DD
100
AcDbEntity
8
1
62
256
6
ByLayer
370
18
48
1
60
0
100
AcDbSpline
70
4
71
2
72
6
73
3
40
0
40
0
40
0
40
1
40
1
40
1
41
1
10
128.216525403784
20
-4.78370164142963
30
0
41
1
10
127.853727711684
20
-6.21778647709553
30
0
41
1
10
127.325
20
-7.59934207678536
30
0
0
SPLINE
5
DE
100
AcDbEntity
8
1
62
256
6
ByLayer
370
18
48
1
60
0
100
AcDbSpline
70
4
71
3
72
14
73
10
40
0
40
0
40
0
40
0
40
0.108418701021887
40
0.180167597010955
40
0.252422528712065
40
0.317844072553165
40
0.418649479187716
40
0.607004012534389
40
1
40
1
40
1
40
1
41
1
10
127.657250000027
20
-8.31653196334183
30
0
41
1
10
127.649971415859
20
-8.32526615338199
30
0
41
1
10
127.637423488915
20
-8.33672320355464
30
0
41
1
10
127.6181585045
20
-8.34746564858046
30
0
41
1
10
127.602527381033
20
-8.34864670440959
30
0
41
1
10
127.587727804689
20
-8.3412071876312
30
0
41
1
10
127.572043538821
20
-8.31933184841535
30
0
41
1
10
127.557258581184
20
-8.26135863170582
30
0
41
1
10
127.552549383968
20
-8.20802499444386
30
0
41
1
10
127.555038128083
20
-8.16757126881079
30
0
0
SPLINE
5
DF
100
AcDbEntity
8
1
62
256
6
ByLayer
370
18
48
1
60
0
100
AcDbSpline
70
4
71
1
72
4
73
2
40
0
40
0
40
1
40
1
41
1
10
128.325
20
-7.54573071745728
30
0
41
1
10
127.65725
20
-8.31653196336452
30
0
0
SPLINE
5
E0
100
AcDbEntity
8
1
62
256
6
ByLayer
370
18
48
1
60
0
100
AcDbSpline
70
4
71
1
72
4
73
2
40
0
40
0
40
1
40
1
41
1
10
127.65725
20
-10.4256727570725
30
0
41
1
10
128.325
20
-8.35863214197953
30
0
0
SPLINE
5
E1
100
AcDbEntity
8
1
62
256
6
ByLayer
370
18
48
1
60
0
100
AcDbSpline
70
4
71
3
72
14
73
10
40
0
40
0
40
0
40
0
40
0.0783829871385159
40
0.215707446420655
40
0.31781229082291
40
0.419869148103338
40
0.563517127420494
40
0.809794822449012
40
1
40
1
40
1
40
1
41
1
10
127.65725000001
20
-10.9719368077073
30
0
41
1
10
127.652444151996
20
-10.9765324929059
30
0
41
1
10
127.639151691486
20
-10.9877108997616
30
0
41
1
10
127.618336548231
20
-11.0001173756791
30
0
41
1
10
127.597444554273
20
-11.0028007933594
30
0
41
1
10
127.580149715048
20
-10.9953555751339
30
0
41
1
10
127.563926018898
20
-10.9720067645132
30
0
41
1
10
127.556259895161
20
-10.9328510655049
30
0
41
1
10
127.554587480467
20
-10.9011800376171
30
0
41
1
10
127.555017244399
20
-10.8864398912318
30
0
0
SPLINE
5
E2
100
AcDbEntity
8
1
62
256
6
ByLayer
370
18
48
1
60
0
100
AcDbSpline
70
4
71
1
72
4
73
2
40
0
40
0
40
1
40
1
41
1
10
128.325
20
-10.3440885798799
30
0
41
1
10
127.65725
20
-10.9719368077128
30
0
0
SPLINE
5
E3
100
AcDbEntity
8
1
62
256
6
ByLayer
370
18
48
1
60
0
100
AcDbSpline
70
4
71
1
72
4
73
2
40
0
40
0
40
1
40
1
41
1
10
127.65725
20
-12.5090350955933
30
0
41
1
10
128.325
20
-10.899752969536
30
0
0
SPLINE
5
E4
100
AcDbEntity
8
1
62
256
6
ByLayer
370
18
48
1
60
0
100
AcDbSpline
70
4
71
3
72
13
73
9
40
0
40
0
40
0
40
0
40
0.110242213151506
40
0.28255727552937
40
0.412606166268991
40
0.542428032765852
40
0.733732087688855
40
1
40
1
40
1
40
1
41
1
10
127.657250000004
20
-12.9267973886488
30
0
41
1
10
127.650803050241
20
-12.9324740321066
30
0
41
1
10
127.634460670417
20
-12.9449728016787
30
0
41
1
10
127.609769049183
20
-12.9576961890999
30
0
41
1
10
127.587437063047
20
-12.9584727781846
30
0
41
1
10
127.569985716961
20
-12.9480918057826
30
0
41
1
10
127.557500913942
20
-12.9211431497263
30
0
41
1
10
127.554230160885
20
-12.8950860188414
30
0
41
1
10
127.555002425298
20
-12.8772250208738
30
0
0
SPLINE
5
E5
100
AcDbEntity
8
1
62
256
6
ByLayer
370
18
48
1
60
0
100
AcDbSpline
70
4
71
1
72
4
73
2
40
0
40
0
40
1
40
1
41
1
10
128.325
20
-12.3516106251949
30
0
41
1
10
127.65725
20
-12.9267973886505
30
0
0
SPLINE
5
E6
100
AcDbEntity
8
1
62
256
6
ByLayer
370
18
48
1
60
0
100
AcDbSpline
70
4
71
1
72
4
73
2
40
0
40
0
40
1
40
1
41
1
10
127.65725
20
-14.1335510614993
30
0
41
1
10
128.325
20
-12.7766387719496
30
0
0
SPLINE
5
E7
100
AcDbEntity
8
1
62
256
6
ByLayer
370
18
48
1
60
0
100
AcDbSpline
70
4
71
3
72
13
73
9
40
0
40
0
40
0
40
0
40
0.138853390640138
40
0.341511995921563
40
0.518494759973423
40
0.669260172088949
40
0.905494557461886
40
1
40
1
40
1
40
1
41
1
10
127.657250000002
20
-14.4679225924795
30
0
41
1
10
127.64930360173
20
-14.4746550714136
30
0
41
1
10
127.63025527438
20
-14.4886415791471
30
0
41
1
10
127.60109405941
20
-14.5028441627021
30
0
41
1
10
127.577380561363
20
-14.5015211440536
30
0
41
1
10
127.561214372378
20
-14.4866340293344
30
0
41
1
10
127.55569115143
20
-14.4645423845891
30
0
41
1
10
127.554915850397
20
-14.4472215794256
30
0
41
1
10
127.555003412463
20
-14.4419827618974
30
0
0
SPLINE
5
E8
100
AcDbEntity
8
1
62
256
6
ByLayer
370
18
48
1
60
0
100
AcDbSpline
70
4
71
1
72
4
73
2
40
0
40
0
40
1
40
1
41
1
10
128.325
20
-13.9148985452446
30
0
41
1
10
127.65725
20
-14.4679225924802
30
0
0
SPLINE
5
E9
100
AcDbEntity
8
1
62
256
6
ByLayer
370
18
48
1
60
0
100
AcDbSpline
70
4
71
1
72
4
73
2
40
0
40
0
40
1
40
1
41
1
10
127.65725
20
-15.4446939818576
30
0
41
1
10
128.325
20
-14.2541356041277
30
0
0
SPLINE
5
EA
100
AcDbEntity
8
1
62
256
6
ByLayer
370
18
48
1
60
0
100
AcDbSpline
70
4
71
3
72
13
73
9
40
0
40
0
40
0
40
0
40
0.166242911182836
40
0.360375890725084
40
0.555799720089195
40
0.724316208407325
40
0.963610848020896
40
1
40
1
40
1
40
1
41
1
10
127.657250000001
20
-15.7174895437143
30
0
41
1
10
127.647934269861
20
-15.7252528119713
30
0
41
1
10
127.628418910791
20
-15.7394466809581
30
0
41
1
10
127.598923790555
20
-15.7545791493185
30
0
41
1
10
127.575130693618
20
-15.756077901086
30
0
41
1
10
127.559249471884
20
-15.7435020486445
30
0
41
1
10
127.555257148098
20
-15.7256644826509
30
0
41
1
10
127.554989085093
20
-15.712940665717
30
0
41
1
10
127.555000472764
20
-15.7112166191106
30
0
0
SPLINE
5
EB
100
AcDbEntity
8
1
62
256
6
ByLayer
370
18
48
1
60
0
100
AcDbSpline
70
4
71
1
72
4
73
2
40
0
40
0
40
1
40
1
41
1
10
128.325
20
-15.1718989586826
30
0
41
1
10
127.65725
20
-15.7174895437146
30
0
0
SPLINE
5
EC
100
AcDbEntity
8
1
62
256
6
ByLayer
370
18
48
1
60
0
100
AcDbSpline
70
4
71
1
72
4
73
2
40
0
40
0
40
1
40
1
41
1
10
127.65725
20
-16.5172600263618
30
0
41
1
10
128.325
20
-15.4472737184539
30
0
0
SPLINE
5
ED
100
AcDbEntity
8
1
62
256
6
ByLayer
370
18
48
1
60
0
100
AcDbSpline
70
4
71
3
72
12
73
8
40
0
40
0
40
0
40
0
40
0.191366235578283
40
0.40070542439469
40
0.611426159911753
40
0.793354321085322
40
1
40
1
40
1
40
1
41
1
10
127.65725
20
-16.7409130865538
30
0
41
1
10
127.646627503721
20
-16.7497667997621
30
0
41
1
10
127.625380799525
20
-16.7653795144078
30
0
41
1
10
127.594288505919
20
-16.7819777186297
30
0
41
1
10
127.570624438789
20
-16.7844723098295
30
0
41
1
10
127.557467676365
20
-16.7729577055611
30
0
41
1
10
127.554735111693
20
-16.7597810462402
30
0
41
1
10
127.555000725937
20
-16.7508635079356
30
0
0
SPLINE
5
EE
100
AcDbEntity
8
1
62
256
6
ByLayer
370
18
48
1
60
0
100
AcDbSpline
70
4
71
1
72
4
73
2
40
0
40
0
40
1
40
1
41
1
10
128.325
20
-16.1940925803362
30
0
41
1
10
127.65725
20
-16.740913086554
30
0
0
SPLINE
5
EF
100
AcDbEntity
8
1
62
256
6
ByLayer
370
18
48
1
60
0
100
AcDbSpline
70
4
71
1
72
4
73
2
40
0
40
0
40
1
40
1
41
1
10
127.65725
20
-17.3954357623968
30
0
41
1
10
128.325
20
-16.4181652094506
30
0
0
SPLINE
5
F0
100
AcDbEntity
8
1
62
256
6
ByLayer
370
18
48
1
60
0
100
AcDbSpline
70
4
71
3
72
12
73
8
40
0
40
0
40
0
40
0
40
0.215086515550244
40
0.43743863671422
40
0.661293538621266
40
0.853843971396751
40
1
40
1
40
1
40
1
41
1
10
127.65725
20
-17.57773774939
30
0
41
1
10
127.645373678305
20
-17.5877389163179
30
0
41
1
10
127.622562049811
20
-17.6048994976595
30
0
41
1
10
127.590147318654
20
-17.6233332368948
30
0
41
1
10
127.566888680885
20
-17.6271121694884
30
0
41
1
10
127.556591726899
20
-17.6176023962012
30
0
41
1
10
127.554873954984
20
-17.607528238927
30
0
41
1
10
127.55500147232
20
-17.6022405721772
30
0
0
SPLINE
5
F1
100
AcDbEntity
8
1
62
256
6
ByLayer
370
18
48
1
60
0
100
AcDbSpline
70
4
71
1
72
4
73
2
40
0
40
0
40
1
40
1
41
1
10
128.325
20
-17.0238289168014
30
0
41
1
10
127.65725
20
-17.5777377493901
30
0
0
SPLINE
5
F2
100
AcDbEntity
8
1
62
256
6
ByLayer
370
18
48
1
60
0
100
AcDbSpline
70
4
71
1
72
4
73
2
40
0
40
0
40
1
40
1
41
1
10
127.65725
20
-18.1075258373112
30
0
41
1
10
128.325
20
-17.2044771021031
30
0
0
SPLINE
5
F3
100
AcDbEntity
8
1
62
256
6
ByLayer
370
18
48
1
60
0
100
AcDbSpline
70
4
71
3
72
12
73
8
40
0
40
0
40
0
40
0
40
0.238383637776271
40
0.472578322840677
40
0.708422830413712
40
0.909970655360703
40
1
40
1
40
1
40
1
41
1
10
127.65725
20
-18.2536450551968
30
0
41
1
10
127.644154353144
20
-18.264869634683
30
0
41
1
10
127.619908768226
20
-18.2837252912934
30
0
41
1
10
127.586411318166
20
-18.3043177379197
30
0
41
1
10
127.563744385307
20
-18.3097189328798
30
0
41
1
10
127.555900889281
20
-18.3020816888986
30
0
41
1
10
127.554957692868
20
-18.2945959471498
30
0
41
1
10
127.555000724703
20
-18.2919300405606
30
0
0
SPLINE
5
F4
100
AcDbEntity
8
1
62
256
6
ByLayer
370
18
48
1
60
0
100
AcDbSpline
70
4
71
1
72
4
73
2
40
0
40
0
40
1
40
1
41
1
10
128.325
20
-17.6882126704918
30
0
41
1
10
127.65725
20
-18.2536450551968
30
0
0
SPLINE
5
F5
100
AcDbEntity
8
1
62
256
6
ByLayer
370
18
48
1
60
0
100
AcDbSpline
70
4
71
1
72
4
73
2
40
0
40
0
40
1
40
1
41
1
10
127.65725
20
-18.6725412982303
30
0
41
1
10
128.325
20
-17.8306454136906
30
0
0
SPLINE
5
F6
100
AcDbEntity
8
1
62
256
6
ByLayer
370
18
48
1
60
0
100
AcDbSpline
70
4
71
3
72
12
73
8
40
0
40
0
40
0
40
0
40
0.26119213942636
40
0.505956728872204
40
0.752535483089828
40
0.961563574781979
40
1
40
1
40
1
40
1
41
1
10
127.65725
20
-18.7860121158241
30
0
41
1
10
127.64295433266
20
-18.798555389981
30
0
41
1
10
127.617380061952
20
-18.8192714267596
30
0
41
1
10
127.583004380813
20
-18.8423427456429
30
0
41
1
10
127.561085004117
20
-18.8496710722453
30
0
41
1
10
127.555355221632
20
-18.8437531907419
30
0
41
1
10
127.554994103838
20
-18.8383826837502
30
0
41
1
10
127.555000075114
20
-18.8374837408245
30
0
0
SPLINE
5
F7
100
AcDbEntity
8
1
62
256
6
ByLayer
370
18
48
1
60
0
100
AcDbSpline
70
4
71
1
72
4
73
2
40
0
40
0
40
1
40
1
41
1
10
128.325
20
-18.2053559142515
30
0
41
1
10
127.65725
20
-18.7860121158241
30
0
0
SPLINE
5
F8
100
AcDbEntity
8
1
62
256
6
ByLayer
370
18
48
1
60
0
100
AcDbSpline
70
4
71
1
72
4
73
2
40
0
40
0
40
1
40
1
41
1
10
127.65725
20
-19.1035364558329
30
0
41
1
10
128.325
20
-18.3131045806204
30
0
0
SPLINE
5
F9
100
AcDbEntity
8
1
62
256
6
ByLayer
370
18
48
1
60
0
100
AcDbSpline
70
4
71
3
72
12
73
8
40
0
40
0
40
0
40
0
40
0.282977018566779
40
0.536553999364215
40
0.750837094272309
40
0.965613435476461
40
1
40
1
40
1
40
1
41
1
10
127.65725
20
-19.1867908893245
30
0
41
1
10
127.641760186522
20
-19.2007697381245
30
0
41
1
10
127.614943225208
20
-19.2235385350738
30
0
41
1
10
127.581692039333
20
-19.248055497566
30
0
41
1
10
127.561024500697
20
-19.258175617789
30
0
41
1
10
127.555340370391
20
-19.2556494640046
30
0
41
1
10
127.554996731975
20
-19.2516310044636
30
0
41
1
10
127.555000030128
20
-19.2510233429179
30
0
0
SPLINE
5
FA
100
AcDbEntity
8
1
62
256
6
ByLayer
370
18
48
1
60
0
100
AcDbSpline
70
4
71
1
72
4
73
2
40
0
40
0
40
1
40
1
41
1
10
128.325
20
-18.587552298584
30
0
41
1
10
127.65725
20
-19.1867908893246
30
0
0
SPLINE
5
FB
100
AcDbEntity
8
1
62
256
6
ByLayer
370
18
48
1
60
0
100
AcDbSpline
70
4
71
1
72
4
73
2
40
0
40
0
40
1
40
1
41
1
10
127.65725
20
-19.4094413032565
30
0
41
1
10
128.325
20
-18.6630030512969
30
0
0
SPLINE
5
FC
100
AcDbEntity
8
1
62
256
6
ByLayer
370
18
48
1
60
0
100
AcDbSpline
70
4
71
3
72
11
73
7
40
0
40
0
40
0
40
0
40
0.304632312554677
40
0.566084194491765
40
0.784880098668215
40
1
40
1
40
1
40
1
41
1
10
127.65725
20
-19.4641115400998
30
0
41
1
10
127.64055915088
20
-19.4796684885192
30
0
41
1
10
127.612558144472
20
-19.5047063539097
30
0
41
1
10
127.578899199237
20
-19.5321569777169
30
0
41
1
10
127.559153228532
20
-19.5445727998413
30
0
41
1
10
127.555154530637
20
-19.5435466217527
30
0
41
1
10
127.555000003065
20
-19.5410513391963
30
0
0
SPLINE
5
FD
100
AcDbEntity
8
1
62
256
6
ByLayer
370
18
48
1
60
0
100
AcDbSpline
70
4
71
1
72
4
73
2
40
0
40
0
40
1
40
1
41
1
10
128.325
20
-18.8430150703283
30
0
41
1
10
127.65725
20
-19.4641115400998
30
0
0
SPLINE
5
FE
100
AcDbEntity
8
1
62
256
6
ByLayer
370
18
48
1
60
0
100
AcDbSpline
70
4
71
1
72
4
73
2
40
0
40
0
40
1
40
1
41
1
10
127.65725
20
-19.5961148774389
30
0
41
1
10
128.325
20
-18.8877094006841
30
0
0
SPLINE
5
FF
100
AcDbEntity
8
1
62
256
6
ByLayer
370
18
48
1
60
0
100
AcDbSpline
70
4
71
3
72
11
73
7
40
0
40
0
40
0
40
0
40
0.372996890536694
40
0.628682077128835
40
0.886371579237597
40
1
40
1
40
1
40
1
41
1
10
127.65725
20
-19.6232090000648
30
0
41
1
10
127.636507587211
20
-19.6432655346523
30
0
41
1
10
127.606116904081
20
-19.6719382822497
30
0
41
1
10
127.57095169087
20
-19.7034254966986
30
0
41
1
10
127.556864851729
20
-19.7140265710949
30
0
41
1
10
127.55502596866
20
-19.7136706022193
30
0
41
1
10
127.555000044758
20
-19.713003127651
30
0
0
SPLINE
5
100
100
AcDbEntity
8
1
62
256
6
ByLayer
370
18
48
1
60
0
100
AcDbSpline
70
4
71
1
72
4
73
2
40
0
40
0
40
1
40
1
41
1
10
128.325
20
-18.9768631082338
30
0
41
1
10
127.65725
20
-19.6232090000648
30
0
0
SPLINE
5
101
100
AcDbEntity
8
1
62
256
6
ByLayer
370
18
48
1
60
0
100
AcDbSpline
70
4
71
1
72
4
73
2
40
0
40
0
40
1
40
1
41
1
10
127.65725
20
-19.6669526077377
30
0
41
1
10
128.325
20
-18.9916679077081
30
0
0
SPLINE
5
102
100
AcDbEntity
8
1
62
256
6
ByLayer
370
18
48
1
60
0
100
AcDbSpline
70
4
71
2
72
6
73
3
40
0
40
0
40
0
40
1
40
1
40
1
41
1
10
127.65725
20
-7.51088182920899
30
0
41
1
10
127.993990226295
20
-6.16290737147494
30
0
41
1
10
128.216525403784
20
-4.78370164142963
30
0
0
SPLINE
5
103
100
AcDbEntity
8
1
62
256
6
ByLayer
370
18
48
1
60
0
100
AcDbSpline
70
4
71
3
72
10
73
6
40
0
40
0
40
0
40
0
40
0.0828530494590956
40
0.540768821894496
40
1
40
1
40
1
40
1
41
1
10
127.325
20
7.59934207678535
30
0
41
1
10
127.354003765068
20
7.52305922198452
30
0
41
1
10
127.540960368305
20
7.02437030145229
30
0
41
1
10
127.86114784047
20
6.09211977047526
30
0
41
1
10
128.105641406963
20
5.22273104195834
30
0
41
1
10
128.216525403784
20
4.78370164142966
30
0
0
SPLINE
5
104
100
AcDbEntity
8
1
62
256
6
ByLayer
370
18
48
1
60
0
100
AcDbSpline
70
4
71
1
72
4
73
2
40
0
40
0
40
1
40
1
41
1
10
127.65725
20
18.2536450551968
30
0
41
1
10
128.325
20
17.6882126704918
30
0
0
SPLINE
5
105
100
AcDbEntity
8
1
62
256
6
ByLayer
370
18
48
1
60
0
100
AcDbSpline
70
4
71
3
72
11
73
7
40
0
40
0
40
0
40
0
40
0.469351758654618
40
0.761993777863512
40
0.988709287791782
40
1
40
1
40
1
40
1
41
1
10
127.65725
20
18.1075258373112
30
0
41
1
10
127.630514136621
20
18.1426232148382
30
0
41
1
10
127.595252507034
20
18.1949484938443
30
0
41
1
10
127.562509008144
20
18.2570863381311
30
0
41
1
10
127.555160567664
20
18.2829901513205
30
0
41
1
10
127.555001680443
20
18.2916794237047
30
0
41
1
10
127.555000066085
20
18.2920865754871
30
0
0
SPLINE
5
106
100
AcDbEntity
8
1
62
256
6
ByLayer
370
18
48
1
60
0
100
AcDbSpline
70
4
71
1
72
4
73
2
40
0
40
0
40
1
40
1
41
1
10
128.325
20
17.2044771021031
30
0
41
1
10
127.65725
20
18.1075258373112
30
0
0
SPLINE
5
107
100
AcDbEntity
8
1
62
256
6
ByLayer
370
18
48
1
60
0
100
AcDbSpline
70
4
71
1
72
4
73
2
40
0
40
0
40
1
40
1
41
1
10
127.65725
20
17.5777377493901
30
0
41
1
10
128.325
20
17.0238289168014
30
0
0
SPLINE
5
108
100
AcDbEntity
8
1
62
256
6
ByLayer
370
18
48
1
60
0
100
AcDbSpline
70
4
71
3
72
10
73
6
40
0
40
0
40
0
40
0
40
0.500655634822279
40
0.790172015434995
40
1
40
1
40
1
40
1
41
1
10
127.65725
20
17.3954357623968
30
0
41
1
10
127.628459400728
20
17.4360513359832
30
0
41
1
10
127.592593064923
20
17.495054100592
30
0
41
1
10
127.560646526087
20
17.5654106931591
30
0
41
1
10
127.555617495467
20
17.5922713314739
30
0
41
1
10
127.555000081396
20
17.6025456257451
30
0
0
SPLINE
5
109
100
AcDbEntity
8
1
62
256
6
ByLayer
370
18
48
1
60
0
100
AcDbSpline
70
4
71
1
72
4
73
2
40
0
40
0
40
1
40
1
41
1
10
128.325
20
16.4181652094506
30
0
41
1
10
127.65725
20
17.3954357623968
30
0
0
SPLINE
5
10A
100
AcDbEntity
8
1
62
256
6
ByLayer
370
18
48
1
60
0
100
AcDbSpline
70
4
71
1
72
4
73
2
40
0
40
0
40
1
40
1
41
1
10
127.65725
20
16.740913086554
30
0
41
1
10
128.325
20
16.1940925803362
30
0
0
SPLINE
5
10B
100
AcDbEntity
8
1
62
256
6
ByLayer
370
18
48
1
60
0
100
AcDbSpline
70
4
71
3
72
10
73
6
40
0
40
0
40
0
40
0
40
0.538057462057362
40
0.818130138821888
40
1
40
1
40
1
40
1
41
1
10
127.65725
20
16.5172600263618
30
0
41
1
10
127.626027033555
20
16.5650666634061
30
0
41
1
10
127.589523572285
20
16.6324796523194
30
0
41
1
10
127.55969065873
20
16.7107563317592
30
0
41
1
10
127.55549982106
20
16.7400235417016
30
0
41
1
10
127.555000929875
20
16.7508182535807
30
0
0
SPLINE
5
10C
100
AcDbEntity
8
1
62
256
6
ByLayer
370
18
48
1
60
0
100
AcDbSpline
70
4
71
1
72
4
73
2
40
0
40
0
40
1
40
1
41
1
10
128.325
20
15.4472737184539
30
0
41
1
10
127.65725
20
16.5172600263618
30
0
0
SPLINE
5
10D
100
AcDbEntity
8
1
62
256
6
ByLayer
370
18
48
1
60
0
100
AcDbSpline
70
4
71
1
72
4
73
2
40
0
40
0
40
1
40
1
41
1
10
127.65725
20
15.7174895437146
30
0
41
1
10
128.325
20
15.1718989586826
30
0
0
SPLINE
5
10E
100
AcDbEntity
8
1
62
256
6
ByLayer
370
18
48
1
60
0
100
AcDbSpline
70
4
71
3
72
10
73
6
40
0
40
0
40
0
40
0
40
0.547301222737613
40
0.825627972936671
40
1
40
1
40
1
40
1
41
1
10
127.65725
20
15.4446939818576
30
0
41
1
10
127.625542403747
20
15.4982707951335
30
0
41
1
10
127.588937240184
20
15.5744018380708
30
0
41
1
10
127.559737360317
20
15.6632659657323
30
0
41
1
10
127.555569917055
20
15.6975178942071
30
0
41
1
10
127.555008535533
20
15.7101151220355
30
0
0
SPLINE
5
10F
100
AcDbEntity
8
1
62
256
6
ByLayer
370
18
48
1
60
0
100
AcDbSpline
70
4
71
1
72
4
73
2
40
0
40
0
40
1
40
1
41
1
10
128.325
20
14.2541356041277
30
0
41
1
10
127.65725
20
15.4446939818576
30
0
0
SPLINE
5
110
100
AcDbEntity
8
1
62
256
6
ByLayer
370
18
48
1
60
0
100
AcDbSpline
70
4
71
1
72
4
73
2
40
0
40
0
40
1
40
1
41
1
10
127.65725
20
14.4679225924802
30
0
41
1
10
128.325
20
13.9148985452446
30
0
0
SPLINE
5
111
100
AcDbEntity
8
1
62
256
6
ByLayer
370
18
48
1
60
0
100
AcDbSpline
70
4
71
3
72
10
73
6
40
0
40
0
40
0
40
0
40
0.613007207669814
40
0.83959227789816
40
1
40
1
40
1
40
1
41
1
10
127.65725
20
14.1335510614993
30
0
41
1
10
127.621142460231
20
14.201961925812
30
0
41
1
10
127.584893743717
20
14.2907442787931
30
0
41
1
10
127.558712646654
20
14.3926061992164
30
0
41
1
10
127.555429709201
20
14.4278624777636
30
0
41
1
10
127.555003423148
20
14.4419810199694
30
0
0
SPLINE
5
112
100
AcDbEntity
8
1
62
256
6
ByLayer
370
18
48
1
60
0
100
AcDbSpline
70
4
71
1
72
4
73
2
40
0
40
0
40
1
40
1
41
1
10
128.325
20
12.7766387719496
30
0
41
1
10
127.65725
20
14.1335510614993
30
0
0
SPLINE
5
113
100
AcDbEntity
8
1
62
256
6
ByLayer
370
18
48
1
60
0
100
AcDbSpline
70
4
71
1
72
4
73
2
40
0
40
0
40
1
40
1
41
1
10
127.65725
20
12.9267973886505
30
0
41
1
10
128.325
20
12.3516106251949
30
0
0
SPLINE
5
114
100
AcDbEntity
8
1
62
256
6
ByLayer
370
18
48
1
60
0
100
AcDbSpline
70
4
71
2
72
6
73
3
40
0
40
0
40
0
40
1
40
1
40
1
41
1
10
127.65725
20
12.5090350955933
30
0
41
1
10
127.56449452426
20
12.7076362690426
30
0
41
1
10
127.555002402522
20
12.8772305165887
30
0
0
SPLINE
5
115
100
AcDbEntity
8
1
62
256
6
ByLayer
370
18
48
1
60
0
100
AcDbSpline
70
4
71
1
72
4
73
2
40
0
40
0
40
1
40
1
41
1
10
128.325
20
10.899752969536
30
0
41
1
10
127.65725
20
12.5090350955933
30
0
0
SPLINE
5
116
100
AcDbEntity
8
1
62
256
6
ByLayer
370
18
48
1
60
0
100
AcDbSpline
70
4
71
1
72
4
73
2
40
0
40
0
40
1
40
1
41
1
10
127.65725
20
10.9719368077128
30
0
41
1
10
128.325
20
10.3440885798799
30
0
0
SPLINE
5
117
100
AcDbEntity
8
1
62
256
6
ByLayer
370
18
48
1
60
0
100
AcDbSpline
70
4
71
2
72
6
73
3
40
0
40
0
40
0
40
1
40
1
40
1
41
1
10
127.65725
20
10.4256727570725
30
0
41
1
10
127.564248120375
20
10.6687947747667
30
0
41
1
10
127.555011360507
20
10.8872087149763
30
0
0
SPLINE
5
118
100
AcDbEntity
8
1
62
256
6
ByLayer
370
18
48
1
60
0
100
AcDbSpline
70
4
71
1
72
4
73
2
40
0
40
0
40
1
40
1
41
1
10
128.325
20
8.35863214197953
30
0
41
1
10
127.65725
20
10.4256727570725
30
0
0
SPLINE
5
119
100
AcDbEntity
8
1
62
256
6
ByLayer
370
18
48
1
60
0
100
AcDbSpline
70
4
71
1
72
4
73
2
40
0
40
0
40
1
40
1
41
1
10
127.65725
20
8.31653196337295
30
0
41
1
10
128.325
20
7.54573071745728
30
0
0
SPLINE
5
11A
100
AcDbEntity
8
1
62
256
6
ByLayer
370
18
48
1
60
0
100
AcDbSpline
70
4
71
3
72
10
73
6
40
0
40
0
40
0
40
0
40
0.532327471744195
40
0.833599534488236
40
1
40
1
40
1
40
1
41
1
10
127.65725
20
7.51088182920899
30
0
41
1
10
127.627311546927
20
7.62947589062383
30
0
41
1
10
127.591106560034
20
7.81323255642336
30
0
41
1
10
127.558371562559
20
8.03392348671725
30
0
41
1
10
127.55512048653
20
8.13331899347962
30
0
41
1
10
127.55503138987
20
8.16839397322263
30
0
0
SPLINE
5
11B
100
AcDbEntity
8
1
62
256
6
ByLayer
370
18
48
1
60
0
100
AcDbSpline
70
4
71
1
72
4
73
2
40
0
40
0
40
1
40
1
41
1
10
127.795549941391
20
18.5
30
0
41
1
10
127.325
20
18.5
30
0
0
SPLINE
5
11C
100
AcDbEntity
8
1
62
256
6
ByLayer
370
18
48
1
60
0
100
AcDbSpline
70
4
71
1
72
4
73
2
40
0
40
0
40
1
40
1
41
1
10
128.325
20
17.8306454136906
30
0
41
1
10
127.795549941391
20
18.5
30
0
0
SPLINE
5
11D
100
AcDbEntity
8
1
62
256
6
ByLayer
370
18
48
1
60
0
100
AcDbSpline
70
4
71
2
72
6
73
3
40
0
40
0
40
0
40
1
40
1
40
1
41
1
10
128.216525403784
20
4.78370164142966
30
0
41
1
10
127.993993350758
20
6.16290429098933
30
0
41
1
10
127.65725
20
7.51088182920899
30
0
0
SPLINE
5
11E
100
AcDbEntity
8
1
62
256
6
ByLayer
370
18
48
1
60
0
100
AcDbSpline
70
4
71
3
72
14
73
10
40
0
40
0
40
0
40
0
40
0.287575987659002
40
0.59005608826016
40
0.67973059178305
40
0.750554707098794
40
0.821712627395201
40
0.902192848614391
40
1
40
1
40
1
40
1
41
1
10
127.55503138987
20
8.16839397322263
30
0
41
1
10
127.553750469308
20
8.19725849610814
30
0
41
1
10
127.557233909261
20
8.25172471982699
30
0
41
1
10
127.567713507383
20
8.31385691431817
30
0
41
1
10
127.588436644206
20
8.34169214268607
30
0
41
1
10
127.60287063449
20
8.34879122758401
30
0
41
1
10
127.619472193805
20
8.34713922347699
30
0
41
1
10
127.638437550162
20
8.33580917716801
30
0
41
1
10
127.650736120678
20
8.32429921370475
30
0
41
1
10
127.657249999996
20
8.31653196336871
30
0
0
SPLINE
5
11F
100
AcDbEntity
8
1
62
256
6
ByLayer
370
18
48
1
60
0
100
AcDbSpline
70
4
71
3
72
10
73
6
40
0
40
0
40
0
40
0
40
0.0927554397802762
40
0.545697818068536
40
1
40
1
40
1
40
1
41
1
10
127.555038128083
20
-8.16757126881079
30
0
41
1
10
127.555388989701
20
-8.14798419455138
30
0
41
1
10
127.559039956352
20
-8.03232126157543
30
0
41
1
10
127.588693640007
20
-7.81167793161022
30
0
41
1
10
127.630758281869
20
-7.6119288053595
30
0
41
1
10
127.65725
20
-7.51088182920902
30
0
0
SPLINE
5
120
100
AcDbEntity
8
1
62
256
6
ByLayer
370
18
48
1
60
0
100
AcDbSpline
70
4
71
3
72
14
73
10
40
0
40
0
40
0
40
0
40
0.134830546589748
40
0.4322785711746
40
0.556416845271824
40
0.681679785607465
40
0.793859150360949
40
0.921826329767057
40
1
40
1
40
1
40
1
41
1
10
127.555011360507
20
10.8872087149762
30
0
41
1
10
127.554794910831
20
10.8975213538897
30
0
41
1
10
127.555917857637
20
10.9291166454891
30
0
41
1
10
127.562018268893
20
10.9678387965236
30
0
41
1
10
127.579160760749
20
10.9943615848696
30
0
41
1
10
127.596635088183
20
11.0032599089765
30
0
41
1
10
127.619157766394
20
10.9997522682054
30
0
41
1
10
127.639812086508
20
10.9871545656548
30
0
41
1
10
127.652478051636
20
10.9764938403015
30
0
41
1
10
127.65725
20
10.9719368077128
30
0
0
SPLINE
5
121
100
AcDbEntity
8
1
62
256
6
ByLayer
370
18
48
1
60
0
100
AcDbSpline
70
4
71
3
72
10
73
6
40
0
40
0
40
0
40
0
40
0.18304833156477
40
0.859515705817823
40
1
40
1
40
1
40
1
41
1
10
127.555017244399
20
-10.8864398912318
30
0
41
1
10
127.555942472327
20
-10.8599843976351
30
0
41
1
10
127.564464988637
20
-10.7346650724014
30
0
41
1
10
127.606509813794
20
-10.5749695797467
30
0
41
1
10
127.649401846817
20
-10.4476588174962
30
0
41
1
10
127.65725
20
-10.4256727570727
30
0
0
SPLINE
5
122
100
AcDbEntity
8
1
62
256
6
ByLayer
370
18
48
1
60
0
100
AcDbSpline
70
4
71
3
72
14
73
10
40
0
40
0
40
0
40
0
40
0.0617078890033868
40
0.263114248683738
40
0.466061522331114
40
0.602372188178534
40
0.73917688090232
40
0.869036933416742
40
1
40
1
40
1
40
1
41
1
10
127.555002402522
20
12.8772305165887
30
0
41
1
10
127.554969421878
20
12.8811445502882
30
0
41
1
10
127.555292053417
20
12.8974714445143
30
0
41
1
10
127.55859860252
20
12.9245618991858
30
0
41
1
10
127.570451001359
20
12.9490076024356
30
0
41
1
10
127.589461027341
20
12.959120570745
30
0
41
1
10
127.610946039811
20
12.956830747443
30
0
41
1
10
127.634417727209
20
12.9448783803618
30
0
41
1
10
127.649564454984
20
12.9335762274619
30
0
41
1
10
127.65725
20
12.9267973886505
30
0
0
SPLINE
5
123
100
AcDbEntity
8
1
62
256
6
ByLayer
370
18
48
1
60
0
100
AcDbSpline
70
4
71
3
72
10
73
6
40
0
40
0
40
0
40
0
40
0.0340274245101822
40
0.415044787859109
40
1
40
1
40
1
40
1
41
1
10
127.555002425298
20
-12.8772250208738
30
0
41
1
10
127.555036900651
20
-12.8735391069519
30
0
41
1
10
127.55598463012
20
-12.8283224309488
30
0
41
1
10
127.58089688564
20
-12.7052962332344
30
0
41
1
10
127.622322050846
20
-12.5852936659419
30
0
41
1
10
127.65725
20
-12.5090350955933
30
0
0
SPLINE
5
124
100
AcDbEntity
8
1
62
256
6
ByLayer
370
18
48
1
60
0
100
AcDbSpline
70
4
71
3
72
13
73
9
40
0
40
0
40
0
40
0
40
0.106322020951562
40
0.308092026541494
40
0.51186172018422
40
0.687387669813974
40
0.838178876361873
40
1
40
1
40
1
40
1
41
1
10
127.555003423148
20
14.4419810199694
30
0
41
1
10
127.554902748484
20
14.4478807434843
30
0
41
1
10
127.5557309423
20
14.4639528573804
30
0
41
1
10
127.561449200833
20
14.4873359995496
30
0
41
1
10
127.578391104751
20
14.5028448339463
30
0
41
1
10
127.603424866665
20
14.501489161909
30
0
41
1
10
127.630477830277
20
14.4883501757058
30
0
41
1
10
127.647958903935
20
14.4758016130345
30
0
41
1
10
127.65725
20
14.4679225924802
30
0
0
SPLINE
5
125
100
AcDbEntity
8
1
62
256
6
ByLayer
370
18
48
1
60
0
100
AcDbSpline
70
4
71
3
72
10
73
6
40
0
40
0
40
0
40
0
40
0.192958189275848
40
0.662877134872666
40
1
40
1
40
1
40
1
41
1
10
127.555003412463
20
-14.4419827618974
30
0
41
1
10
127.555775357579
20
-14.4247468535211
30
0
41
1
10
127.562247184345
20
-14.3638370838713
30
0
41
1
10
127.599082328815
20
-14.2562196219806
30
0
41
1
10
127.638177661418
20
-14.1703207309281
30
0
41
1
10
127.65725
20
-14.1335510614993
30
0
0
SPLINE
5
126
100
AcDbEntity
8
1
62
256
6
ByLayer
370
18
48
1
60
0
100
AcDbSpline
70
4
71
3
72
13
73
9
40
0
40
0
40
0
40
0
40
0.156938698583255
40
0.349316531427541
40
0.543113493975799
40
0.71431267786054
40
0.930589975772169
40
1
40
1
40
1
40
1
41
1
10
127.555008535533
20
15.7101151220355
30
0
41
1
10
127.554764424077
20
15.7178825742427
30
0
41
1
10
127.556326840231
20
15.7330199523804
30
0
41
1
10
127.565117235662
20
15.7510191699905
30
0
41
1
10
127.58431428651
20
15.7571096349773
30
0
41
1
10
127.612372194197
20
15.74899564906
30
0
41
1
10
127.63767922616
20
15.7329360348717
30
0
41
1
10
127.653396743984
20
15.7206605365601
30
0
41
1
10
127.657250000002
20
15.717489543714
30
0
0
SPLINE
5
127
100
AcDbEntity
8
1
62
256
6
ByLayer
370
18
48
1
60
0
100
AcDbSpline
70
4
71
3
72
10
73
6
40
0
40
0
40
0
40
0
40
0.230543928053003
40
0.67024936846072
40
1
40
1
40
1
40
1
41
1
10
127.555000472764
20
-15.7112166191106
30
0
41
1
10
127.555973870088
20
-15.6941926951023
30
0
41
1
10
127.563390370997
20
-15.6424094026312
30
0
41
1
10
127.601280134767
20
-15.5483980008889
30
0
41
1
10
127.638677503405
20
-15.4764629670545
30
0
41
1
10
127.65725
20
-15.4446939818576
30
0
0
SPLINE
5
128
100
AcDbEntity
8
1
62
256
6
ByLayer
370
18
48
1
60
0
100
AcDbSpline
70
4
71
3
72
13
73
9
40
0
40
0
40
0
40
0
40
0.0632694644459641
40
0.276663840458804
40
0.491667190860655
40
0.67629728529203
40
0.911346290098561
40
1
40
1
40
1
40
1
41
1
10
127.555000929875
20
16.7508182535807
30
0
41
1
10
127.554969985234
20
16.7534297023435
30
0
41
1
10
127.55550091994
20
16.7641829123098
30
0
41
1
10
127.560935326727
20
16.779474812584
30
0
41
1
10
127.579425426928
20
16.7851478318844
30
0
41
1
10
127.607960906402
20
16.775927402437
30
0
41
1
10
127.635043745723
20
16.7584802199497
30
0
41
1
10
127.65241993903
20
16.744896680266
30
0
41
1
10
127.657250000005
20
16.7409130865524
30
0
0
SPLINE
5
129
100
AcDbEntity
8
1
62
256
6
ByLayer
370
18
48
1
60
0
100
AcDbSpline
70
4
71
3
72
11
73
7
40
0
40
0
40
0
40
0
40
0.0302362271658775
40
0.30056759395491
40
0.740596753790254
40
1
40
1
40
1
40
1
41
1
10
127.555000725937
20
-16.7508635079356
30
0
41
1
10
127.555017361135
20
-16.7491477519594
30
0
41
1
10
127.555575568673
20
-16.7318046022458
30
0
41
1
10
127.569149254964
20
-16.6789954170122
30
0
41
1
10
127.607837049872
20
-16.5985027415873
30
0
41
1
10
127.642867396602
20
-16.5396035419022
30
0
41
1
10
127.65725
20
-16.5172600263618
30
0
0
SPLINE
5
12A
100
AcDbEntity
8
1
62
256
6
ByLayer
370
18
48
1
60
0
100
AcDbSpline
70
4
71
3
72
13
73
9
40
0
40
0
40
0
40
0
40
0.0212809377381494
40
0.238561386112277
40
0.457168607694758
40
0.649648659773687
40
0.903508497126592
40
1
40
1
40
1
40
1
41
1
10
127.555000081396
20
17.6025456257451
30
0
41
1
10
127.55499712244
20
17.6032852321386
30
0
41
1
10
127.555161987585
20
17.6113772392832
30
0
41
1
10
127.559253003597
20
17.6236047693758
30
0
41
1
10
127.57688156024
20
17.6269244451722
30
0
41
1
10
127.605349565434
20
17.6158580447934
30
0
41
1
10
127.633524661658
20
17.5968329280773
30
0
41
1
10
127.652052428589
20
17.5820731962957
30
0
41
1
10
127.657250000005
20
17.5777377493885
30
0
0
SPLINE
5
12B
100
AcDbEntity
8
1
62
256
6
ByLayer
370
18
48
1
60
0
100
AcDbSpline
70
4
71
3
72
11
73
7
40
0
40
0
40
0
40
0
40
0.0812329922284285
40
0.361133281662948
40
0.796537058091801
40
1
40
1
40
1
40
1
41
1
10
127.55500147232
20
-17.6022405721772
30
0
41
1
10
127.555099462372
20
-17.5984504549656
30
0
41
1
10
127.556719074078
20
-17.5807097034471
30
0
41
1
10
127.574802179398
20
-17.5294836558493
30
0
41
1
10
127.613632517066
20
-17.4603267694139
30
0
41
1
10
127.646115482642
20
-17.4113458694242
30
0
41
1
10
127.65725
20
-17.3954357623967
30
0
0
SPLINE
5
12C
100
AcDbEntity
8
1
62
256
6
ByLayer
370
18
48
1
60
0
100
AcDbSpline
70
4
71
3
72
11
73
7
40
0
40
0
40
0
40
0
40
0.130632392229576
40
0.415548682631198
40
0.843413418810452
40
1
40
1
40
1
40
1
41
1
10
127.555000724703
20
-18.2919300405606
30
0
41
1
10
127.555219444984
20
-18.2869735895816
30
0
41
1
10
127.55799512545
20
-18.2695849031443
30
0
41
1
10
127.580249725645
20
-18.2201944449456
30
0
41
1
10
127.618700276632
20
-18.1601189387494
30
0
41
1
10
127.648761892694
20
-18.1187907830027
30
0
41
1
10
127.65725
20
-18.1075258373112
30
0
0
SPLINE
5
12D
100
AcDbEntity
8
1
62
256
6
ByLayer
370
18
48
1
60
0
100
AcDbSpline
70
4
71
3
72
12
73
8
40
0
40
0
40
0
40
0
40
0.203982101215691
40
0.422892038301023
40
0.621225759785499
40
0.890379488772251
40
1
40
1
40
1
40
1
41
1
10
127.555000066085
20
18.2920865754871
30
0
41
1
10
127.554897963952
20
18.2983003785211
30
0
41
1
10
127.558176529177
20
18.3071735753695
30
0
41
1
10
127.574243124086
20
18.3084735293176
30
0
41
1
10
127.602275393741
20
18.2955987473305
30
0
41
1
10
127.631553976018
20
18.2748245964976
30
0
41
1
10
127.651377526233
20
18.2586384717641
30
0
41
1
10
127.657250000007
20
18.2536450551943
30
0
0
SPLINE
5
12E
100
AcDbEntity
8
1
62
256
6
ByLayer
370
18
48
1
60
0
100
AcDbSpline
70
4
71
3
72
11
73
7
40
0
40
0
40
0
40
0
40
0.143406160135595
40
0.416179409660918
40
0.813457131819932
40
1
40
1
40
1
40
1
41
1
10
127.555000075114
20
-18.8374837408245
30
0
41
1
10
127.555218734815
20
-18.8332559112074
30
0
41
1
10
127.558158421244
20
-18.8190743086719
30
0
41
1
10
127.579864871635
20
-18.7772067985676
30
0
41
1
10
127.617427602226
20
-18.7232747229728
30
0
41
1
10
127.647143977536
20
-18.685075854437
30
0
41
1
10
127.65725
20
-18.6725412982299
30
0
0
SPLINE
5
12F
100
AcDbEntity
8
1
62
256
6
ByLayer
370
18
48
1
60
0
100
AcDbSpline
70
4
71
1
72
4
73
2
40
0
40
0
40
1
40
1
41
1
10
127.986471637685
20
18.5
30
0
41
1
10
128.325
20
18.2053559142515
30
0
0
SPLINE
5
130
100
AcDbEntity
8
1
62
256
6
ByLayer
370
18
48
1
60
0
100
AcDbSpline
70
4
71
1
72
4
73
2
40
0
40
0
40
1
40
1
41
1
10
128.325
20
18.3131045806204
30
0
41
1
10
128.168454561637
20
18.5
30
0
0
SPLINE
5
131
100
AcDbEntity
8
1
62
256
6
ByLayer
370
18
48
1
60
0
100
AcDbSpline
70
4
71
1
72
4
73
2
40
0
40
0
40
1
40
1
41
1
10
128.168454561637
20
18.5
30
0
41
1
10
127.986471637685
20
18.5
30
0
0
SPLINE
5
132
100
AcDbEntity
8
1
62
256
6
ByLayer
370
18
48
1
60
0
100
AcDbSpline
70
4
71
3
72
11
73
7
40
0
40
0
40
0
40
0
40
0.151510210552058
40
0.411847092875916
40
0.7806285912932
40
1
40
1
40
1
40
1
41
1
10
127.555000030128
20
-19.2510233429179
30
0
41
1
10
127.555213291713
20
-19.2477351167947
30
0
41
1
10
127.558226651058
20
-19.2366590343581
30
0
41
1
10
127.579017327131
20
-19.2017481251855
30
0
41
1
10
127.61576248758
20
-19.1531383553435
30
0
41
1
10
127.645364287079
20
-19.1174078722661
30
0
41
1
10
127.65725
20
-19.1035364558304
30
0
0
SPLINE
5
133
100
AcDbEntity
8
1
62
256
6
ByLayer
370
18
48
1
60
0
100
AcDbSpline
70
4
71
3
72
12
73
8
40
0
40
0
40
0
40
0
40
0.0040678379005856
40
0.193259184993768
40
0.453930994611858
40
0.816503936930204
40
1
40
1
40
1
40
1
41
1
10
127.555000003065
20
-19.5410513391963
30
0
41
1
10
127.555000102346
20
-19.540998898705
30
0
41
1
10
127.555041908086
20
-19.5384715788751
30
0
41
1
10
127.559763366211
20
-19.5278958526448
30
0
41
1
10
127.583394766297
20
-19.4949534400491
30
0
41
1
10
127.61968179993
20
-19.4515850423524
30
0
41
1
10
127.64738507519
20
-19.4203496943217
30
0
41
1
10
127.657250000001
20
-19.4094413032537
30
0
0
SPLINE
5
134
100
AcDbEntity
8
1
62
256
6
ByLayer
370
18
48
1
60
0
100
AcDbSpline
70
4
71
3
72
12
73
8
40
0
40
0
40
0
40
0
40
0.101523682145538
40
0.298670259603621
40
0.579960061486425
40
0.971009684658919
40
1
40
1
40
1
40
1
41
1
10
127.555000044758
20
-19.713003127651
30
0
41
1
10
127.555046733675
20
-19.7123126748356
30
0
41
1
10
127.556492157933
20
-19.7090003075642
30
0
41
1
10
127.567719690897
20
-19.6941913394475
30
0
41
1
10
127.599047395785
20
-19.6582641268284
30
0
41
1
10
127.633679505405
20
-19.6209690724058
30
0
41
1
10
127.655717722443
20
-19.5977282863562
30
0
41
1
10
127.65725
20
-19.5961148774389
30
0
0
LINE
5
70
100
AcDbEntity
8
81
62
256
6
ByLayer
370
18
48
1
60
0
100
AcDbLine
10
128
20
0
30
0
11
140.8
21
0
31
0
39
0
210
0
220
0
230
1
0
LINE
5
71
100
AcDbEntity
8
4
62
256
6
ByLayer
370
18
48
0.05
60
0
100
AcDbLine
10
0
20
0
30
0
11
128
21
0
31
0
39
0
210
0
220
0
230
1
0
LINE
5
73
100
AcDbEntity
8
SK4
62
256
6
ByLayer
370
18
48
0.05
60
0
100
AcDbLine
10
-160
20
0
30
0
11
133
21
0
31
0
39
0
210
0
220
0
230
1
0
LINE
5
75
100
AcDbEntity
8
80
62
256
6
ByLayer
370
18
48
1
60
0
100
AcDbLine
10
0
20
0
30
0
11
-12.8
21
0
31
0
39
0
210
0
220
0
230
1
0
LINE
5
76
100
AcDbEntity
8
SK1
62
256
6
ByLayer
370
18
48
1
60
0
100
AcDbLine
10
139.325
20
-4.899495
30
0
11
133.325
21
-4.899495
31
0
39
0
210
0
220
0
230
1
0
LINE
5
78
100
AcDbEntity
8
SK1
62
256
6
ByLayer
370
18
48
1
60
0
100
AcDbLine
10
133.325
20
-14.899495
30
0
11
139.325
21
-14.899495
31
0
39
0
210
0
220
0
230
1
0
LINE
5
79
100
AcDbEntity
8
SK1
62
256
6
ByLayer
370
18
48
1
60
0
100
AcDbLine
10
133.325
20
-6.899495
30
0
11
128.325
21
-6.899495
31
0
39
0
210
0
220
0
230
1
0
LINE
5
7A
100
AcDbEntity
8
SK1
62
256
6
ByLayer
370
18
48
1
60
0
100
AcDbLine
10
128.325
20
-12.899495
30
0
11
133.325
21
-12.899495
31
0
39
0
210
0
220
0
230
1
0
LINE
5
7B
100
AcDbEntity
8
SK1
62
256
6
ByLayer
370
18
48
1
60
0
100
AcDbLine
10
139.325
20
14.899495
30
0
11
133.325
21
14.899495
31
0
39
0
210
0
220
0
230
1
0
LINE
5
7C
100
AcDbEntity
8
SK1
62
256
6
ByLayer
370
18
48
1
60
0
100
AcDbLine
10
133.325
20
4.899495
30
0
11
139.325
21
4.899495
31
0
39
0
210
0
220
0
230
1
0
LINE
5
7D
100
AcDbEntity
8
SK1
62
256
6
ByLayer
370
18
48
1
60
0
100
AcDbLine
10
133.325
20
12.899495
30
0
11
128.325
21
12.899495
31
0
39
0
210
0
220
0
230
1
0
LINE
5
7E
100
AcDbEntity
8
SK1
62
256
6
ByLayer
370
18
48
1
60
0
100
AcDbLine
10
128.325
20
6.899495
30
0
11
133.325
21
6.899495
31
0
39
0
210
0
220
0
230
1
0
LINE
5
7F
100
AcDbEntity
8
SK1
62
256
6
ByLayer
370
18
48
1
60
0
100
AcDbLine
10
-153
20
-20
30
0
11
0
21
-20
31
0
39
0
210
0
220
0
230
1
0
LINE
5
80
100
AcDbEntity
8
1
62
256
6
ByLayer
370
18
48
1
60
0
100
AcDbLine
10
127.325
20
-7.599342
30
0
11
0
21
-7.599342
31
0
39
0
210
0
220
0
230
1
0
LINE
5
82
100
AcDbEntity
8
SK1
62
256
6
ByLayer
370
18
48
1
60
0
100
AcDbLine
10
-154.5
20
18.5
30
0
11
-155
21
18
31
0
39
0
210
0
220
0
230
1
0
LINE
5
83
100
AcDbEntity
8
SK1
62
256
6
ByLayer
370
18
48
1
60
0
100
AcDbLine
10
-155
20
-18
30
0
11
-153
21
-20
31
0
39
0
210
0
220
0
230
1
0
LINE
5
84
100
AcDbEntity
8
1
62
256
6
ByLayer
370
18
48
1
60
0
100
AcDbLine
10
127.325
20
-20
30
0
11
127.556678
21
-19.768322
31
0
39
0
210
0
220
0
230
1
0
LINE
5
85
100
AcDbEntity
8
SK1
62
256
6
ByLayer
370
18
48
1
60
0
100
AcDbLine
10
-153
20
7.599342
30
0
11
0
21
7.599342
31
0
39
0
210
0
220
0
230
1
0
LINE
5
86
100
AcDbEntity
8
1
62
256
6
ByLayer
370
18
48
1
60
0
100
AcDbLine
10
128.216525
20
4.783702
30
0
11
128.216525
21
-4.783702
31
0
39
0
210
0
220
0
230
1
0
LINE
5
87
100
AcDbEntity
8
1
62
256
6
ByLayer
370
18
48
1
60
0
100
AcDbLine
10
127.325
20
18.5
30
0
11
0
21
18.5
31
0
39
0
210
0
220
0
230
1
0
LINE
5
88
100
AcDbEntity
8
1
62
256
6
ByLayer
370
18
48
1
60
0
100
AcDbLine
10
127.65725
20
-8.316532
30
0
11
127.65725
21
-7.510882
31
0
39
0
210
0
220
0
230
1
0
LINE
5
89
100
AcDbEntity
8
1
62
256
6
ByLayer
370
18
48
1
60
0
100
AcDbLine
10
127.65725
20
7.510882
30
0
11
127.65725
21
8.316532
31
0
39
0
210
0
220
0
230
1
0
LINE
5
8A
100
AcDbEntity
8
1
62
256
6
ByLayer
370
18
48
1
60
0
100
AcDbLine
10
128.325
20
-7.545731
30
0
11
128.325
21
7.545731
31
0
39
0
210
0
220
0
230
1
0
LINE
5
8B
100
AcDbEntity
8
1
62
256
6
ByLayer
370
18
48
1
60
0
100
AcDbLine
10
127.65725
20
-10.971937
30
0
11
127.65725
21
-10.425673
31
0
39
0
210
0
220
0
230
1
0
LINE
5
8C
100
AcDbEntity
8
1
62
256
6
ByLayer
370
18
48
1
60
0
100
AcDbLine
10
127.65725
20
10.425673
30
0
11
127.65725
21
10.971937
31
0
39
0
210
0
220
0
230
1
0
LINE
5
8D
100
AcDbEntity
8
1
62
256
6
ByLayer
370
18
48
1
60
0
100
AcDbLine
10
128.325
20
-10.344089
30
0
11
128.325
21
-8.358632
31
0
39
0
210
0
220
0
230
1
0
LINE
5
8E
100
AcDbEntity
8
1
62
256
6
ByLayer
370
18
48
1
60
0
100
AcDbLine
10
128.325
20
8.358632
30
0
11
128.325
21
10.344089
31
0
39
0
210
0
220
0
230
1
0
LINE
5
8F
100
AcDbEntity
8
1
62
256
6
ByLayer
370
18
48
1
60
0
100
AcDbLine
10
127.65725
20
-12.926797
30
0
11
127.65725
21
-12.509035
31
0
39
0
210
0
220
0
230
1
0
LINE
5
90
100
AcDbEntity
8
1
62
256
6
ByLayer
370
18
48
1
60
0
100
AcDbLine
10
127.65725
20
12.509035
30
0
11
127.65725
21
12.926797
31
0
39
0
210
0
220
0
230
1
0
LINE
5
91
100
AcDbEntity
8
1
62
256
6
ByLayer
370
18
48
1
60
0
100
AcDbLine
10
128.325
20
-12.351611
30
0
11
128.325
21
-10.899753
31
0
39
0
210
0
220
0
230
1
0
LINE
5
92
100
AcDbEntity
8
1
62
256
6
ByLayer
370
18
48
1
60
0
100
AcDbLine
10
128.325
20
10.899753
30
0
11
128.325
21
12.351611
31
0
39
0
210
0
220
0
230
1
0
LINE
5
93
100
AcDbEntity
8
1
62
256
6
ByLayer
370
18
48
1
60
0
100
AcDbLine
10
127.65725
20
-14.467923
30
0
11
127.65725
21
-14.133551
31
0
39
0
210
0
220
0
230
1
0
LINE
5
94
100
AcDbEntity
8
1
62
256
6
ByLayer
370
18
48
1
60
0
100
AcDbLine
10
127.65725
20
14.133551
30
0
11
127.65725
21
14.467923
31
0
39
0
210
0
220
0
230
1
0
LINE
5
95
100
AcDbEntity
8
1
62
256
6
ByLayer
370
18
48
1
60
0
100
AcDbLine
10
128.325
20
-13.914899
30
0
11
128.325
21
-12.776639
31
0
39
0
210
0
220
0
230
1
0
LINE
5
96
100
AcDbEntity
8
1
62
256
6
ByLayer
370
18
48
1
60
0
100
AcDbLine
10
128.325
20
12.776639
30
0
11
128.325
21
13.914899
31
0
39
0
210
0
220
0
230
1
0
LINE
5
97
100
AcDbEntity
8
1
62
256
6
ByLayer
370
18
48
1
60
0
100
AcDbLine
10
127.65725
20
15.444694
30
0
11
127.65725
21
15.71749
31
0
39
0
210
0
220
0
230
1
0
LINE
5
98
100
AcDbEntity
8
1
62
256
6
ByLayer
370
18
48
1
60
0
100
AcDbLine
10
127.65725
20
-15.71749
30
0
11
127.65725
21
-15.444694
31
0
39
0
210
0
220
0
230
1
0
LINE
5
99
100
AcDbEntity
8
1
62
256
6
ByLayer
370
18
48
1
60
0
100
AcDbLine
10
128.325
20
-15.171899
30
0
11
128.325
21
-14.254136
31
0
39
0
210
0
220
0
230
1
0
LINE
5
9A
100
AcDbEntity
8
1
62
256
6
ByLayer
370
18
48
1
60
0
100
AcDbLine
10
128.325
20
14.254136
30
0
11
128.325
21
15.171899
31
0
39
0
210
0
220
0
230
1
0
LINE
5
9B
100
AcDbEntity
8
1
62
256
6
ByLayer
370
18
48
1
60
0
100
AcDbLine
10
127.65725
20
16.51726
30
0
11
127.65725
21
16.740913
31
0
39
0
210
0
220
0
230
1
0
LINE
5
9C
100
AcDbEntity
8
1
62
256
6
ByLayer
370
18
48
1
60
0
100
AcDbLine
10
127.65725
20
-16.740913
30
0
11
127.65725
21
-16.51726
31
0
39
0
210
0
220
0
230
1
0
LINE
5
9D
100
AcDbEntity
8
1
62
256
6
ByLayer
370
18
48
1
60
0
100
AcDbLine
10
128.325
20
15.447274
30
0
11
128.325
21
16.194093
31
0
39
0
210
0
220
0
230
1
0
LINE
5
9E
100
AcDbEntity
8
1
62
256
6
ByLayer
370
18
48
1
60
0
100
AcDbLine
10
128.325
20
-16.194093
30
0
11
128.325
21
-15.447274
31
0
39
0
210
0
220
0
230
1
0
LINE
5
9F
100
AcDbEntity
8
1
62
256
6
ByLayer
370
18
48
1
60
0
100
AcDbLine
10
127.65725
20
17.395436
30
0
11
127.65725
21
17.577738
31
0
39
0
210
0
220
0
230
1
0
LINE
5
A0
100
AcDbEntity
8
1
62
256
6
ByLayer
370
18
48
1
60
0
100
AcDbLine
10
127.65725
20
-17.577738
30
0
11
127.65725
21
-17.395436
31
0
39
0
210
0
220
0
230
1
0
LINE
5
A1
100
AcDbEntity
8
1
62
256
6
ByLayer
370
18
48
1
60
0
100
AcDbLine
10
128.325
20
-17.023829
30
0
11
128.325
21
-16.418165
31
0
39
0
210
0
220
0
230
1
0
LINE
5
A2
100
AcDbEntity
8
1
62
256
6
ByLayer
370
18
48
1
60
0
100
AcDbLine
10
128.325
20
16.418165
30
0
11
128.325
21
17.023829
31
0
39
0
210
0
220
0
230
1
0
LINE
5
A3
100
AcDbEntity
8
1
62
256
6
ByLayer
370
18
48
1
60
0
100
AcDbLine
10
127.65725
20
-18.253645
30
0
11
127.65725
21
-18.107526
31
0
39
0
210
0
220
0
230
1
0
LINE
5
A4
100
AcDbEntity
8
1
62
256
6
ByLayer
370
18
48
1
60
0
100
AcDbLine
10
127.65725
20
18.107526
30
0
11
127.65725
21
18.253645
31
0
39
0
210
0
220
0
230
1
0
LINE
5
A5
100
AcDbEntity
8
1
62
256
6
ByLayer
370
18
48
1
60
0
100
AcDbLine
10
128.325
20
-17.688213
30
0
11
128.325
21
-17.204477
31
0
39
0
210
0
220
0
230
1
0
LINE
5
A6
100
AcDbEntity
8
1
62
256
6
ByLayer
370
18
48
1
60
0
100
AcDbLine
10
128.325
20
17.204477
30
0
11
128.325
21
17.688213
31
0
39
0
210
0
220
0
230
1
0
LINE
5
A7
100
AcDbEntity
8
1
62
256
6
ByLayer
370
18
48
1
60
0
100
AcDbLine
10
127.65725
20
-18.786012
30
0
11
127.65725
21
-18.672541
31
0
39
0
210
0
220
0
230
1
0
LINE
5
A8
100
AcDbEntity
8
1
62
256
6
ByLayer
370
18
48
1
60
0
100
AcDbLine
10
128.325
20
17.830645
30
0
11
128.325
21
18.205356
31
0
39
0
210
0
220
0
230
1
0
LINE
5
A9
100
AcDbEntity
8
1
62
256
6
ByLayer
370
18
48
1
60
0
100
AcDbLine
10
128.325
20
-18.205356
30
0
11
128.325
21
-17.830645
31
0
39
0
210
0
220
0
230
1
0
LINE
5
AA
100
AcDbEntity
8
1
62
256
6
ByLayer
370
18
48
1
60
0
100
AcDbLine
10
127.986472
20
18.5
30
0
11
127.82096
21
18.5
31
0
39
0
210
0
220
0
230
1
0
LINE
5
AB
100
AcDbEntity
8
1
62
256
6
ByLayer
370
18
48
1
60
0
100
AcDbLine
10
127.65725
20
-19.186791
30
0
11
127.65725
21
-19.103536
31
0
39
0
210
0
220
0
230
1
0
LINE
5
AC
100
AcDbEntity
8
1
62
256
6
ByLayer
370
18
48
1
60
0
100
AcDbLine
10
128.325
20
-18.587552
30
0
11
128.325
21
-18.313105
31
0
39
0
210
0
220
0
230
1
0
LINE
5
AD
100
AcDbEntity
8
1
62
256
6
ByLayer
370
18
48
1
60
0
100
AcDbLine
10
128.325
20
18.313105
30
0
11
128.325
21
18.5
31
0
39
0
210
0
220
0
230
1
0
LINE
5
AE
100
AcDbEntity
8
1
62
256
6
ByLayer
370
18
48
1
60
0
100
AcDbLine
10
128.325
20
18.5
30
0
11
128.193865
21
18.5
31
0
39
0
210
0
220
0
230
1
0
LINE
5
AF
100
AcDbEntity
8
1
62
256
6
ByLayer
370
18
48
1
60
0
100
AcDbLine
10
127.65725
20
-19.464112
30
0
11
127.65725
21
-19.409441
31
0
39
0
210
0
220
0
230
1
0
LINE
5
B0
100
AcDbEntity
8
1
62
256
6
ByLayer
370
18
48
1
60
0
100
AcDbLine
10
128.325
20
-18.843015
30
0
11
128.325
21
-18.663003
31
0
39
0
210
0
220
0
230
1
0
LINE
5
B1
100
AcDbEntity
8
1
62
256
6
ByLayer
370
18
48
1
60
0
100
AcDbLine
10
127.65725
20
-19.623209
30
0
11
127.65725
21
-19.596115
31
0
39
0
210
0
220
0
230
1
0
LINE
5
B2
100
AcDbEntity
8
1
62
256
6
ByLayer
370
18
48
1
60
0
100
AcDbLine
10
128.325
20
-18.976863
30
0
11
128.325
21
-18.887709
31
0
39
0
210
0
220
0
230
1
0
LINE
5
B3
100
AcDbEntity
8
SK1
62
256
6
ByLayer
370
18
48
1
60
0
100
AcDbLine
10
139.325
20
-4.899495
30
0
11
139.325
21
-9.899495
31
0
39
0
210
0
220
0
230
1
0
LINE
5
B4
100
AcDbEntity
8
SK1
62
256
6
ByLayer
370
18
48
1
60
0
100
AcDbLine
10
133.325
20
-4.899495
30
0
11
133.325
21
-9.899495
31
0
39
0
210
0
220
0
230
1
0
LINE
5
B5
100
AcDbEntity
8
SK1
62
256
6
ByLayer
370
18
48
1
60
0
100
AcDbLine
10
139.325
20
-9.899495
30
0
11
139.325
21
-14.899495
31
0
39
0
210
0
220
0
230
1
0
LINE
5
B6
100
AcDbEntity
8
SK1
62
256
6
ByLayer
370
18
48
1
60
0
100
AcDbLine
10
133.325
20
-9.899495
30
0
11
133.325
21
-14.899495
31
0
39
0
210
0
220
0
230
1
0
LINE
5
B7
100
AcDbEntity
8
SK1
62
256
6
ByLayer
370
18
48
1
60
0
100
AcDbLine
10
139.325
20
14.899495
30
0
11
139.325
21
9.899495
31
0
39
0
210
0
220
0
230
1
0
LINE
5
B8
100
AcDbEntity
8
SK1
62
256
6
ByLayer
370
18
48
1
60
0
100
AcDbLine
10
133.325
20
14.899495
30
0
11
133.325
21
9.899495
31
0
39
0
210
0
220
0
230
1
0
LINE
5
B9
100
AcDbEntity
8
SK1
62
256
6
ByLayer
370
18
48
1
60
0
100
AcDbLine
10
139.325
20
9.899495
30
0
11
139.325
21
4.899495
31
0
39
0
210
0
220
0
230
1
0
LINE
5
BA
100
AcDbEntity
8
SK1
62
256
6
ByLayer
370
18
48
1
60
0
100
AcDbLine
10
133.325
20
9.899495
30
0
11
133.325
21
4.899495
31
0
39
0
210
0
220
0
230
1
0
LINE
5
BB
100
AcDbEntity
8
1
62
256
6
ByLayer
370
18
48
1
60
0
100
AcDbLine
10
127.325
20
-20
30
0
11
127.325
21
-7.599342
31
0
39
0
210
0
220
0
230
1
0
LINE
5
BC
100
AcDbEntity
8
SK1
62
256
6
ByLayer
370
18
48
1
60
0
100
AcDbLine
10
-153
20
-7.599342
30
0
11
-153
21
-20
31
0
39
0
210
0
220
0
230
1
0
LINE
5
BD
100
AcDbEntity
8
SK1
62
256
6
ByLayer
370
18
48
1
60
0
100
AcDbLine
10
-155
20
-18
30
0
11
-155
21
0
31
0
39
0
210
0
220
0
230
1
0
LINE
5
BE
100
AcDbEntity
8
SK1
62
256
6
ByLayer
370
18
48
1
60
0
100
AcDbLine
10
-153
20
18.5
30
0
11
-153
21
7.599342
31
0
39
0
210
0
220
0
230
1
0
LINE
5
BF
100
AcDbEntity
8
SK1
62
256
6
ByLayer
370
18
48
1
60
0
100
AcDbLine
10
-155
20
0
30
0
11
-155
21
18
31
0
39
0
210
0
220
0
230
1
0
LINE
5
C0
100
AcDbEntity
8
1
62
256
6
ByLayer
370
18
48
1
60
0
100
AcDbLine
10
128.325
20
-7.545731
30
0
11
128.325
21
-8.358632
31
0
39
0
210
0
220
0
230
1
0
LINE
5
C1
100
AcDbEntity
8
1
62
256
6
ByLayer
370
18
48
1
60
0
100
AcDbLine
10
128.325
20
-10.344089
30
0
11
128.325
21
-10.899753
31
0
39
0
210
0
220
0
230
1
0
LINE
5
C2
100
AcDbEntity
8
1
62
256
6
ByLayer
370
18
48
1
60
0
100
AcDbLine
10
128.325
20
-12.351611
30
0
11
128.325
21
-12.776639
31
0
39
0
210
0
220
0
230
1
0
LINE
5
C3
100
AcDbEntity
8
1
62
256
6
ByLayer
370
18
48
1
60
0
100
AcDbLine
10
128.325
20
-13.914899
30
0
11
128.325
21
-14.254136
31
0
39
0
210
0
220
0
230
1
0
LINE
5
C4
100
AcDbEntity
8
1
62
256
6
ByLayer
370
18
48
1
60
0
100
AcDbLine
10
128.325
20
-15.171899
30
0
11
128.325
21
-15.447274
31
0
39
0
210
0
220
0
230
1
0
LINE
5
C5
100
AcDbEntity
8
1
62
256
6
ByLayer
370
18
48
1
60
0
100
AcDbLine
10
128.325
20
-16.194093
30
0
11
128.325
21
-16.418165
31
0
39
0
210
0
220
0
230
1
0
LINE
5
C6
100
AcDbEntity
8
1
62
256
6
ByLayer
370
18
48
1
60
0
100
AcDbLine
10
128.325
20
-17.023829
30
0
11
128.325
21
-17.204477
31
0
39
0
210
0
220
0
230
1
0
LINE
5
C7
100
AcDbEntity
8
1
62
256
6
ByLayer
370
18
48
1
60
0
100
AcDbLine
10
128.325
20
-17.688213
30
0
11
128.325
21
-17.830645
31
0
39
0
210
0
220
0
230
1
0
LINE
5
C8
100
AcDbEntity
8
1
62
256
6
ByLayer
370
18
48
1
60
0
100
AcDbLine
10
128.325
20
-18.205356
30
0
11
128.325
21
-18.313105
31
0
39
0
210
0
220
0
230
1
0
LINE
5
C9
100
AcDbEntity
8
1
62
256
6
ByLayer
370
18
48
1
60
0
100
AcDbLine
10
128.325
20
-18.587552
30
0
11
128.325
21
-18.663003
31
0
39
0
210
0
220
0
230
1
0
LINE
5
CA
100
AcDbEntity
8
1
62
256
6
ByLayer
370
18
48
1
60
0
100
AcDbLine
10
128.325
20
-18.843015
30
0
11
128.325
21
-18.887709
31
0
39
0
210
0
220
0
230
1
0
LINE
5
CB
100
AcDbEntity
8
1
62
256
6
ByLayer
370
18
48
1
60
0
100
AcDbLine
10
128.325
20
-18.976863
30
0
11
128.325
21
-18.991668
31
0
39
0
210
0
220
0
230
1
0
LINE
5
CC
100
AcDbEntity
8
1
62
256
6
ByLayer
370
18
48
1
60
0
100
AcDbLine
10
128.325
20
17.830645
30
0
11
128.325
21
17.688213
31
0
39
0
210
0
220
0
230
1
0
LINE
5
CD
100
AcDbEntity
8
1
62
256
6
ByLayer
370
18
48
1
60
0
100
AcDbLine
10
128.325
20
17.204477
30
0
11
128.325
21
17.023829
31
0
39
0
210
0
220
0
230
1
0
LINE
5
CE
100
AcDbEntity
8
1
62
256
6
ByLayer
370
18
48
1
60
0
100
AcDbLine
10
128.325
20
16.418165
30
0
11
128.325
21
16.194093
31
0
39
0
210
0
220
0
230
1
0
LINE
5
CF
100
AcDbEntity
8
1
62
256
6
ByLayer
370
18
48
1
60
0
100
AcDbLine
10
128.325
20
15.447274
30
0
11
128.325
21
15.171899
31
0
39
0
210
0
220
0
230
1
0
LINE
5
D0
100
AcDbEntity
8
1
62
256
6
ByLayer
370
18
48
1
60
0
100
AcDbLine
10
128.325
20
14.254136
30
0
11
128.325
21
13.914899
31
0
39
0
210
0
220
0
230
1
0
LINE
5
D1
100
AcDbEntity
8
1
62
256
6
ByLayer
370
18
48
1
60
0
100
AcDbLine
10
128.325
20
12.776639
30
0
11
128.325
21
12.351611
31
0
39
0
210
0
220
0
230
1
0
LINE
5
D2
100
AcDbEntity
8
1
62
256
6
ByLayer
370
18
48
1
60
0
100
AcDbLine
10
128.325
20
10.899753
30
0
11
128.325
21
10.344089
31
0
39
0
210
0
220
0
230
1
0
LINE
5
D3
100
AcDbEntity
8
1
62
256
6
ByLayer
370
18
48
1
60
0
100
AcDbLine
10
128.325
20
8.358632
30
0
11
128.325
21
7.545731
31
0
39
0
210
0
220
0
230
1
0
LINE
5
D4
100
AcDbEntity
8
1
62
256
6
ByLayer
370
18
48
1
60
0
100
AcDbLine
10
127.325
20
7.599342
30
0
11
127.325
21
18.5
31
0
39
0
210
0
220
0
230
1
0
LINE
5
D5
100
AcDbEntity
8
1
62
256
6
ByLayer
370
18
48
1
60
0
100
AcDbLine
10
128.325
20
18.313105
30
0
11
128.325
21
18.205356
31
0
39
0
210
0
220
0
230
1
0
LINE
5
D6
100
AcDbEntity
8
SK1
62
256
6
ByLayer
370
18
48
1
60
0
100
AcDbLine
10
-153
20
18.5
30
0
11
-154.5
21
18.5
31
0
39
0
210
0
220
0
230
1
0
LINE
5
D7
100
AcDbEntity
8
SK1
62
256
6
ByLayer
370
18
48
1
60
0
100
AcDbLine
10
0
20
18.5
30
0
11
-153
21
18.5
31
0
39
0
210
0
220
0
230
1
0
LINE
5
D8
100
AcDbEntity
8
1
62
256
6
ByLayer
370
18
48
1
60
0
100
AcDbLine
10
0
20
7.599342
30
0
11
127.325
21
7.599342
31
0
39
0
210
0
220
0
230
1
0
LINE
5
D9
100
AcDbEntity
8
SK1
62
256
6
ByLayer
370
18
48
1
60
0
100
AcDbLine
10
0
20
-7.599342
30
0
11
-153
21
-7.599342
31
0
39
0
210
0
220
0
230
1
0
LINE
5
DA
100
AcDbEntity
8
1
62
256
6
ByLayer
370
18
48
1
60
0
100
AcDbLine
10
0
20
-20
30
0
11
127.325
21
-20
31
0
39
0
210
0
220
0
230
1
0
MTEXT
5
135
100
AcDbEntity
8
SK6
62
256
6
ByLayer
370
13
48
1
60
0
100
AcDbMText
10
2.586466
20
53.26003
30
0
210
0
220
0
230
1
1
\W0.7278;570-2C 40 283
40
3.5
41
0
44
1.084337
50
0
71
7
72
5
7
iso_b_vert
0
DIMENSION
5
143
100
AcDbEntity
8
2
62
256
6
ByLayer
370
13
48
1
60
0
100
AcDbDimension
2
DimnDraft3D1
10
128
20
29.634849
30
0
11
61.313783
21
29.634849
31
0
70
32
71
5
72
1
41
1
210
0
220
0
230
1
3
Standard
100
AcDbAlignedDimension
13
0
23
1.5875
33
0
14
128
24
1.5875
34
0
50
0
100
AcDbRotatedDimension
1001
ACAD
1000
DSTYLE
1002
{
1070
   279
1070
     0
1070
   173
1070
     1
1070
   340
1005
136
1070
   271
1070
     1
1070
   272
1070
     2
1070
    77
1070
     1
1070
    73
1070
     0
1070
   171
1070
     3
1070
   274
1070
     4
1070
   177
1070
     7
1070
   176
1070
     7
1070
   178
1070
     7
1070
    78
1070
     8
1070
    48
1040
-0.005
1070
    41
1041
3.175
1070
   147
1041
1.5875
1070
    42
1041
1.5875
1070
    44
1041
3.175
1070
   140
1041
3.175
1070
   343
1005
0
1070
   344
1005
0
1002
}
0
DIMENSION
5
14E
100
AcDbEntity
8
SK2
62
256
6
ByLayer
370
13
48
1
60
0
100
AcDbDimension
2
DimnDraft3D2
10
-155
20
44.134687
30
0
11
-16.583092
21
44.134687
31
0
70
32
71
5
72
1
41
1
210
0
220
0
230
1
3
Standard
100
AcDbAlignedDimension
13
128
23
1.5875
33
0
14
-155
24
19.5875
34
0
50
0
100
AcDbRotatedDimension
1001
ACAD
1000
DSTYLE
1002
{
1070
   279
1070
     0
1070
   173
1070
     1
1070
   340
1005
136
1070
   271
1070
     1
1070
   272
1070
     2
1070
    77
1070
     1
1070
    73
1070
     0
1070
   171
1070
     3
1070
   274
1070
     4
1070
   177
1070
     7
1070
   176
1070
     7
1070
   178
1070
     7
1070
    78
1070
     8
1070
    48
1040
-0.005
1070
    41
1041
3.175
1070
   147
1041
1.5875
1070
    42
1041
1.5875
1070
    44
1041
3.175
1070
   140
1041
3.175
1070
   343
1005
0
1070
   344
1005
0
1002
}
0
DIMENSION
5
158
100
AcDbEntity
8
SK2
62
256
6
ByLayer
370
13
48
1
60
0
100
AcDbDimension
2
DimnDraft3D3
10
-164.400336
20
-20
30
0
11
-164.400336
21
-4.392895
31
0
70
32
71
5
72
1
41
1
210
0
220
0
230
1
3
Standard
100
AcDbAlignedDimension
13
-154.5875
23
18.5
33
0
14
-154.5875
24
-20
34
0
50
90
100
AcDbRotatedDimension
1001
ACAD
1000
DSTYLE
1002
{
1070
    74
1070
     0
1070
   279
1070
     0
1070
   173
1070
     1
1070
   340
1005
136
1070
   271
1070
     1
1070
   272
1070
     2
1070
    77
1070
     1
1070
    73
1070
     0
1070
   171
1070
     3
1070
   274
1070
     4
1070
   177
1070
     7
1070
   176
1070
     7
1070
   178
1070
     7
1070
    78
1070
     8
1070
    48
1040
-0.005
1070
    41
1041
3.175
1070
   147
1041
1.5875
1070
    42
1041
1.5875
1070
    44
1041
3.175
1070
   140
1041
3.175
1070
   343
1005
0
1070
   344
1005
0
1002
}
0
DIMENSION
5
163
100
AcDbEntity
8
SK2
62
256
6
ByLayer
370
13
48
1
60
0
100
AcDbDimension
2
DimnDraft3D4
10
148.869811
20
18.5
30
0
11
143.313561
21
37.881591
31
0
70
33
71
5
72
1
41
1
210
0
220
0
230
1
3
Standard
100
AcDbAlignedDimension
13
128.9125
23
-20
33
0
14
128.9125
24
18.5
34
0
1001
ACAD
1000
DSTYLE
1002
{
1070
   279
1070
     0
1070
    74
1070
     0
1070
   173
1070
     1
1070
   340
1005
136
1070
   271
1070
     1
1070
   272
1070
     2
1070
    77
1070
     1
1070
    73
1070
     0
1070
   171
1070
     3
1070
   274
1070
     4
1070
   177
1070
     7
1070
   176
1070
     7
1070
   178
1070
     7
1070
    78
1070
     8
1070
    48
1040
-0.005
1070
    41
1041
3.175
1070
   147
1041
1.5875
1070
    42
1041
1.5875
1070
    44
1041
3.175
1070
   140
1041
3.175
1070
   343
1005
0
1070
   344
1005
0
1002
}
0
DIMENSION
5
16D
100
AcDbEntity
8
SK2
62
256
6
ByLayer
370
13
48
1
60
0
100
AcDbDimension
2
DimnDraft3D5
10
0
20
29.553628
30
0
11
-80.186217
21
29.553628
31
0
70
32
71
5
72
1
41
1
210
0
220
0
230
1
3
Standard
100
AcDbAlignedDimension
13
-155
23
19.5875
33
0
14
0
24
20.0875
34
0
50
0
100
AcDbRotatedDimension
1001
ACAD
1000
DSTYLE
1002
{
1070
   279
1070
     0
1070
   173
1070
     1
1070
   340
1005
136
1070
   271
1070
     1
1070
   272
1070
     2
1070
    77
1070
     1
1070
    73
1070
     0
1070
   171
1070
     3
1070
   274
1070
     4
1070
   177
1070
     7
1070
   176
1070
     7
1070
   178
1070
     7
1070
    78
1070
     8
1070
    48
1040
-0.005
1070
    41
1041
3.175
1070
   147
1041
1.5875
1070
    42
1041
1.5875
1070
    44
1041
3.175
1070
   140
1041
3.175
1070
   343
1005
0
1070
   344
1005
0
1002
}
0
ENDSEC
0
SECTION
2
OBJECTS
0
DICTIONARY
5
1d8
330
0
100
AcDbDictionary
280
0
281
1
3
ACAD_GROUP
350
1d9
3
ACAD_MLINESTYLE
350
1da
0
DICTIONARY
5
1d9
330
0
100
AcDbDictionary
280
0
281
1
0
DICTIONARY
5
1da
330
0
100
AcDbDictionary
280
0
281
1
3
Standard
350
18
0
MLINESTYLE
5
18
330
1da
100
AcDbMlineStyle
2
Standard
70
0
3

62
256
51
90
52
90
71
2
49
-0.5
62
256
6
ByLayer
49
0.5
62
256
6
ByLayer
0
RASTERVARIABLES
5
1c6
330

100
AcDbRasterVariables
90
0
70
1
71
1
72
1
0
ENDSEC
0
EOF
