0
SECTION
2
HEADER
9
$ACADVER
1
AC1015
9
$DWGCODEPAGE
3
ANSI_1252
9
$HANDSEED
5
1d7
9
$ANGBASE
50
0
9
$ANGDIR
70
0
9
$ATTMODE
70
1
9
$AUNITS
70
0
9
$AUPREC
70
0
9
$CECOLOR
62
256
9
$CELTSCALE
40
1
9
$CELTYPE
6
ByLayer
9
$CELWEIGHT
370
18
9
$CLAYER
8
0
9
$CMLJUST
70
0
9
$CMLSCALE
40
1
9
$CMLSTYLE
2
Standard
9
$DIMSTYLE
2
Standard
9
$TEXTSIZE
40
0.2
9
$TEXTSTYLE
7
Standard
9
$LUNITS
70
2
9
$LUPREC
70
4
9
$EXTNAMES
290
1
9
$INSUNITS
70
4
9
$LTSCALE
40
1
9
$LWDISPLAY
290
1
9
$PDMODE
70
0
9
$PDSIZE
40
0
9
$PLINEGEN
70
0
0
ENDSEC
0
SECTION
2
CLASSES
0
CLASS
1
RASTERVARIABLES
2
AcDbRasterVariables
3
ISM
90
0
280
0
281
0
0
ENDSEC
0
SECTION
2
TABLES
0
TABLE
2
VPORT
5
1cd
100
AcDbSymbolTable
0
VPORT
5
1
100
AcDbSymbolTableRecord
100
AcDbViewportTableRecord
2
*Active
70
0
10
0
20
0
11
1
21
1
12
-1
22
1
13
0
23
0
14
0.5
24
0.5
15
10
25
10
16
0
26
0
36
1
17
0
27
0
37
0
0
ENDTAB
0
TABLE
2
LTYPE
5
1ce
100
AcDbSymbolTable
0
LTYPE
5
14
100
AcDbSymbolTableRecord
100
AcDbLinetypeTableRecord
70
0
2
ByBlock
3

72
65
73
0
40
0
0
LTYPE
5
15
100
AcDbSymbolTableRecord
100
AcDbLinetypeTableRecord
70
0
2
ByLayer
3

72
65
73
0
40
0
0
LTYPE
5
16
100
AcDbSymbolTableRecord
100
AcDbLinetypeTableRecord
70
0
2
CONTINUOUS
3
Solid line
72
65
73
0
40
0
0
LTYPE
5
6A
100
AcDbSymbolTableRecord
100
AcDbLinetypeTableRecord
70
0
2
CENTER
3
____ _ ____ _ ____ _ ____
72
65
73
4
40
47.5
49
22
74
0
49
-8.5
74
0
49
8.5
74
0
49
-8.5
74
0
0
LTYPE
5
6B
100
AcDbSymbolTableRecord
100
AcDbLinetypeTableRecord
70
0
2
DASHED
3
__ __ __ __ __ __ __ __ __
72
65
73
2
40
25.72
49
12.86
74
0
49
-12.86
74
0
0
ENDTAB
0
TABLE
2
LAYER
5
1cf
100
AcDbSymbolTable
0
LAYER
5
10
100
AcDbSymbolTableRecord
100
AcDbLayerTableRecord
2
0
70
0
62
7
6
CONTINUOUS
290
1
370
-3
390
0
0
LAYER
5
6D
100
AcDbSymbolTableRecord
100
AcDbLayerTableRecord
2
80
70
0
62
-6
6
CONTINUOUS
290
1
370
-3
390
0
0
LAYER
5
6F
100
AcDbSymbolTableRecord
100
AcDbLayerTableRecord
2
81
70
0
62
-3
6
CONTINUOUS
290
1
370
-3
390
0
0
LAYER
5
72
100
AcDbSymbolTableRecord
100
AcDbLayerTableRecord
2
4
70
0
62
-2
6
CENTER
290
1
370
-3
390
0
0
LAYER
5
7C
100
AcDbSymbolTableRecord
100
AcDbLayerTableRecord
2
1
70
0
62
4
6
CONTINUOUS
290
1
370
-3
390
0
0
LAYER
5
12D
100
AcDbSymbolTableRecord
100
AcDbLayerTableRecord
2
2
70
0
62
7
6
CONTINUOUS
290
1
370
-3
390
0
0
LAYER
5
1b9
100
AcDbSymbolTableRecord
100
AcDbLayerTableRecord
2
SK4
70
0
62
2
6
CENTER
290
1
370
-3
390
0
0
LAYER
5
1ba
100
AcDbSymbolTableRecord
100
AcDbLayerTableRecord
2
SK1
70
0
62
4
6
CONTINUOUS
290
1
370
-3
390
0
0
LAYER
5
1bb
100
AcDbSymbolTableRecord
100
AcDbLayerTableRecord
2
SK6
70
0
62
5
6
CONTINUOUS
290
1
370
-3
390
0
0
LAYER
5
1bc
100
AcDbSymbolTableRecord
100
AcDbLayerTableRecord
2
SK2
70
0
62
7
6
CONTINUOUS
290
1
370
-3
390
0
0
ENDTAB
0
TABLE
2
STYLE
5
1d0
100
AcDbSymbolTable
0
STYLE
5
11
100
AcDbSymbolTableRecord
100
AcDbTextStyleTableRecord
2
Standard
3
txt
70
0
71
0
40
0
41
1
42
0
50
0
0
STYLE
5
128
100
AcDbSymbolTableRecord
100
AcDbTextStyleTableRecord
2
iso_b_vert
3
simplex.shx
70
0
71
0
40
0
41
1
42
0
50
0
0
STYLE
5
129
100
AcDbSymbolTableRecord
100
AcDbTextStyleTableRecord
2
DWGDirectTextStyle
3
simplex
70
0
71
0
40
0
41
1
42
0
50
0
0
ENDTAB
0
TABLE
2
DIMSTYLE
5
1d1
100
AcDbSymbolTable
100
AcDbDimStyleTable
0
DIMSTYLE
105
27
100
AcDbSymbolTableRecord
100
AcDbDimStyleTableRecord
2
Standard
70
0
3
<>
41
0.18
42
0.0625
44
0.18
140
0.18
147
0.09
73
0
74
0
77
1
271
2
275
0
278
52
280
0
340
11
0
ENDTAB
0
TABLE
2
VIEW
5
1d2
100
AcDbSymbolTable
0
ENDTAB
0
TABLE
2
UCS
5
1d3
100
AcDbSymbolTable
0
ENDTAB
0
TABLE
2
APPID
5
1d4
100
AcDbSymbolTable
0
APPID
5
12
100
AcDbSymbolTableRecord
100
AcDbRegAppTableRecord
2
ACAD
70
0
0
ENDTAB
0
TABLE
2
BLOCK_RECORD
5
1d5
100
AcDbSymbolTable
0
BLOCK_RECORD
5
1F
100
AcDbSymbolTableRecord
100
AcDbBlockTableRecord
2
*Model_Space
340
0
70
0
0
BLOCK_RECORD
5
1B
100
AcDbSymbolTableRecord
100
AcDbBlockTableRecord
2
*Paper_Space
340
0
70
0
0
BLOCK_RECORD
5
23
100
AcDbSymbolTableRecord
100
AcDbBlockTableRecord
2
*Paper_Space0
340
0
70
0
0
BLOCK_RECORD
5
12B
100
AcDbSymbolTableRecord
100
AcDbBlockTableRecord
2
DimnDraft3D1
340
0
70
0
0
BLOCK_RECORD
5
136
100
AcDbSymbolTableRecord
100
AcDbBlockTableRecord
2
DimnDraft3D2
340
0
70
0
0
BLOCK_RECORD
5
141
100
AcDbSymbolTableRecord
100
AcDbBlockTableRecord
2
DimnDraft3D3
340
0
70
0
0
BLOCK_RECORD
5
14B
100
AcDbSymbolTableRecord
100
AcDbBlockTableRecord
2
DimnDraft3D4
340
0
70
0
0
BLOCK_RECORD
5
155
100
AcDbSymbolTableRecord
100
AcDbBlockTableRecord
2
DimnDraft3D5
340
0
70
0
0
ENDTAB
0
ENDSEC
0
SECTION
2
BLOCKS
0
BLOCK
5
20
100
AcDbEntity
8
0
100
AcDbBlockBegin
2
*Model_Space
70
0
10
0
20
0
30
0
3
*Model_Space
0
ENDBLK
5
21
100
AcDbEntity
8
0
100
AcDbBlockEnd
0
BLOCK
5
1C
100
AcDbEntity
8
0
100
AcDbBlockBegin
2
*Paper_Space
70
0
10
0
20
0
30
0
3
*Paper_Space
0
ENDBLK
5
1D
100
AcDbEntity
8
0
100
AcDbBlockEnd
0
BLOCK
5
24
100
AcDbEntity
8
0
100
AcDbBlockBegin
2
*Paper_Space0
70
0
10
0
20
0
30
0
3
*Paper_Space0
0
ENDBLK
5
25
100
AcDbEntity
8
0
100
AcDbBlockEnd
0
BLOCK
5
133
100
AcDbEntity
8
0
100
AcDbBlockBegin
2
DimnDraft3D1
70
0
10
0
20
0
30
0
3
DimnDraft3D1
0
MTEXT
5
12C
100
AcDbEntity
8
2
62
256
6
ByLayer
370
13
48
1
60
0
100
AcDbMText
10
46.897105
20
26.361687
30
0
210
0
220
0
230
1
1
\W0.6740;96
40
3.175
41
0
44
1.084337
50
0
71
7
72
5
7
iso_b_vert
0
LINE
5
12E
100
AcDbEntity
8
2
62
256
6
ByLayer
370
13
48
1
60
0
100
AcDbLine
10
0
20
1.5875
30
0
11
0
21
28.742937
31
0
39
0
210
0
220
0
230
1
0
LINE
5
12F
100
AcDbEntity
8
2
62
256
6
ByLayer
370
13
48
1
60
0
100
AcDbLine
10
96
20
1.5875
30
0
11
96
21
28.742937
31
0
39
0
210
0
220
0
230
1
0
LINE
5
130
100
AcDbEntity
8
2
62
256
6
ByLayer
370
13
48
1
60
0
100
AcDbLine
10
0
20
25.567937
30
0
11
96
21
25.567937
31
0
39
0
210
0
220
0
230
1
0
SOLID
5
131
100
AcDbEntity
8
2
62
256
6
ByLayer
370
13
48
1
60
0
100
AcDbTrace
10
0
20
25.567937
30
0
11
3.174998
21
25.985934
31
0
12
3.175002
22
25.149941
32
0
13
0
23
25.567937
33
0
39
0
210
0
220
0
230
1
0
SOLID
5
132
100
AcDbEntity
8
2
62
256
6
ByLayer
370
13
48
1
60
0
100
AcDbTrace
10
96
20
25.567937
30
0
11
92.825002
21
25.149941
31
0
12
92.824998
22
25.985934
32
0
13
96
23
25.567937
33
0
39
0
210
0
220
0
230
1
0
ENDBLK
5
134
100
AcDbEntity
8
0
100
AcDbBlockEnd
0
BLOCK
5
13E
100
AcDbEntity
8
0
100
AcDbBlockBegin
2
DimnDraft3D2
70
0
10
0
20
0
30
0
3
DimnDraft3D2
0
MTEXT
5
137
100
AcDbEntity
8
SK2
62
256
6
ByLayer
370
13
48
1
60
0
100
AcDbMText
10
-14.892467
20
37.208072
30
0
210
0
220
0
230
1
1
\W0.6217;218
40
3.175
41
0
44
1.084337
50
0
71
7
72
5
7
iso_b_vert
0
LINE
5
139
100
AcDbEntity
8
SK2
62
256
6
ByLayer
370
13
48
1
60
0
100
AcDbLine
10
96
20
1.5875
30
0
11
96
21
39.589322
31
0
39
0
210
0
220
0
230
1
0
LINE
5
13A
100
AcDbEntity
8
SK2
62
256
6
ByLayer
370
13
48
1
60
0
100
AcDbLine
10
-122
20
16.5875
30
0
11
-122
21
39.589322
31
0
39
0
210
0
220
0
230
1
0
LINE
5
13B
100
AcDbEntity
8
SK2
62
256
6
ByLayer
370
13
48
1
60
0
100
AcDbLine
10
96
20
36.414322
30
0
11
-122
21
36.414322
31
0
39
0
210
0
220
0
230
1
0
SOLID
5
13C
100
AcDbEntity
8
SK2
62
256
6
ByLayer
370
13
48
1
60
0
100
AcDbTrace
10
96
20
36.414322
30
0
11
92.825002
21
35.996325
31
0
12
92.824998
22
36.832319
32
0
13
96
23
36.414322
33
0
39
0
210
0
220
0
230
1
0
SOLID
5
13D
100
AcDbEntity
8
SK2
62
256
6
ByLayer
370
13
48
1
60
0
100
AcDbTrace
10
-122
20
36.414322
30
0
11
-118.825002
21
36.832319
31
0
12
-118.824998
22
35.996325
32
0
13
-122
23
36.414322
33
0
39
0
210
0
220
0
230
1
0
ENDBLK
5
13F
100
AcDbEntity
8
0
100
AcDbBlockEnd
0
BLOCK
5
148
100
AcDbEntity
8
0
100
AcDbBlockBegin
2
DimnDraft3D3
70
0
10
0
20
0
30
0
3
DimnDraft3D3
0
MTEXT
5
142
100
AcDbEntity
8
SK2
62
256
6
ByLayer
370
13
48
1
60
0
100
AcDbMText
10
-62.892467
20
26.543424
30
0
210
0
220
0
230
1
1
\W0.6217;122
40
3.175
41
0
44
1.084337
50
0
71
7
72
5
7
iso_b_vert
0
LINE
5
143
100
AcDbEntity
8
SK2
62
256
6
ByLayer
370
13
48
1
60
0
100
AcDbLine
10
0
20
16.5875
30
0
11
0
21
28.924674
31
0
39
0
210
0
220
0
230
1
0
LINE
5
144
100
AcDbEntity
8
SK2
62
256
6
ByLayer
370
13
48
1
60
0
100
AcDbLine
10
-122
20
16.5875
30
0
11
-122
21
28.924674
31
0
39
0
210
0
220
0
230
1
0
LINE
5
145
100
AcDbEntity
8
SK2
62
256
6
ByLayer
370
13
48
1
60
0
100
AcDbLine
10
0
20
25.749674
30
0
11
-122
21
25.749674
31
0
39
0
210
0
220
0
230
1
0
SOLID
5
146
100
AcDbEntity
8
SK2
62
256
6
ByLayer
370
13
48
1
60
0
100
AcDbTrace
10
0
20
25.749674
30
0
11
-3.174998
21
25.331677
31
0
12
-3.175002
22
26.16767
32
0
13
0
23
25.749674
33
0
39
0
210
0
220
0
230
1
0
SOLID
5
147
100
AcDbEntity
8
SK2
62
256
6
ByLayer
370
13
48
1
60
0
100
AcDbTrace
10
-122
20
25.749674
30
0
11
-118.825002
21
26.16767
31
0
12
-118.824998
22
25.331677
32
0
13
-122
23
25.749674
33
0
39
0
210
0
220
0
230
1
0
ENDBLK
5
149
100
AcDbEntity
8
0
100
AcDbBlockEnd
0
BLOCK
5
152
100
AcDbEntity
8
0
100
AcDbBlockBegin
2
DimnDraft3D4
70
0
10
0
20
0
30
0
3
DimnDraft3D4
0
MTEXT
5
14C
100
AcDbEntity
8
SK2
62
256
6
ByLayer
370
13
48
1
60
0
100
AcDbMText
10
-134.509838
20
-1.20602
30
0
210
0
220
0
230
1
1
\W0.6351;31
40
3.175
41
0
44
1.084337
50
90
71
7
72
5
7
iso_b_vert
0
LINE
5
14D
100
AcDbEntity
8
SK2
62
256
6
ByLayer
370
13
48
1
60
0
100
AcDbLine
10
-122.5875
20
15
30
0
11
-136.891088
21
15
31
0
39
0
210
0
220
0
230
1
0
LINE
5
14E
100
AcDbEntity
8
SK2
62
256
6
ByLayer
370
13
48
1
60
0
100
AcDbLine
10
-122.5875
20
-16
30
0
11
-136.891088
21
-16
31
0
39
0
210
0
220
0
230
1
0
LINE
5
14F
100
AcDbEntity
8
SK2
62
256
6
ByLayer
370
13
48
1
60
0
100
AcDbLine
10
-133.716088
20
15
30
0
11
-133.716088
21
-16
31
0
39
0
210
0
220
0
230
1
0
SOLID
5
150
100
AcDbEntity
8
SK2
62
256
6
ByLayer
370
13
48
1
60
0
100
AcDbTrace
10
-133.716088
20
15
30
0
11
-133.298091
21
11.825002
31
0
12
-134.134085
22
11.824998
32
0
13
-133.716088
23
15
33
0
39
0
210
0
220
0
230
1
0
SOLID
5
151
100
AcDbEntity
8
SK2
62
256
6
ByLayer
370
13
48
1
60
0
100
AcDbTrace
10
-133.716088
20
-16
30
0
11
-134.134085
21
-12.825002
31
0
12
-133.298091
22
-12.824998
32
0
13
-133.716088
23
-16
33
0
39
0
210
0
220
0
230
1
0
ENDBLK
5
153
100
AcDbEntity
8
0
100
AcDbBlockEnd
0
BLOCK
5
15D
100
AcDbEntity
8
0
100
AcDbBlockBegin
2
DimnDraft3D5
70
0
10
0
20
0
30
0
3
DimnDraft3D5
0
MTEXT
5
156
100
AcDbEntity
8
SK2
62
256
6
ByLayer
370
13
48
1
60
0
100
AcDbMText
10
106.949773
20
29.652642
30
0
210
0
220
0
230
1
1
\W0.6740;32
40
3.175
41
0
44
1.084337
50
90
71
7
72
5
7
iso_b_vert
0
MTEXT
5
157
100
AcDbEntity
8
SK2
62
256
6
ByLayer
370
13
48
1
60
0
100
AcDbMText
10
106.949773
20
22.533696
30
0
210
0
220
0
230
1
1
%%c
40
3.175
41
0
44
1.084337
50
90
71
7
72
5
7
iso_b_vert
0
LINE
5
158
100
AcDbEntity
8
SK2
62
256
6
ByLayer
370
13
48
1
60
0
100
AcDbLine
10
96.9125
20
-16
30
0
11
111.712273
21
-16
31
0
39
0
210
0
220
0
230
1
0
LINE
5
159
100
AcDbEntity
8
SK2
62
256
6
ByLayer
370
13
48
1
60
0
100
AcDbLine
10
96.9125
20
15
30
0
11
111.712273
21
15
31
0
39
0
210
0
220
0
230
1
0
LINE
5
15A
100
AcDbEntity
8
SK2
62
256
6
ByLayer
370
13
48
1
60
0
100
AcDbLine
10
108.537273
20
-16
30
0
11
108.537273
21
32.652181
31
0
39
0
210
0
220
0
230
1
0
SOLID
5
15B
100
AcDbEntity
8
SK2
62
256
6
ByLayer
370
13
48
1
60
0
100
AcDbTrace
10
108.537273
20
-16
30
0
11
108.119276
21
-12.825002
31
0
12
108.95527
22
-12.824998
32
0
13
108.537273
23
-16
33
0
39
0
210
0
220
0
230
1
0
SOLID
5
15C
100
AcDbEntity
8
SK2
62
256
6
ByLayer
370
13
48
1
60
0
100
AcDbTrace
10
108.537273
20
15
30
0
11
108.95527
21
11.825002
31
0
12
108.119276
22
11.824998
32
0
13
108.537273
23
15
33
0
39
0
210
0
220
0
230
1
0
ENDBLK
5
15E
100
AcDbEntity
8
0
100
AcDbBlockEnd
0
ENDSEC
0
SECTION
2
ENTITIES
0
POINT
5
6C
100
AcDbEntity
8
80
62
256
6
ByLayer
370
18
48
1
60
0
100
AcDbPoint
10
0
20
0
30
0
39
0
210
0
220
0
230
1
50
360
0
POINT
5
6E
100
AcDbEntity
8
81
62
256
6
ByLayer
370
18
48
1
60
0
100
AcDbPoint
10
96
20
0
30
0
39
0
210
0
220
0
230
1
50
360
0
SPLINE
5
D6
100
AcDbEntity
8
1
62
256
6
ByLayer
370
18
48
1
60
0
100
AcDbSpline
70
4
71
1
72
4
73
2
40
0
40
0
40
1
40
1
41
1
10
96.325
20
14.1198370876133
30
0
41
1
10
95.65725
20
14.9533643411553
30
0
0
SPLINE
5
D7
100
AcDbEntity
8
1
62
256
6
ByLayer
370
18
48
1
60
0
100
AcDbSpline
70
4
71
1
72
4
73
2
40
0
40
0
40
1
40
1
41
1
10
95.65725
20
14.5455234081104
30
0
41
1
10
96.325
20
13.9798062920975
30
0
0
SPLINE
5
D8
100
AcDbEntity
8
1
62
256
6
ByLayer
370
18
48
1
60
0
100
AcDbSpline
70
4
71
3
72
11
73
7
40
0
40
0
40
0
40
0
40
0.470820745489536
40
0.762527039237652
40
0.988895960790971
40
1
40
1
40
1
40
1
41
1
10
95.65725
20
14.3986734991149
30
0
41
1
10
95.6304386303423
20
14.4340000228696
30
0
41
1
10
95.5951853134043
20
14.4865320199931
30
0
41
1
10
95.5624814539897
20
14.5488855051814
30
0
41
1
10
95.5551579492798
20
14.5748185392747
30
0
41
1
10
95.5550016361049
20
14.5835254796849
30
0
41
1
10
95.5550000646205
20
14.5839276968501
30
0
0
SPLINE
5
D9
100
AcDbEntity
8
1
62
256
6
ByLayer
370
18
48
1
60
0
100
AcDbSpline
70
4
71
1
72
4
73
2
40
0
40
0
40
1
40
1
41
1
10
96.325
20
13.4882139614095
30
0
41
1
10
95.65725
20
14.3986734991149
30
0
0
SPLINE
5
DA
100
AcDbEntity
8
1
62
256
6
ByLayer
370
18
48
1
60
0
100
AcDbSpline
70
4
71
1
72
4
73
2
40
0
40
0
40
1
40
1
41
1
10
95.65725
20
13.8511211748764
30
0
41
1
10
96.325
20
13.2993559045747
30
0
0
SPLINE
5
DB
100
AcDbEntity
8
1
62
256
6
ByLayer
370
18
48
1
60
0
100
AcDbSpline
70
4
71
3
72
10
73
6
40
0
40
0
40
0
40
0
40
0.511473752737895
40
0.797853586510542
40
1
40
1
40
1
40
1
41
1
10
95.6572499999999
20
13.6579827188678
30
0
41
1
10
95.6277831272966
20
13.700564943516
30
0
41
1
10
95.5917592614312
20
13.7618065575538
30
0
41
1
10
95.5603784444407
20
13.8342802198638
30
0
41
1
10
95.5555854218454
20
13.861780152969
30
0
41
1
10
95.55500019818
20
13.872224880247
30
0
0
SPLINE
5
DC
100
AcDbEntity
8
1
62
256
6
ByLayer
370
18
48
1
60
0
100
AcDbSpline
70
4
71
1
72
4
73
2
40
0
40
0
40
1
40
1
41
1
10
96.325
20
12.6488747466637
30
0
41
1
10
95.65725
20
13.6579827188678
30
0
0
SPLINE
5
DD
100
AcDbEntity
8
1
62
256
6
ByLayer
370
18
48
1
60
0
100
AcDbSpline
70
4
71
1
72
4
73
2
40
0
40
0
40
1
40
1
41
1
10
95.65725
20
12.9473883229913
30
0
41
1
10
96.325
20
12.4020462419926
30
0
0
SPLINE
5
DE
100
AcDbEntity
8
1
62
256
6
ByLayer
370
18
48
1
60
0
100
AcDbSpline
70
4
71
3
72
10
73
6
40
0
40
0
40
0
40
0
40
0.564559165450943
40
0.833679780141691
40
1
40
1
40
1
40
1
41
1
10
95.6572499999999
20
12.6987867673913
30
0
41
1
10
95.6244422478814
20
12.7516786044385
30
0
41
1
10
95.5877975521758
20
12.8243683780209
30
0
41
1
10
95.5593178189359
20
12.9073886960659
30
0
41
1
10
95.5554965976144
20
12.9375384740065
30
0
41
1
10
95.5550068156136
20
12.9484605100656
30
0
0
SPLINE
5
DF
100
AcDbEntity
8
1
62
256
6
ByLayer
370
18
48
1
60
0
100
AcDbSpline
70
4
71
1
72
4
73
2
40
0
40
0
40
1
40
1
41
1
10
96.325
20
11.5566495510079
30
0
41
1
10
95.6572499999999
20
12.6987867673913
30
0
0
SPLINE
5
E0
100
AcDbEntity
8
1
62
256
6
ByLayer
370
18
48
1
60
0
100
AcDbSpline
70
4
71
1
72
4
73
2
40
0
40
0
40
1
40
1
41
1
10
95.65725
20
11.7862704436795
30
0
41
1
10
96.325
20
11.2360417630275
30
0
0
SPLINE
5
E1
100
AcDbEntity
8
1
62
256
6
ByLayer
370
18
48
1
60
0
100
AcDbSpline
70
4
71
3
72
10
73
6
40
0
40
0
40
0
40
0
40
0.502468664270297
40
0.799113764679273
40
1
40
1
40
1
40
1
41
1
10
95.6572499999999
20
11.4663803695172
30
0
41
1
10
95.6284376560164
20
11.5201878917496
30
0
41
1
10
95.5922787380276
20
11.6023379821241
30
0
41
1
10
95.5610203090503
20
11.7031512167938
30
0
41
1
10
95.5557996974397
20
11.7471707976408
30
0
41
1
10
95.5550108654719
20
11.7642799984961
30
0
0
SPLINE
5
E2
100
AcDbEntity
8
1
62
256
6
ByLayer
370
18
48
1
60
0
100
AcDbSpline
70
4
71
1
72
4
73
2
40
0
40
0
40
1
40
1
41
1
10
96.325
20
10.1300673903403
30
0
41
1
10
95.6572499999999
20
11.4663803695172
30
0
0
SPLINE
5
E3
100
AcDbEntity
8
1
62
256
6
ByLayer
370
18
48
1
60
0
100
AcDbSpline
70
4
71
1
72
4
73
2
40
0
40
0
40
1
40
1
41
1
10
95.65725
20
10.280927854857
30
0
41
1
10
96.325
20
9.70497388005105
30
0
0
SPLINE
5
E4
100
AcDbEntity
8
1
62
256
6
ByLayer
370
18
48
1
60
0
100
AcDbSpline
70
4
71
2
72
6
73
3
40
0
40
0
40
0
40
1
40
1
40
1
41
1
10
95.6572499999999
20
9.85883219216296
30
0
41
1
10
95.564368541533
20
10.059692618832
30
0
41
1
10
95.5550019992358
20
10.2308911596919
30
0
0
SPLINE
5
E5
100
AcDbEntity
8
1
62
256
6
ByLayer
370
18
48
1
60
0
100
AcDbSpline
70
4
71
1
72
4
73
2
40
0
40
0
40
1
40
1
41
1
10
96.325
20
8.19636393901951
30
0
41
1
10
95.6572499999999
20
9.85883219216296
30
0
0
SPLINE
5
E6
100
AcDbEntity
8
1
62
256
6
ByLayer
370
18
48
1
60
0
100
AcDbSpline
70
4
71
1
72
4
73
2
40
0
40
0
40
1
40
1
41
1
10
95.65725
20
8.24492475053567
30
0
41
1
10
96.325
20
7.59107380575692
30
0
0
SPLINE
5
E7
100
AcDbEntity
8
1
62
256
6
ByLayer
370
18
48
1
60
0
100
AcDbSpline
70
4
71
3
72
10
73
6
40
0
40
0
40
0
40
0
40
0.691793682195297
40
0.953700703658535
40
1
40
1
40
1
40
1
41
1
10
95.6572499999999
20
7.64298800260787
30
0
41
1
10
95.6155001009708
20
7.76421834547184
30
0
41
1
10
95.5767680878459
20
7.92583896396979
30
0
41
1
10
95.5560993646268
20
8.09246496505711
30
0
41
1
10
95.5550749878523
20
8.14117077355684
30
0
41
1
10
95.555006914843
20
8.14845219122414
30
0
0
SPLINE
5
E8
100
AcDbEntity
8
1
62
256
6
ByLayer
370
18
48
1
60
0
100
AcDbSpline
70
4
71
2
72
6
73
3
40
0
40
0
40
0
40
1
40
1
40
1
41
1
10
96.325
20
5.21943467330356
30
0
41
1
10
96.0453784330284
20
6.45113981071763
30
0
41
1
10
95.6572499999999
20
7.64298800260787
30
0
0
SPLINE
5
E9
100
AcDbEntity
8
1
62
256
6
ByLayer
370
18
48
1
60
0
100
AcDbSpline
70
4
71
1
72
4
73
2
40
0
40
0
40
1
40
1
41
1
10
95.65725
20
5.07543995405497
30
0
41
1
10
96.325
20
4.06967873872435
30
0
0
SPLINE
5
EA
100
AcDbEntity
8
1
62
256
6
ByLayer
370
18
48
1
60
0
100
AcDbSpline
70
4
71
3
72
16
73
12
40
0
40
0
40
0
40
0
40
0.297762744276202
40
0.610656648648387
40
0.694450969385354
40
0.754845153569641
40
0.80009340257815
40
0.845490558452218
40
0.900932027712744
40
0.994088645438736
40
1
40
1
40
1
40
1
41
1
10
95.5549999999999
20
4.86753531060667
30
0
41
1
10
95.5539955623366
20
4.90336373411997
30
0
41
1
10
95.5576320565922
20
4.97332925183363
30
0
41
1
10
95.566567964847
20
5.05306186518425
30
0
41
1
10
95.5852102186098
20
5.09506542106303
30
0
41
1
10
95.5966912926338
20
5.10790783889738
30
0
41
1
10
95.6086299566391
20
5.11248515936054
30
0
41
1
10
95.621647452152
20
5.11030774634042
30
0
41
1
10
95.6384532048528
20
5.09922350308072
30
0
41
1
10
95.6500398150789
20
5.08543240624267
30
0
41
1
10
95.6568463265453
20
5.07600708967391
30
0
41
1
10
95.65725
20
5.07543995405497
30
0
0
SPLINE
5
EB
100
AcDbEntity
8
1
62
256
6
ByLayer
370
18
48
1
60
0
100
AcDbSpline
70
4
71
1
72
4
73
2
40
0
40
0
40
1
40
1
41
1
10
95.325
20
5.56776436283001
30
0
41
1
10
95.5549999999999
20
4.86753531060667
30
0
0
SPLINE
5
EC
100
AcDbEntity
8
1
62
256
6
ByLayer
370
18
48
1
60
0
100
AcDbSpline
70
4
71
1
72
4
73
2
40
0
40
0
40
1
40
1
41
1
10
95.6207210079988
20
15
30
0
41
1
10
95.325
20
15
30
0
0
SPLINE
5
ED
100
AcDbEntity
8
1
62
256
6
ByLayer
370
18
48
1
60
0
100
AcDbSpline
70
4
71
1
72
4
73
2
40
0
40
0
40
1
40
1
41
1
10
95.65725
20
14.9533643411553
30
0
41
1
10
95.6207210079988
20
15
30
0
0
SPLINE
5
EE
100
AcDbEntity
8
1
62
256
6
ByLayer
370
18
48
1
60
0
100
AcDbSpline
70
4
71
3
72
15
73
11
40
0
40
0
40
0
40
0
40
0.0861825974488843
40
0.137602743055819
40
0.189502068152976
40
0.235739301714017
40
0.293978540069952
40
0.395681733332327
40
0.70515757977582
40
1
40
1
40
1
40
1
41
1
10
95.65725
20
-5.07543995405497
30
0
41
1
10
95.6513890841651
20
-5.08426950832662
30
0
41
1
10
95.6412108395972
20
-5.09598908979941
30
0
41
1
10
95.6252949144629
20
-5.10850764685654
30
0
41
1
10
95.6118150593445
20
-5.11273937771669
30
0
41
1
10
95.5989495699092
20
-5.10945568538714
30
0
41
1
10
95.5857219372082
20
-5.09661103501967
30
0
41
1
10
95.5665627288228
20
-5.05313594216007
30
0
41
1
10
95.5575521949977
20
-4.97236453121379
30
0
41
1
10
95.5540422653273
20
-4.90298409247385
30
0
41
1
10
95.5549999999999
20
-4.86753531060684
30
0
0
SPLINE
5
EF
100
AcDbEntity
8
1
62
256
6
ByLayer
370
18
48
1
60
0
100
AcDbSpline
70
4
71
3
72
12
73
8
40
0
40
0
40
0
40
0
40
0.0808708751432852
40
0.282038329412628
40
0.495199376874009
40
0.830211183043403
40
1
40
1
40
1
40
1
41
1
10
95.555
20
-15.77
30
0
41
1
10
95.5550153197039
20
-15.7699843509512
30
0
41
1
10
95.5560668089032
20
-15.7689195232193
30
0
41
1
10
95.5647001054801
20
-15.760174527767
30
0
41
1
10
95.5892440292269
20
-15.7353381492093
30
0
41
1
10
95.6224936693629
20
-15.7017549802954
30
0
41
1
10
95.6481722105063
20
-15.6758884391968
30
0
41
1
10
95.6572500000056
20
-15.666749020611
30
0
0
SPLINE
5
F0
100
AcDbEntity
8
1
62
256
6
ByLayer
370
18
48
1
60
0
100
AcDbSpline
70
4
71
1
72
4
73
2
40
0
40
0
40
1
40
1
41
1
10
95.5549999999999
20
-4.86753531060684
30
0
41
1
10
95.325
20
-5.56776436282999
30
0
0
SPLINE
5
F1
100
AcDbEntity
8
1
62
256
6
ByLayer
370
18
48
1
60
0
100
AcDbSpline
70
4
71
1
72
4
73
2
40
0
40
0
40
1
40
1
41
1
10
96.325
20
-4.06967873874074
30
0
41
1
10
95.65725
20
-5.07543995405497
30
0
0
SPLINE
5
F2
100
AcDbEntity
8
1
62
256
6
ByLayer
370
18
48
1
60
0
100
AcDbSpline
70
4
71
2
72
6
73
3
40
0
40
0
40
0
40
1
40
1
40
1
41
1
10
95.6572499999999
20
-7.64298800260787
30
0
41
1
10
96.0453734711355
20
-6.45114275179284
30
0
41
1
10
96.325
20
-5.21943467330356
30
0
0
SPLINE
5
F3
100
AcDbEntity
8
1
62
256
6
ByLayer
370
18
48
1
60
0
100
AcDbSpline
70
4
71
3
72
14
73
10
40
0
40
0
40
0
40
0
40
0.0692363263381928
40
0.196052900841192
40
0.28910791401174
40
0.382179745470595
40
0.509733763168707
40
0.727412208466143
40
1
40
1
40
1
40
1
41
1
10
95.6572500000131
20
-8.24492475052782
30
0
41
1
10
95.6529072048502
20
-8.24922579968659
30
0
41
1
10
95.6404919321538
20
-8.26009963142061
30
0
41
1
10
95.6208861857799
20
-8.27250797402738
30
0
41
1
10
95.6005764473502
20
-8.27590082765082
30
0
41
1
10
95.5836012345649
20
-8.26952921924052
30
0
41
1
10
95.5672287344455
20
-8.24839317962815
30
0
41
1
10
95.5567391148097
20
-8.20520822662039
30
0
41
1
10
95.5540081570916
20
-8.16778309708034
30
0
41
1
10
95.5550355469797
20
-8.14486455910579
30
0
0
SPLINE
5
F4
100
AcDbEntity
8
1
62
256
6
ByLayer
370
18
48
1
60
0
100
AcDbSpline
70
4
71
1
72
4
73
2
40
0
40
0
40
1
40
1
41
1
10
96.325
20
-7.59107380575692
30
0
41
1
10
95.65725
20
-8.24492475053567
30
0
0
SPLINE
5
F5
100
AcDbEntity
8
1
62
256
6
ByLayer
370
18
48
1
60
0
100
AcDbSpline
70
4
71
1
72
4
73
2
40
0
40
0
40
1
40
1
41
1
10
95.6572499999999
20
-9.85883219216296
30
0
41
1
10
96.325
20
-8.19636393901951
30
0
0
SPLINE
5
F6
100
AcDbEntity
8
1
62
256
6
ByLayer
370
18
48
1
60
0
100
AcDbSpline
70
4
71
3
72
13
73
9
40
0
40
0
40
0
40
0
40
0.109815341689408
40
0.281661077429804
40
0.411300046918771
40
0.540716755437532
40
0.731132699874329
40
1
40
1
40
1
40
1
41
1
10
95.6572500000038
20
-10.2809278548553
30
0
41
1
10
95.6508242194887
20
-10.2865896349837
30
0
41
1
10
95.6345207383105
20
-10.2990684517944
30
0
41
1
10
95.6098801424338
20
-10.3117840267762
30
0
41
1
10
95.5875668444093
20
-10.3125839409717
30
0
41
1
10
95.5701212227698
20
-10.3022429628086
30
0
41
1
10
95.5575285751401
20
-10.2751941317946
30
0
41
1
10
95.5542125375792
20
-10.2489623938217
30
0
41
1
10
95.5550021800325
20
-10.2308439578287
30
0
0
SPLINE
5
F7
100
AcDbEntity
8
1
62
256
6
ByLayer
370
18
48
1
60
0
100
AcDbSpline
70
4
71
1
72
4
73
2
40
0
40
0
40
1
40
1
41
1
10
96.325
20
-9.70497388005105
30
0
41
1
10
95.65725
20
-10.280927854857
30
0
0
SPLINE
5
F8
100
AcDbEntity
8
1
62
256
6
ByLayer
370
18
48
1
60
0
100
AcDbSpline
70
4
71
1
72
4
73
2
40
0
40
0
40
1
40
1
41
1
10
95.6572499999999
20
-11.4663803695172
30
0
41
1
10
96.325
20
-10.1300673903403
30
0
0
SPLINE
5
F9
100
AcDbEntity
8
1
62
256
6
ByLayer
370
18
48
1
60
0
100
AcDbSpline
70
4
71
3
72
13
73
9
40
0
40
0
40
0
40
0
40
0.145707763476053
40
0.355689716314477
40
0.537493831700874
40
0.692805978487546
40
0.934750606327424
40
1
40
1
40
1
40
1
41
1
10
95.6572500000014
20
-11.786270443679
30
0
41
1
10
95.6489595405053
20
-11.793257468915
30
0
41
1
10
95.6293018858642
20
-11.8076256330826
30
0
41
1
10
95.5995252158232
20
-11.8220631845059
30
0
41
1
10
95.5758177331408
20
-11.8206262209754
30
0
41
1
10
95.5600935798639
20
-11.8055181957874
30
0
41
1
10
95.5554597391013
20
-11.7846099197191
30
0
41
1
10
95.5549615509126
20
-11.7688934377708
30
0
41
1
10
95.5550017498515
20
-11.7654187542591
30
0
0
SPLINE
5
FA
100
AcDbEntity
8
1
62
256
6
ByLayer
370
18
48
1
60
0
100
AcDbSpline
70
4
71
1
72
4
73
2
40
0
40
0
40
1
40
1
41
1
10
96.325
20
-11.2360417630275
30
0
41
1
10
95.65725
20
-11.7862704436795
30
0
0
SPLINE
5
FB
100
AcDbEntity
8
1
62
256
6
ByLayer
370
18
48
1
60
0
100
AcDbSpline
70
4
71
1
72
4
73
2
40
0
40
0
40
1
40
1
41
1
10
95.6572499999999
20
-12.6987867673913
30
0
41
1
10
96.325
20
-11.5566495510079
30
0
0
SPLINE
5
FC
100
AcDbEntity
8
1
62
256
6
ByLayer
370
18
48
1
60
0
100
AcDbSpline
70
4
71
3
72
12
73
8
40
0
40
0
40
0
40
0
40
0.179230167484934
40
0.381544012992415
40
0.585196504024825
40
0.760944314470117
40
1
40
1
40
1
40
1
41
1
10
95.6572500000006
20
-12.9473883229911
30
0
41
1
10
95.6472792261002
20
-12.9556860553768
30
0
41
1
10
95.6268844469999
20
-12.9705680463781
30
0
41
1
10
95.5965700486453
20
-12.9863706715297
30
0
41
1
10
95.5727898682119
20
-12.9883600165958
30
0
41
1
10
95.5580045899732
20
-12.9757743423688
30
0
41
1
10
95.554645370598
20
-12.9607910917792
30
0
41
1
10
95.5550000213344
20
-12.9495643905384
30
0
0
SPLINE
5
FD
100
AcDbEntity
8
1
62
256
6
ByLayer
370
18
48
1
60
0
100
AcDbSpline
70
4
71
1
72
4
73
2
40
0
40
0
40
1
40
1
41
1
10
96.325
20
-12.4020462419926
30
0
41
1
10
95.65725
20
-12.9473883229913
30
0
0
SPLINE
5
FE
100
AcDbEntity
8
1
62
256
6
ByLayer
370
18
48
1
60
0
100
AcDbSpline
70
4
71
1
72
4
73
2
40
0
40
0
40
1
40
1
41
1
10
95.6572499999999
20
-13.6579827188678
30
0
41
1
10
96.325
20
-12.6488747466637
30
0
0
SPLINE
5
FF
100
AcDbEntity
8
1
62
256
6
ByLayer
370
18
48
1
60
0
100
AcDbSpline
70
4
71
3
72
12
73
8
40
0
40
0
40
0
40
0
40
0.209155254885988
40
0.428242584532121
40
0.648804463234456
40
0.838645103039214
40
1
40
1
40
1
40
1
41
1
10
95.6572500000003
20
-13.8511211748763
30
0
41
1
10
95.64568421386
20
-13.8608294446369
30
0
41
1
10
95.6232555827444
20
-13.8775872603551
30
0
41
1
10
95.591155768353
20
-13.895532913778
30
0
41
1
10
95.5677818810199
20
-13.8989544901757
30
0
41
1
10
95.556795753814
20
-13.8889273985982
30
0
41
1
10
95.5548428591086
20
-13.8780888885181
30
0
41
1
10
95.5550014803269
20
-13.8719566383921
30
0
0
SPLINE
5
100
100
AcDbEntity
8
1
62
256
6
ByLayer
370
18
48
1
60
0
100
AcDbSpline
70
4
71
1
72
4
73
2
40
0
40
0
40
1
40
1
41
1
10
96.325
20
-13.2993559045747
30
0
41
1
10
95.65725
20
-13.8511211748764
30
0
0
SPLINE
5
101
100
AcDbEntity
8
1
62
256
6
ByLayer
370
18
48
1
60
0
100
AcDbSpline
70
4
71
1
72
4
73
2
40
0
40
0
40
1
40
1
41
1
10
95.65725
20
-14.3986734991149
30
0
41
1
10
96.325
20
-13.4882139614095
30
0
0
SPLINE
5
102
100
AcDbEntity
8
1
62
256
6
ByLayer
370
18
48
1
60
0
100
AcDbSpline
70
4
71
3
72
12
73
8
40
0
40
0
40
0
40
0
40
0.238446189618265
40
0.472536138168417
40
0.708281469955393
40
0.909626749361441
40
1
40
1
40
1
40
1
41
1
10
95.6572500000001
20
-14.5455234081103
30
0
41
1
10
95.6441505881137
20
-14.55675446328
30
0
41
1
10
95.6199066725394
20
-14.57561407731
30
0
41
1
10
95.5864161929447
20
-14.5962162430477
30
0
41
1
10
95.5637559216521
20
-14.6016189057095
30
0
41
1
10
95.5559038783878
20
-14.593962452966
30
0
41
1
10
95.5549571675713
20
-14.5864528020332
30
0
41
1
10
95.5550007355594
20
-14.5837681891278
30
0
0
SPLINE
5
103
100
AcDbEntity
8
1
62
256
6
ByLayer
370
18
48
1
60
0
100
AcDbSpline
70
4
71
1
72
4
73
2
40
0
40
0
40
1
40
1
41
1
10
96.325
20
-13.9798062920975
30
0
41
1
10
95.65725
20
-14.5455234081104
30
0
0
SPLINE
5
104
100
AcDbEntity
8
1
62
256
6
ByLayer
370
18
48
1
60
0
100
AcDbSpline
70
4
71
1
72
4
73
2
40
0
40
0
40
1
40
1
41
1
10
95.65725
20
-14.9533643411553
30
0
41
1
10
96.325
20
-14.1198370876133
30
0
0
SPLINE
5
105
100
AcDbEntity
8
1
62
256
6
ByLayer
370
18
48
1
60
0
100
AcDbSpline
70
4
71
3
72
12
73
8
40
0
40
0
40
0
40
0
40
0.266587403552652
40
0.513323082733821
40
0.723189296348941
40
0.933422438650501
40
1
40
1
40
1
40
1
41
1
10
95.65725
20
-15.0595798291541
30
0
41
1
10
95.642647485915
20
-15.0724840820605
30
0
41
1
10
95.6167554699211
20
-15.0937099933848
30
0
41
1
10
95.5839483862543
20
-15.1162475644618
30
0
41
1
10
95.5626887098691
20
-15.1247758117844
30
0
41
1
10
95.5556962159579
20
-15.1210533451289
30
0
41
1
10
95.5549842902786
20
-15.1157264662601
30
0
41
1
10
95.5550001800519
20
-15.1142466541857
30
0
0
SPLINE
5
106
100
AcDbEntity
8
1
62
256
6
ByLayer
370
18
48
1
60
0
100
AcDbSpline
70
4
71
1
72
4
73
2
40
0
40
0
40
1
40
1
41
1
10
96.325
20
-14.4740146625805
30
0
41
1
10
95.65725
20
-15.0595798291541
30
0
0
SPLINE
5
107
100
AcDbEntity
8
1
62
256
6
ByLayer
370
18
48
1
60
0
100
AcDbSpline
70
4
71
1
72
4
73
2
40
0
40
0
40
1
40
1
41
1
10
95.65725
20
-15.3422427208201
30
0
41
1
10
96.325
20
-14.5707818216016
30
0
0
SPLINE
5
108
100
AcDbEntity
8
1
62
256
6
ByLayer
370
18
48
1
60
0
100
AcDbSpline
70
4
71
3
72
12
73
8
40
0
40
0
40
0
40
0
40
0.294153510240022
40
0.551723063447498
40
0.768220933165709
40
0.985308388173575
40
1
40
1
40
1
40
1
41
1
10
95.65725
20
-15.4113477037358
30
0
41
1
10
95.6411484886311
20
-15.4261193838951
30
0
41
1
10
95.6137340305834
20
-15.4500146000013
30
0
41
1
10
95.5802563176708
20
-15.4759893783786
30
0
41
1
10
95.5600369465678
20
-15.4872664205176
30
0
41
1
10
95.5551400989408
20
-15.4854991219621
30
0
41
1
10
95.5549995378667
20
-15.4822291856871
30
0
41
1
10
95.5550000027077
20
-15.4820121509128
30
0
0
SPLINE
5
109
100
AcDbEntity
8
1
62
256
6
ByLayer
370
18
48
1
60
0
100
AcDbSpline
70
4
71
1
72
4
73
2
40
0
40
0
40
1
40
1
41
1
10
96.325
20
-14.800649206728
30
0
41
1
10
95.65725
20
-15.4113477037358
30
0
0
SPLINE
5
10A
100
AcDbEntity
8
1
62
256
6
ByLayer
370
18
48
1
60
0
100
AcDbSpline
70
4
71
1
72
4
73
2
40
0
40
0
40
1
40
1
41
1
10
95.65725
20
-15.5777314872795
30
0
41
1
10
96.325
20
-14.8575087549929
30
0
0
SPLINE
5
10B
100
AcDbEntity
8
1
62
256
6
ByLayer
370
18
48
1
60
0
100
AcDbSpline
70
4
71
3
72
11
73
7
40
0
40
0
40
0
40
0
40
0.374905131140396
40
0.627189141385272
40
0.88138871626284
40
1
40
1
40
1
40
1
41
1
10
95.65725
20
-15.6118010319188
30
0
41
1
10
95.6363760663015
20
-15.6318234862362
30
0
41
1
10
95.6060477204465
20
-15.6600155147313
30
0
41
1
10
95.5710586343978
20
-15.6904233624892
30
0
41
1
10
95.5569332159592
20
-15.7002067055556
30
0
41
1
10
95.5550231319554
20
-15.6993651118392
30
0
41
1
10
95.5550000736454
20
-15.6984832702223
30
0
0
SPLINE
5
10C
100
AcDbEntity
8
1
62
256
6
ByLayer
370
18
48
1
60
0
100
AcDbSpline
70
4
71
1
72
4
73
2
40
0
40
0
40
1
40
1
41
1
10
96.325
20
-14.9706824636902
30
0
41
1
10
95.65725
20
-15.6118010319188
30
0
0
SPLINE
5
10D
100
AcDbEntity
8
1
62
256
6
ByLayer
370
18
48
1
60
0
100
AcDbSpline
70
4
71
1
72
4
73
2
40
0
40
0
40
1
40
1
41
1
10
95.65725
20
-15.6667490206169
30
0
41
1
10
96.325
20
-14.989444616685
30
0
0
SPLINE
5
10E
100
AcDbEntity
8
SK1
62
256
6
ByLayer
370
18
48
1
60
0
100
AcDbSpline
70
4
71
3
72
11
73
7
40
0
40
0
40
0
40
0
40
0.219618427995414
40
0.440152897173298
40
0.718652572295164
40
1
40
1
40
1
40
1
41
1
10
-121
20
-5.56776436282999
30
0
41
1
10
-121.137939732994
20
-5.17462686824286
30
0
41
1
10
-121.38749374039
20
-4.37946632563147
30
0
41
1
10
-121.712099771937
20
-3.05645736664121
30
0
41
1
10
-121.943490060691
20
-1.59310668844323
30
0
41
1
10
-121.998949195675
20
-0.534968046749358
30
0
41
1
10
-122
20
6.9E-15
30
0
0
SPLINE
5
10F
100
AcDbEntity
8
SK1
62
256
6
ByLayer
370
18
48
1
60
0
100
AcDbSpline
70
4
71
3
72
12
73
8
40
0
40
0
40
0
40
0
40
0.241221874256078
40
0.429415173415254
40
0.617625940139813
40
0.808802292534435
40
1
40
1
40
1
40
1
41
1
10
-122
20
7E-15
30
0
41
1
10
-121.999534423138
20
0.458197091475876
30
0
41
1
10
-121.962844217281
20
1.27043611444194
30
0
41
1
10
-121.815767718397
20
2.43247323625297
30
0
41
1
10
-121.611213811769
20
3.4885482865947
30
0
41
1
10
-121.339486781872
20
4.53555653638592
30
0
41
1
10
-121.119821359846
20
5.22552948329458
30
0
41
1
10
-121
20
5.56776436283001
30
0
0
SPLINE
5
110
100
AcDbEntity
8
1
62
256
6
ByLayer
370
18
48
1
60
0
100
AcDbSpline
70
4
71
3
72
14
73
10
40
0
40
0
40
0
40
0
40
0.317030583511921
40
0.459136916041461
40
0.602313064805067
40
0.699753417129829
40
0.797511721728958
40
0.913486262661497
40
1
40
1
40
1
40
1
41
1
10
95.555006914843
20
8.14845219122414
30
0
41
1
10
95.5538948241227
20
8.17481689364489
30
0
41
1
10
95.5570763400455
20
8.20907085131895
30
0
41
1
10
95.5684843688097
20
8.24887033824509
30
0
41
1
10
95.5817130936759
20
8.26824408046301
30
0
41
1
10
95.5993488615114
20
8.27588055432025
30
0
41
1
10
95.6191704469553
20
8.27306319173058
30
0
41
1
10
95.6391985336212
20
8.26110025032818
30
0
41
1
10
95.6518860241513
20
8.25026694304999
30
0
41
1
10
95.65725
20
8.24492475053574
30
0
0
SPLINE
5
111
100
AcDbEntity
8
1
62
256
6
ByLayer
370
18
48
1
60
0
100
AcDbSpline
70
4
71
2
72
6
73
3
40
0
40
0
40
0
40
1
40
1
40
1
41
1
10
95.5550355469797
20
-8.14486455910579
30
0
41
1
10
95.5631870145744
20
-7.90717817951065
30
0
41
1
10
95.6572499999998
20
-7.64298800260787
30
0
0
SPLINE
5
112
100
AcDbEntity
8
1
62
256
6
ByLayer
370
18
48
1
60
0
100
AcDbSpline
70
4
71
3
72
14
73
10
40
0
40
0
40
0
40
0
40
0.0570207991384312
40
0.263961614176405
40
0.472632180512081
40
0.607861287156101
40
0.743539272551605
40
0.873270914085356
40
1
40
1
40
1
40
1
41
1
10
95.5550019992358
20
10.2308911596919
30
0
41
1
10
95.5549740130754
20
10.2345182945579
30
0
41
1
10
95.5552724935707
20
10.2509749422988
30
0
41
1
10
95.5585470883631
20
10.2786107088628
30
0
41
1
10
95.5707647270088
20
10.3035385854928
30
0
41
1
10
95.5902251562965
20
10.3133120870529
30
0
41
1
10
95.6117323269128
20
10.3106834540282
30
0
41
1
10
95.6349182821476
20
10.2986604797643
30
0
41
1
10
95.6498189036586
20
10.28748026499
30
0
41
1
10
95.65725
20
10.280927854857
30
0
0
SPLINE
5
113
100
AcDbEntity
8
1
62
256
6
ByLayer
370
18
48
1
60
0
100
AcDbSpline
70
4
71
3
72
10
73
6
40
0
40
0
40
0
40
0
40
0.0313950439723928
40
0.409106482677398
40
1
40
1
40
1
40
1
41
1
10
95.5550021800325
20
-10.2308439578287
30
0
41
1
10
95.5550321401042
20
-10.2274083003614
30
0
41
1
10
95.5559055914686
20
-10.1823992524633
30
0
41
1
10
95.5806326053776
20
-10.0582360897642
30
0
41
1
10
95.6219687488721
20
-9.93670107993417
30
0
41
1
10
95.6572499999999
20
-9.85883219216296
30
0
0
SPLINE
5
114
100
AcDbEntity
8
1
62
256
6
ByLayer
370
18
48
1
60
0
100
AcDbSpline
70
4
71
3
72
13
73
9
40
0
40
0
40
0
40
0
40
0.153003490220114
40
0.341855264139502
40
0.532340067717422
40
0.700757193680137
40
0.85596186076911
40
1
40
1
40
1
40
1
41
1
10
95.5550108654719
20
11.7642799984961
30
0
41
1
10
95.5547639117835
20
11.7726893366041
30
0
41
1
10
95.556118217465
20
11.7896327586414
30
0
41
1
10
95.5637707597555
20
11.8114801755505
30
0
41
1
10
95.5814657624993
20
11.8227346802581
30
0
41
1
10
95.6063040111271
20
11.8191251315851
30
0
41
1
10
95.6322856123082
20
11.805427642142
30
0
41
1
10
95.6490198454297
20
11.7931828654578
30
0
41
1
10
95.65725
20
11.7862704436795
30
0
0
SPLINE
5
115
100
AcDbEntity
8
1
62
256
6
ByLayer
370
18
48
1
60
0
100
AcDbSpline
70
4
71
3
72
10
73
6
40
0
40
0
40
0
40
0
40
0.21757219045005
40
0.691645712711605
40
1
40
1
40
1
40
1
41
1
10
95.5550017498515
20
-11.7654187542591
30
0
41
1
10
95.5559496986823
20
-11.7466991141743
30
0
41
1
10
95.5633566024467
20
-11.6852146180713
30
0
41
1
10
95.6015715673737
20
-11.5802208098777
30
0
41
1
10
95.6399020170152
20
-11.499090237355
30
0
41
1
10
95.6572499999999
20
-11.4663803695172
30
0
0
SPLINE
5
116
100
AcDbEntity
8
1
62
256
6
ByLayer
370
18
48
1
60
0
100
AcDbSpline
70
4
71
3
72
13
73
9
40
0
40
0
40
0
40
0
40
0.150964821983305
40
0.345506690992598
40
0.541280972025176
40
0.716506534493653
40
0.949390305839655
40
1
40
1
40
1
40
1
41
1
10
95.5550068156136
20
12.9484605100656
30
0
41
1
10
95.5547939996663
20
12.9554290791048
30
0
41
1
10
95.5563479895754
20
12.9692474572525
30
0
41
1
10
95.5653221284436
20
12.9850263828511
30
0
41
1
10
95.5849683109093
20
12.9887893588075
30
0
41
1
10
95.6138401312148
20
12.978701179018
30
0
41
1
10
95.6389985174222
20
12.9619426371367
30
0
41
1
10
95.6544695292816
20
12.9496690752399
30
0
41
1
10
95.6572500000001
20
12.9473883229912
30
0
0
SPLINE
5
117
100
AcDbEntity
8
1
62
256
6
ByLayer
370
18
48
1
60
0
100
AcDbSpline
70
4
71
3
72
11
73
7
40
0
40
0
40
0
40
0
40
0.0038806264270996
40
0.266110408093535
40
0.706109209318692
40
1
40
1
40
1
40
1
41
1
10
95.5550000213344
20
-12.9495643905384
30
0
41
1
10
95.5550003340395
20
-12.9493202838164
30
0
41
1
10
95.5550685843227
20
-12.9325468832701
30
0
41
1
10
95.5661641631936
20
-12.8789991823452
30
0
41
1
10
95.6044647192289
20
-12.7912019513021
30
0
41
1
10
95.6408248573241
20
-12.7256777804562
30
0
41
1
10
95.6572499999999
20
-12.6987867673913
30
0
0
SPLINE
5
118
100
AcDbEntity
8
1
62
256
6
ByLayer
370
18
48
1
60
0
100
AcDbSpline
70
4
71
3
72
13
73
9
40
0
40
0
40
0
40
0
40
0.0316467329731602
40
0.24795303320515
40
0.465658269207536
40
0.656082193056825
40
0.905285723914615
40
1
40
1
40
1
40
1
41
1
10
95.55500019818
20
13.872224880247
30
0
41
1
10
95.5549933039413
20
13.8733784563274
30
0
41
1
10
95.5552433344213
20
13.8821107648866
30
0
41
1
10
95.5596588327741
20
13.8950908538812
30
0
41
1
10
95.5775012624069
20
13.8990142072381
30
0
41
1
10
95.6059782740933
20
13.8884385694065
30
0
41
1
10
95.6338838198653
20
13.8698318398498
30
0
41
1
10
95.6521346742439
20
13.8553729355458
30
0
41
1
10
95.6572500000052
20
13.8511211748747
30
0
0
SPLINE
5
119
100
AcDbEntity
8
1
62
256
6
ByLayer
370
18
48
1
60
0
100
AcDbSpline
70
4
71
3
72
11
73
7
40
0
40
0
40
0
40
0
40
0.0678328292522905
40
0.345194292779826
40
0.782280401492519
40
1
40
1
40
1
40
1
41
1
10
95.5550014803269
20
-13.8719566383921
30
0
41
1
10
95.5550735541643
20
-13.8686143955396
30
0
41
1
10
95.5564017626296
20
-13.8508853215756
30
0
41
1
10
95.5733266952808
20
-13.7991067656449
30
0
41
1
10
95.6121615633736
20
-13.7270029364371
30
0
41
1
10
95.6453081205855
20
-13.6754715408638
30
0
41
1
10
95.657249999999
20
-13.6579827188678
30
0
0
SPLINE
5
11A
100
AcDbEntity
8
1
62
256
6
ByLayer
370
18
48
1
60
0
100
AcDbSpline
70
4
71
3
72
11
73
7
40
0
40
0
40
0
40
0
40
0.129925738040846
40
0.414393514086577
40
0.842521180391842
40
1
40
1
40
1
40
1
41
1
10
95.5550007355594
20
-14.5837681891278
30
0
41
1
10
95.5552183735096
20
-14.5788171004692
30
0
41
1
10
95.5579778464803
20
-14.5614100141145
30
0
41
1
10
95.5801768808898
20
-14.511905399438
30
0
41
1
10
95.6186183932375
20
-14.4515808831509
30
0
41
1
10
95.6487172910894
20
-14.4100393607564
30
0
41
1
10
95.6572499999999
20
-14.3986734991149
30
0
0
SPLINE
5
11B
100
AcDbEntity
8
1
62
256
6
ByLayer
370
18
48
1
60
0
100
AcDbSpline
70
4
71
3
72
12
73
8
40
0
40
0
40
0
40
0
40
0.203909305538627
40
0.42253757510852
40
0.6206211814246
40
0.889563649497909
40
1
40
1
40
1
40
1
41
1
10
95.5550000646205
20
14.5839276968501
30
0
41
1
10
95.5548972255703
20
14.5901578709605
30
0
41
1
10
95.5581711908672
20
14.5990547487475
30
0
41
1
10
95.5742102404036
20
14.6003820075661
30
0
41
1
10
95.6021945243226
20
14.5875413988447
30
0
41
1
10
95.6314800552868
20
14.5667658287614
30
0
41
1
10
95.6513331506228
20
14.5505559271693
30
0
41
1
10
95.6572500000073
20
14.5455234081077
30
0
0
SPLINE
5
11C
100
AcDbEntity
8
1
62
256
6
ByLayer
370
18
48
1
60
0
100
AcDbSpline
70
4
71
3
72
11
73
7
40
0
40
0
40
0
40
0
40
0.118390271290258
40
0.377029769009249
40
0.750112275091635
40
1
40
1
40
1
40
1
41
1
10
95.5550001800519
20
-15.1142466541857
30
0
41
1
10
95.5551388433889
20
-15.1110319892323
30
0
41
1
10
95.5573755769067
20
-15.0992567118334
30
0
41
1
10
95.5755699524717
20
-15.0632988083935
30
0
41
1
10
95.6125471629235
20
-15.0098531241828
30
0
41
1
10
95.6436290629045
20
-14.9700200127624
30
0
41
1
10
95.65725
20
-14.9533643411547
30
0
0
SPLINE
5
11D
100
AcDbEntity
8
1
62
256
6
ByLayer
370
18
48
1
60
0
100
AcDbSpline
70
4
71
1
72
4
73
2
40
0
40
0
40
1
40
1
41
1
10
95.7253507751729
20
15
30
0
41
1
10
96.325
20
14.4740146625805
30
0
0
SPLINE
5
11E
100
AcDbEntity
8
1
62
256
6
ByLayer
370
18
48
1
60
0
100
AcDbSpline
70
4
71
1
72
4
73
2
40
0
40
0
40
1
40
1
41
1
10
96.325
20
14.5707818216016
30
0
41
1
10
95.9556080853114
20
15
30
0
0
SPLINE
5
11F
100
AcDbEntity
8
1
62
256
6
ByLayer
370
18
48
1
60
0
100
AcDbSpline
70
4
71
1
72
4
73
2
40
0
40
0
40
1
40
1
41
1
10
95.9556080853114
20
15
30
0
41
1
10
95.7253507751729
20
15
30
0
0
SPLINE
5
120
100
AcDbEntity
8
1
62
256
6
ByLayer
370
18
48
1
60
0
100
AcDbSpline
70
4
71
3
72
11
73
7
40
0
40
0
40
0
40
0
40
0.171984954810275
40
0.432268023587702
40
0.797919176781495
40
1
40
1
40
1
40
1
41
1
10
95.5550000027078
20
-15.4820121509128
30
0
41
1
10
95.5552696730155
20
-15.4788542463461
30
0
41
1
10
95.5587969495618
20
-15.4683563881702
30
0
41
1
10
95.5811739218228
20
-15.4341201383481
30
0
41
1
10
95.6176570446998
20
-15.3881714625811
30
0
41
1
10
95.6463458860586
20
-15.354651084431
30
0
41
1
10
95.6572500000004
20
-15.342242720817
30
0
0
SPLINE
5
121
100
AcDbEntity
8
1
62
256
6
ByLayer
370
18
48
1
60
0
100
AcDbSpline
70
4
71
1
72
4
73
2
40
0
40
0
40
1
40
1
41
1
10
96.1076315660245
20
15
30
0
41
1
10
96.325
20
14.800649206728
30
0
0
SPLINE
5
122
100
AcDbEntity
8
1
62
256
6
ByLayer
370
18
48
1
60
0
100
AcDbSpline
70
4
71
1
72
4
73
2
40
0
40
0
40
1
40
1
41
1
10
96.325
20
14.8575087549929
30
0
41
1
10
96.1939696545261
20
15
30
0
0
SPLINE
5
123
100
AcDbEntity
8
1
62
256
6
ByLayer
370
18
48
1
60
0
100
AcDbSpline
70
4
71
1
72
4
73
2
40
0
40
0
40
1
40
1
41
1
10
96.1939696545261
20
15
30
0
41
1
10
96.1076315660245
20
15
30
0
0
SPLINE
5
124
100
AcDbEntity
8
1
62
256
6
ByLayer
370
18
48
1
60
0
100
AcDbSpline
70
4
71
3
72
12
73
8
40
0
40
0
40
0
40
0
40
0.0941508455462818
40
0.289889332262194
40
0.572509325602284
40
0.966989265767979
40
1
40
1
40
1
40
1
41
1
10
95.5550000736454
20
-15.6984832702223
30
0
41
1
10
95.5550429112896
20
-15.6976880198622
30
0
41
1
10
95.5563607099311
20
-15.6940834986305
30
0
41
1
10
95.5671025767722
20
-15.6788757361526
30
0
41
1
10
95.598163157722
20
-15.6419560755432
30
0
41
1
10
95.6330882312751
20
-15.603582533273
30
0
41
1
10
95.6555042265881
20
-15.5795955704073
30
0
41
1
10
95.65725
20
-15.5777314872795
30
0
0
SPLINE
5
125
100
AcDbEntity
8
1
62
256
6
ByLayer
370
18
48
1
60
0
100
AcDbSpline
70
4
71
1
72
4
73
2
40
0
40
0
40
1
40
1
41
1
10
96.2946360885733
20
15
30
0
41
1
10
96.325
20
14.9706824636902
30
0
0
SPLINE
5
126
100
AcDbEntity
8
1
62
256
6
ByLayer
370
18
48
1
60
0
100
AcDbSpline
70
4
71
1
72
4
73
2
40
0
40
0
40
1
40
1
41
1
10
96.325
20
14.989444616685
30
0
41
1
10
96.3146743084733
20
15
30
0
0
LINE
5
70
100
AcDbEntity
8
81
62
256
6
ByLayer
370
18
48
1
60
0
100
AcDbLine
10
96
20
0
30
0
11
105.6
21
0
31
0
39
0
210
0
220
0
230
1
0
LINE
5
71
100
AcDbEntity
8
4
62
256
6
ByLayer
370
18
48
0.05
60
0
100
AcDbLine
10
0
20
0
30
0
11
96
21
0
31
0
39
0
210
0
220
0
230
1
0
LINE
5
73
100
AcDbEntity
8
SK4
62
256
6
ByLayer
370
18
48
0.05
60
0
100
AcDbLine
10
-127
20
0
30
0
11
101
21
0
31
0
39
0
210
0
220
0
230
1
0
LINE
5
75
100
AcDbEntity
8
80
62
256
6
ByLayer
370
18
48
1
60
0
100
AcDbLine
10
0
20
0
30
0
11
-9.6
21
0
31
0
39
0
210
0
220
0
230
1
0
LINE
5
76
100
AcDbEntity
8
SK1
62
256
6
ByLayer
370
18
48
1
60
0
100
AcDbLine
10
106.325
20
12.028175
30
0
11
101.325
21
12.028175
31
0
39
0
210
0
220
0
230
1
0
LINE
5
78
100
AcDbEntity
8
SK1
62
256
6
ByLayer
370
18
48
1
60
0
100
AcDbLine
10
101.325
20
3.528175
30
0
11
106.325
21
3.528175
31
0
39
0
210
0
220
0
230
1
0
LINE
5
79
100
AcDbEntity
8
SK1
62
256
6
ByLayer
370
18
48
1
60
0
100
AcDbLine
10
101.325
20
10.278175
30
0
11
96.325
21
10.278175
31
0
39
0
210
0
220
0
230
1
0
LINE
5
7A
100
AcDbEntity
8
SK1
62
256
6
ByLayer
370
18
48
1
60
0
100
AcDbLine
10
96.325
20
5.278175
30
0
11
101.325
21
5.278175
31
0
39
0
210
0
220
0
230
1
0
LINE
5
7B
100
AcDbEntity
8
1
62
256
6
ByLayer
370
18
48
1
60
0
100
AcDbLine
10
95.65725
20
5.07544
30
0
11
95.65725
21
-5.07544
31
0
39
0
210
0
220
0
230
1
0
LINE
5
7D
100
AcDbEntity
8
1
62
256
6
ByLayer
370
18
48
1
60
0
100
AcDbLine
10
95.555
20
4.867535
30
0
11
95.555
21
-4.867535
31
0
39
0
210
0
220
0
230
1
0
LINE
5
7E
100
AcDbEntity
8
1
62
256
6
ByLayer
370
18
48
1
60
0
100
AcDbLine
10
95.325
20
-16
30
0
11
95.556675
21
-15.768325
31
0
39
0
210
0
220
0
230
1
0
LINE
5
7F
100
AcDbEntity
8
SK1
62
256
6
ByLayer
370
18
48
1
60
0
100
AcDbLine
10
-121
20
-16
30
0
11
0
21
-16
31
0
39
0
210
0
220
0
230
1
0
LINE
5
80
100
AcDbEntity
8
1
62
256
6
ByLayer
370
18
48
1
60
0
100
AcDbLine
10
95.325
20
-5.567764
30
0
11
0
21
-5.567764
31
0
39
0
210
0
220
0
230
1
0
LINE
5
81
100
AcDbEntity
8
SK1
62
256
6
ByLayer
370
18
48
1
60
0
100
AcDbLine
10
-121
20
5.567764
30
0
11
0
21
5.567764
31
0
39
0
210
0
220
0
230
1
0
LINE
5
82
100
AcDbEntity
8
SK1
62
256
6
ByLayer
370
18
48
1
60
0
100
AcDbLine
10
-122
20
-15
30
0
11
-121
21
-16
31
0
39
0
210
0
220
0
230
1
0
LINE
5
83
100
AcDbEntity
8
1
62
256
6
ByLayer
370
18
48
1
60
0
100
AcDbLine
10
95.325
20
15
30
0
11
0
21
15
31
0
39
0
210
0
220
0
230
1
0
LINE
5
84
100
AcDbEntity
8
1
62
256
6
ByLayer
370
18
48
1
60
0
100
AcDbLine
10
96.325
20
4.069679
30
0
11
96.325
21
-4.069679
31
0
39
0
210
0
220
0
230
1
0
LINE
5
85
100
AcDbEntity
8
1
62
256
6
ByLayer
370
18
48
1
60
0
100
AcDbLine
10
95.65725
20
8.244925
30
0
11
95.65725
21
7.642988
31
0
39
0
210
0
220
0
230
1
0
LINE
5
86
100
AcDbEntity
8
1
62
256
6
ByLayer
370
18
48
1
60
0
100
AcDbLine
10
95.65725
20
-7.642988
30
0
11
95.65725
21
-8.244925
31
0
39
0
210
0
220
0
230
1
0
LINE
5
87
100
AcDbEntity
8
1
62
256
6
ByLayer
370
18
48
1
60
0
100
AcDbLine
10
96.325
20
7.591074
30
0
11
96.325
21
5.219435
31
0
39
0
210
0
220
0
230
1
0
LINE
5
88
100
AcDbEntity
8
1
62
256
6
ByLayer
370
18
48
1
60
0
100
AcDbLine
10
96.325
20
-5.219435
30
0
11
96.325
21
-7.591074
31
0
39
0
210
0
220
0
230
1
0
LINE
5
89
100
AcDbEntity
8
1
62
256
6
ByLayer
370
18
48
1
60
0
100
AcDbLine
10
95.65725
20
10.280928
30
0
11
95.65725
21
9.858832
31
0
39
0
210
0
220
0
230
1
0
LINE
5
8A
100
AcDbEntity
8
1
62
256
6
ByLayer
370
18
48
1
60
0
100
AcDbLine
10
95.65725
20
-9.858832
30
0
11
95.65725
21
-10.280928
31
0
39
0
210
0
220
0
230
1
0
LINE
5
8B
100
AcDbEntity
8
1
62
256
6
ByLayer
370
18
48
1
60
0
100
AcDbLine
10
96.325
20
9.704974
30
0
11
96.325
21
8.196364
31
0
39
0
210
0
220
0
230
1
0
LINE
5
8C
100
AcDbEntity
8
1
62
256
6
ByLayer
370
18
48
1
60
0
100
AcDbLine
10
96.325
20
-8.196364
30
0
11
96.325
21
-9.704974
31
0
39
0
210
0
220
0
230
1
0
LINE
5
8D
100
AcDbEntity
8
1
62
256
6
ByLayer
370
18
48
1
60
0
100
AcDbLine
10
95.65725
20
11.78627
30
0
11
95.65725
21
11.46638
31
0
39
0
210
0
220
0
230
1
0
LINE
5
8E
100
AcDbEntity
8
1
62
256
6
ByLayer
370
18
48
1
60
0
100
AcDbLine
10
95.65725
20
-11.46638
30
0
11
95.65725
21
-11.78627
31
0
39
0
210
0
220
0
230
1
0
LINE
5
8F
100
AcDbEntity
8
1
62
256
6
ByLayer
370
18
48
1
60
0
100
AcDbLine
10
96.325
20
-10.130067
30
0
11
96.325
21
-11.236042
31
0
39
0
210
0
220
0
230
1
0
LINE
5
90
100
AcDbEntity
8
1
62
256
6
ByLayer
370
18
48
1
60
0
100
AcDbLine
10
96.325
20
11.236042
30
0
11
96.325
21
10.130067
31
0
39
0
210
0
220
0
230
1
0
LINE
5
91
100
AcDbEntity
8
1
62
256
6
ByLayer
370
18
48
1
60
0
100
AcDbLine
10
95.65725
20
12.947388
30
0
11
95.65725
21
12.698787
31
0
39
0
210
0
220
0
230
1
0
LINE
5
92
100
AcDbEntity
8
1
62
256
6
ByLayer
370
18
48
1
60
0
100
AcDbLine
10
95.65725
20
-12.698787
30
0
11
95.65725
21
-12.947388
31
0
39
0
210
0
220
0
230
1
0
LINE
5
93
100
AcDbEntity
8
1
62
256
6
ByLayer
370
18
48
1
60
0
100
AcDbLine
10
96.325
20
-11.55665
30
0
11
96.325
21
-12.402046
31
0
39
0
210
0
220
0
230
1
0
LINE
5
94
100
AcDbEntity
8
1
62
256
6
ByLayer
370
18
48
1
60
0
100
AcDbLine
10
96.325
20
12.402046
30
0
11
96.325
21
11.55665
31
0
39
0
210
0
220
0
230
1
0
LINE
5
95
100
AcDbEntity
8
1
62
256
6
ByLayer
370
18
48
1
60
0
100
AcDbLine
10
95.65725
20
13.851121
30
0
11
95.65725
21
13.657983
31
0
39
0
210
0
220
0
230
1
0
LINE
5
96
100
AcDbEntity
8
1
62
256
6
ByLayer
370
18
48
1
60
0
100
AcDbLine
10
95.65725
20
-13.657983
30
0
11
95.65725
21
-13.851121
31
0
39
0
210
0
220
0
230
1
0
LINE
5
97
100
AcDbEntity
8
1
62
256
6
ByLayer
370
18
48
1
60
0
100
AcDbLine
10
96.325
20
-12.648875
30
0
11
96.325
21
-13.299356
31
0
39
0
210
0
220
0
230
1
0
LINE
5
98
100
AcDbEntity
8
1
62
256
6
ByLayer
370
18
48
1
60
0
100
AcDbLine
10
96.325
20
13.299356
30
0
11
96.325
21
12.648875
31
0
39
0
210
0
220
0
230
1
0
LINE
5
99
100
AcDbEntity
8
1
62
256
6
ByLayer
370
18
48
1
60
0
100
AcDbLine
10
95.65725
20
-14.398673
30
0
11
95.65725
21
-14.545523
31
0
39
0
210
0
220
0
230
1
0
LINE
5
9A
100
AcDbEntity
8
1
62
256
6
ByLayer
370
18
48
1
60
0
100
AcDbLine
10
95.65725
20
14.545523
30
0
11
95.65725
21
14.398673
31
0
39
0
210
0
220
0
230
1
0
LINE
5
9B
100
AcDbEntity
8
1
62
256
6
ByLayer
370
18
48
1
60
0
100
AcDbLine
10
96.325
20
-13.488214
30
0
11
96.325
21
-13.979806
31
0
39
0
210
0
220
0
230
1
0
LINE
5
9C
100
AcDbEntity
8
1
62
256
6
ByLayer
370
18
48
1
60
0
100
AcDbLine
10
96.325
20
13.979806
30
0
11
96.325
21
13.488214
31
0
39
0
210
0
220
0
230
1
0
LINE
5
9D
100
AcDbEntity
8
1
62
256
6
ByLayer
370
18
48
1
60
0
100
AcDbLine
10
95.65725
20
-14.953364
30
0
11
95.65725
21
-15.05958
31
0
39
0
210
0
220
0
230
1
0
LINE
5
9E
100
AcDbEntity
8
1
62
256
6
ByLayer
370
18
48
1
60
0
100
AcDbLine
10
95.65725
20
15
30
0
11
95.65725
21
14.953364
31
0
39
0
210
0
220
0
230
1
0
LINE
5
9F
100
AcDbEntity
8
1
62
256
6
ByLayer
370
18
48
1
60
0
100
AcDbLine
10
96.325
20
-14.119837
30
0
11
96.325
21
-14.474015
31
0
39
0
210
0
220
0
230
1
0
LINE
5
A0
100
AcDbEntity
8
1
62
256
6
ByLayer
370
18
48
1
60
0
100
AcDbLine
10
96.325
20
14.474015
30
0
11
96.325
21
14.119837
31
0
39
0
210
0
220
0
230
1
0
LINE
5
A1
100
AcDbEntity
8
1
62
256
6
ByLayer
370
18
48
1
60
0
100
AcDbLine
10
95.725351
20
15
30
0
11
95.65725
21
15
31
0
39
0
210
0
220
0
230
1
0
LINE
5
A2
100
AcDbEntity
8
1
62
256
6
ByLayer
370
18
48
1
60
0
100
AcDbLine
10
95.65725
20
-15.342243
30
0
11
95.65725
21
-15.411348
31
0
39
0
210
0
220
0
230
1
0
LINE
5
A3
100
AcDbEntity
8
1
62
256
6
ByLayer
370
18
48
1
60
0
100
AcDbLine
10
96.325
20
-14.570782
30
0
11
96.325
21
-14.800649
31
0
39
0
210
0
220
0
230
1
0
LINE
5
A4
100
AcDbEntity
8
1
62
256
6
ByLayer
370
18
48
1
60
0
100
AcDbLine
10
96.325
20
14.800649
30
0
11
96.325
21
14.570782
31
0
39
0
210
0
220
0
230
1
0
LINE
5
A5
100
AcDbEntity
8
1
62
256
6
ByLayer
370
18
48
1
60
0
100
AcDbLine
10
96.107632
20
15
30
0
11
95.981018
21
15
31
0
39
0
210
0
220
0
230
1
0
LINE
5
A6
100
AcDbEntity
8
1
62
256
6
ByLayer
370
18
48
1
60
0
100
AcDbLine
10
95.65725
20
-15.577731
30
0
11
95.65725
21
-15.611801
31
0
39
0
210
0
220
0
230
1
0
LINE
5
A7
100
AcDbEntity
8
1
62
256
6
ByLayer
370
18
48
1
60
0
100
AcDbLine
10
96.325
20
-14.857509
30
0
11
96.325
21
-14.970682
31
0
39
0
210
0
220
0
230
1
0
LINE
5
A8
100
AcDbEntity
8
1
62
256
6
ByLayer
370
18
48
1
60
0
100
AcDbLine
10
96.325
20
14.970682
30
0
11
96.325
21
14.857509
31
0
39
0
210
0
220
0
230
1
0
LINE
5
A9
100
AcDbEntity
8
1
62
256
6
ByLayer
370
18
48
1
60
0
100
AcDbLine
10
96.294636
20
15
30
0
11
96.21938
21
15
31
0
39
0
210
0
220
0
230
1
0
LINE
5
AA
100
AcDbEntity
8
SK1
62
256
6
ByLayer
370
18
48
1
60
0
100
AcDbLine
10
106.325
20
-3.528175
30
0
11
101.325
21
-3.528175
31
0
39
0
210
0
220
0
230
1
0
LINE
5
AB
100
AcDbEntity
8
SK1
62
256
6
ByLayer
370
18
48
1
60
0
100
AcDbLine
10
101.325
20
-12.028175
30
0
11
106.325
21
-12.028175
31
0
39
0
210
0
220
0
230
1
0
LINE
5
AC
100
AcDbEntity
8
SK1
62
256
6
ByLayer
370
18
48
1
60
0
100
AcDbLine
10
101.325
20
-5.278175
30
0
11
96.325
21
-5.278175
31
0
39
0
210
0
220
0
230
1
0
LINE
5
AD
100
AcDbEntity
8
SK1
62
256
6
ByLayer
370
18
48
1
60
0
100
AcDbLine
10
96.325
20
-10.278175
30
0
11
101.325
21
-10.278175
31
0
39
0
210
0
220
0
230
1
0
LINE
5
AE
100
AcDbEntity
8
SK1
62
256
6
ByLayer
370
18
48
1
60
0
100
AcDbLine
10
106.325
20
12.028175
30
0
11
106.325
21
7.778175
31
0
39
0
210
0
220
0
230
1
0
LINE
5
AF
100
AcDbEntity
8
SK1
62
256
6
ByLayer
370
18
48
1
60
0
100
AcDbLine
10
101.325
20
12.028175
30
0
11
101.325
21
7.778175
31
0
39
0
210
0
220
0
230
1
0
LINE
5
B0
100
AcDbEntity
8
SK1
62
256
6
ByLayer
370
18
48
1
60
0
100
AcDbLine
10
101.325
20
7.778175
30
0
11
101.325
21
3.528175
31
0
39
0
210
0
220
0
230
1
0
LINE
5
B1
100
AcDbEntity
8
SK1
62
256
6
ByLayer
370
18
48
1
60
0
100
AcDbLine
10
106.325
20
7.778175
30
0
11
106.325
21
3.528175
31
0
39
0
210
0
220
0
230
1
0
LINE
5
B2
100
AcDbEntity
8
1
62
256
6
ByLayer
370
18
48
1
60
0
100
AcDbLine
10
96.325
20
14.119837
30
0
11
96.325
21
13.979806
31
0
39
0
210
0
220
0
230
1
0
LINE
5
B3
100
AcDbEntity
8
1
62
256
6
ByLayer
370
18
48
1
60
0
100
AcDbLine
10
96.325
20
13.488214
30
0
11
96.325
21
13.299356
31
0
39
0
210
0
220
0
230
1
0
LINE
5
B4
100
AcDbEntity
8
1
62
256
6
ByLayer
370
18
48
1
60
0
100
AcDbLine
10
96.325
20
12.648875
30
0
11
96.325
21
12.402046
31
0
39
0
210
0
220
0
230
1
0
LINE
5
B5
100
AcDbEntity
8
1
62
256
6
ByLayer
370
18
48
1
60
0
100
AcDbLine
10
96.325
20
11.55665
30
0
11
96.325
21
11.236042
31
0
39
0
210
0
220
0
230
1
0
LINE
5
B6
100
AcDbEntity
8
1
62
256
6
ByLayer
370
18
48
1
60
0
100
AcDbLine
10
96.325
20
10.130067
30
0
11
96.325
21
9.704974
31
0
39
0
210
0
220
0
230
1
0
LINE
5
B7
100
AcDbEntity
8
1
62
256
6
ByLayer
370
18
48
1
60
0
100
AcDbLine
10
96.325
20
8.196364
30
0
11
96.325
21
7.591074
31
0
39
0
210
0
220
0
230
1
0
LINE
5
B8
100
AcDbEntity
8
1
62
256
6
ByLayer
370
18
48
1
60
0
100
AcDbLine
10
96.325
20
5.219435
30
0
11
96.325
21
4.069679
31
0
39
0
210
0
220
0
230
1
0
LINE
5
B9
100
AcDbEntity
8
1
62
256
6
ByLayer
370
18
48
1
60
0
100
AcDbLine
10
95.325
20
5.567764
30
0
11
95.325
21
15
31
0
39
0
210
0
220
0
230
1
0
LINE
5
BA
100
AcDbEntity
8
1
62
256
6
ByLayer
370
18
48
1
60
0
100
AcDbLine
10
95.325
20
-16
30
0
11
95.325
21
-5.567764
31
0
39
0
210
0
220
0
230
1
0
LINE
5
BB
100
AcDbEntity
8
1
62
256
6
ByLayer
370
18
48
1
60
0
100
AcDbLine
10
96.325
20
-4.069679
30
0
11
96.325
21
-5.219435
31
0
39
0
210
0
220
0
230
1
0
LINE
5
BC
100
AcDbEntity
8
1
62
256
6
ByLayer
370
18
48
1
60
0
100
AcDbLine
10
96.325
20
-7.591074
30
0
11
96.325
21
-8.196364
31
0
39
0
210
0
220
0
230
1
0
LINE
5
BD
100
AcDbEntity
8
1
62
256
6
ByLayer
370
18
48
1
60
0
100
AcDbLine
10
96.325
20
-9.704974
30
0
11
96.325
21
-10.130067
31
0
39
0
210
0
220
0
230
1
0
LINE
5
BE
100
AcDbEntity
8
1
62
256
6
ByLayer
370
18
48
1
60
0
100
AcDbLine
10
96.325
20
-11.236042
30
0
11
96.325
21
-11.55665
31
0
39
0
210
0
220
0
230
1
0
LINE
5
BF
100
AcDbEntity
8
1
62
256
6
ByLayer
370
18
48
1
60
0
100
AcDbLine
10
96.325
20
-12.402046
30
0
11
96.325
21
-12.648875
31
0
39
0
210
0
220
0
230
1
0
LINE
5
C0
100
AcDbEntity
8
1
62
256
6
ByLayer
370
18
48
1
60
0
100
AcDbLine
10
96.325
20
-13.299356
30
0
11
96.325
21
-13.488214
31
0
39
0
210
0
220
0
230
1
0
LINE
5
C1
100
AcDbEntity
8
1
62
256
6
ByLayer
370
18
48
1
60
0
100
AcDbLine
10
96.325
20
-13.979806
30
0
11
96.325
21
-14.119837
31
0
39
0
210
0
220
0
230
1
0
LINE
5
C2
100
AcDbEntity
8
1
62
256
6
ByLayer
370
18
48
1
60
0
100
AcDbLine
10
96.325
20
-14.474015
30
0
11
96.325
21
-14.570782
31
0
39
0
210
0
220
0
230
1
0
LINE
5
C3
100
AcDbEntity
8
1
62
256
6
ByLayer
370
18
48
1
60
0
100
AcDbLine
10
96.325
20
-14.800649
30
0
11
96.325
21
-14.857509
31
0
39
0
210
0
220
0
230
1
0
LINE
5
C4
100
AcDbEntity
8
1
62
256
6
ByLayer
370
18
48
1
60
0
100
AcDbLine
10
96.325
20
-14.970682
30
0
11
96.325
21
-14.989445
31
0
39
0
210
0
220
0
230
1
0
LINE
5
C5
100
AcDbEntity
8
SK1
62
256
6
ByLayer
370
18
48
1
60
0
100
AcDbLine
10
-121
20
-5.567764
30
0
11
-121
21
-16
31
0
39
0
210
0
220
0
230
1
0
LINE
5
C6
100
AcDbEntity
8
SK1
62
256
6
ByLayer
370
18
48
1
60
0
100
AcDbLine
10
-122
20
-15
30
0
11
-122
21
0
31
0
39
0
210
0
220
0
230
1
0
LINE
5
C7
100
AcDbEntity
8
SK1
62
256
6
ByLayer
370
18
48
1
60
0
100
AcDbLine
10
-122
20
0
30
0
11
-122
21
15
31
0
39
0
210
0
220
0
230
1
0
LINE
5
C8
100
AcDbEntity
8
SK1
62
256
6
ByLayer
370
18
48
1
60
0
100
AcDbLine
10
-121
20
15
30
0
11
-121
21
5.567764
31
0
39
0
210
0
220
0
230
1
0
LINE
5
C9
100
AcDbEntity
8
1
62
256
6
ByLayer
370
18
48
1
60
0
100
AcDbLine
10
95.65725
20
15
30
0
11
95.61808
21
15
31
0
39
0
210
0
220
0
230
1
0
LINE
5
CA
100
AcDbEntity
8
1
62
256
6
ByLayer
370
18
48
1
60
0
100
AcDbLine
10
96.325
20
14.570782
30
0
11
96.325
21
14.474015
31
0
39
0
210
0
220
0
230
1
0
LINE
5
CB
100
AcDbEntity
8
1
62
256
6
ByLayer
370
18
48
1
60
0
100
AcDbLine
10
96.325
20
14.857509
30
0
11
96.325
21
14.800649
31
0
39
0
210
0
220
0
230
1
0
LINE
5
CC
100
AcDbEntity
8
1
62
256
6
ByLayer
370
18
48
1
60
0
100
AcDbLine
10
96.325
20
14.989445
30
0
11
96.325
21
14.970682
31
0
39
0
210
0
220
0
230
1
0
LINE
5
CD
100
AcDbEntity
8
SK1
62
256
6
ByLayer
370
18
48
1
60
0
100
AcDbLine
10
106.325
20
-3.528175
30
0
11
106.325
21
-7.778175
31
0
39
0
210
0
220
0
230
1
0
LINE
5
CE
100
AcDbEntity
8
SK1
62
256
6
ByLayer
370
18
48
1
60
0
100
AcDbLine
10
101.325
20
-3.528175
30
0
11
101.325
21
-7.778175
31
0
39
0
210
0
220
0
230
1
0
LINE
5
CF
100
AcDbEntity
8
SK1
62
256
6
ByLayer
370
18
48
1
60
0
100
AcDbLine
10
101.325
20
-7.778175
30
0
11
101.325
21
-12.028175
31
0
39
0
210
0
220
0
230
1
0
LINE
5
D0
100
AcDbEntity
8
SK1
62
256
6
ByLayer
370
18
48
1
60
0
100
AcDbLine
10
106.325
20
-7.778175
30
0
11
106.325
21
-12.028175
31
0
39
0
210
0
220
0
230
1
0
LINE
5
D1
100
AcDbEntity
8
SK1
62
256
6
ByLayer
370
18
48
1
60
0
100
AcDbLine
10
-121
20
15
30
0
11
-122
21
15
31
0
39
0
210
0
220
0
230
1
0
LINE
5
D2
100
AcDbEntity
8
SK1
62
256
6
ByLayer
370
18
48
1
60
0
100
AcDbLine
10
0
20
15
30
0
11
-121
21
15
31
0
39
0
210
0
220
0
230
1
0
LINE
5
D3
100
AcDbEntity
8
1
62
256
6
ByLayer
370
18
48
1
60
0
100
AcDbLine
10
0
20
5.567764
30
0
11
95.325
21
5.567764
31
0
39
0
210
0
220
0
230
1
0
LINE
5
D4
100
AcDbEntity
8
SK1
62
256
6
ByLayer
370
18
48
1
60
0
100
AcDbLine
10
0
20
-5.567764
30
0
11
-121
21
-5.567764
31
0
39
0
210
0
220
0
230
1
0
LINE
5
D5
100
AcDbEntity
8
1
62
256
6
ByLayer
370
18
48
1
60
0
100
AcDbLine
10
0
20
-16
30
0
11
95.325
21
-16
31
0
39
0
210
0
220
0
230
1
0
MTEXT
5
127
100
AcDbEntity
8
SK6
62
256
6
ByLayer
370
13
48
1
60
0
100
AcDbMText
10
1.563366
20
42.466542
30
0
210
0
220
0
230
1
1
\W0.7007;570-2C 32 218
40
3.5
41
0
44
1.084337
50
0
71
7
72
5
7
iso_b_vert
0
DIMENSION
5
135
100
AcDbEntity
8
2
62
256
6
ByLayer
370
13
48
1
60
0
100
AcDbDimension
2
DimnDraft3D1
10
96
20
25.567937
30
0
11
46.103355
21
25.567937
31
0
70
32
71
5
72
1
41
1
210
0
220
0
230
1
3
Standard
100
AcDbAlignedDimension
13
0
23
1.5875
33
0
14
96
24
1.5875
34
0
50
0
100
AcDbRotatedDimension
1001
ACAD
1000
DSTYLE
1002
{
1070
   279
1070
     0
1070
   173
1070
     1
1070
   340
1005
128
1070
   271
1070
     1
1070
   272
1070
     2
1070
    77
1070
     1
1070
    73
1070
     0
1070
   171
1070
     3
1070
   274
1070
     4
1070
   177
1070
     7
1070
   176
1070
     7
1070
   178
1070
     7
1070
    78
1070
     8
1070
    48
1040
-0.005
1070
    41
1041
3.175
1070
   147
1041
1.5875
1070
    42
1041
1.5875
1070
    44
1041
3.175
1070
   140
1041
3.175
1070
   343
1005
0
1070
   344
1005
0
1002
}
0
DIMENSION
5
140
100
AcDbEntity
8
SK2
62
256
6
ByLayer
370
13
48
1
60
0
100
AcDbDimension
2
DimnDraft3D2
10
-122
20
36.414322
30
0
11
-15.686217
21
36.414322
31
0
70
32
71
5
72
1
41
1
210
0
220
0
230
1
3
Standard
100
AcDbAlignedDimension
13
96
23
1.5875
33
0
14
-122
24
16.5875
34
0
50
0
100
AcDbRotatedDimension
1001
ACAD
1000
DSTYLE
1002
{
1070
   279
1070
     0
1070
   173
1070
     1
1070
   340
1005
128
1070
   271
1070
     1
1070
   272
1070
     2
1070
    77
1070
     1
1070
    73
1070
     0
1070
   171
1070
     3
1070
   274
1070
     4
1070
   177
1070
     7
1070
   176
1070
     7
1070
   178
1070
     7
1070
    78
1070
     8
1070
    48
1040
-0.005
1070
    41
1041
3.175
1070
   147
1041
1.5875
1070
    42
1041
1.5875
1070
    44
1041
3.175
1070
   140
1041
3.175
1070
   343
1005
0
1070
   344
1005
0
1002
}
0
DIMENSION
5
14A
100
AcDbEntity
8
SK2
62
256
6
ByLayer
370
13
48
1
60
0
100
AcDbDimension
2
DimnDraft3D3
10
-122
20
25.749674
30
0
11
-63.686217
21
25.749674
31
0
70
32
71
5
72
1
41
1
210
0
220
0
230
1
3
Standard
100
AcDbAlignedDimension
13
0
23
16.5875
33
0
14
-122
24
16.5875
34
0
50
0
100
AcDbRotatedDimension
1001
ACAD
1000
DSTYLE
1002
{
1070
   279
1070
     0
1070
   173
1070
     1
1070
   340
1005
128
1070
   271
1070
     1
1070
   272
1070
     2
1070
    77
1070
     1
1070
    73
1070
     0
1070
   171
1070
     3
1070
   274
1070
     4
1070
   177
1070
     7
1070
   176
1070
     7
1070
   178
1070
     7
1070
    78
1070
     8
1070
    48
1040
-0.005
1070
    41
1041
3.175
1070
   147
1041
1.5875
1070
    42
1041
1.5875
1070
    44
1041
3.175
1070
   140
1041
3.175
1070
   343
1005
0
1070
   344
1005
0
1002
}
0
DIMENSION
5
154
100
AcDbEntity
8
SK2
62
256
6
ByLayer
370
13
48
1
60
0
100
AcDbDimension
2
DimnDraft3D4
10
-133.716088
20
-16
30
0
11
-133.716088
21
-1.99977
31
0
70
32
71
5
72
1
41
1
210
0
220
0
230
1
3
Standard
100
AcDbAlignedDimension
13
-122.5875
23
15
33
0
14
-122.5875
24
-16
34
0
50
90
100
AcDbRotatedDimension
1001
ACAD
1000
DSTYLE
1002
{
1070
    74
1070
     0
1070
   279
1070
     0
1070
   173
1070
     1
1070
   340
1005
128
1070
   271
1070
     1
1070
   272
1070
     2
1070
    77
1070
     1
1070
    73
1070
     0
1070
   171
1070
     3
1070
   274
1070
     4
1070
   177
1070
     7
1070
   176
1070
     7
1070
   178
1070
     7
1070
    78
1070
     8
1070
    48
1040
-0.005
1070
    41
1041
3.175
1070
   147
1041
1.5875
1070
    42
1041
1.5875
1070
    44
1041
3.175
1070
   140
1041
3.175
1070
   343
1005
0
1070
   344
1005
0
1002
}
0
DIMENSION
5
15F
100
AcDbEntity
8
SK2
62
256
6
ByLayer
370
13
48
1
60
0
100
AcDbDimension
2
DimnDraft3D5
10
111.712273
20
15
30
0
11
106.156023
21
28.858892
31
0
70
33
71
5
72
1
41
1
210
0
220
0
230
1
3
Standard
100
AcDbAlignedDimension
13
96.9125
23
-16
33
0
14
96.9125
24
15
34
0
1001
ACAD
1000
DSTYLE
1002
{
1070
   279
1070
     0
1070
    74
1070
     0
1070
   173
1070
     1
1070
   340
1005
128
1070
   271
1070
     1
1070
   272
1070
     2
1070
    77
1070
     1
1070
    73
1070
     0
1070
   171
1070
     3
1070
   274
1070
     4
1070
   177
1070
     7
1070
   176
1070
     7
1070
   178
1070
     7
1070
    78
1070
     8
1070
    48
1040
-0.005
1070
    41
1041
3.175
1070
   147
1041
1.5875
1070
    42
1041
1.5875
1070
    44
1041
3.175
1070
   140
1041
3.175
1070
   343
1005
0
1070
   344
1005
0
1002
}
0
ENDSEC
0
SECTION
2
OBJECTS
0
DICTIONARY
5
1ca
330
0
100
AcDbDictionary
280
0
281
1
3
ACAD_GROUP
350
1cb
3
ACAD_MLINESTYLE
350
1cc
0
DICTIONARY
5
1cb
330
0
100
AcDbDictionary
280
0
281
1
0
DICTIONARY
5
1cc
330
0
100
AcDbDictionary
280
0
281
1
3
Standard
350
18
0
MLINESTYLE
5
18
330
1cc
100
AcDbMlineStyle
2
Standard
70
0
3

62
256
51
90
52
90
71
2
49
-0.5
62
256
6
ByLayer
49
0.5
62
256
6
ByLayer
0
RASTERVARIABLES
5
1b8
330

100
AcDbRasterVariables
90
0
70
1
71
1
72
1
0
ENDSEC
0
EOF
