0
SECTION
2
HEADER
9
$ACADVER
1
AC1015
9
$DWGCODEPAGE
3
ANSI_1252
9
$HANDSEED
5
1c0
9
$ANGBASE
50
0
9
$ANGDIR
70
0
9
$ATTMODE
70
1
9
$AUNITS
70
0
9
$AUPREC
70
0
9
$CECOLOR
62
256
9
$CELTSCALE
40
1
9
$CELTYPE
6
ByLayer
9
$CELWEIGHT
370
18
9
$CLAYER
8
0
9
$CMLJUST
70
0
9
$CMLSCALE
40
1
9
$CMLSTYLE
2
Standard
9
$DIMSTYLE
2
Standard
9
$TEXTSIZE
40
0.2
9
$TEXTSTYLE
7
Standard
9
$LUNITS
70
2
9
$LUPREC
70
4
9
$EXTNAMES
290
1
9
$INSUNITS
70
4
9
$LTSCALE
40
1
9
$LWDISPLAY
290
1
9
$PDMODE
70
0
9
$PDSIZE
40
0
9
$PLINEGEN
70
0
0
ENDSEC
0
SECTION
2
CLASSES
0
CLASS
1
RASTERVARIABLES
2
AcDbRasterVariables
3
ISM
90
0
280
0
281
0
0
ENDSEC
0
SECTION
2
TABLES
0
TABLE
2
VPORT
5
1b6
100
AcDbSymbolTable
0
VPORT
5
1
100
AcDbSymbolTableRecord
100
AcDbViewportTableRecord
2
*Active
70
0
10
0
20
0
11
1
21
1
12
-1
22
1
13
0
23
0
14
0.5
24
0.5
15
10
25
10
16
0
26
0
36
1
17
0
27
0
37
0
0
ENDTAB
0
TABLE
2
LTYPE
5
1b7
100
AcDbSymbolTable
0
LTYPE
5
14
100
AcDbSymbolTableRecord
100
AcDbLinetypeTableRecord
70
0
2
ByBlock
3

72
65
73
0
40
0
0
LTYPE
5
15
100
AcDbSymbolTableRecord
100
AcDbLinetypeTableRecord
70
0
2
ByLayer
3

72
65
73
0
40
0
0
LTYPE
5
16
100
AcDbSymbolTableRecord
100
AcDbLinetypeTableRecord
70
0
2
CONTINUOUS
3
Solid line
72
65
73
0
40
0
0
LTYPE
5
6A
100
AcDbSymbolTableRecord
100
AcDbLinetypeTableRecord
70
0
2
CENTER
3
____ _ ____ _ ____ _ ____
72
65
73
4
40
47.5
49
22
74
0
49
-8.5
74
0
49
8.5
74
0
49
-8.5
74
0
0
LTYPE
5
6B
100
AcDbSymbolTableRecord
100
AcDbLinetypeTableRecord
70
0
2
DASHED
3
__ __ __ __ __ __ __ __ __
72
65
73
2
40
25.72
49
12.86
74
0
49
-12.86
74
0
0
ENDTAB
0
TABLE
2
LAYER
5
1b8
100
AcDbSymbolTable
0
LAYER
5
10
100
AcDbSymbolTableRecord
100
AcDbLayerTableRecord
2
0
70
0
62
7
6
CONTINUOUS
290
1
370
-3
390
0
0
LAYER
5
6D
100
AcDbSymbolTableRecord
100
AcDbLayerTableRecord
2
80
70
0
62
-6
6
CONTINUOUS
290
1
370
-3
390
0
0
LAYER
5
6F
100
AcDbSymbolTableRecord
100
AcDbLayerTableRecord
2
81
70
0
62
-3
6
CONTINUOUS
290
1
370
-3
390
0
0
LAYER
5
72
100
AcDbSymbolTableRecord
100
AcDbLayerTableRecord
2
4
70
0
62
-2
6
CENTER
290
1
370
-3
390
0
0
LAYER
5
7D
100
AcDbSymbolTableRecord
100
AcDbLayerTableRecord
2
1
70
0
62
4
6
CONTINUOUS
290
1
370
-3
390
0
0
LAYER
5
116
100
AcDbSymbolTableRecord
100
AcDbLayerTableRecord
2
2
70
0
62
7
6
CONTINUOUS
290
1
370
-3
390
0
0
LAYER
5
1a2
100
AcDbSymbolTableRecord
100
AcDbLayerTableRecord
2
SK4
70
0
62
2
6
CENTER
290
1
370
-3
390
0
0
LAYER
5
1a3
100
AcDbSymbolTableRecord
100
AcDbLayerTableRecord
2
SK1
70
0
62
4
6
CONTINUOUS
290
1
370
-3
390
0
0
LAYER
5
1a4
100
AcDbSymbolTableRecord
100
AcDbLayerTableRecord
2
SK6
70
0
62
5
6
CONTINUOUS
290
1
370
-3
390
0
0
LAYER
5
1a5
100
AcDbSymbolTableRecord
100
AcDbLayerTableRecord
2
SK2
70
0
62
7
6
CONTINUOUS
290
1
370
-3
390
0
0
ENDTAB
0
TABLE
2
STYLE
5
1b9
100
AcDbSymbolTable
0
STYLE
5
11
100
AcDbSymbolTableRecord
100
AcDbTextStyleTableRecord
2
Standard
3
txt
70
0
71
0
40
0
41
1
42
0
50
0
0
STYLE
5
111
100
AcDbSymbolTableRecord
100
AcDbTextStyleTableRecord
2
iso_b_vert
3
simplex.shx
70
0
71
0
40
0
41
1
42
0
50
0
0
STYLE
5
112
100
AcDbSymbolTableRecord
100
AcDbTextStyleTableRecord
2
DWGDirectTextStyle
3
simplex
70
0
71
0
40
0
41
1
42
0
50
0
0
ENDTAB
0
TABLE
2
DIMSTYLE
5
1ba
100
AcDbSymbolTable
100
AcDbDimStyleTable
0
DIMSTYLE
105
27
100
AcDbSymbolTableRecord
100
AcDbDimStyleTableRecord
2
Standard
70
0
3
<>
41
0.18
42
0.0625
44
0.18
140
0.18
147
0.09
73
0
74
0
77
1
271
2
275
0
278
52
280
0
340
11
0
ENDTAB
0
TABLE
2
VIEW
5
1bb
100
AcDbSymbolTable
0
ENDTAB
0
TABLE
2
UCS
5
1bc
100
AcDbSymbolTable
0
ENDTAB
0
TABLE
2
APPID
5
1bd
100
AcDbSymbolTable
0
APPID
5
12
100
AcDbSymbolTableRecord
100
AcDbRegAppTableRecord
2
ACAD
70
0
0
ENDTAB
0
TABLE
2
BLOCK_RECORD
5
1be
100
AcDbSymbolTable
0
BLOCK_RECORD
5
1F
100
AcDbSymbolTableRecord
100
AcDbBlockTableRecord
2
*Model_Space
340
0
70
0
0
BLOCK_RECORD
5
1B
100
AcDbSymbolTableRecord
100
AcDbBlockTableRecord
2
*Paper_Space
340
0
70
0
0
BLOCK_RECORD
5
23
100
AcDbSymbolTableRecord
100
AcDbBlockTableRecord
2
*Paper_Space0
340
0
70
0
0
BLOCK_RECORD
5
114
100
AcDbSymbolTableRecord
100
AcDbBlockTableRecord
2
DimnDraft3D1
340
0
70
0
0
BLOCK_RECORD
5
11F
100
AcDbSymbolTableRecord
100
AcDbBlockTableRecord
2
DimnDraft3D22
340
0
70
0
0
BLOCK_RECORD
5
12A
100
AcDbSymbolTableRecord
100
AcDbBlockTableRecord
2
DimnDraft3D3
340
0
70
0
0
BLOCK_RECORD
5
134
100
AcDbSymbolTableRecord
100
AcDbBlockTableRecord
2
DimnDraft3D4
340
0
70
0
0
BLOCK_RECORD
5
13E
100
AcDbSymbolTableRecord
100
AcDbBlockTableRecord
2
DimnDraft3D5
340
0
70
0
0
ENDTAB
0
ENDSEC
0
SECTION
2
BLOCKS
0
BLOCK
5
20
100
AcDbEntity
8
0
100
AcDbBlockBegin
2
*Model_Space
70
0
10
0
20
0
30
0
3
*Model_Space
0
ENDBLK
5
21
100
AcDbEntity
8
0
100
AcDbBlockEnd
0
BLOCK
5
1C
100
AcDbEntity
8
0
100
AcDbBlockBegin
2
*Paper_Space
70
0
10
0
20
0
30
0
3
*Paper_Space
0
ENDBLK
5
1D
100
AcDbEntity
8
0
100
AcDbBlockEnd
0
BLOCK
5
24
100
AcDbEntity
8
0
100
AcDbBlockBegin
2
*Paper_Space0
70
0
10
0
20
0
30
0
3
*Paper_Space0
0
ENDBLK
5
25
100
AcDbEntity
8
0
100
AcDbBlockEnd
0
BLOCK
5
11C
100
AcDbEntity
8
0
100
AcDbBlockBegin
2
DimnDraft3D1
70
0
10
0
20
0
30
0
3
DimnDraft3D1
0
MTEXT
5
115
100
AcDbEntity
8
2
62
256
6
ByLayer
370
13
48
1
60
0
100
AcDbMText
10
38.897105
20
21.926269
30
0
210
0
220
0
230
1
1
\W0.6740;80
40
3.175
41
0
44
1.084337
50
0
71
7
72
5
7
iso_b_vert
0
LINE
5
117
100
AcDbEntity
8
2
62
256
6
ByLayer
370
13
48
1
60
0
100
AcDbLine
10
0
20
1.5875
30
0
11
0
21
24.307519
31
0
39
0
210
0
220
0
230
1
0
LINE
5
118
100
AcDbEntity
8
2
62
256
6
ByLayer
370
13
48
1
60
0
100
AcDbLine
10
80
20
1.5875
30
0
11
80
21
24.307519
31
0
39
0
210
0
220
0
230
1
0
LINE
5
119
100
AcDbEntity
8
2
62
256
6
ByLayer
370
13
48
1
60
0
100
AcDbLine
10
0
20
21.132519
30
0
11
80
21
21.132519
31
0
39
0
210
0
220
0
230
1
0
SOLID
5
11A
100
AcDbEntity
8
2
62
256
6
ByLayer
370
13
48
1
60
0
100
AcDbTrace
10
0
20
21.132519
30
0
11
3.174998
21
21.550515
31
0
12
3.175002
22
20.714522
32
0
13
0
23
21.132519
33
0
39
0
210
0
220
0
230
1
0
SOLID
5
11B
100
AcDbEntity
8
2
62
256
6
ByLayer
370
13
48
1
60
0
100
AcDbTrace
10
80
20
21.132519
30
0
11
76.825002
21
20.714522
31
0
12
76.824998
22
21.550515
32
0
13
80
23
21.132519
33
0
39
0
210
0
220
0
230
1
0
ENDBLK
5
11D
100
AcDbEntity
8
0
100
AcDbBlockEnd
0
BLOCK
5
120
100
AcDbEntity
8
0
100
AcDbBlockBegin
2
DimnDraft3D22
70
0
10
0
20
0
30
0
3
DimnDraft3D22
0
LINE
5
122
100
AcDbEntity
8
SK2
62
256
6
ByLayer
370
25
48
1
60
0
100
AcDbLine
10
80
20
1.5875
30
0
11
80
21
33.911092
31
0
39
0
210
0
220
0
230
1
0
LINE
5
124
100
AcDbEntity
8
SK2
62
256
6
ByLayer
370
25
48
1
60
0
100
AcDbLine
10
-120
20
13.0875
30
0
11
-120
21
33.911092
31
0
39
0
210
0
220
0
230
1
0
LINE
5
125
100
AcDbEntity
8
SK2
62
256
6
ByLayer
370
25
48
1
60
0
100
AcDbLine
10
80
20
30.736092
30
0
11
-120
21
30.736092
31
0
39
0
210
0
220
0
230
1
0
SOLID
5
126
100
AcDbEntity
8
SK2
62
256
6
ByLayer
370
25
48
1
60
0
100
AcDbTrace
10
80
20
30.736092
30
0
11
76.825002
21
30.318095
31
0
12
76.824998
22
31.154089
32
0
13
80
23
30.736092
33
0
39
0
210
0
220
0
230
1
0
SOLID
5
127
100
AcDbEntity
8
SK2
62
256
6
ByLayer
370
25
48
1
60
0
100
AcDbTrace
10
-120
20
30.736092
30
0
11
-116.825002
21
31.154089
31
0
12
-116.824998
22
30.318095
32
0
13
-120
23
30.736092
33
0
39
0
210
0
220
0
230
1
0
MTEXT
5
128
100
AcDbEntity
8
SK2
62
256
6
ByLayer
370
13
48
1
60
0
100
AcDbMText
10
-22.289342
20
31.529842
30
0
210
0
220
0
230
1
1
\W0.7138;200
40
3.175
41
0
44
1.084337
50
0
71
7
72
5
7
iso_b_vert
0
ENDBLK
5
121
100
AcDbEntity
8
0
100
AcDbBlockEnd
0
BLOCK
5
131
100
AcDbEntity
8
0
100
AcDbBlockBegin
2
DimnDraft3D3
70
0
10
0
20
0
30
0
3
DimnDraft3D3
0
MTEXT
5
12B
100
AcDbEntity
8
SK2
62
256
6
ByLayer
370
13
48
1
60
0
100
AcDbMText
10
-61.892467
20
21.504218
30
0
210
0
220
0
230
1
1
\W0.6217;120
40
3.175
41
0
44
1.084337
50
0
71
7
72
5
7
iso_b_vert
0
LINE
5
12C
100
AcDbEntity
8
SK2
62
256
6
ByLayer
370
13
48
1
60
0
100
AcDbLine
10
-120
20
13.0875
30
0
11
-120
21
23.885468
31
0
39
0
210
0
220
0
230
1
0
LINE
5
12D
100
AcDbEntity
8
SK2
62
256
6
ByLayer
370
13
48
1
60
0
100
AcDbLine
10
0
20
13.0875
30
0
11
0
21
23.885468
31
0
39
0
210
0
220
0
230
1
0
LINE
5
12E
100
AcDbEntity
8
SK2
62
256
6
ByLayer
370
13
48
1
60
0
100
AcDbLine
10
-120
20
20.710468
30
0
11
0
21
20.710468
31
0
39
0
210
0
220
0
230
1
0
SOLID
5
12F
100
AcDbEntity
8
SK2
62
256
6
ByLayer
370
13
48
1
60
0
100
AcDbTrace
10
-120
20
20.710468
30
0
11
-116.825002
21
21.128465
31
0
12
-116.824998
22
20.292472
32
0
13
-120
23
20.710468
33
0
39
0
210
0
220
0
230
1
0
SOLID
5
130
100
AcDbEntity
8
SK2
62
256
6
ByLayer
370
13
48
1
60
0
100
AcDbTrace
10
0
20
20.710468
30
0
11
-3.174998
21
20.292472
31
0
12
-3.175002
22
21.128465
32
0
13
0
23
20.710468
33
0
39
0
210
0
220
0
230
1
0
ENDBLK
5
132
100
AcDbEntity
8
0
100
AcDbBlockEnd
0
BLOCK
5
13B
100
AcDbEntity
8
0
100
AcDbBlockBegin
2
DimnDraft3D4
70
0
10
0
20
0
30
0
3
DimnDraft3D4
0
MTEXT
5
135
100
AcDbEntity
8
SK2
62
256
6
ByLayer
370
13
48
1
60
0
100
AcDbMText
10
-127.981751
20
-1.77
30
0
210
0
220
0
230
1
1
\W0.7167;24
40
3.175
41
0
44
1.084337
50
90
71
7
72
5
7
iso_b_vert
0
LINE
5
136
100
AcDbEntity
8
SK2
62
256
6
ByLayer
370
13
48
1
60
0
100
AcDbLine
10
-120.5875
20
11.5
30
0
11
-130.363001
21
11.5
31
0
39
0
210
0
220
0
230
1
0
LINE
5
137
100
AcDbEntity
8
SK2
62
256
6
ByLayer
370
13
48
1
60
0
100
AcDbLine
10
-120.5875
20
-12.5
30
0
11
-130.363001
21
-12.5
31
0
39
0
210
0
220
0
230
1
0
LINE
5
138
100
AcDbEntity
8
SK2
62
256
6
ByLayer
370
13
48
1
60
0
100
AcDbLine
10
-127.188001
20
11.5
30
0
11
-127.188001
21
-12.5
31
0
39
0
210
0
220
0
230
1
0
SOLID
5
139
100
AcDbEntity
8
SK2
62
256
6
ByLayer
370
13
48
1
60
0
100
AcDbTrace
10
-127.188001
20
11.5
30
0
11
-126.770005
21
8.325002
31
0
12
-127.605998
22
8.324998
32
0
13
-127.188001
23
11.5
33
0
39
0
210
0
220
0
230
1
0
SOLID
5
13A
100
AcDbEntity
8
SK2
62
256
6
ByLayer
370
13
48
1
60
0
100
AcDbTrace
10
-127.188001
20
-12.5
30
0
11
-127.605998
21
-9.325002
31
0
12
-126.770005
22
-9.324998
32
0
13
-127.188001
23
-12.5
33
0
39
0
210
0
220
0
230
1
0
ENDBLK
5
13C
100
AcDbEntity
8
0
100
AcDbBlockEnd
0
BLOCK
5
146
100
AcDbEntity
8
0
100
AcDbBlockBegin
2
DimnDraft3D5
70
0
10
0
20
0
30
0
3
DimnDraft3D5
0
MTEXT
5
13F
100
AcDbEntity
8
SK2
62
256
6
ByLayer
370
13
48
1
60
0
100
AcDbMText
10
90.046585
20
27.516439
30
0
210
0
220
0
230
1
1
\W0.6740;25
40
3.175
41
0
44
1.084337
50
90
71
7
72
5
7
iso_b_vert
0
MTEXT
5
140
100
AcDbEntity
8
SK2
62
256
6
ByLayer
370
13
48
1
60
0
100
AcDbMText
10
90.046585
20
20.397494
30
0
210
0
220
0
230
1
1
%%c
40
3.175
41
0
44
1.084337
50
90
71
7
72
5
7
iso_b_vert
0
LINE
5
141
100
AcDbEntity
8
SK2
62
256
6
ByLayer
370
13
48
1
60
0
100
AcDbLine
10
81.1085
20
-12.5
30
0
11
94.809085
21
-12.5
31
0
39
0
210
0
220
0
230
1
0
LINE
5
142
100
AcDbEntity
8
SK2
62
256
6
ByLayer
370
13
48
1
60
0
100
AcDbLine
10
81.1085
20
11.5
30
0
11
94.809085
21
11.5
31
0
39
0
210
0
220
0
230
1
0
LINE
5
143
100
AcDbEntity
8
SK2
62
256
6
ByLayer
370
13
48
1
60
0
100
AcDbLine
10
91.634085
20
-12.5
30
0
11
91.634085
21
30.515979
31
0
39
0
210
0
220
0
230
1
0
SOLID
5
144
100
AcDbEntity
8
SK2
62
256
6
ByLayer
370
13
48
1
60
0
100
AcDbTrace
10
91.634085
20
-12.5
30
0
11
91.216088
21
-9.325002
31
0
12
92.052081
22
-9.324998
32
0
13
91.634085
23
-12.5
33
0
39
0
210
0
220
0
230
1
0
SOLID
5
145
100
AcDbEntity
8
SK2
62
256
6
ByLayer
370
13
48
1
60
0
100
AcDbTrace
10
91.634085
20
11.5
30
0
11
92.052081
21
8.325002
31
0
12
91.216088
22
8.324998
32
0
13
91.634085
23
11.5
33
0
39
0
210
0
220
0
230
1
0
ENDBLK
5
147
100
AcDbEntity
8
0
100
AcDbBlockEnd
0
ENDSEC
0
SECTION
2
ENTITIES
0
POINT
5
6C
100
AcDbEntity
8
80
62
256
6
ByLayer
370
18
48
1
60
0
100
AcDbPoint
10
0
20
0
30
0
39
0
210
0
220
0
230
1
50
360
0
POINT
5
6E
100
AcDbEntity
8
81
62
256
6
ByLayer
370
18
48
1
60
0
100
AcDbPoint
10
80
20
0
30
0
39
0
210
0
220
0
230
1
50
360
0
SPLINE
5
C8
100
AcDbEntity
8
SK1
62
256
6
ByLayer
370
18
48
1
60
0
100
AcDbSpline
70
4
71
3
72
11
73
7
40
0
40
0
40
0
40
0
40
0.244091100257612
40
0.489676251691515
40
0.743416097970097
40
1
40
1
40
1
40
1
41
1
10
-119
20
-4.89897948556633
30
0
41
1
10
-119.151246093048
20
-4.51781347572617
30
0
41
1
10
-119.422387168696
20
-3.74366755978034
30
0
41
1
10
-119.743801588335
20
-2.53811893454606
30
0
41
1
10
-119.951991762828
20
-1.2852284553079
30
0
41
1
10
-119.999018221763
20
-0.431884929582489
30
0
41
1
10
-120
20
0
30
0
0
SPLINE
5
C9
100
AcDbEntity
8
SK1
62
256
6
ByLayer
370
18
48
1
60
0
100
AcDbSpline
70
4
71
3
72
13
73
9
40
0
40
0
40
0
40
0
40
0.185184996106245
40
0.382246351124587
40
0.579340236821009
40
0.780830700299061
40
0.982359849048253
40
1
40
1
40
1
40
1
41
1
10
-120
20
0
30
0
41
1
10
-119.999732260675
20
0.311159102230987
30
0
41
1
10
-119.9741531142
20
0.951076347479137
30
0
41
1
10
-119.854473820481
20
1.91634578959049
30
0
41
1
10
-119.65380278776
20
2.89527158392013
30
0
41
1
10
-119.379648647436
20
3.86398436019585
30
0
41
1
10
-119.143991058239
20
4.52907904582435
30
0
41
1
10
-119.01079394564
20
4.87144958103867
30
0
41
1
10
-119
20
4.89897948556633
30
0
0
SPLINE
5
CA
100
AcDbEntity
8
1
62
256
6
ByLayer
370
18
48
1
60
0
100
AcDbSpline
70
4
71
1
72
4
73
2
40
0
40
0
40
1
40
1
41
1
10
79.521
20
4.89897948556635
30
0
41
1
10
79.8915127018922
20
3.85674242268752
30
0
0
SPLINE
5
CB
100
AcDbEntity
8
1
62
256
6
ByLayer
370
18
48
1
60
0
100
AcDbSpline
70
4
71
1
72
4
73
2
40
0
40
0
40
1
40
1
41
1
10
79.8915127018923
20
-3.85674242268754
30
0
41
1
10
79.521
20
-4.89897948556633
30
0
0
SPLINE
5
CC
100
AcDbEntity
8
1
62
256
6
ByLayer
370
18
48
1
60
0
100
AcDbSpline
70
4
71
1
72
4
73
2
40
0
40
0
40
1
40
1
41
1
10
79.8915127018923
20
-3.85674242268754
30
0
41
1
10
79.73225
20
-4.5683454401687
30
0
0
SPLINE
5
CD
100
AcDbEntity
8
1
62
256
6
ByLayer
370
18
48
1
60
0
100
AcDbSpline
70
4
71
3
72
10
73
6
40
0
40
0
40
0
40
0
40
0.525934623504186
40
0.824622818104676
40
1
40
1
40
1
40
1
41
1
10
79.73225
20
-4.5683454401687
30
0
41
1
10
79.7062207976379
20
-4.67396709893657
30
0
41
1
10
79.6743669060581
20
-4.83778484638592
30
0
41
1
10
79.6445031679581
20
-5.03646938686783
30
0
41
1
10
79.6412081930846
20
-5.12715336956577
30
0
41
1
10
79.6410275933629
20
-5.16040734629459
30
0
0
SPLINE
5
CE
100
AcDbEntity
8
1
62
256
6
ByLayer
370
18
48
1
60
0
100
AcDbSpline
70
4
71
1
72
4
73
2
40
0
40
0
40
1
40
1
41
1
10
79.73225
20
-5.28980280249553
30
0
41
1
10
80.271
20
-4.6727542761512
30
0
0
SPLINE
5
CF
100
AcDbEntity
8
1
62
256
6
ByLayer
370
18
48
1
60
0
100
AcDbSpline
70
4
71
1
72
4
73
2
40
0
40
0
40
1
40
1
41
1
10
80.271
20
-5.33483889563077
30
0
41
1
10
79.73225
20
-6.91573598044249
30
0
0
SPLINE
5
D0
100
AcDbEntity
8
1
62
256
6
ByLayer
370
18
48
1
60
0
100
AcDbSpline
70
4
71
2
72
6
73
3
40
0
40
0
40
0
40
1
40
1
40
1
41
1
10
79.73225
20
-6.91573598044248
30
0
41
1
10
79.6473412505782
20
-7.12057655727495
30
0
41
1
10
79.6410005191198
20
-7.29764901403888
30
0
0
SPLINE
5
D1
100
AcDbEntity
8
1
62
256
6
ByLayer
370
18
48
1
60
0
100
AcDbSpline
70
4
71
1
72
4
73
2
40
0
40
0
40
1
40
1
41
1
10
79.73225
20
-7.35862688270121
30
0
41
1
10
80.271
20
-6.87200042134733
30
0
0
SPLINE
5
D2
100
AcDbEntity
8
1
62
256
6
ByLayer
370
18
48
1
60
0
100
AcDbSpline
70
4
71
1
72
4
73
2
40
0
40
0
40
1
40
1
41
1
10
80.271
20
-7.28496731472602
30
0
41
1
10
79.73225
20
-8.46522464212636
30
0
0
SPLINE
5
D3
100
AcDbEntity
8
1
62
256
6
ByLayer
370
18
48
1
60
0
100
AcDbSpline
70
4
71
3
72
10
73
6
40
0
40
0
40
0
40
0
40
0.645741552554973
40
0.977472555209745
40
1
40
1
40
1
40
1
41
1
10
79.73225
20
-8.46522464212636
30
0
41
1
10
79.6973158581982
20
-8.53382923621455
30
0
41
1
10
79.6611129635577
20
-8.63044234160285
30
0
41
1
10
79.6414635245521
20
-8.72628753385642
30
0
41
1
10
79.6410112518054
20
-8.75569705641509
30
0
41
1
10
79.641000449002
20
-8.75755697857319
30
0
0
SPLINE
5
D4
100
AcDbEntity
8
1
62
256
6
ByLayer
370
18
48
1
60
0
100
AcDbSpline
70
4
71
1
72
4
73
2
40
0
40
0
40
1
40
1
41
1
10
79.73225
20
-8.78588444656178
30
0
41
1
10
80.271
20
-8.33601505857004
30
0
0
SPLINE
5
D5
100
AcDbEntity
8
1
62
256
6
ByLayer
370
18
48
1
60
0
100
AcDbSpline
70
4
71
1
72
4
73
2
40
0
40
0
40
1
40
1
41
1
10
80.271
20
-8.63458114276065
30
0
41
1
10
79.73225
20
-9.61080914034505
30
0
0
SPLINE
5
D6
100
AcDbEntity
8
1
62
256
6
ByLayer
370
18
48
1
60
0
100
AcDbSpline
70
4
71
3
72
10
73
6
40
0
40
0
40
0
40
0
40
0.545679595672291
40
0.822040952921978
40
1
40
1
40
1
40
1
41
1
10
79.73225
20
-9.61080914034505
30
0
41
1
10
79.7041021185314
20
-9.6586487401042
30
0
41
1
10
79.6715782351557
20
-9.72653713101795
30
0
41
1
10
79.6453304716887
20
-9.80611535457746
30
0
41
1
10
79.6415276998986
20
-9.83687106211837
30
0
41
1
10
79.6410070376844
20
-9.84835937641311
30
0
0
SPLINE
5
D7
100
AcDbEntity
8
1
62
256
6
ByLayer
370
18
48
1
60
0
100
AcDbSpline
70
4
71
1
72
4
73
2
40
0
40
0
40
1
40
1
41
1
10
79.73225
20
-9.85439706008742
30
0
41
1
10
80.271
20
-9.41429255559944
30
0
0
SPLINE
5
D8
100
AcDbEntity
8
1
62
256
6
ByLayer
370
18
48
1
60
0
100
AcDbSpline
70
4
71
1
72
4
73
2
40
0
40
0
40
1
40
1
41
1
10
80.271
20
-9.63930673052836
30
0
41
1
10
79.73225
20
-10.4857177352157
30
0
0
SPLINE
5
D9
100
AcDbEntity
8
1
62
256
6
ByLayer
370
18
48
1
60
0
100
AcDbSpline
70
4
71
3
72
10
73
6
40
0
40
0
40
0
40
0
40
0.526917465956947
40
0.808564407964008
40
1
40
1
40
1
40
1
41
1
10
79.73225
20
-10.4857177352157
30
0
41
1
10
79.7050769554308
20
-10.5263368124713
30
0
41
1
10
79.6727372785809
20
-10.5839549418005
30
0
41
1
10
79.6454698486861
20
-10.6514284861078
30
0
41
1
10
79.6414834160145
20
-10.6767751808335
30
0
41
1
10
79.6410004434463
20
-10.6862930857991
30
0
0
SPLINE
5
DA
100
AcDbEntity
8
1
62
256
6
ByLayer
370
18
48
1
60
0
100
AcDbSpline
70
4
71
1
72
4
73
2
40
0
40
0
40
1
40
1
41
1
10
79.73225
20
-10.6724653818779
30
0
41
1
10
80.271
20
-10.2295484547522
30
0
0
SPLINE
5
DB
100
AcDbEntity
8
1
62
256
6
ByLayer
370
18
48
1
60
0
100
AcDbSpline
70
4
71
1
72
4
73
2
40
0
40
0
40
1
40
1
41
1
10
80.271
20
-10.3995902313265
30
0
41
1
10
79.73225
20
-11.1538289619795
30
0
0
SPLINE
5
DC
100
AcDbEntity
8
1
62
256
6
ByLayer
370
18
48
1
60
0
100
AcDbSpline
70
4
71
3
72
11
73
7
40
0
40
0
40
0
40
0
40
0.480609355804193
40
0.770968203727933
40
0.996743393635316
40
1
40
1
40
1
40
1
41
1
10
79.73225
20
-11.1538289619795
30
0
41
1
10
79.7077565012186
20
-11.1868640022235
30
0
41
1
10
79.676074980672
20
-11.2356212246285
30
0
41
1
10
79.6471272342792
20
-11.2935532216921
30
0
41
1
10
79.6410406076359
20
-11.3172665208873
30
0
41
1
10
79.6410001359144
20
-11.3252530445039
30
0
41
1
10
79.6410000062991
20
-11.3253662263497
30
0
0
SPLINE
5
DD
100
AcDbEntity
8
1
62
256
6
ByLayer
370
18
48
1
60
0
100
AcDbSpline
70
4
71
1
72
4
73
2
40
0
40
0
40
1
40
1
41
1
10
79.73225
20
-11.2946400224578
30
0
41
1
10
80.271
20
-10.8412830815283
30
0
0
SPLINE
5
DE
100
AcDbEntity
8
1
62
256
6
ByLayer
370
18
48
1
60
0
100
AcDbSpline
70
4
71
1
72
4
73
2
40
0
40
0
40
1
40
1
41
1
10
80.271
20
-10.9663904596632
30
0
41
1
10
79.73225
20
-11.6507735624537
30
0
0
SPLINE
5
DF
100
AcDbEntity
8
1
62
256
6
ByLayer
370
18
48
1
60
0
100
AcDbSpline
70
4
71
3
72
11
73
7
40
0
40
0
40
0
40
0
40
0.44294460575016
40
0.73405779805609
40
0.961334347078442
40
1
40
1
40
1
40
1
41
1
10
79.73225
20
-11.6507735624537
30
0
41
1
10
79.7099527550525
20
-11.6783205754548
30
0
41
1
10
79.6793436841229
20
-11.7199159520568
30
0
41
1
10
79.6495825593408
20
-11.7690068420046
30
0
41
1
10
79.6415197333393
20
-11.7903216832456
30
0
41
1
10
79.6410138243338
20
-11.7973188971531
30
0
41
1
10
79.641000283227
20
-11.7982829874517
30
0
0
SPLINE
5
E0
100
AcDbEntity
8
1
62
256
6
ByLayer
370
18
48
1
60
0
100
AcDbSpline
70
4
71
1
72
4
73
2
40
0
40
0
40
1
40
1
41
1
10
79.73225
20
-11.7520750995911
30
0
41
1
10
80.271
20
-11.282649339563
30
0
0
SPLINE
5
E1
100
AcDbEntity
8
1
62
256
6
ByLayer
370
18
48
1
60
0
100
AcDbSpline
70
4
71
1
72
4
73
2
40
0
40
0
40
1
40
1
41
1
10
80.271
20
-11.3686834087366
30
0
41
1
10
79.73225
20
-11.9978393343988
30
0
0
SPLINE
5
E2
100
AcDbEntity
8
1
62
256
6
ByLayer
370
18
48
1
60
0
100
AcDbSpline
70
4
71
3
72
11
73
7
40
0
40
0
40
0
40
0
40
0.33308795331635
40
0.64481306281028
40
0.882871267765051
40
1
40
1
40
1
40
1
41
1
10
79.73225
20
-11.9978393343988
30
0
41
1
10
79.7158970997593
20
-12.0165880876396
30
0
41
1
10
79.6879207713649
20
-12.0502576314821
30
0
41
1
10
79.6566401643299
20
-12.0921054132819
30
0
41
1
10
79.642933659516
20
-12.1156284907934
30
0
41
1
10
79.641099965024
20
-12.1229478471312
30
0
41
1
10
79.6410001507984
20
-12.1249009548997
30
0
0
SPLINE
5
E3
100
AcDbEntity
8
1
62
256
6
ByLayer
370
18
48
1
60
0
100
AcDbSpline
70
4
71
1
72
4
73
2
40
0
40
0
40
1
40
1
41
1
10
79.73225
20
-12.0635253991507
30
0
41
1
10
80.271
20
-11.5731557228463
30
0
0
SPLINE
5
E4
100
AcDbEntity
8
1
62
256
6
ByLayer
370
18
48
1
60
0
100
AcDbSpline
70
4
71
1
72
4
73
2
40
0
40
0
40
1
40
1
41
1
10
80.271
20
-11.6235624996115
30
0
41
1
10
79.73225
20
-12.2078160530261
30
0
0
SPLINE
5
E5
100
AcDbEntity
8
1
62
256
6
ByLayer
370
18
48
1
60
0
100
AcDbSpline
70
4
71
3
72
11
73
7
40
0
40
0
40
0
40
0
40
0.349370500438296
40
0.638637293876455
40
0.869106903891303
40
1
40
1
40
1
40
1
41
1
10
79.73225
20
-12.2078160530261
30
0
41
1
10
79.7150684460754
20
-12.2262074939963
30
0
41
1
10
79.6874766518459
20
-12.2565788574195
30
0
41
1
10
79.6567181271308
20
-12.2925596197081
30
0
41
1
10
79.6431074923358
20
-12.3109044679547
30
0
41
1
10
79.6410976967449
20
-12.3156176109689
30
0
41
1
10
79.6410000664657
20
-12.3167166460803
30
0
0
SPLINE
5
E6
100
AcDbEntity
8
1
62
256
6
ByLayer
370
18
48
1
60
0
100
AcDbSpline
70
4
71
1
72
4
73
2
40
0
40
0
40
1
40
1
41
1
10
79.73225
20
-12.240139744524
30
0
41
1
10
80.271
20
-11.7240219485873
30
0
0
SPLINE
5
E7
100
AcDbEntity
8
1
62
256
6
ByLayer
370
18
48
1
60
0
100
AcDbSpline
70
4
71
1
72
4
73
2
40
0
40
0
40
1
40
1
41
1
10
80.271
20
-11.7406323473937
30
0
41
1
10
79.73225
20
-12.2877335939139
30
0
0
SPLINE
5
E8
100
AcDbEntity
8
1
62
256
6
ByLayer
370
18
48
1
60
0
100
AcDbSpline
70
4
71
3
72
11
73
7
40
0
40
0
40
0
40
0
40
0.363287111290101
40
0.632578006283307
40
0.855518608046188
40
1
40
1
40
1
40
1
41
1
10
79.73225
20
-12.2877335939139
30
0
41
1
10
79.7143093449438
20
-12.305822034923
30
0
41
1
10
79.6870219513705
20
-12.3333607295675
30
0
41
1
10
79.6567361844288
20
-12.3640364762847
30
0
41
1
10
79.6432428048483
20
-12.3777243681483
30
0
41
1
10
79.6410811626252
20
-12.3799169186725
30
0
41
1
10
79.641
20
-12.38
30
0
0
SPLINE
5
E9
100
AcDbEntity
8
1
62
256
6
ByLayer
370
18
48
1
60
0
100
AcDbSpline
70
4
71
1
72
4
73
2
40
0
40
0
40
1
40
1
41
1
10
80.271
20
10.8412830815283
30
0
41
1
10
79.73225
20
11.2946400224578
30
0
0
SPLINE
5
EA
100
AcDbEntity
8
1
62
256
6
ByLayer
370
18
48
1
60
0
100
AcDbSpline
70
4
71
3
72
12
73
8
40
0
40
0
40
0
40
0
40
0.231480102558283
40
0.462123651622591
40
0.694380869318179
40
0.893083043456557
40
1
40
1
40
1
40
1
41
1
10
79.7322500000002
20
11.2946400224578
30
0
41
1
10
79.7208850704444
20
11.3043276532536
30
0
41
1
10
79.6996241546114
20
11.3206922624265
30
0
41
1
10
79.6700085570522
20
11.3384806826822
30
0
41
1
10
79.6496125039465
20
11.3428461089969
30
0
41
1
10
79.6419782019699
20
11.3355180180312
30
0
41
1
10
79.6409438944216
20
11.328156115494
30
0
41
1
10
79.6410009088944
20
11.3251321151027
30
0
0
SPLINE
5
EB
100
AcDbEntity
8
1
62
256
6
ByLayer
370
18
48
1
60
0
100
AcDbSpline
70
4
71
1
72
4
73
2
40
0
40
0
40
1
40
1
41
1
10
79.73225
20
11.1538289619795
30
0
41
1
10
80.271
20
10.3995902313265
30
0
0
SPLINE
5
EC
100
AcDbEntity
8
1
62
256
6
ByLayer
370
18
48
1
60
0
100
AcDbSpline
70
4
71
1
72
4
73
2
40
0
40
0
40
1
40
1
41
1
10
80.271
20
10.2295484547522
30
0
41
1
10
79.73225
20
10.6724653818779
30
0
0
SPLINE
5
ED
100
AcDbEntity
8
1
62
256
6
ByLayer
370
18
48
1
60
0
100
AcDbSpline
70
4
71
3
72
12
73
8
40
0
40
0
40
0
40
0
40
0.200181900414742
40
0.414389023711306
40
0.630028444429585
40
0.815820213355129
40
1
40
1
40
1
40
1
41
1
10
79.7322500000003
20
10.6724653818778
30
0
41
1
10
79.7223507701541
20
10.6807412049953
30
0
41
1
10
79.7028588845095
20
10.6951744690972
30
0
41
1
10
79.6746521372597
20
10.7105743498161
30
0
41
1
10
79.653651694288
20
10.7131954498675
30
0
41
1
10
79.642892486012
20
10.7035659632027
30
0
41
1
10
79.6408132089287
20
10.6928448237194
30
0
41
1
10
79.6410010958171
20
10.6861577308969
30
0
0
SPLINE
5
EE
100
AcDbEntity
8
1
62
256
6
ByLayer
370
18
48
1
60
0
100
AcDbSpline
70
4
71
1
72
4
73
2
40
0
40
0
40
1
40
1
41
1
10
79.73225
20
10.4857177352157
30
0
41
1
10
80.271
20
9.63930673052836
30
0
0
SPLINE
5
EF
100
AcDbEntity
8
1
62
256
6
ByLayer
370
18
48
1
60
0
100
AcDbSpline
70
4
71
1
72
4
73
2
40
0
40
0
40
1
40
1
41
1
10
80.271
20
9.41429255559944
30
0
41
1
10
79.73225
20
9.85439706008742
30
0
0
SPLINE
5
F0
100
AcDbEntity
8
1
62
256
6
ByLayer
370
18
48
1
60
0
100
AcDbSpline
70
4
71
3
72
13
73
9
40
0
40
0
40
0
40
0
40
0.167240470114915
40
0.362015125418068
40
0.558092142198145
40
0.727011612384562
40
0.966209183304071
40
1
40
1
40
1
40
1
41
1
10
79.7322500000007
20
9.85439706008715
30
0
41
1
10
79.7238893356767
20
9.8613627454527
30
0
41
1
10
79.7064083242651
20
9.87407950636638
30
0
41
1
10
79.6800242172899
20
9.88764270671052
30
0
41
1
10
79.6587951358282
20
9.88901189296134
30
0
41
1
10
79.6446930768003
20
9.87779025991198
30
0
41
1
10
79.641211388179
20
9.86196359465081
30
0
41
1
10
79.6409916034661
20
9.85073318741977
30
0
41
1
10
79.6410003695871
20
9.84930867733357
30
0
0
SPLINE
5
F1
100
AcDbEntity
8
1
62
256
6
ByLayer
370
18
48
1
60
0
100
AcDbSpline
70
4
71
1
72
4
73
2
40
0
40
0
40
1
40
1
41
1
10
79.73225
20
9.61080914034505
30
0
41
1
10
80.271
20
8.63458114276065
30
0
0
SPLINE
5
F2
100
AcDbEntity
8
1
62
256
6
ByLayer
370
18
48
1
60
0
100
AcDbSpline
70
4
71
1
72
4
73
2
40
0
40
0
40
1
40
1
41
1
10
80.271
20
8.33601505857004
30
0
41
1
10
79.73225
20
8.78588444656178
30
0
0
SPLINE
5
F3
100
AcDbEntity
8
1
62
256
6
ByLayer
370
18
48
1
60
0
100
AcDbSpline
70
4
71
3
72
13
73
9
40
0
40
0
40
0
40
0
40
0.130307103749834
40
0.323908710135214
40
0.494817830063457
40
0.639384076730617
40
0.866836580659568
40
1
40
1
40
1
40
1
41
1
10
79.7322500000019
20
8.78588444656103
30
0
41
1
10
79.725538358709
20
8.79161630959276
30
0
41
1
10
79.7092105788452
20
8.80369891602728
30
0
41
1
10
79.6838797396292
20
8.81617024418503
30
0
41
1
10
79.662748752799
20
8.81515089058576
30
0
41
1
10
79.6479213194585
20
8.80213138192733
30
0
41
1
10
79.6419018882901
20
8.78097308248885
30
0
41
1
10
79.6408421181566
20
8.76353317479932
30
0
41
1
10
79.6410052774125
20
8.75656778647348
30
0
0
SPLINE
5
F4
100
AcDbEntity
8
1
62
256
6
ByLayer
370
18
48
1
60
0
100
AcDbSpline
70
4
71
1
72
4
73
2
40
0
40
0
40
1
40
1
41
1
10
79.73225
20
8.46522464212636
30
0
41
1
10
80.271
20
7.28496731472601
30
0
0
SPLINE
5
F5
100
AcDbEntity
8
1
62
256
6
ByLayer
370
18
48
1
60
0
100
AcDbSpline
70
4
71
1
72
4
73
2
40
0
40
0
40
1
40
1
41
1
10
80.271
20
6.87200042134733
30
0
41
1
10
79.73225
20
7.35862688270121
30
0
0
SPLINE
5
F6
100
AcDbEntity
8
1
62
256
6
ByLayer
370
18
48
1
60
0
100
AcDbSpline
70
4
71
3
72
14
73
10
40
0
40
0
40
0
40
0
40
0.0907799683164425
40
0.242088607027791
40
0.355695581184139
40
0.469180356968435
40
0.632539634262411
40
0.912014528228799
40
1
40
1
40
1
40
1
41
1
10
79.7322500000061
20
7.35862688269815
30
0
41
1
10
79.7273953426407
20
7.36309200926985
30
0
41
1
10
79.7144646620603
20
7.37348895244818
30
0
41
1
10
79.6944831052267
20
7.38461738912769
30
0
41
1
10
79.6752408707684
20
7.38626791884764
30
0
41
1
10
79.659631515193
20
7.37846582208446
30
0
41
1
10
79.6457171731612
20
7.35534584137326
30
0
41
1
10
79.6414835059429
20
7.32455555062665
30
0
41
1
10
79.6409309121851
20
7.30200736902692
30
0
41
1
10
79.6410046969591
20
7.29644401145869
30
0
0
SPLINE
5
F7
100
AcDbEntity
8
1
62
256
6
ByLayer
370
18
48
1
60
0
100
AcDbSpline
70
4
71
1
72
4
73
2
40
0
40
0
40
1
40
1
41
1
10
79.73225
20
6.91573598044249
30
0
41
1
10
80.271
20
5.33483889563077
30
0
0
SPLINE
5
F8
100
AcDbEntity
8
1
62
256
6
ByLayer
370
18
48
1
60
0
100
AcDbSpline
70
4
71
1
72
4
73
2
40
0
40
0
40
1
40
1
41
1
10
80.271
20
4.67275427616269
30
0
41
1
10
79.73225
20
5.28980280249553
30
0
0
SPLINE
5
F9
100
AcDbEntity
8
1
62
256
6
ByLayer
370
18
48
1
60
0
100
AcDbSpline
70
4
71
3
72
14
73
10
40
0
40
0
40
0
40
0
40
0.109342584805046
40
0.182599253080302
40
0.256361666700841
40
0.323283419577455
40
0.426821569309512
40
0.620067492932092
40
1
40
1
40
1
40
1
41
1
10
79.7322500000237
20
5.28980280247638
30
0
41
1
10
79.7256878046258
20
5.29756028275902
30
0
41
1
10
79.7143533992577
20
5.30777349770065
30
0
41
1
10
79.6969685081305
20
5.31729474570024
30
0
41
1
10
79.6828582463882
20
5.31822483399802
30
0
41
1
10
79.6695319383769
20
5.31136225733773
30
0
41
1
10
79.6554857943649
20
5.29135768964452
30
0
41
1
10
79.6429126284384
20
5.2402468100329
30
0
41
1
10
79.6389806218973
20
5.19359825871484
30
0
41
1
10
79.6410391506814
20
5.15905671087029
30
0
0
SPLINE
5
FA
100
AcDbEntity
8
1
62
256
6
ByLayer
370
18
48
1
60
0
100
AcDbSpline
70
4
71
1
72
4
73
2
40
0
40
0
40
1
40
1
41
1
10
79.8525717901645
20
11.5
30
0
41
1
10
80.271
20
10.9663904596632
30
0
0
SPLINE
5
FB
100
AcDbEntity
8
1
62
256
6
ByLayer
370
18
48
1
60
0
100
AcDbSpline
70
4
71
1
72
4
73
2
40
0
40
0
40
1
40
1
41
1
10
79.73225
20
4.5683454401687
30
0
41
1
10
79.8915127018922
20
3.85674242268752
30
0
0
SPLINE
5
FC
100
AcDbEntity
8
1
62
256
6
ByLayer
370
18
48
1
60
0
100
AcDbSpline
70
4
71
3
72
14
73
10
40
0
40
0
40
0
40
0
40
0.267120466906722
40
0.575029237593395
40
0.670372036100121
40
0.743598405040004
40
0.817203495589684
40
0.884392368803546
40
1
40
1
40
1
40
1
41
1
10
79.6410275933628
20
-5.16040734629459
30
0
41
1
10
79.6400742090108
20
-5.18399829609845
30
0
41
1
10
79.6428007574702
20
-5.23110439232337
30
0
41
1
10
79.6513909266505
20
-5.28535142767697
30
0
41
1
10
79.6696010203136
20
-5.31133846389617
30
0
41
1
10
79.6827049645738
20
-5.31829009007509
30
0
41
1
10
79.696754376304
20
-5.31724730425014
30
0
41
1
10
79.7140135258197
20
-5.30807017581155
30
0
41
1
10
79.7253349177724
20
-5.29799592781708
30
0
41
1
10
79.7322500000001
20
-5.28980280249555
30
0
0
SPLINE
5
FD
100
AcDbEntity
8
1
62
256
6
ByLayer
370
18
48
1
60
0
100
AcDbSpline
70
4
71
3
72
10
73
6
40
0
40
0
40
0
40
0
40
0.103288009067861
40
0.550967073567487
40
1
40
1
40
1
40
1
41
1
10
79.6410391506814
20
5.1590567108703
30
0
41
1
10
79.6414324705234
20
5.1394637844181
30
0
41
1
10
79.6450994432662
20
5.03450250879113
30
0
41
1
10
79.6724702376737
20
4.83600437177499
30
0
41
1
10
79.7092568314764
20
4.65827438895954
30
0
41
1
10
79.73225
20
4.56834544016871
30
0
0
SPLINE
5
FE
100
AcDbEntity
8
1
62
256
6
ByLayer
370
18
48
1
60
0
100
AcDbSpline
70
4
71
3
72
12
73
8
40
0
40
0
40
0
40
0
40
0.0585550559659784
40
0.505901505794716
40
0.736227137721529
40
0.928456612796676
40
1
40
1
40
1
40
1
41
1
10
79.6410005191198
20
-7.29764901403888
30
0
41
1
10
79.6409886692229
20
-7.30008174002105
30
0
41
1
10
79.6412160419291
20
-7.32084285608797
30
0
41
1
10
79.6442776865598
20
-7.34978028172718
30
0
41
1
10
79.6569906970099
20
-7.37535509800583
30
0
41
1
10
79.6690374945245
20
-7.38381427669775
30
0
41
1
10
79.6769399428092
20
-7.38511331710667
30
0
41
1
10
79.6791958159639
20
-7.38526606449691
30
0
0
SPLINE
5
FF
100
AcDbEntity
8
1
62
256
6
ByLayer
370
18
48
1
60
0
100
AcDbSpline
70
4
71
3
72
10
73
6
40
0
40
0
40
0
40
0
40
0.244570774377084
40
0.584399881961043
40
1
40
1
40
1
40
1
41
1
10
79.6791958159639
20
-7.38526606449691
30
0
41
1
10
79.6831498059509
20
-7.38542441980646
30
0
41
1
10
79.6928437293204
20
-7.38440131055015
30
0
41
1
10
79.7113172827272
20
-7.37571116166507
30
0
41
1
10
79.7247762530501
20
-7.36558081082206
30
0
41
1
10
79.73225
20
-7.35862688270122
30
0
0
SPLINE
5
100
100
AcDbEntity
8
1
62
256
6
ByLayer
370
18
48
1
60
0
100
AcDbSpline
70
4
71
2
72
6
73
3
40
0
40
0
40
0
40
1
40
1
40
1
41
1
10
79.6410046969591
20
7.29644401145869
30
0
41
1
10
79.6497604371729
20
7.11785984629925
30
0
41
1
10
79.73225
20
6.91573598044246
30
0
0
SPLINE
5
101
100
AcDbEntity
8
1
62
256
6
ByLayer
370
18
48
1
60
0
100
AcDbSpline
70
4
71
3
72
11
73
7
40
0
40
0
40
0
40
0
40
0.299885116516617
40
0.658561874791522
40
0.885752752629668
40
1
40
1
40
1
40
1
41
1
10
79.641000449002
20
-8.75755697857319
30
0
41
1
10
79.6406703551956
20
-8.76802344691722
30
0
41
1
10
79.6428497664087
20
-8.78800236210634
30
0
41
1
10
79.6527075653179
20
-8.80952447083736
30
0
41
1
10
79.6686638937306
20
-8.81573620781159
30
0
41
1
10
79.6781737922283
20
-8.81502278081466
30
0
41
1
10
79.6815758479704
20
-8.81439513288842
30
0
0
SPLINE
5
102
100
AcDbEntity
8
1
62
256
6
ByLayer
370
18
48
1
60
0
100
AcDbSpline
70
4
71
3
72
10
73
6
40
0
40
0
40
0
40
0
40
0.219670322496126
40
0.749029864082857
40
1
40
1
40
1
40
1
41
1
10
79.6815758479704
20
-8.81439513288842
30
0
41
1
10
79.6849936447649
20
-8.81370469227019
30
0
41
1
10
79.6968420434266
20
-8.810337661986
30
0
41
1
10
79.7145007775395
20
-8.79993311773665
30
0
41
1
10
79.7279010312379
20
-8.78956030944887
30
0
41
1
10
79.7322500000326
20
-8.78588444655163
30
0
0
SPLINE
5
103
100
AcDbEntity
8
1
62
256
6
ByLayer
370
18
48
1
60
0
100
AcDbSpline
70
4
71
3
72
10
73
6
40
0
40
0
40
0
40
0
40
0.158074141884657
40
0.618723320980829
40
1
40
1
40
1
40
1
41
1
10
79.6410052774125
20
8.75656778647348
30
0
41
1
10
79.6415095048926
20
8.74313839359063
30
0
41
1
10
79.646174533825
20
8.68935801067675
30
0
41
1
10
79.6773407664939
20
8.58857099215642
30
0
41
1
10
79.7129303017862
20
8.5044024755659
30
0
41
1
10
79.73225
20
8.46522464212636
30
0
0
SPLINE
5
104
100
AcDbEntity
8
1
62
256
6
ByLayer
370
18
48
1
60
0
100
AcDbSpline
70
4
71
3
72
10
73
6
40
0
40
0
40
0
40
0
40
0.231487098965033
40
0.670623613354691
40
1
40
1
40
1
40
1
41
1
10
79.6410003695871
20
9.84930867733358
30
0
41
1
10
79.6418848982629
20
9.83403972200338
30
0
41
1
10
79.6485509071675
20
9.78772811218212
30
0
41
1
10
79.6824484064386
20
9.70356230246135
30
0
41
1
10
79.7157308440185
20
9.63922941005738
30
0
41
1
10
79.73225
20
9.61080914034505
30
0
0
SPLINE
5
105
100
AcDbEntity
8
1
62
256
6
ByLayer
370
18
48
1
60
0
100
AcDbSpline
70
4
71
3
72
13
73
9
40
0
40
0
40
0
40
0
40
0.149091420999601
40
0.342542673938154
40
0.537436452174627
40
0.709329403864473
40
0.925170870121936
40
1
40
1
40
1
40
1
41
1
10
79.6410070376844
20
-9.84835937641311
30
0
41
1
10
79.6408114329797
20
-9.85490965216278
30
0
41
1
10
79.6421056202292
20
-9.86817996442208
30
0
41
1
10
79.6496027768027
20
-9.88424598499666
30
0
41
1
10
79.6665589630671
20
-9.88994274271425
30
0
41
1
10
79.6914843346295
20
-9.88290254486097
30
0
41
1
10
79.7142878216278
20
-9.86854415598926
30
0
41
1
10
79.728542939606
20
-9.8574488747899
30
0
41
1
10
79.732250000003
20
-9.85439706008651
30
0
0
SPLINE
5
106
100
AcDbEntity
8
1
62
256
6
ByLayer
370
18
48
1
60
0
100
AcDbSpline
70
4
71
3
72
13
73
9
40
0
40
0
40
0
40
0
40
0.0474900768900338
40
0.262176384730815
40
0.478365749104869
40
0.665736863586059
40
0.907797407895773
40
1
40
1
40
1
40
1
41
1
10
79.6410004434463
20
-10.6862930857991
30
0
41
1
10
79.6409856302843
20
-10.6879440243469
30
0
41
1
10
79.6413303444651
20
-10.6966292438394
30
0
41
1
10
79.645715173158
20
-10.7092414453006
30
0
41
1
10
79.6619082611574
20
-10.7135427262871
30
0
41
1
10
79.6873213473206
20
-10.7047460876007
30
0
41
1
10
79.7118677506923
20
-10.6886761888625
30
0
41
1
10
79.7277866224046
20
-10.6761589357035
30
0
41
1
10
79.732250000005
20
-10.6724653818764
30
0
0
SPLINE
5
107
100
AcDbEntity
8
1
62
256
6
ByLayer
370
18
48
1
60
0
100
AcDbSpline
70
4
71
3
72
11
73
7
40
0
40
0
40
0
40
0
40
0.0483188377386058
40
0.321676692793118
40
0.76054406073632
40
1
40
1
40
1
40
1
41
1
10
79.6410010958172
20
10.6861577308969
30
0
41
1
10
79.6410364687053
20
10.6838642190676
30
0
41
1
10
79.6418570237501
20
10.6681603154257
30
0
41
1
10
79.6554232832629
20
10.6213509600996
30
0
41
1
10
79.6900320290382
20
10.5530332434686
30
0
41
1
10
79.7204787392711
20
10.5035635793041
30
0
41
1
10
79.7322499999954
20
10.4857177352159
30
0
0
SPLINE
5
108
100
AcDbEntity
8
1
62
256
6
ByLayer
370
18
48
1
60
0
100
AcDbSpline
70
4
71
3
72
12
73
8
40
0
40
0
40
0
40
0
40
0.213484102384091
40
0.432168674349083
40
0.62862087703903
40
0.89325642203842
40
1
40
1
40
1
40
1
41
1
10
79.6410000062991
20
-11.3253662263497
30
0
41
1
10
79.6408917581718
20
-11.3315613616354
30
0
41
1
10
79.6439934772457
20
-11.3402431446011
30
0
41
1
10
79.6588156650288
20
-11.3420594990345
30
0
41
1
10
79.6839093258592
20
-11.3310850013292
30
0
41
1
10
79.7097585703478
20
-11.3130368323155
30
0
41
1
10
79.7271420315157
20
-11.2989573809917
30
0
41
1
10
79.7322500000061
20
-11.2946400224557
30
0
0
SPLINE
5
109
100
AcDbEntity
8
1
62
256
6
ByLayer
370
18
48
1
60
0
100
AcDbSpline
70
4
71
3
72
11
73
7
40
0
40
0
40
0
40
0
40
0.114908749294121
40
0.397853912834091
40
0.828489753563098
40
1
40
1
40
1
40
1
41
1
10
79.6410009088944
20
11.3251321151027
30
0
41
1
10
79.6411594148022
20
11.3209561428857
30
0
41
1
10
79.6432974724352
20
11.3052649910631
30
0
41
1
10
79.6619869395335
20
11.260521717925
30
0
41
1
10
79.6964224591882
20
11.2042674299904
30
0
41
1
10
79.7239382469812
20
11.1651688138049
30
0
41
1
10
79.73225
20
11.1538289619795
30
0
0
SPLINE
5
10A
100
AcDbEntity
8
1
62
256
6
ByLayer
370
18
48
1
60
0
100
AcDbSpline
70
4
71
3
72
12
73
8
40
0
40
0
40
0
40
0
40
0.170659557561937
40
0.387451261764409
40
0.589665989295041
40
0.871605397554887
40
1
40
1
40
1
40
1
41
1
10
79.641000283227
20
-11.7982829874517
30
0
41
1
10
79.6409520711427
20
-11.8019637786855
30
0
41
1
10
79.6432662275527
20
-11.8076075159008
30
0
41
1
10
79.6557367104083
20
-11.8068897417832
30
0
41
1
10
79.68000598631
20
-11.7938342496183
30
0
41
1
10
79.7071172480225
20
-11.7734439340102
30
0
41
1
10
79.7261211153172
20
-11.7574269990051
30
0
41
1
10
79.7322500000106
20
-11.7520750995866
30
0
0
SPLINE
5
10B
100
AcDbEntity
8
1
62
256
6
ByLayer
370
18
48
1
60
0
100
AcDbSpline
70
4
71
1
72
4
73
2
40
0
40
0
40
1
40
1
41
1
10
80.271
20
11.282649339563
30
0
41
1
10
80.0218844266379
20
11.5
30
0
0
SPLINE
5
10C
100
AcDbEntity
8
1
62
256
6
ByLayer
370
18
48
1
60
0
100
AcDbSpline
70
4
71
1
72
4
73
2
40
0
40
0
40
1
40
1
41
1
10
80.1597869318516
20
11.5
30
0
41
1
10
80.271
20
11.3686834087366
30
0
0
SPLINE
5
10D
100
AcDbEntity
8
1
62
256
6
ByLayer
370
18
48
1
60
0
100
AcDbSpline
70
4
71
1
72
4
73
2
40
0
40
0
40
1
40
1
41
1
10
80.1597869318516
20
11.5
30
0
41
1
10
80.0218844266379
20
11.5
30
0
0
SPLINE
5
10E
100
AcDbEntity
8
1
62
256
6
ByLayer
370
18
48
1
60
0
100
AcDbSpline
70
4
71
3
72
12
73
8
40
0
40
0
40
0
40
0
40
0.0875404208707881
40
0.306019354289519
40
0.511065355130444
40
0.794892985150606
40
1
40
1
40
1
40
1
41
1
10
79.6410001507984
20
-12.1249009548997
30
0
41
1
10
79.6409880420816
20
-12.1261473956113
30
0
41
1
10
79.6419648337012
20
-12.1294168157099
30
0
41
1
10
79.6499249082181
20
-12.1284642409282
30
0
41
1
10
79.6713218658373
20
-12.1151467098039
30
0
41
1
10
79.700224472356
20
-12.091987134192
30
0
41
1
10
79.7223904235187
20
-12.0725084367706
30
0
41
1
10
79.73225
20
-12.0635253991507
30
0
0
SPLINE
5
10F
100
AcDbEntity
8
1
62
256
6
ByLayer
370
18
48
1
60
0
100
AcDbSpline
70
4
71
3
72
11
73
7
40
0
40
0
40
0
40
0
40
0.234552863643636
40
0.47021200106244
40
0.827105985047006
40
1
40
1
40
1
40
1
41
1
10
79.6424029082814
20
-12.3175938795945
30
0
41
1
10
79.6445170896928
20
-12.3169647909606
30
0
41
1
10
79.6514261664462
20
-12.3127908741979
30
0
41
1
10
79.6745238557283
20
-12.2937111416798
30
0
41
1
10
79.703330478243
20
-12.2674873555943
30
0
41
1
10
79.7249071479135
20
-12.2471450854789
30
0
41
1
10
79.7322500000073
20
-12.2401397445188
30
0
0
INSERT
5
129
100
AcDbEntity
8
SK2
62
256
6
ByLayer
370
25
48
1
60
0
100
AcDbBlockReference
2
DimnDraft3D22
10
0
20
0
30
0
41
1
42
1
43
1
50
0
210
0
220
0
230
1
0
LINE
5
70
100
AcDbEntity
8
81
62
256
6
ByLayer
370
18
48
1
60
0
100
AcDbLine
10
80
20
0
30
0
11
88
21
0
31
0
39
0
210
0
220
0
230
1
0
LINE
5
71
100
AcDbEntity
8
4
62
256
6
ByLayer
370
18
48
0.05
60
0
100
AcDbLine
10
0
20
0
30
0
11
80
21
0
31
0
39
0
210
0
220
0
230
1
0
LINE
5
73
100
AcDbEntity
8
SK4
62
256
6
ByLayer
370
18
48
0.05
60
0
100
AcDbLine
10
-125
20
0
30
0
11
85
21
0
31
0
39
0
210
0
220
0
230
1
0
LINE
5
75
100
AcDbEntity
8
80
62
256
6
ByLayer
370
18
48
1
60
0
100
AcDbLine
10
0
20
0
30
0
11
-8
21
0
31
0
39
0
210
0
220
0
230
1
0
LINE
5
76
100
AcDbEntity
8
SK1
62
256
6
ByLayer
370
18
48
1
60
0
100
AcDbLine
10
87.271
20
-2.156854
30
0
11
83.271
21
-2.156854
31
0
39
0
210
0
220
0
230
1
0
LINE
5
78
100
AcDbEntity
8
SK1
62
256
6
ByLayer
370
18
48
1
60
0
100
AcDbLine
10
83.271
20
-9.156854
30
0
11
87.271
21
-9.156854
31
0
39
0
210
0
220
0
230
1
0
LINE
5
79
100
AcDbEntity
8
SK1
62
256
6
ByLayer
370
18
48
1
60
0
100
AcDbLine
10
83.271
20
-3.656854
30
0
11
80.271
21
-3.656854
31
0
39
0
210
0
220
0
230
1
0
LINE
5
7A
100
AcDbEntity
8
SK1
62
256
6
ByLayer
370
18
48
1
60
0
100
AcDbLine
10
80.271
20
-7.656854
30
0
11
83.271
21
-7.656854
31
0
39
0
210
0
220
0
230
1
0
LINE
5
7B
100
AcDbEntity
8
SK1
62
256
6
ByLayer
370
18
48
1
60
0
100
AcDbLine
10
-119
20
4.898979
30
0
11
0
21
4.898979
31
0
39
0
210
0
220
0
230
1
0
LINE
5
7C
100
AcDbEntity
8
1
62
256
6
ByLayer
370
18
48
1
60
0
100
AcDbLine
10
79.891513
20
-3.856742
30
0
11
79.891513
21
3.856742
31
0
39
0
210
0
220
0
230
1
0
LINE
5
7E
100
AcDbEntity
8
1
62
256
6
ByLayer
370
18
48
1
60
0
100
AcDbLine
10
79.521
20
-4.898979
30
0
11
0
21
-4.898979
31
0
39
0
210
0
220
0
230
1
0
LINE
5
7F
100
AcDbEntity
8
1
62
256
6
ByLayer
370
18
48
1
60
0
100
AcDbLine
10
79.521
20
-12.5
30
0
11
79.642492
21
-12.378508
31
0
39
0
210
0
220
0
230
1
0
LINE
5
80
100
AcDbEntity
8
SK1
62
256
6
ByLayer
370
18
48
1
60
0
100
AcDbLine
10
-120
20
-11.5
30
0
11
-119
21
-12.5
31
0
39
0
210
0
220
0
230
1
0
LINE
5
81
100
AcDbEntity
8
1
62
256
6
ByLayer
370
18
48
1
60
0
100
AcDbLine
10
79.521
20
11.5
30
0
11
0
21
11.5
31
0
39
0
210
0
220
0
230
1
0
LINE
5
82
100
AcDbEntity
8
SK1
62
256
6
ByLayer
370
18
48
1
60
0
100
AcDbLine
10
-119
20
-12.5
30
0
11
0
21
-12.5
31
0
39
0
210
0
220
0
230
1
0
LINE
5
83
100
AcDbEntity
8
1
62
256
6
ByLayer
370
18
48
1
60
0
100
AcDbLine
10
79.73225
20
-5.289803
30
0
11
79.73225
21
-4.568345
31
0
39
0
210
0
220
0
230
1
0
LINE
5
84
100
AcDbEntity
8
1
62
256
6
ByLayer
370
18
48
1
60
0
100
AcDbLine
10
79.73225
20
4.568345
30
0
11
79.73225
21
5.289803
31
0
39
0
210
0
220
0
230
1
0
LINE
5
85
100
AcDbEntity
8
1
62
256
6
ByLayer
370
18
48
1
60
0
100
AcDbLine
10
80.271
20
-4.672754
30
0
11
80.271
21
4.672754
31
0
39
0
210
0
220
0
230
1
0
LINE
5
86
100
AcDbEntity
8
1
62
256
6
ByLayer
370
18
48
1
60
0
100
AcDbLine
10
79.73225
20
-7.358627
30
0
11
79.73225
21
-6.915736
31
0
39
0
210
0
220
0
230
1
0
LINE
5
87
100
AcDbEntity
8
1
62
256
6
ByLayer
370
18
48
1
60
0
100
AcDbLine
10
79.73225
20
6.915736
30
0
11
79.73225
21
7.358627
31
0
39
0
210
0
220
0
230
1
0
LINE
5
88
100
AcDbEntity
8
1
62
256
6
ByLayer
370
18
48
1
60
0
100
AcDbLine
10
80.271
20
-6.872
30
0
11
80.271
21
-5.334839
31
0
39
0
210
0
220
0
230
1
0
LINE
5
89
100
AcDbEntity
8
1
62
256
6
ByLayer
370
18
48
1
60
0
100
AcDbLine
10
80.271
20
5.334839
30
0
11
80.271
21
6.872
31
0
39
0
210
0
220
0
230
1
0
LINE
5
8A
100
AcDbEntity
8
1
62
256
6
ByLayer
370
18
48
1
60
0
100
AcDbLine
10
79.73225
20
-8.785884
30
0
11
79.73225
21
-8.465225
31
0
39
0
210
0
220
0
230
1
0
LINE
5
8B
100
AcDbEntity
8
1
62
256
6
ByLayer
370
18
48
1
60
0
100
AcDbLine
10
79.73225
20
8.465225
30
0
11
79.73225
21
8.785884
31
0
39
0
210
0
220
0
230
1
0
LINE
5
8C
100
AcDbEntity
8
1
62
256
6
ByLayer
370
18
48
1
60
0
100
AcDbLine
10
80.271
20
-8.336015
30
0
11
80.271
21
-7.284967
31
0
39
0
210
0
220
0
230
1
0
LINE
5
8D
100
AcDbEntity
8
1
62
256
6
ByLayer
370
18
48
1
60
0
100
AcDbLine
10
80.271
20
7.284967
30
0
11
80.271
21
8.336015
31
0
39
0
210
0
220
0
230
1
0
LINE
5
8E
100
AcDbEntity
8
1
62
256
6
ByLayer
370
18
48
1
60
0
100
AcDbLine
10
79.73225
20
9.610809
30
0
11
79.73225
21
9.854397
31
0
39
0
210
0
220
0
230
1
0
LINE
5
8F
100
AcDbEntity
8
1
62
256
6
ByLayer
370
18
48
1
60
0
100
AcDbLine
10
79.73225
20
-9.854397
30
0
11
79.73225
21
-9.610809
31
0
39
0
210
0
220
0
230
1
0
LINE
5
90
100
AcDbEntity
8
1
62
256
6
ByLayer
370
18
48
1
60
0
100
AcDbLine
10
80.271
20
-9.414293
30
0
11
80.271
21
-8.634581
31
0
39
0
210
0
220
0
230
1
0
LINE
5
91
100
AcDbEntity
8
1
62
256
6
ByLayer
370
18
48
1
60
0
100
AcDbLine
10
80.271
20
8.634581
30
0
11
80.271
21
9.414293
31
0
39
0
210
0
220
0
230
1
0
LINE
5
92
100
AcDbEntity
8
1
62
256
6
ByLayer
370
18
48
1
60
0
100
AcDbLine
10
79.73225
20
-10.672465
30
0
11
79.73225
21
-10.485718
31
0
39
0
210
0
220
0
230
1
0
LINE
5
93
100
AcDbEntity
8
1
62
256
6
ByLayer
370
18
48
1
60
0
100
AcDbLine
10
79.73225
20
10.485718
30
0
11
79.73225
21
10.672465
31
0
39
0
210
0
220
0
230
1
0
LINE
5
94
100
AcDbEntity
8
1
62
256
6
ByLayer
370
18
48
1
60
0
100
AcDbLine
10
80.271
20
9.639307
30
0
11
80.271
21
10.229548
31
0
39
0
210
0
220
0
230
1
0
LINE
5
95
100
AcDbEntity
8
1
62
256
6
ByLayer
370
18
48
1
60
0
100
AcDbLine
10
80.271
20
-10.229548
30
0
11
80.271
21
-9.639307
31
0
39
0
210
0
220
0
230
1
0
LINE
5
96
100
AcDbEntity
8
1
62
256
6
ByLayer
370
18
48
1
60
0
100
AcDbLine
10
79.73225
20
-11.29464
30
0
11
79.73225
21
-11.153829
31
0
39
0
210
0
220
0
230
1
0
LINE
5
97
100
AcDbEntity
8
1
62
256
6
ByLayer
370
18
48
1
60
0
100
AcDbLine
10
79.73225
20
11.153829
30
0
11
79.73225
21
11.29464
31
0
39
0
210
0
220
0
230
1
0
LINE
5
98
100
AcDbEntity
8
1
62
256
6
ByLayer
370
18
48
1
60
0
100
AcDbLine
10
80.271
20
10.39959
30
0
11
80.271
21
10.841283
31
0
39
0
210
0
220
0
230
1
0
LINE
5
99
100
AcDbEntity
8
1
62
256
6
ByLayer
370
18
48
1
60
0
100
AcDbLine
10
80.271
20
-10.841283
30
0
11
80.271
21
-10.39959
31
0
39
0
210
0
220
0
230
1
0
LINE
5
9A
100
AcDbEntity
8
1
62
256
6
ByLayer
370
18
48
1
60
0
100
AcDbLine
10
79.73225
20
-11.752075
30
0
11
79.73225
21
-11.650774
31
0
39
0
210
0
220
0
230
1
0
LINE
5
9B
100
AcDbEntity
8
1
62
256
6
ByLayer
370
18
48
1
60
0
100
AcDbLine
10
80.271
20
10.96639
30
0
11
80.271
21
11.282649
31
0
39
0
210
0
220
0
230
1
0
LINE
5
9C
100
AcDbEntity
8
1
62
256
6
ByLayer
370
18
48
1
60
0
100
AcDbLine
10
79.877982
20
11.5
30
0
11
80.021884
21
11.5
31
0
39
0
210
0
220
0
230
1
0
LINE
5
9D
100
AcDbEntity
8
1
62
256
6
ByLayer
370
18
48
1
60
0
100
AcDbLine
10
80.271
20
-11.282649
30
0
11
80.271
21
-10.96639
31
0
39
0
210
0
220
0
230
1
0
LINE
5
9E
100
AcDbEntity
8
1
62
256
6
ByLayer
370
18
48
1
60
0
100
AcDbLine
10
79.73225
20
-12.063525
30
0
11
79.73225
21
-11.997839
31
0
39
0
210
0
220
0
230
1
0
LINE
5
9F
100
AcDbEntity
8
1
62
256
6
ByLayer
370
18
48
1
60
0
100
AcDbLine
10
80.271
20
11.368683
30
0
11
80.271
21
11.5
31
0
39
0
210
0
220
0
230
1
0
LINE
5
A0
100
AcDbEntity
8
1
62
256
6
ByLayer
370
18
48
1
60
0
100
AcDbLine
10
80.185197
20
11.5
30
0
11
80.271
21
11.5
31
0
39
0
210
0
220
0
230
1
0
LINE
5
A1
100
AcDbEntity
8
1
62
256
6
ByLayer
370
18
48
1
60
0
100
AcDbLine
10
80.271
20
-11.573156
30
0
11
80.271
21
-11.368683
31
0
39
0
210
0
220
0
230
1
0
LINE
5
A2
100
AcDbEntity
8
1
62
256
6
ByLayer
370
18
48
1
60
0
100
AcDbLine
10
79.73225
20
-12.24014
30
0
11
79.73225
21
-12.207816
31
0
39
0
210
0
220
0
230
1
0
LINE
5
A3
100
AcDbEntity
8
1
62
256
6
ByLayer
370
18
48
1
60
0
100
AcDbLine
10
80.271
20
-11.724022
30
0
11
80.271
21
-11.623562
31
0
39
0
210
0
220
0
230
1
0
LINE
5
A4
100
AcDbEntity
8
SK1
62
256
6
ByLayer
370
18
48
1
60
0
100
AcDbLine
10
87.271
20
9.156854
30
0
11
83.271
21
9.156854
31
0
39
0
210
0
220
0
230
1
0
LINE
5
A5
100
AcDbEntity
8
SK1
62
256
6
ByLayer
370
18
48
1
60
0
100
AcDbLine
10
83.271
20
2.156854
30
0
11
87.271
21
2.156854
31
0
39
0
210
0
220
0
230
1
0
LINE
5
A6
100
AcDbEntity
8
SK1
62
256
6
ByLayer
370
18
48
1
60
0
100
AcDbLine
10
83.271
20
7.656854
30
0
11
80.271
21
7.656854
31
0
39
0
210
0
220
0
230
1
0
LINE
5
A7
100
AcDbEntity
8
SK1
62
256
6
ByLayer
370
18
48
1
60
0
100
AcDbLine
10
80.271
20
3.656854
30
0
11
83.271
21
3.656854
31
0
39
0
210
0
220
0
230
1
0
LINE
5
A8
100
AcDbEntity
8
SK1
62
256
6
ByLayer
370
18
48
1
60
0
100
AcDbLine
10
83.271
20
-2.156854
30
0
11
83.271
21
-9.156854
31
0
39
0
210
0
220
0
230
1
0
LINE
5
A9
100
AcDbEntity
8
SK1
62
256
6
ByLayer
370
18
48
1
60
0
100
AcDbLine
10
87.271
20
-2.156854
30
0
11
87.271
21
-9.156854
31
0
39
0
210
0
220
0
230
1
0
LINE
5
AA
100
AcDbEntity
8
1
62
256
6
ByLayer
370
18
48
1
60
0
100
AcDbLine
10
79.521
20
-12.5
30
0
11
79.521
21
-4.898979
31
0
39
0
210
0
220
0
230
1
0
LINE
5
AB
100
AcDbEntity
8
1
62
256
6
ByLayer
370
18
48
1
60
0
100
AcDbLine
10
80.271
20
-4.672754
30
0
11
80.271
21
-5.334839
31
0
39
0
210
0
220
0
230
1
0
LINE
5
AC
100
AcDbEntity
8
1
62
256
6
ByLayer
370
18
48
1
60
0
100
AcDbLine
10
80.271
20
-6.872
30
0
11
80.271
21
-7.284967
31
0
39
0
210
0
220
0
230
1
0
LINE
5
AD
100
AcDbEntity
8
1
62
256
6
ByLayer
370
18
48
1
60
0
100
AcDbLine
10
80.271
20
-8.336015
30
0
11
80.271
21
-8.634581
31
0
39
0
210
0
220
0
230
1
0
LINE
5
AE
100
AcDbEntity
8
1
62
256
6
ByLayer
370
18
48
1
60
0
100
AcDbLine
10
80.271
20
-9.414293
30
0
11
80.271
21
-9.639307
31
0
39
0
210
0
220
0
230
1
0
LINE
5
AF
100
AcDbEntity
8
1
62
256
6
ByLayer
370
18
48
1
60
0
100
AcDbLine
10
80.271
20
-10.229548
30
0
11
80.271
21
-10.39959
31
0
39
0
210
0
220
0
230
1
0
LINE
5
B0
100
AcDbEntity
8
1
62
256
6
ByLayer
370
18
48
1
60
0
100
AcDbLine
10
80.271
20
-10.841283
30
0
11
80.271
21
-10.96639
31
0
39
0
210
0
220
0
230
1
0
LINE
5
B1
100
AcDbEntity
8
1
62
256
6
ByLayer
370
18
48
1
60
0
100
AcDbLine
10
80.271
20
-11.282649
30
0
11
80.271
21
-11.368683
31
0
39
0
210
0
220
0
230
1
0
LINE
5
B2
100
AcDbEntity
8
1
62
256
6
ByLayer
370
18
48
1
60
0
100
AcDbLine
10
80.271
20
-11.573156
30
0
11
80.271
21
-11.623562
31
0
39
0
210
0
220
0
230
1
0
LINE
5
B3
100
AcDbEntity
8
1
62
256
6
ByLayer
370
18
48
1
60
0
100
AcDbLine
10
80.271
20
-11.724022
30
0
11
80.271
21
-11.740632
31
0
39
0
210
0
220
0
230
1
0
LINE
5
B4
100
AcDbEntity
8
SK1
62
256
6
ByLayer
370
18
48
1
60
0
100
AcDbLine
10
-120
20
-11.5
30
0
11
-120
21
0
31
0
39
0
210
0
220
0
230
1
0
LINE
5
B5
100
AcDbEntity
8
SK1
62
256
6
ByLayer
370
18
48
1
60
0
100
AcDbLine
10
-119
20
-4.898979
30
0
11
-119
21
-12.5
31
0
39
0
210
0
220
0
230
1
0
LINE
5
B6
100
AcDbEntity
8
SK1
62
256
6
ByLayer
370
18
48
1
60
0
100
AcDbLine
10
-119
20
11.5
30
0
11
-119
21
4.898979
31
0
39
0
210
0
220
0
230
1
0
LINE
5
B7
100
AcDbEntity
8
1
62
256
6
ByLayer
370
18
48
1
60
0
100
AcDbLine
10
79.521
20
4.898979
30
0
11
79.521
21
11.5
31
0
39
0
210
0
220
0
230
1
0
LINE
5
B8
100
AcDbEntity
8
SK1
62
256
6
ByLayer
370
18
48
1
60
0
100
AcDbLine
10
-120
20
0
30
0
11
-120
21
11.5
31
0
39
0
210
0
220
0
230
1
0
LINE
5
B9
100
AcDbEntity
8
1
62
256
6
ByLayer
370
18
48
1
60
0
100
AcDbLine
10
80.271
20
10.96639
30
0
11
80.271
21
10.841283
31
0
39
0
210
0
220
0
230
1
0
LINE
5
BA
100
AcDbEntity
8
1
62
256
6
ByLayer
370
18
48
1
60
0
100
AcDbLine
10
80.271
20
10.39959
30
0
11
80.271
21
10.229548
31
0
39
0
210
0
220
0
230
1
0
LINE
5
BB
100
AcDbEntity
8
1
62
256
6
ByLayer
370
18
48
1
60
0
100
AcDbLine
10
80.271
20
9.639307
30
0
11
80.271
21
9.414293
31
0
39
0
210
0
220
0
230
1
0
LINE
5
BC
100
AcDbEntity
8
1
62
256
6
ByLayer
370
18
48
1
60
0
100
AcDbLine
10
80.271
20
8.634581
30
0
11
80.271
21
8.336015
31
0
39
0
210
0
220
0
230
1
0
LINE
5
BD
100
AcDbEntity
8
1
62
256
6
ByLayer
370
18
48
1
60
0
100
AcDbLine
10
80.271
20
7.284967
30
0
11
80.271
21
6.872
31
0
39
0
210
0
220
0
230
1
0
LINE
5
BE
100
AcDbEntity
8
1
62
256
6
ByLayer
370
18
48
1
60
0
100
AcDbLine
10
80.271
20
5.334839
30
0
11
80.271
21
4.672754
31
0
39
0
210
0
220
0
230
1
0
LINE
5
BF
100
AcDbEntity
8
1
62
256
6
ByLayer
370
18
48
1
60
0
100
AcDbLine
10
80.271
20
11.368683
30
0
11
80.271
21
11.282649
31
0
39
0
210
0
220
0
230
1
0
LINE
5
C0
100
AcDbEntity
8
SK1
62
256
6
ByLayer
370
18
48
1
60
0
100
AcDbLine
10
83.271
20
9.156854
30
0
11
83.271
21
2.156854
31
0
39
0
210
0
220
0
230
1
0
LINE
5
C1
100
AcDbEntity
8
SK1
62
256
6
ByLayer
370
18
48
1
60
0
100
AcDbLine
10
87.271
20
9.156854
30
0
11
87.271
21
2.156854
31
0
39
0
210
0
220
0
230
1
0
LINE
5
C2
100
AcDbEntity
8
SK1
62
256
6
ByLayer
370
18
48
1
60
0
100
AcDbLine
10
-119
20
11.5
30
0
11
-120
21
11.5
31
0
39
0
210
0
220
0
230
1
0
LINE
5
C3
100
AcDbEntity
8
1
62
256
6
ByLayer
370
18
48
1
60
0
100
AcDbLine
10
79.852572
20
11.5
30
0
11
79.521
21
11.5
31
0
39
0
210
0
220
0
230
1
0
LINE
5
C4
100
AcDbEntity
8
SK1
62
256
6
ByLayer
370
18
48
1
60
0
100
AcDbLine
10
0
20
11.5
30
0
11
-119
21
11.5
31
0
39
0
210
0
220
0
230
1
0
LINE
5
C5
100
AcDbEntity
8
1
62
256
6
ByLayer
370
18
48
1
60
0
100
AcDbLine
10
0
20
4.898979
30
0
11
79.521
21
4.898979
31
0
39
0
210
0
220
0
230
1
0
LINE
5
C6
100
AcDbEntity
8
SK1
62
256
6
ByLayer
370
18
48
1
60
0
100
AcDbLine
10
0
20
-4.898979
30
0
11
-119
21
-4.898979
31
0
39
0
210
0
220
0
230
1
0
LINE
5
C7
100
AcDbEntity
8
1
62
256
6
ByLayer
370
18
48
1
60
0
100
AcDbLine
10
0
20
-12.5
30
0
11
79.521
21
-12.5
31
0
39
0
210
0
220
0
230
1
0
MTEXT
5
110
100
AcDbEntity
8
SK6
62
256
6
ByLayer
370
13
48
1
60
0
100
AcDbMText
10
1.481832
20
35.343074
30
0
210
0
220
0
230
1
1
\W0.7204;570-2C 25 200
40
3.5
41
0
44
1.084337
50
0
71
7
72
5
7
iso_b_vert
0
DIMENSION
5
11E
100
AcDbEntity
8
2
62
256
6
ByLayer
370
13
48
1
60
0
100
AcDbDimension
2
DimnDraft3D1
10
80
20
21.132519
30
0
11
38.103355
21
21.132519
31
0
70
32
71
5
72
1
41
1
210
0
220
0
230
1
3
Standard
100
AcDbAlignedDimension
13
0
23
1.5875
33
0
14
80
24
1.5875
34
0
50
0
100
AcDbRotatedDimension
1001
ACAD
1000
DSTYLE
1002
{
1070
   279
1070
     0
1070
   173
1070
     1
1070
   340
1005
111
1070
   271
1070
     1
1070
   272
1070
     2
1070
    77
1070
     1
1070
    73
1070
     0
1070
   171
1070
     3
1070
   274
1070
     4
1070
   177
1070
     7
1070
   176
1070
     7
1070
   178
1070
     7
1070
    78
1070
     8
1070
    48
1040
-0.005
1070
    41
1041
3.175
1070
   147
1041
1.5875
1070
    42
1041
1.5875
1070
    44
1041
3.175
1070
   140
1041
3.175
1070
   343
1005
0
1070
   344
1005
0
1002
}
0
DIMENSION
5
133
100
AcDbEntity
8
SK2
62
256
6
ByLayer
370
13
48
1
60
0
100
AcDbDimension
2
DimnDraft3D3
10
0
20
20.710468
30
0
11
-62.686217
21
20.710468
31
0
70
32
71
5
72
1
41
1
210
0
220
0
230
1
3
Standard
100
AcDbAlignedDimension
13
-120
23
13.0875
33
0
14
0
24
13.0875
34
0
50
0
100
AcDbRotatedDimension
1001
ACAD
1000
DSTYLE
1002
{
1070
   279
1070
     0
1070
   173
1070
     1
1070
   340
1005
111
1070
   271
1070
     1
1070
   272
1070
     2
1070
    77
1070
     1
1070
    73
1070
     0
1070
   171
1070
     3
1070
   274
1070
     4
1070
   177
1070
     7
1070
   176
1070
     7
1070
   178
1070
     7
1070
    78
1070
     8
1070
    48
1040
-0.005
1070
    41
1041
3.175
1070
   147
1041
1.5875
1070
    42
1041
1.5875
1070
    44
1041
3.175
1070
   140
1041
3.175
1070
   343
1005
0
1070
   344
1005
0
1002
}
0
DIMENSION
5
13D
100
AcDbEntity
8
SK2
62
256
6
ByLayer
370
13
48
1
60
0
100
AcDbDimension
2
DimnDraft3D4
10
-127.188001
20
-12.5
30
0
11
-127.188001
21
-2.56375
31
0
70
32
71
5
72
1
41
1
210
0
220
0
230
1
3
Standard
100
AcDbAlignedDimension
13
-120.5875
23
11.5
33
0
14
-120.5875
24
-12.5
34
0
50
90
100
AcDbRotatedDimension
1001
ACAD
1000
DSTYLE
1002
{
1070
    74
1070
     0
1070
   279
1070
     0
1070
   173
1070
     1
1070
   340
1005
111
1070
   271
1070
     3
1070
   272
1070
     2
1070
    77
1070
     1
1070
    73
1070
     0
1070
   171
1070
     3
1070
   274
1070
     4
1070
   177
1070
     7
1070
   176
1070
     7
1070
   178
1070
     7
1070
    78
1070
     8
1070
    48
1040
-0.005
1070
    41
1041
3.175
1070
   147
1041
1.5875
1070
    42
1041
1.5875
1070
    44
1041
3.175
1070
   140
1041
3.175
1070
   343
1005
0
1070
   344
1005
0
1002
}
0
DIMENSION
5
148
100
AcDbEntity
8
SK2
62
256
6
ByLayer
370
13
48
1
60
0
100
AcDbDimension
2
DimnDraft3D5
10
94.809085
20
11.5
30
0
11
89.252835
21
26.722689
31
0
70
33
71
5
72
1
41
1
210
0
220
0
230
1
3
Standard
100
AcDbAlignedDimension
13
81.1085
23
-12.5
33
0
14
81.1085
24
11.5
34
0
1001
ACAD
1000
DSTYLE
1002
{
1070
   279
1070
     0
1070
    74
1070
     0
1070
   173
1070
     1
1070
   340
1005
111
1070
   271
1070
     3
1070
   272
1070
     2
1070
    77
1070
     1
1070
    73
1070
     0
1070
   171
1070
     3
1070
   274
1070
     4
1070
   177
1070
     7
1070
   176
1070
     7
1070
   178
1070
     7
1070
    78
1070
     8
1070
    48
1040
-0.005
1070
    41
1041
3.175
1070
   147
1041
1.5875
1070
    42
1041
1.5875
1070
    44
1041
3.175
1070
   140
1041
3.175
1070
   343
1005
0
1070
   344
1005
0
1002
}
0
ENDSEC
0
SECTION
2
OBJECTS
0
DICTIONARY
5
1b3
330
0
100
AcDbDictionary
280
0
281
1
3
ACAD_GROUP
350
1b4
3
ACAD_MLINESTYLE
350
1b5
0
DICTIONARY
5
1b4
330
0
100
AcDbDictionary
280
0
281
1
0
DICTIONARY
5
1b5
330
0
100
AcDbDictionary
280
0
281
1
3
Standard
350
18
0
MLINESTYLE
5
18
330
1b5
100
AcDbMlineStyle
2
Standard
70
0
3

62
256
51
90
52
90
71
2
49
-0.5
62
256
6
ByLayer
49
0.5
62
256
6
ByLayer
0
RASTERVARIABLES
5
1a1
330

100
AcDbRasterVariables
90
0
70
1
71
1
72
1
0
ENDSEC
0
EOF
