0
SECTION
2
HEADER
9
$ACADVER
1
AC1015
9
$DWGCODEPAGE
3
ANSI_1252
9
$HANDSEED
5
198
9
$ANGBASE
50
0
9
$ANGDIR
70
0
9
$ATTMODE
70
1
9
$AUNITS
70
0
9
$AUPREC
70
0
9
$CECOLOR
62
256
9
$CELTSCALE
40
1
9
$CELTYPE
6
ByLayer
9
$CELWEIGHT
370
18
9
$CLAYER
8
0
9
$CMLJUST
70
0
9
$CMLSCALE
40
1
9
$CMLSTYLE
2
Standard
9
$DIMSTYLE
2
Standard
9
$TEXTSIZE
40
0.2
9
$TEXTSTYLE
7
Standard
9
$LUNITS
70
2
9
$LUPREC
70
4
9
$EXTNAMES
290
1
9
$INSUNITS
70
4
9
$LTSCALE
40
1
9
$LWDISPLAY
290
1
9
$PDMODE
70
0
9
$PDSIZE
40
0
9
$PLINEGEN
70
0
0
ENDSEC
0
SECTION
2
CLASSES
0
CLASS
1
RASTERVARIABLES
2
AcDbRasterVariables
3
ISM
90
0
280
0
281
0
0
ENDSEC
0
SECTION
2
TABLES
0
TABLE
2
VPORT
5
18e
100
AcDbSymbolTable
0
VPORT
5
1
100
AcDbSymbolTableRecord
100
AcDbViewportTableRecord
2
*Active
70
0
10
0
20
0
11
1
21
1
12
-1
22
1
13
0
23
0
14
0.5
24
0.5
15
10
25
10
16
0
26
0
36
1
17
0
27
0
37
0
0
ENDTAB
0
TABLE
2
LTYPE
5
18f
100
AcDbSymbolTable
0
LTYPE
5
14
100
AcDbSymbolTableRecord
100
AcDbLinetypeTableRecord
70
0
2
ByBlock
3

72
65
73
0
40
0
0
LTYPE
5
15
100
AcDbSymbolTableRecord
100
AcDbLinetypeTableRecord
70
0
2
ByLayer
3

72
65
73
0
40
0
0
LTYPE
5
16
100
AcDbSymbolTableRecord
100
AcDbLinetypeTableRecord
70
0
2
CONTINUOUS
3
Solid line
72
65
73
0
40
0
0
LTYPE
5
6A
100
AcDbSymbolTableRecord
100
AcDbLinetypeTableRecord
70
0
2
CENTER
3
____ _ ____ _ ____ _ ____
72
65
73
4
40
47.5
49
22
74
0
49
-8.5
74
0
49
8.5
74
0
49
-8.5
74
0
0
LTYPE
5
6B
100
AcDbSymbolTableRecord
100
AcDbLinetypeTableRecord
70
0
2
DASHED
3
__ __ __ __ __ __ __ __ __
72
65
73
2
40
25.72
49
12.86
74
0
49
-12.86
74
0
0
ENDTAB
0
TABLE
2
LAYER
5
190
100
AcDbSymbolTable
0
LAYER
5
10
100
AcDbSymbolTableRecord
100
AcDbLayerTableRecord
2
0
70
0
62
7
6
CONTINUOUS
290
1
370
-3
390
0
0
LAYER
5
6D
100
AcDbSymbolTableRecord
100
AcDbLayerTableRecord
2
80
70
0
62
-6
6
CONTINUOUS
290
1
370
-3
390
0
0
LAYER
5
6F
100
AcDbSymbolTableRecord
100
AcDbLayerTableRecord
2
81
70
0
62
-3
6
CONTINUOUS
290
1
370
-3
390
0
0
LAYER
5
72
100
AcDbSymbolTableRecord
100
AcDbLayerTableRecord
2
4
70
0
62
-2
6
CENTER
290
1
370
-3
390
0
0
LAYER
5
77
100
AcDbSymbolTableRecord
100
AcDbLayerTableRecord
2
1
70
0
62
4
6
CONTINUOUS
290
1
370
-3
390
0
0
LAYER
5
EE
100
AcDbSymbolTableRecord
100
AcDbLayerTableRecord
2
2
70
0
62
7
6
CONTINUOUS
290
1
370
-3
390
0
0
LAYER
5
17a
100
AcDbSymbolTableRecord
100
AcDbLayerTableRecord
2
SK4
70
0
62
2
6
CENTER
290
1
370
-3
390
0
0
LAYER
5
17b
100
AcDbSymbolTableRecord
100
AcDbLayerTableRecord
2
SK1
70
0
62
4
6
CONTINUOUS
290
1
370
-3
390
0
0
LAYER
5
17c
100
AcDbSymbolTableRecord
100
AcDbLayerTableRecord
2
SK6
70
0
62
5
6
CONTINUOUS
290
1
370
-3
390
0
0
LAYER
5
17d
100
AcDbSymbolTableRecord
100
AcDbLayerTableRecord
2
SK2
70
0
62
7
6
CONTINUOUS
290
1
370
-3
390
0
0
ENDTAB
0
TABLE
2
STYLE
5
191
100
AcDbSymbolTable
0
STYLE
5
11
100
AcDbSymbolTableRecord
100
AcDbTextStyleTableRecord
2
Standard
3
txt
70
0
71
0
40
0
41
1
42
0
50
0
0
STYLE
5
E9
100
AcDbSymbolTableRecord
100
AcDbTextStyleTableRecord
2
iso_b_vert
3
simplex.shx
70
0
71
0
40
0
41
1
42
0
50
0
0
STYLE
5
EA
100
AcDbSymbolTableRecord
100
AcDbTextStyleTableRecord
2
DWGDirectTextStyle
3
simplex
70
0
71
0
40
0
41
1
42
0
50
0
0
ENDTAB
0
TABLE
2
DIMSTYLE
5
192
100
AcDbSymbolTable
100
AcDbDimStyleTable
0
DIMSTYLE
105
27
100
AcDbSymbolTableRecord
100
AcDbDimStyleTableRecord
2
Standard
70
0
3
<>
41
0.18
42
0.0625
44
0.18
140
0.18
147
0.09
73
0
74
0
77
1
271
2
275
0
278
52
280
0
340
11
0
ENDTAB
0
TABLE
2
VIEW
5
193
100
AcDbSymbolTable
0
ENDTAB
0
TABLE
2
UCS
5
194
100
AcDbSymbolTable
0
ENDTAB
0
TABLE
2
APPID
5
195
100
AcDbSymbolTable
0
APPID
5
12
100
AcDbSymbolTableRecord
100
AcDbRegAppTableRecord
2
ACAD
70
0
0
ENDTAB
0
TABLE
2
BLOCK_RECORD
5
196
100
AcDbSymbolTable
0
BLOCK_RECORD
5
1F
100
AcDbSymbolTableRecord
100
AcDbBlockTableRecord
2
*Model_Space
340
0
70
0
0
BLOCK_RECORD
5
1B
100
AcDbSymbolTableRecord
100
AcDbBlockTableRecord
2
*Paper_Space
340
0
70
0
0
BLOCK_RECORD
5
23
100
AcDbSymbolTableRecord
100
AcDbBlockTableRecord
2
*Paper_Space0
340
0
70
0
0
BLOCK_RECORD
5
EC
100
AcDbSymbolTableRecord
100
AcDbBlockTableRecord
2
DimnDraft3D1
340
0
70
0
0
BLOCK_RECORD
5
F7
100
AcDbSymbolTableRecord
100
AcDbBlockTableRecord
2
DimnDraft3D2
340
0
70
0
0
BLOCK_RECORD
5
102
100
AcDbSymbolTableRecord
100
AcDbBlockTableRecord
2
DimnDraft3D3
340
0
70
0
0
BLOCK_RECORD
5
10C
100
AcDbSymbolTableRecord
100
AcDbBlockTableRecord
2
DimnDraft3D4
340
0
70
0
0
BLOCK_RECORD
5
116
100
AcDbSymbolTableRecord
100
AcDbBlockTableRecord
2
DimnDraft3D5
340
0
70
0
0
ENDTAB
0
ENDSEC
0
SECTION
2
BLOCKS
0
BLOCK
5
20
100
AcDbEntity
8
0
100
AcDbBlockBegin
2
*Model_Space
70
0
10
0
20
0
30
0
3
*Model_Space
0
ENDBLK
5
21
100
AcDbEntity
8
0
100
AcDbBlockEnd
0
BLOCK
5
1C
100
AcDbEntity
8
0
100
AcDbBlockBegin
2
*Paper_Space
70
0
10
0
20
0
30
0
3
*Paper_Space
0
ENDBLK
5
1D
100
AcDbEntity
8
0
100
AcDbBlockEnd
0
BLOCK
5
24
100
AcDbEntity
8
0
100
AcDbBlockBegin
2
*Paper_Space0
70
0
10
0
20
0
30
0
3
*Paper_Space0
0
ENDBLK
5
25
100
AcDbEntity
8
0
100
AcDbBlockEnd
0
BLOCK
5
F4
100
AcDbEntity
8
0
100
AcDbBlockBegin
2
DimnDraft3D1
70
0
10
0
20
0
30
0
3
DimnDraft3D1
0
MTEXT
5
ED
100
AcDbEntity
8
2
62
256
6
ByLayer
370
13
48
1
60
0
100
AcDbMText
10
20.562895
20
14.190157
30
0
210
0
220
0
230
1
1
\W0.7685;44
40
3.175
41
0
44
1.084337
50
0
71
7
72
5
7
iso_b_vert
0
LINE
5
EF
100
AcDbEntity
8
2
62
256
6
ByLayer
370
13
48
1
60
0
100
AcDbLine
10
0
20
1.5875
30
0
11
0
21
16.571407
31
0
39
0
210
0
220
0
230
1
0
LINE
5
F0
100
AcDbEntity
8
2
62
256
6
ByLayer
370
13
48
1
60
0
100
AcDbLine
10
44
20
1.5875
30
0
11
44
21
16.571407
31
0
39
0
210
0
220
0
230
1
0
LINE
5
F1
100
AcDbEntity
8
2
62
256
6
ByLayer
370
13
48
1
60
0
100
AcDbLine
10
0
20
13.396407
30
0
11
44
21
13.396407
31
0
39
0
210
0
220
0
230
1
0
SOLID
5
F2
100
AcDbEntity
8
2
62
256
6
ByLayer
370
13
48
1
60
0
100
AcDbTrace
10
0
20
13.396407
30
0
11
3.174998
21
13.814404
31
0
12
3.175002
22
12.978411
32
0
13
0
23
13.396407
33
0
39
0
210
0
220
0
230
1
0
SOLID
5
F3
100
AcDbEntity
8
2
62
256
6
ByLayer
370
13
48
1
60
0
100
AcDbTrace
10
44
20
13.396407
30
0
11
40.825002
21
12.978411
31
0
12
40.824998
22
13.814404
32
0
13
44
23
13.396407
33
0
39
0
210
0
220
0
230
1
0
ENDBLK
5
F5
100
AcDbEntity
8
0
100
AcDbBlockEnd
0
BLOCK
5
FF
100
AcDbEntity
8
0
100
AcDbBlockBegin
2
DimnDraft3D2
70
0
10
0
20
0
30
0
3
DimnDraft3D2
0
MTEXT
5
F8
100
AcDbEntity
8
SK2
62
256
6
ByLayer
370
13
48
1
60
0
100
AcDbMText
10
-10.392467
20
24.642361
30
0
210
0
220
0
230
1
1
\W0.6217;105
40
3.175
41
0
44
1.084337
50
0
71
7
72
5
7
iso_b_vert
0
LINE
5
FA
100
AcDbEntity
8
SK2
62
256
6
ByLayer
370
13
48
1
60
0
100
AcDbLine
10
44
20
1.5875
30
0
11
44
21
27.023611
31
0
39
0
210
0
220
0
230
1
0
LINE
5
FB
100
AcDbEntity
8
SK2
62
256
6
ByLayer
370
13
48
1
60
0
100
AcDbLine
10
-61
20
1.5875
30
0
11
-61
21
27.023611
31
0
39
0
210
0
220
0
230
1
0
LINE
5
FC
100
AcDbEntity
8
SK2
62
256
6
ByLayer
370
13
48
1
60
0
100
AcDbLine
10
44
20
23.848611
30
0
11
-61
21
23.848611
31
0
39
0
210
0
220
0
230
1
0
SOLID
5
FD
100
AcDbEntity
8
SK2
62
256
6
ByLayer
370
13
48
1
60
0
100
AcDbTrace
10
44
20
23.848611
30
0
11
40.825002
21
23.430614
31
0
12
40.824998
22
24.266608
32
0
13
44
23
23.848611
33
0
39
0
210
0
220
0
230
1
0
SOLID
5
FE
100
AcDbEntity
8
SK2
62
256
6
ByLayer
370
13
48
1
60
0
100
AcDbTrace
10
-61
20
23.848611
30
0
11
-57.825002
21
24.266608
31
0
12
-57.824998
22
23.430614
32
0
13
-61
23
23.848611
33
0
39
0
210
0
220
0
230
1
0
ENDBLK
5
100
100
AcDbEntity
8
0
100
AcDbBlockEnd
0
BLOCK
5
109
100
AcDbEntity
8
0
100
AcDbBlockBegin
2
DimnDraft3D3
70
0
10
0
20
0
30
0
3
DimnDraft3D3
0
MTEXT
5
103
100
AcDbEntity
8
SK2
62
256
6
ByLayer
370
13
48
1
60
0
100
AcDbMText
10
-31.20602
20
14.209456
30
0
210
0
220
0
230
1
1
\W0.6351;61
40
3.175
41
0
44
1.084337
50
0
71
7
72
5
7
iso_b_vert
0
LINE
5
104
100
AcDbEntity
8
SK2
62
256
6
ByLayer
370
13
48
1
60
0
100
AcDbLine
10
0
20
9.0375
30
0
11
0
21
16.590706
31
0
39
0
210
0
220
0
230
1
0
LINE
5
105
100
AcDbEntity
8
SK2
62
256
6
ByLayer
370
13
48
1
60
0
100
AcDbLine
10
-61
20
8.5875
30
0
11
-61
21
16.590706
31
0
39
0
210
0
220
0
230
1
0
LINE
5
106
100
AcDbEntity
8
SK2
62
256
6
ByLayer
370
13
48
1
60
0
100
AcDbLine
10
0
20
13.415706
30
0
11
-61
21
13.415706
31
0
39
0
210
0
220
0
230
1
0
SOLID
5
107
100
AcDbEntity
8
SK2
62
256
6
ByLayer
370
13
48
1
60
0
100
AcDbTrace
10
0
20
13.415706
30
0
11
-3.174998
21
12.99771
31
0
12
-3.175002
22
13.833703
32
0
13
0
23
13.415706
33
0
39
0
210
0
220
0
230
1
0
SOLID
5
108
100
AcDbEntity
8
SK2
62
256
6
ByLayer
370
13
48
1
60
0
100
AcDbTrace
10
-61
20
13.415706
30
0
11
-57.825002
21
13.833703
31
0
12
-57.824998
22
12.99771
32
0
13
-61
23
13.415706
33
0
39
0
210
0
220
0
230
1
0
ENDBLK
5
10A
100
AcDbEntity
8
0
100
AcDbBlockEnd
0
BLOCK
5
113
100
AcDbEntity
8
0
100
AcDbBlockBegin
2
DimnDraft3D4
70
0
10
0
20
0
30
0
3
DimnDraft3D4
0
MTEXT
5
10D
100
AcDbEntity
8
SK2
62
256
6
ByLayer
370
13
48
1
60
0
100
AcDbMText
10
-69.53584
20
-2.8312
30
0
210
0
220
0
230
1
1
\W0.6611;15,4
40
3.175
41
0
44
1.084337
50
90
71
7
72
5
7
iso_b_vert
0
LINE
5
10E
100
AcDbEntity
8
SK2
62
256
6
ByLayer
370
13
48
1
60
0
100
AcDbLine
10
-61.5875
20
7.45
30
0
11
-71.91709
21
7.45
31
0
39
0
210
0
220
0
230
1
0
LINE
5
10F
100
AcDbEntity
8
SK2
62
256
6
ByLayer
370
13
48
1
60
0
100
AcDbLine
10
-61.5875
20
-8
30
0
11
-71.91709
21
-8
31
0
39
0
210
0
220
0
230
1
0
LINE
5
110
100
AcDbEntity
8
SK2
62
256
6
ByLayer
370
13
48
1
60
0
100
AcDbLine
10
-68.74209
20
7.45
30
0
11
-68.74209
21
-8
31
0
39
0
210
0
220
0
230
1
0
SOLID
5
111
100
AcDbEntity
8
SK2
62
256
6
ByLayer
370
13
48
1
60
0
100
AcDbTrace
10
-68.74209
20
7.45
30
0
11
-68.324093
21
4.275002
31
0
12
-69.160086
22
4.274998
32
0
13
-68.74209
23
7.45
33
0
39
0
210
0
220
0
230
1
0
SOLID
5
112
100
AcDbEntity
8
SK2
62
256
6
ByLayer
370
13
48
1
60
0
100
AcDbTrace
10
-68.74209
20
-8
30
0
11
-69.160086
21
-4.825002
31
0
12
-68.324093
22
-4.824998
32
0
13
-68.74209
23
-8
33
0
39
0
210
0
220
0
230
1
0
ENDBLK
5
114
100
AcDbEntity
8
0
100
AcDbBlockEnd
0
BLOCK
5
11E
100
AcDbEntity
8
0
100
AcDbBlockBegin
2
DimnDraft3D5
70
0
10
0
20
0
30
0
3
DimnDraft3D5
0
MTEXT
5
117
100
AcDbEntity
8
SK2
62
256
6
ByLayer
370
13
48
1
60
0
100
AcDbMText
10
53.328104
20
21.049218
30
0
210
0
220
0
230
1
1
\W0.5321;16
40
3.175
41
0
44
1.084337
50
90
71
7
72
5
7
iso_b_vert
0
MTEXT
5
118
100
AcDbEntity
8
SK2
62
256
6
ByLayer
370
13
48
1
60
0
100
AcDbMText
10
53.328104
20
13.930273
30
0
210
0
220
0
230
1
1
%%c
40
3.175
41
0
44
1.084337
50
90
71
7
72
5
7
iso_b_vert
0
LINE
5
119
100
AcDbEntity
8
SK2
62
256
6
ByLayer
370
13
48
1
60
0
100
AcDbLine
10
45.1085
20
-8
30
0
11
58.090604
21
-8
31
0
39
0
210
0
220
0
230
1
0
LINE
5
11A
100
AcDbEntity
8
SK2
62
256
6
ByLayer
370
13
48
1
60
0
100
AcDbLine
10
45.1085
20
7.45
30
0
11
58.090604
21
7.45
31
0
39
0
210
0
220
0
230
1
0
LINE
5
11B
100
AcDbEntity
8
SK2
62
256
6
ByLayer
370
13
48
1
60
0
100
AcDbLine
10
54.915604
20
-8
30
0
11
54.915604
21
23.255008
31
0
39
0
210
0
220
0
230
1
0
SOLID
5
11C
100
AcDbEntity
8
SK2
62
256
6
ByLayer
370
13
48
1
60
0
100
AcDbTrace
10
54.915604
20
-8
30
0
11
54.497607
21
-4.825002
31
0
12
55.3336
22
-4.824998
32
0
13
54.915604
23
-8
33
0
39
0
210
0
220
0
230
1
0
SOLID
5
11D
100
AcDbEntity
8
SK2
62
256
6
ByLayer
370
13
48
1
60
0
100
AcDbTrace
10
54.915604
20
7.45
30
0
11
55.3336
21
4.275002
31
0
12
54.497607
22
4.274998
32
0
13
54.915604
23
7.45
33
0
39
0
210
0
220
0
230
1
0
ENDBLK
5
11F
100
AcDbEntity
8
0
100
AcDbBlockEnd
0
ENDSEC
0
SECTION
2
ENTITIES
0
POINT
5
6C
100
AcDbEntity
8
80
62
256
6
ByLayer
370
18
48
1
60
0
100
AcDbPoint
10
0
20
0
30
0
39
0
210
0
220
0
230
1
50
360
0
POINT
5
6E
100
AcDbEntity
8
81
62
256
6
ByLayer
370
18
48
1
60
0
100
AcDbPoint
10
44
20
0
30
0
39
0
210
0
220
0
230
1
50
360
0
SPLINE
5
B7
100
AcDbEntity
8
1
62
256
6
ByLayer
370
18
48
1
60
0
100
AcDbSpline
70
4
71
3
72
14
73
10
40
0
40
0
40
0
40
0
40
0.151200288036473
40
0.24221014985256
40
0.334047066713866
40
0.415843149411151
40
0.521852531569983
40
0.708093264179485
40
1
40
1
40
1
40
1
41
1
10
43.73225
20
2.60007527158604
30
0
41
1
10
43.7268722546049
20
2.60796287146346
30
0
41
1
10
43.7175515299195
20
2.61838386900714
30
0
41
1
10
43.7029931463703
20
2.62933324956337
30
0
41
1
10
43.6907554690116
20
2.63274360368708
30
0
41
1
10
43.6791097670255
20
2.62937937780833
30
0
41
1
10
43.6670550051878
20
2.61714276732326
30
0
41
1
10
43.6555074838277
20
2.58882315601069
30
0
41
1
10
43.6496108014591
20
2.5633829840668
30
0
41
1
10
43.6479829068153
20
2.54595721676115
30
0
0
SPLINE
5
B8
100
AcDbEntity
8
1
62
256
6
ByLayer
370
18
48
1
60
0
100
AcDbSpline
70
4
71
3
72
15
73
11
40
0
40
0
40
0
40
0
40
0.231508062542178
40
0.423822238595639
40
0.539194923061843
40
0.626154790198417
40
0.713702028037852
40
0.790854488730915
40
0.923242314944783
40
1
40
1
40
1
40
1
41
1
10
43.6479829068152
20
-2.54595721676056
30
0
41
1
10
43.6494853714018
20
-2.55948586801622
30
0
41
1
10
43.6542150139169
20
-2.5825361736536
30
0
41
1
10
43.6633616256414
20
-2.60992171050251
30
0
41
1
10
43.6742384257578
20
-2.62543063116925
30
0
41
1
10
43.6851055501082
20
-2.63201507682596
30
0
41
1
10
43.6964447798984
20
-2.63178488282719
30
0
41
1
10
43.7099192828062
20
-2.62509295063807
30
0
41
1
10
43.7217867362489
20
-2.61353273918631
30
0
41
1
10
43.7295280076412
20
-2.60390214057965
30
0
41
1
10
43.73225
20
-2.60007527157588
30
0
0
SPLINE
5
B9
100
AcDbEntity
8
1
62
256
6
ByLayer
370
18
48
1
60
0
100
AcDbSpline
70
4
71
1
72
4
73
2
40
0
40
0
40
1
40
1
41
1
10
43.73225
20
7.32116102090691
30
0
41
1
10
44.271
20
6.61414865633393
30
0
0
SPLINE
5
BA
100
AcDbEntity
8
1
62
256
6
ByLayer
370
18
48
1
60
0
100
AcDbSpline
70
4
71
1
72
4
73
2
40
0
40
0
40
1
40
1
41
1
10
44.271
20
6.46515089688872
30
0
41
1
10
43.73225
20
6.91104327481966
30
0
0
SPLINE
5
BB
100
AcDbEntity
8
1
62
256
6
ByLayer
370
18
48
1
60
0
100
AcDbSpline
70
4
71
3
72
12
73
8
40
0
40
0
40
0
40
0
40
0.210496698908595
40
0.429994000062026
40
0.650994242119406
40
0.840697042289754
40
1
40
1
40
1
40
1
41
1
10
43.7322500000002
20
6.91104327481956
30
0
41
1
10
43.7218625300469
20
6.91977409536236
30
0
41
1
10
43.7017775042747
20
6.93481314821833
30
0
41
1
10
43.6730871398457
20
6.95095102293673
30
0
41
1
10
43.6522683397607
20
6.95408155612239
30
0
41
1
10
43.6425709711984
20
6.94515942698571
30
0
41
1
10
43.6408619983787
20
6.93553120333133
30
0
41
1
10
43.6410013367063
20
6.93012551712895
30
0
0
SPLINE
5
BC
100
AcDbEntity
8
1
62
256
6
ByLayer
370
18
48
1
60
0
100
AcDbSpline
70
4
71
1
72
4
73
2
40
0
40
0
40
1
40
1
41
1
10
43.73225
20
6.73734180545785
30
0
41
1
10
44.271
20
5.89590703062662
30
0
0
SPLINE
5
BD
100
AcDbEntity
8
1
62
256
6
ByLayer
370
18
48
1
60
0
100
AcDbSpline
70
4
71
1
72
4
73
2
40
0
40
0
40
1
40
1
41
1
10
44.271
20
5.65980731596337
30
0
41
1
10
43.73225
20
6.1008313562093
30
0
0
SPLINE
5
BE
100
AcDbEntity
8
1
62
256
6
ByLayer
370
18
48
1
60
0
100
AcDbSpline
70
4
71
3
72
13
73
9
40
0
40
0
40
0
40
0
40
0.158902723147676
40
0.383078608137058
40
0.573936497249737
40
0.737197233433496
40
0.988162672091794
40
1
40
1
40
1
40
1
41
1
10
43.7322500000009
20
6.10083135620896
30
0
41
1
10
43.7242620709409
20
6.10751668194234
30
0
41
1
10
43.7056791362055
20
6.12103834335644
30
0
41
1
10
43.678089534289
20
6.13442443842855
30
0
41
1
10
43.6570212465091
20
6.1330143507916
30
0
41
1
10
43.6438656094999
20
6.11921359794216
30
0
41
1
10
43.641068538609
20
6.10244461473923
30
0
41
1
10
43.6409989626781
20
6.09092380718787
30
0
41
1
10
43.6410000549106
20
6.09040092305979
30
0
0
SPLINE
5
BF
100
AcDbEntity
8
1
62
256
6
ByLayer
370
18
48
1
60
0
100
AcDbSpline
70
4
71
1
72
4
73
2
40
0
40
0
40
1
40
1
41
1
10
43.73225
20
5.83602180539907
30
0
41
1
10
44.271
20
4.75935678211889
30
0
0
SPLINE
5
C0
100
AcDbEntity
8
1
62
256
6
ByLayer
370
18
48
1
60
0
100
AcDbSpline
70
4
71
1
72
4
73
2
40
0
40
0
40
1
40
1
41
1
10
44.271
20
4.37534702487973
30
0
41
1
10
43.73225
20
4.8531193399074
30
0
0
SPLINE
5
C1
100
AcDbEntity
8
1
62
256
6
ByLayer
370
18
48
1
60
0
100
AcDbSpline
70
4
71
3
72
14
73
10
40
0
40
0
40
0
40
0
40
0.0986776959860524
40
0.258732645099176
40
0.379150568386981
40
0.499411632008358
40
0.67363378237673
40
0.970244716583117
40
1
40
1
40
1
40
1
41
1
10
43.7322500000048
20
4.85311933990513
30
0
41
1
10
43.727040529608
20
4.85781666940746
30
0
41
1
10
43.7134508899392
20
4.86849827853009
30
0
41
1
10
43.692646189043
20
4.87969280233169
30
0
41
1
10
43.673107435343
20
4.88095172480378
30
0
41
1
10
43.6575171716369
20
4.87252850173703
30
0
41
1
10
43.64414334942
20
4.84825829370819
30
0
41
1
10
43.6411545109581
20
4.81980543365352
30
0
41
1
10
43.6409926670581
20
4.80033692992849
30
0
41
1
10
43.6410006036326
20
4.79854383232953
30
0
0
SPLINE
5
C2
100
AcDbEntity
8
1
62
256
6
ByLayer
370
18
48
1
60
0
100
AcDbSpline
70
4
71
2
72
6
73
3
40
0
40
0
40
0
40
1
40
1
40
1
41
1
10
43.73225
20
4.42736111274163
30
0
41
1
10
44.0545160588947
20
3.59762034620001
30
0
41
1
10
44.271
20
2.72327638061391
30
0
0
SPLINE
5
C3
100
AcDbEntity
8
1
62
256
6
ByLayer
370
18
48
1
60
0
100
AcDbSpline
70
4
71
1
72
4
73
2
40
0
40
0
40
1
40
1
41
1
10
44.271
20
1.76887091739769
30
0
41
1
10
43.73225
20
2.60007527158604
30
0
0
SPLINE
5
C4
100
AcDbEntity
8
1
62
256
6
ByLayer
370
18
48
1
60
0
100
AcDbSpline
70
4
71
1
72
4
73
2
40
0
40
0
40
1
40
1
41
1
10
43.521
20
2.91504716942969
30
0
41
1
10
43.6479829068153
20
2.54595721676115
30
0
0
SPLINE
5
C5
100
AcDbEntity
8
1
62
256
6
ByLayer
370
18
48
1
60
0
100
AcDbSpline
70
4
71
1
72
4
73
2
40
0
40
0
40
1
40
1
41
1
10
43.6473782302281
20
7.45
30
0
41
1
10
43.521
20
7.45
30
0
0
SPLINE
5
C6
100
AcDbEntity
8
1
62
256
6
ByLayer
370
18
48
1
60
0
100
AcDbSpline
70
4
71
3
72
10
73
6
40
0
40
0
40
0
40
0
40
0.240061513258953
40
0.748498071497592
40
1
40
1
40
1
40
1
41
1
10
43.6473782302281
20
7.45
30
0
41
1
10
43.651136865396
20
7.44167746853459
30
0
41
1
10
43.6650384270191
20
7.4143315920607
30
0
41
1
10
43.6958927365678
20
7.36867880130376
30
0
41
1
10
43.7227297841548
20
7.33324523842359
30
0
41
1
10
43.73225
20
7.32116102090691
30
0
0
SPLINE
5
C7
100
AcDbEntity
8
1
62
256
6
ByLayer
370
18
48
1
60
0
100
AcDbSpline
70
4
71
1
72
4
73
2
40
0
40
0
40
1
40
1
41
1
10
43.6479829068152
20
-2.54595721676056
30
0
41
1
10
43.521
20
-2.91504716942969
30
0
0
SPLINE
5
C8
100
AcDbEntity
8
1
62
256
6
ByLayer
370
18
48
1
60
0
100
AcDbSpline
70
4
71
1
72
4
73
2
40
0
40
0
40
1
40
1
41
1
10
43.73225
20
-2.60007527157588
30
0
41
1
10
44.271
20
-1.7688709173977
30
0
0
SPLINE
5
C9
100
AcDbEntity
8
1
62
256
6
ByLayer
370
18
48
1
60
0
100
AcDbSpline
70
4
71
2
72
6
73
3
40
0
40
0
40
0
40
1
40
1
40
1
41
1
10
44.271
20
-2.72327638061391
30
0
41
1
10
44.0545310703418
20
-3.5976139225285
30
0
41
1
10
43.73225
20
-4.42736111274163
30
0
0
SPLINE
5
CA
100
AcDbEntity
8
1
62
256
6
ByLayer
370
18
48
1
60
0
100
AcDbSpline
70
4
71
2
72
6
73
3
40
0
40
0
40
0
40
1
40
1
40
1
41
1
10
43.73225
20
-4.42736111274163
30
0
41
1
10
43.6512458045808
20
-4.62418423207677
30
0
41
1
10
43.641004153935
20
-4.79754535319473
30
0
0
SPLINE
5
CB
100
AcDbEntity
8
1
62
256
6
ByLayer
370
18
48
1
60
0
100
AcDbSpline
70
4
71
1
72
4
73
2
40
0
40
0
40
1
40
1
41
1
10
43.73225
20
-4.8531193399074
30
0
41
1
10
44.271
20
-4.37534702487973
30
0
0
SPLINE
5
CC
100
AcDbEntity
8
1
62
256
6
ByLayer
370
18
48
1
60
0
100
AcDbSpline
70
4
71
1
72
4
73
2
40
0
40
0
40
1
40
1
41
1
10
44.271
20
-4.75935678211889
30
0
41
1
10
43.73225
20
-5.83602180539907
30
0
0
SPLINE
5
CD
100
AcDbEntity
8
1
62
256
6
ByLayer
370
18
48
1
60
0
100
AcDbSpline
70
4
71
3
72
10
73
6
40
0
40
0
40
0
40
0
40
0.520175239198998
40
0.801444869043167
40
1
40
1
40
1
40
1
41
1
10
43.73225
20
-5.83602180539907
30
0
41
1
10
43.7056764092381
20
-5.88401823668777
30
0
41
1
10
43.6736464013345
20
-5.95441194650261
30
0
41
1
10
43.6461106293505
20
-6.03984596356677
30
0
41
1
10
43.6416707489367
20
-6.07524516068486
30
0
41
1
10
43.6410064788331
20
-6.08924608169168
30
0
0
SPLINE
5
CE
100
AcDbEntity
8
1
62
256
6
ByLayer
370
18
48
1
60
0
100
AcDbSpline
70
4
71
1
72
4
73
2
40
0
40
0
40
1
40
1
41
1
10
43.73225
20
-6.1008313562093
30
0
41
1
10
44.271
20
-5.65980731596337
30
0
0
SPLINE
5
CF
100
AcDbEntity
8
1
62
256
6
ByLayer
370
18
48
1
60
0
100
AcDbSpline
70
4
71
1
72
4
73
2
40
0
40
0
40
1
40
1
41
1
10
44.271
20
-5.89590703062662
30
0
41
1
10
43.73225
20
-6.73734180545785
30
0
0
SPLINE
5
D0
100
AcDbEntity
8
1
62
256
6
ByLayer
370
18
48
1
60
0
100
AcDbSpline
70
4
71
3
72
10
73
6
40
0
40
0
40
0
40
0
40
0.517272827948325
40
0.797981511554646
40
1
40
1
40
1
40
1
41
1
10
43.73225
20
-6.73734180545785
30
0
41
1
10
43.7057115759634
20
-6.77618899615436
30
0
41
1
10
43.6736943667158
20
-6.83136453762479
30
0
41
1
10
43.6457841815159
20
-6.89655048437077
30
0
41
1
10
43.6415299775377
20
-6.92099243003845
30
0
41
1
10
43.6410001730344
20
-6.93036884823569
30
0
0
SPLINE
5
D1
100
AcDbEntity
8
1
62
256
6
ByLayer
370
18
48
1
60
0
100
AcDbSpline
70
4
71
1
72
4
73
2
40
0
40
0
40
1
40
1
41
1
10
43.73225
20
-6.91104327481966
30
0
41
1
10
44.271
20
-6.46515089688872
30
0
0
SPLINE
5
D2
100
AcDbEntity
8
1
62
256
6
ByLayer
370
18
48
1
60
0
100
AcDbSpline
70
4
71
1
72
4
73
2
40
0
40
0
40
1
40
1
41
1
10
44.271
20
-6.61414865633393
30
0
41
1
10
43.73225
20
-7.32116102090691
30
0
0
SPLINE
5
D3
100
AcDbEntity
8
1
62
256
6
ByLayer
370
18
48
1
60
0
100
AcDbSpline
70
4
71
3
72
11
73
7
40
0
40
0
40
0
40
0
40
0.450880378232634
40
0.739915494330186
40
0.965956381568434
40
1
40
1
40
1
40
1
41
1
10
43.73225
20
-7.32116102090691
30
0
41
1
10
43.7095468020511
20
-7.34976523787639
30
0
41
1
10
43.6788199898129
20
-7.39256953419639
30
0
41
1
10
43.6492254723381
20
-7.44306933915921
30
0
41
1
10
43.6414543231442
20
-7.46474366774499
30
0
41
1
10
43.6410113213017
20
-7.47191101655596
30
0
41
1
10
43.6410002618119
20
-7.47280737933439
30
0
0
SPLINE
5
D4
100
AcDbEntity
8
1
62
256
6
ByLayer
370
18
48
1
60
0
100
AcDbSpline
70
4
71
1
72
4
73
2
40
0
40
0
40
1
40
1
41
1
10
43.73225
20
-7.42831710792918
30
0
41
1
10
44.271
20
-6.95973658878334
30
0
0
SPLINE
5
D5
100
AcDbEntity
8
1
62
256
6
ByLayer
370
18
48
1
60
0
100
AcDbSpline
70
4
71
1
72
4
73
2
40
0
40
0
40
1
40
1
41
1
10
44.271
20
-7.04323825966262
30
0
41
1
10
43.73225
20
-7.66041923033742
30
0
0
SPLINE
5
D6
100
AcDbEntity
8
1
62
256
6
ByLayer
370
18
48
1
60
0
100
AcDbSpline
70
4
71
3
72
11
73
7
40
0
40
0
40
0
40
0
40
0.339425752149588
40
0.640899896197313
40
0.875097381693025
40
1
40
1
40
1
40
1
41
1
10
43.73225
20
-7.66041923033742
30
0
41
1
10
43.7155985136786
20
-7.67904818483171
30
0
41
1
10
43.6878590235422
20
-7.71136061044302
30
0
41
1
10
43.6568373353287
20
-7.75082323541164
30
0
41
1
10
43.6430484029317
20
-7.77230369204825
30
0
41
1
10
43.6411028099502
20
-7.77856332287699
30
0
41
1
10
43.64100006951
20
-7.78019926937426
30
0
0
SPLINE
5
D7
100
AcDbEntity
8
1
62
256
6
ByLayer
370
18
48
1
60
0
100
AcDbSpline
70
4
71
1
72
4
73
2
40
0
40
0
40
1
40
1
41
1
10
43.73225
20
-7.71182669446589
30
0
41
1
10
44.271
20
-7.20782149133552
30
0
0
SPLINE
5
D8
100
AcDbEntity
8
1
62
256
6
ByLayer
370
18
48
1
60
0
100
AcDbSpline
70
4
71
1
72
4
73
2
40
0
40
0
40
1
40
1
41
1
10
44.271
20
-7.23480807738994
30
0
41
1
10
43.73225
20
-7.78714626002363
30
0
0
SPLINE
5
D9
100
AcDbEntity
8
1
62
256
6
ByLayer
370
18
48
1
60
0
100
AcDbSpline
70
4
71
3
72
11
73
7
40
0
40
0
40
0
40
0
40
0.362610471038396
40
0.631771594589248
40
0.854149069741771
40
1
40
1
40
1
40
1
41
1
10
43.73225
20
-7.78714626002362
30
0
41
1
10
43.7143629187719
20
-7.80526694333412
30
0
41
1
10
43.6871202374109
20
-7.83290662209927
30
0
41
1
10
43.6568600635072
20
-7.86377998847823
30
0
41
1
10
43.6432759320819
20
-7.87767171356779
30
0
41
1
10
43.64108465133
20
-7.87991224152868
30
0
41
1
10
43.641
20
-7.88000000000001
30
0
0
SPLINE
5
DA
100
AcDbEntity
8
SK1
62
256
6
ByLayer
370
18
48
1
60
0
100
AcDbSpline
70
4
71
3
72
13
73
9
40
0
40
0
40
0
40
0
40
0.189707143043226
40
0.3786574361758
40
0.571610356541108
40
0.677509999173994
40
0.783424666685942
40
1
40
1
40
1
40
1
41
1
10
-60
20
-2.91504716942969
30
0
41
1
10
-60.1326290727137
20
-2.55984025405476
30
0
41
1
10
-60.3492666090079
20
-1.84066314452978
30
0
41
1
10
-60.5447237894943
20
-0.717433094894179
30
0
41
1
10
-60.5638069025771
20
0.255602463008705
30
0
41
1
10
-60.4839470638246
20
1.05646370440955
30
0
41
1
10
-60.3312156894944
20
1.89500100882535
30
0
41
1
10
-60.1514447952998
20
2.50935635184201
30
0
41
1
10
-60
20
2.91504716942969
30
0
0
SPLINE
5
DB
100
AcDbEntity
8
1
62
256
6
ByLayer
370
18
48
1
60
0
100
AcDbSpline
70
4
71
3
72
12
73
8
40
0
40
0
40
0
40
0
40
0.107136878661824
40
0.594102365656032
40
0.788618928715762
40
0.984591864214218
40
1
40
1
40
1
40
1
41
1
10
43.641004153935
20
-4.79754535319473
30
0
41
1
10
43.640942680646
20
-4.80206170314744
30
0
41
1
10
43.6414790403033
20
-4.82633195084399
30
0
41
1
10
43.6461761782206
20
-4.856910026058
30
0
41
1
10
43.6634931151602
20
-4.87733911222893
30
0
41
1
10
43.6756051510564
20
-4.88052242511062
30
0
41
1
10
43.6826270497733
20
-4.88000362537939
30
0
41
1
10
43.6831438197758
20
-4.87995529151155
30
0
0
SPLINE
5
DC
100
AcDbEntity
8
1
62
256
6
ByLayer
370
18
48
1
60
0
100
AcDbSpline
70
4
71
3
72
10
73
6
40
0
40
0
40
0
40
0
40
0.361559407111274
40
0.884023540246352
40
1
40
1
40
1
40
1
41
1
10
43.6831438197758
20
-4.87995529151155
30
0
41
1
10
43.688809744571
20
-4.87920312812175
30
0
41
1
10
43.7028021220472
20
-4.8753162825215
30
0
41
1
10
43.7199707067148
20
-4.86359005181418
30
0
41
1
10
43.7303632691248
20
-4.85479162325013
30
0
41
1
10
43.7322500000001
20
-4.85311933990735
30
0
0
SPLINE
5
DD
100
AcDbEntity
8
1
62
256
6
ByLayer
370
18
48
1
60
0
100
AcDbSpline
70
4
71
2
72
6
73
3
40
0
40
0
40
0
40
1
40
1
40
1
41
1
10
43.6410006036326
20
4.79854383232953
30
0
41
1
10
43.650764094966
20
4.62498323492287
30
0
41
1
10
43.73225
20
4.42736111274162
30
0
0
SPLINE
5
DE
100
AcDbEntity
8
1
62
256
6
ByLayer
370
18
48
1
60
0
100
AcDbSpline
70
4
71
3
72
13
73
9
40
0
40
0
40
0
40
0
40
0.130026745277951
40
0.324778390658304
40
0.521168359504791
40
0.693086474546668
40
0.857329516321836
40
1
40
1
40
1
40
1
41
1
10
43.6410064788331
20
-6.08924608169168
30
0
41
1
10
43.6408547565036
20
-6.09522048551464
30
0
41
1
10
43.6418661868716
20
-6.10876642307717
30
0
41
1
10
43.6481872046288
20
-6.12655750502973
30
0
41
1
10
43.6641660110031
20
-6.13518604863597
30
0
41
1
10
43.6866435032767
20
-6.13077762446611
30
0
41
1
10
43.7099463019789
20
-6.11795696879094
30
0
41
1
10
43.7250618701841
20
-6.10681365353462
30
0
41
1
10
43.73225
20
-6.1008313562093
30
0
0
SPLINE
5
DF
100
AcDbEntity
8
1
62
256
6
ByLayer
370
18
48
1
60
0
100
AcDbSpline
70
4
71
3
72
10
73
6
40
0
40
0
40
0
40
0
40
0.260892546401613
40
0.74047752585208
40
1
40
1
40
1
40
1
41
1
10
43.6410000549106
20
6.09040092305979
30
0
41
1
10
43.642178104503
20
6.07156278954576
30
0
41
1
10
43.6503493428574
20
6.01583483766267
30
0
41
1
10
43.686554358893
20
5.9254421945001
30
0
41
1
10
43.7193725812055
20
5.85960719873482
30
0
41
1
10
43.73225
20
5.83602180539907
30
0
0
SPLINE
5
E0
100
AcDbEntity
8
1
62
256
6
ByLayer
370
18
48
1
60
0
100
AcDbSpline
70
4
71
3
72
13
73
9
40
0
40
0
40
0
40
0
40
0.0307199052171548
40
0.245853301142964
40
0.46235947072156
40
0.652268876406825
40
0.901549293277543
40
1
40
1
40
1
40
1
41
1
10
43.6410001730344
20
-6.93036884823569
30
0
41
1
10
43.6409943145524
20
-6.93136897421447
30
0
41
1
10
43.6412087533986
20
-6.93910764550355
30
0
41
1
10
43.6450790551939
20
-6.95061977049295
30
0
41
1
10
43.6608219623147
20
-6.95409751937999
30
0
41
1
10
43.6860480316796
20
-6.9447082520356
30
0
41
1
10
43.7110470233598
20
-6.92803429332715
30
0
41
1
10
43.7275034253322
20
-6.91499433434441
30
0
41
1
10
43.7322500000061
20
-6.91104327481762
30
0
0
SPLINE
5
E1
100
AcDbEntity
8
1
62
256
6
ByLayer
370
18
48
1
60
0
100
AcDbSpline
70
4
71
3
72
11
73
7
40
0
40
0
40
0
40
0
40
0.0682052451158596
40
0.343531615004701
40
0.780664475505409
40
1
40
1
40
1
40
1
41
1
10
43.6410013367063
20
6.93012551712895
30
0
41
1
10
43.6410675116412
20
6.92710780962122
30
0
41
1
10
43.642262556295
20
6.91125173062794
30
0
41
1
10
43.6573945197768
20
6.86472742343205
30
0
41
1
10
43.6919865640032
20
6.79978050021671
30
0
41
1
10
43.7215468861487
20
6.75322354160808
30
0
41
1
10
43.7322499999991
20
6.73734180545787
30
0
0
SPLINE
5
E2
100
AcDbEntity
8
1
62
256
6
ByLayer
370
18
48
1
60
0
100
AcDbSpline
70
4
71
3
72
12
73
8
40
0
40
0
40
0
40
0
40
0.175038049682586
40
0.391257873717108
40
0.592084657085211
40
0.87159087970059
40
1
40
1
40
1
40
1
41
1
10
43.6410002618119
20
-7.47280737933439
30
0
41
1
10
43.6409453026495
20
-7.47676557256466
30
0
41
1
10
43.6433296694299
20
-7.48277682110983
30
0
41
1
10
43.6559826053401
20
-7.48238604966508
30
0
41
1
10
43.6802236649712
20
-7.46965253263895
30
0
41
1
10
43.7072135637007
20
-7.44952055777398
30
0
41
1
10
43.726117832658
20
-7.43365689145897
30
0
41
1
10
43.7322500000116
20
-7.42831710792415
30
0
0
SPLINE
5
E3
100
AcDbEntity
8
1
62
256
6
ByLayer
370
18
48
1
60
0
100
AcDbSpline
70
4
71
1
72
4
73
2
40
0
40
0
40
1
40
1
41
1
10
43.73225
20
7.42831710792918
30
0
41
1
10
43.7060374822966
20
7.45
30
0
0
SPLINE
5
E4
100
AcDbEntity
8
1
62
256
6
ByLayer
370
18
48
1
60
0
100
AcDbSpline
70
4
71
1
72
4
73
2
40
0
40
0
40
1
40
1
41
1
10
44.271
20
6.95973658878334
30
0
41
1
10
43.73225
20
7.42831710792918
30
0
0
SPLINE
5
E5
100
AcDbEntity
8
1
62
256
6
ByLayer
370
18
48
1
60
0
100
AcDbSpline
70
4
71
2
72
6
73
3
40
0
40
0
40
0
40
1
40
1
40
1
41
1
10
43.8268198572025
20
7.45
30
0
41
1
10
44.0398789147786
20
7.20835359766652
30
0
41
1
10
44.271
20
6.96874532593908
30
0
0
SPLINE
5
E6
100
AcDbEntity
8
1
62
256
6
ByLayer
370
18
48
1
60
0
100
AcDbSpline
70
4
71
1
72
4
73
2
40
0
40
0
40
1
40
1
41
1
10
43.8268198572025
20
7.45
30
0
41
1
10
43.7060374822966
20
7.45
30
0
0
SPLINE
5
E7
100
AcDbEntity
8
1
62
256
6
ByLayer
370
18
48
1
60
0
100
AcDbSpline
70
4
71
3
72
12
73
8
40
0
40
0
40
0
40
0
40
0.0774044424679232
40
0.291054519996592
40
0.49597293632742
40
0.787326321217778
40
1
40
1
40
1
40
1
41
1
10
43.64100006951
20
-7.78019926937426
30
0
41
1
10
43.640994764504
20
-7.78106712443024
30
0
41
1
10
43.6418417399341
20
-7.78340796550096
30
0
41
1
10
43.6492420777495
20
-7.78129774724289
30
0
41
1
10
43.6701413837668
20
-7.7666389676076
30
0
41
1
10
43.6992892999751
20
-7.74196877363412
30
0
41
1
10
43.7220346453064
20
-7.72134778049578
30
0
41
1
10
43.73225
20
-7.71182669446589
30
0
0
LINE
5
70
100
AcDbEntity
8
81
62
256
6
ByLayer
370
18
48
1
60
0
100
AcDbLine
10
44
20
0
30
0
11
48.4
21
0
31
0
39
0
210
0
220
0
230
1
0
LINE
5
71
100
AcDbEntity
8
4
62
256
6
ByLayer
370
18
48
0.05
60
0
100
AcDbLine
10
0
20
0
30
0
11
44
21
0
31
0
39
0
210
0
220
0
230
1
0
LINE
5
73
100
AcDbEntity
8
SK4
62
256
6
ByLayer
370
18
48
0.05
60
0
100
AcDbLine
10
-66
20
0
30
0
11
49
21
0
31
0
39
0
210
0
220
0
230
1
0
LINE
5
75
100
AcDbEntity
8
80
62
256
6
ByLayer
370
18
48
1
60
0
100
AcDbLine
10
0
20
0
30
0
11
-4.4
21
0
31
0
39
0
210
0
220
0
230
1
0
LINE
5
76
100
AcDbEntity
8
1
62
256
6
ByLayer
370
18
48
1
60
0
100
AcDbLine
10
43.73225
20
2.600075
30
0
11
43.73225
21
-2.600075
31
0
39
0
210
0
220
0
230
1
0
LINE
5
78
100
AcDbEntity
8
1
62
256
6
ByLayer
370
18
48
1
60
0
100
AcDbLine
10
43.647983
20
-2.545957
30
0
11
43.647983
21
2.545957
31
0
39
0
210
0
220
0
230
1
0
LINE
5
79
100
AcDbEntity
8
1
62
256
6
ByLayer
370
18
48
1
60
0
100
AcDbLine
10
43.521
20
-8
30
0
11
43.64248
21
-7.87852
31
0
39
0
210
0
220
0
230
1
0
LINE
5
7A
100
AcDbEntity
8
SK1
62
256
6
ByLayer
370
18
48
1
60
0
100
AcDbLine
10
-60
20
2.915047
30
0
11
0
21
2.915047
31
0
39
0
210
0
220
0
230
1
0
LINE
5
7C
100
AcDbEntity
8
1
62
256
6
ByLayer
370
18
48
1
60
0
100
AcDbLine
10
43.521
20
-2.915047
30
0
11
0
21
-2.915047
31
0
39
0
210
0
220
0
230
1
0
LINE
5
7D
100
AcDbEntity
8
SK1
62
256
6
ByLayer
370
18
48
1
60
0
100
AcDbLine
10
-60.55
20
7.45
30
0
11
-61
21
7
31
0
39
0
210
0
220
0
230
1
0
LINE
5
7E
100
AcDbEntity
8
SK1
62
256
6
ByLayer
370
18
48
1
60
0
100
AcDbLine
10
-61
20
-7
30
0
11
-60
21
-8
31
0
39
0
210
0
220
0
230
1
0
LINE
5
7F
100
AcDbEntity
8
SK1
62
256
6
ByLayer
370
18
48
1
60
0
100
AcDbLine
10
-60
20
-8
30
0
11
0
21
-8
31
0
39
0
210
0
220
0
230
1
0
LINE
5
80
100
AcDbEntity
8
1
62
256
6
ByLayer
370
18
48
1
60
0
100
AcDbLine
10
43.521
20
7.45
30
0
11
0
21
7.45
31
0
39
0
210
0
220
0
230
1
0
LINE
5
81
100
AcDbEntity
8
1
62
256
6
ByLayer
370
18
48
1
60
0
100
AcDbLine
10
44.271
20
1.768871
30
0
11
44.271
21
-1.768871
31
0
39
0
210
0
220
0
230
1
0
LINE
5
82
100
AcDbEntity
8
1
62
256
6
ByLayer
370
18
48
1
60
0
100
AcDbLine
10
43.73225
20
4.853119
30
0
11
43.73225
21
4.427361
31
0
39
0
210
0
220
0
230
1
0
LINE
5
83
100
AcDbEntity
8
1
62
256
6
ByLayer
370
18
48
1
60
0
100
AcDbLine
10
43.73225
20
-4.427361
30
0
11
43.73225
21
-4.853119
31
0
39
0
210
0
220
0
230
1
0
LINE
5
84
100
AcDbEntity
8
1
62
256
6
ByLayer
370
18
48
1
60
0
100
AcDbLine
10
44.271
20
4.375347
30
0
11
44.271
21
2.723276
31
0
39
0
210
0
220
0
230
1
0
LINE
5
85
100
AcDbEntity
8
1
62
256
6
ByLayer
370
18
48
1
60
0
100
AcDbLine
10
44.271
20
-2.723276
30
0
11
44.271
21
-4.375347
31
0
39
0
210
0
220
0
230
1
0
LINE
5
86
100
AcDbEntity
8
1
62
256
6
ByLayer
370
18
48
1
60
0
100
AcDbLine
10
43.73225
20
-5.836022
30
0
11
43.73225
21
-6.100831
31
0
39
0
210
0
220
0
230
1
0
LINE
5
87
100
AcDbEntity
8
1
62
256
6
ByLayer
370
18
48
1
60
0
100
AcDbLine
10
43.73225
20
6.100831
30
0
11
43.73225
21
5.836022
31
0
39
0
210
0
220
0
230
1
0
LINE
5
88
100
AcDbEntity
8
1
62
256
6
ByLayer
370
18
48
1
60
0
100
AcDbLine
10
44.271
20
-4.822212
30
0
11
44.271
21
-5.659807
31
0
39
0
210
0
220
0
230
1
0
LINE
5
89
100
AcDbEntity
8
1
62
256
6
ByLayer
370
18
48
1
60
0
100
AcDbLine
10
44.271
20
5.659807
30
0
11
44.271
21
4.822212
31
0
39
0
210
0
220
0
230
1
0
LINE
5
8A
100
AcDbEntity
8
1
62
256
6
ByLayer
370
18
48
1
60
0
100
AcDbLine
10
43.73225
20
-6.737342
30
0
11
43.73225
21
-6.911043
31
0
39
0
210
0
220
0
230
1
0
LINE
5
8B
100
AcDbEntity
8
1
62
256
6
ByLayer
370
18
48
1
60
0
100
AcDbLine
10
43.73225
20
6.911043
30
0
11
43.73225
21
6.737342
31
0
39
0
210
0
220
0
230
1
0
LINE
5
8C
100
AcDbEntity
8
1
62
256
6
ByLayer
370
18
48
1
60
0
100
AcDbLine
10
44.271
20
6.465151
30
0
11
44.271
21
5.895907
31
0
39
0
210
0
220
0
230
1
0
LINE
5
8D
100
AcDbEntity
8
1
62
256
6
ByLayer
370
18
48
1
60
0
100
AcDbLine
10
44.271
20
-5.895907
30
0
11
44.271
21
-6.465151
31
0
39
0
210
0
220
0
230
1
0
LINE
5
8E
100
AcDbEntity
8
1
62
256
6
ByLayer
370
18
48
1
60
0
100
AcDbLine
10
43.73225
20
-7.321161
30
0
11
43.73225
21
-7.428317
31
0
39
0
210
0
220
0
230
1
0
LINE
5
8F
100
AcDbEntity
8
1
62
256
6
ByLayer
370
18
48
1
60
0
100
AcDbLine
10
43.73225
20
7.428317
30
0
11
43.73225
21
7.321161
31
0
39
0
210
0
220
0
230
1
0
LINE
5
90
100
AcDbEntity
8
1
62
256
6
ByLayer
370
18
48
1
60
0
100
AcDbLine
10
44.271
20
6.959737
30
0
11
44.271
21
6.614149
31
0
39
0
210
0
220
0
230
1
0
LINE
5
91
100
AcDbEntity
8
1
62
256
6
ByLayer
370
18
48
1
60
0
100
AcDbLine
10
44.271
20
-6.614149
30
0
11
44.271
21
-6.959737
31
0
39
0
210
0
220
0
230
1
0
LINE
5
92
100
AcDbEntity
8
1
62
256
6
ByLayer
370
18
48
1
60
0
100
AcDbLine
10
43.73225
20
-7.660419
30
0
11
43.73225
21
-7.711827
31
0
39
0
210
0
220
0
230
1
0
LINE
5
93
100
AcDbEntity
8
1
62
256
6
ByLayer
370
18
48
1
60
0
100
AcDbLine
10
44.271
20
-7.043238
30
0
11
44.271
21
-7.207821
31
0
39
0
210
0
220
0
230
1
0
LINE
5
94
100
AcDbEntity
8
SK1
62
256
6
ByLayer
370
18
48
1
60
0
100
AcDbLine
10
50.371
20
5.958757
30
0
11
47.271
21
5.958757
31
0
39
0
210
0
220
0
230
1
0
LINE
5
95
100
AcDbEntity
8
SK1
62
256
6
ByLayer
370
18
48
1
60
0
100
AcDbLine
10
47.271
20
0.758757
30
0
11
50.371
21
0.758757
31
0
39
0
210
0
220
0
230
1
0
LINE
5
96
100
AcDbEntity
8
SK1
62
256
6
ByLayer
370
18
48
1
60
0
100
AcDbLine
10
47.271
20
4.946257
30
0
11
44.271
21
4.946257
31
0
39
0
210
0
220
0
230
1
0
LINE
5
97
100
AcDbEntity
8
SK1
62
256
6
ByLayer
370
18
48
1
60
0
100
AcDbLine
10
44.271
20
1.771257
30
0
11
47.271
21
1.771257
31
0
39
0
210
0
220
0
230
1
0
LINE
5
98
100
AcDbEntity
8
SK1
62
256
6
ByLayer
370
18
48
1
60
0
100
AcDbLine
10
50.371
20
-0.758757
30
0
11
47.271
21
-0.758757
31
0
39
0
210
0
220
0
230
1
0
LINE
5
99
100
AcDbEntity
8
SK1
62
256
6
ByLayer
370
18
48
1
60
0
100
AcDbLine
10
47.271
20
-5.958757
30
0
11
50.371
21
-5.958757
31
0
39
0
210
0
220
0
230
1
0
LINE
5
9A
100
AcDbEntity
8
SK1
62
256
6
ByLayer
370
18
48
1
60
0
100
AcDbLine
10
47.271
20
-1.771257
30
0
11
44.271
21
-1.771257
31
0
39
0
210
0
220
0
230
1
0
LINE
5
9B
100
AcDbEntity
8
SK1
62
256
6
ByLayer
370
18
48
1
60
0
100
AcDbLine
10
44.271
20
-4.946257
30
0
11
47.271
21
-4.946257
31
0
39
0
210
0
220
0
230
1
0
LINE
5
9C
100
AcDbEntity
8
1
62
256
6
ByLayer
370
18
48
1
60
0
100
AcDbLine
10
44.271
20
6.614149
30
0
11
44.271
21
6.465151
31
0
39
0
210
0
220
0
230
1
0
LINE
5
9D
100
AcDbEntity
8
1
62
256
6
ByLayer
370
18
48
1
60
0
100
AcDbLine
10
44.271
20
5.895907
30
0
11
44.271
21
5.659807
31
0
39
0
210
0
220
0
230
1
0
LINE
5
9E
100
AcDbEntity
8
1
62
256
6
ByLayer
370
18
48
1
60
0
100
AcDbLine
10
44.271
20
4.759357
30
0
11
44.271
21
4.375347
31
0
39
0
210
0
220
0
230
1
0
LINE
5
9F
100
AcDbEntity
8
1
62
256
6
ByLayer
370
18
48
1
60
0
100
AcDbLine
10
44.271
20
2.723276
30
0
11
44.271
21
1.768871
31
0
39
0
210
0
220
0
230
1
0
LINE
5
A0
100
AcDbEntity
8
1
62
256
6
ByLayer
370
18
48
1
60
0
100
AcDbLine
10
43.521
20
2.915047
30
0
11
43.521
21
7.45
31
0
39
0
210
0
220
0
230
1
0
LINE
5
A1
100
AcDbEntity
8
1
62
256
6
ByLayer
370
18
48
1
60
0
100
AcDbLine
10
43.521
20
-8
30
0
11
43.521
21
-2.915047
31
0
39
0
210
0
220
0
230
1
0
LINE
5
A2
100
AcDbEntity
8
1
62
256
6
ByLayer
370
18
48
1
60
0
100
AcDbLine
10
44.271
20
-1.768871
30
0
11
44.271
21
-2.723276
31
0
39
0
210
0
220
0
230
1
0
LINE
5
A3
100
AcDbEntity
8
1
62
256
6
ByLayer
370
18
48
1
60
0
100
AcDbLine
10
44.271
20
-4.375347
30
0
11
44.271
21
-4.759357
31
0
39
0
210
0
220
0
230
1
0
LINE
5
A4
100
AcDbEntity
8
1
62
256
6
ByLayer
370
18
48
1
60
0
100
AcDbLine
10
44.271
20
-5.659807
30
0
11
44.271
21
-5.895907
31
0
39
0
210
0
220
0
230
1
0
LINE
5
A5
100
AcDbEntity
8
1
62
256
6
ByLayer
370
18
48
1
60
0
100
AcDbLine
10
44.271
20
-6.465151
30
0
11
44.271
21
-6.614149
31
0
39
0
210
0
220
0
230
1
0
LINE
5
A6
100
AcDbEntity
8
1
62
256
6
ByLayer
370
18
48
1
60
0
100
AcDbLine
10
44.271
20
-6.959737
30
0
11
44.271
21
-7.043238
31
0
39
0
210
0
220
0
230
1
0
LINE
5
A7
100
AcDbEntity
8
1
62
256
6
ByLayer
370
18
48
1
60
0
100
AcDbLine
10
44.271
20
-7.207821
30
0
11
44.271
21
-7.234808
31
0
39
0
210
0
220
0
230
1
0
LINE
5
A8
100
AcDbEntity
8
SK1
62
256
6
ByLayer
370
18
48
1
60
0
100
AcDbLine
10
-61
20
-7
30
0
11
-61
21
0
31
0
39
0
210
0
220
0
230
1
0
LINE
5
A9
100
AcDbEntity
8
SK1
62
256
6
ByLayer
370
18
48
1
60
0
100
AcDbLine
10
-60
20
7.45
30
0
11
-60
21
2.915047
31
0
39
0
210
0
220
0
230
1
0
LINE
5
AA
100
AcDbEntity
8
SK1
62
256
6
ByLayer
370
18
48
1
60
0
100
AcDbLine
10
-60
20
-2.915047
30
0
11
-60
21
-8
31
0
39
0
210
0
220
0
230
1
0
LINE
5
AB
100
AcDbEntity
8
SK1
62
256
6
ByLayer
370
18
48
1
60
0
100
AcDbLine
10
-61
20
0
30
0
11
-61
21
7
31
0
39
0
210
0
220
0
230
1
0
LINE
5
AC
100
AcDbEntity
8
1
62
256
6
ByLayer
370
18
48
1
60
0
100
AcDbLine
10
43.641
20
7.45
30
0
11
43.706037
21
7.45
31
0
39
0
210
0
220
0
230
1
0
LINE
5
AD
100
AcDbEntity
8
1
62
256
6
ByLayer
370
18
48
1
60
0
100
AcDbLine
10
44.271
20
6.968745
30
0
11
44.271
21
6.959737
31
0
39
0
210
0
220
0
230
1
0
LINE
5
AE
100
AcDbEntity
8
SK1
62
256
6
ByLayer
370
18
48
1
60
0
100
AcDbLine
10
50.371
20
5.958757
30
0
11
50.371
21
0.758757
31
0
39
0
210
0
220
0
230
1
0
LINE
5
AF
100
AcDbEntity
8
SK1
62
256
6
ByLayer
370
18
48
1
60
0
100
AcDbLine
10
47.271
20
5.958757
30
0
11
47.271
21
0.758757
31
0
39
0
210
0
220
0
230
1
0
LINE
5
B0
100
AcDbEntity
8
SK1
62
256
6
ByLayer
370
18
48
1
60
0
100
AcDbLine
10
50.371
20
-0.758757
30
0
11
50.371
21
-5.958757
31
0
39
0
210
0
220
0
230
1
0
LINE
5
B1
100
AcDbEntity
8
SK1
62
256
6
ByLayer
370
18
48
1
60
0
100
AcDbLine
10
47.271
20
-0.758757
30
0
11
47.271
21
-5.958757
31
0
39
0
210
0
220
0
230
1
0
LINE
5
B2
100
AcDbEntity
8
SK1
62
256
6
ByLayer
370
18
48
1
60
0
100
AcDbLine
10
-60
20
7.45
30
0
11
-60.55
21
7.45
31
0
39
0
210
0
220
0
230
1
0
LINE
5
B3
100
AcDbEntity
8
SK1
62
256
6
ByLayer
370
18
48
1
60
0
100
AcDbLine
10
0
20
7.45
30
0
11
-60
21
7.45
31
0
39
0
210
0
220
0
230
1
0
LINE
5
B4
100
AcDbEntity
8
1
62
256
6
ByLayer
370
18
48
1
60
0
100
AcDbLine
10
0
20
2.915047
30
0
11
43.521
21
2.915047
31
0
39
0
210
0
220
0
230
1
0
LINE
5
B5
100
AcDbEntity
8
SK1
62
256
6
ByLayer
370
18
48
1
60
0
100
AcDbLine
10
0
20
-2.915047
30
0
11
-60
21
-2.915047
31
0
39
0
210
0
220
0
230
1
0
LINE
5
B6
100
AcDbEntity
8
1
62
256
6
ByLayer
370
18
48
1
60
0
100
AcDbLine
10
0
20
-8
30
0
11
43.521
21
-8
31
0
39
0
210
0
220
0
230
1
0
MTEXT
5
E8
100
AcDbEntity
8
SK6
62
256
6
ByLayer
370
13
48
1
60
0
100
AcDbMText
10
0.871464
20
33.629672
30
0
210
0
220
0
230
1
1
\W0.6809;570-2C 16 105
40
3.5
41
0
44
1.084337
50
0
71
7
72
5
7
iso_b_vert
0
DIMENSION
5
F6
100
AcDbEntity
8
2
62
256
6
ByLayer
370
13
48
1
60
0
100
AcDbDimension
2
DimnDraft3D1
10
44
20
13.396407
30
0
11
19.769145
21
13.396407
31
0
70
32
71
5
72
1
41
1
210
0
220
0
230
1
3
Standard
100
AcDbAlignedDimension
13
0
23
1.5875
33
0
14
44
24
1.5875
34
0
50
0
100
AcDbRotatedDimension
1001
ACAD
1000
DSTYLE
1002
{
1070
   279
1070
     0
1070
   173
1070
     1
1070
   340
1005
E9
1070
   271
1070
     1
1070
   272
1070
     2
1070
    77
1070
     1
1070
    73
1070
     0
1070
   171
1070
     3
1070
   274
1070
     4
1070
   177
1070
     7
1070
   176
1070
     7
1070
   178
1070
     7
1070
    78
1070
     8
1070
    48
1040
-0.005
1070
    41
1041
3.175
1070
   147
1041
1.5875
1070
    42
1041
1.5875
1070
    44
1041
3.175
1070
   140
1041
3.175
1070
   343
1005
0
1070
   344
1005
0
1002
}
0
DIMENSION
5
101
100
AcDbEntity
8
SK2
62
256
6
ByLayer
370
13
48
1
60
0
100
AcDbDimension
2
DimnDraft3D2
10
-61
20
23.848611
30
0
11
-11.186217
21
23.848611
31
0
70
32
71
5
72
1
41
1
210
0
220
0
230
1
3
Standard
100
AcDbAlignedDimension
13
44
23
1.5875
33
0
14
-61
24
1.5875
34
0
50
0
100
AcDbRotatedDimension
1001
ACAD
1000
DSTYLE
1002
{
1070
   279
1070
     0
1070
   173
1070
     1
1070
   340
1005
E9
1070
   271
1070
     1
1070
   272
1070
     2
1070
    77
1070
     1
1070
    73
1070
     0
1070
   171
1070
     3
1070
   274
1070
     4
1070
   177
1070
     7
1070
   176
1070
     7
1070
   178
1070
     7
1070
    78
1070
     8
1070
    48
1040
-0.005
1070
    41
1041
3.175
1070
   147
1041
1.5875
1070
    42
1041
1.5875
1070
    44
1041
3.175
1070
   140
1041
3.175
1070
   343
1005
0
1070
   344
1005
0
1002
}
0
DIMENSION
5
10B
100
AcDbEntity
8
SK2
62
256
6
ByLayer
370
13
48
1
60
0
100
AcDbDimension
2
DimnDraft3D3
10
-61
20
13.415706
30
0
11
-31.99977
21
13.415706
31
0
70
32
71
5
72
1
41
1
210
0
220
0
230
1
3
Standard
100
AcDbAlignedDimension
13
0
23
9.0375
33
0
14
-61
24
8.5875
34
0
50
0
100
AcDbRotatedDimension
1001
ACAD
1000
DSTYLE
1002
{
1070
   279
1070
     0
1070
   173
1070
     1
1070
   340
1005
E9
1070
   271
1070
     1
1070
   272
1070
     2
1070
    77
1070
     1
1070
    73
1070
     0
1070
   171
1070
     3
1070
   274
1070
     4
1070
   177
1070
     7
1070
   176
1070
     7
1070
   178
1070
     7
1070
    78
1070
     8
1070
    48
1040
-0.005
1070
    41
1041
3.175
1070
   147
1041
1.5875
1070
    42
1041
1.5875
1070
    44
1041
3.175
1070
   140
1041
3.175
1070
   343
1005
0
1070
   344
1005
0
1002
}
0
DIMENSION
5
115
100
AcDbEntity
8
SK2
62
256
6
ByLayer
370
13
48
1
60
0
100
AcDbDimension
2
DimnDraft3D4
10
-68.74209
20
-8
30
0
11
-68.74209
21
-3.62495
31
0
70
32
71
5
72
1
41
1
210
0
220
0
230
1
3
Standard
100
AcDbAlignedDimension
13
-61.5875
23
7.45
33
0
14
-61.5875
24
-8
34
0
50
90
100
AcDbRotatedDimension
1001
ACAD
1000
DSTYLE
1002
{
1070
    74
1070
     0
1070
   279
1070
     0
1070
   173
1070
     1
1070
   340
1005
E9
1070
   271
1070
     1
1070
   272
1070
     2
1070
    77
1070
     1
1070
    73
1070
     0
1070
   171
1070
     3
1070
   274
1070
     4
1070
   177
1070
     7
1070
   176
1070
     7
1070
   178
1070
     7
1070
    78
1070
     8
1070
    48
1040
-0.005
1070
    41
1041
3.175
1070
   147
1041
1.5875
1070
    42
1041
1.5875
1070
    44
1041
3.175
1070
   140
1041
3.175
1070
   343
1005
0
1070
   344
1005
0
1002
}
0
DIMENSION
5
120
100
AcDbEntity
8
SK2
62
256
6
ByLayer
370
13
48
1
60
0
100
AcDbDimension
2
DimnDraft3D5
10
58.090604
20
7.45
30
0
11
52.534354
21
20.255468
31
0
70
33
71
5
72
1
41
1
210
0
220
0
230
1
3
Standard
100
AcDbAlignedDimension
13
45.1085
23
-8
33
0
14
45.1085
24
7.45
34
0
1001
ACAD
1000
DSTYLE
1002
{
1070
   279
1070
     0
1070
    74
1070
     0
1070
   173
1070
     1
1070
   340
1005
E9
1070
   271
1070
     1
1070
   272
1070
     2
1070
    77
1070
     1
1070
    73
1070
     0
1070
   171
1070
     3
1070
   274
1070
     4
1070
   177
1070
     7
1070
   176
1070
     7
1070
   178
1070
     7
1070
    78
1070
     8
1070
    48
1040
-0.005
1070
    41
1041
3.175
1070
   147
1041
1.5875
1070
    42
1041
1.5875
1070
    44
1041
3.175
1070
   140
1041
3.175
1070
   343
1005
0
1070
   344
1005
0
1002
}
0
ENDSEC
0
SECTION
2
OBJECTS
0
DICTIONARY
5
18b
330
0
100
AcDbDictionary
280
0
281
1
3
ACAD_GROUP
350
18c
3
ACAD_MLINESTYLE
350
18d
0
DICTIONARY
5
18c
330
0
100
AcDbDictionary
280
0
281
1
0
DICTIONARY
5
18d
330
0
100
AcDbDictionary
280
0
281
1
3
Standard
350
18
0
MLINESTYLE
5
18
330
18d
100
AcDbMlineStyle
2
Standard
70
0
3

62
256
51
90
52
90
71
2
49
-0.5
62
256
6
ByLayer
49
0.5
62
256
6
ByLayer
0
RASTERVARIABLES
5
179
330

100
AcDbRasterVariables
90
0
70
1
71
1
72
1
0
ENDSEC
0
EOF
