0
SECTION
2
HEADER
9
$ACADVER
1
AC1015
9
$DWGCODEPAGE
3
ANSI_1252
9
$HANDSEED
5
323
9
$ANGBASE
50
0
9
$ANGDIR
70
0
9
$ATTMODE
70
1
9
$AUNITS
70
0
9
$AUPREC
70
0
9
$CECOLOR
62
256
9
$CELTSCALE
40
1
9
$CELTYPE
6
ByLayer
9
$CELWEIGHT
370
18
9
$CLAYER
8
0
9
$CMLJUST
70
0
9
$CMLSCALE
40
1
9
$CMLSTYLE
2
Standard
9
$DIMSTYLE
2
Standard
9
$TEXTSIZE
40
0.2
9
$TEXTSTYLE
7
Standard
9
$LUNITS
70
2
9
$LUPREC
70
4
9
$EXTNAMES
290
1
9
$INSUNITS
70
4
9
$LTSCALE
40
1
9
$LWDISPLAY
290
1
9
$PDMODE
70
0
9
$PDSIZE
40
0
9
$PLINEGEN
70
0
0
ENDSEC
0
SECTION
2
CLASSES
0
CLASS
1
RASTERVARIABLES
2
AcDbRasterVariables
3
ISM
90
0
280
0
281
0
0
ENDSEC
0
SECTION
2
TABLES
0
TABLE
2
VPORT
5
319
100
AcDbSymbolTable
0
VPORT
5
1
100
AcDbSymbolTableRecord
100
AcDbViewportTableRecord
2
*Active
70
0
10
0
20
0
11
1
21
1
12
-1
22
1
13
0
23
0
14
0.5
24
0.5
15
10
25
10
16
0
26
0
36
1
17
0
27
0
37
0
0
ENDTAB
0
TABLE
2
LTYPE
5
31a
100
AcDbSymbolTable
0
LTYPE
5
14
100
AcDbSymbolTableRecord
100
AcDbLinetypeTableRecord
70
0
2
ByBlock
3

72
65
73
0
40
0
0
LTYPE
5
15
100
AcDbSymbolTableRecord
100
AcDbLinetypeTableRecord
70
0
2
ByLayer
3

72
65
73
0
40
0
0
LTYPE
5
16
100
AcDbSymbolTableRecord
100
AcDbLinetypeTableRecord
70
0
2
Continuous
3
Solid line
72
65
73
0
40
0
0
LTYPE
5
6E
100
AcDbSymbolTableRecord
100
AcDbLinetypeTableRecord
70
0
2
CENTER
3
____ _ ____ _ ____ _ ____
72
65
73
4
40
47.5
49
22
74
0
49
-8.5
74
0
49
8.5
74
0
49
-8.5
74
0
0
LTYPE
5
6F
100
AcDbSymbolTableRecord
100
AcDbLinetypeTableRecord
70
0
2
DASHED
3
__ __ __ __ __ __ __ __ __
72
65
73
2
40
25.72
49
12.86
74
0
49
-12.86
74
0
0
ENDTAB
0
TABLE
2
LAYER
5
31b
100
AcDbSymbolTable
0
LAYER
5
10
100
AcDbSymbolTableRecord
100
AcDbLayerTableRecord
2
0
70
0
62
7
6
Continuous
290
1
370
-3
390
0
0
LAYER
5
71
100
AcDbSymbolTableRecord
100
AcDbLayerTableRecord
2
81
70
0
62
-3
6
Continuous
290
1
370
-3
390
0
0
LAYER
5
73
100
AcDbSymbolTableRecord
100
AcDbLayerTableRecord
2
80
70
0
62
-6
6
Continuous
290
1
370
-3
390
0
0
LAYER
5
75
100
AcDbSymbolTableRecord
100
AcDbLayerTableRecord
2
1
70
0
62
4
6
Continuous
290
1
370
-3
390
0
0
LAYER
5
DF
100
AcDbSymbolTableRecord
100
AcDbLayerTableRecord
2
4
70
0
62
-2
6
CENTER
290
1
370
-3
390
0
0
LAYER
5
1FC
100
AcDbSymbolTableRecord
100
AcDbLayerTableRecord
2
Defpoints
70
0
62
7
6
Continuous
290
0
370
-3
390
0
0
LAYER
5
209
100
AcDbSymbolTableRecord
100
AcDbLayerTableRecord
2
2
70
0
62
7
6
Continuous
290
1
370
-3
390
0
0
LAYER
5
305
100
AcDbSymbolTableRecord
100
AcDbLayerTableRecord
2
SK1
70
0
62
4
6
Continuous
290
1
370
-3
390
0
0
LAYER
5
306
100
AcDbSymbolTableRecord
100
AcDbLayerTableRecord
2
SK4
70
0
62
2
6
CENTER
290
1
370
-3
390
0
0
LAYER
5
307
100
AcDbSymbolTableRecord
100
AcDbLayerTableRecord
2
SK2
70
0
62
7
6
Continuous
290
1
370
-3
390
0
0
LAYER
5
308
100
AcDbSymbolTableRecord
100
AcDbLayerTableRecord
2
SK6
70
0
62
5
6
Continuous
290
1
370
-3
390
0
0
ENDTAB
0
TABLE
2
STYLE
5
31c
100
AcDbSymbolTable
0
STYLE
5
11
100
AcDbSymbolTableRecord
100
AcDbTextStyleTableRecord
2
Standard
3
txt
70
0
71
0
40
0
41
1
42
0
50
0
0
STYLE
5
1ED
100
AcDbSymbolTableRecord
100
AcDbTextStyleTableRecord
2
iso_b_vert
3
simplex.shx
70
0
71
0
40
0
41
1
42
0
50
0
0
STYLE
5
1EE
100
AcDbSymbolTableRecord
100
AcDbTextStyleTableRecord
2
DWGDirectTextStyle
3
simplex
70
0
71
0
40
0
41
1
42
0
50
0
0
ENDTAB
0
TABLE
2
DIMSTYLE
5
31d
100
AcDbSymbolTable
100
AcDbDimStyleTable
0
DIMSTYLE
105
27
100
AcDbSymbolTableRecord
100
AcDbDimStyleTableRecord
2
Standard
70
0
3
<>
41
0.18
42
0.0625
44
0.18
140
0.18
147
0.09
73
0
74
0
77
1
271
2
275
0
278
52
280
0
340
11
0
ENDTAB
0
TABLE
2
VIEW
5
31e
100
AcDbSymbolTable
0
ENDTAB
0
TABLE
2
UCS
5
31f
100
AcDbSymbolTable
0
ENDTAB
0
TABLE
2
APPID
5
320
100
AcDbSymbolTable
0
APPID
5
12
100
AcDbSymbolTableRecord
100
AcDbRegAppTableRecord
2
ACAD
70
0
0
APPID
5
1F1
100
AcDbSymbolTableRecord
100
AcDbRegAppTableRecord
2
ACAD_DSTYLE_DIMBREAK
70
0
0
APPID
5
2C4
100
AcDbSymbolTableRecord
100
AcDbRegAppTableRecord
2
ACAD_DSTYLE_DIM_LINETYPE
70
0
0
APPID
5
2C5
100
AcDbSymbolTableRecord
100
AcDbRegAppTableRecord
2
ACAD_DSTYLE_DIM_EXT1_LINETYPE
70
0
0
APPID
5
2C6
100
AcDbSymbolTableRecord
100
AcDbRegAppTableRecord
2
ACAD_DSTYLE_DIM_EXT2_LINETYPE
70
0
0
APPID
5
301
100
AcDbSymbolTableRecord
100
AcDbRegAppTableRecord
2
ACAD_MLEADERVER
70
0
0
ENDTAB
0
TABLE
2
BLOCK_RECORD
5
321
100
AcDbSymbolTable
0
BLOCK_RECORD
5
1F
100
AcDbSymbolTableRecord
100
AcDbBlockTableRecord
2
*Model_Space
340
0
70
0
0
BLOCK_RECORD
5
1B
100
AcDbSymbolTableRecord
100
AcDbBlockTableRecord
2
*Paper_Space
340
0
70
0
0
BLOCK_RECORD
5
23
100
AcDbSymbolTableRecord
100
AcDbBlockTableRecord
2
*Paper_Space0
340
0
70
0
0
BLOCK_RECORD
5
1F3
100
AcDbSymbolTableRecord
100
AcDbBlockTableRecord
2
_Closed
340
0
70
0
0
BLOCK_RECORD
5
1FD
100
AcDbSymbolTableRecord
100
AcDbBlockTableRecord
2
*D2
340
0
70
0
0
BLOCK_RECORD
5
20A
100
AcDbSymbolTableRecord
100
AcDbBlockTableRecord
2
_U0
340
0
70
0
0
BLOCK_RECORD
5
21B
100
AcDbSymbolTableRecord
100
AcDbBlockTableRecord
2
*D4
340
0
70
0
0
BLOCK_RECORD
5
227
100
AcDbSymbolTableRecord
100
AcDbBlockTableRecord
2
_U1
340
0
70
0
0
BLOCK_RECORD
5
237
100
AcDbSymbolTableRecord
100
AcDbBlockTableRecord
2
*D6
340
0
70
0
0
BLOCK_RECORD
5
243
100
AcDbSymbolTableRecord
100
AcDbBlockTableRecord
2
_U2
340
0
70
0
0
BLOCK_RECORD
5
253
100
AcDbSymbolTableRecord
100
AcDbBlockTableRecord
2
*D8
340
0
70
0
0
BLOCK_RECORD
5
25F
100
AcDbSymbolTableRecord
100
AcDbBlockTableRecord
2
_U3
340
0
70
0
0
BLOCK_RECORD
5
26F
100
AcDbSymbolTableRecord
100
AcDbBlockTableRecord
2
*D10
340
0
70
0
0
BLOCK_RECORD
5
27B
100
AcDbSymbolTableRecord
100
AcDbBlockTableRecord
2
_U4
340
0
70
0
0
BLOCK_RECORD
5
28C
100
AcDbSymbolTableRecord
100
AcDbBlockTableRecord
2
*D12
340
0
70
0
0
BLOCK_RECORD
5
298
100
AcDbSymbolTableRecord
100
AcDbBlockTableRecord
2
_U5
340
0
70
0
0
ENDTAB
0
ENDSEC
0
SECTION
2
BLOCKS
0
BLOCK
5
20
100
AcDbEntity
8
0
100
AcDbBlockBegin
2
*Model_Space
70
0
10
0
20
0
30
0
3
*Model_Space
0
ENDBLK
5
21
100
AcDbEntity
8
0
100
AcDbBlockEnd
0
BLOCK
5
1C
100
AcDbEntity
8
0
100
AcDbBlockBegin
2
*Paper_Space
70
0
10
0
20
0
30
0
3
*Paper_Space
0
ENDBLK
5
1D
100
AcDbEntity
8
0
100
AcDbBlockEnd
0
BLOCK
5
24
100
AcDbEntity
8
0
100
AcDbBlockBegin
2
*Paper_Space0
70
0
10
0
20
0
30
0
3
*Paper_Space0
0
ENDBLK
5
25
100
AcDbEntity
8
0
100
AcDbBlockEnd
0
BLOCK
5
1F4
100
AcDbEntity
8
0
100
AcDbBlockBegin
2
_Closed
70
0
10
0
20
0
30
0
3
_Closed
0
LINE
5
1F6
100
AcDbEntity
8
0
62
256
6
ByLayer
370
-2
48
1
60
0
100
AcDbLine
10
-1
20
0.166667
30
0
11
0
21
0
31
0
39
0
210
0
220
0
230
1
0
LINE
5
1F7
100
AcDbEntity
8
0
62
256
6
ByLayer
370
-2
48
1
60
0
100
AcDbLine
10
0
20
0
30
0
11
-1
21
-0.166667
31
0
39
0
210
0
220
0
230
1
0
LINE
5
1F8
100
AcDbEntity
8
0
62
256
6
ByLayer
370
-2
48
1
60
0
100
AcDbLine
10
-1
20
0.166667
30
0
11
-1
21
-0.166667
31
0
39
0
210
0
220
0
230
1
0
LINE
5
1F9
100
AcDbEntity
8
0
62
256
6
ByLayer
370
-2
48
1
60
0
100
AcDbLine
10
0
20
0
30
0
11
-1
21
0
31
0
39
0
210
0
220
0
230
1
0
ENDBLK
5
1F5
100
AcDbEntity
8
0
100
AcDbBlockEnd
0
BLOCK
5
1FE
100
AcDbEntity
8
0
100
AcDbBlockBegin
2
*D2
70
1
10
0
20
0
30
0
3
*D2
0
LINE
5
200
100
AcDbEntity
8
0
62
256
6
ByLayer
370
-2
48
1
60
0
100
AcDbLine
10
36.5875
20
-12.75
30
0
11
63.071875
21
-12.75
31
0
39
0
210
0
220
0
230
1
0
LINE
5
201
100
AcDbEntity
8
0
62
256
6
ByLayer
370
-2
48
1
60
0
100
AcDbLine
10
36.5875
20
12.75
30
0
11
63.071875
21
12.75
31
0
39
0
210
0
220
0
230
1
0
LINE
5
202
100
AcDbEntity
8
0
62
256
6
ByLayer
370
-2
48
1
60
0
100
AcDbLine
10
59.896875
20
-9.575
30
0
11
59.896875
21
9.575
31
0
39
0
210
0
220
0
230
1
0
SOLID
5
203
100
AcDbEntity
8
0
62
256
6
ByLayer
370
-1
48
1
60
0
100
AcDbTrace
10
59.367708
20
-9.575
30
0
11
60.426042
21
-9.575
31
0
12
59.896875
22
-12.75
32
0
13
59.896875
23
-12.75
33
0
39
0
210
0
220
0
230
1
0
SOLID
5
204
100
AcDbEntity
8
0
62
256
6
ByLayer
370
-1
48
1
60
0
100
AcDbTrace
10
60.426042
20
9.575
30
0
11
59.367708
21
9.575
31
0
12
59.896875
22
12.75
32
0
13
59.896875
23
12.75
33
0
39
0
210
0
220
0
230
1
0
MTEXT
5
205
100
AcDbEntity
8
0
62
256
6
ByLayer
370
18
48
1
60
0
100
AcDbMText
10
50.503125
20
0
30
0
210
0
220
0
230
1
1
\A1;25.5
40
4.5
41
0
44
1
50
90
71
5
72
5
7
iso_b_vert
0
POINT
5
206
100
AcDbEntity
8
Defpoints
62
0
6
ByLayer
370
-1
48
1
60
0
100
AcDbPoint
10
35
20
-12.75
30
0
39
0
210
0
220
0
230
1
50
360
0
POINT
5
207
100
AcDbEntity
8
Defpoints
62
0
6
ByLayer
370
-1
48
1
60
0
100
AcDbPoint
10
35
20
12.75
30
0
39
0
210
0
220
0
230
1
50
360
0
POINT
5
208
100
AcDbEntity
8
Defpoints
62
0
6
ByLayer
370
-1
48
1
60
0
100
AcDbPoint
10
59.896875
20
12.75
30
0
39
0
210
0
220
0
230
1
50
360
0
ENDBLK
5
1FF
100
AcDbEntity
8
0
100
AcDbBlockEnd
0
BLOCK
5
216
100
AcDbEntity
8
0
100
AcDbBlockBegin
2
_U0
70
0
10
0
20
0
30
0
3
_U0
0
MTEXT
5
20B
100
AcDbEntity
8
2
62
256
6
ByLayer
370
18
48
1
60
0
100
AcDbMText
10
57.815029
20
-10.877015
30
0
210
0
220
0
230
1
1
%%c
40
3.175
41
0
44
1.084337
50
90
71
7
72
5
7
iso_b_vert
0
MTEXT
5
20C
100
AcDbEntity
8
2
62
256
6
ByLayer
370
18
48
1
60
0
100
AcDbMText
10
58.216453
20
-1.29239
30
0
210
0
220
0
230
1
1
\W0.8668;25.5
40
4.5
41
0
44
1.084337
50
90
71
7
72
5
7
iso_b_vert
0
LINE
5
20D
100
AcDbEntity
8
2
62
256
6
ByLayer
370
13
48
1
60
0
100
AcDbLine
10
36.5875
20
-12.75
30
0
11
63.071875
21
-12.75
31
0
39
0
210
0
220
0
230
1
0
LINE
5
20E
100
AcDbEntity
8
2
62
256
6
ByLayer
370
13
48
1
60
0
100
AcDbLine
10
36.5875
20
12.75
30
0
11
63.071875
21
12.75
31
0
39
0
210
0
220
0
230
1
0
LINE
5
20F
100
AcDbEntity
8
2
62
256
6
ByLayer
370
13
48
1
60
0
100
AcDbLine
10
59.896875
20
-24
30
0
11
59.896875
21
24
31
0
39
0
210
0
220
0
230
1
0
LINE
5
210
100
AcDbEntity
8
2
62
256
6
ByLayer
370
13
48
1
60
0
100
AcDbLine
10
59.896875
20
-12.75
30
0
11
60.314872
21
-15.924998
31
0
39
0
210
0
220
0
230
1
0
LINE
5
211
100
AcDbEntity
8
2
62
256
6
ByLayer
370
13
48
1
60
0
100
AcDbLine
10
59.896875
20
-12.75
30
0
11
59.478878
21
-15.925002
31
0
39
0
210
0
220
0
230
1
0
LINE
5
212
100
AcDbEntity
8
2
62
256
6
ByLayer
370
13
48
1
60
0
100
AcDbLine
10
60.314872
20
-15.924998
30
0
11
59.478878
21
-15.925002
31
0
39
0
210
0
220
0
230
1
0
LINE
5
213
100
AcDbEntity
8
2
62
256
6
ByLayer
370
13
48
1
60
0
100
AcDbLine
10
59.896875
20
12.75
30
0
11
59.478878
21
15.924998
31
0
39
0
210
0
220
0
230
1
0
LINE
5
214
100
AcDbEntity
8
2
62
256
6
ByLayer
370
13
48
1
60
0
100
AcDbLine
10
59.896875
20
12.75
30
0
11
60.314872
21
15.925002
31
0
39
0
210
0
220
0
230
1
0
LINE
5
215
100
AcDbEntity
8
2
62
256
6
ByLayer
370
13
48
1
60
0
100
AcDbLine
10
59.478878
20
15.924998
30
0
11
60.314872
21
15.925002
31
0
39
0
210
0
220
0
230
1
0
ENDBLK
5
217
100
AcDbEntity
8
0
100
AcDbBlockEnd
0
BLOCK
5
21C
100
AcDbEntity
8
0
100
AcDbBlockBegin
2
*D4
70
1
10
0
20
0
30
0
3
*D4
0
LINE
5
21E
100
AcDbEntity
8
0
62
256
6
ByLayer
370
-2
48
1
60
0
100
AcDbLine
10
35
20
-14.3375
30
0
11
35
21
-40.425
31
0
39
0
210
0
220
0
230
1
0
LINE
5
21F
100
AcDbEntity
8
0
62
256
6
ByLayer
370
-2
48
1
60
0
100
AcDbLine
10
0
20
-1.5875
30
0
11
0
21
-40.425
31
0
39
0
210
0
220
0
230
1
0
LINE
5
220
100
AcDbEntity
8
0
62
256
6
ByLayer
370
-2
48
1
60
0
100
AcDbLine
10
31.825
20
-37.25
30
0
11
3.175
21
-37.25
31
0
39
0
210
0
220
0
230
1
0
SOLID
5
221
100
AcDbEntity
8
0
62
256
6
ByLayer
370
-1
48
1
60
0
100
AcDbTrace
10
31.825
20
-37.779167
30
0
11
31.825
21
-36.720833
31
0
12
35
22
-37.25
32
0
13
35
23
-37.25
33
0
39
0
210
0
220
0
230
1
0
SOLID
5
222
100
AcDbEntity
8
0
62
256
6
ByLayer
370
-1
48
1
60
0
100
AcDbTrace
10
3.175
20
-36.720833
30
0
11
3.175
21
-37.779167
31
0
12
0
22
-37.25
32
0
13
0
23
-37.25
33
0
39
0
210
0
220
0
230
1
0
MTEXT
5
223
100
AcDbEntity
8
0
62
256
6
ByLayer
370
18
48
1
60
0
100
AcDbMText
10
17.5
20
-27.85625
30
0
210
0
220
0
230
1
1
\A1;35
40
4.5
41
0
44
1
50
0
71
5
72
5
7
iso_b_vert
0
POINT
5
224
100
AcDbEntity
8
Defpoints
62
0
6
ByLayer
370
-1
48
1
60
0
100
AcDbPoint
10
35
20
-12.75
30
0
39
0
210
0
220
0
230
1
50
360
0
POINT
5
225
100
AcDbEntity
8
Defpoints
62
0
6
ByLayer
370
-1
48
1
60
0
100
AcDbPoint
10
0
20
0
30
0
39
0
210
0
220
0
230
1
50
360
0
POINT
5
226
100
AcDbEntity
8
Defpoints
62
0
6
ByLayer
370
-1
48
1
60
0
100
AcDbPoint
10
0
20
-37.25
30
0
39
0
210
0
220
0
230
1
50
360
0
ENDBLK
5
21D
100
AcDbEntity
8
0
100
AcDbBlockEnd
0
BLOCK
5
232
100
AcDbEntity
8
0
100
AcDbBlockBegin
2
_U1
70
0
10
0
20
0
30
0
3
_U1
0
MTEXT
5
228
100
AcDbEntity
8
SK2
62
256
6
ByLayer
370
18
48
1
60
0
100
AcDbMText
10
14.446935
20
-35.922328
30
0
210
0
220
0
230
1
1
\W0.8247;35
40
4.5
41
0
44
1.084337
50
0
71
7
72
5
7
iso_b_vert
0
LINE
5
229
100
AcDbEntity
8
SK2
62
256
6
ByLayer
370
13
48
1
60
0
100
AcDbLine
10
35
20
-14.3375
30
0
11
35
21
-40.425
31
0
39
0
210
0
220
0
230
1
0
LINE
5
22A
100
AcDbEntity
8
SK2
62
256
6
ByLayer
370
13
48
1
60
0
100
AcDbLine
10
0
20
-1.5875
30
0
11
0
21
-40.425
31
0
39
0
210
0
220
0
230
1
0
LINE
5
22B
100
AcDbEntity
8
SK2
62
256
6
ByLayer
370
13
48
1
60
0
100
AcDbLine
10
35
20
-37.25
30
0
11
0
21
-37.25
31
0
39
0
210
0
220
0
230
1
0
LINE
5
22C
100
AcDbEntity
8
SK2
62
256
6
ByLayer
370
13
48
1
60
0
100
AcDbLine
10
35
20
-37.25
30
0
11
31.825002
21
-37.667997
31
0
39
0
210
0
220
0
230
1
0
LINE
5
22D
100
AcDbEntity
8
SK2
62
256
6
ByLayer
370
13
48
1
60
0
100
AcDbLine
10
35
20
-37.25
30
0
11
31.824998
21
-36.832003
31
0
39
0
210
0
220
0
230
1
0
LINE
5
22E
100
AcDbEntity
8
SK2
62
256
6
ByLayer
370
13
48
1
60
0
100
AcDbLine
10
31.825002
20
-37.667997
30
0
11
31.824998
21
-36.832003
31
0
39
0
210
0
220
0
230
1
0
LINE
5
22F
100
AcDbEntity
8
SK2
62
256
6
ByLayer
370
13
48
1
60
0
100
AcDbLine
10
0
20
-37.25
30
0
11
3.174998
21
-36.832003
31
0
39
0
210
0
220
0
230
1
0
LINE
5
230
100
AcDbEntity
8
SK2
62
256
6
ByLayer
370
13
48
1
60
0
100
AcDbLine
10
0
20
-37.25
30
0
11
3.175002
21
-37.667997
31
0
39
0
210
0
220
0
230
1
0
LINE
5
231
100
AcDbEntity
8
SK2
62
256
6
ByLayer
370
13
48
1
60
0
100
AcDbLine
10
3.174998
20
-36.832003
30
0
11
3.175002
21
-37.667997
31
0
39
0
210
0
220
0
230
1
0
ENDBLK
5
233
100
AcDbEntity
8
0
100
AcDbBlockEnd
0
BLOCK
5
238
100
AcDbEntity
8
0
100
AcDbBlockBegin
2
*D6
70
1
10
0
20
0
30
0
3
*D6
0
LINE
5
23A
100
AcDbEntity
8
0
62
256
6
ByLayer
370
-2
48
1
60
0
100
AcDbLine
10
0
20
14.0875
30
0
11
0
21
36.425
31
0
39
0
210
0
220
0
230
1
0
LINE
5
23B
100
AcDbEntity
8
0
62
256
6
ByLayer
370
-2
48
1
60
0
100
AcDbLine
10
35
20
14.3375
30
0
11
35
21
36.425
31
0
39
0
210
0
220
0
230
1
0
LINE
5
23C
100
AcDbEntity
8
0
62
256
6
ByLayer
370
-2
48
1
60
0
100
AcDbLine
10
3.175
20
33.25
30
0
11
31.825
21
33.25
31
0
39
0
210
0
220
0
230
1
0
SOLID
5
23D
100
AcDbEntity
8
0
62
256
6
ByLayer
370
-1
48
1
60
0
100
AcDbTrace
10
3.175
20
33.779167
30
0
11
3.175
21
32.720833
31
0
12
0
22
33.25
32
0
13
0
23
33.25
33
0
39
0
210
0
220
0
230
1
0
SOLID
5
23E
100
AcDbEntity
8
0
62
256
6
ByLayer
370
-1
48
1
60
0
100
AcDbTrace
10
31.825
20
32.720833
30
0
11
31.825
21
33.779167
31
0
12
35
22
33.25
32
0
13
35
23
33.25
33
0
39
0
210
0
220
0
230
1
0
MTEXT
5
23F
100
AcDbEntity
8
0
62
256
6
ByLayer
370
18
48
1
60
0
100
AcDbMText
10
17.5
20
42.64375
30
0
210
0
220
0
230
1
1
\A1;35
40
4.5
41
0
44
1
50
0
71
5
72
5
7
iso_b_vert
0
POINT
5
240
100
AcDbEntity
8
Defpoints
62
0
6
ByLayer
370
-1
48
1
60
0
100
AcDbPoint
10
0
20
12.5
30
0
39
0
210
0
220
0
230
1
50
360
0
POINT
5
241
100
AcDbEntity
8
Defpoints
62
0
6
ByLayer
370
-1
48
1
60
0
100
AcDbPoint
10
35
20
12.75
30
0
39
0
210
0
220
0
230
1
50
360
0
POINT
5
242
100
AcDbEntity
8
Defpoints
62
0
6
ByLayer
370
-1
48
1
60
0
100
AcDbPoint
10
35
20
33.25
30
0
39
0
210
0
220
0
230
1
50
360
0
ENDBLK
5
239
100
AcDbEntity
8
0
100
AcDbBlockEnd
0
BLOCK
5
24E
100
AcDbEntity
8
0
100
AcDbBlockBegin
2
_U2
70
0
10
0
20
0
30
0
3
_U2
0
MTEXT
5
244
100
AcDbEntity
8
2
62
256
6
ByLayer
370
18
48
1
60
0
100
AcDbMText
10
14.446935
20
34.577672
30
0
210
0
220
0
230
1
1
\W0.8247;35
40
4.5
41
0
44
1.084337
50
0
71
7
72
5
7
iso_b_vert
0
LINE
5
245
100
AcDbEntity
8
2
62
256
6
ByLayer
370
13
48
1
60
0
100
AcDbLine
10
0
20
14.0875
30
0
11
0
21
36.425
31
0
39
0
210
0
220
0
230
1
0
LINE
5
246
100
AcDbEntity
8
2
62
256
6
ByLayer
370
13
48
1
60
0
100
AcDbLine
10
35
20
14.3375
30
0
11
35
21
36.425
31
0
39
0
210
0
220
0
230
1
0
LINE
5
247
100
AcDbEntity
8
2
62
256
6
ByLayer
370
13
48
1
60
0
100
AcDbLine
10
0
20
33.25
30
0
11
35
21
33.25
31
0
39
0
210
0
220
0
230
1
0
LINE
5
248
100
AcDbEntity
8
2
62
256
6
ByLayer
370
13
48
1
60
0
100
AcDbLine
10
0
20
33.25
30
0
11
3.174998
21
33.667997
31
0
39
0
210
0
220
0
230
1
0
LINE
5
249
100
AcDbEntity
8
2
62
256
6
ByLayer
370
13
48
1
60
0
100
AcDbLine
10
0
20
33.25
30
0
11
3.175002
21
32.832003
31
0
39
0
210
0
220
0
230
1
0
LINE
5
24A
100
AcDbEntity
8
2
62
256
6
ByLayer
370
13
48
1
60
0
100
AcDbLine
10
3.174998
20
33.667997
30
0
11
3.175002
21
32.832003
31
0
39
0
210
0
220
0
230
1
0
LINE
5
24B
100
AcDbEntity
8
2
62
256
6
ByLayer
370
13
48
1
60
0
100
AcDbLine
10
35
20
33.25
30
0
11
31.825002
21
32.832003
31
0
39
0
210
0
220
0
230
1
0
LINE
5
24C
100
AcDbEntity
8
2
62
256
6
ByLayer
370
13
48
1
60
0
100
AcDbLine
10
35
20
33.25
30
0
11
31.824998
21
33.667997
31
0
39
0
210
0
220
0
230
1
0
LINE
5
24D
100
AcDbEntity
8
2
62
256
6
ByLayer
370
13
48
1
60
0
100
AcDbLine
10
31.825002
20
32.832003
30
0
11
31.824998
21
33.667997
31
0
39
0
210
0
220
0
230
1
0
ENDBLK
5
24F
100
AcDbEntity
8
0
100
AcDbBlockEnd
0
BLOCK
5
254
100
AcDbEntity
8
0
100
AcDbBlockBegin
2
*D8
70
1
10
0
20
0
30
0
3
*D8
0
LINE
5
256
100
AcDbEntity
8
0
62
256
6
ByLayer
370
-2
48
1
60
0
100
AcDbLine
10
0
20
14.0875
30
0
11
0
21
26.425
31
0
39
0
210
0
220
0
230
1
0
LINE
5
257
100
AcDbEntity
8
0
62
256
6
ByLayer
370
-2
48
1
60
0
100
AcDbLine
10
28.96
20
20.0375
30
0
11
28.96
21
26.425
31
0
39
0
210
0
220
0
230
1
0
LINE
5
258
100
AcDbEntity
8
0
62
256
6
ByLayer
370
-2
48
1
60
0
100
AcDbLine
10
3.175
20
23.25
30
0
11
25.785
21
23.25
31
0
39
0
210
0
220
0
230
1
0
SOLID
5
259
100
AcDbEntity
8
0
62
256
6
ByLayer
370
-1
48
1
60
0
100
AcDbTrace
10
3.175
20
23.779167
30
0
11
3.175
21
22.720833
31
0
12
0
22
23.25
32
0
13
0
23
23.25
33
0
39
0
210
0
220
0
230
1
0
SOLID
5
25A
100
AcDbEntity
8
0
62
256
6
ByLayer
370
-1
48
1
60
0
100
AcDbTrace
10
25.785
20
22.720833
30
0
11
25.785
21
23.779167
31
0
12
28.96
22
23.25
32
0
13
28.96
23
23.25
33
0
39
0
210
0
220
0
230
1
0
MTEXT
5
25B
100
AcDbEntity
8
0
62
256
6
ByLayer
370
18
48
1
60
0
100
AcDbMText
10
14.48
20
32.64375
30
0
210
0
220
0
230
1
1
\A1;28.96
40
4.5
41
0
44
1
50
0
71
5
72
5
7
iso_b_vert
0
POINT
5
25C
100
AcDbEntity
8
Defpoints
62
0
6
ByLayer
370
-1
48
1
60
0
100
AcDbPoint
10
0
20
12.5
30
0
39
0
210
0
220
0
230
1
50
360
0
POINT
5
25D
100
AcDbEntity
8
Defpoints
62
0
6
ByLayer
370
-1
48
1
60
0
100
AcDbPoint
10
28.96
20
18.45
30
0
39
0
210
0
220
0
230
1
50
360
0
POINT
5
25E
100
AcDbEntity
8
Defpoints
62
0
6
ByLayer
370
-1
48
1
60
0
100
AcDbPoint
10
28.96
20
23.25
30
0
39
0
210
0
220
0
230
1
50
360
0
ENDBLK
5
255
100
AcDbEntity
8
0
100
AcDbBlockEnd
0
BLOCK
5
26A
100
AcDbEntity
8
0
100
AcDbBlockBegin
2
_U3
70
0
10
0
20
0
30
0
3
_U3
0
MTEXT
5
260
100
AcDbEntity
8
SK2
62
256
6
ByLayer
370
18
48
1
60
0
100
AcDbMText
10
6.477828
20
24.577672
30
0
210
0
220
0
230
1
1
\W0.8825;28.96
40
4.5
41
0
44
1.084337
50
0
71
7
72
5
7
iso_b_vert
0
LINE
5
261
100
AcDbEntity
8
SK2
62
256
6
ByLayer
370
13
48
1
60
0
100
AcDbLine
10
0
20
14.0875
30
0
11
0
21
26.425
31
0
39
0
210
0
220
0
230
1
0
LINE
5
262
100
AcDbEntity
8
SK2
62
256
6
ByLayer
370
13
48
1
60
0
100
AcDbLine
10
28.96
20
20.0375
30
0
11
28.96
21
26.425
31
0
39
0
210
0
220
0
230
1
0
LINE
5
263
100
AcDbEntity
8
SK2
62
256
6
ByLayer
370
13
48
1
60
0
100
AcDbLine
10
0
20
23.25
30
0
11
28.96
21
23.25
31
0
39
0
210
0
220
0
230
1
0
LINE
5
264
100
AcDbEntity
8
SK2
62
256
6
ByLayer
370
13
48
1
60
0
100
AcDbLine
10
0
20
23.25
30
0
11
3.174998
21
23.667997
31
0
39
0
210
0
220
0
230
1
0
LINE
5
265
100
AcDbEntity
8
SK2
62
256
6
ByLayer
370
13
48
1
60
0
100
AcDbLine
10
0
20
23.25
30
0
11
3.175002
21
22.832003
31
0
39
0
210
0
220
0
230
1
0
LINE
5
266
100
AcDbEntity
8
SK2
62
256
6
ByLayer
370
13
48
1
60
0
100
AcDbLine
10
3.174998
20
23.667997
30
0
11
3.175002
21
22.832003
31
0
39
0
210
0
220
0
230
1
0
LINE
5
267
100
AcDbEntity
8
SK2
62
256
6
ByLayer
370
13
48
1
60
0
100
AcDbLine
10
28.96
20
23.25
30
0
11
25.785002
21
22.832003
31
0
39
0
210
0
220
0
230
1
0
LINE
5
268
100
AcDbEntity
8
SK2
62
256
6
ByLayer
370
13
48
1
60
0
100
AcDbLine
10
28.96
20
23.25
30
0
11
25.784998
21
23.667997
31
0
39
0
210
0
220
0
230
1
0
LINE
5
269
100
AcDbEntity
8
SK2
62
256
6
ByLayer
370
13
48
1
60
0
100
AcDbLine
10
25.785002
20
22.832003
30
0
11
25.784998
21
23.667997
31
0
39
0
210
0
220
0
230
1
0
ENDBLK
5
26B
100
AcDbEntity
8
0
100
AcDbBlockEnd
0
BLOCK
5
270
100
AcDbEntity
8
0
100
AcDbBlockBegin
2
*D10
70
1
10
0
20
0
30
0
3
*D10
0
LINE
5
272
100
AcDbEntity
8
0
62
256
6
ByLayer
370
-2
48
1
60
0
100
AcDbLine
10
30.5475
20
-18.45
30
0
11
73.925
21
-18.45
31
0
39
0
210
0
220
0
230
1
0
LINE
5
273
100
AcDbEntity
8
0
62
256
6
ByLayer
370
-2
48
1
60
0
100
AcDbLine
10
30.5475
20
18.45
30
0
11
73.925
21
18.45
31
0
39
0
210
0
220
0
230
1
0
LINE
5
274
100
AcDbEntity
8
0
62
256
6
ByLayer
370
-2
48
1
60
0
100
AcDbLine
10
70.75
20
-15.275
30
0
11
70.75
21
15.275
31
0
39
0
210
0
220
0
230
1
0
SOLID
5
275
100
AcDbEntity
8
0
62
256
6
ByLayer
370
-1
48
1
60
0
100
AcDbTrace
10
70.220833
20
-15.275
30
0
11
71.279167
21
-15.275
31
0
12
70.75
22
-18.45
32
0
13
70.75
23
-18.45
33
0
39
0
210
0
220
0
230
1
0
SOLID
5
276
100
AcDbEntity
8
0
62
256
6
ByLayer
370
-1
48
1
60
0
100
AcDbTrace
10
71.279167
20
15.275
30
0
11
70.220833
21
15.275
31
0
12
70.75
22
18.45
32
0
13
70.75
23
18.45
33
0
39
0
210
0
220
0
230
1
0
MTEXT
5
277
100
AcDbEntity
8
0
62
256
6
ByLayer
370
18
48
1
60
0
100
AcDbMText
10
61.35625
20
0
30
0
210
0
220
0
230
1
1
\A1;36.9
40
4.5
41
0
44
1
50
90
71
5
72
5
7
iso_b_vert
0
POINT
5
278
100
AcDbEntity
8
Defpoints
62
0
6
ByLayer
370
-1
48
1
60
0
100
AcDbPoint
10
28.96
20
-18.45
30
0
39
0
210
0
220
0
230
1
50
360
0
POINT
5
279
100
AcDbEntity
8
Defpoints
62
0
6
ByLayer
370
-1
48
1
60
0
100
AcDbPoint
10
28.96
20
18.45
30
0
39
0
210
0
220
0
230
1
50
360
0
POINT
5
27A
100
AcDbEntity
8
Defpoints
62
0
6
ByLayer
370
-1
48
1
60
0
100
AcDbPoint
10
70.75
20
18.45
30
0
39
0
210
0
220
0
230
1
50
360
0
ENDBLK
5
271
100
AcDbEntity
8
0
100
AcDbBlockEnd
0
BLOCK
5
287
100
AcDbEntity
8
0
100
AcDbBlockBegin
2
_U4
70
0
10
0
20
0
30
0
3
_U4
0
MTEXT
5
27C
100
AcDbEntity
8
SK2
62
256
6
ByLayer
370
18
48
1
60
0
100
AcDbMText
10
68.668154
20
-10.877015
30
0
210
0
220
0
230
1
1
%%c
40
3.175
41
0
44
1.084337
50
90
71
7
72
5
7
iso_b_vert
0
MTEXT
5
27D
100
AcDbEntity
8
SK2
62
256
6
ByLayer
370
18
48
1
60
0
100
AcDbMText
10
69.069578
20
-1.29239
30
0
210
0
220
0
230
1
1
\W0.8800;36.9
40
4.5
41
0
44
1.084337
50
90
71
7
72
5
7
iso_b_vert
0
LINE
5
27E
100
AcDbEntity
8
SK2
62
256
6
ByLayer
370
13
48
1
60
0
100
AcDbLine
10
30.5475
20
-18.45
30
0
11
73.925
21
-18.45
31
0
39
0
210
0
220
0
230
1
0
LINE
5
27F
100
AcDbEntity
8
SK2
62
256
6
ByLayer
370
13
48
1
60
0
100
AcDbLine
10
30.5475
20
18.45
30
0
11
73.925
21
18.45
31
0
39
0
210
0
220
0
230
1
0
LINE
5
280
100
AcDbEntity
8
SK2
62
256
6
ByLayer
370
13
48
1
60
0
100
AcDbLine
10
70.75
20
-18.45
30
0
11
70.75
21
18.45
31
0
39
0
210
0
220
0
230
1
0
LINE
5
281
100
AcDbEntity
8
SK2
62
256
6
ByLayer
370
13
48
1
60
0
100
AcDbLine
10
70.75
20
-18.45
30
0
11
70.332003
21
-15.275002
31
0
39
0
210
0
220
0
230
1
0
LINE
5
282
100
AcDbEntity
8
SK2
62
256
6
ByLayer
370
13
48
1
60
0
100
AcDbLine
10
70.75
20
-18.45
30
0
11
71.167997
21
-15.274998
31
0
39
0
210
0
220
0
230
1
0
LINE
5
283
100
AcDbEntity
8
SK2
62
256
6
ByLayer
370
13
48
1
60
0
100
AcDbLine
10
70.332003
20
-15.275002
30
0
11
71.167997
21
-15.274998
31
0
39
0
210
0
220
0
230
1
0
LINE
5
284
100
AcDbEntity
8
SK2
62
256
6
ByLayer
370
13
48
1
60
0
100
AcDbLine
10
70.75
20
18.45
30
0
11
71.167997
21
15.275002
31
0
39
0
210
0
220
0
230
1
0
LINE
5
285
100
AcDbEntity
8
SK2
62
256
6
ByLayer
370
13
48
1
60
0
100
AcDbLine
10
70.75
20
18.45
30
0
11
70.332003
21
15.274998
31
0
39
0
210
0
220
0
230
1
0
LINE
5
286
100
AcDbEntity
8
SK2
62
256
6
ByLayer
370
13
48
1
60
0
100
AcDbLine
10
71.167997
20
15.275002
30
0
11
70.332003
21
15.274998
31
0
39
0
210
0
220
0
230
1
0
ENDBLK
5
288
100
AcDbEntity
8
0
100
AcDbBlockEnd
0
BLOCK
5
28D
100
AcDbEntity
8
0
100
AcDbBlockBegin
2
*D12
70
1
10
0
20
0
30
0
3
*D12
0
LINE
5
28F
100
AcDbEntity
8
0
62
256
6
ByLayer
370
-2
48
1
60
0
100
AcDbLine
10
-1.5875
20
12.5
30
0
11
-28.278125
21
12.5
31
0
39
0
210
0
220
0
230
1
0
LINE
5
290
100
AcDbEntity
8
0
62
256
6
ByLayer
370
-2
48
1
60
0
100
AcDbLine
10
-1.5875
20
-12.5
30
0
11
-28.278125
21
-12.5
31
0
39
0
210
0
220
0
230
1
0
LINE
5
291
100
AcDbEntity
8
0
62
256
6
ByLayer
370
-2
48
1
60
0
100
AcDbLine
10
-25.103125
20
9.325
30
0
11
-25.103125
21
-9.325
31
0
39
0
210
0
220
0
230
1
0
SOLID
5
292
100
AcDbEntity
8
0
62
256
6
ByLayer
370
-1
48
1
60
0
100
AcDbTrace
10
-24.573958
20
9.325
30
0
11
-25.632292
21
9.325
31
0
12
-25.103125
22
12.5
32
0
13
-25.103125
23
12.5
33
0
39
0
210
0
220
0
230
1
0
SOLID
5
293
100
AcDbEntity
8
0
62
256
6
ByLayer
370
-1
48
1
60
0
100
AcDbTrace
10
-25.632292
20
-9.325
30
0
11
-24.573958
21
-9.325
31
0
12
-25.103125
22
-12.5
32
0
13
-25.103125
23
-12.5
33
0
39
0
210
0
220
0
230
1
0
MTEXT
5
294
100
AcDbEntity
8
0
62
256
6
ByLayer
370
18
48
1
60
0
100
AcDbMText
10
-34.496875
20
0
30
0
210
0
220
0
230
1
1
\A1;25
40
4.5
41
0
44
1
50
90
71
5
72
5
7
iso_b_vert
0
POINT
5
295
100
AcDbEntity
8
Defpoints
62
0
6
ByLayer
370
-1
48
1
60
0
100
AcDbPoint
10
0
20
12.5
30
0
39
0
210
0
220
0
230
1
50
360
0
POINT
5
296
100
AcDbEntity
8
Defpoints
62
0
6
ByLayer
370
-1
48
1
60
0
100
AcDbPoint
10
0
20
-12.5
30
0
39
0
210
0
220
0
230
1
50
360
0
POINT
5
297
100
AcDbEntity
8
Defpoints
62
0
6
ByLayer
370
-1
48
1
60
0
100
AcDbPoint
10
-25.103125
20
-12.5
30
0
39
0
210
0
220
0
230
1
50
360
0
ENDBLK
5
28E
100
AcDbEntity
8
0
100
AcDbBlockEnd
0
BLOCK
5
2A4
100
AcDbEntity
8
0
100
AcDbBlockBegin
2
_U5
70
0
10
0
20
0
30
0
3
_U5
0
MTEXT
5
299
100
AcDbEntity
8
SK2
62
256
6
ByLayer
370
18
48
1
60
0
100
AcDbMText
10
-27.184971
20
-7.91119
30
0
210
0
220
0
230
1
1
%%c
40
3.175
41
0
44
1.084337
50
90
71
7
72
5
7
iso_b_vert
0
MTEXT
5
29A
100
AcDbEntity
8
SK2
62
256
6
ByLayer
370
18
48
1
60
0
100
AcDbMText
10
-26.783547
20
1.673435
30
0
210
0
220
0
230
1
1
\W0.8247;25
40
4.5
41
0
44
1.084337
50
90
71
7
72
5
7
iso_b_vert
0
LINE
5
29B
100
AcDbEntity
8
SK2
62
256
6
ByLayer
370
13
48
1
60
0
100
AcDbLine
10
-1.5875
20
12.5
30
0
11
-28.278125
21
12.5
31
0
39
0
210
0
220
0
230
1
0
LINE
5
29C
100
AcDbEntity
8
SK2
62
256
6
ByLayer
370
13
48
1
60
0
100
AcDbLine
10
-1.5875
20
-12.5
30
0
11
-28.278125
21
-12.5
31
0
39
0
210
0
220
0
230
1
0
LINE
5
29D
100
AcDbEntity
8
SK2
62
256
6
ByLayer
370
13
48
1
60
0
100
AcDbLine
10
-25.103125
20
23.75
30
0
11
-25.103125
21
-23.75
31
0
39
0
210
0
220
0
230
1
0
LINE
5
29E
100
AcDbEntity
8
SK2
62
256
6
ByLayer
370
13
48
1
60
0
100
AcDbLine
10
-25.103125
20
12.5
30
0
11
-25.521122
21
15.674998
31
0
39
0
210
0
220
0
230
1
0
LINE
5
29F
100
AcDbEntity
8
SK2
62
256
6
ByLayer
370
13
48
1
60
0
100
AcDbLine
10
-25.103125
20
12.5
30
0
11
-24.685128
21
15.675002
31
0
39
0
210
0
220
0
230
1
0
LINE
5
2A0
100
AcDbEntity
8
SK2
62
256
6
ByLayer
370
13
48
1
60
0
100
AcDbLine
10
-25.521122
20
15.674998
30
0
11
-24.685128
21
15.675002
31
0
39
0
210
0
220
0
230
1
0
LINE
5
2A1
100
AcDbEntity
8
SK2
62
256
6
ByLayer
370
13
48
1
60
0
100
AcDbLine
10
-25.103125
20
-12.5
30
0
11
-24.685128
21
-15.674998
31
0
39
0
210
0
220
0
230
1
0
LINE
5
2A2
100
AcDbEntity
8
SK2
62
256
6
ByLayer
370
13
48
1
60
0
100
AcDbLine
10
-25.103125
20
-12.5
30
0
11
-25.521122
21
-15.675002
31
0
39
0
210
0
220
0
230
1
0
LINE
5
2A3
100
AcDbEntity
8
SK2
62
256
6
ByLayer
370
13
48
1
60
0
100
AcDbLine
10
-24.685128
20
-15.674998
30
0
11
-25.521122
21
-15.675002
31
0
39
0
210
0
220
0
230
1
0
ENDBLK
5
2A5
100
AcDbEntity
8
0
100
AcDbBlockEnd
0
ENDSEC
0
SECTION
2
ENTITIES
0
ARC
5
EA
100
AcDbEntity
8
1
62
256
6
ByLayer
370
18
48
1
60
0
100
AcDbCircle
39
0
10
28.96741
20
12.418629
30
0
40
1.28905
210
0
220
0
230
1
100
AcDbArc
50
225
51
285
0
ARC
5
EB
100
AcDbEntity
8
1
62
256
6
ByLayer
370
18
48
1
60
0
100
AcDbCircle
39
0
10
28.96741
20
12.418629
30
0
40
1.28905
210
0
220
0
230
1
100
AcDbArc
50
285
51
345
0
ARC
5
EC
100
AcDbEntity
8
1
62
256
6
ByLayer
370
18
48
1
60
0
100
AcDbCircle
39
0
10
28.96741
20
12.418629
30
0
40
1.28905
210
0
220
0
230
1
100
AcDbArc
50
105
51
165
0
ARC
5
ED
100
AcDbEntity
8
1
62
256
6
ByLayer
370
18
48
1
60
0
100
AcDbCircle
39
0
10
28.96741
20
12.418629
30
0
40
1.28905
210
0
220
0
230
1
100
AcDbArc
50
165
51
225
0
ARC
5
EE
100
AcDbEntity
8
1
62
256
6
ByLayer
370
18
48
1
60
0
100
AcDbCircle
39
0
10
28.96741
20
12.418629
30
0
40
1.28905
210
0
220
0
230
1
100
AcDbArc
50
345
51
45
0
ARC
5
EF
100
AcDbEntity
8
1
62
256
6
ByLayer
370
18
48
1
60
0
100
AcDbCircle
39
0
10
28.96741
20
12.418629
30
0
40
1.28905
210
0
220
0
230
1
100
AcDbArc
50
45
51
105
0
ARC
5
F0
100
AcDbEntity
8
1
62
256
6
ByLayer
370
18
48
1
60
0
100
AcDbCircle
39
0
10
28.96741
20
12.418629
30
0
40
0.9944
210
0
220
0
230
1
100
AcDbArc
50
15
51
75
0
ARC
5
F1
100
AcDbEntity
8
1
62
256
6
ByLayer
370
18
48
1
60
0
100
AcDbCircle
39
0
10
28.96741
20
12.418629
30
0
40
0.9944
210
0
220
0
230
1
100
AcDbArc
50
75
51
135
0
ARC
5
F2
100
AcDbEntity
8
1
62
256
6
ByLayer
370
18
48
1
60
0
100
AcDbCircle
39
0
10
28.96741
20
12.418629
30
0
40
0.9944
210
0
220
0
230
1
100
AcDbArc
50
255
51
315
0
ARC
5
F3
100
AcDbEntity
8
1
62
256
6
ByLayer
370
18
48
1
60
0
100
AcDbCircle
39
0
10
28.96741
20
12.418629
30
0
40
0.9944
210
0
220
0
230
1
100
AcDbArc
50
135
51
195
0
ARC
5
F4
100
AcDbEntity
8
1
62
256
6
ByLayer
370
18
48
1
60
0
100
AcDbCircle
39
0
10
28.96741
20
12.418629
30
0
40
0.9944
210
0
220
0
230
1
100
AcDbArc
50
315
51
15
0
ARC
5
F5
100
AcDbEntity
8
1
62
256
6
ByLayer
370
18
48
1
60
0
100
AcDbCircle
39
0
10
28.96741
20
12.418629
30
0
40
0.9944
210
0
220
0
230
1
100
AcDbArc
50
195
51
255
0
ARC
5
FB
100
AcDbEntity
8
1
62
256
6
ByLayer
370
18
48
1
60
0
100
AcDbCircle
39
0
10
28.96741
20
-12.418629
30
0
40
1.5
210
0
220
0
230
1
100
AcDbArc
50
67.471864
51
112.533734
0
ARC
5
FE
100
AcDbEntity
8
1
62
256
6
ByLayer
370
13
48
1
60
0
100
AcDbCircle
39
0
10
28.96741
20
-12.218629
30
0
40
1.99999999999992
210
0
220
0
230
1
100
AcDbArc
50
45
51
90
0
ARC
5
FF
100
AcDbEntity
8
1
62
256
6
ByLayer
370
13
48
1
60
0
100
AcDbCircle
39
0
10
28.96741
20
-12.218629
30
0
40
1.5
210
0
220
0
230
1
100
AcDbArc
50
45
51
135
0
ARC
5
100
100
AcDbEntity
8
1
62
256
6
ByLayer
370
13
48
1
60
0
100
AcDbCircle
39
0
10
34.553553
20
12.15845
30
0
40
1
210
0
220
0
230
1
100
AcDbArc
50
246.47645
51
269.796405
0
ARC
5
101
100
AcDbEntity
8
1
62
256
6
ByLayer
370
13
48
1
60
0
100
AcDbCircle
39
0
10
25.502587
20
10.368019
30
0
40
1
210
0
220
0
230
1
100
AcDbArc
50
172.399728
51
277.392066
0
ARC
5
102
100
AcDbEntity
8
1
62
256
6
ByLayer
370
13
48
1
60
0
100
AcDbCircle
39
0
10
28.96741
20
18.918629
30
0
40
12
210
0
220
0
230
1
100
AcDbArc
50
213.623506
51
235.714084
0
ARC
5
103
100
AcDbEntity
8
SK1
62
256
6
ByLayer
370
13
48
1
60
0
100
AcDbCircle
39
0
10
-20
20
-5.7
30
0
40
0.5
210
0
220
0
230
1
100
AcDbArc
50
0
51
90
0
ARC
5
104
100
AcDbEntity
8
SK1
62
256
6
ByLayer
370
13
48
1
60
0
100
AcDbCircle
39
0
10
-20
20
5.7
30
0
40
0.5
210
0
220
0
230
1
100
AcDbArc
50
270
51
0
0
ARC
5
105
100
AcDbEntity
8
SK1
62
256
6
ByLayer
370
13
48
1
60
0
100
AcDbCircle
39
0
10
-0.4
20
-9.291761
30
0
40
0.4
210
0
220
0
230
1
100
AcDbArc
50
0
51
87.8
0
ARC
5
106
100
AcDbEntity
8
SK1
62
256
6
ByLayer
370
13
48
1
60
0
100
AcDbCircle
39
0
10
-0.4
20
9.291761
30
0
40
0.4
210
0
220
0
230
1
100
AcDbArc
50
272.2
51
0
0
ARC
5
107
100
AcDbEntity
8
1
62
256
6
ByLayer
370
13
48
1
60
0
100
AcDbCircle
39
0
10
13.4516
20
12.1
30
0
40
0.5
210
0
220
0
230
1
100
AcDbArc
50
270
51
281.058032
0
ARC
5
108
100
AcDbEntity
8
1
62
256
6
ByLayer
370
13
48
1
60
0
100
AcDbCircle
39
0
10
13.4516
20
-12.1
30
0
40
0.5
210
0
220
0
230
1
100
AcDbArc
50
78.941968
51
90
0
ARC
5
109
100
AcDbEntity
8
1
62
256
6
ByLayer
370
13
48
1
60
0
100
AcDbCircle
39
0
10
11
20
12.1
30
0
40
0.499999999999959
210
0
220
0
230
1
100
AcDbArc
50
180
51
270
0
ARC
5
10A
100
AcDbEntity
8
1
62
256
6
ByLayer
370
13
48
1
60
0
100
AcDbCircle
39
0
10
11
20
-12.1
30
0
40
0.499999999999959
210
0
220
0
230
1
100
AcDbArc
50
90
51
180
0
ARC
5
10B
100
AcDbEntity
8
SK2
62
256
6
ByLayer
370
13
48
1
60
0
100
AcDbCircle
39
0
10
35
20
12.75
30
0
40
12.9723095210679
210
0
220
0
230
1
100
AcDbArc
50
90
51
135
0
ARC
5
10C
100
AcDbEntity
8
SK2
62
256
6
ByLayer
370
13
48
1
60
0
100
AcDbCircle
39
0
10
35
20
12.75
30
0
40
12.9723095210679
210
0
220
0
230
1
100
AcDbArc
50
24.357104
51
90
0
CIRCLE
5
E9
100
AcDbEntity
8
1
62
256
6
ByLayer
370
18
48
1
60
0
100
AcDbCircle
10
28.96741
20
-12.418629
30
0
40
1.2
39
0
210
0
220
0
230
1
0
CIRCLE
5
F6
100
AcDbEntity
8
1
62
256
6
ByLayer
370
18
48
1
60
0
100
AcDbCircle
10
28.96741
20
12.418629
30
0
40
1.4
39
0
210
0
220
0
230
1
0
CIRCLE
5
F7
100
AcDbEntity
8
1
62
256
6
ByLayer
370
18
48
1
60
0
100
AcDbCircle
10
28.96741
20
12.418629
30
0
40
2.1
39
0
210
0
220
0
230
1
0
CIRCLE
5
F8
100
AcDbEntity
8
1
62
256
6
ByLayer
370
18
48
1
60
0
100
AcDbCircle
10
28.96741
20
12.418629
30
0
40
2.15037854103613
39
0
210
0
220
0
230
1
0
CIRCLE
5
F9
100
AcDbEntity
8
1
62
256
6
ByLayer
370
18
48
1
60
0
100
AcDbCircle
10
28.96741
20
12.418629
30
0
40
2.26175520142507
39
0
210
0
220
0
230
1
0
CIRCLE
5
FA
100
AcDbEntity
8
1
62
256
6
ByLayer
370
18
48
1
60
0
100
AcDbCircle
10
28.96741
20
12.418629
30
0
40
2.30803925391311
39
0
210
0
220
0
230
1
0
CIRCLE
5
FC
100
AcDbEntity
8
1
62
256
6
ByLayer
370
13
48
1
60
0
100
AcDbCircle
10
28.96741
20
-12.218629
30
0
40
1.4
39
0
210
0
220
0
230
1
0
CIRCLE
5
FD
100
AcDbEntity
8
1
62
256
6
ByLayer
370
13
48
1
60
0
100
AcDbCircle
10
28.96741
20
-12.218629
30
0
40
1.3175
39
0
210
0
220
0
230
1
0
ELLIPSE
5
10D
100
AcDbEntity
8
1
62
256
6
ByLayer
370
13
48
1
60
0
100
AcDbEllipse
10
34.022663
20
0
30
0
11
9.87411884284834
21
9.05397591152763
31
0
210
0
220
0
230
1
40
0.840779
41
2.14048237255939
42
2.27217761336313
0
ELLIPSE
5
10E
100
AcDbEntity
8
1
62
256
6
ByLayer
370
13
48
1
60
0
100
AcDbEllipse
10
23.194494
20
13.009674
30
0
11
-0.883883476483183
21
0.883883476483186
31
0
210
0
220
0
230
1
40
0.819152
41
2.07094105221419
42
2.25412085928726
0
ELLIPSE
5
10F
100
AcDbEntity
8
1
62
256
6
ByLayer
370
13
48
1
60
0
100
AcDbEllipse
10
23.194494
20
2.306229
30
0
11
1.24531520388109
21
-0.108120502138072
31
0
210
0
220
0
230
1
40
0.086175
41
1.39683339124645
42
2.24354863786059
0
ELLIPSE
5
110
100
AcDbEntity
8
1
62
256
6
ByLayer
370
13
48
1
60
0
100
AcDbEllipse
10
23.210043
20
2.337635
30
0
11
1.12021142188966
21
-0.554640757849572
31
0
210
0
220
0
230
1
40
0.40558
41
1.79514664034662
42
1.92992976825544
0
ELLIPSE
5
111
100
AcDbEntity
8
1
62
256
6
ByLayer
370
13
48
1
60
0
100
AcDbEllipse
10
30.02807
20
7.81
30
0
11
3.06151588455594E-17
21
0.5
31
0
210
0
220
0
230
1
40
0.707107
41
3.14159265358979
42
-1.57079632679489
0
ELLIPSE
5
112
100
AcDbEntity
8
1
62
256
6
ByLayer
370
13
48
1
60
0
100
AcDbEllipse
10
28.96741
20
8.691536
30
0
11
1.99999999999817
21
2.34291072916291E-15
31
0
210
0
220
0
230
1
40
0.36397
41
-1.5707963267949
42
-0.785398163396745
0
ELLIPSE
5
113
100
AcDbEntity
8
1
62
256
6
ByLayer
370
13
48
1
60
0
100
AcDbEllipse
10
27.90675
20
7.81
30
0
11
3.06151588455594E-17
21
0.5
31
0
210
0
220
0
230
1
40
0.707107
41
1.5707963267949
42
3.14159265358979
0
ELLIPSE
5
114
100
AcDbEntity
8
1
62
256
6
ByLayer
370
13
48
1
60
0
100
AcDbEllipse
10
34.022663
20
0
30
0
11
12.423159989959
21
12.2372795614504
31
0
210
0
220
0
230
1
40
0.086167
41
-3.01362397067003
42
-2.88192872986674
0
ELLIPSE
5
115
100
AcDbEntity
8
1
62
256
6
ByLayer
370
13
48
1
60
0
100
AcDbEllipse
10
34.022663
20
0
30
0
11
12.4231599843729
21
-12.2372795557638
31
0
210
0
220
0
230
1
40
0.086167
41
2.88192872980667
42
3.01362397064065
0
ELLIPSE
5
116
100
AcDbEntity
8
1
62
256
6
ByLayer
370
13
48
1
60
0
100
AcDbEllipse
10
34.553553
20
3
30
0
11
6.12303176911189E-17
21
1
31
0
210
0
220
0
230
1
40
0.965926
41
0.266035115483022
42
0.924444600198707
0
ELLIPSE
5
117
100
AcDbEntity
8
1
62
256
6
ByLayer
370
13
48
1
60
0
100
AcDbEllipse
10
754.974777
20
-0.000156
30
0
11
730.331973696625
21
-0.000161542073399723
31
0
210
0
220
0
230
1
40
0.192886
41
3.07774957290616
42
3.08612344515451
0
ELLIPSE
5
118
100
AcDbEntity
8
1
62
256
6
ByLayer
370
13
48
1
60
0
100
AcDbEllipse
10
-685.395899
20
-0.000234
30
0
11
718.688445164276
21
0.000242857080665495
31
0
210
0
220
0
230
1
40
0.194431
41
0.055920406007826
42
0.0624856745620228
0
ELLIPSE
5
119
100
AcDbEntity
8
1
62
256
6
ByLayer
370
13
48
1
60
0
100
AcDbEllipse
10
23.194494
20
2.306229
30
0
11
1.12021142188966
21
-0.554640757849572
31
0
210
0
220
0
230
1
40
0.40558
41
1.77195771143345
42
1.95513751850649
0
ELLIPSE
5
11A
100
AcDbEntity
8
1
62
256
6
ByLayer
370
13
48
1
60
0
100
AcDbEllipse
10
23.194494
20
13.009674
30
0
11
-0.883883476483183
21
0.883883476483186
31
0
210
0
220
0
230
1
40
0.992546
41
1.68718302778899
42
2.3842015676806
0
ELLIPSE
5
11B
100
AcDbEntity
8
1
62
256
6
ByLayer
370
13
48
1
60
0
100
AcDbEllipse
10
23.037673
20
12.852854
30
0
11
0.890521287117534
21
0.890521287117532
31
0
210
0
220
6.32451267283211E-17
230
1
40
0.992546
41
3.14159265358979
42
-2.09136601126692
0
POINT
5
70
100
AcDbEntity
8
81
62
256
6
ByLayer
370
18
48
1
60
0
100
AcDbPoint
10
35
20
12.75
30
0
39
0
210
0
220
0
230
1
50
360
0
POINT
5
72
100
AcDbEntity
8
80
62
256
6
ByLayer
370
18
48
1
60
0
100
AcDbPoint
10
0
20
0
30
0
39
0
210
0
220
0
230
1
50
360
0
POINT
5
74
100
AcDbEntity
8
1
62
256
6
ByLayer
370
18
48
1
60
1
100
AcDbPoint
10
35
20
-12.75
30
0
39
0
210
0
220
0
230
1
50
360
0
POINT
5
76
100
AcDbEntity
8
1
62
256
6
ByLayer
370
18
48
1
60
1
100
AcDbPoint
10
35
20
12.75
30
0
39
0
210
0
220
0
230
1
50
360
0
POINT
5
77
100
AcDbEntity
8
1
62
256
6
ByLayer
370
18
48
1
60
1
100
AcDbPoint
10
35
20
-12.75
30
0
39
0
210
0
220
0
230
1
50
360
0
POINT
5
78
100
AcDbEntity
8
1
62
256
6
ByLayer
370
18
48
1
60
1
100
AcDbPoint
10
0
20
0
30
0
39
0
210
0
220
0
230
1
50
360
0
POINT
5
79
100
AcDbEntity
8
1
62
256
6
ByLayer
370
18
48
1
60
1
100
AcDbPoint
10
0
20
12.5
30
0
39
0
210
0
220
0
230
1
50
360
0
POINT
5
7A
100
AcDbEntity
8
1
62
256
6
ByLayer
370
18
48
1
60
1
100
AcDbPoint
10
35
20
12.75
30
0
39
0
210
0
220
0
230
1
50
360
0
POINT
5
7B
100
AcDbEntity
8
1
62
256
6
ByLayer
370
18
48
1
60
1
100
AcDbPoint
10
0
20
12.5
30
0
39
0
210
0
220
0
230
1
50
360
0
POINT
5
7C
100
AcDbEntity
8
1
62
256
6
ByLayer
370
18
48
1
60
1
100
AcDbPoint
10
28.96
20
18.45
30
0
39
0
210
0
220
0
230
1
50
360
0
POINT
5
7D
100
AcDbEntity
8
1
62
256
6
ByLayer
370
18
48
1
60
1
100
AcDbPoint
10
28.96
20
-18.45
30
0
39
0
210
0
220
0
230
1
50
360
0
POINT
5
7E
100
AcDbEntity
8
1
62
256
6
ByLayer
370
18
48
1
60
1
100
AcDbPoint
10
28.96
20
18.45
30
0
39
0
210
0
220
0
230
1
50
360
0
POINT
5
7F
100
AcDbEntity
8
1
62
256
6
ByLayer
370
18
48
1
60
1
100
AcDbPoint
10
0
20
12.5
30
0
39
0
210
0
220
0
230
1
50
360
0
POINT
5
80
100
AcDbEntity
8
1
62
256
6
ByLayer
370
18
48
1
60
1
100
AcDbPoint
10
0
20
-12.5
30
0
39
0
210
0
220
0
230
1
50
360
0
SPLINE
5
11C
100
AcDbEntity
8
1
62
256
6
ByLayer
370
18
48
1
60
0
100
AcDbSpline
70
4
71
3
72
8
73
4
40
0
40
0
40
0
40
0
40
1
40
1
40
1
40
1
41
1
10
23.1691342134872
20
-8.53E-14
30
0
41
1
10
24.0412325769516
20
-8.53E-14
30
0
41
1
10
24.9133309403925
20
-8.53E-14
30
0
41
1
10
25.7854293038801
20
-8.53E-14
30
0
0
SPLINE
5
11D
100
AcDbEntity
8
1
62
256
6
ByLayer
370
18
48
1
60
0
100
AcDbSpline
70
4
71
3
72
8
73
4
40
0
40
0
40
0
40
0
40
1
40
1
40
1
40
1
41
1
10
29.5330952441688
20
-1.137E-13
30
0
41
1
10
29.5888897725148
20
-0.0666666666667766
30
0
41
1
10
29.6446843008608
20
-0.133333333333439
30
0
41
1
10
29.7004788292068
20
-0.200000000000102
30
0
0
SPLINE
5
11E
100
AcDbEntity
8
1
62
256
6
ByLayer
370
18
48
1
60
0
100
AcDbSpline
70
4
71
3
72
8
73
4
40
0
40
0
40
0
40
0
40
1
40
1
40
1
40
1
41
1
10
28.4017243942692
20
1.4211E-12
30
0
41
1
10
28.4017243942687
20
1.10333333333492
30
0
41
1
10
28.4017243942691
20
2.20666666666841
30
0
41
1
10
28.4017243942694
20
3.31000000000191
30
0
0
SPLINE
5
11F
100
AcDbEntity
8
1
62
256
6
ByLayer
370
18
48
1
60
0
100
AcDbSpline
70
4
71
3
72
10
73
6
40
0
40
0
40
0
40
0
40
0.375000000000406
40
0.750000000000812
40
1
40
1
40
1
40
1
41
1
10
30.9747908397044
20
-0.200000000000102
30
0
41
1
10
30.839681461308
20
-0.200000000000102
30
0
41
1
10
30.5468708766629
20
-0.200000000000102
30
0
41
1
10
30.1091180717776
20
-0.200000000000102
30
0
41
1
10
29.8185395050563
20
-0.200000000000102
30
0
41
1
10
29.7004788292083
20
-0.200000000000102
30
0
0
SPLINE
5
120
100
AcDbEntity
8
1
62
256
6
ByLayer
370
18
48
1
60
0
100
AcDbSpline
70
4
71
3
72
8
73
4
40
0
40
0
40
0
40
0
40
1
40
1
40
1
40
1
41
1
10
26.1981267363426
20
3.30999999999992
30
0
41
1
10
25.4635941836898
20
3.30999999999992
30
0
41
1
10
24.7290616310559
20
3.30999999999992
30
0
41
1
10
23.9945290784168
20
3.30999999999992
30
0
0
SPLINE
5
121
100
AcDbEntity
8
1
62
256
6
ByLayer
370
18
48
1
60
0
100
AcDbSpline
70
4
71
3
72
8
73
4
40
0
40
0
40
0
40
0
40
1
40
1
40
1
40
1
41
1
10
23.9945290784177
20
3.31000000000208
30
0
41
1
10
23.7193974567766
20
2.20666666666861
30
0
41
1
10
23.4442658351355
20
1.10333333333511
30
0
41
1
10
23.1691342134936
20
1.6485E-12
30
0
0
SPLINE
5
122
100
AcDbEntity
8
1
62
256
6
ByLayer
370
18
48
1
60
0
100
AcDbSpline
70
4
71
3
72
8
73
4
40
0
40
0
40
0
40
0
40
1
40
1
40
1
40
1
41
1
10
34.7656854249519
20
-8.53E-14
30
0
41
1
10
33.7702951236747
20
-0.0666666666667481
30
0
41
1
10
32.7749048223975
20
-0.133333333333411
30
0
41
1
10
31.7795145211203
20
-0.200000000000102
30
0
0
SPLINE
5
123
100
AcDbEntity
8
1
62
256
6
ByLayer
370
18
48
1
60
0
100
AcDbSpline
70
4
71
3
72
8
73
4
40
0
40
0
40
0
40
0
40
1
40
1
40
1
40
1
41
1
10
28.4017243942697
20
3.30999999999992
30
0
41
1
10
27.6671918416302
20
3.30999999999992
30
0
41
1
10
26.9326592889959
20
3.30999999999992
30
0
41
1
10
26.1981267363426
20
3.30999999999992
30
0
0
SPLINE
5
124
100
AcDbEntity
8
1
62
256
6
ByLayer
370
18
48
1
60
0
100
AcDbSpline
70
4
71
3
72
8
73
4
40
0
40
0
40
0
40
0
40
1
40
1
40
1
40
1
41
1
10
29.5330952441661
20
-1.137E-13
30
0
41
1
10
30.4051936076305
20
-1.137E-13
30
0
41
1
10
31.2772919710715
20
-8.53E-14
30
0
41
1
10
32.149390334559
20
-8.53E-14
30
0
0
SPLINE
5
125
100
AcDbEntity
8
1
62
256
6
ByLayer
370
18
48
1
60
0
100
AcDbSpline
70
4
71
3
72
8
73
4
40
0
40
0
40
0
40
0
40
1
40
1
40
1
40
1
41
1
10
25.7854293038801
20
-8.53E-14
30
0
41
1
10
26.6575276673677
20
-8.53E-14
30
0
41
1
10
27.5296260308086
20
-1.137E-13
30
0
41
1
10
28.401724394273
20
-1.137E-13
30
0
0
SPLINE
5
126
100
AcDbEntity
8
1
62
256
6
ByLayer
370
18
48
1
60
0
100
AcDbSpline
70
4
71
3
72
8
73
4
40
0
40
0
40
0
40
0
40
1
40
1
40
1
40
1
41
1
10
23.1691342134899
20
-8.53E-14
30
0
41
1
10
24.1645245147661
20
-0.0666666666667481
30
0
41
1
10
25.1599148160424
20
-0.133333333333411
30
0
41
1
10
26.1553051173187
20
-0.200000000000074
30
0
0
SPLINE
5
127
100
AcDbEntity
8
1
62
256
6
ByLayer
370
18
48
1
60
0
100
AcDbSpline
70
4
71
3
72
8
73
4
40
0
40
0
40
0
40
0
40
1
40
1
40
1
40
1
41
1
10
34.7656854249478
20
1.4211E-12
30
0
41
1
10
34.4905538033055
20
1.10333333333492
30
0
41
1
10
34.2154221816642
20
2.20666666666841
30
0
41
1
10
33.9402905600229
20
3.31000000000194
30
0
0
SPLINE
5
128
100
AcDbEntity
8
1
62
256
6
ByLayer
370
18
48
1
60
0
100
AcDbSpline
70
4
71
3
72
8
73
4
40
0
40
0
40
0
40
0
40
1
40
1
40
1
40
1
41
1
10
30.9747908397044
20
-0.200000000000102
30
0
41
1
10
31.366324004656
20
-0.133333333333439
30
0
41
1
10
31.7578571696075
20
-0.0666666666667481
30
0
41
1
10
32.149390334559
20
-8.53E-14
30
0
0
SPLINE
5
129
100
AcDbEntity
8
1
62
256
6
ByLayer
370
18
48
1
60
0
100
AcDbSpline
70
4
71
3
72
8
73
4
40
0
40
0
40
0
40
0
40
1
40
1
40
1
40
1
41
1
10
32.149390334559
20
-8.53E-14
30
0
41
1
10
33.0214886980466
20
-8.53E-14
30
0
41
1
10
33.8935870614876
20
-8.53E-14
30
0
41
1
10
34.7656854249519
20
-8.53E-14
30
0
0
SPLINE
5
12A
100
AcDbEntity
8
1
62
256
6
ByLayer
370
18
48
1
60
0
100
AcDbSpline
70
4
71
3
72
10
73
6
40
0
40
0
40
0
40
0
40
0.375000000000406
40
0.750000000000812
40
1
40
1
40
1
40
1
41
1
10
26.9600287987507
20
-0.200000000000074
30
0
41
1
10
26.8249194203521
20
-0.200000000000074
30
0
41
1
10
26.5772968616179
20
-0.200000000000074
30
0
41
1
10
26.3179783385345
20
-0.200000000000074
30
0
41
1
10
26.1969050505501
20
-0.200000000000074
30
0
41
1
10
26.1553051173192
20
-0.200000000000074
30
0
0
SPLINE
5
12B
100
AcDbEntity
8
1
62
256
6
ByLayer
370
18
48
1
60
0
100
AcDbSpline
70
4
71
3
72
10
73
6
40
0
40
0
40
0
40
0
40
0.249999999999984
40
0.624999999999992
40
1
40
1
40
1
40
1
41
1
10
28.2343408092482
20
-0.200000000000102
30
0
41
1
10
28.1162801333988
20
-0.200000000000102
30
0
41
1
10
27.8257015666736
20
-0.200000000000074
30
0
41
1
10
27.3879487617936
20
-0.200000000000074
30
0
41
1
10
27.0951381771401
20
-0.200000000000074
30
0
41
1
10
26.9600287987427
20
-0.200000000000074
30
0
0
SPLINE
5
12C
100
AcDbEntity
8
1
62
256
6
ByLayer
370
18
48
1
60
0
100
AcDbSpline
70
4
71
3
72
8
73
4
40
0
40
0
40
0
40
0
40
1
40
1
40
1
40
1
41
1
10
29.533095244171
20
3.31000000000208
30
0
41
1
10
29.5330952441717
20
2.20666666666858
30
0
41
1
10
29.5330952441723
20
1.10333333333511
30
0
41
1
10
29.5330952441722
20
1.62E-12
30
0
0
SPLINE
5
12D
100
AcDbEntity
8
1
62
256
6
ByLayer
370
18
48
1
60
0
100
AcDbSpline
70
4
71
3
72
29
73
25
40
0
40
0
40
0
40
0
40
0.125000000000945
40
0.171875000000894
40
0.218750000000842
40
0.242187500000816
40
0.26562500000079
40
0.277343750000777
40
0.289062500000764
40
0.312500000000738
40
0.359375000000687
40
0.406250000000635
40
0.500000000000531
40
0.593750000000427
40
0.640625000000376
40
0.687500000000324
40
0.710937500000298
40
0.722656250000285
40
0.734375000000272
40
0.757812500000246
40
0.78125000000022
40
0.828125000000168
40
0.875000000000117
40
1
40
1
40
1
40
1
41
1
10
29.7004788292083
20
-0.200000000000074
30
0
41
1
10
29.6414484912835
20
-0.200000000000074
30
0
41
1
10
29.5596529722385
20
-0.200000000000074
30
0
41
1
10
29.4547162827557
20
-0.200000000000074
30
0
41
1
10
29.3982889111839
20
-0.200000000000074
30
0
41
1
10
29.353030706008
20
-0.200000000000102
30
0
41
1
10
29.3247061534022
20
-0.200000000000102
30
0
41
1
10
29.3020347410709
20
-0.200000000000074
30
0
41
1
10
29.2792825447269
20
-0.200000000000102
30
0
41
1
10
29.2391561817371
20
-0.200000000000102
30
0
41
1
10
29.1810639331942
20
-0.200000000000102
30
0
41
1
10
29.0868297665082
20
-0.200000000000102
30
0
41
1
10
28.9674098324946
20
-0.200000000000102
30
0
41
1
10
28.8479899033713
20
-0.200000000000102
30
0
41
1
10
28.7537557438637
20
-0.200000000000102
30
0
41
1
10
28.6956634802968
20
-0.200000000000102
30
0
41
1
10
28.6555370971315
20
-0.200000000000102
30
0
41
1
10
28.6327848967974
20
-0.200000000000074
30
0
41
1
10
28.6101134852786
20
-0.200000000000074
30
0
41
1
10
28.5817889327002
20
-0.200000000000074
30
0
41
1
10
28.5365307271454
20
-0.200000000000074
30
0
41
1
10
28.4801033557002
20
-0.200000000000074
30
0
41
1
10
28.375166666218
20
-0.200000000000074
30
0
41
1
10
28.2933711471729
20
-0.200000000000074
30
0
41
1
10
28.2343408092482
20
-0.200000000000074
30
0
0
SPLINE
5
12E
100
AcDbEntity
8
1
62
256
6
ByLayer
370
18
48
1
60
0
100
AcDbSpline
70
4
71
1
72
4
73
2
40
0
40
0
40
1
40
1
41
1
10
25.7854293038801
20
-8.53E-14
30
0
41
1
10
26.1981267363426
20
3.30999999999992
30
0
0
SPLINE
5
12F
100
AcDbEntity
8
1
62
256
6
ByLayer
370
18
48
1
60
0
100
AcDbSpline
70
4
71
3
72
8
73
4
40
0
40
0
40
0
40
0
40
1
40
1
40
1
40
1
41
1
10
25.7854293038801
20
-8.53E-14
30
0
41
1
10
26.176962468837
20
-0.0666666666667481
30
0
41
1
10
26.5684956337938
20
-0.133333333333411
30
0
41
1
10
26.9600287987507
20
-0.200000000000102
30
0
0
SPLINE
5
130
100
AcDbEntity
8
1
62
256
6
ByLayer
370
18
48
1
60
0
100
AcDbSpline
70
4
71
3
72
17
73
13
40
0
40
0
40
0
40
0
40
0.0625
40
0.125
40
0.25
40
0.375
40
0.5
40
0.625
40
0.75
40
0.875
40
0.9375
40
1
40
1
40
1
40
1
41
1
10
29.5330952441702
20
3.31000000000026
30
0
41
1
10
29.5145838282194
20
3.31000000000026
30
0
41
1
10
29.4757338015464
20
3.31000000000023
30
0
41
1
10
29.3915054602439
20
3.31000000000017
30
0
41
1
10
29.2755074355754
20
3.31000000000012
30
0
41
1
10
29.1244818150698
20
3.31000000000006
30
0
41
1
10
28.9674095742763
20
3.31000000000003
30
0
41
1
10
28.8103367672086
20
3.31
30
0
41
1
10
28.6593126285198
20
3.30999999999997
30
0
41
1
10
28.5433139488065
20
3.30999999999997
30
0
41
1
10
28.4590862635242
20
3.30999999999997
30
0
41
1
10
28.4202358102197
20
3.30999999999997
30
0
41
1
10
28.4017243942689
20
3.30999999999997
30
0
0
SPLINE
5
131
100
AcDbEntity
8
1
62
256
6
ByLayer
370
18
48
1
60
0
100
AcDbSpline
70
4
71
3
72
8
73
4
40
0
40
0
40
0
40
0
40
1
40
1
40
1
40
1
41
1
10
33.9402905600236
20
3.30999999999992
30
0
41
1
10
33.2057580073841
20
3.30999999999992
30
0
41
1
10
32.4712254547498
20
3.30999999999992
30
0
41
1
10
31.7366929020965
20
3.30999999999992
30
0
0
SPLINE
5
132
100
AcDbEntity
8
1
62
256
6
ByLayer
370
18
48
1
60
0
100
AcDbSpline
70
4
71
1
72
4
73
2
40
0
40
0
40
1
40
1
41
1
10
32.149390334559
20
-8.53E-14
30
0
41
1
10
31.7366929020965
20
3.30999999999992
30
0
0
SPLINE
5
133
100
AcDbEntity
8
1
62
256
6
ByLayer
370
18
48
1
60
0
100
AcDbSpline
70
4
71
3
72
10
73
6
40
0
40
0
40
0
40
0
40
0.249999999999984
40
0.624999999999992
40
1
40
1
40
1
40
1
41
1
10
31.7795145211203
20
-0.200000000000074
30
0
41
1
10
31.7379145878913
20
-0.200000000000074
30
0
41
1
10
31.6168412999127
20
-0.200000000000074
30
0
41
1
10
31.3575227768213
20
-0.200000000000074
30
0
41
1
10
31.1099002180946
20
-0.200000000000102
30
0
41
1
10
30.9747908396964
20
-0.200000000000102
30
0
0
SPLINE
5
134
100
AcDbEntity
8
1
62
256
6
ByLayer
370
18
48
1
60
0
100
AcDbSpline
70
4
71
3
72
17
73
13
40
0
40
0
40
0
40
0
40
0.0625
40
0.125
40
0.25
40
0.375
40
0.5
40
0.625
40
0.75
40
0.875
40
0.9375
40
1
40
1
40
1
40
1
41
1
10
28.4017243942703
20
-1.630567397E-07
30
0
41
1
10
28.4202364064708
20
-1.630567397E-07
30
0
41
1
10
28.4590795375652
20
-1.630567112E-07
30
0
41
1
10
28.5432907948633
20
-1.630566828E-07
30
0
41
1
10
28.6592893884118
20
-1.630566544E-07
30
0
41
1
10
28.8103312509512
20
-1.630565976E-07
30
0
41
1
10
28.9674096221003
20
-1.630565407E-07
30
0
41
1
10
29.1244877314793
20
-1.630564839E-07
30
0
41
1
10
29.2755305024925
20
-1.63056427E-07
30
0
41
1
10
29.3915287326839
20
-1.630563986E-07
30
0
41
1
10
29.4757403625294
20
-1.630563418E-07
30
0
41
1
10
29.5145832319683
20
-1.630563418E-07
30
0
41
1
10
29.5330952441688
20
-1.630563133E-07
30
0
0
SPLINE
5
135
100
AcDbEntity
8
1
62
256
6
ByLayer
370
18
48
1
60
0
100
AcDbSpline
70
4
71
3
72
8
73
4
40
0
40
0
40
0
40
0
40
1
40
1
40
1
40
1
41
1
10
28.401724394273
20
-1.137E-13
30
0
41
1
10
28.3459298659314
20
-0.0666666666667766
30
0
41
1
10
28.2901353375898
20
-0.133333333333439
30
0
41
1
10
28.2343408092482
20
-0.200000000000102
30
0
0
SPLINE
5
136
100
AcDbEntity
8
1
62
256
6
ByLayer
370
18
48
1
60
0
100
AcDbSpline
70
4
71
3
72
8
73
4
40
0
40
0
40
0
40
0
40
1
40
1
40
1
40
1
41
1
10
31.7366929020965
20
3.30999999999992
30
0
41
1
10
31.0021603494437
20
3.30999999999992
30
0
41
1
10
30.2676277968099
20
3.30999999999992
30
0
41
1
10
29.5330952441707
20
3.30999999999992
30
0
0
SPLINE
5
137
100
AcDbEntity
8
1
62
256
6
ByLayer
370
18
48
1
60
0
100
AcDbSpline
70
4
71
3
72
8
73
4
40
0
40
0
40
0
40
0
40
1
40
1
40
1
40
1
41
1
10
23.1691342134872
20
-12.9843145750481
30
0
41
1
10
24.0412325769515
20
-13.8564129385125
30
0
41
1
10
24.9133309403925
20
-14.7285113019535
30
0
41
1
10
25.7854293038801
20
-15.6006096654411
30
0
0
SPLINE
5
138
100
AcDbEntity
8
1
62
256
6
ByLayer
370
18
48
1
60
0
100
AcDbSpline
70
4
71
3
72
8
73
4
40
0
40
0
40
0
40
0
40
1
40
1
40
1
40
1
41
1
10
28.4017243942692
20
-18.2169047558298
30
0
41
1
10
28.4017243942687
20
-17.9417731341876
30
0
41
1
10
28.401724394269
20
-17.6666415125462
30
0
41
1
10
28.4017243942694
20
-17.3915098909049
30
0
0
SPLINE
5
139
100
AcDbEntity
8
1
62
256
6
ByLayer
370
18
48
1
60
0
100
AcDbSpline
70
4
71
3
72
8
73
4
40
0
40
0
40
0
40
0
40
1
40
1
40
1
40
1
41
1
10
26.1981267363426
20
-15.1879122329786
30
0
41
1
10
25.4635941836897
20
-14.4533796803257
30
0
41
1
10
24.7290616310559
20
-13.7188471276918
30
0
41
1
10
23.9945290784168
20
-12.9843145750528
30
0
0
SPLINE
5
13A
100
AcDbEntity
8
1
62
256
6
ByLayer
370
18
48
1
60
0
100
AcDbSpline
70
4
71
3
72
8
73
4
40
0
40
0
40
0
40
0
40
1
40
1
40
1
40
1
41
1
10
23.9945290784176
20
-12.9843145750531
30
0
41
1
10
23.7193974567766
20
-12.9843145750537
30
0
41
1
10
23.4442658351355
20
-12.9843145750543
30
0
41
1
10
23.1691342134936
20
-12.9843145750542
30
0
0
SPLINE
5
13B
100
AcDbEntity
8
1
62
256
6
ByLayer
370
18
48
1
60
0
100
AcDbSpline
70
4
71
3
72
17
73
13
40
0
40
0
40
0
40
0
40
0.0625
40
0.125
40
0.25
40
0.375
40
0.5
40
0.625
40
0.75
40
0.875
40
0.9375
40
1
40
1
40
1
40
1
41
1
10
34.7656854656097
20
-12.9843145750508
30
0
41
1
10
34.7841974778102
20
-12.9658025628503
30
0
41
1
10
34.8194021533363
20
-12.926959431756
30
0
41
1
10
34.8818619658381
20
-12.8427481744579
30
0
41
1
10
34.9438679447494
20
-12.7267495809094
30
0
41
1
10
34.9896860309134
20
-12.5757077183699
30
0
41
1
10
35.0051570033175
20
-12.4186293472208
30
0
41
1
10
34.9896859412501
20
-12.2615512378418
30
0
41
1
10
34.9438689085905
20
-12.1105084668286
30
0
41
1
10
34.8818620171534
20
-11.9945102366372
30
0
41
1
10
34.8194025998898
20
-11.9102986067917
30
0
41
1
10
34.7841974778102
20
-11.8714557373529
30
0
41
1
10
34.7656854656096
20
-11.8529437251523
30
0
0
SPLINE
5
13C
100
AcDbEntity
8
1
62
256
6
ByLayer
370
18
48
1
60
0
100
AcDbSpline
70
4
71
3
72
8
73
4
40
0
40
0
40
0
40
0
40
1
40
1
40
1
40
1
41
1
10
28.4017243942697
20
-17.3915098909056
30
0
41
1
10
27.6671918416302
20
-16.6569773382661
30
0
41
1
10
26.9326592889959
20
-15.9224447856318
30
0
41
1
10
26.1981267363426
20
-15.1879122329786
30
0
0
SPLINE
5
13D
100
AcDbEntity
8
1
62
256
6
ByLayer
370
18
48
1
60
0
100
AcDbSpline
70
4
71
3
72
8
73
4
40
0
40
0
40
0
40
0
40
1
40
1
40
1
40
1
41
1
10
29.5330952441661
20
-18.216904755834
30
0
41
1
10
30.4051936076305
20
-17.3448063923696
30
0
41
1
10
31.2772919710715
20
-16.4727080289286
30
0
41
1
10
32.149390334559
20
-15.600609665441
30
0
0
SPLINE
5
13E
100
AcDbEntity
8
1
62
256
6
ByLayer
370
18
48
1
60
0
100
AcDbSpline
70
4
71
3
72
8
73
4
40
0
40
0
40
0
40
0
40
1
40
1
40
1
40
1
41
1
10
25.7854293038801
20
-15.6006096654411
30
0
41
1
10
26.6575276673676
20
-16.4727080289286
30
0
41
1
10
27.5296260308086
20
-17.3448063923695
30
0
41
1
10
28.401724394273
20
-18.216904755834
30
0
0
SPLINE
5
13F
100
AcDbEntity
8
1
62
256
6
ByLayer
370
18
48
1
60
0
100
AcDbSpline
70
4
71
3
72
8
73
4
40
0
40
0
40
0
40
0
40
1
40
1
40
1
40
1
41
1
10
34.7656854249477
20
-12.9843145750519
30
0
41
1
10
34.4905538033055
20
-12.9843145750524
30
0
41
1
10
34.2154221816642
20
-12.9843145750521
30
0
41
1
10
33.9402905600229
20
-12.9843145750517
30
0
0
SPLINE
5
140
100
AcDbEntity
8
1
62
256
6
ByLayer
370
18
48
1
60
0
100
AcDbSpline
70
4
71
3
72
8
73
4
40
0
40
0
40
0
40
0
40
1
40
1
40
1
40
1
41
1
10
32.149390334559
20
-15.6006096654411
30
0
41
1
10
33.0214886980466
20
-14.7285113019535
30
0
41
1
10
33.8935870614876
20
-13.8564129385125
30
0
41
1
10
34.7656854249519
20
-12.9843145750481
30
0
0
SPLINE
5
141
100
AcDbEntity
8
1
62
256
6
ByLayer
370
18
48
1
60
0
100
AcDbSpline
70
4
71
3
72
8
73
4
40
0
40
0
40
0
40
0
40
1
40
1
40
1
40
1
41
1
10
29.533095244171
20
-17.3915098909035
30
0
41
1
10
29.5330952441717
20
-17.6666415125445
30
0
41
1
10
29.5330952441723
20
-17.9417731341856
30
0
41
1
10
29.5330952441721
20
-18.2169047558275
30
0
0
SPLINE
5
142
100
AcDbEntity
8
1
62
256
6
ByLayer
370
18
48
1
60
0
100
AcDbSpline
70
4
71
1
72
4
73
2
40
0
40
0
40
1
40
1
41
1
10
25.7854293038801
20
-15.6006096654411
30
0
41
1
10
26.1981267363426
20
-15.1879122329786
30
0
0
SPLINE
5
143
100
AcDbEntity
8
1
62
256
6
ByLayer
370
18
48
1
60
0
100
AcDbSpline
70
4
71
3
72
17
73
13
40
0
40
0
40
0
40
0
40
0.0625
40
0.125
40
0.25
40
0.375
40
0.5
40
0.625
40
0.75
40
0.875
40
0.9375
40
1
40
1
40
1
40
1
41
1
10
29.5330952441702
20
-17.3915098909048
30
0
41
1
10
29.5145838282194
20
-17.4100213068556
30
0
41
1
10
29.4757338015464
20
-17.4452165043246
30
0
41
1
10
29.3915054602439
20
-17.5076474555966
30
0
41
1
10
29.2755074355754
20
-17.5696408599262
30
0
41
1
10
29.1244818150698
20
-17.6154938477699
30
0
41
1
10
28.9674095742763
20
-17.6309897248622
30
0
41
1
10
28.8103367672086
20
-17.6154941531905
30
0
41
1
10
28.6593126285198
20
-17.5696394458231
30
0
41
1
10
28.5433139488065
20
-17.5076474296738
30
0
41
1
10
28.4590862635241
20
-17.4452157853742
30
0
41
1
10
28.4202358102197
20
-17.4100213068556
30
0
41
1
10
28.4017243942689
20
-17.3915098909049
30
0
0
SPLINE
5
144
100
AcDbEntity
8
1
62
256
6
ByLayer
370
18
48
1
60
0
100
AcDbSpline
70
4
71
3
72
8
73
4
40
0
40
0
40
0
40
0
40
1
40
1
40
1
40
1
41
1
10
33.9402905600236
20
-12.9843145750515
30
0
41
1
10
33.2057580073841
20
-13.718847127691
30
0
41
1
10
32.4712254547498
20
-14.4533796803253
30
0
41
1
10
31.7366929020965
20
-15.1879122329786
30
0
0
SPLINE
5
145
100
AcDbEntity
8
1
62
256
6
ByLayer
370
18
48
1
60
0
100
AcDbSpline
70
4
71
1
72
4
73
2
40
0
40
0
40
1
40
1
41
1
10
32.149390334559
20
-15.6006096654411
30
0
41
1
10
31.7366929020965
20
-15.1879122329786
30
0
0
SPLINE
5
146
100
AcDbEntity
8
1
62
256
6
ByLayer
370
18
48
1
60
0
100
AcDbSpline
70
4
71
3
72
17
73
13
40
0
40
0
40
0
40
0
40
0.0625
40
0.125
40
0.25
40
0.375
40
0.5
40
0.625
40
0.75
40
0.875
40
0.9375
40
1
40
1
40
1
40
1
41
1
10
28.4017243942703
20
-18.2169047964917
30
0
41
1
10
28.4202364064708
20
-18.2354168086922
30
0
41
1
10
28.4590795375652
20
-18.2706214842184
30
0
41
1
10
28.5432907948632
20
-18.3330812967201
30
0
41
1
10
28.6592893884118
20
-18.3950872756314
30
0
41
1
10
28.8103312509512
20
-18.4409053617954
30
0
41
1
10
28.9674096221003
20
-18.4563763341996
30
0
41
1
10
29.1244877314793
20
-18.4409052721321
30
0
41
1
10
29.2755305024925
20
-18.3950882394725
30
0
41
1
10
29.3915287326839
20
-18.3330813480354
30
0
41
1
10
29.4757403625294
20
-18.2706219307718
30
0
41
1
10
29.5145832319682
20
-18.2354168086922
30
0
41
1
10
29.5330952441688
20
-18.2169047964916
30
0
0
SPLINE
5
147
100
AcDbEntity
8
1
62
256
6
ByLayer
370
18
48
1
60
0
100
AcDbSpline
70
4
71
3
72
8
73
4
40
0
40
0
40
0
40
0
40
1
40
1
40
1
40
1
41
1
10
31.7366929020965
20
-15.1879122329786
30
0
41
1
10
31.0021603494437
20
-15.9224447856314
30
0
41
1
10
30.2676277968098
20
-16.6569773382653
30
0
41
1
10
29.5330952441707
20
-17.3915098909043
30
0
0
SPLINE
5
148
100
AcDbEntity
8
1
62
256
6
ByLayer
370
18
48
1
60
0
100
AcDbSpline
70
4
71
3
72
8
73
4
40
0
40
0
40
0
40
0
40
1
40
1
40
1
40
1
41
1
10
28.3896855142602
20
13.4214281212183
30
0
41
1
10
28.3913069353645
20
13.4149618496352
30
0
41
1
10
28.3929286131904
20
13.4084945542395
30
0
41
1
10
28.3945505608088
20
13.402026182904
30
0
0
SPLINE
5
149
100
AcDbEntity
8
1
62
256
6
ByLayer
370
18
48
1
60
0
100
AcDbSpline
70
4
71
3
72
8
73
4
40
0
40
0
40
0
40
0
40
1
40
1
40
1
40
1
41
1
10
30.1247213555753
20
12.4175535890216
30
0
41
1
10
30.1183106895644
20
12.4193825329466
30
0
41
1
10
30.111899008545
20
12.4212117664505
30
0
41
1
10
30.1054862608381
20
12.4230413042771
30
0
0
SPLINE
5
14A
100
AcDbEntity
8
1
62
256
6
ByLayer
370
18
48
1
60
0
100
AcDbSpline
70
4
71
3
72
8
73
4
40
0
40
0
40
0
40
0
40
1
40
1
40
1
40
1
41
1
10
29.5451341241789
20
11.4158301789847
30
0
41
1
10
29.5435127030746
20
11.4222964505678
30
0
41
1
10
29.5418910252487
20
11.4287637459635
30
0
41
1
10
29.5402690776303
20
11.435232117299
30
0
0
SPLINE
5
14B
100
AcDbEntity
8
1
62
256
6
ByLayer
370
18
48
1
60
0
100
AcDbSpline
70
4
71
3
72
16
73
12
40
0
40
0
40
0
40
0
40
0.125
40
0.125
40
0.25
40
0.25
40
0.5
40
0.5
40
0.75
40
0.75
40
1
40
1
40
1
40
1
41
1
10
29.9702087903364
20
11.8409048451422
30
0
41
1
10
29.9824105077765
20
11.8328516010012
30
0
41
1
10
29.9966911321029
20
11.8284505242904
30
0
41
1
10
30.0264790781966
20
11.8286511827004
30
0
41
1
10
30.0417575514948
20
11.8331721464589
30
0
41
1
10
30.084089810708
20
11.8548042273776
30
0
41
1
10
30.1079367272845
20
11.8787568764291
30
0
41
1
10
30.1481601888909
20
11.9312307493274
30
0
41
1
10
30.1648160311971
20
11.9604220672209
30
0
41
1
10
30.1926682202591
20
12.0210808583235
30
0
41
1
10
30.2038810200901
20
12.0526957483345
30
0
41
1
10
30.2125365055975
20
12.0849984600121
30
0
0
SPLINE
5
14C
100
AcDbEntity
8
1
62
256
6
ByLayer
370
18
48
1
60
0
100
AcDbSpline
70
4
71
3
72
8
73
4
40
0
40
0
40
0
40
0
40
1
40
1
40
1
40
1
41
1
10
29.546997050616
20
13.4203525601384
30
0
41
1
10
29.5422078057093
20
13.4157152324803
30
0
41
1
10
29.5374178025159
20
13.4110771705885
30
0
41
1
10
29.5326270024273
20
13.4064383370796
30
0
0
SPLINE
5
14D
100
AcDbEntity
8
1
62
256
6
ByLayer
370
18
48
1
60
0
100
AcDbSpline
70
4
71
3
72
8
73
4
40
0
40
0
40
0
40
0
40
1
40
1
40
1
40
1
41
1
10
29.9552190061976
20
12.9838463333093
30
0
41
1
10
29.9598578397065
20
12.9886371333978
30
0
41
1
10
29.9644959015984
20
12.9934271365913
30
0
41
1
10
29.9691332292565
20
12.9982163814979
30
0
0
SPLINE
5
14E
100
AcDbEntity
8
1
62
256
6
ByLayer
370
18
48
1
60
0
100
AcDbSpline
70
4
71
3
72
8
73
4
40
0
40
0
40
0
40
0
40
1
40
1
40
1
40
1
41
1
10
29.950806852022
20
11.8457698916907
30
0
41
1
10
29.9572752233576
20
11.8441479440724
30
0
41
1
10
29.9637425187532
20
11.8425262662465
30
0
41
1
10
29.9702087903364
20
11.8409048451422
30
0
0
SPLINE
5
14F
100
AcDbEntity
8
1
62
256
6
ByLayer
370
18
48
1
60
0
100
AcDbSpline
70
4
71
3
72
16
73
12
40
0
40
0
40
0
40
0
40
0.125
40
0.125
40
0.25
40
0.25
40
0.5
40
0.5
40
0.75
40
0.75
40
1
40
1
40
1
40
1
41
1
10
28.9684853802995
20
11.2613176137457
30
0
41
1
10
28.9676119250106
20
11.2467239944023
30
0
41
1
10
28.9709407929383
20
11.2321560725984
30
0
41
1
10
28.9860085412656
20
11.2064592837597
30
0
41
1
10
28.9975630473792
20
11.1954882196317
30
0
41
1
10
29.0374631085981
20
11.1696434482128
30
0
41
1
10
29.0701301694529
20
11.1609677371813
30
0
41
1
10
29.1356856072209
20
11.1523701340512
30
0
41
1
10
29.1692939512397
20
11.1525414104394
30
0
41
1
10
29.2357520998285
20
11.158750102712
30
0
41
1
10
29.2687377976313
20
11.1648469782162
30
0
41
1
10
29.301040509309
20
11.1735024637236
30
0
0
SPLINE
5
150
100
AcDbEntity
8
1
62
256
6
ByLayer
370
18
48
1
60
0
100
AcDbSpline
70
4
71
3
72
18
73
14
40
0
40
0
40
0
40
0
40
0.25
40
0.25
40
0.5
40
0.5
40
0.625
40
0.625
40
0.75
40
0.75
40
0.875
40
0.875
40
1
40
1
40
1
40
1
41
1
10
29.301040509309
20
11.1735024637236
30
0
41
1
10
29.3333278813122
20
11.1821538389776
30
0
41
1
10
29.3649056962623
20
11.1933501741313
30
0
41
1
10
29.4255751859511
20
11.2212002971788
30
0
41
1
10
29.4546942990933
20
11.2378008279011
30
0
41
1
10
29.4941274888617
20
11.2680140072277
30
0
41
1
10
29.5064687160597
20
11.2789291164185
30
0
41
1
10
29.5284856832553
20
11.302762650468
30
0
41
1
10
29.5383593814646
20
11.3159370811885
30
0
41
1
10
29.5527928714685
20
11.344091633502
30
0
41
1
10
29.5573612596622
20
11.3592941050605
30
0
41
1
10
29.5576130411662
20
11.3893580773101
30
0
41
1
10
29.5531910897355
20
11.4036228231134
30
0
41
1
10
29.5451341241789
20
11.4158301789847
30
0
0
SPLINE
5
151
100
AcDbEntity
8
1
62
256
6
ByLayer
370
18
48
1
60
0
100
AcDbSpline
70
4
71
3
72
8
73
4
40
0
40
0
40
0
40
0
40
1
40
1
40
1
40
1
41
1
10
28.9718219733952
20
13.5567055917201
30
0
41
1
10
28.9699924355685
20
13.5631183394269
30
0
41
1
10
28.9681632020647
20
13.5695300204463
30
0
41
1
10
28.9663342581397
20
13.5759406864572
30
0
0
SPLINE
5
152
100
AcDbEntity
8
1
62
256
6
ByLayer
370
18
48
1
60
0
100
AcDbSpline
70
4
71
3
72
8
73
4
40
0
40
0
40
0
40
0
40
1
40
1
40
1
40
1
41
1
10
27.8100982828638
20
12.4197047111814
30
0
41
1
10
27.8165089488747
20
12.4178757672564
30
0
41
1
10
27.8229206298942
20
12.4160465337525
30
0
41
1
10
27.829333377601
20
12.4142169959259
30
0
0
SPLINE
5
153
100
AcDbEntity
8
1
62
256
6
ByLayer
370
18
48
1
60
0
100
AcDbSpline
70
4
71
3
72
18
73
14
40
0
40
0
40
0
40
0
40
0.25
40
0.25
40
0.5
40
0.5
40
0.625
40
0.625
40
0.75
40
0.75
40
0.875
40
0.875
40
1
40
1
40
1
40
1
41
1
10
30.2125365055975
20
12.0849984600121
30
0
41
1
10
30.2211878808515
20
12.1172858320154
30
0
41
1
10
30.2272804776541
20
12.150231189535
30
0
41
1
10
30.2334963084409
20
12.2166975703639
30
0
41
1
10
30.2336793836901
20
12.2502157274418
30
0
41
1
10
30.2272305977484
20
12.2994724611968
30
0
41
1
10
30.223948449503
20
12.3156178320595
30
0
41
1
10
30.2143164871521
20
12.34660185199
30
0
41
1
10
30.2078439445724
20
12.3617399408288
30
0
41
1
10
30.1906781320387
20
12.3883169859942
30
0
41
1
10
30.1797965995656
20
12.3998745620036
30
0
41
1
10
30.1538863266107
20
12.4151245973071
30
0
41
1
10
30.1393217186512
20
12.4184274479354
30
0
41
1
10
30.1247213555753
20
12.4175535890216
30
0
0
SPLINE
5
154
100
AcDbEntity
8
1
62
256
6
ByLayer
370
18
48
1
60
0
100
AcDbSpline
70
4
71
3
72
18
73
14
40
0
40
0
40
0
40
0
40
0.125
40
0.125
40
0.249999999999999
40
0.249999999999999
40
0.5
40
0.5
40
0.75
40
0.75
40
0.875
40
0.875
40
1
40
1
40
1
40
1
41
1
10
30.1054862608381
20
12.4230413042771
30
0
41
1
10
30.0818657928663
20
12.4297801534589
30
0
41
1
10
30.0609165040503
20
12.4445380394428
30
0
41
1
10
30.0234970689339
20
12.480346921615
30
0
41
1
10
30.0071285186952
20
12.5015504464578
30
0
41
1
10
29.9638031859569
20
12.5699601353786
30
0
41
1
10
29.942389035172
20
12.6220294032222
30
0
41
1
10
29.9134723088075
20
12.7299367833877
30
0
41
1
10
29.9059832886388
20
12.7857508583426
30
0
41
1
10
29.9092869974415
20
12.8666058437429
30
0
41
1
10
29.9128446025059
20
12.8931280317882
30
0
41
1
10
29.9273641461809
20
12.9429471126581
30
0
41
1
10
29.9381415668671
20
12.9662094429791
30
0
41
1
10
29.9552190061976
20
12.9838463333093
30
0
0
SPLINE
5
155
100
AcDbEntity
8
1
62
256
6
ByLayer
370
18
48
1
60
0
100
AcDbSpline
70
4
71
3
72
16
73
12
40
0
40
0
40
0
40
0
40
0.125
40
0.125
40
0.25
40
0.25
40
0.5
40
0.5
40
0.75
40
0.75
40
1
40
1
40
1
40
1
41
1
10
29.9691332292565
20
12.9982163814979
30
0
41
1
10
29.9822084019855
20
13.0047567567004
30
0
41
1
10
29.9931601583842
20
13.0149236017936
30
0
41
1
10
30.0078803561506
20
13.0408210490422
30
0
41
1
10
30.0116043233352
20
13.0563130769288
30
0
41
1
10
30.0140365213294
20
13.1037899292663
30
0
41
1
10
30.0052163770512
20
13.1364182893493
30
0
41
1
10
29.9798844008895
20
13.1974897653777
30
0
41
1
10
29.9629318991769
20
13.226509806883
30
0
41
1
10
29.9243259396502
20
13.280959905713
30
0
41
1
10
29.9025530416783
20
13.3064779202198
30
0
41
1
10
29.8789058155081
20
13.33012514639
30
0
0
SPLINE
5
156
100
AcDbEntity
8
1
62
256
6
ByLayer
370
18
48
1
60
0
100
AcDbSpline
70
4
71
3
72
18
73
14
40
0
40
0
40
0
40
0
40
0.25
40
0.25
40
0.5
40
0.5
40
0.625
40
0.625
40
0.75
40
0.75
40
0.875
40
0.875
40
1
40
1
40
1
40
1
41
1
10
29.8789058155081
20
13.33012514639
30
0
41
1
10
29.8552698187588
20
13.3537611431393
30
0
41
1
10
29.8297846006113
20
13.3755101655052
30
0
41
1
10
29.7753309417093
20
13.4141264232866
30
0
41
1
10
29.7463949038165
20
13.4310440496422
30
0
41
1
10
29.7005129281063
20
13.4500876040706
30
0
41
1
10
29.684889552663
20
13.4553178657425
30
0
41
1
10
29.6532406231163
20
13.4624683516235
30
0
41
1
10
29.6368943823273
20
13.4644320097418
30
0
41
1
10
29.6052950797898
20
13.4628545025937
30
0
41
1
10
29.5898451591229
20
13.4592096070446
30
0
41
1
10
29.5636831046641
20
13.4443956700984
30
0
41
1
10
29.5535404481352
20
13.4334337749235
30
0
41
1
10
29.546997050616
20
13.4203525601384
30
0
0
SPLINE
5
157
100
AcDbEntity
8
1
62
256
6
ByLayer
370
18
48
1
60
0
100
AcDbSpline
70
4
71
3
72
16
73
12
40
0
40
0
40
0
40
0
40
0.125
40
0.125
40
0.25
40
0.25
40
0.5
40
0.5
40
0.75
40
0.75
40
1
40
1
40
1
40
1
41
1
10
27.9646108481027
20
12.9963534550609
30
0
41
1
10
27.9524091306626
20
13.0044066992018
30
0
41
1
10
27.9381285063362
20
13.0088077759125
30
0
41
1
10
27.9083405602426
20
13.0086071175026
30
0
41
1
10
27.8930620869444
20
13.0040861537441
30
0
41
1
10
27.8507298277312
20
12.9824540728254
30
0
41
1
10
27.8268829111546
20
12.9585014237739
30
0
41
1
10
27.7866594495483
20
12.9060275508756
30
0
41
1
10
27.7700036072421
20
12.8768362329822
30
0
41
1
10
27.7421514181801
20
12.8161774418795
30
0
41
1
10
27.730938618349
20
12.7845625518685
30
0
41
1
10
27.7222831328417
20
12.7522598401909
30
0
0
SPLINE
5
158
100
AcDbEntity
8
1
62
256
6
ByLayer
370
18
48
1
60
0
100
AcDbSpline
70
4
71
3
72
18
73
14
40
0
40
0
40
0
40
0
40
0.25
40
0.25
40
0.5
40
0.5
40
0.625
40
0.625
40
0.75
40
0.75
40
0.875
40
0.875
40
1
40
1
40
1
40
1
41
1
10
27.7222831328417
20
12.7522598401909
30
0
41
1
10
27.7136317575876
20
12.7199724681877
30
0
41
1
10
27.7075391607851
20
12.687027110668
30
0
41
1
10
27.7013233299982
20
12.6205607298391
30
0
41
1
10
27.701140254749
20
12.5870425727612
30
0
41
1
10
27.7075890406907
20
12.5377858390062
30
0
41
1
10
27.7108711889361
20
12.5216404681435
30
0
41
1
10
27.7205031512871
20
12.490656448213
30
0
41
1
10
27.7269756938667
20
12.4755183593742
30
0
41
1
10
27.7441415064005
20
12.4489413142089
30
0
41
1
10
27.7550230388736
20
12.4373837381995
30
0
41
1
10
27.7809333118284
20
12.422133702896
30
0
41
1
10
27.795497919788
20
12.4188308522676
30
0
41
1
10
27.8100982828638
20
12.4197047111814
30
0
0
SPLINE
5
159
100
AcDbEntity
8
1
62
256
6
ByLayer
370
18
48
1
60
0
100
AcDbSpline
70
4
71
3
72
8
73
4
40
0
40
0
40
0
40
0
40
1
40
1
40
1
40
1
41
1
10
28.9629976650439
20
11.2805527084829
30
0
41
1
10
28.9648272028706
20
11.2741399607761
30
0
41
1
10
28.9666564363745
20
11.2677282797567
30
0
41
1
10
28.9684853802995
20
11.2613176137457
30
0
0
SPLINE
5
15A
100
AcDbEntity
8
1
62
256
6
ByLayer
370
18
48
1
60
0
100
AcDbSpline
70
4
71
3
72
8
73
4
40
0
40
0
40
0
40
0
40
1
40
1
40
1
40
1
41
1
10
27.9840127864171
20
12.9914884085123
30
0
41
1
10
27.9775444150816
20
12.9931103561307
30
0
41
1
10
27.9710771196859
20
12.9947320339566
30
0
41
1
10
27.9646108481027
20
12.9963534550609
30
0
0
SPLINE
5
15B
100
AcDbEntity
8
1
62
256
6
ByLayer
370
18
48
1
60
0
100
AcDbSpline
70
4
71
3
72
18
73
14
40
0
40
0
40
0
40
0
40
0.125
40
0.125
40
0.250000000000001
40
0.250000000000001
40
0.500000000000001
40
0.500000000000001
40
0.75
40
0.75
40
0.875
40
0.875
40
1
40
1
40
1
40
1
41
1
10
29.5326270024273
20
13.4064383370796
30
0
41
1
10
29.5149807538577
20
13.3893518363576
30
0
41
1
10
29.4917254052816
20
13.3785881630437
30
0
41
1
10
29.4420042860811
20
13.3640864227236
30
0
41
1
10
29.4154572197981
20
13.3605126048153
30
0
41
1
10
29.3345500249586
20
13.3571966104969
30
0
41
1
10
29.2787496408571
20
13.3646860458385
30
0
41
1
10
29.1708407451957
20
13.3935971162953
30
0
41
1
10
29.1187598283117
20
13.4150184720573
30
0
41
1
10
29.0503892113337
20
13.4583070605072
30
0
41
1
10
29.0291991252548
20
13.4746491308922
30
0
41
1
10
28.9933143074657
20
13.5121329650011
30
0
41
1
10
28.9785572487996
20
13.5330976502631
30
0
41
1
10
28.9718219733952
20
13.5567055917201
30
0
0
SPLINE
5
15C
100
AcDbEntity
8
1
62
256
6
ByLayer
370
18
48
1
60
0
100
AcDbSpline
70
4
71
3
72
16
73
12
40
0
40
0
40
0
40
0
40
0.125
40
0.125
40
0.25
40
0.25
40
0.5
40
0.5
40
0.75
40
0.75
40
1
40
1
40
1
40
1
41
1
10
28.9663342581397
20
13.5759406864572
30
0
41
1
10
28.9672077134285
20
13.5905343058007
30
0
41
1
10
28.9638788455009
20
13.6051022276046
30
0
41
1
10
28.9488110971736
20
13.6307990164433
30
0
41
1
10
28.93725659106
20
13.6417700805713
30
0
41
1
10
28.8973565298411
20
13.6676148519902
30
0
41
1
10
28.8646894689863
20
13.6762905630217
30
0
41
1
10
28.7991340312182
20
13.6848881661518
30
0
41
1
10
28.7655256871994
20
13.6847168897636
30
0
41
1
10
28.6990675386107
20
13.678508197491
30
0
41
1
10
28.6660818408078
20
13.6724113219868
30
0
41
1
10
28.6337791291302
20
13.6637558364794
30
0
0
SPLINE
5
15D
100
AcDbEntity
8
1
62
256
6
ByLayer
370
18
48
1
60
0
100
AcDbSpline
70
4
71
3
72
18
73
14
40
0
40
0
40
0
40
0
40
0.25
40
0.25
40
0.5
40
0.5
40
0.625
40
0.625
40
0.75
40
0.75
40
0.875
40
0.875
40
1
40
1
40
1
40
1
41
1
10
28.6337791291302
20
13.6637558364794
30
0
41
1
10
28.6014917571269
20
13.6551044612254
30
0
41
1
10
28.5699139421769
20
13.6439081260717
30
0
41
1
10
28.509244452488
20
13.6160580030242
30
0
41
1
10
28.4801253393459
20
13.5994574723019
30
0
41
1
10
28.4406921495774
20
13.5692442929753
30
0
41
1
10
28.4283509223795
20
13.5583291837845
30
0
41
1
10
28.4063339551838
20
13.534495649735
30
0
41
1
10
28.3964602569745
20
13.5213212190145
30
0
41
1
10
28.3820267669707
20
13.4931666667011
30
0
41
1
10
28.3774583787769
20
13.4779641951425
30
0
41
1
10
28.3772065972729
20
13.4479002228929
30
0
41
1
10
28.3816285487036
20
13.4336354770896
30
0
41
1
10
28.3896855142602
20
13.4214281212183
30
0
0
SPLINE
5
15E
100
AcDbEntity
8
1
62
256
6
ByLayer
370
18
48
1
60
0
100
AcDbSpline
70
4
71
3
72
18
73
14
40
0
40
0
40
0
40
0
40
0.125000000000001
40
0.125000000000001
40
0.250000000000001
40
0.250000000000001
40
0.5
40
0.5
40
0.75
40
0.75
40
0.875
40
0.875
40
1
40
1
40
1
40
1
41
1
10
29.5402690776303
20
11.435232117299
30
0
41
1
10
29.5342948582282
20
11.4590574672028
30
0
41
1
10
29.5366009179883
20
11.4845790265006
30
0
41
1
10
29.5489026020723
20
11.5348896489928
30
0
41
1
10
29.5590811181166
20
11.5596669917441
30
0
41
1
10
29.596662980218
20
11.6313926749832
30
0
41
1
10
29.6310492135345
20
11.6759725074852
30
0
41
1
10
29.7100413828314
20
11.7549688171939
30
0
41
1
10
29.7546332795467
20
11.7893615363868
30
0
41
1
10
29.8263076053273
20
11.8269279333372
30
0
41
1
10
29.8510552964706
20
11.8371080509975
30
0
41
1
10
29.9014596579348
20
11.8494432977585
30
0
41
1
10
29.9269941372871
20
11.8517409428175
30
0
41
1
10
29.950806852022
20
11.8457698916907
30
0
0
SPLINE
5
15F
100
AcDbEntity
8
1
62
256
6
ByLayer
370
18
48
1
60
0
100
AcDbSpline
70
4
71
3
72
18
73
14
40
0
40
0
40
0
40
0
40
0.125000000000001
40
0.125000000000001
40
0.250000000000001
40
0.250000000000001
40
0.500000000000001
40
0.500000000000001
40
0.75
40
0.75
40
0.875
40
0.875
40
1
40
1
40
1
40
1
41
1
10
28.3945505608088
20
13.402026182904
30
0
41
1
10
28.400524780211
20
13.3782008330002
30
0
41
1
10
28.3982187204508
20
13.3526792737024
30
0
41
1
10
28.3859170363668
20
13.3023686512102
30
0
41
1
10
28.3757385203225
20
13.277591308459
30
0
41
1
10
28.3381566582212
20
13.2058656252198
30
0
41
1
10
28.3037704249047
20
13.1612857927178
30
0
41
1
10
28.2247782556078
20
13.0822894830091
30
0
41
1
10
28.1801863588924
20
13.0478967638161
30
0
41
1
10
28.1085120331118
20
13.0103303668658
30
0
41
1
10
28.0837643419685
20
13.0001502492055
30
0
41
1
10
28.0333599805044
20
12.9878150024445
30
0
41
1
10
28.0078255011521
20
12.9855173573856
30
0
41
1
10
27.9840127864171
20
12.9914884085123
30
0
0
SPLINE
5
160
100
AcDbEntity
8
1
62
256
6
ByLayer
370
18
48
1
60
0
100
AcDbSpline
70
4
71
3
72
16
73
12
40
0
40
0
40
0
40
0
40
0.124999999999999
40
0.124999999999999
40
0.249999999999998
40
0.249999999999998
40
0.499999999999998
40
0.499999999999998
40
0.749999999999999
40
0.749999999999999
40
1
40
1
40
1
40
1
41
1
10
28.3878225878232
20
11.4169057400646
30
0
41
1
10
28.3812822126207
20
11.4038305673356
30
0
41
1
10
28.3711153675275
20
11.3928788109369
30
0
41
1
10
28.3452179202789
20
11.3781586131705
30
0
41
1
10
28.3297258923923
20
11.3744346459859
30
0
41
1
10
28.2822490400549
20
11.3720024479916
30
0
41
1
10
28.2496206799718
20
11.3808225922698
30
0
41
1
10
28.1885492039434
20
11.4061545684316
30
0
41
1
10
28.1595291624381
20
11.4231070701442
30
0
41
1
10
28.1050790636081
20
11.4617130296709
30
0
41
1
10
28.0795610491013
20
11.4834859276427
30
0
41
1
10
28.0559138229311
20
11.507133153813
30
0
0
SPLINE
5
161
100
AcDbEntity
8
1
62
256
6
ByLayer
370
18
48
1
60
0
100
AcDbSpline
70
4
71
3
72
8
73
4
40
0
40
0
40
0
40
0
40
1
40
1
40
1
40
1
41
1
10
27.9656864091826
20
11.8390419187051
30
0
41
1
10
27.9703237368408
20
11.8438311636117
30
0
41
1
10
27.9749617987326
20
11.8486211668053
30
0
41
1
10
27.9796006322415
20
11.8534119668937
30
0
0
SPLINE
5
162
100
AcDbEntity
8
1
62
256
6
ByLayer
370
18
48
1
60
0
100
AcDbSpline
70
4
71
3
72
16
73
12
40
0
40
0
40
0
40
0
40
0.25
40
0.25
40
0.5
40
0.5
40
0.749999999999999
40
0.749999999999999
40
0.875
40
0.875
40
1
40
1
40
1
40
1
41
1
10
28.0559138229311
20
11.507133153813
30
0
41
1
10
28.0322694540953
20
11.5307775226488
30
0
41
1
10
28.0105133855959
20
11.5562723568362
30
0
41
1
10
27.9718869314073
20
11.6107479048207
30
0
41
1
10
27.9549662408291
20
11.6396957288631
30
0
41
1
10
27.9295782425856
20
11.7008983896239
30
0
41
1
10
27.9207748629749
20
11.7331933615392
30
0
41
1
10
27.9232175624809
20
11.7810459705571
30
0
41
1
10
27.9269683944302
20
11.7964821559284
30
0
41
1
10
27.9416141696132
20
11.822261288772
30
0
41
1
10
27.9526160267573
20
11.8325039396762
30
0
41
1
10
27.9656864091826
20
11.8390419187051
30
0
0
SPLINE
5
163
100
AcDbEntity
8
1
62
256
6
ByLayer
370
18
48
1
60
0
100
AcDbSpline
70
4
71
3
72
18
73
14
40
0
40
0
40
0
40
0
40
0.125
40
0.125
40
0.25
40
0.25
40
0.499999999999999
40
0.499999999999999
40
0.749999999999999
40
0.749999999999999
40
0.874999999999999
40
0.874999999999999
40
1
40
1
40
1
40
1
41
1
10
28.9629976650439
20
11.2805527084829
30
0
41
1
10
28.9562197367196
20
11.3043101534979
30
0
41
1
10
28.9412410433612
20
11.3254364110608
30
0
41
1
10
28.9055661428724
20
11.3626306362681
30
0
41
1
10
28.8842487491722
20
11.3790723744341
30
0
41
1
10
28.8162152699101
20
11.422129159226
30
0
41
1
10
28.7644110885043
20
11.443508006238
30
0
41
1
10
28.6564095033143
20
11.4725184109094
30
0
41
1
10
28.6005293066223
20
11.480043016963
30
0
41
1
10
28.5195781364895
20
11.4767691010941
30
0
41
1
10
28.49302465492
20
11.4732180359172
30
0
41
1
10
28.4431418024171
20
11.4586988218773
30
0
41
1
10
28.4198488378317
20
11.4479161013736
30
0
41
1
10
28.4021926360118
20
11.4308199631234
30
0
0
SPLINE
5
164
100
AcDbEntity
8
1
62
256
6
ByLayer
370
18
48
1
60
0
100
AcDbSpline
70
4
71
3
72
8
73
4
40
0
40
0
40
0
40
0
40
1
40
1
40
1
40
1
41
1
10
28.4021926360118
20
11.4308199631234
30
0
41
1
10
28.3974018359233
20
11.4261811296145
30
0
41
1
10
28.3926118327298
20
11.4215430677227
30
0
41
1
10
28.3878225878232
20
11.4169057400646
30
0
0
SPLINE
5
165
100
AcDbEntity
8
1
62
256
6
ByLayer
370
18
48
1
60
0
100
AcDbSpline
70
4
71
3
72
20
73
16
40
0
40
0
40
0
40
0
40
0.125
40
0.125
40
0.25
40
0.25
40
0.5
40
0.5
40
0.625
40
0.625
40
0.75
40
0.75
40
0.875
40
0.875
40
1
40
1
40
1
40
1
41
1
10
27.9796006322415
20
11.8534119668937
30
0
41
1
10
27.9967048602616
20
11.8710765235017
30
0
41
1
10
28.007473553202
20
11.8943609794798
30
0
41
1
10
28.0219749124911
20
11.9441420382397
30
0
41
1
10
28.0255486232666
20
11.9707459813222
30
0
41
1
10
28.028827763812
20
12.0518957358748
30
0
41
1
10
28.0212717526788
20
12.1077886545729
30
0
41
1
10
27.9994897178906
20
12.1887927955194
30
0
41
1
10
27.990549035348
20
12.2149087239968
30
0
41
1
10
27.9692100232412
20
12.2653445454827
30
0
41
1
10
27.9566724560212
20
12.2899179611722
30
0
41
1
10
27.9278548447786
20
12.3354781126656
30
0
41
1
10
27.9116194098512
20
12.3565718737254
30
0
41
1
10
27.8741458826697
20
12.3925426087075
30
0
41
1
10
27.8530455069432
20
12.407451996028
30
0
41
1
10
27.829333377601
20
12.4142169959259
30
0
0
SPLINE
5
166
100
AcDbEntity
8
1
62
256
6
ByLayer
370
18
48
1
60
0
100
AcDbSpline
70
4
71
3
72
10
73
6
40
0
40
0
40
0
40
0
40
0.375000000000405
40
0.750000000000811
40
1
40
1
40
1
40
1
41
1
10
26.9600287987347
20
10.4112481296326
30
0
41
1
10
27.0951381771312
20
10.2761387512341
30
0
41
1
10
27.3879487617763
20
10.0285161924998
30
0
41
1
10
27.8257015666616
20
9.76919766941646
30
0
41
1
10
28.1162801333829
20
9.64812438143201
30
0
41
1
10
28.2343408092308
20
9.60652444820113
30
0
0
SPLINE
5
167
100
AcDbEntity
8
1
62
256
6
ByLayer
370
18
48
1
60
0
100
AcDbSpline
70
4
71
3
72
17
73
13
40
0
40
0
40
0
40
0
40
0.0625
40
0.125
40
0.25
40
0.375
40
0.5
40
0.625
40
0.75
40
0.875
40
0.9375
40
1
40
1
40
1
40
1
41
1
10
23.1691341728294
20
11.8529437251523
30
0
41
1
10
23.1506221606289
20
11.8714557373528
30
0
41
1
10
23.1154174851027
20
11.9102988684471
30
0
41
1
10
23.052957672601
20
11.9945101257452
30
0
41
1
10
22.9909516936897
20
12.1105087192937
30
0
41
1
10
22.9451336075258
20
12.2615505818332
30
0
41
1
10
22.9296626351215
20
12.4186289529823
30
0
41
1
10
22.9451336971891
20
12.5757070623613
30
0
41
1
10
22.9909507298487
20
12.7267498333745
30
0
41
1
10
23.0529576212858
20
12.8427480635659
30
0
41
1
10
23.1154170385494
20
12.9269596934114
30
0
41
1
10
23.150622160629
20
12.9658025628502
30
0
41
1
10
23.1691341728296
20
12.9843145750508
30
0
0
SPLINE
5
168
100
AcDbEntity
8
1
62
256
6
ByLayer
370
18
48
1
60
0
100
AcDbSpline
70
4
71
3
72
8
73
4
40
0
40
0
40
0
40
0
40
1
40
1
40
1
40
1
41
1
10
23.1691342134872
20
12.984314575048
30
0
41
1
10
24.0412325769516
20
13.8564129385125
30
0
41
1
10
24.9133309403925
20
14.7285113019534
30
0
41
1
10
25.7854293038801
20
15.600609665441
30
0
0
SPLINE
5
169
100
AcDbEntity
8
1
62
256
6
ByLayer
370
18
48
1
60
0
100
AcDbSpline
70
4
71
3
72
8
73
4
40
0
40
0
40
0
40
0
40
1
40
1
40
1
40
1
41
1
10
29.5330952441688
20
18.2169047558312
30
0
41
1
10
29.5888897725148
20
17.2215144545549
30
0
41
1
10
29.6446843008608
20
16.2261241532787
30
0
41
1
10
29.7004788292068
20
15.2307338520024
30
0
0
SPLINE
5
16A
100
AcDbEntity
8
1
62
256
6
ByLayer
370
18
48
1
60
0
100
AcDbSpline
70
4
71
3
72
8
73
4
40
0
40
0
40
0
40
0
40
1
40
1
40
1
40
1
41
1
10
32.149390334559
20
9.23664863476202
30
0
41
1
10
31.7578571696022
20
9.62818179971356
30
0
41
1
10
31.3663240046453
20
10.0197149646651
30
0
41
1
10
30.9747908396885
20
10.4112481296167
30
0
0
SPLINE
5
16B
100
AcDbEntity
8
1
62
256
6
ByLayer
370
18
48
1
60
0
100
AcDbSpline
70
4
71
3
72
10
73
6
40
0
40
0
40
0
40
0
40
0.375000000000406
40
0.750000000000812
40
1
40
1
40
1
40
1
41
1
10
30.9747908397044
20
14.4260101705704
30
0
41
1
10
30.839681461308
20
14.561119548969
30
0
41
1
10
30.5468708766629
20
14.8087421077032
30
0
41
1
10
30.1091180717776
20
15.0680606307865
30
0
41
1
10
29.8185395050563
20
15.189133918771
30
0
41
1
10
29.7004788292083
20
15.2307338520019
30
0
0
SPLINE
5
16C
100
AcDbEntity
8
1
62
256
6
ByLayer
370
18
48
1
60
0
100
AcDbSpline
70
4
71
3
72
10
73
6
40
0
40
0
40
0
40
0
40
0.249999999999985
40
0.624999999999992
40
1
40
1
40
1
40
1
41
1
10
26.1553051173189
20
11.6855601401302
30
0
41
1
10
26.1969050505479
20
11.5674994642808
30
0
41
1
10
26.3179783385265
20
11.2769208975556
30
0
41
1
10
26.5772968616179
20
10.8391680926755
30
0
41
1
10
26.8249194203445
20
10.5463575080221
30
0
41
1
10
26.9600287987427
20
10.4112481296246
30
0
0
SPLINE
5
16D
100
AcDbEntity
8
1
62
256
6
ByLayer
370
18
48
1
60
0
100
AcDbSpline
70
4
71
3
72
8
73
4
40
0
40
0
40
0
40
0
40
1
40
1
40
1
40
1
41
1
10
34.7656854249519
20
12.984314575048
30
0
41
1
10
33.7702951236747
20
13.0401091033896
30
0
41
1
10
32.7749048223975
20
13.0959036317312
30
0
41
1
10
31.7795145211203
20
13.1516981600728
30
0
0
SPLINE
5
16E
100
AcDbEntity
8
1
62
256
6
ByLayer
370
18
48
1
60
0
100
AcDbSpline
70
4
71
3
72
8
73
4
40
0
40
0
40
0
40
0
40
1
40
1
40
1
40
1
41
1
10
25.7854293038801
20
9.23664863476205
30
0
41
1
10
26.1769624688343
20
9.62818179971626
30
0
41
1
10
26.5684956337885
20
10.0197149646704
30
0
41
1
10
26.9600287987427
20
10.4112481296246
30
0
0
SPLINE
5
16F
100
AcDbEntity
8
1
62
256
6
ByLayer
370
18
48
1
60
0
100
AcDbSpline
70
4
71
3
72
8
73
4
40
0
40
0
40
0
40
0
40
1
40
1
40
1
40
1
41
1
10
23.1691342134872
20
11.852943725155
30
0
41
1
10
24.1645245147644
20
11.7971491968134
30
0
41
1
10
25.1599148160416
20
11.7413546684718
30
0
41
1
10
26.1553051173189
20
11.6855601401302
30
0
0
SPLINE
5
170
100
AcDbEntity
8
1
62
256
6
ByLayer
370
18
48
1
60
0
100
AcDbSpline
70
4
71
3
72
17
73
13
40
0
40
0
40
0
40
0
40
0.0625
40
0.125
40
0.25
40
0.375
40
0.5
40
0.625
40
0.75
40
0.875
40
0.9375
40
1
40
1
40
1
40
1
41
1
10
34.7656854656097
20
12.9843145750507
30
0
41
1
10
34.7841974778102
20
12.9658025628503
30
0
41
1
10
34.8194021533364
20
12.9269594317559
30
0
41
1
10
34.8818619658381
20
12.8427481744578
30
0
41
1
10
34.9438679447494
20
12.7267495809093
30
0
41
1
10
34.9896860309134
20
12.5757077183698
30
0
41
1
10
35.0051570033176
20
12.4186293472207
30
0
41
1
10
34.9896859412501
20
12.2615512378417
30
0
41
1
10
34.9438689085905
20
12.1105084668285
30
0
41
1
10
34.8818620171534
20
11.9945102366371
30
0
41
1
10
34.8194025998898
20
11.9102986067917
30
0
41
1
10
34.7841974778102
20
11.8714557373528
30
0
41
1
10
34.7656854656096
20
11.8529437251522
30
0
0
SPLINE
5
171
100
AcDbEntity
8
1
62
256
6
ByLayer
370
18
48
1
60
0
100
AcDbSpline
70
4
71
3
72
8
73
4
40
0
40
0
40
0
40
0
40
1
40
1
40
1
40
1
41
1
10
29.5330952441661
20
18.2169047558339
30
0
41
1
10
30.4051936076305
20
17.3448063923695
30
0
41
1
10
31.2772919710715
20
16.4727080289285
30
0
41
1
10
32.149390334559
20
15.600609665441
30
0
0
SPLINE
5
172
100
AcDbEntity
8
1
62
256
6
ByLayer
370
18
48
1
60
0
100
AcDbSpline
70
4
71
3
72
8
73
4
40
0
40
0
40
0
40
0
40
1
40
1
40
1
40
1
41
1
10
25.7854293038801
20
9.23664863476205
30
0
41
1
10
24.9133309403925
20
10.1087469982496
30
0
41
1
10
24.0412325769516
20
10.9808453616906
30
0
41
1
10
23.1691342134872
20
11.852943725155
30
0
0
SPLINE
5
173
100
AcDbEntity
8
1
62
256
6
ByLayer
370
18
48
1
60
0
100
AcDbSpline
70
4
71
3
72
8
73
4
40
0
40
0
40
0
40
0
40
1
40
1
40
1
40
1
41
1
10
25.7854293038801
20
15.600609665441
30
0
41
1
10
26.6575276673677
20
16.4727080289285
30
0
41
1
10
27.5296260308086
20
17.3448063923695
30
0
41
1
10
28.4017243942731
20
18.2169047558339
30
0
0
SPLINE
5
174
100
AcDbEntity
8
1
62
256
6
ByLayer
370
18
48
1
60
0
100
AcDbSpline
70
4
71
3
72
8
73
4
40
0
40
0
40
0
40
0
40
1
40
1
40
1
40
1
41
1
10
23.1691342134899
20
12.9843145750508
30
0
41
1
10
24.1645245147661
20
13.0401091033967
30
0
41
1
10
25.1599148160424
20
13.0959036317427
30
0
41
1
10
26.1553051173187
20
13.1516981600887
30
0
0
SPLINE
5
175
100
AcDbEntity
8
1
62
256
6
ByLayer
370
18
48
1
60
0
100
AcDbSpline
70
4
71
3
72
8
73
4
40
0
40
0
40
0
40
0
40
1
40
1
40
1
40
1
41
1
10
30.9747908397044
20
14.4260101705704
30
0
41
1
10
31.366324004656
20
14.8175433355273
30
0
41
1
10
31.7578571696075
20
15.2090765004841
30
0
41
1
10
32.149390334559
20
15.600609665441
30
0
0
SPLINE
5
176
100
AcDbEntity
8
1
62
256
6
ByLayer
370
18
48
1
60
0
100
AcDbSpline
70
4
71
3
72
8
73
4
40
0
40
0
40
0
40
0
40
1
40
1
40
1
40
1
41
1
10
32.149390334559
20
15.600609665441
30
0
41
1
10
33.0214886980466
20
14.7285113019534
30
0
41
1
10
33.8935870614876
20
13.8564129385124
30
0
41
1
10
34.7656854249519
20
12.984314575048
30
0
0
SPLINE
5
177
100
AcDbEntity
8
1
62
256
6
ByLayer
370
18
48
1
60
0
100
AcDbSpline
70
4
71
3
72
10
73
6
40
0
40
0
40
0
40
0
40
0.375000000000406
40
0.750000000000812
40
1
40
1
40
1
40
1
41
1
10
26.9600287987507
20
14.4260101705864
30
0
41
1
10
26.8249194203521
20
14.2909007921899
30
0
41
1
10
26.5772968616179
20
13.9980902075448
30
0
41
1
10
26.3179783385345
20
13.5603374026595
30
0
41
1
10
26.1969050505501
20
13.2697588359382
30
0
41
1
10
26.1553051173192
20
13.1516981600902
30
0
0
SPLINE
5
178
100
AcDbEntity
8
1
62
256
6
ByLayer
370
18
48
1
60
0
100
AcDbSpline
70
4
71
3
72
10
73
6
40
0
40
0
40
0
40
0
40
0.375000000000406
40
0.750000000000812
40
1
40
1
40
1
40
1
41
1
10
30.9747908396885
20
10.4112481296166
30
0
41
1
10
31.109900218087
20
10.5463575080131
30
0
41
1
10
31.3575227768213
20
10.8391680926582
30
0
41
1
10
31.6168412999046
20
11.2769208975435
30
0
41
1
10
31.7379145878891
20
11.5674994642648
30
0
41
1
10
31.77951452112
20
11.6855601401128
30
0
0
SPLINE
5
179
100
AcDbEntity
8
1
62
256
6
ByLayer
370
18
48
1
60
0
100
AcDbSpline
70
4
71
3
72
8
73
4
40
0
40
0
40
0
40
0
40
1
40
1
40
1
40
1
41
1
10
34.7656854249492
20
11.8529437251522
30
0
41
1
10
33.770295123673
20
11.7971491968063
30
0
41
1
10
32.7749048223967
20
11.7413546684603
30
0
41
1
10
31.7795145211205
20
11.6855601401143
30
0
0
SPLINE
5
17A
100
AcDbEntity
8
1
62
256
6
ByLayer
370
18
48
1
60
0
100
AcDbSpline
70
4
71
3
72
10
73
6
40
0
40
0
40
0
40
0
40
0.249999999999984
40
0.624999999999992
40
1
40
1
40
1
40
1
41
1
10
28.2343408092482
20
15.2307338520023
30
0
41
1
10
28.1162801333988
20
15.1891339187732
30
0
41
1
10
27.8257015666736
20
15.0680606307946
30
0
41
1
10
27.3879487617936
20
14.8087421077032
30
0
41
1
10
27.0951381771402
20
14.5611195489765
30
0
41
1
10
26.9600287987427
20
14.4260101705784
30
0
0
SPLINE
5
17B
100
AcDbEntity
8
1
62
256
6
ByLayer
370
18
48
1
60
0
100
AcDbSpline
70
4
71
3
72
29
73
25
40
0
40
0
40
0
40
0
40
0.125000000000944
40
0.171875000000893
40
0.218750000000841
40
0.242187500000815
40
0.265625000000789
40
0.277343750000776
40
0.289062500000763
40
0.312500000000737
40
0.359375000000686
40
0.406250000000634
40
0.50000000000053
40
0.593750000000427
40
0.640625000000375
40
0.687500000000323
40
0.710937500000298
40
0.722656250000285
40
0.734375000000272
40
0.757812500000246
40
0.78125000000022
40
0.828125000000168
40
0.875000000000116
40
1
40
1
40
1
40
1
41
1
10
28.2343408092308
20
9.60652444820113
30
0
41
1
10
28.2933711471556
20
9.58572448158543
30
0
41
1
10
28.3751666662006
20
9.55947212753867
30
0
41
1
10
28.4801033556834
20
9.53024932773283
30
0
41
1
10
28.5365307272552
20
9.51581961983362
30
0
41
1
10
28.5817889324311
20
9.50502070978195
30
0
41
1
10
28.610113485037
20
9.49857560633328
30
0
41
1
10
28.6327848973683
20
9.49359338078915
30
0
41
1
10
28.6555370937122
20
9.48880120673491
30
0
41
1
10
28.6956634567021
20
9.48103761398306
30
0
41
1
10
28.7537557052449
20
9.47174896432597
30
0
41
1
10
28.847989871931
20
9.46098371812852
30
0
41
1
10
28.9674098059444
20
9.45551364318627
30
0
41
1
10
29.0868297350678
20
9.46098375834143
30
0
41
1
10
29.1810638945754
20
9.47174901745103
30
0
41
1
10
29.2391561581423
20
9.48103764097743
30
0
41
1
10
29.2792825413076
20
9.4888012101639
30
0
41
1
10
29.3020347416418
20
9.49359338019238
30
0
41
1
10
29.3247061531604
20
9.49857560657497
30
0
41
1
10
29.3530307057389
20
9.50502071004811
30
0
41
1
10
29.3982889112937
20
9.51581961970504
30
0
41
1
10
29.4547162827389
20
9.53024932773573
30
0
41
1
10
29.5596529722212
20
9.55947212754083
30
0
41
1
10
29.6414484912662
20
9.58572448158623
30
0
41
1
10
29.7004788291909
20
9.60652444820076
30
0
0
SPLINE
5
17C
100
AcDbEntity
8
1
62
256
6
ByLayer
370
18
48
1
60
0
100
AcDbSpline
70
4
71
3
72
29
73
25
40
0
40
0
40
0
40
0
40
0.125000000000946
40
0.171875000000894
40
0.218750000000842
40
0.242187500000817
40
0.265625000000791
40
0.277343750000778
40
0.289062500000765
40
0.312500000000739
40
0.359375000000687
40
0.406250000000635
40
0.500000000000532
40
0.593750000000428
40
0.640625000000376
40
0.687500000000324
40
0.710937500000298
40
0.722656250000285
40
0.734375000000272
40
0.757812500000247
40
0.781250000000221
40
0.828125000000169
40
0.875000000000117
40
1
40
1
40
1
40
1
41
1
10
26.1553051173192
20
13.1516981600902
30
0
41
1
10
26.1345051507035
20
13.0926678221655
30
0
41
1
10
26.1082527966567
20
13.0108723031205
30
0
41
1
10
26.0790299968509
20
12.9059356136376
30
0
41
1
10
26.0646002889517
20
12.8495082420659
30
0
41
1
10
26.0538013789
20
12.8042500368899
30
0
41
1
10
26.0473562754514
20
12.7759254842841
30
0
41
1
10
26.0423740499072
20
12.7532540719528
30
0
41
1
10
26.0375818758529
20
12.7305018756088
30
0
41
1
10
26.0298182831011
20
12.6903755126191
30
0
41
1
10
26.020529633444
20
12.6322832640762
30
0
41
1
10
26.0097643872466
20
12.5380490973901
30
0
41
1
10
26.0042943123043
20
12.4186291633766
30
0
41
1
10
26.0097644274595
20
12.2992092342533
30
0
41
1
10
26.0205296865691
20
12.2049750747457
30
0
41
1
10
26.0298183100955
20
12.1468828111788
30
0
41
1
10
26.037581879282
20
12.1067564280135
30
0
41
1
10
26.0423740493104
20
12.0840042276793
30
0
41
1
10
26.0473562756931
20
12.0613328161606
30
0
41
1
10
26.0538013791662
20
12.0330082635822
30
0
41
1
10
26.0646002888231
20
11.9877500580274
30
0
41
1
10
26.0790299968538
20
11.9313226865821
30
0
41
1
10
26.1082527966589
20
11.8263859970999
30
0
41
1
10
26.1345051507043
20
11.7445904780549
30
0
41
1
10
26.1553051173188
20
11.6855601401302
30
0
0
SPLINE
5
17D
100
AcDbEntity
8
1
62
256
6
ByLayer
370
18
48
1
60
0
100
AcDbSpline
70
4
71
3
72
29
73
25
40
0
40
0
40
0
40
0
40
0.125000000000945
40
0.171875000000894
40
0.218750000000842
40
0.242187500000816
40
0.26562500000079
40
0.277343750000777
40
0.289062500000764
40
0.312500000000738
40
0.359375000000687
40
0.406250000000635
40
0.500000000000531
40
0.593750000000427
40
0.640625000000376
40
0.687500000000324
40
0.710937500000298
40
0.722656250000285
40
0.734375000000272
40
0.757812500000246
40
0.78125000000022
40
0.828125000000168
40
0.875000000000117
40
1
40
1
40
1
40
1
41
1
10
29.7004788292083
20
15.2307338520019
30
0
41
1
10
29.6414484912835
20
15.2515338186176
30
0
41
1
10
29.5596529722385
20
15.2777861726643
30
0
41
1
10
29.4547162827557
20
15.3070089724702
30
0
41
1
10
29.3982889111839
20
15.3214386803694
30
0
41
1
10
29.353030706008
20
15.3322375904211
30
0
41
1
10
29.3247061534022
20
15.3386826938697
30
0
41
1
10
29.3020347410709
20
15.3436649194138
30
0
41
1
10
29.2792825447269
20
15.3484570934681
30
0
41
1
10
29.2391561817371
20
15.35622068622
30
0
41
1
10
29.1810639331942
20
15.3655093358771
30
0
41
1
10
29.0868297665082
20
15.3762745820745
30
0
41
1
10
28.9674098324947
20
15.3817446570167
30
0
41
1
10
28.8479899033713
20
15.3762745418616
30
0
41
1
10
28.7537557438637
20
15.365509282752
30
0
41
1
10
28.6956634802968
20
15.3562206592256
30
0
41
1
10
28.6555370971315
20
15.3484570900391
30
0
41
1
10
28.6327848967974
20
15.3436649200106
30
0
41
1
10
28.6101134852786
20
15.338682693628
30
0
41
1
10
28.5817889327002
20
15.3322375901549
30
0
41
1
10
28.5365307271455
20
15.321438680498
30
0
41
1
10
28.4801033557002
20
15.3070089724673
30
0
41
1
10
28.375166666218
20
15.2777861726622
30
0
41
1
10
28.2933711471729
20
15.2515338186168
30
0
41
1
10
28.2343408092482
20
15.2307338520023
30
0
0
SPLINE
5
17E
100
AcDbEntity
8
1
62
256
6
ByLayer
370
18
48
1
60
0
100
AcDbSpline
70
4
71
3
72
8
73
4
40
0
40
0
40
0
40
0
40
1
40
1
40
1
40
1
41
1
10
25.7854293038801
20
15.600609665441
30
0
41
1
10
26.176962468837
20
15.2090765004894
30
0
41
1
10
26.5684956337938
20
14.8175433355379
30
0
41
1
10
26.9600287987507
20
14.4260101705864
30
0
0
SPLINE
5
17F
100
AcDbEntity
8
1
62
256
6
ByLayer
370
18
48
1
60
0
100
AcDbSpline
70
4
71
3
72
29
73
25
40
0
40
0
40
0
40
0
40
0.125000000000945
40
0.171875000000893
40
0.218750000000841
40
0.242187500000815
40
0.26562500000079
40
0.277343750000777
40
0.289062500000764
40
0.312500000000738
40
0.359375000000686
40
0.406250000000634
40
0.50000000000053
40
0.593750000000427
40
0.640625000000375
40
0.687500000000323
40
0.710937500000297
40
0.722656250000284
40
0.734375000000271
40
0.757812500000245
40
0.781250000000219
40
0.828125000000168
40
0.875000000000116
40
1
40
1
40
1
40
1
41
1
10
31.77951452112
20
11.6855601401128
30
0
41
1
10
31.8003144877357
20
11.7445904780375
30
0
41
1
10
31.8265668417824
20
11.8263859970826
30
0
41
1
10
31.8557896415883
20
11.9313226865654
30
0
41
1
10
31.8702193494875
20
11.9877500581372
30
0
41
1
10
31.8810182595391
20
12.0330082633131
30
0
41
1
10
31.8874633629878
20
12.0613328159189
30
0
41
1
10
31.8924455885319
20
12.0840042282502
30
0
41
1
10
31.8972377625862
20
12.1067564245942
30
0
41
1
10
31.905001355338
20
12.146882787584
30
0
41
1
10
31.9142900049951
20
12.2049750361268
30
0
41
1
10
31.9250552511925
20
12.2992092028129
30
0
41
1
10
31.9305253261348
20
12.4186291368264
30
0
41
1
10
31.9250552109797
20
12.5380490659497
30
0
41
1
10
31.9142899518701
20
12.6322832254573
30
0
41
1
10
31.9050013283436
20
12.6903754890242
30
0
41
1
10
31.8972377591572
20
12.7305018721895
30
0
41
1
10
31.8924455891287
20
12.7532540725237
30
0
41
1
10
31.8874633627461
20
12.7759254840424
30
0
41
1
10
31.8810182592729
20
12.8042500366208
30
0
41
1
10
31.870219349616
20
12.8495082421756
30
0
41
1
10
31.8557896415853
20
12.9059356136208
30
0
41
1
10
31.8265668417802
20
13.0108723031031
30
0
41
1
10
31.8003144877348
20
13.0926678221481
30
0
41
1
10
31.7795145211204
20
13.1516981600728
30
0
0
SPLINE
5
180
100
AcDbEntity
8
1
62
256
6
ByLayer
370
18
48
1
60
0
100
AcDbSpline
70
4
71
3
72
10
73
6
40
0
40
0
40
0
40
0
40
0.249999999999984
40
0.624999999999992
40
1
40
1
40
1
40
1
41
1
10
31.7795145211203
20
13.1516981600728
30
0
41
1
10
31.7379145878913
20
13.2697588359223
30
0
41
1
10
31.6168412999127
20
13.5603374026475
30
0
41
1
10
31.3575227768213
20
13.9980902075275
30
0
41
1
10
31.1099002180946
20
14.2909007921809
30
0
41
1
10
30.9747908396965
20
14.4260101705784
30
0
0
SPLINE
5
181
100
AcDbEntity
8
1
62
256
6
ByLayer
370
18
48
1
60
0
100
AcDbSpline
70
4
71
3
72
10
73
6
40
0
40
0
40
0
40
0
40
0.249999999999985
40
0.624999999999992
40
1
40
1
40
1
40
1
41
1
10
29.7004788291909
20
9.60652444820076
30
0
41
1
10
29.8185395050403
20
9.6481243814298
30
0
41
1
10
30.1091180717655
20
9.76919766940841
30
0
41
1
10
30.5468708766455
20
10.0285161924998
30
0
41
1
10
30.8396814612989
20
10.2761387512264
30
0
41
1
10
30.9747908396964
20
10.4112481296246
30
0
0
SPLINE
5
182
100
AcDbEntity
8
1
62
256
6
ByLayer
370
18
48
1
60
0
100
AcDbSpline
70
4
71
3
72
17
73
13
40
0
40
0
40
0
40
0
40
0.0625
40
0.125
40
0.25
40
0.375
40
0.5
40
0.625
40
0.75
40
0.875
40
0.9375
40
1
40
1
40
1
40
1
41
1
10
28.4017243942703
20
18.2169047964917
30
0
41
1
10
28.4202364064708
20
18.2354168086922
30
0
41
1
10
28.4590795375652
20
18.2706214842183
30
0
41
1
10
28.5432907948633
20
18.33308129672
30
0
41
1
10
28.6592893884118
20
18.3950872756313
30
0
41
1
10
28.8103312509512
20
18.4409053617954
30
0
41
1
10
28.9674096221003
20
18.4563763341995
30
0
41
1
10
29.1244877314793
20
18.440905272132
30
0
41
1
10
29.2755305024925
20
18.3950882394724
30
0
41
1
10
29.3915287326839
20
18.3330813480353
30
0
41
1
10
29.4757403625294
20
18.2706219307717
30
0
41
1
10
29.5145832319683
20
18.2354168086921
30
0
41
1
10
29.5330952441688
20
18.2169047964916
30
0
0
SPLINE
5
183
100
AcDbEntity
8
1
62
256
6
ByLayer
370
18
48
1
60
0
100
AcDbSpline
70
4
71
3
72
8
73
4
40
0
40
0
40
0
40
0
40
1
40
1
40
1
40
1
41
1
10
28.4017243942731
20
18.2169047558339
30
0
41
1
10
28.3459298659314
20
17.2215144545567
30
0
41
1
10
28.2901353375898
20
16.2261241532795
30
0
41
1
10
28.2343408092482
20
15.2307338520022
30
0
0
SPLINE
5
184
100
AcDbEntity
8
1
62
256
6
ByLayer
370
18
48
1
60
0
100
AcDbSpline
70
4
71
3
72
8
73
4
40
0
40
0
40
0
40
0
40
1
40
1
40
1
40
1
41
1
10
34.7656854249519
20
11.8529437251549
30
0
41
1
10
33.8935870614876
20
10.9808453616905
30
0
41
1
10
33.0214886980466
20
10.1087469982496
30
0
41
1
10
32.149390334559
20
9.23664863476202
30
0
0
SPLINE
5
185
100
AcDbEntity
8
1
62
256
6
ByLayer
370
18
48
1
60
0
100
AcDbSpline
70
4
71
3
72
8
73
4
40
0
40
0
40
0
40
0
40
1
40
1
40
1
40
1
41
1
10
34.5499994283275
20
-0.864944378920939
30
0
41
1
10
34.6218947605335
20
-0.57662958594787
30
0
41
1
10
34.6937900927394
20
-0.288314792974802
30
0
41
1
10
34.7656854249455
20
-1.7621E-12
30
0
0
SPLINE
5
186
100
AcDbEntity
8
1
62
256
6
ByLayer
370
18
48
1
60
0
100
AcDbSpline
70
4
71
3
72
8
73
4
40
0
40
0
40
0
40
0
40
1
40
1
40
1
40
1
41
1
10
26.0490210342369
20
8.97305690440521
30
0
41
1
10
25.9611571241184
20
9.06092081452371
30
0
41
1
10
25.8732932139995
20
9.14878472464264
30
0
41
1
10
25.7854293038801
20
9.23664863476205
30
0
0
SPLINE
5
187
100
AcDbEntity
8
1
62
256
6
ByLayer
370
18
48
1
60
0
100
AcDbSpline
70
4
71
3
72
8
73
4
40
0
40
0
40
0
40
0
40
1
40
1
40
1
40
1
41
1
10
28.3226513316001
20
8.03103953827508
30
0
41
1
10
28.2932144908109
20
8.55620117491694
30
0
41
1
10
28.2637776500217
20
9.08136281155876
30
0
41
1
10
28.2343408092324
20
9.60652444820062
30
0
0
SPLINE
5
188
100
AcDbEntity
8
1
62
256
6
ByLayer
370
18
48
1
60
0
100
AcDbSpline
70
4
71
3
72
8
73
4
40
0
40
0
40
0
40
0
40
1
40
1
40
1
40
1
41
1
10
32.149390334559
20
9.23664863476202
30
0
41
1
10
31.9311340483687
20
9.01839234857167
30
0
41
1
10
31.7128777621813
20
8.80013606238418
30
0
41
1
10
31.4946214759956
20
8.58187977619855
30
0
0
SPLINE
5
189
100
AcDbEntity
8
1
62
256
6
ByLayer
370
18
48
1
60
0
100
AcDbSpline
70
4
71
3
72
8
73
4
40
0
40
0
40
0
40
0
40
1
40
1
40
1
40
1
41
1
10
29.6110436888448
20
8.01097603261437
30
0
41
1
10
29.6408554022935
20
8.5428255044765
30
0
41
1
10
29.6706671157422
20
9.07467497633863
30
0
41
1
10
29.7004788291908
20
9.60652444820076
30
0
0
SPLINE
5
18A
100
AcDbEntity
8
1
62
256
6
ByLayer
370
18
48
1
60
0
100
AcDbSpline
70
4
71
3
72
13
73
9
40
0
40
0
40
0
40
0
40
0.0012791825452506
40
0.250959386908938
40
0.500639591272625
40
0.750319795636313
40
0.875159897818156
40
1
40
1
40
1
40
1
41
1
10
34.1746043806697
20
3.31000000000003
30
0
41
1
10
34.1746053807697
20
3.31000000000003
30
0
41
1
10
34.17463166616
20
3.31
30
0
41
1
10
34.1642748223085
20
3.31
30
0
41
1
10
34.1184201149411
20
3.30999999999997
30
0
41
1
10
34.0564280987918
20
3.30999999999997
30
0
41
1
10
33.9939964544922
20
3.30999999999997
30
0
41
1
10
33.9588019759736
20
3.30999999999997
30
0
41
1
10
33.9402905600229
20
3.31000000000014
30
0
0
SPLINE
5
18B
100
AcDbEntity
8
1
62
256
6
ByLayer
370
18
48
1
60
0
100
AcDbSpline
70
4
71
3
72
12
73
8
40
0
40
0
40
0
40
0
40
0.125193384459615
40
0.250386768919229
40
0.500773537838458
40
0.751160306757688
40
1
40
1
40
1
40
1
41
1
10
23.9945290784163
20
3.31000000000014
30
0
41
1
10
23.9760176624655
20
3.31000000000029
30
0
41
1
10
23.9408224649965
20
3.31000000000026
30
0
41
1
10
23.8783915137245
20
3.3100000000002
30
0
41
1
10
23.816398109395
20
3.31000000000014
30
0
41
1
10
23.7706395595049
20
3.31000000000006
30
0
41
1
10
23.7602785600153
20
3.31000000000006
30
0
41
1
10
23.7602150784166
20
3.31000000000006
30
0
0
SPLINE
5
18C
100
AcDbEntity
8
1
62
256
6
ByLayer
370
18
48
1
60
0
100
AcDbSpline
70
4
71
3
72
19
73
15
40
0
40
0
40
0
40
0
40
0.0011162355393004
40
0.188406941375673
40
0.28205229429386
40
0.375697647212046
40
0.422520323671139
40
0.445931661900686
40
0.469343000130232
40
0.516165676589325
40
0.562988353048419
40
0.656633705966605
40
0.750279058884791
40
1
40
1
40
1
40
1
41
1
10
31.9283366327509
20
-0.199999999999968
30
0
41
1
10
31.9283376328509
20
-0.200000000000075
30
0
41
1
10
31.9283503206279
20
-0.200000000000102
30
0
41
1
10
31.9250552109797
20
-0.200000000000102
30
0
41
1
10
31.9142899518701
20
-0.200000000000074
30
0
41
1
10
31.9050013283436
20
-0.200000000000074
30
0
41
1
10
31.8972377591572
20
-0.200000000000074
30
0
41
1
10
31.8924455891287
20
-0.200000000000074
30
0
41
1
10
31.8874633627461
20
-0.200000000000074
30
0
41
1
10
31.8810182592729
20
-0.200000000000074
30
0
41
1
10
31.870219349616
20
-0.200000000000074
30
0
41
1
10
31.8557896415853
20
-0.200000000000074
30
0
41
1
10
31.8265668417802
20
-0.200000000000074
30
0
41
1
10
31.8003144877348
20
-0.200000000000074
30
0
41
1
10
31.7795145211201
20
-0.200000000000074
30
0
0
SPLINE
5
18D
100
AcDbEntity
8
1
62
256
6
ByLayer
370
18
48
1
60
0
100
AcDbSpline
70
4
71
3
72
13
73
9
40
0
40
0
40
0
40
0
40
0.124828396197953
40
0.249656792395905
40
0.49931358479181
40
0.748970377187716
40
0.998627169583621
40
1
40
1
40
1
40
1
41
1
10
34.7656854656096
20
-1.630565123E-07
30
0
41
1
10
34.7841974778102
20
-1.630567397E-07
30
0
41
1
10
34.8194021533363
20
-1.630567112E-07
30
0
41
1
10
34.8818619658381
20
-1.630566828E-07
30
0
41
1
10
34.9438679447494
20
-1.63056626E-07
30
0
41
1
10
34.9896860309134
20
-1.630565691E-07
30
0
41
1
10
35.0000283701417
20
-1.630565123E-07
30
0
41
1
10
35.0000001855543
20
-1.630565123E-07
30
0
41
1
10
34.9999991854544
20
-1.630565123E-07
30
0
0
SPLINE
5
18E
100
AcDbEntity
8
1
62
256
6
ByLayer
370
18
48
1
60
0
100
AcDbSpline
70
4
71
3
72
19
73
15
40
0
40
0
40
0
40
0
40
0.249721112595742
40
0.343366529818333
40
0.437011947040924
40
0.48383465565222
40
0.530657364263515
40
0.554068718569163
40
0.577480072874811
40
0.624302781486106
40
0.717948198708697
40
0.811593615931288
40
0.998884450376471
40
1
40
1
40
1
40
1
41
1
10
26.155305117319
20
-0.200000000000074
30
0
41
1
10
26.1345051507035
20
-0.200000000000074
30
0
41
1
10
26.1082527966567
20
-0.200000000000074
30
0
41
1
10
26.0790299968509
20
-0.200000000000074
30
0
41
1
10
26.0646002889517
20
-0.200000000000074
30
0
41
1
10
26.0538013789
20
-0.200000000000074
30
0
41
1
10
26.0473562754513
20
-0.200000000000074
30
0
41
1
10
26.0423740499072
20
-0.200000000000074
30
0
41
1
10
26.0375818758529
20
-0.200000000000074
30
0
41
1
10
26.0298182831011
20
-0.200000000000074
30
0
41
1
10
26.020529633444
20
-0.200000000000074
30
0
41
1
10
26.0097643872466
20
-0.200000000000074
30
0
41
1
10
26.0064693098441
20
-0.200000000000074
30
0
41
1
10
26.0064820056367
20
-0.200000000000074
30
0
41
1
10
26.0064830057367
20
-0.199999999999968
30
0
0
SPLINE
5
18F
100
AcDbEntity
8
1
62
256
6
ByLayer
370
18
48
1
60
0
100
AcDbSpline
70
4
71
3
72
13
73
9
40
0
40
0
40
0
40
0
40
0.0013735523725228
40
0.251030164279392
40
0.500686776186261
40
0.750343388093131
40
0.875171694046565
40
1
40
1
40
1
40
1
41
1
10
22.9348204529023
20
-1.630565123E-07
30
0
41
1
10
22.9348194528023
20
-1.630565123E-07
30
0
41
1
10
22.9347912830872
20
-1.630565123E-07
30
0
41
1
10
22.9451336971891
20
-1.630564554E-07
30
0
41
1
10
22.9909507298487
20
-1.630563986E-07
30
0
41
1
10
23.0529576212858
20
-1.630563702E-07
30
0
41
1
10
23.1154170385493
20
-1.630563133E-07
30
0
41
1
10
23.150622160629
20
-1.630563133E-07
30
0
41
1
10
23.1691341728294
20
-1.630565123E-07
30
0
0
SPLINE
5
190
100
AcDbEntity
8
1
62
256
6
ByLayer
370
18
48
1
60
0
100
AcDbSpline
70
4
71
3
72
16
73
12
40
0
40
0
40
0
40
0
40
0.0401097797580785
40
0.177236954078353
40
0.314364128398627
40
0.451491302718902
40
0.588618477039176
40
0.725745651359451
40
0.862872825679725
40
0.931436412839863
40
1
40
1
40
1
40
1
41
1
10
23.0962524293856
20
-11.936723986135
30
0
41
1
10
23.0870266532994
20
-11.9489487182512
30
0
41
1
10
23.0478111910507
20
-12.0041379815108
30
0
41
1
10
22.9909516936897
20
-12.1105087192938
30
0
41
1
10
22.9451336075257
20
-12.2615505818332
30
0
41
1
10
22.9296626351215
20
-12.4186289529824
30
0
41
1
10
22.9451336971891
20
-12.5757070623613
30
0
41
1
10
22.9909507298487
20
-12.7267498333746
30
0
41
1
10
23.0529576212858
20
-12.8427480635659
30
0
41
1
10
23.1154170385493
20
-12.9269596934114
30
0
41
1
10
23.1506221606289
20
-12.9658025628503
30
0
41
1
10
23.1691341728295
20
-12.9843145750508
30
0
0
SPLINE
5
191
100
AcDbEntity
8
1
62
256
6
ByLayer
370
18
48
1
60
0
100
AcDbSpline
70
4
71
3
72
8
73
4
40
0
40
0
40
0
40
0
40
1
40
1
40
1
40
1
41
1
10
34.4459354249455
20
-11.8529437251491
30
0
41
1
10
34.5525187582787
20
-11.852943725149
30
0
41
1
10
34.6591020916121
20
-11.852943725149
30
0
41
1
10
34.7656854249455
20
-11.852943725149
30
0
0
SPLINE
5
192
100
AcDbEntity
8
1
62
256
6
ByLayer
370
18
48
1
60
0
100
AcDbSpline
70
4
71
3
72
8
73
4
40
0
40
0
40
0
40
0
40
1
40
1
40
1
40
1
41
1
10
34.7656854249519
20
-11.852943725155
30
0
41
1
10
34.6862019087012
20
-11.7734602089043
30
0
41
1
10
34.6067183924506
20
-11.6939766926537
30
0
41
1
10
34.5272348762002
20
-11.6144931764033
30
0
0
SPLINE
5
193
100
AcDbEntity
8
1
62
256
6
ByLayer
370
18
48
1
60
0
100
AcDbSpline
70
4
71
3
72
14
73
10
40
0
40
0
40
0
40
0
40
0.0061417644177298
40
0.204913411534184
40
0.403685058650638
40
0.602456705767092
40
0.801228352883546
40
0.900614176441773
40
1
40
1
40
1
40
1
41
1
10
34.158252719216
20
-12.2578079437879
30
0
41
1
10
34.158578303434
20
-12.2593926228672
30
0
41
1
10
34.1692802089804
20
-12.3122967973849
30
0
41
1
10
34.1797703939801
20
-12.4186293950449
30
0
41
1
10
34.1642748223085
20
-12.5757022021126
30
0
41
1
10
34.1184201149411
20
-12.7267263408013
30
0
41
1
10
34.0564280987918
20
-12.8427250205146
30
0
41
1
10
33.9939964544922
20
-12.926952705797
30
0
41
1
10
33.9588019759736
20
-12.9658031591015
30
0
41
1
10
33.9402905600229
20
-12.9843145750522
30
0
0
SPLINE
5
194
100
AcDbEntity
8
1
62
256
6
ByLayer
370
18
48
1
60
0
100
AcDbSpline
70
4
71
3
72
13
73
9
40
0
40
0
40
0
40
0
40
0.116876512317915
40
0.233753024635831
40
0.467506049271661
40
0.701259073907492
40
0.935012098543323
40
1
40
1
40
1
40
1
41
1
10
23.9945290784163
20
-12.9843145750522
30
0
41
1
10
23.9760176624655
20
-12.9658031591014
30
0
41
1
10
23.9408224649965
20
-12.9269531324284
30
0
41
1
10
23.8783915137245
20
-12.8427247911259
30
0
41
1
10
23.816398109395
20
-12.7267267664575
30
0
41
1
10
23.7705451215513
20
-12.5757011459518
30
0
41
1
10
23.7587784847691
20
-12.4564299362634
30
0
41
1
10
23.7606137041697
20
-12.3895159860204
30
0
41
1
10
23.7614099184468
20
-12.3749812285121
30
0
0
SPLINE
5
195
100
AcDbEntity
8
1
62
256
6
ByLayer
370
13
48
1
60
0
100
AcDbSpline
70
4
71
3
72
8
73
4
40
0
40
0
40
0
40
0
40
1
40
1
40
1
40
1
41
1
10
22.2867101711801
20
12.101890532741
30
0
41
1
10
22.3280778151574
20
12.0811772668106
30
0
41
1
10
22.3737424249825
20
12.0589956415741
30
0
41
1
10
22.4257737193973
20
12.035673700662
30
0
0
SPLINE
5
196
100
AcDbEntity
8
1
62
256
6
ByLayer
370
13
48
1
60
0
100
AcDbSpline
70
4
71
3
72
12
73
8
40
0
40
0
40
0
40
0
40
0.500000000000007
40
0.500000000000007
40
0.750000000000003
40
0.750000000000003
40
1
40
1
40
1
40
1
41
1
10
23.1586159617728
20
3.02696599100764
30
0
41
1
10
23.2002609228768
20
3.10109285419969
30
0
41
1
10
23.2513564205258
20
3.17132726436759
30
0
41
1
10
23.3328279625731
20
3.26455987456032
30
0
41
1
10
23.3608906652822
20
3.29379187482189
30
0
41
1
10
23.4183728950537
20
3.34843488047016
30
0
41
1
10
23.447882859126
20
3.37384063285919
30
0
41
1
10
23.4763226234824
20
3.39591441638763
30
0
0
SPLINE
5
197
100
AcDbEntity
8
1
62
256
6
ByLayer
370
13
48
1
60
0
100
AcDbSpline
70
4
71
3
72
22
73
18
40
0
40
0
40
0
40
0
40
0.25
40
0.25
40
0.3125
40
0.3125
40
0.375
40
0.375
40
0.500000000000001
40
0.500000000000001
40
0.625000000000001
40
0.625000000000001
40
0.687500000000001
40
0.687500000000001
40
0.75
40
0.75
40
1
40
1
40
1
40
1
41
1
10
17
20
-2.54030863319801
30
0
41
1
10
17.2437752469322
20
-3.26162006259747
30
0
41
1
10
17.540264257944
20
-3.93629421884117
30
0
41
1
10
17.9938026048909
20
-4.7200347484951
30
0
41
1
10
18.0886759341508
20
-4.87379014818634
30
0
41
1
10
18.2872609908588
20
-5.17523728662343
30
0
41
1
10
18.3912251980902
20
-5.32326214745302
30
0
41
1
10
18.7154743175919
20
-5.75583166430044
30
0
41
1
10
18.94581122767
20
-6.02600252591742
30
0
41
1
10
19.43536437247
20
-6.53275853804965
30
0
41
1
10
19.6945781253504
20
-6.76933994766779
30
0
41
1
10
20.105556657083
20
-7.10077328675561
30
0
41
1
10
20.2462437328326
20
-7.20734114199661
30
0
41
1
10
20.5351094245806
20
-7.41291004834721
30
0
41
1
10
20.6836601699846
20
-7.5121371437119
30
0
41
1
10
21.4403126217325
20
-7.98678044917844
30
0
41
1
10
22.0879141633931
20
-8.29775895603316
30
0
41
1
10
22.7759496926573
20
-8.55475880069858
30
0
0
SPLINE
5
198
100
AcDbEntity
8
1
62
256
6
ByLayer
370
13
48
1
60
0
100
AcDbSpline
70
4
71
3
72
18
73
14
40
0
40
0
40
0
40
0
40
0.124999999999996
40
0.124999999999996
40
0.249999999999992
40
0.249999999999992
40
0.374999999999988
40
0.374999999999988
40
0.499999999999984
40
0.499999999999984
40
0.749999999999992
40
0.749999999999992
40
1
40
1
40
1
40
1
41
1
10
34.5500000000003
20
-11.4717876359468
30
0
41
1
10
34.5500000000003
20
-11.494323381947
30
0
41
1
10
34.5487987594159
20
-11.5181648757687
30
0
41
1
10
34.5437693311405
20
-11.5669050105897
30
0
41
1
10
34.5399598277001
20
-11.591872596467
30
0
41
1
10
34.5295937380724
20
-11.642939082114
30
0
41
1
10
34.5230383000463
20
-11.669037859758
30
0
41
1
10
34.5069549457331
20
-11.7223717871425
30
0
41
1
10
34.4973367338844
20
-11.7497911268839
30
0
41
1
10
34.4647160796595
20
-11.831159289963
30
0
41
1
10
34.4378438565578
20
-11.8848965145493
30
0
41
1
10
34.3739558031496
20
-11.9914761565084
30
0
41
1
10
34.338181092743
20
-12.0422098694799
30
0
41
1
10
34.2996036573432
20
-12.0904041550589
30
0
0
SPLINE
5
199
100
AcDbEntity
8
1
62
256
6
ByLayer
370
13
48
1
60
0
100
AcDbSpline
70
4
71
3
72
22
73
18
40
0
40
0
40
0
40
0
40
0.125
40
0.125
40
0.25
40
0.25
40
0.375
40
0.375
40
0.5
40
0.5
40
0.625
40
0.625
40
0.75
40
0.75
40
0.875
40
0.875
40
1
40
1
40
1
40
1
41
1
10
33.7824679581902
20
3.60227805334887
30
0
41
1
10
33.7792980687239
20
3.61636478739615
30
0
41
1
10
33.7747179806808
20
3.62825708651653
30
0
41
1
10
33.7616553007607
20
3.64669204823619
30
0
41
1
10
33.7531867158856
20
3.65328883444539
30
0
41
1
10
33.7310297012783
20
3.660500959595
30
0
41
1
10
33.7172414736758
20
3.66110887827327
30
0
41
1
10
33.6833575800845
20
3.65482803797838
30
0
41
1
10
33.6636058110366
20
3.64801713925237
30
0
41
1
10
33.6187941330712
20
3.62611699262982
30
0
41
1
10
33.593470482498
20
3.61082914592933
30
0
41
1
10
33.539972841526
20
3.57154767430782
30
0
41
1
10
33.5122296824385
20
3.54790936450519
30
0
41
1
10
33.4569266286276
20
3.49270752443394
30
0
41
1
10
33.4292214250977
20
3.46095101528456
30
0
41
1
10
33.3767870826754
20
3.39004125749494
30
0
41
1
10
33.3524648254364
20
3.35149035739911
30
0
41
1
10
33.3308129123811
20
3.31
30
0
0
SPLINE
5
19A
100
AcDbEntity
8
1
62
256
6
ByLayer
370
13
48
1
60
0
100
AcDbSpline
70
4
71
3
72
8
73
4
40
0
40
0
40
0
40
0
40
1
40
1
40
1
40
1
41
1
10
34.2502619312381
20
7.89906532203304
30
0
41
1
10
33.4667925899898
20
8.17574096342821
30
0
41
1
10
32.6794970017924
20
8.45114085399189
30
0
41
1
10
31.8899551443022
20
8.72579179134993
30
0
0
SPLINE
5
19B
100
AcDbEntity
8
1
62
256
6
ByLayer
370
13
48
1
60
0
100
AcDbSpline
70
4
71
3
72
20
73
16
40
0
40
0
40
0
40
0
40
0.125000000000002
40
0.125000000000002
40
0.250000000000003
40
0.250000000000003
40
0.500000000000002
40
0.500000000000002
40
0.625000000000002
40
0.625000000000002
40
0.750000000000001
40
0.750000000000001
40
0.875000000000001
40
0.875000000000001
40
1
40
1
40
1
40
1
41
1
10
18.9750801075369
20
0.500000000000085
30
0
41
1
10
18.8808772582846
20
0.500000000000085
30
0
41
1
10
18.7857410777236
20
0.495341628762844
30
0
41
1
10
18.5972473868013
20
0.476512524349346
30
0
41
1
10
18.5042207515339
20
0.462435441935639
30
0
41
1
10
18.2288093163446
20
0.406182307458067
30
0
41
1
10
18.0500249445531
20
0.350245804939618
30
0
41
1
10
17.7901482119237
20
0.234581996456882
30
0
41
1
10
17.7053398627215
20
0.190758242558871
30
0
41
1
10
17.5434339649693
20
0.0940407997999557
30
0
41
1
10
17.4657782776505
20
0.0409180815845502
30
0
41
1
10
17.3175580801449
20
-0.0755740543947354
30
0
41
1
10
17.246536057191
20
-0.139421574243073
30
0
41
1
10
17.1147888637925
20
-0.276403336735569
30
0
41
1
10
17.0544753109633
20
-0.348968348077363
30
0
41
1
10
16.9999999999999
20
-0.42580477395623
30
0
0
SPLINE
5
19C
100
AcDbEntity
8
1
62
256
6
ByLayer
370
13
48
1
60
0
100
AcDbSpline
70
4
71
3
72
16
73
12
40
0
40
0
40
0
40
0
40
0.125
40
0.125
40
0.249999999999999
40
0.249999999999999
40
0.499999999999999
40
0.499999999999999
40
0.75
40
0.75
40
1
40
1
40
1
40
1
41
1
10
8.29999999999995
20
6.8124885321005
30
0
41
1
10
8.31907309481551
20
6.8124885321005
30
0
41
1
10
8.33792263291349
20
6.80831255382998
30
0
41
1
10
8.37164342852412
20
6.79418088410418
30
0
41
1
10
8.38678583896552
20
6.78426991393999
30
0
41
1
10
8.42615821964137
20
6.75065870126406
30
0
41
1
10
8.44534040524536
20
6.72285786718791
30
0
41
1
10
8.47417118866878
20
6.66521894689933
30
0
41
1
10
8.48410770971691
20
6.63447007849024
30
0
41
1
10
8.49697864169968
20
6.57250776548355
30
0
41
1
10
8.5
20
6.54106769583149
30
0
41
1
10
8.5
20
6.50922422413001
30
0
0
SPLINE
5
19D
100
AcDbEntity
8
1
62
256
6
ByLayer
370
13
48
1
60
0
100
AcDbSpline
70
4
71
3
72
20
73
16
40
0
40
0
40
0
40
0
40
0.249999999999998
40
0.249999999999998
40
0.374999999999998
40
0.374999999999998
40
0.499999999999999
40
0.499999999999999
40
0.624999999999999
40
0.624999999999999
40
0.749999999999999
40
0.749999999999999
40
0.875
40
0.875
40
1
40
1
40
1
40
1
41
1
10
32.1691343964008
20
-12.5919266025365
30
0
41
1
10
32.1875539373485
20
-12.6103461434842
30
0
41
1
10
32.1973939189398
20
-12.637120853825
30
0
41
1
10
32.1988806366111
20
-12.6891310849034
30
0
41
1
10
32.1971178876027
20
-12.7080471922464
30
0
41
1
10
32.1891142194483
20
-12.7490239622065
30
0
41
1
10
32.1827893562494
20
-12.7713092286473
30
0
41
1
10
32.1656093119325
20
-12.8182976211014
30
0
41
1
10
32.1549013903308
20
-12.8426987279825
30
0
41
1
10
32.1292155401808
20
-12.8933713651388
30
0
41
1
10
32.1140050057596
20
-12.9199912995696
30
0
41
1
10
32.0801733787913
20
-12.9732561571452
30
0
41
1
10
32.0616024999962
20
-12.9999098856737
30
0
41
1
10
32.0210864992499
20
-13.0532959490485
30
0
41
1
10
31.9990576565859
20
-13.0800832721664
30
0
41
1
10
31.9760387084376
20
-13.1059376957599
30
0
0
SPLINE
5
19E
100
AcDbEntity
8
1
62
256
6
ByLayer
370
13
48
1
60
0
100
AcDbSpline
70
4
71
3
72
20
73
16
40
0
40
0
40
0
40
0
40
0.124999999999999
40
0.124999999999999
40
0.249999999999998
40
0.249999999999998
40
0.374999999999997
40
0.374999999999997
40
0.499999999999996
40
0.499999999999996
40
0.624999999999994
40
0.624999999999994
40
0.749999999999993
40
0.749999999999993
40
1
40
1
40
1
40
1
41
1
10
32.1691343964008
20
7.81000000000003
30
0
41
1
10
32.1782458003276
20
7.77835337740601
30
0
41
1
10
32.1854057774713
20
7.74629391448366
30
0
41
1
10
32.1951785201265
20
7.68415037747741
30
0
41
1
10
32.1978907953494
20
7.65382454378607
30
0
41
1
10
32.1988784020659
20
7.59469052235463
30
0
41
1
10
32.197087775553
20
7.565784810949
30
0
41
1
10
32.1890231521205
20
7.51193484207118
30
0
41
1
10
32.1827782797771
20
7.48667676859213
30
0
41
1
10
32.1656474351246
20
7.43968463362978
30
0
41
1
10
32.1547032100258
20
7.41804016466693
30
0
41
1
10
32.1289652345329
20
7.38051658678049
30
0
41
1
10
32.1140865430981
20
7.36434036010633
30
0
41
1
10
32.0630133597263
20
7.3242003190397
30
0
41
1
10
32.0218013010749
20
7.31
30
0
41
1
10
31.9760387084376
20
7.31000000000003
30
0
0
SPLINE
5
19F
100
AcDbEntity
8
1
62
256
6
ByLayer
370
13
48
1
60
0
100
AcDbSpline
70
4
71
3
72
8
73
4
40
0
40
0
40
0
40
0
40
1
40
1
40
1
40
1
41
1
10
34.4444271909999
20
-0.499999999999943
30
0
41
1
10
34.1814004043998
20
-0.499999999999943
30
0
41
1
10
33.9184323688973
20
-0.499999999999943
30
0
41
1
10
33.6555728090001
20
-0.499999999999943
30
0
0
SPLINE
5
1A0
100
AcDbEntity
8
1
62
256
6
ByLayer
370
13
48
1
60
0
100
AcDbSpline
70
4
71
3
72
14
73
10
40
0
40
0
40
0
40
0
40
0.25
40
0.25
40
0.5
40
0.5
40
0.75
40
0.75
40
1
40
1
40
1
40
1
41
1
10
22.4257737193964
20
12.0356737006624
30
0
41
1
10
22.4436091784055
20
12.0276793287016
30
0
41
1
10
22.4646001124182
20
12.0198482888321
30
0
41
1
10
22.5127737868021
20
12.0045951756355
30
0
41
1
10
22.5402514380055
20
11.997111811611
30
0
41
1
10
22.5998039635281
20
11.9831149363632
30
0
41
1
10
22.631903684533
20
11.9765696872462
30
0
41
1
10
22.7006186156588
20
11.9644627255277
30
0
41
1
10
22.7375752522623
20
11.9588605684591
30
0
41
1
10
22.7759496926567
20
11.9539381468025
30
0
0
SPLINE
5
1A1
100
AcDbEntity
8
1
62
256
6
ByLayer
370
13
48
1
60
0
100
AcDbSpline
70
4
71
3
72
8
73
4
40
0
40
0
40
0
40
0
40
1
40
1
40
1
40
1
41
1
10
34.2502619312381
20
-10.0413350439243
30
0
41
1
10
33.466761079384
20
-10.8015256942936
30
0
41
1
10
32.6794703174347
20
-11.55817560514
30
0
41
1
10
31.8899551443022
20
-12.3127473504379
30
0
0
SPLINE
5
1A2
100
AcDbEntity
8
1
62
256
6
ByLayer
370
13
48
1
60
0
100
AcDbSpline
70
4
71
3
72
8
73
4
40
0
40
0
40
0
40
0
40
1
40
1
40
1
40
1
41
1
10
24.100195074011
20
3.31
30
0
41
1
10
24.0827620390366
20
3.32994249642988
30
0
41
1
10
24.0653684535751
20
3.34988173480283
30
0
41
1
10
24.0480148308024
20
3.36981767273673
30
0
0
SPLINE
5
1A3
100
AcDbEntity
8
1
62
256
6
ByLayer
370
13
48
1
60
0
100
AcDbSpline
70
4
71
3
72
22
73
18
40
0
40
0
40
0
40
0
40
0.125
40
0.125
40
0.25
40
0.25
40
0.375
40
0.375
40
0.5
40
0.5
40
0.625
40
0.625
40
0.75
40
0.75
40
0.875
40
0.875
40
1
40
1
40
1
40
1
41
1
10
29.5275691536697
20
7.31
30
0
41
1
10
29.4921000098155
20
7.31
30
0
41
1
10
29.4531319834895
20
7.31
30
0
41
1
10
29.3674410388502
20
7.31
30
0
41
1
10
29.3220009664292
20
7.31
30
0
41
1
10
29.2268757068993
20
7.31
30
0
41
1
10
29.1765568179299
20
7.31
30
0
41
1
10
29.0731425950907
20
7.31
30
0
41
1
10
29.0210131144216
20
7.31
30
0
41
1
10
28.9159190688578
20
7.31
30
0
41
1
10
28.862505175822
20
7.31
30
0
41
1
10
28.7597820147036
20
7.31
30
0
41
1
10
28.7099108408394
20
7.31
30
0
41
1
10
28.6131514620973
20
7.31
30
0
41
1
10
28.5676787436646
20
7.31
30
0
41
1
10
28.4827526950685
20
7.31
30
0
41
1
10
28.4428571163789
20
7.31
30
0
41
1
10
28.4070612640187
20
7.31
30
0
0
SPLINE
5
1A4
100
AcDbEntity
8
1
62
256
6
ByLayer
370
13
48
1
60
0
100
AcDbSpline
70
4
71
3
72
36
73
32
40
0
40
0
40
0
40
0
40
0.0625000000000004
40
0.0625000000000004
40
0.125000000000001
40
0.125000000000001
40
0.187500000000001
40
0.187500000000001
40
0.250000000000002
40
0.250000000000002
40
0.312500000000002
40
0.312500000000002
40
0.375000000000003
40
0.375000000000003
40
0.437500000000003
40
0.437500000000003
40
0.500000000000003
40
0.500000000000003
40
0.625000000000004
40
0.625000000000004
40
0.687500000000003
40
0.687500000000003
40
0.750000000000003
40
0.750000000000003
40
0.812500000000002
40
0.812500000000002
40
0.875000000000001
40
0.875000000000001
40
0.937500000000001
40
0.937500000000001
40
1
40
1
40
1
40
1
41
1
10
21.9871446710242
20
-2.18404028665123
30
0
41
1
10
21.9803264321988
20
-2.25609531194638
30
0
41
1
10
21.9675649360819
20
-2.32528788521955
30
0
41
1
10
21.9303891754333
20
-2.45799459804505
30
0
41
1
10
21.9057957305187
20
-2.52185922895669
30
0
41
1
10
21.8452508928297
20
-2.64199747842514
30
0
41
1
10
21.809922120402
20
-2.6972280590677
30
0
41
1
10
21.7299096691223
20
-2.79850137415417
30
0
41
1
10
21.6848121094491
20
-2.84486387813735
30
0
41
1
10
21.5874033085601
20
-2.92656785989286
30
0
41
1
10
21.5354889615522
20
-2.96174473869144
30
0
41
1
10
21.4258895806711
20
-3.0214882050243
30
0
41
1
10
21.3677299637336
20
-3.04617219532929
30
0
41
1
10
21.2485349007188
20
-3.08410402914521
30
0
41
1
10
21.1875750102473
20
-3.09745190291883
30
0
41
1
10
21.0632335640681
20
-3.1135540537401
30
0
41
1
10
20.9994499702277
20
-3.11627814996402
30
0
41
1
10
20.8075667717725
20
-3.10856945703134
30
0
41
1
10
20.6804240623807
20
-3.08293761324137
30
0
41
1
10
20.4909979712141
20
-3.01485687631293
30
0
41
1
10
20.4288062207815
20
-2.98736540613174
30
0
41
1
10
20.307879342119
20
-2.92387327180686
30
0
41
1
10
20.2488736890444
20
-2.88777586668493
30
0
41
1
10
20.1337189827174
20
-2.80684464891138
30
0
41
1
10
20.0771767716055
20
-2.76162716278225
30
0
41
1
10
19.9694436569927
20
-2.66423414621559
30
0
41
1
10
19.9181871116734
20
-2.61211452430504
30
0
41
1
10
19.8206936318435
20
-2.50115796553962
30
0
41
1
10
19.7744564718605
20
-2.44232182084397
30
0
41
1
10
19.687065128948
20
-2.31768983843227
30
0
41
1
10
19.6460474773046
20
-2.25200559279949
30
0
41
1
10
19.6084490182064
20
-2.18404028665125
30
0
0
SPLINE
5
1A5
100
AcDbEntity
8
1
62
256
6
ByLayer
370
13
48
1
60
0
100
AcDbSpline
70
4
71
3
72
8
73
4
40
0
40
0
40
0
40
0
40
1
40
1
40
1
40
1
41
1
10
22.9830118759292
20
11.9504551013776
30
0
41
1
10
22.9977627103725
20
11.9518677989092
30
0
41
1
10
23.0124044038799
20
11.9535676825114
30
0
41
1
10
23.0269300670016
20
11.9555435186696
30
0
0
SPLINE
5
1A6
100
AcDbEntity
8
1
62
256
6
ByLayer
370
13
48
1
60
0
100
AcDbSpline
70
4
71
3
72
14
73
10
40
0
40
0
40
0
40
0
40
0.25
40
0.25
40
0.5
40
0.5
40
0.75
40
0.75
40
1
40
1
40
1
40
1
41
1
10
22.4257737193965
20
-12.0356737006622
30
0
41
1
10
22.4436091784056
20
-12.0276793287014
30
0
41
1
10
22.4646001124183
20
-12.0198482888319
30
0
41
1
10
22.5127737868022
20
-12.0045951756353
30
0
41
1
10
22.5402514380056
20
-11.9971118116109
30
0
41
1
10
22.5998039635282
20
-11.983114936363
30
0
41
1
10
22.6319036845331
20
-11.976569687246
30
0
41
1
10
22.7006186156588
20
-11.9644627255276
30
0
41
1
10
22.7375752522623
20
-11.958860568459
30
0
41
1
10
22.7759496926567
20
-11.9539381468024
30
0
0
SPLINE
5
1A7
100
AcDbEntity
8
1
62
256
6
ByLayer
370
13
48
1
60
0
100
AcDbSpline
70
4
71
3
72
8
73
4
40
0
40
0
40
0
40
0
40
1
40
1
40
1
40
1
41
1
10
33.6555728090001
20
-0.499999999999943
30
0
41
1
10
33.6148750172432
20
-0.499999999999943
30
0
41
1
10
33.5857870128789
20
-0.499999999999943
30
0
41
1
10
33.5683822789338
20
-0.499999999999943
30
0
0
SPLINE
5
1A8
100
AcDbEntity
8
1
62
256
6
ByLayer
370
13
48
1
60
0
100
AcDbSpline
70
4
71
3
72
8
73
4
40
0
40
0
40
0
40
0
40
1
40
1
40
1
40
1
41
1
10
23.0269300670017
20
2.95792017131652
30
0
41
1
10
23.0711165583866
20
2.98132934386265
30
0
41
1
10
23.1155734030894
20
3.00453409473351
30
0
41
1
10
23.1586159617717
20
3.02696599101083
30
0
0
SPLINE
5
1A9
100
AcDbEntity
8
1
62
256
6
ByLayer
370
13
48
1
60
0
100
AcDbSpline
70
4
71
3
72
10
73
6
40
0
40
0
40
0
40
0
40
0.5
40
0.5
40
1
40
1
40
1
40
1
41
1
10
34.5499999999999
20
-6.44517494922457
30
0
41
1
10
34.5499999999999
20
-6.36469958795703
30
0
41
1
10
34.5410083840471
20
-6.28384501449853
30
0
41
1
10
34.5054472519317
20
-6.12595261203154
30
0
41
1
10
34.4789477786705
20
-6.04911582887922
30
0
41
1
10
34.4444271909999
20
-5.97627111432377
30
0
0
SPLINE
5
1AA
100
AcDbEntity
8
1
62
256
6
ByLayer
370
13
48
1
60
0
100
AcDbSpline
70
4
71
3
72
18
73
14
40
0
40
0
40
0
40
0
40
0.249999999999999
40
0.249999999999999
40
0.374999999999999
40
0.374999999999999
40
0.499999999999998
40
0.499999999999998
40
0.624999999999998
40
0.624999999999998
40
0.749999999999997
40
0.749999999999997
40
1
40
1
40
1
40
1
41
1
10
18.9750801075369
20
12.2738306630876
30
0
41
1
10
18.7859497108165
20
12.2738306630876
30
0
41
1
10
18.599373187903
20
12.2746212968972
30
0
41
1
10
18.3234739097096
20
12.2766490611993
30
0
41
1
10
18.2321744665208
20
12.2774596054168
30
0
41
1
10
18.0510243234367
20
12.27920435541
30
0
41
1
10
17.9621697318113
20
12.280128646246
30
0
41
1
10
17.7901117118255
20
12.281831327792
30
0
41
1
10
17.7065755957918
20
12.2826138806251
30
0
41
1
10
17.5448284740788
20
12.2837385009802
30
0
41
1
10
17.4662844771961
20
12.2840819613692
30
0
41
1
10
17.2418542053622
20
12.2838308979367
30
0
41
1
10
17.1103158279985
20
12.28202539045
30
0
41
1
10
17.0000000000001
20
12.2766285860828
30
0
0
SPLINE
5
1AB
100
AcDbEntity
8
1
62
256
6
ByLayer
370
13
48
1
60
0
100
AcDbSpline
70
4
71
3
72
16
73
12
40
0
40
0
40
0
40
0
40
0.124999999999999
40
0.124999999999999
40
0.249999999999999
40
0.249999999999999
40
0.499999999999999
40
0.499999999999999
40
0.749999999999999
40
0.749999999999999
40
1
40
1
40
1
40
1
41
1
10
33.248925102315
20
-13.3540248618923
30
0
41
1
10
33.2774365456106
20
-13.3124548430803
30
0
41
1
10
33.3095351628088
20
-13.2681891969633
30
0
41
1
10
33.3785866548294
20
-13.1760088101358
30
0
41
1
10
33.4156009528976
20
-13.128036678355
30
0
41
1
10
33.5322302668652
20
-12.9800230424928
30
0
41
1
10
33.6149571848487
20
-12.8789230813091
30
0
41
1
10
33.7868898526832
20
-12.6737611543105
30
0
41
1
10
33.8761843078295
20
-12.5696549738204
30
0
41
1
10
34.0603559371621
20
-12.3591362186193
30
0
41
1
10
34.1545026826611
20
-12.2535732019813
30
0
41
1
10
34.2502619312376
20
-12.1482165240859
30
0
0
SPLINE
5
1AC
100
AcDbEntity
8
1
62
256
6
ByLayer
370
13
48
1
60
0
100
AcDbSpline
70
4
71
3
72
18
73
14
40
0
40
0
40
0
40
0
40
0.124999999999998
40
0.124999999999998
40
0.249999999999995
40
0.249999999999995
40
0.374999999999993
40
0.374999999999993
40
0.499999999999991
40
0.499999999999991
40
0.749999999999995
40
0.749999999999995
40
1
40
1
40
1
40
1
41
1
10
33.248925102315
20
3.31
30
0
41
1
10
33.2773737599588
20
3.36135165346764
30
0
41
1
10
33.3102131902703
20
3.40855240717113
30
0
41
1
10
33.3799835924814
20
3.49416119253533
30
0
41
1
10
33.41700210919
20
3.53280865334429
30
0
41
1
10
33.4941709119494
20
3.60402471295438
30
0
41
1
10
33.5343357988882
20
3.63656506901648
30
0
41
1
10
33.617232594351
20
3.69670040960352
30
0
41
1
10
33.6600351277083
20
3.72430160647195
30
0
41
1
10
33.7899249841436
20
3.7997166195926
30
0
41
1
10
33.8790885258772
20
3.84074749663594
30
0
41
1
10
34.0615707075947
20
3.90852973819324
30
0
41
1
10
34.1549071523974
20
3.93521153782947
30
0
41
1
10
34.2502619312379
20
3.95531006496449
30
0
0
SPLINE
5
1AD
100
AcDbEntity
8
1
62
256
6
ByLayer
370
13
48
1
60
0
100
AcDbSpline
70
4
71
3
72
8
73
4
40
0
40
0
40
0
40
0
40
1
40
1
40
1
40
1
41
1
10
22.2867101711801
20
2.10740709871169
30
0
41
1
10
22.3280778151569
20
2.22635406297681
30
0
41
1
10
22.3737424249809
20
2.3433166619806
30
0
41
1
10
22.4257737193949
20
2.45753488628657
30
0
0
SPLINE
5
1AE
100
AcDbEntity
8
1
62
256
6
ByLayer
370
13
48
1
60
0
100
AcDbSpline
70
4
71
3
72
8
73
4
40
0
40
0
40
0
40
0
40
1
40
1
40
1
40
1
41
1
10
29.5275691536697
20
-15.7993201457351
30
0
41
1
10
30.3515048206107
20
-14.908793321909
30
0
41
1
10
31.1694165978403
20
-14.011919567427
30
0
41
1
10
31.9760387084376
20
-13.1059376957599
30
0
0
SPLINE
5
1AF
100
AcDbEntity
8
1
62
256
6
ByLayer
370
13
48
1
60
0
100
AcDbSpline
70
4
71
3
72
8
73
4
40
0
40
0
40
0
40
0
40
1
40
1
40
1
40
1
41
1
10
23.0269300670017
20
-11.9555435186695
30
0
41
1
10
23.0710465438202
20
-11.9615444102871
30
0
41
1
10
23.114993619088
20
-11.9708518785148
30
0
41
1
10
23.1586159617713
20
-11.983744986398
30
0
0
SPLINE
5
1B0
100
AcDbEntity
8
1
62
256
6
ByLayer
370
13
48
1
60
0
100
AcDbSpline
70
4
71
3
72
14
73
10
40
0
40
0
40
0
40
0
40
0.25
40
0.25
40
0.5
40
0.5
40
0.75
40
0.75
40
1
40
1
40
1
40
1
41
1
10
23.1586159617712
20
-11.9837449863985
30
0
41
1
10
23.1795040107667
20
-11.9832770649908
30
0
41
1
10
23.2028249487392
20
-11.9847768672865
30
0
41
1
10
23.2520716437046
20
-11.9925532812357
30
0
41
1
10
23.2781369249543
20
-11.9988029680843
30
0
41
1
10
23.3326298236677
20
-12.0172203334797
30
0
41
1
10
23.3613827252894
20
-12.0295747431032
30
0
41
1
10
23.4189186249808
20
-12.0609615211442
30
0
41
1
10
23.4477462212865
20
-12.0799325955295
30
0
41
1
10
23.4763226234824
20
-12.1028318234351
30
0
0
SPLINE
5
1B1
100
AcDbEntity
8
1
62
256
6
ByLayer
370
13
48
1
60
0
100
AcDbSpline
70
4
71
3
72
8
73
4
40
0
40
0
40
0
40
0
40
1
40
1
40
1
40
1
41
1
10
28.4070612640187
20
-17.0908011478513
30
0
41
1
10
26.9669876101276
20
-15.6515144851841
30
0
41
1
10
25.5298778090125
20
-14.2093314532367
30
0
41
1
10
24.100195074011
20
-12.7600670793582
30
0
0
SPLINE
5
1B2
100
AcDbEntity
8
1
62
256
6
ByLayer
370
13
48
1
60
0
100
AcDbSpline
70
4
71
3
72
8
73
4
40
0
40
0
40
0
40
0
40
1
40
1
40
1
40
1
41
1
10
22.775949692656
20
-11.9539381468006
30
0
41
1
10
22.8436356570438
20
-11.9452558349928
30
0
41
1
10
22.9139044122235
20
-11.9438366321805
30
0
41
1
10
22.9830118759293
20
-11.9504551013775
30
0
0
SPLINE
5
1B3
100
AcDbEntity
8
1
62
256
6
ByLayer
370
13
48
1
60
0
100
AcDbSpline
70
4
71
3
72
8
73
4
40
0
40
0
40
0
40
0
40
1
40
1
40
1
40
1
41
1
10
22.9830118759293
20
-11.9504551013775
30
0
41
1
10
22.9977627103726
20
-11.9518677989091
30
0
41
1
10
23.01240440388
20
-11.9535676825113
30
0
41
1
10
23.0269300670017
20
-11.9555435186695
30
0
0
SPLINE
5
1B4
100
AcDbEntity
8
1
62
256
6
ByLayer
370
13
48
1
60
0
100
AcDbSpline
70
4
71
3
72
22
73
18
40
0
40
0
40
0
40
0
40
0.250000000000001
40
0.250000000000001
40
0.312500000000001
40
0.312500000000001
40
0.375000000000001
40
0.375000000000001
40
0.500000000000001
40
0.500000000000001
40
0.625
40
0.625
40
0.6875
40
0.6875
40
0.75
40
0.75
40
1
40
1
40
1
40
1
41
1
10
17
20
12.0184754105605
30
0
41
1
10
17.2437752469322
20
11.8660140052048
30
0
41
1
10
17.540264257944
20
11.6558380825623
30
0
41
1
10
17.9938026048908
20
11.3422526211298
30
0
41
1
10
18.0886759341508
20
11.2769841151517
30
0
41
1
10
18.2872609908588
20
11.1418634064992
30
0
41
1
10
18.3912251980902
20
11.0718438456229
30
0
41
1
10
18.7154743175919
20
10.8568424757501
30
0
41
1
10
18.94581122767
20
10.7084603785093
30
0
41
1
10
19.43536437247
20
10.4070599116179
30
0
41
1
10
19.6945781253504
20
10.2540313096375
30
0
41
1
10
20.105556657083
20
10.0246689943477
30
0
41
1
10
20.2462437328326
20
9.94824156193056
30
0
41
1
10
20.5351094245806
20
9.79602169897314
30
0
41
1
10
20.6836601699846
20
9.72004791940392
30
0
41
1
10
21.4403126217325
20
9.345701001398
30
0
41
1
10
22.0879141633929
20
9.06489734945544
30
0
41
1
10
22.7759496926572
20
8.81549890862775
30
0
0
SPLINE
5
1B5
100
AcDbEntity
8
1
62
256
6
ByLayer
370
13
48
1
60
0
100
AcDbSpline
70
4
71
3
72
8
73
4
40
0
40
0
40
0
40
0
40
1
40
1
40
1
40
1
41
1
10
16.8966566450054
20
12.06777135774
30
0
41
1
10
16.9298240798344
20
12.0527631258547
30
0
41
1
10
16.9642527047205
20
12.0363151785739
30
0
41
1
10
17
20
12.0184754105605
30
0
0
SPLINE
5
1B6
100
AcDbEntity
8
1
62
256
6
ByLayer
370
13
48
1
60
0
100
AcDbSpline
70
4
71
3
72
12
73
8
40
0
40
0
40
0
40
0
40
0.5
40
0.5
40
0.75
40
0.75
40
1
40
1
40
1
40
1
41
1
10
23.476322623483
20
8.68447231284358
30
0
41
1
10
23.8933258680583
20
8.70402758538901
30
0
41
1
10
24.3252465388451
20
8.73653937362073
30
0
41
1
10
24.9903441725027
20
8.81070613384665
30
0
41
1
10
25.214931262931
20
8.8396323607833
30
0
41
1
10
25.6692296615842
20
8.90661239395547
30
0
41
1
10
25.8990910205595
20
8.94469559835187
30
0
41
1
10
26.1306939829892
20
8.98753349561289
30
0
0
SPLINE
5
1B7
100
AcDbEntity
8
1
62
256
6
ByLayer
370
13
48
1
60
0
100
AcDbSpline
70
4
71
3
72
17
73
13
40
0
40
0
40
0
40
0
40
0.250000000000001
40
0.250000000000001
40
0.375000000000001
40
0.375000000000001
40
0.500000000000001
40
0.625
40
0.625
40
0.75
40
0.75
40
1
40
1
40
1
40
1
41
1
10
17.0000000000001
20
12.2766285860828
30
0
41
1
10
16.9169074823619
20
12.2558737334565
30
0
41
1
10
16.8514125236306
20
12.2362160115426
30
0
41
1
10
16.780098881091
20
12.2072612548033
30
0
41
1
10
16.7607898676872
20
12.1976377907626
30
0
41
1
10
16.7324620463139
20
12.1789288834553
30
0
41
1
10
16.7141409788969
20
12.1606994184403
30
0
41
1
10
16.7153636991685
20
12.1432636138619
30
0
41
1
10
16.7264982530402
20
12.1262144988792
30
0
41
1
10
16.7370764220107
20
12.117922723945
30
0
41
1
10
16.78245011549
20
12.0943607975784
30
0
41
1
10
16.8308293448808
20
12.080130880464
30
0
41
1
10
16.8966566450054
20
12.06777135774
30
0
0
SPLINE
5
1B8
100
AcDbEntity
8
1
62
256
6
ByLayer
370
13
48
1
60
0
100
AcDbSpline
70
4
71
3
72
12
73
8
40
0
40
0
40
0
40
0
40
0.5
40
0.5
40
0.75
40
0.75
40
1
40
1
40
1
40
1
41
1
10
34.4444271909999
20
8.75647393972926
30
0
41
1
10
34.4791038230752
20
8.82594017432234
30
0
41
1
10
34.5056325249014
20
8.89951277388778
30
0
41
1
10
34.5320852401854
20
9.01178287998826
30
0
41
1
10
34.5387576344768
20
9.04970954314919
30
0
41
1
10
34.5477272788354
20
9.12658935137492
30
0
41
1
10
34.55
20
9.16571177571254
30
0
41
1
10
34.55
20
9.20438058426589
30
0
0
SPLINE
5
1B9
100
AcDbEntity
8
1
62
256
6
ByLayer
370
13
48
1
60
0
100
AcDbSpline
70
4
71
3
72
18
73
14
40
0
40
0
40
0
40
0
40
0.249999999999998
40
0.249999999999998
40
0.374999999999997
40
0.374999999999997
40
0.499999999999997
40
0.499999999999997
40
0.749999999999995
40
0.749999999999995
40
0.874999999999997
40
0.874999999999997
40
1
40
1
40
1
40
1
41
1
10
27.5531962568464
20
8.24904121171298
30
0
41
1
10
27.6436220300735
20
8.20686695440233
30
0
41
1
10
27.7419308085646
20
8.16815709147161
30
0
41
1
10
27.9014999235056
20
8.11603817649058
30
0
41
1
10
27.9567212423271
20
8.09966214892523
30
0
41
1
10
28.0714633929098
20
8.06911776991313
30
0
41
1
10
28.1310582228034
20
8.05495876266227
30
0
41
1
10
28.312225315486
20
8.0170566932274
30
0
41
1
10
28.437501235337
20
7.99746203182559
30
0
41
1
10
28.6324793120011
20
7.97735854233429
30
0
41
1
10
28.6989766401987
20
7.97220113691407
30
0
41
1
10
28.8327817376067
20
7.96532557901256
30
0
41
1
10
28.8999576890229
20
7.96359509939234
30
0
41
1
10
28.9674098192195
20
7.96359509939234
30
0
0
SPLINE
5
1BA
100
AcDbEntity
8
1
62
256
6
ByLayer
370
13
48
1
60
0
100
AcDbSpline
70
4
71
3
72
8
73
4
40
0
40
0
40
0
40
0
40
1
40
1
40
1
40
1
41
1
10
16.8966566450053
20
-2.18404028665123
30
0
41
1
10
16.9298240798344
20
-2.30336479622665
30
0
41
1
10
16.9642527047282
20
-2.42212426055338
30
0
41
1
10
17.0000000000079
20
-2.54030863322427
30
0
0
SPLINE
5
1BB
100
AcDbEntity
8
1
62
256
6
ByLayer
370
13
48
1
60
0
100
AcDbSpline
70
4
71
3
72
8
73
4
40
0
40
0
40
0
40
0
40
1
40
1
40
1
40
1
41
1
10
25.959130683508
20
-13.1055879422534
30
0
41
1
10
26.7654312882407
20
-14.0114961817698
30
0
41
1
10
27.5830895894429
20
-14.9083804016515
30
0
41
1
10
28.4070612640187
20
-15.7992241542234
30
0
0
SPLINE
5
1BC
100
AcDbEntity
8
1
62
256
6
ByLayer
370
13
48
1
60
0
100
AcDbSpline
70
4
71
3
72
20
73
16
40
0
40
0
40
0
40
0
40
0.125
40
0.125
40
0.25
40
0.25
40
0.375000000000001
40
0.375000000000001
40
0.500000000000001
40
0.500000000000001
40
0.749999999999999
40
0.749999999999999
40
0.874999999999999
40
0.874999999999999
40
1
40
1
40
1
40
1
41
1
10
25.959130683508
20
7.31
30
0
41
1
10
25.9362515590778
20
7.31
30
0
41
1
10
25.9144453975421
20
7.3135642222704
30
0
41
1
10
25.8740306102115
20
7.32730579345667
30
0
41
1
10
25.8550470412928
20
7.33765936802789
30
0
41
1
10
25.8211932633574
20
7.36427351123618
30
0
41
1
10
25.8062755823062
20
7.38043691100378
30
0
41
1
10
25.7803567258773
20
7.41825873423039
30
0
41
1
10
25.7694896161289
20
7.4398499347667
30
0
41
1
10
25.74392886902
20
7.51002135285339
30
0
41
1
10
25.7358294234667
20
7.56542957920885
30
0
41
1
10
25.7373257304058
20
7.65386045530102
30
0
41
1
10
25.7400966452937
20
7.68475450805198
30
0
41
1
10
25.7499459156296
20
7.74701591099958
30
0
41
1
10
25.7569711009201
20
7.77838656203144
30
0
41
1
10
25.766071671402
20
7.81
30
0
0
SPLINE
5
1BD
100
AcDbEntity
8
1
62
256
6
ByLayer
370
13
48
1
60
0
100
AcDbSpline
70
4
71
3
72
19
73
15
40
0
40
0
40
0
40
0
40
0.249999999999999
40
0.249999999999999
40
0.374999999999999
40
0.374999999999999
40
0.499999999999999
40
0.624999999999999
40
0.624999999999999
40
0.75
40
0.75
40
0.875
40
0.875
40
1
40
1
40
1
40
1
41
1
10
16.9999999999999
20
-0.42580477395623
30
0
41
1
10
16.9172341399143
20
-0.555214404428853
30
0
41
1
10
16.8516758606622
20
-0.692711832826745
30
0
41
1
10
16.7801575662589
20
-0.911397341612457
30
0
41
1
10
16.7608595097135
20
-0.986645504266022
30
0
41
1
10
16.7325741866681
20
-1.13707823518897
30
0
41
1
10
16.7141933470813
20
-1.28845978718769
30
0
41
1
10
16.7153327602314
20
-1.4416942646493
30
0
41
1
10
16.7264634265795
20
-1.59587522015713
30
0
41
1
10
16.7369620696537
20
-1.67222337793808
30
0
41
1
10
16.7671157593164
20
-1.82229165940942
30
0
41
1
10
16.7867874515367
20
-1.89621928731282
30
0
41
1
10
16.8350770481351
20
-2.04192929113199
30
0
41
1
10
16.8639125232428
20
-2.11413732520271
30
0
41
1
10
16.8966566450053
20
-2.18404028665123
30
0
0
SPLINE
5
1BE
100
AcDbEntity
8
1
62
256
6
ByLayer
370
13
48
1
60
0
100
AcDbSpline
70
4
71
3
72
8
73
4
40
0
40
0
40
0
40
0
40
1
40
1
40
1
40
1
41
1
10
27.5531962568464
20
-10.8044155877284
30
0
41
1
10
27.0730958869486
20
-11.2845159576262
30
0
41
1
10
26.5989804324834
20
-11.7586314120914
30
0
41
1
10
26.1306939829892
20
-12.2269178615857
30
0
0
SPLINE
5
1BF
100
AcDbEntity
8
1
62
256
6
ByLayer
370
13
48
1
60
0
100
AcDbSpline
70
4
71
3
72
12
73
8
40
0
40
0
40
0
40
0
40
0.499999999999998
40
0.499999999999998
40
0.749999999999999
40
0.749999999999999
40
1
40
1
40
1
40
1
41
1
10
23.4192177798759
20
2.3932094182077
30
0
41
1
10
23.3661185911316
20
2.4670383939262
30
0
41
1
10
23.3209079817075
20
2.54473091185167
30
0
41
1
10
23.263680421307
20
2.66396830350271
30
0
41
1
10
23.2462241870358
20
2.70462150068201
30
0
41
1
10
23.2156724625099
20
2.7843280796526
30
0
41
1
10
23.2024473227551
20
2.82358264579167
30
0
41
1
10
23.1910819339673
20
2.8622236810925
30
0
0
SPLINE
5
1C0
100
AcDbEntity
8
1
62
256
6
ByLayer
370
13
48
1
60
0
100
AcDbSpline
70
4
71
3
72
16
73
12
40
0
40
0
40
0
40
0
40
0.125
40
0.125
40
0.25
40
0.25
40
0.5
40
0.5
40
0.75
40
0.75
40
1
40
1
40
1
40
1
41
1
10
2.19999999999999
20
-6.81248853210039
30
0
41
1
10
2.18088891185278
20
-6.81248853210039
30
0
41
1
10
2.16201780603979
20
-6.80829864379712
30
0
41
1
10
2.12825819301281
20
-6.79412855322329
30
0
41
1
10
2.11309782862554
20
-6.78418939865389
30
0
41
1
10
2.07370093595898
20
-6.75050060790105
30
0
41
1
10
2.05451617127511
20
-6.72264113825179
30
0
41
1
10
2.0256973450862
20
-6.66488544188226
30
0
41
1
10
2.01577536744998
20
-6.6340480724102
30
0
41
1
10
2.00298021756964
20
-6.57216708582914
30
0
41
1
10
1.99999999999994
20
-6.54086250819918
30
0
41
1
10
1.99999999999994
20
-6.50922422412987
30
0
0
SPLINE
5
1C1
100
AcDbEntity
8
1
62
256
6
ByLayer
370
13
48
1
60
0
100
AcDbSpline
70
4
71
3
72
14
73
10
40
0
40
0
40
0
40
0
40
0.25
40
0.25
40
0.499999999999999
40
0.499999999999999
40
0.749999999999999
40
0.749999999999999
40
1
40
1
40
1
40
1
41
1
10
34.2502619312381
20
-10.0413350439243
30
0
41
1
10
34.2986942925578
20
-9.9943436103305
30
0
41
1
10
34.3414240128702
20
-9.94338964601698
30
0
41
1
10
34.4160426336597
20
-9.83394887750586
30
0
41
1
10
34.4479904647065
20
-9.77508321490527
30
0
41
1
10
34.498968778445
20
-9.65335357687394
30
0
41
1
10
34.5182391191199
20
-9.58993721024359
30
0
41
1
10
34.5436289213541
20
-9.46257943359328
30
0
41
1
10
34.5499999999999
20
-9.39814226318384
30
0
41
1
10
34.5499999999999
20
-9.33294114425806
30
0
0
SPLINE
5
1C2
100
AcDbEntity
8
1
62
256
6
ByLayer
370
13
48
1
60
0
100
AcDbSpline
70
4
71
3
72
12
73
8
40
0
40
0
40
0
40
0
40
0.499999999999995
40
0.499999999999995
40
0.749999999999998
40
0.749999999999998
40
1
40
1
40
1
40
1
41
1
10
22.7759496926569
20
8.81549890862769
30
0
41
1
10
22.9113543044589
20
8.7664175783359
30
0
41
1
10
23.0380255429516
20
8.73229284938412
30
0
41
1
10
23.2165440620506
20
8.69958013693423
30
0
41
1
10
23.2737956725203
20
8.69195828505812
30
0
41
1
10
23.3803469515059
20
8.6833733797074
30
0
41
1
10
23.4301642063302
20
8.68230772434424
30
0
41
1
10
23.4763226234834
20
8.68447231284435
30
0
0
SPLINE
5
1C3
100
AcDbEntity
8
1
62
256
6
ByLayer
370
13
48
1
60
0
100
AcDbSpline
70
4
71
3
72
8
73
4
40
0
40
0
40
0
40
0
40
1
40
1
40
1
40
1
41
1
10
34.2996036573452
20
3.96482087755865
30
0
41
1
10
34.2837439885178
20
3.96204383168038
30
0
41
1
10
34.2672874953028
20
3.95889865030344
30
0
41
1
10
34.2502619312379
20
3.95531006496449
30
0
0
SPLINE
5
1C4
100
AcDbEntity
8
1
62
256
6
ByLayer
370
13
48
1
60
0
100
AcDbSpline
70
4
71
3
72
12
73
8
40
0
40
0
40
0
40
0
40
0.499999999999999
40
0.499999999999999
40
0.749999999999999
40
0.749999999999999
40
1
40
1
40
1
40
1
41
1
10
23.4763226234824
20
-9.08794330512825
30
0
41
1
10
23.8933258680578
20
-9.63521383435875
30
0
41
1
10
24.3252465388444
20
-10.1688360584772
30
0
41
1
10
24.9903441725023
20
-10.9525868650703
30
0
41
1
10
25.2149312629306
20
-11.2110438690464
30
0
41
1
10
25.669229661584
20
-11.7228529254135
30
0
41
1
10
25.8990910205594
20
-11.9763631447526
30
0
41
1
10
26.1306939829892
20
-12.2269178615856
30
0
0
SPLINE
5
1C5
100
AcDbEntity
8
1
62
256
6
ByLayer
370
13
48
1
60
0
100
AcDbSpline
70
4
71
3
72
8
73
4
40
0
40
0
40
0
40
0
40
1
40
1
40
1
40
1
41
1
10
23.1910819339673
20
2.8622236810925
30
0
41
1
10
23.1870020662085
20
2.87609476962561
30
0
41
1
10
23.1833347588437
20
2.89001680505064
30
0
41
1
10
23.1801401911619
20
2.90397664169654
30
0
0
SPLINE
5
1C6
100
AcDbEntity
8
1
62
256
6
ByLayer
370
13
48
1
60
0
100
AcDbSpline
70
4
71
3
72
8
73
4
40
0
40
0
40
0
40
0
40
1
40
1
40
1
40
1
41
1
10
29.5275691536697
20
7.31
30
0
41
1
10
30.3516462197816
20
7.31
30
0
41
1
10
31.1692303915976
20
7.31
30
0
41
1
10
31.9760387084376
20
7.31
30
0
0
SPLINE
5
1C7
100
AcDbEntity
8
1
62
256
6
ByLayer
370
13
48
1
60
0
100
AcDbSpline
70
4
71
3
72
56
73
52
40
0
40
0
40
0
40
0
40
0.031250000000001
40
0.031250000000001
40
0.062500000000002
40
0.062500000000002
40
0.093750000000003
40
0.093750000000003
40
0.125000000000004
40
0.125000000000004
40
0.156250000000005
40
0.156250000000005
40
0.187500000000006
40
0.187500000000006
40
0.218750000000007
40
0.218750000000007
40
0.250000000000008
40
0.250000000000008
40
0.31250000000001
40
0.31250000000001
40
0.34375000000001
40
0.34375000000001
40
0.375000000000011
40
0.375000000000011
40
0.43750000000001
40
0.43750000000001
40
0.500000000000009
40
0.500000000000009
40
0.531250000000009
40
0.531250000000009
40
0.562500000000009
40
0.562500000000009
40
0.625000000000008
40
0.625000000000008
40
0.687500000000007
40
0.687500000000007
40
0.718750000000006
40
0.718750000000006
40
0.750000000000005
40
0.750000000000005
40
0.781250000000005
40
0.781250000000005
40
0.812500000000004
40
0.812500000000004
40
0.843750000000003
40
0.843750000000003
40
0.875000000000003
40
0.875000000000003
40
0.937500000000001
40
0.937500000000001
40
1
40
1
40
1
40
1
41
1
10
19.6084490182064
20
-2.1840402866512
30
0
41
1
10
19.5740542804874
20
-2.12980083791831
30
0
41
1
10
19.5433738425234
20
-2.0733761224719
30
0
41
1
10
19.4905269174671
20
-1.95552040991919
30
0
41
1
10
19.4683955813405
20
-1.89381125410776
30
0
41
1
10
19.4353213145948
20
-1.76960654939822
30
0
41
1
10
19.4240875888652
20
-1.70658243870091
30
0
41
1
10
19.4128427129137
20
-1.57858365043467
30
0
41
1
10
19.4129553043954
20
-1.51286564780622
30
0
41
1
10
19.4249127007973
20
-1.38426483771556
30
0
41
1
10
19.4365869475265
20
-1.32116320800139
30
0
41
1
10
19.4706989058413
20
-1.19723808635044
30
0
41
1
10
19.4933963882904
20
-1.13600262672151
30
0
41
1
10
19.5474569509418
20
-1.01947551393926
30
0
41
1
10
19.5788527922798
20
-0.963779385404905
30
0
41
1
10
19.6493741632341
20
-0.856976761524379
30
0
41
1
10
19.6886669822299
20
-0.805774166379905
30
0
41
1
10
19.8136429033242
20
-0.662286211048837
30
0
41
1
10
19.9072033818241
20
-0.578405009460766
30
0
41
1
10
20.0591992573373
20
-0.466805216102614
30
0
41
1
10
20.1117221825935
20
-0.432145077062842
30
0
41
1
10
20.2180795693967
20
-0.368636842203074
30
0
41
1
10
20.2721792067733
20
-0.339590341402641
30
0
41
1
10
20.4366941031153
20
-0.260021203721493
30
0
41
1
10
20.549784304676
20
-0.216767195556741
30
0
41
1
10
20.7776306497784
20
-0.151544472391265
30
0
41
1
10
20.8896277461183
20
-0.130238232671871
30
0
41
1
10
21.0520845710984
20
-0.117708776987229
30
0
41
1
10
21.1056188939788
20
-0.116884966763649
30
0
41
1
10
21.2072965672816
20
-0.122689083036903
30
0
41
1
10
21.2557661596023
20
-0.129252186902136
30
0
41
1
10
21.3939648648255
20
-0.160773977038133
30
0
41
1
10
21.4767687274085
20
-0.198518912388323
30
0
41
1
10
21.6154431858731
20
-0.30390562440391
30
0
41
1
10
21.6718642242347
20
-0.370359080742588
30
0
41
1
10
21.7444810728067
20
-0.49072810443738
30
0
41
1
10
21.7666251590575
20
-0.534442924877453
30
0
41
1
10
21.8065459277469
20
-0.626485491592575
30
0
41
1
10
21.8245065754069
20
-0.675091590255477
30
0
41
1
10
21.857270627477
20
-0.777516115898692
30
0
41
1
10
21.8721251013191
20
-0.831567594170394
30
0
41
1
10
21.8989576340754
20
-0.944162667394863
30
0
41
1
10
21.9107757975463
20
-1.00195505509913
30
0
41
1
10
21.9318155369381
20
-1.12045433587068
30
0
41
1
10
21.9410339703473
20
-1.1811613176919
30
0
41
1
10
21.9572003098697
20
-1.30555568617075
30
0
41
1
10
21.9641730277251
20
-1.36967199234979
30
0
41
1
10
21.9814291228868
20
-1.56107507306291
30
0
41
1
10
21.9883828795396
20
-1.6887321263724
30
0
41
1
10
21.9941208216561
20
-1.94409101128906
30
0
41
1
10
21.9927794660015
20
-2.06687639786756
30
0
41
1
10
21.9871446710242
20
-2.18404028665123
30
0
0
SPLINE
5
1C8
100
AcDbEntity
8
1
62
256
6
ByLayer
370
13
48
1
60
0
100
AcDbSpline
70
4
71
3
72
8
73
4
40
0
40
0
40
0
40
0
40
1
40
1
40
1
40
1
41
1
10
22.9830118759293
20
2.93537990329222
30
0
41
1
10
22.9977387713086
20
2.94270468640576
30
0
41
1
10
23.0123807929921
20
2.95021223943354
30
0
41
1
10
23.026930067002
20
2.95792017131598
30
0
0
SPLINE
5
1C9
100
AcDbEntity
8
1
62
256
6
ByLayer
370
13
48
1
60
0
100
AcDbSpline
70
4
71
3
72
16
73
12
40
0
40
0
40
0
40
0
40
0.249999999999999
40
0.249999999999999
40
0.499999999999997
40
0.499999999999997
40
0.749999999999996
40
0.749999999999996
40
0.874999999999998
40
0.874999999999998
40
1
40
1
40
1
40
1
41
1
10
2
20
6.50922422413001
30
0
41
1
10
2
20
6.54107362865474
30
0
41
1
10
2.00302359373973
20
6.57241134446625
30
0
41
1
10
2.01577046323729
20
6.63398977083625
30
0
41
1
10
2.02551780871767
20
6.66449834661668
30
0
41
1
10
2.05459052917183
20
6.7228173472447
30
0
41
1
10
2.07382007567469
20
6.75062740335039
30
0
41
1
10
2.11316180861627
20
6.78423159120797
30
0
41
1
10
2.12835753716217
20
6.79418980432851
30
0
41
1
10
2.16219779053796
20
6.80835447461283
30
0
41
1
10
2.18088220166294
20
6.8124885321005
30
0
41
1
10
2.19999999999999
20
6.8124885321005
30
0
0
SPLINE
5
1CA
100
AcDbEntity
8
1
62
256
6
ByLayer
370
13
48
1
60
0
100
AcDbSpline
70
4
71
3
72
10
73
6
40
0
40
0
40
0
40
0
40
0.5
40
0.5
40
1
40
1
40
1
40
1
41
1
10
34.4444271909999
20
-0.499999999999943
30
0
41
1
10
34.4792053627166
20
-0.499999999999943
30
0
41
1
10
34.5053877856661
20
-0.499999999999943
30
0
41
1
10
34.5408042650784
20
-0.499999999999943
30
0
41
1
10
34.5500110011
20
-0.499999999999943
30
0
41
1
10
34.5499952495249
20
-0.499999999999943
30
0
0
SPLINE
5
1CB
100
AcDbEntity
8
1
62
256
6
ByLayer
370
13
48
1
60
0
100
AcDbSpline
70
4
71
3
72
22
73
18
40
0
40
0
40
0
40
0
40
0.125
40
0.125
40
0.25
40
0.25
40
0.375
40
0.375
40
0.5
40
0.5
40
0.625
40
0.625
40
0.75
40
0.75
40
0.875
40
0.875
40
1
40
1
40
1
40
1
41
1
10
29.5275691536697
20
-15.7993201457351
30
0
41
1
10
29.4921007749386
20
-15.8376551079475
30
0
41
1
10
29.4531292386478
20
-15.8726821350657
30
0
41
1
10
29.3674153837694
20
-15.9353984538362
30
0
41
1
10
29.3220017816917
20
-15.9620694116443
30
0
41
1
10
29.226876407722
20
-16.0055515435316
30
0
41
1
10
29.1765364608409
20
-16.0225653261364
30
0
41
1
10
29.0731429379564
20
-16.0453801715567
30
0
41
1
10
29.0210165774014
20
-16.0510936644679
30
0
41
1
10
28.9159137476034
20
-16.0512532639143
30
0
41
1
10
28.8625009424273
20
-16.0454884466153
30
0
41
1
10
28.7597856310249
20
-16.0230124501058
30
0
41
1
10
28.7099114028097
20
-16.006390750375
30
0
41
1
10
28.613134300776
20
-15.9623636185091
30
0
41
1
10
28.5676818412248
20
-15.9355963069775
30
0
41
1
10
28.4827525825755
20
-15.8736101223017
30
0
41
1
10
28.4428535879553
20
-15.8379213196149
30
0
41
1
10
28.4070612640187
20
-15.7992241542234
30
0
0
SPLINE
5
1CC
100
AcDbEntity
8
1
62
256
6
ByLayer
370
13
48
1
60
0
100
AcDbSpline
70
4
71
3
72
10
73
6
40
0
40
0
40
0
40
0
40
0.5
40
0.5
40
1
40
1
40
1
40
1
41
1
10
33.5499999999999
20
-3.74830091924503
30
0
41
1
10
33.5499999999999
20
-3.83599412354755
30
0
41
1
10
33.5586737338675
20
-3.92489106726268
30
0
41
1
10
33.5935952584426
20
-4.09642700747875
30
0
41
1
10
33.6197091986547
20
-4.17994925621835
30
0
41
1
10
33.6555728089998
20
-4.26094121576881
30
0
0
SPLINE
5
1CD
100
AcDbEntity
8
1
62
256
6
ByLayer
370
13
48
1
60
0
100
AcDbSpline
70
4
71
3
72
18
73
14
40
0
40
0
40
0
40
0
40
0.125000000000004
40
0.125000000000004
40
0.250000000000009
40
0.250000000000009
40
0.500000000000014
40
0.500000000000014
40
0.625000000000016
40
0.625000000000016
40
0.750000000000017
40
0.750000000000017
40
1
40
1
40
1
40
1
41
1
10
34.5500000000004
20
3.726967999279
30
0
41
1
10
34.5500000000001
20
3.74822355334578
30
0
41
1
10
34.5488011687605
20
3.76870589972677
30
0
41
1
10
34.5437836632358
20
3.80672572747108
30
0
41
1
10
34.539977388623
20
3.82441660252272
30
0
41
1
10
34.5243671711127
20
3.87354730024205
30
0
41
1
10
34.5080132839693
20
3.90126485566765
30
0
41
1
10
34.4755765799579
20
3.93234864156767
30
0
41
1
10
34.4634428844975
20
3.94107212388147
30
0
41
1
10
34.4365111076954
20
3.95521065890932
30
0
41
1
10
34.4215826730313
20
3.9606411847532
30
0
41
1
10
34.3739696190529
20
3.97144728056227
30
0
41
1
10
34.3384100900507
20
3.97161592764235
30
0
41
1
10
34.2996036573447
20
3.96482087755857
30
0
0
SPLINE
5
1CE
100
AcDbEntity
8
1
62
256
6
ByLayer
370
13
48
1
60
0
100
AcDbSpline
70
4
71
3
72
22
73
18
40
0
40
0
40
0
40
0
40
0.125
40
0.125
40
0.25
40
0.25
40
0.375
40
0.375
40
0.5
40
0.5
40
0.625
40
0.625
40
0.75
40
0.75
40
0.875
40
0.875
40
1
40
1
40
1
40
1
41
1
10
28.4070612640186
20
3.31
30
0
41
1
10
28.4436950187544
20
3.31
30
0
41
1
10
28.4844645911083
20
3.31
30
0
41
1
10
28.5703531551102
20
3.31
30
0
41
1
10
28.6158110780957
20
3.31
30
0
41
1
10
28.711903648048
20
3.31
30
0
41
1
10
28.7620496112445
20
3.31
30
0
41
1
10
28.8632820046238
20
3.31
30
0
41
1
10
28.9150653969961
20
3.31
30
0
41
1
10
29.0195789859248
20
3.31
30
0
41
1
10
29.0710344800121
20
3.31
30
0
41
1
10
29.1723977135163
20
3.31
30
0
41
1
10
29.2228321423182
20
3.31
30
0
41
1
10
29.3185938084694
20
3.31
30
0
41
1
10
29.3640864446898
20
3.31
30
0
41
1
10
29.4503273151419
20
3.31
30
0
41
1
10
29.4910039900312
20
3.31
30
0
41
1
10
29.5275691536697
20
3.31
30
0
0
SPLINE
5
1CF
100
AcDbEntity
8
1
62
256
6
ByLayer
370
13
48
1
60
0
100
AcDbSpline
70
4
71
3
72
18
73
14
40
0
40
0
40
0
40
0
40
0.125
40
0.125
40
0.250000000000001
40
0.250000000000001
40
0.500000000000001
40
0.500000000000001
40
0.750000000000002
40
0.750000000000002
40
0.875000000000001
40
0.875000000000001
40
1
40
1
40
1
40
1
41
1
10
25.959130683508
20
-13.1055879422534
30
0
41
1
10
25.9361553587685
20
-13.079774324026
30
0
41
1
10
25.9146017673073
20
-13.0535710279407
30
0
41
1
10
25.8742015864869
20
-13.0004033835657
30
0
41
1
10
25.855182700413
20
-12.9731360432939
30
0
41
1
10
25.8044821331169
20
-12.8933457471305
30
0
41
1
10
25.7781689983366
20
-12.841307847648
30
0
41
1
10
25.7440217250114
20
-12.7480263300407
30
0
41
1
10
25.7358741228882
20
-12.7060009523863
30
0
41
1
10
25.7372902636119
20
-12.6544360604695
30
0
41
1
10
25.7400316009039
20
-12.6388606112086
30
0
41
1
10
25.7498416496366
20
-12.6120604726849
30
0
41
1
10
25.7568750578297
20
-12.6007367867452
30
0
41
1
10
25.766071671402
20
-12.5915401731728
30
0
0
SPLINE
5
1D0
100
AcDbEntity
8
1
62
256
6
ByLayer
370
13
48
1
60
0
100
AcDbSpline
70
4
71
3
72
8
73
4
40
0
40
0
40
0
40
0
40
1
40
1
40
1
40
1
41
1
10
22.2867101711801
20
-12.1018905327409
30
0
41
1
10
22.3280778151574
20
-12.0811772668105
30
0
41
1
10
22.3737424249827
20
-12.0589956415739
30
0
41
1
10
22.4257737193975
20
-12.0356737006618
30
0
0
SPLINE
5
1D1
100
AcDbEntity
8
1
62
256
6
ByLayer
370
13
48
1
60
0
100
AcDbSpline
70
4
71
3
72
14
73
10
40
0
40
0
40
0
40
0
40
0.25
40
0.25
40
0.499999999999999
40
0.499999999999999
40
0.749999999999999
40
0.749999999999999
40
1
40
1
40
1
40
1
41
1
10
34.2502619312381
20
7.89906532203304
30
0
41
1
10
34.2983388285947
20
7.88208736806331
30
0
41
1
10
34.3413517844904
20
7.86347699972998
30
0
41
1
10
34.4166909211351
20
7.82321435806011
30
0
41
1
10
34.4479977041863
20
7.80212616133886
30
0
41
1
10
34.4986526388305
20
7.75815135327321
30
0
41
1
10
34.5180778619025
20
7.73501927705823
30
0
41
1
10
34.5436473362036
20
7.6884267141748
30
0
41
1
10
34.55
20
7.6649285610147
30
0
41
1
10
34.55
20
7.64123102841876
30
0
0
SPLINE
5
1D2
100
AcDbEntity
8
1
62
256
6
ByLayer
370
13
48
1
60
0
100
AcDbSpline
70
4
71
3
72
18
73
14
40
0
40
0
40
0
40
0
40
0.249999999999996
40
0.249999999999996
40
0.499999999999992
40
0.499999999999992
40
0.624999999999994
40
0.624999999999994
40
0.749999999999996
40
0.749999999999996
40
0.874999999999998
40
0.874999999999998
40
1
40
1
40
1
40
1
41
1
10
23.4763226234824
20
3.39591441638765
30
0
41
1
10
23.5245180512243
20
3.4333217389557
30
0
41
1
10
23.5761704937093
20
3.46228416072518
30
0
41
1
10
23.6789177228613
20
3.4990387971454
30
0
41
1
10
23.7315926520484
20
3.50739373021418
30
0
41
1
10
23.8069178577177
20
3.50389764021182
30
0
41
1
10
23.8315208437739
20
3.50014320039313
30
0
41
1
10
23.8797252296521
20
3.48740168028223
30
0
41
1
10
23.9034226015136
20
3.47832164395749
30
0
41
1
10
23.9483305540647
20
3.45544353066046
30
0
41
1
10
23.9697303435473
20
3.44162129278732
30
0
41
1
10
24.0104777200417
20
3.40926228057887
30
0
41
1
10
24.029963793951
20
3.39055480382603
30
0
41
1
10
24.0480148308024
20
3.36981767273673
30
0
0
SPLINE
5
1D3
100
AcDbEntity
8
1
62
256
6
ByLayer
370
13
48
1
60
0
100
AcDbSpline
70
4
71
3
72
8
73
4
40
0
40
0
40
0
40
0
40
1
40
1
40
1
40
1
41
1
10
34.2996036573432
20
-12.0904041550589
30
0
41
1
10
34.2837266274979
20
-12.1102391208253
30
0
41
1
10
34.2672688318897
20
-12.1295051141639
30
0
41
1
10
34.2502619312381
20
-12.148216524086
30
0
0
SPLINE
5
1D4
100
AcDbEntity
8
1
62
256
6
ByLayer
370
13
48
1
60
0
100
AcDbSpline
70
4
71
3
72
8
73
4
40
0
40
0
40
0
40
0
40
1
40
1
40
1
40
1
41
1
10
24.100195074011
20
-12.7600670793582
30
0
41
1
10
24.0827620458201
20
-12.7372221379395
30
0
41
1
10
24.0653684222374
20
-12.7143442681736
30
0
41
1
10
24.0480148308024
20
-12.6914331932729
30
0
0
SPLINE
5
1D5
100
AcDbEntity
8
1
62
256
6
ByLayer
370
13
48
1
60
0
100
AcDbSpline
70
4
71
3
72
8
73
4
40
0
40
0
40
0
40
0
40
1
40
1
40
1
40
1
41
1
10
33.655572809
20
-4.26094121576875
30
0
41
1
10
33.9102825680325
20
-4.83616056212421
30
0
41
1
10
34.1747898438786
20
-5.40728730176627
30
0
41
1
10
34.4444271909999
20
-5.97627111432377
30
0
0
SPLINE
5
1D6
100
AcDbEntity
8
1
62
256
6
ByLayer
370
13
48
1
60
0
100
AcDbSpline
70
4
71
3
72
8
73
4
40
0
40
0
40
0
40
0
40
1
40
1
40
1
40
1
41
1
10
26.1306939829892
20
8.98753349561289
30
0
41
1
10
26.599009454661
20
8.71930065400335
30
0
41
1
10
27.0731259004995
20
8.47294430939476
30
0
41
1
10
27.5531962568464
20
8.24904121171301
30
0
0
SPLINE
5
1D7
100
AcDbEntity
8
1
62
256
6
ByLayer
370
13
48
1
60
0
100
AcDbSpline
70
4
71
3
72
12
73
8
40
0
40
0
40
0
40
0
40
0.499999999999999
40
0.499999999999999
40
0.749999999999999
40
0.749999999999999
40
1
40
1
40
1
40
1
41
1
10
22.7759496926569
20
-8.55475880069875
30
0
41
1
10
22.9113543044587
20
-8.60533607864437
30
0
41
1
10
23.0380255429511
20
-8.67754108650107
30
0
41
1
10
23.2165440620499
20
-8.81375864050352
30
0
41
1
10
23.2737956725194
20
-8.86390247330419
30
0
41
1
10
23.3803469515049
20
-8.97051913751682
30
0
41
1
10
23.4301642063302
20
-9.02736549977072
30
0
41
1
10
23.4763226234834
20
-9.08794330512961
30
0
0
SPLINE
5
1D8
100
AcDbEntity
8
1
62
256
6
ByLayer
370
13
48
1
60
0
100
AcDbSpline
70
4
71
3
72
8
73
4
40
0
40
0
40
0
40
0
40
1
40
1
40
1
40
1
41
1
10
23.1801401911619
20
2.90397664169654
30
0
41
1
10
23.170553316741
20
2.94587001012394
30
0
41
1
10
23.163367116308
20
2.98687439155009
30
0
41
1
10
23.158615961773
20
3.0269659910075
30
0
0
SPLINE
5
1D9
100
AcDbEntity
8
1
62
256
6
ByLayer
370
13
48
1
60
0
100
AcDbSpline
70
4
71
3
72
8
73
4
40
0
40
0
40
0
40
0
40
1
40
1
40
1
40
1
41
1
10
22.775949692656
20
11.9539381468007
30
0
41
1
10
22.8436356570437
20
11.9452558349929
30
0
41
1
10
22.9139044122235
20
11.9438366321807
30
0
41
1
10
22.9830118759292
20
11.9504551013776
30
0
0
SPLINE
5
1DA
100
AcDbEntity
8
1
62
256
6
ByLayer
370
13
48
1
60
0
100
AcDbSpline
70
4
71
3
72
8
73
4
40
0
40
0
40
0
40
0
40
1
40
1
40
1
40
1
41
1
10
25.959130683508
20
7.31
30
0
41
1
10
26.7657574453288
20
7.31
30
0
41
1
10
27.5831623418791
20
7.31
30
0
41
1
10
28.4070612640187
20
7.31
30
0
0
SPLINE
5
1DB
100
AcDbEntity
8
1
62
256
6
ByLayer
370
13
48
1
60
0
100
AcDbSpline
70
4
71
3
72
14
73
10
40
0
40
0
40
0
40
0
40
0.25
40
0.25
40
0.5
40
0.5
40
0.75
40
0.75
40
1
40
1
40
1
40
1
41
1
10
28.9674098192195
20
-10.2186291501015
30
0
41
1
10
28.8326407553843
20
-10.2186291501015
30
0
41
1
10
28.7005290296441
20
-10.2321094292062
30
0
41
1
10
28.4413091400122
20
-10.2845391747674
30
0
41
1
10
28.3129359063499
20
-10.3242204340314
30
0
41
1
10
28.0716964656883
20
-10.425637774089
30
0
41
1
10
27.9578198512327
20
-10.4873007586092
30
0
41
1
10
27.74298121498
20
-10.6319519630949
30
0
41
1
10
27.6435729243101
20
-10.7140389202614
30
0
41
1
10
27.5531962568448
20
-10.8044155877267
30
0
0
SPLINE
5
1DC
100
AcDbEntity
8
1
62
256
6
ByLayer
370
13
48
1
60
0
100
AcDbSpline
70
4
71
3
72
22
73
18
40
0
40
0
40
0
40
0
40
0.125
40
0.125
40
0.25
40
0.25
40
0.375
40
0.375
40
0.5
40
0.5
40
0.625
40
0.625
40
0.75
40
0.75
40
0.875
40
0.875
40
1
40
1
40
1
40
1
41
1
10
28.4070612640187
20
-17.0908011478513
30
0
41
1
10
28.4435776001241
20
-17.1272975280079
30
0
41
1
10
28.4841777923471
20
-17.1607425928902
30
0
41
1
10
28.5704808418187
20
-17.218627503915
30
0
41
1
10
28.6159442503886
20
-17.2430705800239
30
0
41
1
10
28.7114834018211
20
-17.2829802250257
30
0
41
1
10
28.7619835796879
20
-17.2984384987073
30
0
41
1
10
28.8634364410945
20
-17.3187898259918
30
0
41
1
10
28.9148303945738
20
-17.3239473379018
30
0
41
1
10
29.0189824324726
20
-17.3240074067027
30
0
41
1
10
29.071150275106
20
-17.3188013020889
30
0
41
1
10
29.1724263918504
20
-17.2985155708088
30
0
41
1
10
29.2223050153037
20
-17.2833298279042
30
0
41
1
10
29.3186982188607
20
-17.2431414532259
30
0
41
1
10
29.364224800823
20
-17.2186168634444
30
0
41
1
10
29.4501354076566
20
-17.1610345646288
30
0
41
1
10
29.4908815969927
20
-17.1275459816803
30
0
41
1
10
29.5275691536697
20
-17.0908898851824
30
0
0
SPLINE
5
1DD
100
AcDbEntity
8
1
62
256
6
ByLayer
370
13
48
1
60
0
100
AcDbSpline
70
4
71
3
72
8
73
4
40
0
40
0
40
0
40
0
40
1
40
1
40
1
40
1
41
1
10
33.248925102315
20
-13.3540248618923
30
0
41
1
10
32.0124466371548
20
-14.6036085991961
30
0
41
1
10
30.7711334265008
20
-15.8483919890286
30
0
41
1
10
29.5275691536697
20
-17.0908898851824
30
0
0
SPLINE
5
1DE
100
AcDbEntity
8
1
62
256
6
ByLayer
370
13
48
1
60
0
100
AcDbSpline
70
4
71
3
72
18
73
14
40
0
40
0
40
0
40
0
40
0.124999999999999
40
0.124999999999999
40
0.249999999999998
40
0.249999999999998
40
0.374999999999997
40
0.374999999999997
40
0.499999999999996
40
0.499999999999996
40
0.749999999999998
40
0.749999999999998
40
1
40
1
40
1
40
1
41
1
10
23.4763226234824
20
-12.1028318234351
30
0
41
1
10
23.5004389203959
20
-12.1221570196399
30
0
41
1
10
23.5251574658034
20
-12.1427019877439
30
0
41
1
10
23.5758069716931
20
-12.1863048701335
30
0
41
1
10
23.6018658760908
20
-12.2094916695337
30
0
41
1
10
23.6535103644493
20
-12.2569266268472
30
0
41
1
10
23.6792906210193
20
-12.2813352288345
30
0
41
1
10
23.7307680208989
20
-12.3315286387651
30
0
41
1
10
23.7566677699208
20
-12.3575248162528
30
0
41
1
10
23.8326706223002
20
-12.4360399265107
30
0
41
1
10
23.8806589669651
20
-12.4885575838122
30
0
41
1
10
23.9714307216752
20
-12.5937646855636
30
0
41
1
10
24.0120433329458
20
-12.643941831916
30
0
41
1
10
24.0480148308024
20
-12.6914331932729
30
0
0
SPLINE
5
1DF
100
AcDbEntity
8
1
62
256
6
ByLayer
370
13
48
1
60
0
100
AcDbSpline
70
4
71
3
72
14
73
10
40
0
40
0
40
0
40
0
40
0.25
40
0.25
40
0.5
40
0.5
40
0.75
40
0.75
40
1
40
1
40
1
40
1
41
1
10
22.4257737193944
20
2.45753488628552
30
0
41
1
10
22.443572276761
20
2.49660598072072
30
0
41
1
10
22.4645496391496
20
2.5339917186069
30
0
41
1
10
22.5128181029553
20
2.60543423519962
30
0
41
1
10
22.540323418422
20
2.63963345146325
30
0
41
1
10
22.5997337920332
20
2.70231582675782
30
0
41
1
10
22.6318100702759
20
2.73111953525844
30
0
41
1
10
22.7006248454537
20
2.78376091120569
30
0
41
1
10
22.7376789766312
20
2.80772965712194
30
0
41
1
10
22.7759496926567
20
2.82847696270758
30
0
0
SPLINE
5
1E0
100
AcDbEntity
8
1
62
256
6
ByLayer
370
13
48
1
60
0
100
AcDbSpline
70
4
71
3
72
8
73
4
40
0
40
0
40
0
40
0
40
1
40
1
40
1
40
1
41
1
10
22.7759496926567
20
2.82847696270758
30
0
41
1
10
22.8434633007999
20
2.86507741351707
30
0
41
1
10
22.9134419954227
20
2.90077761456664
30
0
41
1
10
22.9830118759293
20
2.93537990329222
30
0
0
SPLINE
5
1E1
100
AcDbEntity
8
1
62
256
6
ByLayer
370
13
48
1
60
0
100
AcDbSpline
70
4
71
3
72
16
73
12
40
0
40
0
40
0
40
0
40
0.25
40
0.25
40
0.5
40
0.5
40
0.75
40
0.75
40
0.875
40
0.875
40
1
40
1
40
1
40
1
41
1
10
8.49999999999994
20
-6.50922422412989
30
0
41
1
10
8.49999999999994
20
-6.54110320461388
30
0
41
1
10
8.49697102204885
20
-6.57247310961054
30
0
41
1
10
8.48419499263423
20
-6.63412078219969
30
0
41
1
10
8.47439613531475
20
-6.66471116358875
30
0
41
1
10
8.44533975777347
20
-6.72291678209902
30
0
41
1
10
8.42611854158588
20
-6.7506916411711
30
0
41
1
10
8.3868103007589
20
-6.78424949756513
30
0
41
1
10
8.37161772041895
20
-6.79420299039072
30
0
41
1
10
8.33778664683081
20
-6.80835815584726
30
0
41
1
10
8.31911604358845
20
-6.81248853210039
30
0
41
1
10
8.29999999999995
20
-6.81248853210039
30
0
0
SPLINE
5
1E2
100
AcDbEntity
8
1
62
256
6
ByLayer
370
13
48
1
60
0
100
AcDbSpline
70
4
71
3
72
10
73
6
40
0
40
0
40
0
40
0
40
0.522329685364429
40
0.522329685364429
40
1
40
1
40
1
40
1
41
1
10
34.5500000000003
20
11.4717876359469
30
0
41
1
10
34.5500000000003
20
11.4943233819472
30
0
41
1
10
34.5487987594159
20
11.5181648757688
30
0
41
1
10
34.5439843400786
20
11.5648213613054
30
0
41
1
10
34.5406017901414
20
11.5876074898677
30
0
41
1
10
34.5360761655016
20
11.6108689610207
30
0
0
SPLINE
5
1E3
100
AcDbEntity
8
1
62
256
6
ByLayer
370
13
48
1
60
0
100
AcDbSpline
70
4
71
3
72
8
73
4
40
0
40
0
40
0
40
0
40
1
40
1
40
1
40
1
41
1
10
34.4444271909999
20
8.75647393972926
30
0
41
1
10
34.3133576764284
20
8.49390790887983
30
0
41
1
10
34.1823027585084
20
8.23133458756007
30
0
41
1
10
34.0512685751207
20
7.96875091013268
30
0
0
SPLINE
5
1E4
100
AcDbEntity
8
1
62
256
6
ByLayer
370
13
48
1
60
0
100
AcDbSpline
70
4
71
3
72
16
73
12
40
0
40
0
40
0
40
0
40
0.339617872931018
40
0.339617872931018
40
0.509426809396531
40
0.509426809396531
40
0.679235745862043
40
0.679235745862043
40
0.849044682327555
40
0.849044682327555
40
1
40
1
40
1
40
1
41
1
10
18.9750801075372
20
-12.2738306630875
30
0
41
1
10
18.7859497108178
20
-12.2738306630875
30
0
41
1
10
18.5993731879054
20
-12.274621296897
30
0
41
1
10
18.3234739097135
20
-12.2766490611991
30
0
41
1
10
18.2321744665252
20
-12.2774596054166
30
0
41
1
10
18.0510243234421
20
-12.2792043554098
30
0
41
1
10
17.9621697318171
20
-12.2801286462458
30
0
41
1
10
17.790111711832
20
-12.2818313277918
30
0
41
1
10
17.7065755957986
20
-12.2826138806249
30
0
41
1
10
17.5538077381848
20
-12.2836760685665
30
0
41
1
10
17.4837544270224
20
-12.2840029958074
30
0
41
1
10
17.4165286912073
20
-12.2840106370636
30
0
0
SPLINE
5
1E5
100
AcDbEntity
8
1
62
256
6
ByLayer
370
13
48
1
60
0
100
AcDbSpline
70
4
71
3
72
8
73
4
40
0
40
0
40
0
40
0
40
1
40
1
40
1
40
1
41
1
10
23.5018823119448
20
2.29252976955721
30
0
41
1
10
23.4725431924345
20
2.32403695490271
30
0
41
1
10
23.4448845745437
20
2.35752237279093
30
0
41
1
10
23.4192177798759
20
2.3932094182077
30
0
0
SPLINE
5
1E6
100
AcDbEntity
8
1
62
256
6
ByLayer
370
13
48
1
60
0
100
AcDbSpline
70
4
71
3
72
14
73
10
40
0
40
0
40
0
40
0
40
0.179271586226406
40
0.179271586226406
40
0.589635793113204
40
0.589635793113204
40
0.794817896556602
40
0.794817896556602
40
1
40
1
40
1
40
1
41
1
10
33.8972465280849
20
3.31674280792527
30
0
41
1
10
33.8872899751087
20
3.3420933773231
30
0
41
1
10
33.8774890747902
20
3.36630890238439
30
0
41
1
10
33.8467072715314
20
3.44074333939412
30
0
41
1
10
33.8278674431997
20
3.48359187299201
30
0
41
1
10
33.8053856984744
20
3.53677762868585
30
0
41
1
10
33.7988536569484
20
3.55269817864109
30
0
41
1
10
33.7885616844451
20
3.5803248805104
30
0
41
1
10
33.7847475336621
20
3.59214780314448
30
0
41
1
10
33.7824679581902
20
3.60227805334887
30
0
0
SPLINE
5
1E7
100
AcDbEntity
8
1
62
256
6
ByLayer
370
18
48
1
60
0
100
AcDbSpline
70
4
71
1
72
4
73
2
40
0
40
0
40
1
40
1
41
1
10
34.5500050175016
20
-1.80457066306045
30
0
41
1
10
34.9999999975723
20
1.630563986E-07
30
0
0
SPLINE
5
1E8
100
AcDbEntity
8
1
62
256
6
ByLayer
370
18
48
1
60
0
100
AcDbSpline
70
4
71
1
72
4
73
2
40
0
40
0
40
1
40
1
41
1
10
34.9999999975723
20
-1.630565123E-07
30
0
41
1
10
34.1746051525186
20
3.31000000000532
30
0
0
SPLINE
5
1E9
100
AcDbEntity
8
1
62
256
6
ByLayer
370
18
48
1
60
0
100
AcDbSpline
70
4
71
1
72
4
73
2
40
0
40
0
40
1
40
1
41
1
10
23.7602144859206
20
3.31000000000532
30
0
41
1
10
22.9348196408668
20
-1.630565123E-07
30
0
0
SPLINE
5
1EA
100
AcDbEntity
8
1
62
256
6
ByLayer
370
18
48
1
60
0
100
AcDbSpline
70
4
71
2
72
6
73
3
40
0
40
0
40
0
40
1
40
1
40
1
41
1
10
31.9283372881153
20
-0.200000000000102
30
0
41
1
10
33.4641686226867
20
-0.0999999986869966
30
0
41
1
10
34.9999999576545
20
-3.257128E-10
30
0
0
SPLINE
5
1EB
100
AcDbEntity
8
1
62
256
6
ByLayer
370
18
48
1
60
0
100
AcDbSpline
70
4
71
2
72
6
73
3
40
0
40
0
40
0
40
1
40
1
40
1
41
1
10
22.9348196807846
20
-3.257128E-10
30
0
41
1
10
24.470651015728
20
-0.0999999986804312
30
0
41
1
10
26.0064823503238
20
-0.200000000000102
30
0
0
LINE
5
81
100
AcDbEntity
8
1
62
256
6
ByLayer
370
18
48
1
60
0
100
AcDbLine
10
27.56741
20
-0.221221
30
0
11
30.36741
21
-0.221221
31
0
39
0
210
0
220
0
230
1
0
LINE
5
82
100
AcDbEntity
8
1
62
256
6
ByLayer
370
13
48
1
60
0
100
AcDbLine
10
29.527569
20
-15.79932
30
0
11
29.527569
21
-17.09089
31
0
39
0
210
0
220
0
230
1
0
LINE
5
83
100
AcDbEntity
8
1
62
256
6
ByLayer
370
13
48
1
60
0
100
AcDbLine
10
30.381623
20
8.176804
30
0
11
30.381623
21
7.81
31
0
39
0
210
0
220
0
230
1
0
LINE
5
84
100
AcDbEntity
8
1
62
256
6
ByLayer
370
13
48
1
60
0
100
AcDbLine
10
34.55
20
7.641231
30
0
11
34.55
21
3.726968
31
0
39
0
210
0
220
0
230
1
0
LINE
5
85
100
AcDbEntity
8
1
62
256
6
ByLayer
370
13
48
1
60
0
100
AcDbLine
10
2.2
20
6.812489
30
0
11
2.2
21
-6.812489
31
0
39
0
210
0
220
0
230
1
0
LINE
5
86
100
AcDbEntity
8
1
62
256
6
ByLayer
370
13
48
1
60
0
100
AcDbLine
10
34.55
20
3.726968
30
0
11
34.55
21
3
31
0
39
0
210
0
220
0
230
1
0
LINE
5
87
100
AcDbEntity
8
1
62
256
6
ByLayer
370
13
48
1
60
0
100
AcDbLine
10
22.28671
20
12.101891
30
0
11
22.147152
21
11.962333
31
0
39
0
210
0
220
0
230
1
0
LINE
5
88
100
AcDbEntity
8
1
62
256
6
ByLayer
370
13
48
1
60
0
100
AcDbLine
10
22.147152
20
0.5
30
0
11
22.28671
21
2.107407
31
0
39
0
210
0
220
0
230
1
0
LINE
5
89
100
AcDbEntity
8
1
62
256
6
ByLayer
370
13
48
1
60
0
100
AcDbLine
10
31.889955
20
8.725792
30
0
11
30.381623
21
8.176804
31
0
39
0
210
0
220
0
230
1
0
LINE
5
8A
100
AcDbEntity
8
1
62
256
6
ByLayer
370
13
48
1
60
0
100
AcDbLine
10
17
20
-0.425805
30
0
11
17
21
12.018475
31
0
39
0
210
0
220
0
230
1
0
LINE
5
8B
100
AcDbEntity
8
1
62
256
6
ByLayer
370
13
48
1
60
0
100
AcDbLine
10
18.97508
20
-12.273831
30
0
11
21.835654
21
-12.273831
31
0
39
0
210
0
220
0
230
1
0
LINE
5
8C
100
AcDbEntity
8
1
62
256
6
ByLayer
370
13
48
1
60
0
100
AcDbLine
10
16.896657
20
-2.18404
30
0
11
19.608449
21
-2.18404
31
0
39
0
210
0
220
0
230
1
0
LINE
5
8D
100
AcDbEntity
8
1
62
256
6
ByLayer
370
13
48
1
60
0
100
AcDbLine
10
29.527569
20
7.31
30
0
11
29.527569
21
3.31
31
0
39
0
210
0
220
0
230
1
0
LINE
5
8E
100
AcDbEntity
8
1
62
256
6
ByLayer
370
13
48
1
60
0
100
AcDbLine
10
8.5
20
-6.509224
30
0
11
8.5
21
6.509224
31
0
39
0
210
0
220
0
230
1
0
LINE
5
8F
100
AcDbEntity
8
1
62
256
6
ByLayer
370
13
48
1
60
0
100
AcDbLine
10
33.55
20
-3.748301
30
0
11
33.55
21
-2.18404
31
0
39
0
210
0
220
0
230
1
0
LINE
5
90
100
AcDbEntity
8
1
62
256
6
ByLayer
370
13
48
1
60
0
100
AcDbLine
10
34.250262
20
3.95531
30
0
11
34.250262
21
7.899065
31
0
39
0
210
0
220
0
230
1
0
LINE
5
91
100
AcDbEntity
8
1
62
256
6
ByLayer
370
13
48
1
60
0
100
AcDbLine
10
34.55
20
11.158456
30
0
11
34.55
21
11.471788
31
0
39
0
210
0
220
0
230
1
0
LINE
5
92
100
AcDbEntity
8
1
62
256
6
ByLayer
370
13
48
1
60
0
100
AcDbLine
10
8.3
20
-6.812489
30
0
11
8.3
21
6.812489
31
0
39
0
210
0
220
0
230
1
0
LINE
5
93
100
AcDbEntity
8
1
62
256
6
ByLayer
370
13
48
1
60
0
100
AcDbLine
10
27.553196
20
7.81
30
0
11
30.381623
21
7.81
31
0
39
0
210
0
220
0
230
1
0
LINE
5
94
100
AcDbEntity
8
1
62
256
6
ByLayer
370
13
48
1
60
0
100
AcDbLine
10
30.381623
20
-10.804416
30
0
11
30.02807
21
-11.157969
31
0
39
0
210
0
220
0
230
1
0
LINE
5
95
100
AcDbEntity
8
1
62
256
6
ByLayer
370
13
48
1
60
0
100
AcDbLine
10
25.959131
20
-13.105588
30
0
11
27.90675
21
-11.157969
31
0
39
0
210
0
220
0
230
1
0
LINE
5
96
100
AcDbEntity
8
1
62
256
6
ByLayer
370
13
48
1
60
0
100
AcDbLine
10
34.55
20
11.158456
30
0
11
34.55
21
9.204381
31
0
39
0
210
0
220
0
230
1
0
LINE
5
97
100
AcDbEntity
8
1
62
256
6
ByLayer
370
13
48
1
60
0
100
AcDbLine
10
21.987145
20
-2.18404
30
0
11
28.96741
21
-2.18404
31
0
39
0
210
0
220
0
230
1
0
LINE
5
98
100
AcDbEntity
8
1
62
256
6
ByLayer
370
13
48
1
60
0
100
AcDbLine
10
28.96741
20
-10.218629
30
0
11
28.96741
21
-2.18404
31
0
39
0
210
0
220
0
230
1
0
LINE
5
99
100
AcDbEntity
8
1
62
256
6
ByLayer
370
13
48
1
60
0
100
AcDbLine
10
27.553196
20
7.81
30
0
11
25.766072
21
7.81
31
0
39
0
210
0
220
0
230
1
0
LINE
5
9A
100
AcDbEntity
8
1
62
256
6
ByLayer
370
13
48
1
60
0
100
AcDbLine
10
22.147152
20
11.962333
30
0
11
21.835654
21
12.273831
31
0
39
0
210
0
220
0
230
1
0
LINE
5
9B
100
AcDbEntity
8
1
62
256
6
ByLayer
370
13
48
1
60
0
100
AcDbLine
10
33.55
20
-2.18404
30
0
11
28.96741
21
-2.18404
31
0
39
0
210
0
220
0
230
1
0
LINE
5
9C
100
AcDbEntity
8
1
62
256
6
ByLayer
370
13
48
1
60
0
100
AcDbLine
10
27.90675
20
-11.157969
30
0
11
27.553196
21
-10.804416
31
0
39
0
210
0
220
0
230
1
0
LINE
5
9D
100
AcDbEntity
8
1
62
256
6
ByLayer
370
13
48
1
60
0
100
AcDbLine
10
23.476323
20
-9.087943
30
0
11
23.476323
21
-12.102832
31
0
39
0
210
0
220
0
230
1
0
LINE
5
9E
100
AcDbEntity
8
1
62
256
6
ByLayer
370
13
48
1
60
0
100
AcDbLine
10
2.2
20
-6.812489
30
0
11
8.3
21
-6.812489
31
0
39
0
210
0
220
0
230
1
0
LINE
5
9F
100
AcDbEntity
8
1
62
256
6
ByLayer
370
13
48
1
60
0
100
AcDbLine
10
32.169134
20
7.81
30
0
11
30.381623
21
7.81
31
0
39
0
210
0
220
0
230
1
0
LINE
5
A0
100
AcDbEntity
8
1
62
256
6
ByLayer
370
13
48
1
60
0
100
AcDbLine
10
18.97508
20
0.5
30
0
11
21.835654
21
0.5
31
0
39
0
210
0
220
0
230
1
0
LINE
5
A1
100
AcDbEntity
8
1
62
256
6
ByLayer
370
13
48
1
60
0
100
AcDbLine
10
34.55
20
-9.332941
30
0
11
34.55
21
-11.471788
31
0
39
0
210
0
220
0
230
1
0
LINE
5
A2
100
AcDbEntity
8
1
62
256
6
ByLayer
370
13
48
1
60
0
100
AcDbLine
10
30.381623
20
-10.804416
30
0
11
31.889955
21
-12.312747
31
0
39
0
210
0
220
0
230
1
0
LINE
5
A3
100
AcDbEntity
8
1
62
256
6
ByLayer
370
13
48
1
60
0
100
AcDbLine
10
34.55
20
-6.445175
30
0
11
34.55
21
-9.332941
31
0
39
0
210
0
220
0
230
1
0
LINE
5
A4
100
AcDbEntity
8
1
62
256
6
ByLayer
370
13
48
1
60
0
100
AcDbLine
10
27.553196
20
8.249041
30
0
11
27.553196
21
7.81
31
0
39
0
210
0
220
0
230
1
0
LINE
5
A5
100
AcDbEntity
8
1
62
256
6
ByLayer
370
13
48
1
60
0
100
AcDbLine
10
34.250262
20
-12.148217
30
0
11
34.250262
21
-10.041335
31
0
39
0
210
0
220
0
230
1
0
LINE
5
A6
100
AcDbEntity
8
1
62
256
6
ByLayer
370
13
48
1
60
0
100
AcDbLine
10
18.97508
20
12.273831
30
0
11
21.835654
21
12.273831
31
0
39
0
210
0
220
0
230
1
0
LINE
5
A7
100
AcDbEntity
8
1
62
256
6
ByLayer
370
13
48
1
60
0
100
AcDbLine
10
26.130694
20
-12.226918
30
0
11
25.766072
21
-12.59154
31
0
39
0
210
0
220
0
230
1
0
LINE
5
A8
100
AcDbEntity
8
1
62
256
6
ByLayer
370
13
48
1
60
0
100
AcDbLine
10
8.3
20
6.812489
30
0
11
2.2
21
6.812489
31
0
39
0
210
0
220
0
230
1
0
LINE
5
A9
100
AcDbEntity
8
1
62
256
6
ByLayer
370
13
48
1
60
0
100
AcDbLine
10
28.407061
20
-17.090801
30
0
11
28.407061
21
-15.799224
31
0
39
0
210
0
220
0
230
1
0
LINE
5
AA
100
AcDbEntity
8
1
62
256
6
ByLayer
370
13
48
1
60
0
100
AcDbLine
10
22.77595
20
2.828477
30
0
11
22.77595
21
8.815499
31
0
39
0
210
0
220
0
230
1
0
LINE
5
AB
100
AcDbEntity
8
1
62
256
6
ByLayer
370
13
48
1
60
0
100
AcDbLine
10
2
20
6.509224
30
0
11
2
21
-6.509224
31
0
39
0
210
0
220
0
230
1
0
LINE
5
AC
100
AcDbEntity
8
1
62
256
6
ByLayer
370
13
48
1
60
0
100
AcDbLine
10
22.147152
20
0.5
30
0
11
21.835654
21
0.5
31
0
39
0
210
0
220
0
230
1
0
LINE
5
AD
100
AcDbEntity
8
1
62
256
6
ByLayer
370
13
48
1
60
0
100
AcDbLine
10
28.407061
20
3.31
30
0
11
28.407061
21
7.31
31
0
39
0
210
0
220
0
230
1
0
LINE
5
AE
100
AcDbEntity
8
1
62
256
6
ByLayer
370
13
48
1
60
0
100
AcDbLine
10
30.02807
20
-11.157969
30
0
11
31.976039
21
-13.105938
31
0
39
0
210
0
220
0
230
1
0
LINE
5
AF
100
AcDbEntity
8
1
62
256
6
ByLayer
370
13
48
1
60
0
100
AcDbLine
10
32.169134
20
-12.591927
30
0
11
31.889955
21
-12.312747
31
0
39
0
210
0
220
0
230
1
0
LINE
5
B0
100
AcDbEntity
8
1
62
256
6
ByLayer
370
13
48
1
60
0
100
AcDbLine
10
22.77595
20
-11.953938
30
0
11
22.77595
21
-8.554759
31
0
39
0
210
0
220
0
230
1
0
LINE
5
B1
100
AcDbEntity
8
1
62
256
6
ByLayer
370
13
48
1
60
0
100
AcDbLine
10
23.476323
20
8.684472
30
0
11
23.476323
21
3.395914
31
0
39
0
210
0
220
0
230
1
0
LINE
5
B2
100
AcDbEntity
8
1
62
256
6
ByLayer
370
13
48
1
60
0
100
AcDbLine
10
34.55
20
-0.5
30
0
11
34.55
21
-6.451065
31
0
39
0
210
0
220
0
230
1
0
LINE
5
B3
100
AcDbEntity
8
1
62
256
6
ByLayer
370
13
48
1
60
0
100
AcDbLine
10
34.444427
20
-6.000166
30
0
11
34.444427
21
-0.5
31
0
39
0
210
0
220
0
230
1
0
LINE
5
B4
100
AcDbEntity
8
1
62
256
6
ByLayer
370
13
48
1
60
0
100
AcDbLine
10
33.655573
20
-0.5
30
0
11
33.655573
21
-4.277888
31
0
39
0
210
0
220
0
230
1
0
LINE
5
B5
100
AcDbEntity
8
1
62
256
6
ByLayer
370
13
48
1
60
0
100
AcDbLine
10
34.55
20
9.204381
30
0
11
34.55
21
7.648963
31
0
39
0
210
0
220
0
230
1
0
LINE
5
B6
100
AcDbEntity
8
1
62
256
6
ByLayer
370
13
48
1
60
0
100
AcDbLine
10
34.444427
20
7.808157
30
0
11
34.444427
21
8.756474
31
0
39
0
210
0
220
0
230
1
0
LINE
5
B7
100
AcDbEntity
8
SK1
62
256
6
ByLayer
370
13
48
1
60
0
100
AcDbLine
10
-24
20
5
30
0
11
-24
21
-5
31
0
39
0
210
0
220
0
230
1
0
LINE
5
B9
100
AcDbEntity
8
SK1
62
256
6
ByLayer
370
13
48
1
60
0
100
AcDbLine
10
-23.8
20
5.2
30
0
11
-23.8
21
-5.2
31
0
39
0
210
0
220
0
230
1
0
LINE
5
BA
100
AcDbEntity
8
SK1
62
256
6
ByLayer
370
13
48
1
60
0
100
AcDbLine
10
-20
20
5.2
30
0
11
-20
21
-5.2
31
0
39
0
210
0
220
0
230
1
0
LINE
5
BB
100
AcDbEntity
8
1
62
256
6
ByLayer
370
13
48
1
60
0
100
AcDbLine
10
33.55
20
-2.18404
30
0
11
33.55
21
-0.084526
31
0
39
0
210
0
220
0
230
1
0
LINE
5
BC
100
AcDbEntity
8
SK1
62
256
6
ByLayer
370
13
48
1
60
0
100
AcDbLine
10
-19.5
20
7.157396
30
0
11
-19.5
21
-7.157396
31
0
39
0
210
0
220
0
230
1
0
LINE
5
BD
100
AcDbEntity
8
SK1
62
256
6
ByLayer
370
13
48
1
60
0
100
AcDbLine
10
-4.5
20
8.73396
30
0
11
-4.5
21
-8.73396
31
0
39
0
210
0
220
0
230
1
0
LINE
5
BE
100
AcDbEntity
8
SK1
62
256
6
ByLayer
370
13
48
1
60
0
100
AcDbLine
10
-0.384645
20
8.892056
30
0
11
-0.384645
21
-8.892056
31
0
39
0
210
0
220
0
230
1
0
LINE
5
BF
100
AcDbEntity
8
1
62
256
6
ByLayer
370
13
48
1
60
0
100
AcDbLine
10
34.55
20
3
30
0
11
34.55
21
1.80457
31
0
39
0
210
0
220
0
230
1
0
LINE
5
C0
100
AcDbEntity
8
1
62
256
6
ByLayer
370
13
48
1
60
0
100
AcDbLine
10
13.4516
20
-11.6
30
0
11
13.4516
21
11.6
31
0
39
0
210
0
220
0
230
1
0
LINE
5
C1
100
AcDbEntity
8
1
62
256
6
ByLayer
370
13
48
1
60
0
100
AcDbLine
10
34.245664
20
3
30
0
11
34.55
21
3
31
0
39
0
210
0
220
0
230
1
0
LINE
5
C2
100
AcDbEntity
8
1
62
256
6
ByLayer
370
13
48
1
60
0
100
AcDbLine
10
0
20
12.1
30
0
11
0
21
-12.1
31
0
39
0
210
0
220
0
230
1
0
LINE
5
C3
100
AcDbEntity
8
1
62
256
6
ByLayer
370
13
48
1
60
0
100
AcDbLine
10
10.5
20
-12.1
30
0
11
10.5
21
12.1
31
0
39
0
210
0
220
0
230
1
0
LINE
5
C4
100
AcDbEntity
8
1
62
256
6
ByLayer
370
13
48
1
60
0
100
AcDbLine
10
11
20
-11.6
30
0
11
11
21
11.6
31
0
39
0
210
0
220
0
230
1
0
LINE
5
C5
100
AcDbEntity
8
1
62
256
6
ByLayer
370
13
48
1
60
0
100
AcDbLine
10
23.06188
20
0.5
30
0
11
22.147152
21
0.5
31
0
39
0
210
0
220
0
230
1
0
LINE
5
C6
100
AcDbEntity
8
1
62
256
6
ByLayer
370
13
48
1
60
0
100
AcDbLine
10
28.96741
20
-2.18404
30
0
11
28.96741
21
-0.221256
31
0
39
0
210
0
220
0
230
1
0
LINE
5
C7
100
AcDbEntity
8
1
62
256
6
ByLayer
370
13
48
1
60
0
100
AcDbLine
10
13.547501
20
11.609283
30
0
11
13.547501
21
-11.609283
31
0
39
0
210
0
220
0
230
1
0
LINE
5
C8
100
AcDbEntity
8
1
62
256
6
ByLayer
370
13
48
1
60
0
100
AcDbLine
10
17
20
12.284011
30
0
11
17
21
12.276629
31
0
39
0
210
0
220
0
230
1
0
LINE
5
C9
100
AcDbEntity
8
1
62
256
6
ByLayer
370
13
48
1
60
0
100
AcDbLine
10
17
20
-12.284011
30
0
11
17
21
-2.540309
31
0
39
0
210
0
220
0
230
1
0
LINE
5
CA
100
AcDbEntity
8
81
62
256
6
ByLayer
370
18
48
1
60
0
100
AcDbLine
10
35
20
12.75
30
0
11
40
21
12.75
31
0
39
0
210
0
220
0
230
1
0
LINE
5
CB
100
AcDbEntity
8
SK4
62
256
6
ByLayer
370
18
48
0.05
60
0
100
AcDbLine
10
-5
20
0
30
0
11
40
21
0
31
0
39
0
210
0
220
0
230
1
0
LINE
5
CD
100
AcDbEntity
8
80
62
256
6
ByLayer
370
18
48
1
60
0
100
AcDbLine
10
0
20
0
30
0
11
-5
21
0
31
0
39
0
210
0
220
0
230
1
0
LINE
5
CE
100
AcDbEntity
8
1
62
256
6
ByLayer
370
13
48
1
60
0
100
AcDbLine
10
17.415451
20
12.284011
30
0
11
17
21
12.284011
31
0
39
0
210
0
220
0
230
1
0
LINE
5
CF
100
AcDbEntity
8
SK1
62
256
6
ByLayer
370
13
48
1
60
0
100
AcDbLine
10
-23.8
20
-5.2
30
0
11
-20
21
-5.2
31
0
39
0
210
0
220
0
230
1
0
LINE
5
D0
100
AcDbEntity
8
SK1
62
256
6
ByLayer
370
13
48
1
60
0
100
AcDbLine
10
-20
20
5.2
30
0
11
-23.8
21
5.2
31
0
39
0
210
0
220
0
230
1
0
LINE
5
D1
100
AcDbEntity
8
SK1
62
256
6
ByLayer
370
13
48
1
60
0
100
AcDbLine
10
-24
20
-5
30
0
11
-23.8
21
-5.2
31
0
39
0
210
0
220
0
230
1
0
LINE
5
D2
100
AcDbEntity
8
SK1
62
256
6
ByLayer
370
13
48
1
60
0
100
AcDbLine
10
-23.8
20
5.2
30
0
11
-24
21
5
31
0
39
0
210
0
220
0
230
1
0
LINE
5
D3
100
AcDbEntity
8
SK1
62
256
6
ByLayer
370
13
48
1
60
0
100
AcDbLine
10
-19.5
20
-7.157396
30
0
11
-4.5
21
-8.73396
31
0
39
0
210
0
220
0
230
1
0
LINE
5
D4
100
AcDbEntity
8
SK1
62
256
6
ByLayer
370
13
48
1
60
0
100
AcDbLine
10
-4.5
20
8.73396
30
0
11
-19.5
21
7.157396
31
0
39
0
210
0
220
0
230
1
0
LINE
5
D5
100
AcDbEntity
8
SK1
62
256
6
ByLayer
370
13
48
1
60
0
100
AcDbLine
10
-4.5
20
-8.73396
30
0
11
-0.384645
21
-8.892056
31
0
39
0
210
0
220
0
230
1
0
LINE
5
D6
100
AcDbEntity
8
SK1
62
256
6
ByLayer
370
13
48
1
60
0
100
AcDbLine
10
-0.384645
20
8.892056
30
0
11
-4.5
21
8.73396
31
0
39
0
210
0
220
0
230
1
0
LINE
5
D7
100
AcDbEntity
8
1
62
256
6
ByLayer
370
13
48
1
60
0
100
AcDbLine
10
13.4516
20
11.6
30
0
11
11
21
11.6
31
0
39
0
210
0
220
0
230
1
0
LINE
5
D8
100
AcDbEntity
8
1
62
256
6
ByLayer
370
13
48
1
60
0
100
AcDbLine
10
11
20
-11.6
30
0
11
13.4516
21
-11.6
31
0
39
0
210
0
220
0
230
1
0
LINE
5
D9
100
AcDbEntity
8
1
62
256
6
ByLayer
370
13
48
1
60
0
100
AcDbLine
10
0
20
-12.1
30
0
11
10.5
21
-12.1
31
0
39
0
210
0
220
0
230
1
0
LINE
5
DA
100
AcDbEntity
8
1
62
256
6
ByLayer
370
13
48
1
60
0
100
AcDbLine
10
10.5
20
12.1
30
0
11
0
21
12.1
31
0
39
0
210
0
220
0
230
1
0
LINE
5
DB
100
AcDbEntity
8
1
62
256
6
ByLayer
370
13
48
1
60
0
100
AcDbLine
10
17
20
-12.284011
30
0
11
17.415451
21
-12.284011
31
0
39
0
210
0
220
0
230
1
0
LINE
5
DC
100
AcDbEntity
8
1
62
256
6
ByLayer
370
13
48
1
60
0
100
AcDbLine
10
13.547501
20
-11.609283
30
0
11
17
21
-12.284011
31
0
39
0
210
0
220
0
230
1
0
LINE
5
DD
100
AcDbEntity
8
1
62
256
6
ByLayer
370
13
48
1
60
0
100
AcDbLine
10
17
20
12.284011
30
0
11
13.547501
21
11.609283
31
0
39
0
210
0
220
0
230
1
0
LINE
5
DE
100
AcDbEntity
8
4
62
256
6
ByLayer
370
18
48
0.05
60
0
100
AcDbLine
10
0
20
0
30
0
11
40
21
0
31
0
39
0
210
0
220
0
230
1
0
LINE
5
E0
100
AcDbEntity
8
SK2
62
256
6
ByLayer
370
13
48
1
60
0
100
AcDbLine
10
28.644878
20
19.105122
30
0
11
23.582128
21
24.167872
31
0
39
0
210
0
220
0
230
1
0
LINE
5
E2
100
AcDbEntity
8
SK2
62
256
6
ByLayer
370
13
48
1
60
0
100
AcDbLine
10
35
20
14.3375
30
0
11
35
21
28.89731
31
0
39
0
210
0
220
0
230
1
0
LINE
5
E3
100
AcDbEntity
8
1
62
256
6
ByLayer
370
13
48
1
60
0
100
AcDbLine
10
25.827192
20
21.922808
30
0
11
27.927666
21
24.340109
31
0
39
0
210
0
220
0
230
1
0
LINE
5
E4
100
AcDbEntity
8
1
62
256
6
ByLayer
370
13
48
1
60
0
100
AcDbLine
10
25.827192
20
21.922808
30
0
11
28.48174
21
23.714101
31
0
39
0
210
0
220
0
230
1
0
LINE
5
E5
100
AcDbEntity
8
1
62
256
6
ByLayer
370
13
48
1
60
0
100
AcDbLine
10
27.927666
20
24.340109
30
0
11
28.48174
21
23.714101
31
0
39
0
210
0
220
0
230
1
0
LINE
5
E6
100
AcDbEntity
8
1
62
256
6
ByLayer
370
13
48
1
60
0
100
AcDbLine
10
35
20
25.72231
30
0
11
31.856319
21
25.111896
31
0
39
0
210
0
220
0
230
1
0
LINE
5
E7
100
AcDbEntity
8
1
62
256
6
ByLayer
370
13
48
1
60
0
100
AcDbLine
10
35
20
25.72231
30
0
11
31.805447
21
25.94634
31
0
39
0
210
0
220
0
230
1
0
LINE
5
E8
100
AcDbEntity
8
1
62
256
6
ByLayer
370
13
48
1
60
0
100
AcDbLine
10
31.856319
20
25.111896
30
0
11
31.805447
21
25.94634
31
0
39
0
210
0
220
0
230
1
0
MTEXT
5
1EC
100
AcDbEntity
8
SK2
62
256
6
ByLayer
370
18
48
1
60
0
100
AcDbMText
10
41.52191
20
26.537266
30
0
210
0
220
0
230
1
1
\W1.0427;45%%d
40
4.5
41
0
44
1.084337
50
315.545984196369
71
7
72
5
7
iso_b_vert
0
MTEXT
5
1EF
100
AcDbEntity
8
SK6
62
256
6
ByLayer
370
18
48
1
60
0
100
AcDbMText
10
-90.788153
20
-19.82
30
0
210
0
220
0
230
1
1
\W0.7666;495-025EH25-4509H
40
4
41
0
44
1.084337
50
89.9999999999998
71
7
72
5
7
iso_b_vert
0
DIMENSION
5
1F2
100
AcDbEntity
8
2
62
256
6
ByLayer
370
18
48
1
60
0
100
AcDbDimension
2
_U0
10
59.896875
20
12.75
30
0
11
59.896875
21
0
31
0
70
32
71
1
72
1
41
1
210
0
220
0
230
1
3
Standard
100
AcDbAlignedDimension
13
35
23
-12.75
33
0
14
35
24
12.75
34
0
50
90
100
AcDbRotatedDimension
1001
ACAD
1000
DSTYLE
1002
{
1070
   371
1070
    13
1070
   372
1070
    13
1070
   170
1070
     0
1070
   144
1040
1.0
1070
   277
1070
     2
1070
   284
1070
     8
1070
   278
1070
    46
1070
   146
1040
0.777778
1070
   345
1005
16
1070
   347
1005
16
1070
   346
1005
16
1070
   344
1005
1F3
1070
   343
1005
1F3
1070
   172
1070
     1
1070
    76
1070
     0
1070
    75
1070
     0
1070
   282
1070
     0
1070
   281
1070
     0
1070
    71
1070
     0
1070
    74
1070
     0
1070
   279
1070
     0
1070
   173
1070
     1
1070
   340
1005
1ED
1070
   271
1070
     2
1070
   272
1070
     2
1070
    77
1070
     1
1070
    73
1070
     0
1070
   171
1070
     3
1070
   274
1070
     4
1070
   177
1070
   150
1070
   176
1070
     9
1070
   178
1070
    43
1070
    78
1070
     8
1070
    48
1040
-0.1
1070
    41
1040
3.175
1070
   147
1040
2.25
1070
    42
1040
1.5875
1070
    44
1040
3.175
1070
   140
1040
4.5
1002
}
1001
ACAD_DSTYLE_DIM_LINETYPE
1070
   380
1005
16
1001
ACAD_DSTYLE_DIM_EXT1_LINETYPE
1070
   381
1005
16
1001
ACAD_DSTYLE_DIM_EXT2_LINETYPE
1070
   382
1005
16
0
DIMENSION
5
218
100
AcDbEntity
8
SK2
62
256
6
ByLayer
370
18
48
1
60
0
100
AcDbDimension
2
_U1
10
0
20
-37.25
30
0
11
17.5
21
-37.25
31
0
70
32
71
1
72
1
41
1
210
0
220
0
230
1
3
Standard
100
AcDbAlignedDimension
13
35
23
-12.75
33
0
14
0
24
0
34
0
50
0
100
AcDbRotatedDimension
1001
ACAD
1000
DSTYLE
1002
{
1070
   371
1070
    13
1070
   372
1070
    13
1070
   170
1070
     0
1070
   144
1040
1.0
1070
   277
1070
     2
1070
   284
1070
     8
1070
   278
1070
    46
1070
   146
1040
0.777778
1070
   345
1005
16
1070
   347
1005
16
1070
   346
1005
16
1070
   344
1005
1F3
1070
   343
1005
1F3
1070
   172
1070
     1
1070
    76
1070
     0
1070
    75
1070
     0
1070
   282
1070
     0
1070
   281
1070
     0
1070
    71
1070
     0
1070
    74
1070
     0
1070
   279
1070
     0
1070
   173
1070
     1
1070
   340
1005
1ED
1070
   271
1070
     2
1070
   272
1070
     2
1070
    77
1070
     1
1070
    73
1070
     1
1070
   171
1070
     3
1070
   274
1070
     4
1070
   177
1070
   150
1070
   176
1070
     9
1070
   178
1070
    43
1070
    78
1070
     8
1070
    48
1040
-0.1
1070
    41
1040
3.175
1070
   147
1040
2.25
1070
    42
1040
1.5875
1070
    44
1040
3.175
1070
   140
1040
4.5
1002
}
1001
ACAD_DSTYLE_DIM_LINETYPE
1070
   380
1005
16
1001
ACAD_DSTYLE_DIM_EXT1_LINETYPE
1070
   381
1005
16
1001
ACAD_DSTYLE_DIM_EXT2_LINETYPE
1070
   382
1005
16
0
DIMENSION
5
234
100
AcDbEntity
8
2
62
256
6
ByLayer
370
18
48
1
60
0
100
AcDbDimension
2
_U2
10
35
20
33.25
30
0
11
17.5
21
33.25
31
0
70
32
71
1
72
1
41
1
210
0
220
0
230
1
3
Standard
100
AcDbAlignedDimension
13
0
23
12.5
33
0
14
35
24
12.75
34
0
50
0
100
AcDbRotatedDimension
1001
ACAD
1000
DSTYLE
1002
{
1070
   371
1070
    13
1070
   372
1070
    13
1070
   170
1070
     0
1070
   144
1040
1.0
1070
   277
1070
     2
1070
   284
1070
     8
1070
   278
1070
    46
1070
   146
1040
0.777778
1070
   345
1005
16
1070
   347
1005
16
1070
   346
1005
16
1070
   344
1005
1F3
1070
   343
1005
1F3
1070
   172
1070
     1
1070
    76
1070
     0
1070
    75
1070
     0
1070
   282
1070
     0
1070
   281
1070
     0
1070
    71
1070
     0
1070
    74
1070
     0
1070
   279
1070
     0
1070
   173
1070
     1
1070
   340
1005
1ED
1070
   271
1070
     2
1070
   272
1070
     2
1070
    77
1070
     1
1070
    73
1070
     1
1070
   171
1070
     3
1070
   274
1070
     4
1070
   177
1070
   150
1070
   176
1070
     9
1070
   178
1070
    43
1070
    78
1070
     8
1070
    48
1040
-0.1
1070
    41
1040
3.175
1070
   147
1040
2.25
1070
    42
1040
1.5875
1070
    44
1040
3.175
1070
   140
1040
4.5
1002
}
1001
ACAD_DSTYLE_DIM_LINETYPE
1070
   380
1005
16
1001
ACAD_DSTYLE_DIM_EXT1_LINETYPE
1070
   381
1005
16
1001
ACAD_DSTYLE_DIM_EXT2_LINETYPE
1070
   382
1005
16
0
DIMENSION
5
250
100
AcDbEntity
8
SK2
62
256
6
ByLayer
370
18
48
1
60
0
100
AcDbDimension
2
_U3
10
28.96
20
23.25
30
0
11
14.48
21
23.25
31
0
70
32
71
1
72
1
41
1
210
0
220
0
230
1
3
Standard
100
AcDbAlignedDimension
13
0
23
12.5
33
0
14
28.96
24
18.45
34
0
50
0
100
AcDbRotatedDimension
1001
ACAD
1000
DSTYLE
1002
{
1070
   371
1070
    13
1070
   372
1070
    13
1070
   170
1070
     0
1070
   144
1040
1.0
1070
   277
1070
     2
1070
   284
1070
     8
1070
   278
1070
    46
1070
   146
1040
0.777778
1070
   345
1005
16
1070
   347
1005
16
1070
   346
1005
16
1070
   344
1005
1F3
1070
   343
1005
1F3
1070
   172
1070
     1
1070
    76
1070
     0
1070
    75
1070
     0
1070
   282
1070
     0
1070
   281
1070
     0
1070
    71
1070
     0
1070
    74
1070
     0
1070
   279
1070
     0
1070
   173
1070
     1
1070
   340
1005
1ED
1070
   271
1070
     2
1070
   272
1070
     2
1070
    77
1070
     1
1070
    73
1070
     1
1070
   171
1070
     3
1070
   274
1070
     4
1070
   177
1070
   150
1070
   176
1070
     9
1070
   178
1070
    43
1070
    78
1070
     8
1070
    48
1040
-0.1
1070
    41
1040
3.175
1070
   147
1040
2.25
1070
    42
1040
1.5875
1070
    44
1040
3.175
1070
   140
1040
4.5
1002
}
1001
ACAD_DSTYLE_DIM_LINETYPE
1070
   380
1005
16
1001
ACAD_DSTYLE_DIM_EXT1_LINETYPE
1070
   381
1005
16
1001
ACAD_DSTYLE_DIM_EXT2_LINETYPE
1070
   382
1005
16
0
DIMENSION
5
26C
100
AcDbEntity
8
SK2
62
256
6
ByLayer
370
18
48
1
60
0
100
AcDbDimension
2
_U4
10
70.75
20
18.45
30
0
11
70.75
21
0
31
0
70
32
71
1
72
1
41
1
210
0
220
0
230
1
3
Standard
100
AcDbAlignedDimension
13
28.96
23
-18.45
33
0
14
28.96
24
18.45
34
0
50
90
100
AcDbRotatedDimension
1001
ACAD
1000
DSTYLE
1002
{
1070
   371
1070
    13
1070
   372
1070
    13
1070
   170
1070
     0
1070
   144
1040
1.0
1070
   277
1070
     2
1070
   284
1070
     8
1070
   278
1070
    46
1070
   146
1040
0.777778
1070
   345
1005
16
1070
   347
1005
16
1070
   346
1005
16
1070
   344
1005
1F3
1070
   343
1005
1F3
1070
   172
1070
     1
1070
    76
1070
     0
1070
    75
1070
     0
1070
   282
1070
     0
1070
   281
1070
     0
1070
    71
1070
     0
1070
    74
1070
     0
1070
   279
1070
     0
1070
   173
1070
     1
1070
   340
1005
1ED
1070
   271
1070
     2
1070
   272
1070
     2
1070
    77
1070
     1
1070
    73
1070
     0
1070
   171
1070
     3
1070
   274
1070
     4
1070
   177
1070
   150
1070
   176
1070
     9
1070
   178
1070
    43
1070
    78
1070
     8
1070
    48
1040
-0.1
1070
    41
1040
3.175
1070
   147
1040
2.25
1070
    42
1040
1.5875
1070
    44
1040
3.175
1070
   140
1040
4.5
1002
}
1001
ACAD_DSTYLE_DIM_LINETYPE
1070
   380
1005
16
1001
ACAD_DSTYLE_DIM_EXT1_LINETYPE
1070
   381
1005
16
1001
ACAD_DSTYLE_DIM_EXT2_LINETYPE
1070
   382
1005
16
0
DIMENSION
5
289
100
AcDbEntity
8
SK2
62
256
6
ByLayer
370
18
48
1
60
0
100
AcDbDimension
2
_U5
10
-25.103125
20
-12.5
30
0
11
-25.103125
21
0
31
0
70
32
71
1
72
1
41
1
210
0
220
0
230
1
3
Standard
100
AcDbAlignedDimension
13
0
23
12.5
33
0
14
0
24
-12.5
34
0
50
90
100
AcDbRotatedDimension
1001
ACAD
1000
DSTYLE
1002
{
1070
   371
1070
    13
1070
   372
1070
    13
1070
   170
1070
     0
1070
   144
1040
1.0
1070
   277
1070
     2
1070
   284
1070
     8
1070
   278
1070
    46
1070
   146
1040
0.777778
1070
   345
1005
16
1070
   347
1005
16
1070
   346
1005
16
1070
   344
1005
1F3
1070
   343
1005
1F3
1070
   172
1070
     1
1070
    76
1070
     0
1070
    75
1070
     0
1070
   282
1070
     0
1070
   281
1070
     0
1070
    71
1070
     0
1070
    74
1070
     0
1070
   279
1070
     0
1070
   173
1070
     1
1070
   340
1005
1ED
1070
   271
1070
     2
1070
   272
1070
     2
1070
    77
1070
     1
1070
    73
1070
     0
1070
   171
1070
     3
1070
   274
1070
     4
1070
   177
1070
   150
1070
   176
1070
     9
1070
   178
1070
    43
1070
    78
1070
     8
1070
    48
1040
-0.1
1070
    41
1040
3.175
1070
   147
1040
2.25
1070
    42
1040
1.5875
1070
    44
1040
3.175
1070
   140
1040
4.5
1002
}
1001
ACAD_DSTYLE_DIM_LINETYPE
1070
   380
1005
16
1001
ACAD_DSTYLE_DIM_EXT1_LINETYPE
1070
   381
1005
16
1001
ACAD_DSTYLE_DIM_EXT2_LINETYPE
1070
   382
1005
16
0
ENDSEC
0
SECTION
2
OBJECTS
0
DICTIONARY
5
316
330
0
100
AcDbDictionary
280
0
281
1
3
ACAD_GROUP
350
317
3
ACAD_MLINESTYLE
350
318
0
DICTIONARY
5
317
330
0
100
AcDbDictionary
280
0
281
1
0
DICTIONARY
5
318
330
0
100
AcDbDictionary
280
0
281
1
3
Standard
350
18
0
MLINESTYLE
5
18
330
318
100
AcDbMlineStyle
2
Standard
70
0
3

62
256
51
90
52
90
71
2
49
-0.5
62
256
6
ByLayer
49
0.5
62
256
6
ByLayer
0
RASTERVARIABLES
5
304
330

100
AcDbRasterVariables
90
0
70
1
71
1
72
1
0
ENDSEC
0
EOF
