0
SECTION
2
HEADER
9
$ACADVER
1
AC1015
9
$DWGCODEPAGE
3
ANSI_1252
9
$HANDSEED
5
2b7
9
$ANGBASE
50
0
9
$ANGDIR
70
0
9
$ATTMODE
70
1
9
$AUNITS
70
0
9
$AUPREC
70
0
9
$CECOLOR
62
256
9
$CELTSCALE
40
1
9
$CELTYPE
6
ByLayer
9
$CELWEIGHT
370
18
9
$CLAYER
8
0
9
$CMLJUST
70
0
9
$CMLSCALE
40
1
9
$CMLSTYLE
2
Standard
9
$DIMSTYLE
2
Standard
9
$TEXTSIZE
40
0.2
9
$TEXTSTYLE
7
Standard
9
$LUNITS
70
2
9
$LUPREC
70
4
9
$EXTNAMES
290
1
9
$INSUNITS
70
4
9
$LTSCALE
40
1
9
$LWDISPLAY
290
1
9
$PDMODE
70
0
9
$PDSIZE
40
0
9
$PLINEGEN
70
0
0
ENDSEC
0
SECTION
2
CLASSES
0
CLASS
1
RASTERVARIABLES
2
AcDbRasterVariables
3
ISM
90
0
280
0
281
0
0
ENDSEC
0
SECTION
2
TABLES
0
TABLE
2
VPORT
5
2ad
100
AcDbSymbolTable
0
VPORT
5
1
100
AcDbSymbolTableRecord
100
AcDbViewportTableRecord
2
*Active
70
0
10
0
20
0
11
1
21
1
12
-1
22
1
13
0
23
0
14
0.5
24
0.5
15
10
25
10
16
0
26
0
36
1
17
0
27
0
37
0
0
ENDTAB
0
TABLE
2
LTYPE
5
2ae
100
AcDbSymbolTable
0
LTYPE
5
14
100
AcDbSymbolTableRecord
100
AcDbLinetypeTableRecord
70
0
2
ByBlock
3

72
65
73
0
40
0
0
LTYPE
5
15
100
AcDbSymbolTableRecord
100
AcDbLinetypeTableRecord
70
0
2
ByLayer
3

72
65
73
0
40
0
0
LTYPE
5
16
100
AcDbSymbolTableRecord
100
AcDbLinetypeTableRecord
70
0
2
Continuous
3
Solid line
72
65
73
0
40
0
0
LTYPE
5
6E
100
AcDbSymbolTableRecord
100
AcDbLinetypeTableRecord
70
0
2
CENTER
3
____ _ ____ _ ____ _ ____
72
65
73
4
40
47.5
49
22
74
0
49
-8.5
74
0
49
8.5
74
0
49
-8.5
74
0
0
LTYPE
5
6F
100
AcDbSymbolTableRecord
100
AcDbLinetypeTableRecord
70
0
2
DASHED
3
__ __ __ __ __ __ __ __ __
72
65
73
2
40
25.72
49
12.86
74
0
49
-12.86
74
0
0
ENDTAB
0
TABLE
2
LAYER
5
2af
100
AcDbSymbolTable
0
LAYER
5
10
100
AcDbSymbolTableRecord
100
AcDbLayerTableRecord
2
0
70
0
62
7
6
Continuous
290
1
370
-3
390
0
0
LAYER
5
71
100
AcDbSymbolTableRecord
100
AcDbLayerTableRecord
2
81
70
0
62
-3
6
Continuous
290
1
370
-3
390
0
0
LAYER
5
73
100
AcDbSymbolTableRecord
100
AcDbLayerTableRecord
2
80
70
0
62
-6
6
Continuous
290
1
370
-3
390
0
0
LAYER
5
75
100
AcDbSymbolTableRecord
100
AcDbLayerTableRecord
2
1
70
0
62
4
6
Continuous
290
1
370
-3
390
0
0
LAYER
5
B6
100
AcDbSymbolTableRecord
100
AcDbLayerTableRecord
2
4
70
0
62
-2
6
CENTER
290
1
370
-3
390
0
0
LAYER
5
190
100
AcDbSymbolTableRecord
100
AcDbLayerTableRecord
2
Defpoints
70
0
62
7
6
Continuous
290
0
370
-3
390
0
0
LAYER
5
19D
100
AcDbSymbolTableRecord
100
AcDbLayerTableRecord
2
2
70
0
62
7
6
Continuous
290
1
370
-3
390
0
0
LAYER
5
299
100
AcDbSymbolTableRecord
100
AcDbLayerTableRecord
2
SK1
70
0
62
4
6
Continuous
290
1
370
-3
390
0
0
LAYER
5
29a
100
AcDbSymbolTableRecord
100
AcDbLayerTableRecord
2
SK4
70
0
62
2
6
CENTER
290
1
370
-3
390
0
0
LAYER
5
29b
100
AcDbSymbolTableRecord
100
AcDbLayerTableRecord
2
SK2
70
0
62
7
6
Continuous
290
1
370
-3
390
0
0
LAYER
5
29c
100
AcDbSymbolTableRecord
100
AcDbLayerTableRecord
2
SK6
70
0
62
5
6
Continuous
290
1
370
-3
390
0
0
ENDTAB
0
TABLE
2
STYLE
5
2b0
100
AcDbSymbolTable
0
STYLE
5
11
100
AcDbSymbolTableRecord
100
AcDbTextStyleTableRecord
2
Standard
3
txt
70
0
71
0
40
0
41
1
42
0
50
0
0
STYLE
5
181
100
AcDbSymbolTableRecord
100
AcDbTextStyleTableRecord
2
iso_b_vert
3
simplex.shx
70
0
71
0
40
0
41
1
42
0
50
0
0
STYLE
5
182
100
AcDbSymbolTableRecord
100
AcDbTextStyleTableRecord
2
DWGDirectTextStyle
3
simplex
70
0
71
0
40
0
41
1
42
0
50
0
0
ENDTAB
0
TABLE
2
DIMSTYLE
5
2b1
100
AcDbSymbolTable
100
AcDbDimStyleTable
0
DIMSTYLE
105
27
100
AcDbSymbolTableRecord
100
AcDbDimStyleTableRecord
2
Standard
70
0
3
<>
41
0.18
42
0.0625
44
0.18
140
0.18
147
0.09
73
0
74
0
77
1
271
2
275
0
278
52
280
0
340
11
0
ENDTAB
0
TABLE
2
VIEW
5
2b2
100
AcDbSymbolTable
0
ENDTAB
0
TABLE
2
UCS
5
2b3
100
AcDbSymbolTable
0
ENDTAB
0
TABLE
2
APPID
5
2b4
100
AcDbSymbolTable
0
APPID
5
12
100
AcDbSymbolTableRecord
100
AcDbRegAppTableRecord
2
ACAD
70
0
0
APPID
5
185
100
AcDbSymbolTableRecord
100
AcDbRegAppTableRecord
2
ACAD_DSTYLE_DIMBREAK
70
0
0
APPID
5
258
100
AcDbSymbolTableRecord
100
AcDbRegAppTableRecord
2
ACAD_DSTYLE_DIM_LINETYPE
70
0
0
APPID
5
259
100
AcDbSymbolTableRecord
100
AcDbRegAppTableRecord
2
ACAD_DSTYLE_DIM_EXT1_LINETYPE
70
0
0
APPID
5
25A
100
AcDbSymbolTableRecord
100
AcDbRegAppTableRecord
2
ACAD_DSTYLE_DIM_EXT2_LINETYPE
70
0
0
APPID
5
295
100
AcDbSymbolTableRecord
100
AcDbRegAppTableRecord
2
ACAD_MLEADERVER
70
0
0
ENDTAB
0
TABLE
2
BLOCK_RECORD
5
2b5
100
AcDbSymbolTable
0
BLOCK_RECORD
5
1F
100
AcDbSymbolTableRecord
100
AcDbBlockTableRecord
2
*Model_Space
340
0
70
0
0
BLOCK_RECORD
5
1B
100
AcDbSymbolTableRecord
100
AcDbBlockTableRecord
2
*Paper_Space
340
0
70
0
0
BLOCK_RECORD
5
23
100
AcDbSymbolTableRecord
100
AcDbBlockTableRecord
2
*Paper_Space0
340
0
70
0
0
BLOCK_RECORD
5
187
100
AcDbSymbolTableRecord
100
AcDbBlockTableRecord
2
_Closed
340
0
70
0
0
BLOCK_RECORD
5
191
100
AcDbSymbolTableRecord
100
AcDbBlockTableRecord
2
*D2
340
0
70
0
0
BLOCK_RECORD
5
19E
100
AcDbSymbolTableRecord
100
AcDbBlockTableRecord
2
_U0
340
0
70
0
0
BLOCK_RECORD
5
1AF
100
AcDbSymbolTableRecord
100
AcDbBlockTableRecord
2
*D4
340
0
70
0
0
BLOCK_RECORD
5
1BB
100
AcDbSymbolTableRecord
100
AcDbBlockTableRecord
2
_U1
340
0
70
0
0
BLOCK_RECORD
5
1CB
100
AcDbSymbolTableRecord
100
AcDbBlockTableRecord
2
*D6
340
0
70
0
0
BLOCK_RECORD
5
1D7
100
AcDbSymbolTableRecord
100
AcDbBlockTableRecord
2
_U2
340
0
70
0
0
BLOCK_RECORD
5
1E7
100
AcDbSymbolTableRecord
100
AcDbBlockTableRecord
2
*D8
340
0
70
0
0
BLOCK_RECORD
5
1F3
100
AcDbSymbolTableRecord
100
AcDbBlockTableRecord
2
_U3
340
0
70
0
0
BLOCK_RECORD
5
203
100
AcDbSymbolTableRecord
100
AcDbBlockTableRecord
2
*D10
340
0
70
0
0
BLOCK_RECORD
5
20F
100
AcDbSymbolTableRecord
100
AcDbBlockTableRecord
2
_U4
340
0
70
0
0
BLOCK_RECORD
5
220
100
AcDbSymbolTableRecord
100
AcDbBlockTableRecord
2
*D12
340
0
70
0
0
BLOCK_RECORD
5
22C
100
AcDbSymbolTableRecord
100
AcDbBlockTableRecord
2
_U5
340
0
70
0
0
ENDTAB
0
ENDSEC
0
SECTION
2
BLOCKS
0
BLOCK
5
20
100
AcDbEntity
8
0
100
AcDbBlockBegin
2
*Model_Space
70
0
10
0
20
0
30
0
3
*Model_Space
0
ENDBLK
5
21
100
AcDbEntity
8
0
100
AcDbBlockEnd
0
BLOCK
5
1C
100
AcDbEntity
8
0
100
AcDbBlockBegin
2
*Paper_Space
70
0
10
0
20
0
30
0
3
*Paper_Space
0
ENDBLK
5
1D
100
AcDbEntity
8
0
100
AcDbBlockEnd
0
BLOCK
5
24
100
AcDbEntity
8
0
100
AcDbBlockBegin
2
*Paper_Space0
70
0
10
0
20
0
30
0
3
*Paper_Space0
0
ENDBLK
5
25
100
AcDbEntity
8
0
100
AcDbBlockEnd
0
BLOCK
5
188
100
AcDbEntity
8
0
100
AcDbBlockBegin
2
_Closed
70
0
10
0
20
0
30
0
3
_Closed
0
LINE
5
18A
100
AcDbEntity
8
0
62
256
6
ByLayer
370
-2
48
1
60
0
100
AcDbLine
10
-1
20
0.166667
30
0
11
0
21
0
31
0
39
0
210
0
220
0
230
1
0
LINE
5
18B
100
AcDbEntity
8
0
62
256
6
ByLayer
370
-2
48
1
60
0
100
AcDbLine
10
0
20
0
30
0
11
-1
21
-0.166667
31
0
39
0
210
0
220
0
230
1
0
LINE
5
18C
100
AcDbEntity
8
0
62
256
6
ByLayer
370
-2
48
1
60
0
100
AcDbLine
10
-1
20
0.166667
30
0
11
-1
21
-0.166667
31
0
39
0
210
0
220
0
230
1
0
LINE
5
18D
100
AcDbEntity
8
0
62
256
6
ByLayer
370
-2
48
1
60
0
100
AcDbLine
10
0
20
0
30
0
11
-1
21
0
31
0
39
0
210
0
220
0
230
1
0
ENDBLK
5
189
100
AcDbEntity
8
0
100
AcDbBlockEnd
0
BLOCK
5
192
100
AcDbEntity
8
0
100
AcDbBlockBegin
2
*D2
70
1
10
0
20
0
30
0
3
*D2
0
LINE
5
194
100
AcDbEntity
8
0
62
256
6
ByLayer
370
-2
48
1
60
0
100
AcDbLine
10
64.5875
20
-12.75
30
0
11
91.071875
21
-12.75
31
0
39
0
210
0
220
0
230
1
0
LINE
5
195
100
AcDbEntity
8
0
62
256
6
ByLayer
370
-2
48
1
60
0
100
AcDbLine
10
64.5875
20
12.75
30
0
11
91.071875
21
12.75
31
0
39
0
210
0
220
0
230
1
0
LINE
5
196
100
AcDbEntity
8
0
62
256
6
ByLayer
370
-2
48
1
60
0
100
AcDbLine
10
87.896875
20
-9.575
30
0
11
87.896875
21
9.575
31
0
39
0
210
0
220
0
230
1
0
SOLID
5
197
100
AcDbEntity
8
0
62
256
6
ByLayer
370
-1
48
1
60
0
100
AcDbTrace
10
87.367708
20
-9.575
30
0
11
88.426042
21
-9.575
31
0
12
87.896875
22
-12.75
32
0
13
87.896875
23
-12.75
33
0
39
0
210
0
220
0
230
1
0
SOLID
5
198
100
AcDbEntity
8
0
62
256
6
ByLayer
370
-1
48
1
60
0
100
AcDbTrace
10
88.426042
20
9.575
30
0
11
87.367708
21
9.575
31
0
12
87.896875
22
12.75
32
0
13
87.896875
23
12.75
33
0
39
0
210
0
220
0
230
1
0
MTEXT
5
199
100
AcDbEntity
8
0
62
256
6
ByLayer
370
18
48
1
60
0
100
AcDbMText
10
78.503125
20
0
30
0
210
0
220
0
230
1
1
\A1;25.5
40
4.5
41
0
44
1
50
90
71
5
72
5
7
iso_b_vert
0
POINT
5
19A
100
AcDbEntity
8
Defpoints
62
0
6
ByLayer
370
-1
48
1
60
0
100
AcDbPoint
10
63
20
-12.75
30
0
39
0
210
0
220
0
230
1
50
360
0
POINT
5
19B
100
AcDbEntity
8
Defpoints
62
0
6
ByLayer
370
-1
48
1
60
0
100
AcDbPoint
10
63
20
12.75
30
0
39
0
210
0
220
0
230
1
50
360
0
POINT
5
19C
100
AcDbEntity
8
Defpoints
62
0
6
ByLayer
370
-1
48
1
60
0
100
AcDbPoint
10
87.896875
20
12.75
30
0
39
0
210
0
220
0
230
1
50
360
0
ENDBLK
5
193
100
AcDbEntity
8
0
100
AcDbBlockEnd
0
BLOCK
5
1AA
100
AcDbEntity
8
0
100
AcDbBlockBegin
2
_U0
70
0
10
0
20
0
30
0
3
_U0
0
MTEXT
5
19F
100
AcDbEntity
8
2
62
256
6
ByLayer
370
18
48
1
60
0
100
AcDbMText
10
85.815029
20
-10.877015
30
0
210
0
220
0
230
1
1
%%c
40
3.175
41
0
44
1.084337
50
90
71
7
72
5
7
iso_b_vert
0
MTEXT
5
1A0
100
AcDbEntity
8
2
62
256
6
ByLayer
370
18
48
1
60
0
100
AcDbMText
10
86.216453
20
-1.29239
30
0
210
0
220
0
230
1
1
\W0.8668;25.5
40
4.5
41
0
44
1.084337
50
90
71
7
72
5
7
iso_b_vert
0
LINE
5
1A1
100
AcDbEntity
8
2
62
256
6
ByLayer
370
13
48
1
60
0
100
AcDbLine
10
64.5875
20
-12.75
30
0
11
91.071875
21
-12.75
31
0
39
0
210
0
220
0
230
1
0
LINE
5
1A2
100
AcDbEntity
8
2
62
256
6
ByLayer
370
13
48
1
60
0
100
AcDbLine
10
64.5875
20
12.75
30
0
11
91.071875
21
12.75
31
0
39
0
210
0
220
0
230
1
0
LINE
5
1A3
100
AcDbEntity
8
2
62
256
6
ByLayer
370
13
48
1
60
0
100
AcDbLine
10
87.896875
20
-24
30
0
11
87.896875
21
24
31
0
39
0
210
0
220
0
230
1
0
LINE
5
1A4
100
AcDbEntity
8
2
62
256
6
ByLayer
370
13
48
1
60
0
100
AcDbLine
10
87.896875
20
-12.75
30
0
11
88.314872
21
-15.924998
31
0
39
0
210
0
220
0
230
1
0
LINE
5
1A5
100
AcDbEntity
8
2
62
256
6
ByLayer
370
13
48
1
60
0
100
AcDbLine
10
87.896875
20
-12.75
30
0
11
87.478878
21
-15.925002
31
0
39
0
210
0
220
0
230
1
0
LINE
5
1A6
100
AcDbEntity
8
2
62
256
6
ByLayer
370
13
48
1
60
0
100
AcDbLine
10
88.314872
20
-15.924998
30
0
11
87.478878
21
-15.925002
31
0
39
0
210
0
220
0
230
1
0
LINE
5
1A7
100
AcDbEntity
8
2
62
256
6
ByLayer
370
13
48
1
60
0
100
AcDbLine
10
87.896875
20
12.75
30
0
11
87.478878
21
15.924998
31
0
39
0
210
0
220
0
230
1
0
LINE
5
1A8
100
AcDbEntity
8
2
62
256
6
ByLayer
370
13
48
1
60
0
100
AcDbLine
10
87.896875
20
12.75
30
0
11
88.314872
21
15.925002
31
0
39
0
210
0
220
0
230
1
0
LINE
5
1A9
100
AcDbEntity
8
2
62
256
6
ByLayer
370
13
48
1
60
0
100
AcDbLine
10
87.478878
20
15.924998
30
0
11
88.314872
21
15.925002
31
0
39
0
210
0
220
0
230
1
0
ENDBLK
5
1AB
100
AcDbEntity
8
0
100
AcDbBlockEnd
0
BLOCK
5
1B0
100
AcDbEntity
8
0
100
AcDbBlockBegin
2
*D4
70
1
10
0
20
0
30
0
3
*D4
0
LINE
5
1B2
100
AcDbEntity
8
0
62
256
6
ByLayer
370
-2
48
1
60
0
100
AcDbLine
10
63
20
-14.3375
30
0
11
63
21
-40.425
31
0
39
0
210
0
220
0
230
1
0
LINE
5
1B3
100
AcDbEntity
8
0
62
256
6
ByLayer
370
-2
48
1
60
0
100
AcDbLine
10
0
20
-1.5875
30
0
11
0
21
-40.425
31
0
39
0
210
0
220
0
230
1
0
LINE
5
1B4
100
AcDbEntity
8
0
62
256
6
ByLayer
370
-2
48
1
60
0
100
AcDbLine
10
59.825
20
-37.25
30
0
11
3.175
21
-37.25
31
0
39
0
210
0
220
0
230
1
0
SOLID
5
1B5
100
AcDbEntity
8
0
62
256
6
ByLayer
370
-1
48
1
60
0
100
AcDbTrace
10
59.825
20
-37.779167
30
0
11
59.825
21
-36.720833
31
0
12
63
22
-37.25
32
0
13
63
23
-37.25
33
0
39
0
210
0
220
0
230
1
0
SOLID
5
1B6
100
AcDbEntity
8
0
62
256
6
ByLayer
370
-1
48
1
60
0
100
AcDbTrace
10
3.175
20
-36.720833
30
0
11
3.175
21
-37.779167
31
0
12
0
22
-37.25
32
0
13
0
23
-37.25
33
0
39
0
210
0
220
0
230
1
0
MTEXT
5
1B7
100
AcDbEntity
8
0
62
256
6
ByLayer
370
18
48
1
60
0
100
AcDbMText
10
31.5
20
-27.85625
30
0
210
0
220
0
230
1
1
\A1;63
40
4.5
41
0
44
1
50
0
71
5
72
5
7
iso_b_vert
0
POINT
5
1B8
100
AcDbEntity
8
Defpoints
62
0
6
ByLayer
370
-1
48
1
60
0
100
AcDbPoint
10
63
20
-12.75
30
0
39
0
210
0
220
0
230
1
50
360
0
POINT
5
1B9
100
AcDbEntity
8
Defpoints
62
0
6
ByLayer
370
-1
48
1
60
0
100
AcDbPoint
10
0
20
0
30
0
39
0
210
0
220
0
230
1
50
360
0
POINT
5
1BA
100
AcDbEntity
8
Defpoints
62
0
6
ByLayer
370
-1
48
1
60
0
100
AcDbPoint
10
0
20
-37.25
30
0
39
0
210
0
220
0
230
1
50
360
0
ENDBLK
5
1B1
100
AcDbEntity
8
0
100
AcDbBlockEnd
0
BLOCK
5
1C6
100
AcDbEntity
8
0
100
AcDbBlockBegin
2
_U1
70
0
10
0
20
0
30
0
3
_U1
0
MTEXT
5
1BC
100
AcDbEntity
8
SK2
62
256
6
ByLayer
370
18
48
1
60
0
100
AcDbMText
10
28.446935
20
-35.922328
30
0
210
0
220
0
230
1
1
\W0.8247;63
40
4.5
41
0
44
1.084337
50
0
71
7
72
5
7
iso_b_vert
0
LINE
5
1BD
100
AcDbEntity
8
SK2
62
256
6
ByLayer
370
13
48
1
60
0
100
AcDbLine
10
63
20
-14.3375
30
0
11
63
21
-40.425
31
0
39
0
210
0
220
0
230
1
0
LINE
5
1BE
100
AcDbEntity
8
SK2
62
256
6
ByLayer
370
13
48
1
60
0
100
AcDbLine
10
0
20
-1.5875
30
0
11
0
21
-40.425
31
0
39
0
210
0
220
0
230
1
0
LINE
5
1BF
100
AcDbEntity
8
SK2
62
256
6
ByLayer
370
13
48
1
60
0
100
AcDbLine
10
63
20
-37.25
30
0
11
0
21
-37.25
31
0
39
0
210
0
220
0
230
1
0
LINE
5
1C0
100
AcDbEntity
8
SK2
62
256
6
ByLayer
370
13
48
1
60
0
100
AcDbLine
10
63
20
-37.25
30
0
11
59.825002
21
-37.667997
31
0
39
0
210
0
220
0
230
1
0
LINE
5
1C1
100
AcDbEntity
8
SK2
62
256
6
ByLayer
370
13
48
1
60
0
100
AcDbLine
10
63
20
-37.25
30
0
11
59.824998
21
-36.832003
31
0
39
0
210
0
220
0
230
1
0
LINE
5
1C2
100
AcDbEntity
8
SK2
62
256
6
ByLayer
370
13
48
1
60
0
100
AcDbLine
10
59.825002
20
-37.667997
30
0
11
59.824998
21
-36.832003
31
0
39
0
210
0
220
0
230
1
0
LINE
5
1C3
100
AcDbEntity
8
SK2
62
256
6
ByLayer
370
13
48
1
60
0
100
AcDbLine
10
0
20
-37.25
30
0
11
3.174998
21
-36.832003
31
0
39
0
210
0
220
0
230
1
0
LINE
5
1C4
100
AcDbEntity
8
SK2
62
256
6
ByLayer
370
13
48
1
60
0
100
AcDbLine
10
0
20
-37.25
30
0
11
3.175002
21
-37.667997
31
0
39
0
210
0
220
0
230
1
0
LINE
5
1C5
100
AcDbEntity
8
SK2
62
256
6
ByLayer
370
13
48
1
60
0
100
AcDbLine
10
3.174998
20
-36.832003
30
0
11
3.175002
21
-37.667997
31
0
39
0
210
0
220
0
230
1
0
ENDBLK
5
1C7
100
AcDbEntity
8
0
100
AcDbBlockEnd
0
BLOCK
5
1CC
100
AcDbEntity
8
0
100
AcDbBlockBegin
2
*D6
70
1
10
0
20
0
30
0
3
*D6
0
LINE
5
1CE
100
AcDbEntity
8
0
62
256
6
ByLayer
370
-2
48
1
60
0
100
AcDbLine
10
-57
20
14.0875
30
0
11
-57
21
36.425
31
0
39
0
210
0
220
0
230
1
0
LINE
5
1CF
100
AcDbEntity
8
0
62
256
6
ByLayer
370
-2
48
1
60
0
100
AcDbLine
10
63
20
14.3375
30
0
11
63
21
36.425
31
0
39
0
210
0
220
0
230
1
0
LINE
5
1D0
100
AcDbEntity
8
0
62
256
6
ByLayer
370
-2
48
1
60
0
100
AcDbLine
10
-53.825
20
33.25
30
0
11
59.825
21
33.25
31
0
39
0
210
0
220
0
230
1
0
SOLID
5
1D1
100
AcDbEntity
8
0
62
256
6
ByLayer
370
-1
48
1
60
0
100
AcDbTrace
10
-53.825
20
33.779167
30
0
11
-53.825
21
32.720833
31
0
12
-57
22
33.25
32
0
13
-57
23
33.25
33
0
39
0
210
0
220
0
230
1
0
SOLID
5
1D2
100
AcDbEntity
8
0
62
256
6
ByLayer
370
-1
48
1
60
0
100
AcDbTrace
10
59.825
20
32.720833
30
0
11
59.825
21
33.779167
31
0
12
63
22
33.25
32
0
13
63
23
33.25
33
0
39
0
210
0
220
0
230
1
0
MTEXT
5
1D3
100
AcDbEntity
8
0
62
256
6
ByLayer
370
18
48
1
60
0
100
AcDbMText
10
3
20
42.64375
30
0
210
0
220
0
230
1
1
\A1;120
40
4.5
41
0
44
1
50
0
71
5
72
5
7
iso_b_vert
0
POINT
5
1D4
100
AcDbEntity
8
Defpoints
62
0
6
ByLayer
370
-1
48
1
60
0
100
AcDbPoint
10
-57
20
12.5
30
0
39
0
210
0
220
0
230
1
50
360
0
POINT
5
1D5
100
AcDbEntity
8
Defpoints
62
0
6
ByLayer
370
-1
48
1
60
0
100
AcDbPoint
10
63
20
12.75
30
0
39
0
210
0
220
0
230
1
50
360
0
POINT
5
1D6
100
AcDbEntity
8
Defpoints
62
0
6
ByLayer
370
-1
48
1
60
0
100
AcDbPoint
10
63
20
33.25
30
0
39
0
210
0
220
0
230
1
50
360
0
ENDBLK
5
1CD
100
AcDbEntity
8
0
100
AcDbBlockEnd
0
BLOCK
5
1E2
100
AcDbEntity
8
0
100
AcDbBlockBegin
2
_U2
70
0
10
0
20
0
30
0
3
_U2
0
MTEXT
5
1D8
100
AcDbEntity
8
2
62
256
6
ByLayer
370
18
48
1
60
0
100
AcDbMText
10
-1.305209
20
34.577672
30
0
210
0
220
0
230
1
1
\W0.7426;120
40
4.5
41
0
44
1.084337
50
0
71
7
72
5
7
iso_b_vert
0
LINE
5
1D9
100
AcDbEntity
8
2
62
256
6
ByLayer
370
13
48
1
60
0
100
AcDbLine
10
-57
20
14.0875
30
0
11
-57
21
36.425
31
0
39
0
210
0
220
0
230
1
0
LINE
5
1DA
100
AcDbEntity
8
2
62
256
6
ByLayer
370
13
48
1
60
0
100
AcDbLine
10
63
20
14.3375
30
0
11
63
21
36.425
31
0
39
0
210
0
220
0
230
1
0
LINE
5
1DB
100
AcDbEntity
8
2
62
256
6
ByLayer
370
13
48
1
60
0
100
AcDbLine
10
-57
20
33.25
30
0
11
63
21
33.25
31
0
39
0
210
0
220
0
230
1
0
LINE
5
1DC
100
AcDbEntity
8
2
62
256
6
ByLayer
370
13
48
1
60
0
100
AcDbLine
10
-57
20
33.25
30
0
11
-53.825002
21
33.667997
31
0
39
0
210
0
220
0
230
1
0
LINE
5
1DD
100
AcDbEntity
8
2
62
256
6
ByLayer
370
13
48
1
60
0
100
AcDbLine
10
-57
20
33.25
30
0
11
-53.824998
21
32.832003
31
0
39
0
210
0
220
0
230
1
0
LINE
5
1DE
100
AcDbEntity
8
2
62
256
6
ByLayer
370
13
48
1
60
0
100
AcDbLine
10
-53.825002
20
33.667997
30
0
11
-53.824998
21
32.832003
31
0
39
0
210
0
220
0
230
1
0
LINE
5
1DF
100
AcDbEntity
8
2
62
256
6
ByLayer
370
13
48
1
60
0
100
AcDbLine
10
63
20
33.25
30
0
11
59.825002
21
32.832003
31
0
39
0
210
0
220
0
230
1
0
LINE
5
1E0
100
AcDbEntity
8
2
62
256
6
ByLayer
370
13
48
1
60
0
100
AcDbLine
10
63
20
33.25
30
0
11
59.824998
21
33.667997
31
0
39
0
210
0
220
0
230
1
0
LINE
5
1E1
100
AcDbEntity
8
2
62
256
6
ByLayer
370
13
48
1
60
0
100
AcDbLine
10
59.825002
20
32.832003
30
0
11
59.824998
21
33.667997
31
0
39
0
210
0
220
0
230
1
0
ENDBLK
5
1E3
100
AcDbEntity
8
0
100
AcDbBlockEnd
0
BLOCK
5
1E8
100
AcDbEntity
8
0
100
AcDbBlockBegin
2
*D8
70
1
10
0
20
0
30
0
3
*D8
0
LINE
5
1EA
100
AcDbEntity
8
0
62
256
6
ByLayer
370
-2
48
1
60
0
100
AcDbLine
10
-57
20
14.0875
30
0
11
-57
21
26.425
31
0
39
0
210
0
220
0
230
1
0
LINE
5
1EB
100
AcDbEntity
8
0
62
256
6
ByLayer
370
-2
48
1
60
0
100
AcDbLine
10
55.05
20
16.4375
30
0
11
55.05
21
26.425
31
0
39
0
210
0
220
0
230
1
0
LINE
5
1EC
100
AcDbEntity
8
0
62
256
6
ByLayer
370
-2
48
1
60
0
100
AcDbLine
10
-53.825
20
23.25
30
0
11
51.875
21
23.25
31
0
39
0
210
0
220
0
230
1
0
SOLID
5
1ED
100
AcDbEntity
8
0
62
256
6
ByLayer
370
-1
48
1
60
0
100
AcDbTrace
10
-53.825
20
23.779167
30
0
11
-53.825
21
22.720833
31
0
12
-57
22
23.25
32
0
13
-57
23
23.25
33
0
39
0
210
0
220
0
230
1
0
SOLID
5
1EE
100
AcDbEntity
8
0
62
256
6
ByLayer
370
-1
48
1
60
0
100
AcDbTrace
10
51.875
20
22.720833
30
0
11
51.875
21
23.779167
31
0
12
55.05
22
23.25
32
0
13
55.05
23
23.25
33
0
39
0
210
0
220
0
230
1
0
MTEXT
5
1EF
100
AcDbEntity
8
0
62
256
6
ByLayer
370
18
48
1
60
0
100
AcDbMText
10
-0.975
20
32.64375
30
0
210
0
220
0
230
1
1
\A1;112.05
40
4.5
41
0
44
1
50
0
71
5
72
5
7
iso_b_vert
0
POINT
5
1F0
100
AcDbEntity
8
Defpoints
62
0
6
ByLayer
370
-1
48
1
60
0
100
AcDbPoint
10
-57
20
12.5
30
0
39
0
210
0
220
0
230
1
50
360
0
POINT
5
1F1
100
AcDbEntity
8
Defpoints
62
0
6
ByLayer
370
-1
48
1
60
0
100
AcDbPoint
10
55.05
20
14.85
30
0
39
0
210
0
220
0
230
1
50
360
0
POINT
5
1F2
100
AcDbEntity
8
Defpoints
62
0
6
ByLayer
370
-1
48
1
60
0
100
AcDbPoint
10
55.05
20
23.25
30
0
39
0
210
0
220
0
230
1
50
360
0
ENDBLK
5
1E9
100
AcDbEntity
8
0
100
AcDbBlockEnd
0
BLOCK
5
1FE
100
AcDbEntity
8
0
100
AcDbBlockBegin
2
_U3
70
0
10
0
20
0
30
0
3
_U3
0
MTEXT
5
1F4
100
AcDbEntity
8
SK2
62
256
6
ByLayer
370
18
48
1
60
0
100
AcDbMText
10
-9.498178
20
24.577672
30
0
210
0
220
0
230
1
1
\W0.7636;112.05
40
4.5
41
0
44
1.084337
50
0
71
7
72
5
7
iso_b_vert
0
LINE
5
1F5
100
AcDbEntity
8
SK2
62
256
6
ByLayer
370
13
48
1
60
0
100
AcDbLine
10
-57
20
14.0875
30
0
11
-57
21
26.425
31
0
39
0
210
0
220
0
230
1
0
LINE
5
1F6
100
AcDbEntity
8
SK2
62
256
6
ByLayer
370
13
48
1
60
0
100
AcDbLine
10
55.05
20
16.4375
30
0
11
55.05
21
26.425
31
0
39
0
210
0
220
0
230
1
0
LINE
5
1F7
100
AcDbEntity
8
SK2
62
256
6
ByLayer
370
13
48
1
60
0
100
AcDbLine
10
-57
20
23.25
30
0
11
55.05
21
23.25
31
0
39
0
210
0
220
0
230
1
0
LINE
5
1F8
100
AcDbEntity
8
SK2
62
256
6
ByLayer
370
13
48
1
60
0
100
AcDbLine
10
-57
20
23.25
30
0
11
-53.825002
21
23.667997
31
0
39
0
210
0
220
0
230
1
0
LINE
5
1F9
100
AcDbEntity
8
SK2
62
256
6
ByLayer
370
13
48
1
60
0
100
AcDbLine
10
-57
20
23.25
30
0
11
-53.824998
21
22.832003
31
0
39
0
210
0
220
0
230
1
0
LINE
5
1FA
100
AcDbEntity
8
SK2
62
256
6
ByLayer
370
13
48
1
60
0
100
AcDbLine
10
-53.825002
20
23.667997
30
0
11
-53.824998
21
22.832003
31
0
39
0
210
0
220
0
230
1
0
LINE
5
1FB
100
AcDbEntity
8
SK2
62
256
6
ByLayer
370
13
48
1
60
0
100
AcDbLine
10
55.05
20
23.25
30
0
11
51.875002
21
22.832003
31
0
39
0
210
0
220
0
230
1
0
LINE
5
1FC
100
AcDbEntity
8
SK2
62
256
6
ByLayer
370
13
48
1
60
0
100
AcDbLine
10
55.05
20
23.25
30
0
11
51.874998
21
23.667997
31
0
39
0
210
0
220
0
230
1
0
LINE
5
1FD
100
AcDbEntity
8
SK2
62
256
6
ByLayer
370
13
48
1
60
0
100
AcDbLine
10
51.875002
20
22.832003
30
0
11
51.874998
21
23.667997
31
0
39
0
210
0
220
0
230
1
0
ENDBLK
5
1FF
100
AcDbEntity
8
0
100
AcDbBlockEnd
0
BLOCK
5
204
100
AcDbEntity
8
0
100
AcDbBlockBegin
2
*D10
70
1
10
0
20
0
30
0
3
*D10
0
LINE
5
206
100
AcDbEntity
8
0
62
256
6
ByLayer
370
-2
48
1
60
0
100
AcDbLine
10
56.6375
20
-14.85
30
0
11
101.925
21
-14.85
31
0
39
0
210
0
220
0
230
1
0
LINE
5
207
100
AcDbEntity
8
0
62
256
6
ByLayer
370
-2
48
1
60
0
100
AcDbLine
10
56.6375
20
14.85
30
0
11
101.925
21
14.85
31
0
39
0
210
0
220
0
230
1
0
LINE
5
208
100
AcDbEntity
8
0
62
256
6
ByLayer
370
-2
48
1
60
0
100
AcDbLine
10
98.75
20
-11.675
30
0
11
98.75
21
11.675
31
0
39
0
210
0
220
0
230
1
0
SOLID
5
209
100
AcDbEntity
8
0
62
256
6
ByLayer
370
-1
48
1
60
0
100
AcDbTrace
10
98.220833
20
-11.675
30
0
11
99.279167
21
-11.675
31
0
12
98.75
22
-14.85
32
0
13
98.75
23
-14.85
33
0
39
0
210
0
220
0
230
1
0
SOLID
5
20A
100
AcDbEntity
8
0
62
256
6
ByLayer
370
-1
48
1
60
0
100
AcDbTrace
10
99.279167
20
11.675
30
0
11
98.220833
21
11.675
31
0
12
98.75
22
14.85
32
0
13
98.75
23
14.85
33
0
39
0
210
0
220
0
230
1
0
MTEXT
5
20B
100
AcDbEntity
8
0
62
256
6
ByLayer
370
18
48
1
60
0
100
AcDbMText
10
89.35625
20
0
30
0
210
0
220
0
230
1
1
\A1;29.7
40
4.5
41
0
44
1
50
90
71
5
72
5
7
iso_b_vert
0
POINT
5
20C
100
AcDbEntity
8
Defpoints
62
0
6
ByLayer
370
-1
48
1
60
0
100
AcDbPoint
10
55.05
20
-14.85
30
0
39
0
210
0
220
0
230
1
50
360
0
POINT
5
20D
100
AcDbEntity
8
Defpoints
62
0
6
ByLayer
370
-1
48
1
60
0
100
AcDbPoint
10
55.05
20
14.85
30
0
39
0
210
0
220
0
230
1
50
360
0
POINT
5
20E
100
AcDbEntity
8
Defpoints
62
0
6
ByLayer
370
-1
48
1
60
0
100
AcDbPoint
10
98.75
20
14.85
30
0
39
0
210
0
220
0
230
1
50
360
0
ENDBLK
5
205
100
AcDbEntity
8
0
100
AcDbBlockEnd
0
BLOCK
5
21B
100
AcDbEntity
8
0
100
AcDbBlockBegin
2
_U4
70
0
10
0
20
0
30
0
3
_U4
0
MTEXT
5
210
100
AcDbEntity
8
SK2
62
256
6
ByLayer
370
18
48
1
60
0
100
AcDbMText
10
96.668154
20
-10.877015
30
0
210
0
220
0
230
1
1
%%c
40
3.175
41
0
44
1.084337
50
90
71
7
72
5
7
iso_b_vert
0
MTEXT
5
211
100
AcDbEntity
8
SK2
62
256
6
ByLayer
370
18
48
1
60
0
100
AcDbMText
10
97.069578
20
-1.29239
30
0
210
0
220
0
230
1
1
\W0.8668;29.7
40
4.5
41
0
44
1.084337
50
90
71
7
72
5
7
iso_b_vert
0
LINE
5
212
100
AcDbEntity
8
SK2
62
256
6
ByLayer
370
13
48
1
60
0
100
AcDbLine
10
56.6375
20
-14.85
30
0
11
101.925
21
-14.85
31
0
39
0
210
0
220
0
230
1
0
LINE
5
213
100
AcDbEntity
8
SK2
62
256
6
ByLayer
370
13
48
1
60
0
100
AcDbLine
10
56.6375
20
14.85
30
0
11
101.925
21
14.85
31
0
39
0
210
0
220
0
230
1
0
LINE
5
214
100
AcDbEntity
8
SK2
62
256
6
ByLayer
370
13
48
1
60
0
100
AcDbLine
10
98.75
20
-26.1
30
0
11
98.75
21
26.1
31
0
39
0
210
0
220
0
230
1
0
LINE
5
215
100
AcDbEntity
8
SK2
62
256
6
ByLayer
370
13
48
1
60
0
100
AcDbLine
10
98.75
20
-14.85
30
0
11
99.167997
21
-18.024998
31
0
39
0
210
0
220
0
230
1
0
LINE
5
216
100
AcDbEntity
8
SK2
62
256
6
ByLayer
370
13
48
1
60
0
100
AcDbLine
10
98.75
20
-14.85
30
0
11
98.332003
21
-18.025002
31
0
39
0
210
0
220
0
230
1
0
LINE
5
217
100
AcDbEntity
8
SK2
62
256
6
ByLayer
370
13
48
1
60
0
100
AcDbLine
10
99.167997
20
-18.024998
30
0
11
98.332003
21
-18.025002
31
0
39
0
210
0
220
0
230
1
0
LINE
5
218
100
AcDbEntity
8
SK2
62
256
6
ByLayer
370
13
48
1
60
0
100
AcDbLine
10
98.75
20
14.85
30
0
11
98.332003
21
18.024998
31
0
39
0
210
0
220
0
230
1
0
LINE
5
219
100
AcDbEntity
8
SK2
62
256
6
ByLayer
370
13
48
1
60
0
100
AcDbLine
10
98.75
20
14.85
30
0
11
99.167997
21
18.025002
31
0
39
0
210
0
220
0
230
1
0
LINE
5
21A
100
AcDbEntity
8
SK2
62
256
6
ByLayer
370
13
48
1
60
0
100
AcDbLine
10
98.332003
20
18.024998
30
0
11
99.167997
21
18.025002
31
0
39
0
210
0
220
0
230
1
0
ENDBLK
5
21C
100
AcDbEntity
8
0
100
AcDbBlockEnd
0
BLOCK
5
221
100
AcDbEntity
8
0
100
AcDbBlockBegin
2
*D12
70
1
10
0
20
0
30
0
3
*D12
0
LINE
5
223
100
AcDbEntity
8
0
62
256
6
ByLayer
370
-2
48
1
60
0
100
AcDbLine
10
-58.5875
20
12.5
30
0
11
-85.278125
21
12.5
31
0
39
0
210
0
220
0
230
1
0
LINE
5
224
100
AcDbEntity
8
0
62
256
6
ByLayer
370
-2
48
1
60
0
100
AcDbLine
10
-58.5875
20
-12.5
30
0
11
-85.278125
21
-12.5
31
0
39
0
210
0
220
0
230
1
0
LINE
5
225
100
AcDbEntity
8
0
62
256
6
ByLayer
370
-2
48
1
60
0
100
AcDbLine
10
-82.103125
20
9.325
30
0
11
-82.103125
21
-9.325
31
0
39
0
210
0
220
0
230
1
0
SOLID
5
226
100
AcDbEntity
8
0
62
256
6
ByLayer
370
-1
48
1
60
0
100
AcDbTrace
10
-81.573958
20
9.325
30
0
11
-82.632292
21
9.325
31
0
12
-82.103125
22
12.5
32
0
13
-82.103125
23
12.5
33
0
39
0
210
0
220
0
230
1
0
SOLID
5
227
100
AcDbEntity
8
0
62
256
6
ByLayer
370
-1
48
1
60
0
100
AcDbTrace
10
-82.632292
20
-9.325
30
0
11
-81.573958
21
-9.325
31
0
12
-82.103125
22
-12.5
32
0
13
-82.103125
23
-12.5
33
0
39
0
210
0
220
0
230
1
0
MTEXT
5
228
100
AcDbEntity
8
0
62
256
6
ByLayer
370
18
48
1
60
0
100
AcDbMText
10
-91.496875
20
0
30
0
210
0
220
0
230
1
1
\A1;25
40
4.5
41
0
44
1
50
90
71
5
72
5
7
iso_b_vert
0
POINT
5
229
100
AcDbEntity
8
Defpoints
62
0
6
ByLayer
370
-1
48
1
60
0
100
AcDbPoint
10
-57
20
12.5
30
0
39
0
210
0
220
0
230
1
50
360
0
POINT
5
22A
100
AcDbEntity
8
Defpoints
62
0
6
ByLayer
370
-1
48
1
60
0
100
AcDbPoint
10
-57
20
-12.5
30
0
39
0
210
0
220
0
230
1
50
360
0
POINT
5
22B
100
AcDbEntity
8
Defpoints
62
0
6
ByLayer
370
-1
48
1
60
0
100
AcDbPoint
10
-82.103125
20
-12.5
30
0
39
0
210
0
220
0
230
1
50
360
0
ENDBLK
5
222
100
AcDbEntity
8
0
100
AcDbBlockEnd
0
BLOCK
5
238
100
AcDbEntity
8
0
100
AcDbBlockBegin
2
_U5
70
0
10
0
20
0
30
0
3
_U5
0
MTEXT
5
22D
100
AcDbEntity
8
SK2
62
256
6
ByLayer
370
18
48
1
60
0
100
AcDbMText
10
-84.184971
20
-7.91119
30
0
210
0
220
0
230
1
1
%%c
40
3.175
41
0
44
1.084337
50
90
71
7
72
5
7
iso_b_vert
0
MTEXT
5
22E
100
AcDbEntity
8
SK2
62
256
6
ByLayer
370
18
48
1
60
0
100
AcDbMText
10
-83.783547
20
1.673435
30
0
210
0
220
0
230
1
1
\W0.8247;25
40
4.5
41
0
44
1.084337
50
90
71
7
72
5
7
iso_b_vert
0
LINE
5
22F
100
AcDbEntity
8
SK2
62
256
6
ByLayer
370
13
48
1
60
0
100
AcDbLine
10
-58.5875
20
12.5
30
0
11
-85.278125
21
12.5
31
0
39
0
210
0
220
0
230
1
0
LINE
5
230
100
AcDbEntity
8
SK2
62
256
6
ByLayer
370
13
48
1
60
0
100
AcDbLine
10
-58.5875
20
-12.5
30
0
11
-85.278125
21
-12.5
31
0
39
0
210
0
220
0
230
1
0
LINE
5
231
100
AcDbEntity
8
SK2
62
256
6
ByLayer
370
13
48
1
60
0
100
AcDbLine
10
-82.103125
20
23.75
30
0
11
-82.103125
21
-23.75
31
0
39
0
210
0
220
0
230
1
0
LINE
5
232
100
AcDbEntity
8
SK2
62
256
6
ByLayer
370
13
48
1
60
0
100
AcDbLine
10
-82.103125
20
12.5
30
0
11
-82.521122
21
15.674998
31
0
39
0
210
0
220
0
230
1
0
LINE
5
233
100
AcDbEntity
8
SK2
62
256
6
ByLayer
370
13
48
1
60
0
100
AcDbLine
10
-82.103125
20
12.5
30
0
11
-81.685128
21
15.675002
31
0
39
0
210
0
220
0
230
1
0
LINE
5
234
100
AcDbEntity
8
SK2
62
256
6
ByLayer
370
13
48
1
60
0
100
AcDbLine
10
-82.521122
20
15.674998
30
0
11
-81.685128
21
15.675002
31
0
39
0
210
0
220
0
230
1
0
LINE
5
235
100
AcDbEntity
8
SK2
62
256
6
ByLayer
370
13
48
1
60
0
100
AcDbLine
10
-82.103125
20
-12.5
30
0
11
-81.685128
21
-15.674998
31
0
39
0
210
0
220
0
230
1
0
LINE
5
236
100
AcDbEntity
8
SK2
62
256
6
ByLayer
370
13
48
1
60
0
100
AcDbLine
10
-82.103125
20
-12.5
30
0
11
-82.521122
21
-15.675002
31
0
39
0
210
0
220
0
230
1
0
LINE
5
237
100
AcDbEntity
8
SK2
62
256
6
ByLayer
370
13
48
1
60
0
100
AcDbLine
10
-81.685128
20
-15.674998
30
0
11
-82.521122
21
-15.675002
31
0
39
0
210
0
220
0
230
1
0
ENDBLK
5
239
100
AcDbEntity
8
0
100
AcDbBlockEnd
0
ENDSEC
0
SECTION
2
ENTITIES
0
ARC
5
C0
100
AcDbEntity
8
1
62
256
6
ByLayer
370
18
48
1
60
0
100
AcDbCircle
39
0
10
57.668444
20
9.519843
30
0
40
1.28905
210
0
220
0
230
1
100
AcDbArc
50
255
51
315
0
ARC
5
C1
100
AcDbEntity
8
1
62
256
6
ByLayer
370
18
48
1
60
0
100
AcDbCircle
39
0
10
57.668444
20
9.519843
30
0
40
1.28905
210
0
220
0
230
1
100
AcDbArc
50
315
51
15
0
ARC
5
C2
100
AcDbEntity
8
1
62
256
6
ByLayer
370
18
48
1
60
0
100
AcDbCircle
39
0
10
57.668444
20
9.519843
30
0
40
1.28905
210
0
220
0
230
1
100
AcDbArc
50
135
51
195
0
ARC
5
C3
100
AcDbEntity
8
1
62
256
6
ByLayer
370
18
48
1
60
0
100
AcDbCircle
39
0
10
57.668444
20
9.519843
30
0
40
1.28905
210
0
220
0
230
1
100
AcDbArc
50
195
51
255
0
ARC
5
C4
100
AcDbEntity
8
1
62
256
6
ByLayer
370
18
48
1
60
0
100
AcDbCircle
39
0
10
57.668444
20
9.519843
30
0
40
1.28905
210
0
220
0
230
1
100
AcDbArc
50
15
51
75
0
ARC
5
C5
100
AcDbEntity
8
1
62
256
6
ByLayer
370
18
48
1
60
0
100
AcDbCircle
39
0
10
57.668444
20
9.519843
30
0
40
1.28905
210
0
220
0
230
1
100
AcDbArc
50
75
51
135
0
ARC
5
C6
100
AcDbEntity
8
1
62
256
6
ByLayer
370
18
48
1
60
0
100
AcDbCircle
39
0
10
57.668444
20
9.519843
30
0
40
0.9944
210
0
220
0
230
1
100
AcDbArc
50
45
51
105
0
ARC
5
C7
100
AcDbEntity
8
1
62
256
6
ByLayer
370
18
48
1
60
0
100
AcDbCircle
39
0
10
57.668444
20
9.519843
30
0
40
0.9944
210
0
220
0
230
1
100
AcDbArc
50
105
51
165
0
ARC
5
C8
100
AcDbEntity
8
1
62
256
6
ByLayer
370
18
48
1
60
0
100
AcDbCircle
39
0
10
57.668444
20
9.519843
30
0
40
0.9944
210
0
220
0
230
1
100
AcDbArc
50
285
51
345
0
ARC
5
C9
100
AcDbEntity
8
1
62
256
6
ByLayer
370
18
48
1
60
0
100
AcDbCircle
39
0
10
57.668444
20
9.519843
30
0
40
0.9944
210
0
220
0
230
1
100
AcDbArc
50
165
51
225
0
ARC
5
CA
100
AcDbEntity
8
1
62
256
6
ByLayer
370
18
48
1
60
0
100
AcDbCircle
39
0
10
57.668444
20
9.519843
30
0
40
0.9944
210
0
220
0
230
1
100
AcDbArc
50
345
51
45
0
ARC
5
CB
100
AcDbEntity
8
1
62
256
6
ByLayer
370
18
48
1
60
0
100
AcDbCircle
39
0
10
57.668444
20
9.519843
30
0
40
0.9944
210
0
220
0
230
1
100
AcDbArc
50
225
51
285
0
ARC
5
D1
100
AcDbEntity
8
1
62
256
6
ByLayer
370
13
48
1
60
0
100
AcDbCircle
39
0
10
53.002402
20
7.560749
30
0
40
1.5
210
0
220
0
230
1
100
AcDbArc
50
120
51
187.856423
0
ARC
5
D2
100
AcDbEntity
8
1
62
256
6
ByLayer
370
13
48
1
60
0
100
AcDbCircle
39
0
10
54.160152
20
11.495163
30
0
40
1
210
0
220
0
230
1
100
AcDbArc
50
112.399728
51
217.392066
0
ARC
5
D3
100
AcDbEntity
8
1
62
256
6
ByLayer
370
13
48
1
60
0
100
AcDbCircle
39
0
10
57.668444
20
16.519843
30
0
40
12
210
0
220
0
230
1
100
AcDbArc
50
199.073447
51
222.203262
0
ARC
5
D4
100
AcDbEntity
8
1
62
256
6
ByLayer
370
13
48
1
60
0
100
AcDbCircle
39
0
10
53.9714
20
-12.608402
30
0
40
2
210
0
220
0
230
1
100
AcDbArc
50
236.309932
51
241.538746
0
ARC
5
D5
100
AcDbEntity
8
1
62
256
6
ByLayer
370
13
48
1
60
0
100
AcDbCircle
39
0
10
50.063073
20
-13.608402
30
0
40
1
210
0
220
0
230
1
100
AcDbArc
50
56.309932
51
90
0
ARC
5
D6
100
AcDbEntity
8
1
62
256
6
ByLayer
370
13
48
1
60
0
100
AcDbCircle
39
0
10
42.203286
20
12.108402
30
0
40
0.5
210
0
220
0
230
1
100
AcDbArc
50
90
51
129.040938
0
ARC
5
D7
100
AcDbEntity
8
1
62
256
6
ByLayer
370
13
48
1
60
0
100
AcDbCircle
39
0
10
42.203286
20
-12.108402
30
0
40
0.5
210
0
220
0
230
1
100
AcDbArc
50
230.959062
51
270
0
ARC
5
D8
100
AcDbEntity
8
SK2
62
256
6
ByLayer
370
13
48
1
60
0
100
AcDbCircle
39
0
10
63
20
12.75
30
0
40
12.0741515619955
210
0
220
0
230
1
100
AcDbArc
50
90
51
165
0
CIRCLE
5
CC
100
AcDbEntity
8
1
62
256
6
ByLayer
370
18
48
1
60
0
100
AcDbCircle
10
57.668444
20
9.519843
30
0
40
1.4
39
0
210
0
220
0
230
1
0
CIRCLE
5
CD
100
AcDbEntity
8
1
62
256
6
ByLayer
370
18
48
1
60
0
100
AcDbCircle
10
57.668444
20
9.519843
30
0
40
2.1
39
0
210
0
220
0
230
1
0
CIRCLE
5
CE
100
AcDbEntity
8
1
62
256
6
ByLayer
370
18
48
1
60
0
100
AcDbCircle
10
57.668444
20
9.519843
30
0
40
2.15037854103613
39
0
210
0
220
0
230
1
0
CIRCLE
5
CF
100
AcDbEntity
8
1
62
256
6
ByLayer
370
18
48
1
60
0
100
AcDbCircle
10
57.668444
20
9.519843
30
0
40
2.26175520142507
39
0
210
0
220
0
230
1
0
CIRCLE
5
D0
100
AcDbEntity
8
1
62
256
6
ByLayer
370
18
48
1
60
0
100
AcDbCircle
10
57.668444
20
9.519843
30
0
40
2.30803925391311
39
0
210
0
220
0
230
1
0
ELLIPSE
5
D9
100
AcDbEntity
8
1
62
256
6
ByLayer
370
18
48
1
60
0
100
AcDbEllipse
10
57.668444
20
1.283878
30
0
11
-1.2
21
1.21276686609884E-15
31
0
210
0
220
0
230
1
40
0.5
41
0
42
0.261832530393088
0
ELLIPSE
5
DA
100
AcDbEntity
8
1
62
256
6
ByLayer
370
18
48
1
60
0
100
AcDbEllipse
10
57.668444
20
1.283878
30
0
11
-1.2
21
1.21276686609884E-15
31
0
210
0
220
0
230
1
40
0.5
41
-2.91166687505428
42
-3.70074341541718E-16
0
ELLIPSE
5
DB
100
AcDbEntity
8
1
62
256
6
ByLayer
370
18
48
1
60
0
100
AcDbEllipse
10
57.668444
20
1.024071
30
0
11
1.5
21
0
31
0
210
0
220
0
230
1
40
0.5
41
2.52613472716426
42
2.78276406327187
0
ELLIPSE
5
DC
100
AcDbEntity
8
1
62
256
6
ByLayer
370
13
48
1
60
0
100
AcDbEllipse
10
55.079625
20
-7.003116
30
0
11
1.25875969541738
21
0.00310563416874932
31
0
210
0
220
0
230
1
40
0.496765
41
2.27034301333224
42
2.91416386695086
0
ELLIPSE
5
DD
100
AcDbEntity
8
1
62
256
6
ByLayer
370
13
48
1
60
0
100
AcDbEllipse
10
47.034653
20
6.059972
30
0
11
24.7059074396967
21
-15.9661251357175
31
0
210
0
220
0
230
1
40
0.147364
41
-1.13000611628017
42
-1.12631434564888
0
ELLIPSE
5
DE
100
AcDbEntity
8
1
62
256
6
ByLayer
370
13
48
1
60
0
100
AcDbEllipse
10
55.293846
20
-5.410176
30
0
11
1.23884783184462
21
-0.166601469182883
31
0
210
0
220
0
230
1
40
0.468957
41
2.50514896345208
42
2.87362849622077
0
ELLIPSE
5
DF
100
AcDbEntity
8
1
62
256
6
ByLayer
370
13
48
1
60
0
100
AcDbEllipse
10
55.293846
20
-5.410176
30
0
11
1.02066967536641
21
-0.721618606874446
31
0
210
0
220
0
230
1
40
0.281012
41
2.97052653690386
42
3.02445215686613
0
ELLIPSE
5
E0
100
AcDbEntity
8
1
62
256
6
ByLayer
370
13
48
1
60
0
100
AcDbEllipse
10
55.669354
20
-2.618186
30
0
11
2.58030311201881
21
10.4561552045836
31
0
210
0
220
0
230
1
40
0.042644
41
1.94456118858609
42
1.96439713554425
0
ELLIPSE
5
E1
100
AcDbEntity
8
1
62
256
6
ByLayer
370
13
48
1
60
0
100
AcDbEllipse
10
52.620551
20
0.522667
30
0
11
2.13331546266326
21
-15.0253983703144
31
0
210
0
220
0
230
1
40
0.227978
41
1.56044461042171
42
1.76737048004145
0
ELLIPSE
5
E2
100
AcDbEntity
8
1
62
256
6
ByLayer
370
13
48
1
60
0
100
AcDbEllipse
10
56.819178
20
5.932199
30
0
11
5.40584328965724
21
31.3674461708503
31
0
210
0
220
0
230
1
40
0.01324
41
1.93088372134165
42
1.97483139244871
0
ELLIPSE
5
E3
100
AcDbEntity
8
1
62
256
6
ByLayer
370
13
48
1
60
0
100
AcDbEllipse
10
55.315087
20
-5.380132
30
0
11
1.02066967536641
21
-0.721618606874446
31
0
210
0
220
0
230
1
40
0.281012
41
2.99371546581694
42
3.02249447949145
0
ELLIPSE
5
E4
100
AcDbEntity
8
1
62
256
6
ByLayer
370
13
48
1
60
0
100
AcDbEllipse
10
57.10701
20
2.778181
30
0
11
-0.0663940880480518
21
0.495572219835079
31
0
210
0
220
0
230
1
40
0.224144
41
1.0320572075614
42
2.60285353435631
0
ELLIPSE
5
E5
100
AcDbEntity
8
1
62
256
6
ByLayer
370
13
48
1
60
0
100
AcDbEllipse
10
55.315087
20
14.809166
30
0
11
0.323523806378151
21
1.20740728286133
31
0
210
0
220
0
230
1
40
0.819152
41
2.20215291669953
42
2.23093193037411
0
ELLIPSE
5
E6
100
AcDbEntity
8
1
62
256
6
ByLayer
370
13
48
1
60
0
100
AcDbEllipse
10
57.495239
20
1.620724
30
0
11
1.5
21
0
31
0
210
0
220
0
230
1
40
0.5
41
1.83259571459405
42
-2.87979326579064
0
ELLIPSE
5
E7
100
AcDbEntity
8
1
62
256
6
ByLayer
370
13
48
1
60
0
100
AcDbEllipse
10
57.495239
20
1.620724
30
0
11
1.4
21
0
31
0
210
0
220
0
230
1
40
0.5
41
0
42
6.28318530717959
0
ELLIPSE
5
E8
100
AcDbEntity
8
1
62
256
6
ByLayer
370
13
48
1
60
0
100
AcDbEllipse
10
53.002402
20
7.560749
30
0
11
-0.75
21
1.29903810567666
31
0
210
0
220
0
230
1
40
0.707107
41
-0.553697627124481
42
0
0
ELLIPSE
5
E9
100
AcDbEntity
8
1
62
256
6
ByLayer
370
13
48
1
60
0
100
AcDbEllipse
10
55.293846
20
14.814858
30
0
11
0.323523806378151
21
1.20740728286133
31
0
210
0
220
0
230
1
40
0.992546
41
2.16541874162915
42
2.38681748708456
0
ELLIPSE
5
EA
100
AcDbEntity
8
1
62
256
6
ByLayer
370
13
48
1
60
0
100
AcDbEllipse
10
55.079625
20
14.872258
30
0
11
1.21647470081337
21
-0.325953413695834
31
0
210
0
220
0
230
1
40
0.992546
41
-2.65545449685764
42
-2.0913670488191
0
ELLIPSE
5
EB
100
AcDbEntity
8
1
62
256
6
ByLayer
370
13
48
1
60
0
100
AcDbEllipse
10
57.668444
20
-10.151356
30
0
11
13.8793852415718
21
0
31
0
210
0
220
0
230
1
40
0.5
41
2.47605731302065
42
2.8415621779113
0
ELLIPSE
5
EC
100
AcDbEntity
8
1
62
256
6
ByLayer
370
13
48
1
60
0
100
AcDbEllipse
10
57.495239
20
1.187711
30
0
11
1.3175
21
0
31
0
210
0
220
0
230
1
40
0.5
41
1.84764798269653
42
2.90911401433793
0
ELLIPSE
5
ED
100
AcDbEntity
8
1
62
256
6
ByLayer
370
13
48
1
60
0
100
AcDbEllipse
10
57.495239
20
1.187711
30
0
11
1.4
21
0
31
0
210
0
220
0
230
1
40
0.5
41
1.46447145100327
42
2.82723570311803
0
ELLIPSE
5
EE
100
AcDbEntity
8
1
62
256
6
ByLayer
370
13
48
1
60
0
100
AcDbEllipse
10
57.495239
20
2.053737
30
0
11
-2
21
2.02127811016473E-15
31
0
210
0
220
0
230
1
40
0.5
41
-1.30899693899575
42
-0.561813485981822
0
ELLIPSE
5
EF
100
AcDbEntity
8
1
62
256
6
ByLayer
370
13
48
1
60
0
100
AcDbEllipse
10
56.04635
20
1.859622
30
0
11
-0.440706208327689
21
-0.236173745241573
31
0
210
0
220
0
230
1
40
0.836516
41
1.02421915450782
42
1.14936723277601
0
POINT
5
70
100
AcDbEntity
8
81
62
256
6
ByLayer
370
18
48
1
60
0
100
AcDbPoint
10
63
20
12.75
30
0
39
0
210
0
220
0
230
1
50
360
0
POINT
5
72
100
AcDbEntity
8
80
62
256
6
ByLayer
370
18
48
1
60
0
100
AcDbPoint
10
0
20
0
30
0
39
0
210
0
220
0
230
1
50
360
0
POINT
5
74
100
AcDbEntity
8
1
62
256
6
ByLayer
370
18
48
1
60
1
100
AcDbPoint
10
63
20
-12.75
30
0
39
0
210
0
220
0
230
1
50
360
0
POINT
5
76
100
AcDbEntity
8
1
62
256
6
ByLayer
370
18
48
1
60
1
100
AcDbPoint
10
63
20
12.75
30
0
39
0
210
0
220
0
230
1
50
360
0
POINT
5
77
100
AcDbEntity
8
1
62
256
6
ByLayer
370
18
48
1
60
1
100
AcDbPoint
10
63
20
-12.75
30
0
39
0
210
0
220
0
230
1
50
360
0
POINT
5
78
100
AcDbEntity
8
1
62
256
6
ByLayer
370
18
48
1
60
1
100
AcDbPoint
10
0
20
0
30
0
39
0
210
0
220
0
230
1
50
360
0
POINT
5
79
100
AcDbEntity
8
1
62
256
6
ByLayer
370
18
48
1
60
1
100
AcDbPoint
10
-57
20
12.5
30
0
39
0
210
0
220
0
230
1
50
360
0
POINT
5
7A
100
AcDbEntity
8
1
62
256
6
ByLayer
370
18
48
1
60
1
100
AcDbPoint
10
63
20
12.75
30
0
39
0
210
0
220
0
230
1
50
360
0
POINT
5
7B
100
AcDbEntity
8
1
62
256
6
ByLayer
370
18
48
1
60
1
100
AcDbPoint
10
-57
20
12.5
30
0
39
0
210
0
220
0
230
1
50
360
0
POINT
5
7C
100
AcDbEntity
8
1
62
256
6
ByLayer
370
18
48
1
60
1
100
AcDbPoint
10
55.05
20
14.85
30
0
39
0
210
0
220
0
230
1
50
360
0
POINT
5
7D
100
AcDbEntity
8
1
62
256
6
ByLayer
370
18
48
1
60
1
100
AcDbPoint
10
55.05
20
-14.85
30
0
39
0
210
0
220
0
230
1
50
360
0
POINT
5
7E
100
AcDbEntity
8
1
62
256
6
ByLayer
370
18
48
1
60
1
100
AcDbPoint
10
55.05
20
14.85
30
0
39
0
210
0
220
0
230
1
50
360
0
POINT
5
7F
100
AcDbEntity
8
1
62
256
6
ByLayer
370
18
48
1
60
1
100
AcDbPoint
10
-57
20
12.5
30
0
39
0
210
0
220
0
230
1
50
360
0
POINT
5
80
100
AcDbEntity
8
1
62
256
6
ByLayer
370
18
48
1
60
1
100
AcDbPoint
10
-57
20
-12.5
30
0
39
0
210
0
220
0
230
1
50
360
0
SPLINE
5
F0
100
AcDbEntity
8
1
62
256
6
ByLayer
370
18
48
1
60
0
100
AcDbSpline
70
4
71
3
72
8
73
4
40
0
40
0
40
0
40
0
40
1
40
1
40
1
40
1
41
1
10
55.2592041215392
20
-7.41207000220413
30
0
41
1
10
56.4505126406305
20
-7.25246492439072
30
0
41
1
10
57.6418211596896
20
-7.0928598465816
30
0
41
1
10
58.8331296788125
20
-6.93325476876396
30
0
0
SPLINE
5
F1
100
AcDbEntity
8
1
62
256
6
ByLayer
370
18
48
1
60
0
100
AcDbSpline
70
4
71
3
72
8
73
4
40
0
40
0
40
0
40
0
40
1
40
1
40
1
40
1
41
1
10
62.4070552360802
20
-6.4544395353231
30
0
41
1
10
62.1687842623534
20
-5.43014193440379
30
0
41
1
10
61.9305132886277
20
-4.40584433348434
30
0
41
1
10
61.6922423149021
20
-3.38154673256486
30
0
0
SPLINE
5
F2
100
AcDbEntity
8
1
62
256
6
ByLayer
370
18
48
1
60
0
100
AcDbSpline
70
4
71
3
72
8
73
4
40
0
40
0
40
0
40
0
40
1
40
1
40
1
40
1
41
1
10
58.8331296788124
20
-6.93325476876396
30
0
41
1
10
60.0244381979353
20
-6.77364969094631
30
0
41
1
10
61.2157467169945
20
-6.6140446131372
30
0
41
1
10
62.4070552360857
20
-6.45443953532381
30
0
0
SPLINE
5
F3
100
AcDbEntity
8
1
62
256
6
ByLayer
370
18
48
1
60
0
100
AcDbSpline
70
4
71
3
72
8
73
4
40
0
40
0
40
0
40
0
40
1
40
1
40
1
40
1
41
1
10
55.6719015540087
20
-4.18811945508548
30
0
41
1
10
55.5343357431888
20
-5.26276963745738
30
0
41
1
10
55.3967699323688
20
-6.33741981982928
30
0
41
1
10
55.2592041215477
20
-7.41207000220132
30
0
0
SPLINE
5
F4
100
AcDbEntity
8
1
62
256
6
ByLayer
370
18
48
1
60
0
100
AcDbSpline
70
4
71
3
72
8
73
4
40
0
40
0
40
0
40
0
40
1
40
1
40
1
40
1
41
1
10
61.6922423149029
20
-3.38154673256668
30
0
41
1
10
60.6888521880907
20
-3.51597551965301
30
0
41
1
10
59.6854620612856
20
-3.65040430673841
30
0
41
1
10
58.6820719344546
20
-3.78483309382727
30
0
0
SPLINE
5
F5
100
AcDbEntity
8
1
62
256
6
ByLayer
370
18
48
1
60
0
100
AcDbSpline
70
4
71
1
72
4
73
2
40
0
40
0
40
1
40
1
41
1
10
58.8331296788124
20
-6.93325476876396
30
0
41
1
10
58.6820719344546
20
-3.78483309382727
30
0
0
SPLINE
5
F6
100
AcDbEntity
8
1
62
256
6
ByLayer
370
18
48
1
60
0
100
AcDbSpline
70
4
71
3
72
17
73
13
40
0
40
0
40
0
40
0
40
0.0625
40
0.125
40
0.25
40
0.375
40
0.5
40
0.625
40
0.75
40
0.875
40
0.9375
40
1
40
1
40
1
40
1
41
1
10
54.2794082040994
20
-7.12922744854669
30
0
41
1
10
54.28618407084
20
-7.14187138801719
30
0
41
1
10
54.3022208713671
20
-7.16682624245959
30
0
41
1
10
54.343920053221
20
-7.21492494895514
30
0
41
1
10
54.4133747925816
20
-7.2707739738041
30
0
41
1
10
54.5212718394937
20
-7.3283742527243
30
0
41
1
10
54.6495702130918
20
-7.37434297307317
30
0
41
1
10
54.7933393772263
20
-7.40691333403089
30
0
41
1
10
54.9470547703115
20
-7.42483466967951
30
0
41
1
10
55.0785156301698
20
-7.42698445563022
30
0
41
1
10
55.1826747495419
20
-7.42099164206365
30
0
41
1
10
55.2339162222716
20
-7.4154580943912
30
0
41
1
10
55.2592041012127
20
-7.41207016102089
30
0
0
SPLINE
5
F7
100
AcDbEntity
8
1
62
256
6
ByLayer
370
18
48
1
60
0
100
AcDbSpline
70
4
71
3
72
17
73
13
40
0
40
0
40
0
40
0
40
0.0625
40
0.125
40
0.25
40
0.375
40
0.5
40
0.625
40
0.75
40
0.875
40
0.9375
40
1
40
1
40
1
40
1
41
1
10
62.2579277398524
20
-2.89164878400862
30
0
41
1
10
62.2647033883504
20
-2.9042923162331
30
0
41
1
10
62.2757583101133
20
-2.92991367061859
30
0
41
1
10
62.287710929246
20
-2.98199335007993
30
0
41
1
10
62.2833997799282
20
-3.04772031923821
30
0
41
1
10
62.2475968219875
20
-3.1245795781893
30
0
41
1
10
62.1824805248066
20
-3.19646782284067
30
0
41
1
10
62.0905245625589
20
-3.26060845050495
30
0
41
1
10
61.9753011517513
20
-3.31454014400768
30
0
41
1
10
61.8636151510776
20
-3.34927104168895
30
0
41
1
10
61.7674339184729
20
-3.37013478819233
30
0
41
1
10
61.7175293793506
20
-3.37815890831777
30
0
41
1
10
61.6922423149018
20
-3.38154673256676
30
0
0
SPLINE
5
F8
100
AcDbEntity
8
1
62
256
6
ByLayer
370
18
48
1
60
0
100
AcDbSpline
70
4
71
3
72
8
73
4
40
0
40
0
40
0
40
0
40
1
40
1
40
1
40
1
41
1
10
58.6820719344546
20
-3.78483309382727
30
0
41
1
10
57.6786818076242
20
-3.91926188091605
30
0
41
1
10
56.6752916808197
20
-4.05369066800137
30
0
41
1
10
55.6719015540081
20
-4.18811945508764
30
0
0
SPLINE
5
F9
100
AcDbEntity
8
1
62
256
6
ByLayer
370
18
48
1
60
0
100
AcDbSpline
70
4
71
3
72
8
73
4
40
0
40
0
40
0
40
0
40
1
40
1
40
1
40
1
41
1
10
61.4513550173315
20
-7.11965176683827
30
0
41
1
10
61.7202125915091
20
-7.62134683025349
30
0
41
1
10
61.9890701656797
20
-8.12304189365574
30
0
41
1
10
62.2579277398523
20
-8.62473695706154
30
0
0
SPLINE
5
FA
100
AcDbEntity
8
1
62
256
6
ByLayer
370
18
48
1
60
0
100
AcDbSpline
70
4
71
3
72
8
73
4
40
0
40
0
40
0
40
0
40
1
40
1
40
1
40
1
41
1
10
56.6667205658142
20
10.0994305506232
30
0
41
1
10
56.6713578934724
20
10.0946413057166
30
0
41
1
10
56.6759959553642
20
10.089851302523
30
0
41
1
10
56.6806347888731
20
10.0850605024346
30
0
0
SPLINE
5
FB
100
AcDbEntity
8
1
62
256
6
ByLayer
370
18
48
1
60
0
100
AcDbSpline
70
4
71
3
72
8
73
4
40
0
40
0
40
0
40
0
40
1
40
1
40
1
40
1
41
1
10
58.671242946968
20
10.0975676241861
30
0
41
1
10
58.6647766753848
20
10.0959462030818
30
0
41
1
10
58.6583093799891
20
10.094324525256
30
0
41
1
10
58.6518410086536
20
10.0927025776376
30
0
0
SPLINE
5
FC
100
AcDbEntity
8
1
62
256
6
ByLayer
370
18
48
1
60
0
100
AcDbSpline
70
4
71
3
72
8
73
4
40
0
40
0
40
0
40
0
40
1
40
1
40
1
40
1
41
1
10
58.6701673858881
20
8.94025608783039
30
0
41
1
10
58.6655300582299
20
8.94504533273701
30
0
41
1
10
58.6608919963381
20
8.94983533593054
30
0
41
1
10
58.6562531628292
20
8.95462613601902
30
0
0
SPLINE
5
FD
100
AcDbEntity
8
1
62
256
6
ByLayer
370
18
48
1
60
0
100
AcDbSpline
70
4
71
3
72
16
73
12
40
0
40
0
40
0
40
0
40
0.125
40
0.125
40
0.25
40
0.25
40
0.5
40
0.5
40
0.75
40
0.75
40
1
40
1
40
1
40
1
41
1
10
58.8257555122069
20
9.52091888030671
30
0
41
1
10
58.8403491315503
20
9.5200454250178
30
0
41
1
10
58.8549170533543
20
9.5233742929455
30
0
41
1
10
58.8806138421929
20
9.53844204127282
30
0
41
1
10
58.891584906321
20
9.54999654738643
30
0
41
1
10
58.9174296777398
20
9.58989660860527
30
0
41
1
10
58.9261053887714
20
9.62256366946011
30
0
41
1
10
58.9347029919014
20
9.68811910722818
30
0
41
1
10
58.9345317155132
20
9.72172745124695
30
0
41
1
10
58.9283230232406
20
9.78818559983569
30
0
41
1
10
58.9222261477364
20
9.82117129763859
30
0
41
1
10
58.9135706622291
20
9.85347400931622
30
0
0
SPLINE
5
FE
100
AcDbEntity
8
1
62
256
6
ByLayer
370
18
48
1
60
0
100
AcDbSpline
70
4
71
3
72
8
73
4
40
0
40
0
40
0
40
0
40
1
40
1
40
1
40
1
41
1
10
57.669519536931
20
10.6771548555826
30
0
41
1
10
57.6676905930061
20
10.6707441895716
30
0
41
1
10
57.6658613595022
20
10.6643325085522
30
0
41
1
10
57.6640318216755
20
10.6579197608454
30
0
0
SPLINE
5
FF
100
AcDbEntity
8
1
62
256
6
ByLayer
370
18
48
1
60
0
100
AcDbSpline
70
4
71
3
72
8
73
4
40
0
40
0
40
0
40
0
40
1
40
1
40
1
40
1
41
1
10
58.2413032342619
20
10.5032403520293
30
0
41
1
10
58.2429251818803
20
10.5097087233647
30
0
41
1
10
58.2445468597062
20
10.5161760187605
30
0
41
1
10
58.2461682808105
20
10.5226422903436
30
0
0
SPLINE
5
100
100
AcDbEntity
8
1
62
256
6
ByLayer
370
18
48
1
60
0
100
AcDbSpline
70
4
71
3
72
8
73
4
40
0
40
0
40
0
40
0
40
1
40
1
40
1
40
1
41
1
10
58.8065204174697
20
9.51543116505115
30
0
41
1
10
58.8129331651766
20
9.51726070287782
30
0
41
1
10
58.819344846196
20
9.5190899363817
30
0
41
1
10
58.8257555122069
20
9.52091888030671
30
0
0
SPLINE
5
101
100
AcDbEntity
8
1
62
256
6
ByLayer
370
18
48
1
60
0
100
AcDbSpline
70
4
71
3
72
16
73
12
40
0
40
0
40
0
40
0
40
0.125
40
0.125
40
0.25
40
0.25
40
0.5
40
0.5
40
0.75
40
0.75
40
1
40
1
40
1
40
1
41
1
10
58.2480312072476
20
8.51811990918986
30
0
41
1
10
58.25457158245
20
8.50504473646086
30
0
41
1
10
58.2647384275432
20
8.49409298006216
30
0
41
1
10
58.2906358747919
20
8.4793727822958
30
0
41
1
10
58.3061279026784
20
8.47564881511121
30
0
41
1
10
58.3536047550159
20
8.47321661711689
30
0
41
1
10
58.386233115099
20
8.48203676139514
30
0
41
1
10
58.4473045911273
20
8.50736873755685
30
0
41
1
10
58.4763246326326
20
8.52432123926945
30
0
41
1
10
58.5307747314627
20
8.56292719879619
30
0
41
1
10
58.5562927459694
20
8.58470009676802
30
0
41
1
10
58.5799399721396
20
8.60834732293827
30
0
0
SPLINE
5
102
100
AcDbEntity
8
1
62
256
6
ByLayer
370
18
48
1
60
0
100
AcDbSpline
70
4
71
3
72
18
73
14
40
0
40
0
40
0
40
0
40
0.25
40
0.25
40
0.5
40
0.5
40
0.625
40
0.625
40
0.75
40
0.75
40
0.875
40
0.875
40
1
40
1
40
1
40
1
41
1
10
58.5799399721396
20
8.60834732293827
30
0
41
1
10
58.6035759688889
20
8.63198331968755
30
0
41
1
10
58.6253249912548
20
8.657468537835
30
0
41
1
10
58.6639412490363
20
8.71192219673705
30
0
41
1
10
58.6808588753918
20
8.74085823462991
30
0
41
1
10
58.6999024298203
20
8.78674021034007
30
0
41
1
10
58.7051326914922
20
8.80236358578338
30
0
41
1
10
58.7122831773731
20
8.83401251533004
30
0
41
1
10
58.7142468354915
20
8.85035875611902
30
0
41
1
10
58.7126693283433
20
8.88195805865661
30
0
41
1
10
58.7090244327943
20
8.89740797932348
30
0
41
1
10
58.6942104958481
20
8.92357003378231
30
0
41
1
10
58.6832486006732
20
8.93371269031118
30
0
41
1
10
58.6701673858881
20
8.94025608783039
30
0
0
SPLINE
5
103
100
AcDbEntity
8
1
62
256
6
ByLayer
370
18
48
1
60
0
100
AcDbSpline
70
4
71
3
72
8
73
4
40
0
40
0
40
0
40
0
40
1
40
1
40
1
40
1
41
1
10
57.1032267926433
20
10.5076525062049
30
0
41
1
10
57.0984359925549
20
10.5122913397138
30
0
41
1
10
57.0936459893614
20
10.5169294016056
30
0
41
1
10
57.0888567444547
20
10.5215667292637
30
0
0
SPLINE
5
104
100
AcDbEntity
8
1
62
256
6
ByLayer
370
18
48
1
60
0
100
AcDbSpline
70
4
71
3
72
8
73
4
40
0
40
0
40
0
40
0
40
1
40
1
40
1
40
1
41
1
10
56.6656450047343
20
8.94211901426743
30
0
41
1
10
56.6721112763175
20
8.94374043537175
30
0
41
1
10
56.6785785717132
20
8.94536211319763
30
0
41
1
10
56.6850469430487
20
8.94698406081599
30
0
0
SPLINE
5
105
100
AcDbEntity
8
1
62
256
6
ByLayer
370
18
48
1
60
0
100
AcDbSpline
70
4
71
3
72
18
73
14
40
0
40
0
40
0
40
0
40
0.25
40
0.25
40
0.5
40
0.5
40
0.625
40
0.625
40
0.75
40
0.75
40
0.875
40
0.875
40
1
40
1
40
1
40
1
41
1
10
58.9135706622291
20
9.85347400931622
30
0
41
1
10
58.9049192869751
20
9.8857613813195
30
0
41
1
10
58.8937229518213
20
9.91733919626952
30
0
41
1
10
58.8658728287738
20
9.97800868595837
30
0
41
1
10
58.8492722980516
20
10.0071277991005
30
0
41
1
10
58.819059118725
20
10.0465609888689
30
0
41
1
10
58.8081440095342
20
10.0589022160669
30
0
41
1
10
58.7843104754846
20
10.0809191832625
30
0
41
1
10
58.7711360447641
20
10.0907928814718
30
0
41
1
10
58.7429814924507
20
10.1052263714757
30
0
41
1
10
58.7277790208922
20
10.1097947596695
30
0
41
1
10
58.6977150486425
20
10.1100465411735
30
0
41
1
10
58.6834503028392
20
10.1056245897428
30
0
41
1
10
58.671242946968
20
10.0975676241861
30
0
0
SPLINE
5
106
100
AcDbEntity
8
1
62
256
6
ByLayer
370
18
48
1
60
0
100
AcDbSpline
70
4
71
3
72
18
73
14
40
0
40
0
40
0
40
0
40
0.125
40
0.125
40
0.249999999999999
40
0.249999999999999
40
0.5
40
0.5
40
0.75
40
0.75
40
0.875
40
0.875
40
1
40
1
40
1
40
1
41
1
10
58.6518410086536
20
10.0927025776376
30
0
41
1
10
58.6280156587498
20
10.0867283582354
30
0
41
1
10
58.602494099452
20
10.0890344179955
30
0
41
1
10
58.5521834769598
20
10.1013361020796
30
0
41
1
10
58.5274061342086
20
10.1115146181239
30
0
41
1
10
58.4556804509695
20
10.1490964802252
30
0
41
1
10
58.4111006184675
20
10.1834827135417
30
0
41
1
10
58.3321043087587
20
10.2624748828386
30
0
41
1
10
58.2977115895658
20
10.307066779554
30
0
41
1
10
58.2601451926154
20
10.3787411053345
30
0
41
1
10
58.2499650749552
20
10.4034887964779
30
0
41
1
10
58.2376298281941
20
10.453893157942
30
0
41
1
10
58.2353321831352
20
10.4794276372943
30
0
41
1
10
58.2413032342619
20
10.5032403520293
30
0
0
SPLINE
5
107
100
AcDbEntity
8
1
62
256
6
ByLayer
370
18
48
1
60
0
100
AcDbSpline
70
4
71
3
72
16
73
12
40
0
40
0
40
0
40
0
40
0.125
40
0.125
40
0.25
40
0.25
40
0.5
40
0.5
40
0.75
40
0.75
40
1
40
1
40
1
40
1
41
1
10
58.2461682808105
20
10.5226422903436
30
0
41
1
10
58.2542215249515
20
10.5348440077837
30
0
41
1
10
58.2586226016622
20
10.5491246321101
30
0
41
1
10
58.2584219432523
20
10.5789125782038
30
0
41
1
10
58.2539009794937
20
10.594191051502
30
0
41
1
10
58.2322688985751
20
10.6365233107152
30
0
41
1
10
58.2083162495236
20
10.6603702272918
30
0
41
1
10
58.1558423766252
20
10.7005936888981
30
0
41
1
10
58.1266510587318
20
10.7172495312043
30
0
41
1
10
58.0659922676292
20
10.7451017202663
30
0
41
1
10
58.0343773776182
20
10.7563145200974
30
0
41
1
10
58.0020746659405
20
10.7649700056047
30
0
0
SPLINE
5
108
100
AcDbEntity
8
1
62
256
6
ByLayer
370
18
48
1
60
0
100
AcDbSpline
70
4
71
3
72
18
73
14
40
0
40
0
40
0
40
0
40
0.25
40
0.25
40
0.5
40
0.5
40
0.625
40
0.625
40
0.75
40
0.75
40
0.875
40
0.875
40
1
40
1
40
1
40
1
41
1
10
58.0020746659405
20
10.7649700056047
30
0
41
1
10
57.9697872939373
20
10.7736213808587
30
0
41
1
10
57.9368419364176
20
10.7797139776613
30
0
41
1
10
57.8703755555888
20
10.7859298084481
30
0
41
1
10
57.8368573985109
20
10.7861128836973
30
0
41
1
10
57.7876006647558
20
10.7796640977556
30
0
41
1
10
57.7714552938931
20
10.7763819495103
30
0
41
1
10
57.7404712739626
20
10.7667499871593
30
0
41
1
10
57.7253331851239
20
10.7602774445796
30
0
41
1
10
57.6987561399585
20
10.7431116320459
30
0
41
1
10
57.6871985639491
20
10.7322300995728
30
0
41
1
10
57.6719485286456
20
10.7063198266179
30
0
41
1
10
57.6686456780172
20
10.6917552186584
30
0
41
1
10
57.669519536931
20
10.6771548555826
30
0
0
SPLINE
5
109
100
AcDbEntity
8
1
62
256
6
ByLayer
370
18
48
1
60
0
100
AcDbSpline
70
4
71
3
72
16
73
12
40
0
40
0
40
0
40
0
40
0.125
40
0.125
40
0.25
40
0.25
40
0.5
40
0.5
40
0.75
40
0.75
40
1
40
1
40
1
40
1
41
1
10
56.5111324394954
20
9.51876775814688
30
0
41
1
10
56.4965388201519
20
9.51964121343579
30
0
41
1
10
56.481970898348
20
9.51631234550808
30
0
41
1
10
56.4562741095093
20
9.50124459718077
30
0
41
1
10
56.4453030453813
20
9.48969009106719
30
0
41
1
10
56.4194582739624
20
9.44979002984832
30
0
41
1
10
56.4107825629309
20
9.41712296899348
30
0
41
1
10
56.4021849598009
20
9.35156753122541
30
0
41
1
10
56.402356236189
20
9.31795918720667
30
0
41
1
10
56.4085649284616
20
9.2515010386179
30
0
41
1
10
56.4146618039659
20
9.21851534081503
30
0
41
1
10
56.4233172894732
20
9.1862126291374
30
0
0
SPLINE
5
10A
100
AcDbEntity
8
1
62
256
6
ByLayer
370
18
48
1
60
0
100
AcDbSpline
70
4
71
3
72
18
73
14
40
0
40
0
40
0
40
0
40
0.25
40
0.25
40
0.5
40
0.5
40
0.625
40
0.625
40
0.75
40
0.75
40
0.875
40
0.875
40
1
40
1
40
1
40
1
41
1
10
56.4233172894732
20
9.1862126291374
30
0
41
1
10
56.4319686647272
20
9.15392525713412
30
0
41
1
10
56.443164999881
20
9.12234744218406
30
0
41
1
10
56.4710151229284
20
9.06167795249524
30
0
41
1
10
56.4876156536507
20
9.0325588393531
30
0
41
1
10
56.5178288329773
20
8.99312564958467
30
0
41
1
10
56.5287439421681
20
8.98078442238673
30
0
41
1
10
56.5525774762177
20
8.95876745519104
30
0
41
1
10
56.5657519069381
20
8.94889375698176
30
0
41
1
10
56.5939064592516
20
8.93446026697791
30
0
41
1
10
56.6091089308101
20
8.92989187878413
30
0
41
1
10
56.6391729030598
20
8.92964009728013
30
0
41
1
10
56.6534376488631
20
8.93406204871079
30
0
41
1
10
56.6656450047343
20
8.94211901426743
30
0
0
SPLINE
5
10B
100
AcDbEntity
8
1
62
256
6
ByLayer
370
18
48
1
60
0
100
AcDbSpline
70
4
71
3
72
8
73
4
40
0
40
0
40
0
40
0
40
1
40
1
40
1
40
1
41
1
10
58.2336611590589
20
8.5320341322487
30
0
41
1
10
58.2384519591474
20
8.52739529873983
30
0
41
1
10
58.2432419623409
20
8.52275723684801
30
0
41
1
10
58.2480312072476
20
8.51811990918986
30
0
0
SPLINE
5
10C
100
AcDbEntity
8
1
62
256
6
ByLayer
370
18
48
1
60
0
100
AcDbSpline
70
4
71
3
72
8
73
4
40
0
40
0
40
0
40
0
40
1
40
1
40
1
40
1
41
1
10
56.5303675342326
20
9.52425547340243
30
0
41
1
10
56.5239547865257
20
9.52242593557577
30
0
41
1
10
56.5175431055063
20
9.52059670207188
30
0
41
1
10
56.5111324394954
20
9.51876775814688
30
0
0
SPLINE
5
10D
100
AcDbEntity
8
1
62
256
6
ByLayer
370
18
48
1
60
0
100
AcDbSpline
70
4
71
3
72
18
73
14
40
0
40
0
40
0
40
0
40
0.125
40
0.125
40
0.250000000000001
40
0.250000000000001
40
0.500000000000001
40
0.500000000000001
40
0.75
40
0.75
40
0.875
40
0.875
40
1
40
1
40
1
40
1
41
1
10
57.6640318216755
20
10.6579197608454
30
0
41
1
10
57.6572929724937
20
10.6342992928735
30
0
41
1
10
57.6425350865098
20
10.6133500040575
30
0
41
1
10
57.6067262043377
20
10.5759305689411
30
0
41
1
10
57.5855226794948
20
10.5595620187024
30
0
41
1
10
57.517112990574
20
10.5162366859642
30
0
41
1
10
57.4650437227305
20
10.4948225351792
30
0
41
1
10
57.357136342565
20
10.4659058088147
30
0
41
1
10
57.30132226761
20
10.4584167886461
30
0
41
1
10
57.2204672822098
20
10.4617204974487
30
0
41
1
10
57.1939450941645
20
10.4652781025131
30
0
41
1
10
57.1441260132946
20
10.4797976461881
30
0
41
1
10
57.1208636829736
20
10.4905750668743
30
0
41
1
10
57.1032267926433
20
10.5076525062049
30
0
0
SPLINE
5
10E
100
AcDbEntity
8
1
62
256
6
ByLayer
370
18
48
1
60
0
100
AcDbSpline
70
4
71
3
72
16
73
12
40
0
40
0
40
0
40
0
40
0.125
40
0.125
40
0.25
40
0.25
40
0.5
40
0.5
40
0.75
40
0.75
40
1
40
1
40
1
40
1
41
1
10
57.0888567444547
20
10.5215667292637
30
0
41
1
10
57.0823163692523
20
10.5346419019927
30
0
41
1
10
57.0721495241591
20
10.5455936583914
30
0
41
1
10
57.0462520769105
20
10.5603138561578
30
0
41
1
10
57.0307600490239
20
10.5640378233424
30
0
41
1
10
56.9832831966864
20
10.5664700213367
30
0
41
1
10
56.9506548366033
20
10.5576498770585
30
0
41
1
10
56.889583360575
20
10.5323179008967
30
0
41
1
10
56.8605633190697
20
10.5153653991841
30
0
41
1
10
56.8061132202396
20
10.4767594396574
30
0
41
1
10
56.7805952057329
20
10.4549865416856
30
0
41
1
10
56.7569479795627
20
10.4313393155153
30
0
0
SPLINE
5
10F
100
AcDbEntity
8
1
62
256
6
ByLayer
370
18
48
1
60
0
100
AcDbSpline
70
4
71
3
72
18
73
14
40
0
40
0
40
0
40
0
40
0.25
40
0.25
40
0.5
40
0.5
40
0.625
40
0.625
40
0.75
40
0.75
40
0.875
40
0.875
40
1
40
1
40
1
40
1
41
1
10
56.7569479795627
20
10.4313393155153
30
0
41
1
10
56.7333119828133
20
10.407703318766
30
0
41
1
10
56.7115629604475
20
10.3822181006186
30
0
41
1
10
56.672946702666
20
10.3277644417166
30
0
41
1
10
56.6560290763105
20
10.2988284038237
30
0
41
1
10
56.636985521882
20
10.2529464281135
30
0
41
1
10
56.6317552602101
20
10.2373230526702
30
0
41
1
10
56.6246047743292
20
10.2056741231235
30
0
41
1
10
56.6226411162108
20
10.1893278823346
30
0
41
1
10
56.624218623359
20
10.157728579797
30
0
41
1
10
56.627863518908
20
10.1422786591301
30
0
41
1
10
56.6426774558542
20
10.1161166046713
30
0
41
1
10
56.6536393510291
20
10.1059739481424
30
0
41
1
10
56.6667205658142
20
10.0994305506232
30
0
0
SPLINE
5
110
100
AcDbEntity
8
1
62
256
6
ByLayer
370
18
48
1
60
0
100
AcDbSpline
70
4
71
3
72
18
73
14
40
0
40
0
40
0
40
0
40
0.125000000000001
40
0.125000000000001
40
0.250000000000001
40
0.250000000000001
40
0.5
40
0.5
40
0.75
40
0.75
40
0.875
40
0.875
40
1
40
1
40
1
40
1
41
1
10
58.6562531628292
20
8.95462613601902
30
0
41
1
10
58.6391666621073
20
8.97227238458865
30
0
41
1
10
58.6284029887933
20
8.99552773316483
30
0
41
1
10
58.6139012484733
20
9.04524885236526
30
0
41
1
10
58.6103274305649
20
9.07179591864826
30
0
41
1
10
58.6070114362466
20
9.1527031134878
30
0
41
1
10
58.6145008715881
20
9.20850349758928
30
0
41
1
10
58.643411942045
20
9.31641239325072
30
0
41
1
10
58.6648332978069
20
9.36849331013468
30
0
41
1
10
58.7081218862568
20
9.43686392711265
30
0
41
1
10
58.7244639566418
20
9.45805401319163
30
0
41
1
10
58.7619477907508
20
9.49393883098065
30
0
41
1
10
58.7829124760128
20
9.50869588964673
30
0
41
1
10
58.8065204174697
20
9.51543116505115
30
0
0
SPLINE
5
111
100
AcDbEntity
8
1
62
256
6
ByLayer
370
18
48
1
60
0
100
AcDbSpline
70
4
71
3
72
18
73
14
40
0
40
0
40
0
40
0
40
0.125000000000001
40
0.125000000000001
40
0.250000000000001
40
0.250000000000001
40
0.500000000000001
40
0.500000000000001
40
0.75
40
0.75
40
0.875
40
0.875
40
1
40
1
40
1
40
1
41
1
10
56.6806347888731
20
10.0850605024346
30
0
41
1
10
56.6977212895951
20
10.0674142538649
30
0
41
1
10
56.708484962909
20
10.0441589052888
30
0
41
1
10
56.722986703229
20
9.99443778608833
30
0
41
1
10
56.7265605211374
20
9.96789071980533
30
0
41
1
10
56.7298765154557
20
9.88698352496579
30
0
41
1
10
56.7223870801142
20
9.83118314086431
30
0
41
1
10
56.6934760096574
20
9.7232742452029
30
0
41
1
10
56.6720546538954
20
9.67119332831891
30
0
41
1
10
56.6287660654455
20
9.60282271134093
30
0
41
1
10
56.6124239950605
20
9.58163262526196
30
0
41
1
10
56.5749401609515
20
9.54574780747296
30
0
41
1
10
56.5539754756895
20
9.53099074880686
30
0
41
1
10
56.5303675342326
20
9.52425547340243
30
0
0
SPLINE
5
112
100
AcDbEntity
8
1
62
256
6
ByLayer
370
18
48
1
60
0
100
AcDbSpline
70
4
71
3
72
16
73
12
40
0
40
0
40
0
40
0
40
0.124999999999999
40
0.124999999999999
40
0.249999999999998
40
0.249999999999998
40
0.499999999999998
40
0.499999999999998
40
0.749999999999999
40
0.749999999999999
40
1
40
1
40
1
40
1
41
1
10
57.6673684147713
20
8.36253178287103
30
0
41
1
10
57.6682418700601
20
8.34793816352763
30
0
41
1
10
57.6649130021324
20
8.33337024172371
30
0
41
1
10
57.6498452538051
20
8.30767345288501
30
0
41
1
10
57.6382907476915
20
8.29670238875698
30
0
41
1
10
57.5983906864727
20
8.27085761733812
30
0
41
1
10
57.5657236256179
20
8.26218190630658
30
0
41
1
10
57.5001681878498
20
8.25358430317652
30
0
41
1
10
57.466559843831
20
8.25375557956468
30
0
41
1
10
57.4001016952423
20
8.25996427183728
30
0
41
1
10
57.3671159974394
20
8.2660611473415
30
0
41
1
10
57.3348132857617
20
8.27471663284888
30
0
0
SPLINE
5
113
100
AcDbEntity
8
1
62
256
6
ByLayer
370
18
48
1
60
0
100
AcDbSpline
70
4
71
3
72
8
73
4
40
0
40
0
40
0
40
0
40
1
40
1
40
1
40
1
41
1
10
57.0907196708918
20
8.51704434810995
30
0
41
1
10
57.0923410919961
20
8.52351061969313
30
0
41
1
10
57.093962769822
20
8.52997791508884
30
0
41
1
10
57.0955847174404
20
8.53644628642434
30
0
0
SPLINE
5
114
100
AcDbEntity
8
1
62
256
6
ByLayer
370
18
48
1
60
0
100
AcDbSpline
70
4
71
3
72
16
73
12
40
0
40
0
40
0
40
0
40
0.25
40
0.25
40
0.5
40
0.5
40
0.749999999999999
40
0.749999999999999
40
0.875
40
0.875
40
1
40
1
40
1
40
1
41
1
10
57.3348132857617
20
8.27471663284888
30
0
41
1
10
57.3025144772756
20
8.28337107249922
30
0
41
1
10
57.270925752175
20
8.2945722123211
30
0
41
1
10
57.2102364875973
20
8.3224361936665
30
0
41
1
10
57.1811088276858
20
8.33904539938237
30
0
41
1
10
57.1285208458753
20
8.37935445925868
30
0
41
1
10
57.1047494095356
20
8.40292103554648
30
0
41
1
10
57.0829385448527
20
8.4455839603464
30
0
41
1
10
57.0784687679204
20
8.46082750499008
30
0
41
1
10
57.0782628148653
20
8.49047577651169
30
0
41
1
10
57.0826693771887
20
8.50484710096882
30
0
41
1
10
57.0907196708918
20
8.51704434810995
30
0
0
SPLINE
5
115
100
AcDbEntity
8
1
62
256
6
ByLayer
370
18
48
1
60
0
100
AcDbSpline
70
4
71
3
72
18
73
14
40
0
40
0
40
0
40
0
40
0.125
40
0.125
40
0.25
40
0.25
40
0.499999999999999
40
0.499999999999999
40
0.749999999999999
40
0.749999999999999
40
0.874999999999999
40
0.874999999999999
40
1
40
1
40
1
40
1
41
1
10
58.2336611590589
20
8.5320341322487
30
0
41
1
10
58.2159125784375
20
8.5492197189985
30
0
41
1
10
58.1923775206922
20
8.56002624805569
30
0
41
1
10
58.1428850379878
20
8.57439994171486
30
0
41
1
10
58.1162027644179
20
8.57798020779887
30
0
41
1
10
58.0357556506731
20
8.58125173760297
30
0
41
1
10
57.9802024900475
20
8.57386427151596
30
0
41
1
10
57.8721651712883
20
8.54498722634054
30
0
41
1
10
57.8200091983578
20
8.52356362799043
30
0
41
1
10
57.7515403864911
20
8.48025274861166
30
0
41
1
10
57.7303199294814
20
8.46390069517321
30
0
41
1
10
57.6943797190206
20
8.42638526072022
30
0
41
1
10
57.6795987802121
20
8.40540066854942
30
0
41
1
10
57.6728561300268
20
8.38176687760824
30
0
0
SPLINE
5
116
100
AcDbEntity
8
1
62
256
6
ByLayer
370
18
48
1
60
0
100
AcDbSpline
70
4
71
3
72
8
73
4
40
0
40
0
40
0
40
0
40
1
40
1
40
1
40
1
41
1
10
57.6728561300268
20
8.38176687760824
30
0
41
1
10
57.6710265922001
20
8.37535412990138
30
0
41
1
10
57.6691973586962
20
8.368942448882
30
0
41
1
10
57.6673684147713
20
8.36253178287103
30
0
0
SPLINE
5
117
100
AcDbEntity
8
1
62
256
6
ByLayer
370
18
48
1
60
0
100
AcDbSpline
70
4
71
3
72
20
73
16
40
0
40
0
40
0
40
0
40
0.125
40
0.125
40
0.25
40
0.25
40
0.5
40
0.5
40
0.625
40
0.625
40
0.75
40
0.75
40
0.875
40
0.875
40
1
40
1
40
1
40
1
41
1
10
57.0955847174404
20
8.53644628642434
30
0
41
1
10
57.1015651351139
20
8.56029635520346
30
0
41
1
10
57.0992488687768
20
8.58584563206404
30
0
41
1
10
57.0869168849306
20
8.63620797322196
30
0
41
1
10
57.0767098377067
20
8.66103451915998
30
0
41
1
10
57.0389747794453
20
8.7329518383861
30
0
41
1
10
57.0044846225036
20
8.77757852030368
30
0
41
1
10
56.9451187565578
20
8.83683914678099
30
0
41
1
10
56.9243179341099
20
8.85498586301452
30
0
41
1
10
56.8806198967908
20
8.88799505962868
30
0
41
1
10
56.8574753372319
20
8.90300747826348
30
0
41
1
10
56.8097384780728
20
8.92805492123583
30
0
41
1
10
56.7851312984542
20
8.93820493671123
30
0
41
1
10
56.7346929044546
20
8.95061974340774
30
0
41
1
10
56.7089647493858
20
8.95298146371894
30
0
41
1
10
56.6850469430487
20
8.94698406081599
30
0
0
SPLINE
5
118
100
AcDbEntity
8
1
62
256
6
ByLayer
370
18
48
1
60
0
100
AcDbSpline
70
4
71
3
72
10
73
6
40
0
40
0
40
0
40
0
40
0.375000000000405
40
0.750000000000811
40
1
40
1
40
1
40
1
41
1
10
56.933691527271
20
6.77770985018356
30
0
41
1
10
57.1182543704511
20
6.72825638539913
30
0
41
1
10
57.4956470546178
20
6.66021425130771
30
0
41
1
10
58.0044113657681
20
6.65451422508835
30
0
41
1
10
58.3165964303363
20
6.69495096533475
30
0
41
1
10
58.439639941424
20
6.71795470428506
30
0
0
SPLINE
5
119
100
AcDbEntity
8
1
62
256
6
ByLayer
370
18
48
1
60
0
100
AcDbSpline
70
4
71
3
72
8
73
4
40
0
40
0
40
0
40
0
40
1
40
1
40
1
40
1
41
1
10
55.259204121543
20
14.8241400044069
30
0
41
1
10
55.8052187511208
20
13.990003980994
30
0
41
1
10
56.3512333806988
20
13.1558679575811
30
0
41
1
10
56.8972480102767
20
12.3217319341682
30
0
0
SPLINE
5
11A
100
AcDbEntity
8
1
62
256
6
ByLayer
370
18
48
1
60
0
100
AcDbSpline
70
4
71
3
72
8
73
4
40
0
40
0
40
0
40
0
40
1
40
1
40
1
40
1
41
1
10
62.0151101941519
20
8.35515761626544
30
0
41
1
10
61.4802659443994
20
8.49846870105918
30
0
41
1
10
60.9454216946469
20
8.64177978585289
30
0
41
1
10
60.4105774448944
20
8.78509087064663
30
0
0
SPLINE
5
11B
100
AcDbEntity
8
1
62
256
6
ByLayer
370
18
48
1
60
0
100
AcDbSpline
70
4
71
3
72
10
73
6
40
0
40
0
40
0
40
0
40
0.375000000000406
40
0.750000000000812
40
1
40
1
40
1
40
1
41
1
10
58.4031964244313
20
12.26197678827
30
0
41
1
10
58.2186335812512
20
12.3114302530545
30
0
41
1
10
57.8412408970844
20
12.3794723871459
30
0
41
1
10
57.3324765859342
20
12.3851724133653
30
0
41
1
10
57.020291521366
20
12.3447356731189
30
0
41
1
10
56.8972480102783
20
12.3217319341685
30
0
0
SPLINE
5
11C
100
AcDbEntity
8
1
62
256
6
ByLayer
370
18
48
1
60
0
100
AcDbSpline
70
4
71
3
72
10
73
6
40
0
40
0
40
0
40
0
40
0.249999999999985
40
0.624999999999992
40
1
40
1
40
1
40
1
41
1
10
55.5996243708891
20
7.47893458291415
30
0
41
1
10
55.6946813077859
20
7.39749100505509
30
0
41
1
10
55.9448231342577
20
7.2063792284651
30
0
41
1
10
56.3882759653667
20
6.95693344040686
30
0
41
1
10
56.7491286841008
20
6.82716331496331
30
0
41
1
10
56.9336915272819
20
6.77770985018066
30
0
0
SPLINE
5
11D
100
AcDbEntity
8
1
62
256
6
ByLayer
370
18
48
1
60
0
100
AcDbSpline
70
4
71
3
72
8
73
4
40
0
40
0
40
0
40
0
40
1
40
1
40
1
40
1
41
1
10
62.4070552360857
20
12.9088790706473
30
0
41
1
10
61.5171246843282
20
12.4595033989447
30
0
41
1
10
60.6271941325707
20
12.010127727242
30
0
41
1
10
59.7372635808132
20
11.5607520555394
30
0
0
SPLINE
5
11E
100
AcDbEntity
8
1
62
256
6
ByLayer
370
18
48
1
60
0
100
AcDbSpline
70
4
71
3
72
17
73
13
40
0
40
0
40
0
40
0
40
0.0625
40
0.125
40
0.25
40
0.375
40
0.5
40
0.625
40
0.75
40
0.875
40
0.9375
40
1
40
1
40
1
40
1
41
1
10
62.407055271295
20
12.9088790909785
30
0
41
1
10
62.4323431502361
20
12.9021032242379
30
0
41
1
10
62.4822528591209
20
12.8860664237108
30
0
41
1
10
62.578450272112
20
12.8443672418569
30
0
41
1
10
62.69014832181
20
12.7749125024963
30
0
41
1
10
62.8053488796505
20
12.6670154555842
30
0
41
1
10
62.8972863203484
20
12.5387170819861
30
0
41
1
10
62.9624270422639
20
12.3949479178517
30
0
41
1
10
62.9982697135612
20
12.2412325247664
30
0
41
1
10
63.0025692854627
20
12.1097716649081
30
0
41
1
10
62.9905836583296
20
12.005612545536
30
0
41
1
10
62.9795165629847
20
11.9543710728063
30
0
41
1
10
62.9727406962442
20
11.9290831938652
30
0
0
SPLINE
5
11F
100
AcDbEntity
8
1
62
256
6
ByLayer
370
18
48
1
60
0
100
AcDbSpline
70
4
71
3
72
8
73
4
40
0
40
0
40
0
40
0
40
1
40
1
40
1
40
1
41
1
10
55.2592041215393
20
14.8241400044079
30
0
41
1
10
56.4505126406305
20
14.5049298487811
30
0
41
1
10
57.6418211596896
20
14.1857196931629
30
0
41
1
10
58.8331296788125
20
13.8665095375276
30
0
0
SPLINE
5
120
100
AcDbEntity
8
1
62
256
6
ByLayer
370
18
48
1
60
0
100
AcDbSpline
70
4
71
3
72
8
73
4
40
0
40
0
40
0
40
0
40
1
40
1
40
1
40
1
41
1
10
53.3217777575503
20
10.6845290221881
30
0
41
1
10
53.6409879131856
20
11.875837541311
30
0
41
1
10
53.9601980688038
20
13.0671460603702
30
0
41
1
10
54.2794082244306
20
14.2584545794614
30
0
0
SPLINE
5
121
100
AcDbEntity
8
1
62
256
6
ByLayer
370
18
48
1
60
0
100
AcDbSpline
70
4
71
3
72
8
73
4
40
0
40
0
40
0
40
0
40
1
40
1
40
1
40
1
41
1
10
58.4031964244313
20
12.26197678827
30
0
41
1
10
58.546507509225
20
12.7968210380226
30
0
41
1
10
58.6898185940188
20
13.3316652877751
30
0
41
1
10
58.8331296788125
20
13.8665095375276
30
0
0
SPLINE
5
122
100
AcDbEntity
8
1
62
256
6
ByLayer
370
18
48
1
60
0
100
AcDbSpline
70
4
71
3
72
8
73
4
40
0
40
0
40
0
40
0
40
1
40
1
40
1
40
1
41
1
10
58.8331296788125
20
13.8665095375276
30
0
41
1
10
60.0244381979353
20
13.5472993818923
30
0
41
1
10
61.2157467169945
20
13.2280892262741
30
0
41
1
10
62.4070552360857
20
12.9088790706473
30
0
0
SPLINE
5
123
100
AcDbEntity
8
1
62
256
6
ByLayer
370
18
48
1
60
0
100
AcDbSpline
70
4
71
3
72
10
73
6
40
0
40
0
40
0
40
0
40
0.375000000000406
40
0.750000000000812
40
1
40
1
40
1
40
1
41
1
10
54.9263105068079
20
10.254595767807
30
0
41
1
10
54.8768570420235
20
10.0700329246268
30
0
41
1
10
54.8088149079321
20
9.69264024046009
30
0
41
1
10
54.8031148817127
20
9.18387592930983
30
0
41
1
10
54.8435516219591
20
8.87169086474168
30
0
41
1
10
54.8665553609094
20
8.74864735365395
30
0
0
SPLINE
5
124
100
AcDbEntity
8
1
62
256
6
ByLayer
370
18
48
1
60
0
100
AcDbSpline
70
4
71
3
72
10
73
6
40
0
40
0
40
0
40
0
40
0.375000000000406
40
0.750000000000812
40
1
40
1
40
1
40
1
41
1
10
60.4105774448944
20
8.78509087064663
30
0
41
1
10
60.4600309096788
20
8.96965371382674
30
0
41
1
10
60.5280730437702
20
9.34704639799349
30
0
41
1
10
60.5337730699896
20
9.85581070914375
30
0
41
1
10
60.4933363297432
20
10.1679957737119
30
0
41
1
10
60.4703325907929
20
10.2910392847996
30
0
0
SPLINE
5
125
100
AcDbEntity
8
1
62
256
6
ByLayer
370
18
48
1
60
0
100
AcDbSpline
70
4
71
3
72
8
73
4
40
0
40
0
40
0
40
0
40
1
40
1
40
1
40
1
41
1
10
62.9727406610313
20
11.929083173535
30
0
41
1
10
62.1386046376184
20
11.383068543957
30
0
41
1
10
61.3044686142055
20
10.8370539143791
30
0
41
1
10
60.4703325907926
20
10.2910392848012
30
0
0
SPLINE
5
126
100
AcDbEntity
8
1
62
256
6
ByLayer
370
18
48
1
60
0
100
AcDbSpline
70
4
71
3
72
10
73
6
40
0
40
0
40
0
40
0
40
0.249999999999984
40
0.624999999999992
40
1
40
1
40
1
40
1
41
1
10
55.6275352395385
20
11.5886629241888
30
0
41
1
10
55.5460916616794
20
11.4936059872921
30
0
41
1
10
55.3549798850894
20
11.2434641608203
30
0
41
1
10
55.1055340970312
20
10.8000113297112
30
0
41
1
10
54.9757639715876
20
10.4391586109771
30
0
41
1
10
54.926310506805
20
10.2545957677961
30
0
0
SPLINE
5
127
100
AcDbEntity
8
1
62
256
6
ByLayer
370
18
48
1
60
0
100
AcDbSpline
70
4
71
3
72
29
73
25
40
0
40
0
40
0
40
0
40
0.125000000000944
40
0.171875000000893
40
0.218750000000841
40
0.242187500000815
40
0.265625000000789
40
0.277343750000776
40
0.289062500000763
40
0.312500000000737
40
0.359375000000686
40
0.406250000000634
40
0.50000000000053
40
0.593750000000427
40
0.640625000000375
40
0.687500000000323
40
0.710937500000298
40
0.722656250000285
40
0.734375000000272
40
0.757812500000246
40
0.78125000000022
40
0.828125000000168
40
0.875000000000116
40
1
40
1
40
1
40
1
41
1
10
58.439639941424
20
6.71795470428506
30
0
41
1
10
58.5011616969687
20
6.72945657376036
30
0
41
1
10
58.5851248714008
20
6.74761912776924
30
0
41
1
10
58.6906141101848
20
6.77477978550905
30
0
41
1
10
58.7466965013844
20
6.79049697768508
30
0
41
1
10
58.7912907118223
20
6.80377394983509
30
0
41
1
10
58.819043045654
20
6.81235460282142
30
0
41
1
10
58.8411681774447
20
6.81937557509849
30
0
41
1
10
58.8632682444976
20
6.82660152880013
30
0
41
1
10
58.9019004905842
20
6.83994124174731
30
0
41
1
10
58.9568541784138
20
6.86094315944885
30
0
41
1
10
59.0438459837671
20
6.89873726610691
30
0
41
1
10
59.1500017178122
20
6.95371000925303
30
0
41
1
10
59.2506873525736
20
7.0181572325007
30
0
41
1
10
59.3269138990566
20
7.07459730012175
30
0
41
1
10
59.3725789633057
20
7.11168761584523
30
0
41
1
10
59.4034476458956
20
7.13847425556742
30
0
41
1
10
59.4207555443627
20
7.15400049671843
30
0
41
1
10
59.4378984494863
20
7.16965093709251
30
0
41
1
10
59.4592056798335
20
7.18939483671949
30
0
41
1
10
59.4930009807451
20
7.22137606959294
30
0
41
1
10
59.5346536638701
20
7.26208624903936
30
0
41
1
10
59.6109201028482
20
7.33986228078138
30
0
41
1
10
59.6686309232343
20
7.40349524581635
30
0
41
1
10
59.7093527121638
20
7.45102371426475
30
0
0
SPLINE
5
128
100
AcDbEntity
8
1
62
256
6
ByLayer
370
18
48
1
60
0
100
AcDbSpline
70
4
71
3
72
29
73
25
40
0
40
0
40
0
40
0
40
0.125000000000946
40
0.171875000000894
40
0.218750000000842
40
0.242187500000817
40
0.265625000000791
40
0.277343750000778
40
0.289062500000765
40
0.312500000000739
40
0.359375000000687
40
0.406250000000635
40
0.500000000000532
40
0.593750000000428
40
0.640625000000376
40
0.687500000000324
40
0.710937500000298
40
0.722656250000285
40
0.734375000000272
40
0.757812500000247
40
0.781250000000221
40
0.828125000000169
40
0.875000000000117
40
1
40
1
40
1
40
1
41
1
10
54.8665553609094
20
8.74864735365395
30
0
41
1
10
54.8780572303847
20
8.68712559810928
30
0
41
1
10
54.8962197843936
20
8.60316242367716
30
0
41
1
10
54.9233804421334
20
8.4976731848931
30
0
41
1
10
54.9390976343094
20
8.44159079369356
30
0
41
1
10
54.9523746064594
20
8.39699658325566
30
0
41
1
10
54.9609552594458
20
8.3692442494239
30
0
41
1
10
54.9679762317228
20
8.34711911763324
30
0
41
1
10
54.9752021854245
20
8.32501905058032
30
0
41
1
10
54.9885418983716
20
8.28638680449379
30
0
41
1
10
55.0095438160732
20
8.23143311666414
30
0
41
1
10
55.0473379227312
20
8.14444131131083
30
0
41
1
10
55.1023106658774
20
8.03828557726575
30
0
41
1
10
55.1667578891251
20
7.93759994250436
30
0
41
1
10
55.2231979567461
20
7.86137339602132
30
0
41
1
10
55.2602882724696
20
7.81570833177227
30
0
41
1
10
55.2870749121918
20
7.78483964918235
30
0
41
1
10
55.3026011533428
20
7.76753175071519
30
0
41
1
10
55.3182515937169
20
7.75038884559166
30
0
41
1
10
55.3379954933438
20
7.72908161524447
30
0
41
1
10
55.3699767262173
20
7.69528631433281
30
0
41
1
10
55.4106869056637
20
7.65363363120781
30
0
41
1
10
55.4884629374058
20
7.5773671922297
30
0
41
1
10
55.5520959024407
20
7.51965637184367
30
0
41
1
10
55.5996243708891
20
7.47893458291412
30
0
0
SPLINE
5
129
100
AcDbEntity
8
1
62
256
6
ByLayer
370
18
48
1
60
0
100
AcDbSpline
70
4
71
3
72
29
73
25
40
0
40
0
40
0
40
0
40
0.125000000000945
40
0.171875000000894
40
0.218750000000842
40
0.242187500000816
40
0.26562500000079
40
0.277343750000777
40
0.289062500000764
40
0.312500000000738
40
0.359375000000687
40
0.406250000000635
40
0.500000000000531
40
0.593750000000427
40
0.640625000000376
40
0.687500000000324
40
0.710937500000298
40
0.722656250000285
40
0.734375000000272
40
0.757812500000246
40
0.78125000000022
40
0.828125000000168
40
0.875000000000117
40
1
40
1
40
1
40
1
41
1
10
56.8972480102783
20
12.3217319341686
30
0
41
1
10
56.8357262547336
20
12.3102300646932
30
0
41
1
10
56.7517630803015
20
12.2920675106844
30
0
41
1
10
56.6462738415174
20
12.2649068529445
30
0
41
1
10
56.5901914503179
20
12.2491896607685
30
0
41
1
10
56.54559723988
20
12.2359126886185
30
0
41
1
10
56.5178449060483
20
12.2273320356322
30
0
41
1
10
56.4957197742576
20
12.2203110633551
30
0
41
1
10
56.4736197072046
20
12.2130851096535
30
0
41
1
10
56.4349874611181
20
12.1997453967063
30
0
41
1
10
56.3800337732885
20
12.1787434790048
30
0
41
1
10
56.2930419679352
20
12.1409493723467
30
0
41
1
10
56.1868862338901
20
12.0859766292006
30
0
41
1
10
56.0862005991287
20
12.0215294059529
30
0
41
1
10
56.0099740526457
20
11.9650893383318
30
0
41
1
10
55.9643089883966
20
11.9279990226084
30
0
41
1
10
55.9334403058067
20
11.9012123828862
30
0
41
1
10
55.9161324073396
20
11.8856861417352
30
0
41
1
10
55.898989502216
20
11.8700357013611
30
0
41
1
10
55.8776822718688
20
11.8502918017341
30
0
41
1
10
55.8438869709572
20
11.8183105688606
30
0
41
1
10
55.8022342878322
20
11.7776003894143
30
0
41
1
10
55.725967848854
20
11.6998243576722
30
0
41
1
10
55.668257028468
20
11.6361913926372
30
0
41
1
10
55.6275352395385
20
11.5886629241888
30
0
0
SPLINE
5
12A
100
AcDbEntity
8
1
62
256
6
ByLayer
370
18
48
1
60
0
100
AcDbSpline
70
4
71
3
72
8
73
4
40
0
40
0
40
0
40
0
40
1
40
1
40
1
40
1
41
1
10
53.3217777575503
20
10.6845290221881
30
0
41
1
10
53.8566220073029
20
10.5412179373944
30
0
41
1
10
54.3914662570554
20
10.3979068526007
30
0
41
1
10
54.9263105068079
20
10.254595767807
30
0
0
SPLINE
5
12B
100
AcDbEntity
8
1
62
256
6
ByLayer
370
18
48
1
60
0
100
AcDbSpline
70
4
71
3
72
29
73
25
40
0
40
0
40
0
40
0
40
0.125000000000945
40
0.171875000000893
40
0.218750000000841
40
0.242187500000815
40
0.26562500000079
40
0.277343750000777
40
0.289062500000764
40
0.312500000000738
40
0.359375000000686
40
0.406250000000634
40
0.50000000000053
40
0.593750000000427
40
0.640625000000375
40
0.687500000000323
40
0.710937500000297
40
0.722656250000284
40
0.734375000000271
40
0.757812500000245
40
0.781250000000219
40
0.828125000000168
40
0.875000000000116
40
1
40
1
40
1
40
1
41
1
10
60.4703325907929
20
10.2910392847996
30
0
41
1
10
60.4588307213175
20
10.3525610403443
30
0
41
1
10
60.4406681673087
20
10.4365242147764
30
0
41
1
10
60.4135075095689
20
10.5420134535605
30
0
41
1
10
60.3977903173929
20
10.59809584476
30
0
41
1
10
60.3845133452429
20
10.6426900551979
30
0
41
1
10
60.3759326922565
20
10.6704423890297
30
0
41
1
10
60.3689117199795
20
10.6925675208204
30
0
41
1
10
60.3616857662778
20
10.7146675878733
30
0
41
1
10
60.3483460533307
20
10.7532998339598
30
0
41
1
10
60.3273441356291
20
10.8082535217894
30
0
41
1
10
60.2895500289711
20
10.8952453271428
30
0
41
1
10
60.2345772858249
20
11.0014010611879
30
0
41
1
10
60.1701300625772
20
11.1020866959492
30
0
41
1
10
60.1136899949562
20
11.1783132424323
30
0
41
1
10
60.0765996792327
20
11.2239783066813
30
0
41
1
10
60.0498130395105
20
11.2548469892712
30
0
41
1
10
60.0342867983595
20
11.2721548877384
30
0
41
1
10
60.0186363579854
20
11.2892977928619
30
0
41
1
10
59.9988924583584
20
11.3106050232091
30
0
41
1
10
59.966911225485
20
11.3444003241208
30
0
41
1
10
59.9262010460386
20
11.3860530072458
30
0
41
1
10
59.8484250142966
20
11.4623194462239
30
0
41
1
10
59.7847920492616
20
11.5200302666099
30
0
41
1
10
59.7372635808132
20
11.5607520555395
30
0
0
SPLINE
5
12C
100
AcDbEntity
8
1
62
256
6
ByLayer
370
18
48
1
60
0
100
AcDbSpline
70
4
71
3
72
10
73
6
40
0
40
0
40
0
40
0
40
0.249999999999984
40
0.624999999999992
40
1
40
1
40
1
40
1
41
1
10
59.7372635808132
20
11.5607520555395
30
0
41
1
10
59.6422066439164
20
11.6421956333985
30
0
41
1
10
59.3920648174446
20
11.8333074099885
30
0
41
1
10
58.9486119863356
20
12.0827531980468
30
0
41
1
10
58.5877592676015
20
12.2125233234903
30
0
41
1
10
58.4031964244204
20
12.261976788273
30
0
0
SPLINE
5
12D
100
AcDbEntity
8
1
62
256
6
ByLayer
370
18
48
1
60
0
100
AcDbSpline
70
4
71
3
72
10
73
6
40
0
40
0
40
0
40
0
40
0.249999999999985
40
0.624999999999992
40
1
40
1
40
1
40
1
41
1
10
59.7093527121638
20
7.45102371426475
30
0
41
1
10
59.7907962900228
20
7.54608065116153
30
0
41
1
10
59.9819080666129
20
7.79622247763334
30
0
41
1
10
60.2313538546711
20
8.23967530874236
30
0
41
1
10
60.3611239801146
20
8.60052802747646
30
0
41
1
10
60.4105774448973
20
8.78509087065754
30
0
0
SPLINE
5
12E
100
AcDbEntity
8
1
62
256
6
ByLayer
370
18
48
1
60
0
100
AcDbSpline
70
4
71
3
72
17
73
13
40
0
40
0
40
0
40
0
40
0.0625
40
0.125
40
0.25
40
0.375
40
0.5
40
0.625
40
0.75
40
0.875
40
0.9375
40
1
40
1
40
1
40
1
41
1
10
54.2794082040995
20
14.2584546146707
30
0
41
1
10
54.28618407084
20
14.2837424936117
30
0
41
1
10
54.3022208713671
20
14.3336522024966
30
0
41
1
10
54.343920053221
20
14.4298496154877
30
0
41
1
10
54.4133747925817
20
14.5415476651857
30
0
41
1
10
54.5212718394938
20
14.6567482230262
30
0
41
1
10
54.6495702130919
20
14.748685663724
30
0
41
1
10
54.7933393772263
20
14.8138263856395
30
0
41
1
10
54.9470547703115
20
14.8496690569369
30
0
41
1
10
55.0785156301698
20
14.8539686288384
30
0
41
1
10
55.1826747495419
20
14.8419830017053
30
0
41
1
10
55.2339162222717
20
14.8309159063604
30
0
41
1
10
55.2592041012127
20
14.8241400396198
30
0
0
SPLINE
5
12F
100
AcDbEntity
8
1
62
256
6
ByLayer
370
18
48
1
60
0
100
AcDbSpline
70
4
71
3
72
8
73
4
40
0
40
0
40
0
40
0
40
1
40
1
40
1
40
1
41
1
10
54.2794082244306
20
14.2584545794614
30
0
41
1
10
54.7287838961333
20
13.3685240277039
30
0
41
1
10
55.1781595678359
20
12.4785934759464
30
0
41
1
10
55.6275352395385
20
11.5886629241888
30
0
0
SPLINE
5
130
100
AcDbEntity
8
1
62
256
6
ByLayer
370
18
48
1
60
0
100
AcDbSpline
70
4
71
3
72
8
73
4
40
0
40
0
40
0
40
0
40
1
40
1
40
1
40
1
41
1
10
62.9727406610323
20
11.9290831735387
30
0
41
1
10
62.6535305054055
20
10.7377746544475
30
0
41
1
10
62.3343203497872
20
9.5464661353883
30
0
41
1
10
62.0151101941519
20
8.35515761626544
30
0
0
SPLINE
5
131
100
AcDbEntity
8
1
62
256
6
ByLayer
370
18
48
1
60
0
100
AcDbSpline
70
4
71
3
72
8
73
4
40
0
40
0
40
0
40
0
40
1
40
1
40
1
40
1
41
1
10
54.4780195552391
20
6.91257362764387
30
0
41
1
10
54.8518878271225
20
7.10136061273397
30
0
41
1
10
55.2257560990058
20
7.29014759782407
30
0
41
1
10
55.5996243708891
20
7.47893458291418
30
0
0
SPLINE
5
132
100
AcDbEntity
8
1
62
256
6
ByLayer
370
18
48
1
60
0
100
AcDbSpline
70
4
71
3
72
8
73
4
40
0
40
0
40
0
40
0
40
1
40
1
40
1
40
1
41
1
10
58.8768699447763
20
6.05000685718508
30
0
41
1
10
58.731126610326
20
6.27265613955183
30
0
41
1
10
58.5853832758758
20
6.4953054219186
30
0
41
1
10
58.4396399414256
20
6.71795470428538
30
0
0
SPLINE
5
133
100
AcDbEntity
8
1
62
256
6
ByLayer
370
18
48
1
60
0
100
AcDbSpline
70
4
71
3
72
8
73
4
40
0
40
0
40
0
40
0
40
1
40
1
40
1
40
1
41
1
10
56.8273971336487
20
6.38101377258198
30
0
41
1
10
56.8628285981931
20
6.5132457984482
30
0
41
1
10
56.8982600627375
20
6.64547782431441
30
0
41
1
10
56.9336915272819
20
6.77770985018066
30
0
0
SPLINE
5
134
100
AcDbEntity
8
1
62
256
6
ByLayer
370
18
48
1
60
0
100
AcDbSpline
70
4
71
3
72
8
73
4
40
0
40
0
40
0
40
0
40
1
40
1
40
1
40
1
41
1
10
62.0151101941519
20
8.35515761626544
30
0
41
1
10
61.7783111283088
20
7.47141147135395
30
0
41
1
10
61.541512062475
20
6.58766532647743
30
0
41
1
10
61.3047129966401
20
5.70391918159697
30
0
0
SPLINE
5
135
100
AcDbEntity
8
1
62
256
6
ByLayer
370
18
48
1
60
0
100
AcDbSpline
70
4
71
3
72
8
73
4
40
0
40
0
40
0
40
0
40
1
40
1
40
1
40
1
41
1
10
60.5362602249618
20
5.81344004995867
30
0
41
1
10
60.2606243873624
20
6.35930127139403
30
0
41
1
10
59.9849885497631
20
6.90516249282939
30
0
41
1
10
59.7093527121638
20
7.45102371426475
30
0
0
SPLINE
5
136
100
AcDbEntity
8
1
62
256
6
ByLayer
370
18
48
1
60
0
100
AcDbSpline
70
4
71
3
72
8
73
4
40
0
40
0
40
0
40
0
40
1
40
1
40
1
40
1
41
1
10
52.3996544166496
20
7.24311786310136
30
0
41
1
10
52.707028863616
20
8.39025491612819
30
0
41
1
10
53.0144033105752
20
9.53739196912869
30
0
41
1
10
53.3217777575503
20
10.6845290221881
30
0
0
SPLINE
5
137
100
AcDbEntity
8
1
62
256
6
ByLayer
370
18
48
1
60
0
100
AcDbSpline
70
4
71
3
72
8
73
4
40
0
40
0
40
0
40
0
40
1
40
1
40
1
40
1
41
1
10
52.5422486946986
20
7.22718633559907
30
0
41
1
10
53.3170175834357
20
7.73434000828348
30
0
41
1
10
54.0917864721727
20
8.24149368096795
30
0
41
1
10
54.8665553609097
20
8.74864735365236
30
0
0
SPLINE
5
138
100
AcDbEntity
8
1
62
256
6
ByLayer
370
18
48
1
60
0
100
AcDbSpline
70
4
71
3
72
15
73
11
40
0
40
0
40
0
40
0
40
0.0748223224144274
40
0.149644644828855
40
0.29928928965771
40
0.448933934486564
40
0.598578579315419
40
0.748223224144274
40
0.897867868973128
40
1
40
1
40
1
40
1
41
1
10
62.407055271295
20
-6.45443968670062
30
0
41
1
10
62.432343150236
20
-6.45105175333035
30
0
41
1
10
62.4822528591209
20
-6.44303335306674
30
0
41
1
10
62.578450272112
20
-6.42218376213978
30
0
41
1
10
62.6901483218099
20
-6.3874563924594
30
0
41
1
10
62.8053488796505
20
-6.33350786900331
30
0
41
1
10
62.8972863203484
20
-6.26935868220423
30
0
41
1
10
62.9624270422638
20
-6.19747410013696
30
0
41
1
10
62.9944763371112
20
-6.12875056786052
30
0
41
1
10
63.000101755198
20
-6.08469378924747
30
0
41
1
10
62.9999927581424
20
-6.06682608284234
30
0
0
SPLINE
5
139
100
AcDbEntity
8
1
62
256
6
ByLayer
370
18
48
1
60
0
100
AcDbSpline
70
4
71
3
72
8
73
4
40
0
40
0
40
0
40
0
40
1
40
1
40
1
40
1
41
1
10
54.0410182247637
20
-6.68438549434424
30
0
41
1
10
54.1204815579857
20
-6.83266609280594
30
0
41
1
10
54.1999448912079
20
-6.98094669126789
30
0
41
1
10
54.2794082244306
20
-7.12922728973084
30
0
0
SPLINE
5
13A
100
AcDbEntity
8
1
62
256
6
ByLayer
370
18
48
1
60
0
100
AcDbSpline
70
4
71
3
72
8
73
4
40
0
40
0
40
0
40
0
40
1
40
1
40
1
40
1
41
1
10
61.8999983990313
20
-2.22374354127686
30
0
41
1
10
62.0193081793051
20
-2.44637862218769
30
0
41
1
10
62.1386179595785
20
-2.66901370309779
30
0
41
1
10
62.2579277398523
20
-2.89164878400859
30
0
0
SPLINE
5
13B
100
AcDbEntity
8
1
62
256
6
ByLayer
370
18
48
1
60
0
100
AcDbSpline
70
4
71
3
72
15
73
11
40
0
40
0
40
0
40
0
40
0.0803449694124154
40
0.160689938824831
40
0.321379877649662
40
0.482069816474492
40
0.642759755299323
40
0.803449694124154
40
0.964139632948985
40
1
40
1
40
1
40
1
41
1
10
55.6719015540074
20
-4.18811945508739
30
0
41
1
10
55.6466144895585
20
-4.19150727933641
30
0
41
1
10
55.5953717807876
20
-4.19703474021787
30
0
41
1
10
55.4912124218649
20
-4.20301104978427
30
0
41
1
10
55.3597584835484
20
-4.20085547512545
30
0
41
1
10
55.2060399656464
20
-4.18295399615511
30
0
41
1
10
55.0622634763437
20
-4.15039584756471
30
0
41
1
10
54.9339822210152
20
-4.10441786644088
30
0
41
1
10
54.854049519462
20
-4.06172442446896
30
0
41
1
10
54.8161827904269
20
-4.03589096945524
30
0
41
1
10
54.8094833691387
20
-4.03110441930701
30
0
0
SPLINE
5
13C
100
AcDbEntity
8
1
62
256
6
ByLayer
370
18
48
1
60
0
100
AcDbSpline
70
4
71
3
72
8
73
4
40
0
40
0
40
0
40
0
40
1
40
1
40
1
40
1
41
1
10
54.2794082244294
20
-7.12922728972677
30
0
41
1
10
54.4075314256772
20
-6.12834181705281
30
0
41
1
10
54.5356546269252
20
-5.12745634437931
30
0
41
1
10
54.6637778281732
20
-4.12657087170592
30
0
0
SPLINE
5
13D
100
AcDbEntity
8
1
62
256
6
ByLayer
370
18
48
1
60
0
100
AcDbSpline
70
4
71
3
72
8
73
4
40
0
40
0
40
0
40
0
40
1
40
1
40
1
40
1
41
1
10
62.2579277398517
20
-8.62473695706308
30
0
41
1
10
62.4689129452913
20
-7.839549882119
30
0
41
1
10
62.679898150731
20
-7.05436280717495
30
0
41
1
10
62.8908833561708
20
-6.2691757322313
30
0
0
SPLINE
5
13E
100
AcDbEntity
8
1
62
256
6
ByLayer
370
18
48
1
60
0
100
AcDbSpline
70
4
71
1
72
4
73
2
40
0
40
0
40
1
40
1
41
1
10
61.5570062666553
20
-6.56828887658151
30
0
41
1
10
61.4513550173315
20
-7.11965176683827
30
0
0
SPLINE
5
13F
100
AcDbEntity
8
1
62
256
6
ByLayer
370
18
48
1
60
0
100
AcDbSpline
70
4
71
3
72
15
73
11
40
0
40
0
40
0
40
0
40
0.0767318922212442
40
0.153463784442489
40
0.306927568884977
40
0.460391353327465
40
0.613855137769954
40
0.767318922212442
40
0.920782706654931
40
1
40
1
40
1
40
1
41
1
10
62.2579277398524
20
-8.6247369570622
30
0
41
1
10
62.2647033883504
20
-8.63738048928661
30
0
41
1
10
62.2757583101132
20
-8.66300184367208
30
0
41
1
10
62.287710929246
20
-8.71508152313334
30
0
41
1
10
62.2833997799282
20
-8.78080849229153
30
0
41
1
10
62.2475968219875
20
-8.85766775124253
30
0
41
1
10
62.1824805248066
20
-8.92955599589382
30
0
41
1
10
62.0905245625589
20
-8.99369662355804
30
0
41
1
10
61.9938830253745
20
-9.03893084919437
30
0
41
1
10
61.9284463140339
20
-9.06149259288958
30
0
41
1
10
61.9054509205943
20
-9.06859322682934
30
0
0
SPLINE
5
140
100
AcDbEntity
8
1
62
256
6
ByLayer
370
18
48
1
60
0
100
AcDbSpline
70
4
71
3
72
8
73
4
40
0
40
0
40
0
40
0
40
1
40
1
40
1
40
1
41
1
10
61.1827664255555
20
-6.61845863141764
30
0
41
1
10
61.272295956147
20
-6.78552300989014
30
0
41
1
10
61.3618254867389
20
-6.9525873883635
30
0
41
1
10
61.4513550173315
20
-7.11965176683827
30
0
0
SPLINE
5
141
100
AcDbEntity
8
1
62
256
6
ByLayer
370
13
48
1
60
0
100
AcDbSpline
70
4
71
3
72
14
73
10
40
0
40
0
40
0
40
0
40
0.25
40
0.25
40
0.5
40
0.5
40
0.75
40
0.75
40
1
40
1
40
1
40
1
41
1
10
61.9
20
1.30890998285614
30
0
41
1
10
61.8751380410032
20
1.28352374713086
30
0
41
1
10
61.8465044295564
20
1.25946441117728
30
0
41
1
10
61.7811547074449
20
1.2141892320121
30
0
41
1
10
61.744106075693
20
1.19280821573949
30
0
41
1
10
61.6620271149462
20
1.15416758087997
30
0
41
1
10
61.6176496444599
20
1.13715033124674
30
0
41
1
10
61.5215363880276
20
1.1081927491667
30
0
41
1
10
61.4695030251839
20
1.09630954813846
30
0
41
1
10
61.4163242480537
20
1.0879133036544
30
0
0
SPLINE
5
142
100
AcDbEntity
8
1
62
256
6
ByLayer
370
13
48
1
60
0
100
AcDbSpline
70
4
71
3
72
8
73
4
40
0
40
0
40
0
40
0
40
1
40
1
40
1
40
1
41
1
10
50.61777309632
20
7.52724383532168
30
0
41
1
10
51.3269354084825
20
7.36501933388155
30
0
41
1
10
52.0785922039806
20
7.24848987729524
30
0
41
1
10
52.8619994208406
20
7.1914753463391
30
0
0
SPLINE
5
143
100
AcDbEntity
8
1
62
256
6
ByLayer
370
13
48
1
60
0
100
AcDbSpline
70
4
71
3
72
20
73
16
40
0
40
0
40
0
40
0
40
0.125000000000008
40
0.125000000000008
40
0.250000000000016
40
0.250000000000016
40
0.499999999999988
40
0.499999999999988
40
0.624999999999991
40
0.624999999999991
40
0.749999999999994
40
0.749999999999994
40
0.874999999999997
40
0.874999999999997
40
1
40
1
40
1
40
1
41
1
10
56.6248957621979
20
0.347028959177806
30
0
41
1
10
56.5910872679316
20
0.341897824145491
30
0
41
1
10
56.5562521036088
20
0.341107640913407
30
0
41
1
10
56.4883560938504
20
0.348123053567207
30
0
41
1
10
56.4543747038656
20
0.356001987193451
30
0
41
1
10
56.3571345215013
20
0.391201577806982
30
0
41
1
10
56.2977787947089
20
0.43029673070788
30
0
41
1
10
56.2232833095967
20
0.503661089004282
30
0
41
1
10
56.2004792853999
20
0.530929380541551
30
0
41
1
10
56.1603393523171
20
0.588558135116557
30
0
41
1
10
56.1428462651365
20
0.619000805778512
30
0
41
1
10
56.1126567603515
20
0.682925277700832
30
0
41
1
10
56.1000667541507
20
0.716306772052718
30
0
41
1
10
56.0802088495572
20
0.78388998674501
30
0
41
1
10
56.0728158175481
20
0.818345954618707
30
0
41
1
10
56.0679154906063
20
0.853455170977554
30
0
0
SPLINE
5
144
100
AcDbEntity
8
1
62
256
6
ByLayer
370
13
48
1
60
0
100
AcDbSpline
70
4
71
3
72
8
73
4
40
0
40
0
40
0
40
0
40
1
40
1
40
1
40
1
41
1
10
56.9776008048892
20
-13.830575835781
30
0
41
1
10
56.8886078524672
20
-13.8727244337091
30
0
41
1
10
56.8049807975473
20
-13.9233991374483
30
0
41
1
10
56.7256556938457
20
-13.9809028298792
30
0
0
SPLINE
5
145
100
AcDbEntity
8
1
62
256
6
ByLayer
370
13
48
1
60
0
100
AcDbSpline
70
4
71
3
72
13
73
9
40
0
40
0
40
0
40
0
40
0.25
40
0.25
40
0.5
40
0.75
40
0.75
40
1
40
1
40
1
40
1
41
1
10
53.8529317559644
20
-6.86515175072367
30
0
41
1
10
53.7652055878729
20
-6.86254746681198
30
0
41
1
10
53.6767193923496
20
-6.85697427632397
30
0
41
1
10
53.5032989626744
20
-6.84012001357712
30
0
41
1
10
53.3335678969285
20
-6.81768583637444
30
0
41
1
10
53.1710371070153
20
-6.78436172692994
30
0
41
1
10
53.012208026152
20
-6.74543903186597
30
0
41
1
10
52.9350589714502
20
-6.72322631191153
30
0
41
1
10
52.8619994208406
20
-6.69885817065258
30
0
0
SPLINE
5
146
100
AcDbEntity
8
1
62
256
6
ByLayer
370
13
48
1
60
0
100
AcDbSpline
70
4
71
3
72
8
73
4
40
0
40
0
40
0
40
0
40
1
40
1
40
1
40
1
41
1
10
56.6248957621978
20
0.347028959177834
30
0
41
1
10
58.2246219820674
20
0.589820347172207
30
0
41
1
10
59.822119709323
20
0.836208924819175
30
0
41
1
10
61.4163242480537
20
1.0879133036544
30
0
0
SPLINE
5
147
100
AcDbEntity
8
1
62
256
6
ByLayer
370
13
48
1
60
0
100
AcDbSpline
70
4
71
3
72
8
73
4
40
0
40
0
40
0
40
0
40
1
40
1
40
1
40
1
41
1
10
54.3533019011014
20
-4.59292121623696
30
0
41
1
10
54.3438550090793
20
-4.60494275246384
30
0
41
1
10
54.3346683030751
20
-4.61714970452661
30
0
41
1
10
54.3257418438575
20
-4.62954578039043
30
0
0
SPLINE
5
148
100
AcDbEntity
8
1
62
256
6
ByLayer
370
13
48
1
60
0
100
AcDbSpline
70
4
71
3
72
8
73
4
40
0
40
0
40
0
40
0
40
1
40
1
40
1
40
1
41
1
10
61.4829145016818
20
-9.90405665352839
30
0
41
1
10
61.6158940474348
20
-10.4308244748837
30
0
41
1
10
61.7556817429035
20
-10.9553547294779
30
0
41
1
10
61.9
20
-11.4783959695041
30
0
0
SPLINE
5
149
100
AcDbEntity
8
1
62
256
6
ByLayer
370
13
48
1
60
0
100
AcDbSpline
70
4
71
3
72
8
73
4
40
0
40
0
40
0
40
0
40
1
40
1
40
1
40
1
41
1
10
56.9776008048892
20
6.34258416913272
30
0
41
1
10
57.2049971971071
20
6.295815993486
30
0
41
1
10
57.4352078407812
20
6.25556090401741
30
0
41
1
10
57.6684439758511
20
6.2223077781253
30
0
0
SPLINE
5
14A
100
AcDbEntity
8
1
62
256
6
ByLayer
370
13
48
1
60
0
100
AcDbSpline
70
4
71
3
72
10
73
6
40
0
40
0
40
0
40
0
40
0.5
40
0.5
40
1
40
1
40
1
40
1
41
1
10
50.0630729000948
20
7.73797054789344
30
0
41
1
10
50.1625372343167
20
7.68718387170546
30
0
41
1
10
50.2586858933167
20
7.64455088429889
30
0
41
1
10
50.4445897640674
20
7.57406302192638
30
0
41
1
10
50.5347771996583
20
7.5462295706416
30
0
41
1
10
50.6177730963201
20
7.52724383532174
30
0
0
SPLINE
5
14B
100
AcDbEntity
8
1
62
256
6
ByLayer
370
13
48
1
60
0
100
AcDbSpline
70
4
71
3
72
8
73
4
40
0
40
0
40
0
40
0
40
1
40
1
40
1
40
1
41
1
10
54.4891937365178
20
6.88987968685584
30
0
41
1
10
55.2308012638176
20
6.67748595870404
30
0
41
1
10
55.9761231599347
20
6.51698412100004
30
0
41
1
10
56.7256556938248
20
6.40706647065261
30
0
0
SPLINE
5
14C
100
AcDbEntity
8
1
62
256
6
ByLayer
370
13
48
1
60
0
100
AcDbSpline
70
4
71
3
72
10
73
6
40
0
40
0
40
0
40
0
40
0.5
40
0.5
40
1
40
1
40
1
40
1
41
1
10
54.4891937365176
20
-4.29627885748169
30
0
41
1
10
54.4567617183505
20
-4.34176539510781
30
0
41
1
10
54.4287898361441
20
-4.38920358101495
30
0
41
1
10
54.382722270481
20
-4.48891618188043
30
0
41
1
10
54.3649832989062
20
-4.54075833476457
30
0
41
1
10
54.3533019011014
20
-4.59292121623696
30
0
0
SPLINE
5
14D
100
AcDbEntity
8
1
62
256
6
ByLayer
370
13
48
1
60
0
100
AcDbSpline
70
4
71
3
72
8
73
4
40
0
40
0
40
0
40
0
40
1
40
1
40
1
40
1
41
1
10
53.9713998132911
20
-14.6045439724948
30
0
41
1
10
54.0601947400393
20
-14.6040079160622
30
0
41
1
10
54.149205786902
20
-14.6034357601621
30
0
41
1
10
54.238432248772
20
-14.602839262702
30
0
0
SPLINE
5
14E
100
AcDbEntity
8
1
62
256
6
ByLayer
370
13
48
1
60
0
100
AcDbSpline
70
4
71
3
72
8
73
4
40
0
40
0
40
0
40
0
40
1
40
1
40
1
40
1
41
1
10
54.4891937365178
20
-14.5693210796946
30
0
41
1
10
54.4064389128996
20
-14.5912287476927
30
0
41
1
10
54.3228362792197
20
-14.6022750041992
30
0
41
1
10
54.238432248772
20
-14.602839262702
30
0
0
SPLINE
5
14F
100
AcDbEntity
8
1
62
256
6
ByLayer
370
13
48
1
60
0
100
AcDbSpline
70
4
71
3
72
20
73
16
40
0
40
0
40
0
40
0
40
0.124999999999999
40
0.124999999999999
40
0.249999999999999
40
0.249999999999999
40
0.499999999999998
40
0.499999999999998
40
0.624999999999998
40
0.624999999999998
40
0.749999999999999
40
0.749999999999999
40
0.874999999999999
40
0.874999999999999
40
1
40
1
40
1
40
1
41
1
10
61.4829145016818
20
3.62326015358454
30
0
41
1
10
61.4760442110862
20
3.59420419203872
30
0
41
1
10
61.4697979341632
20
3.56382447869348
30
0
41
1
10
61.4585928704101
20
3.50038687664394
30
0
41
1
10
61.4537047672778
20
3.46762608488044
30
0
41
1
10
61.4416045699033
20
3.36924526770588
30
0
41
1
10
61.4367484717661
20
3.3013638808309
30
0
41
1
10
61.4351129218892
20
3.20565482146134
30
0
41
1
10
61.4354887470884
20
3.17416031921846
30
0
41
1
10
61.4381147407368
20
3.11444324569254
30
0
41
1
10
61.4403335723062
20
3.08636303888048
30
0
41
1
10
61.4465701877697
20
3.03376338430567
30
0
41
1
10
61.4506457501163
20
3.00908369344901
30
0
41
1
10
61.4602958287942
20
2.9655497939323
30
0
41
1
10
61.4658843294506
20
2.94641822088903
30
0
41
1
10
61.4722443943009
20
2.92999888326184
30
0
0
SPLINE
5
150
100
AcDbEntity
8
1
62
256
6
ByLayer
370
13
48
1
60
0
100
AcDbSpline
70
4
71
3
72
8
73
4
40
0
40
0
40
0
40
0
40
1
40
1
40
1
40
1
41
1
10
54.1198959328206
20
-5.09569870537715
30
0
41
1
10
54.1402681204871
20
-4.97942124949077
30
0
41
1
10
54.1800191484944
20
-4.86811980673647
30
0
41
1
10
54.2384322487716
20
-4.76315197856027
30
0
0
SPLINE
5
151
100
AcDbEntity
8
1
62
256
6
ByLayer
370
13
48
1
60
0
100
AcDbSpline
70
4
71
3
72
8
73
4
40
0
40
0
40
0
40
0
40
1
40
1
40
1
40
1
41
1
10
54.3354349230661
20
-4.62412895662101
30
0
41
1
10
54.3408625207383
20
-4.61366872692781
30
0
41
1
10
54.3468186114854
20
-4.60326559894969
30
0
41
1
10
54.3533019011014
20
-4.59292121623696
30
0
0
SPLINE
5
152
100
AcDbEntity
8
1
62
256
6
ByLayer
370
13
48
1
60
0
100
AcDbSpline
70
4
71
3
72
12
73
8
40
0
40
0
40
0
40
0
40
0.249999999999999
40
0.249999999999999
40
0.499999999999999
40
0.499999999999999
40
1
40
1
40
1
40
1
41
1
10
50.0630729000949
20
-5.86622930814119
30
0
41
1
10
50.1119928430936
20
-5.86622930814121
30
0
41
1
10
50.1615931361005
20
-5.86805997105941
30
0
41
1
10
50.2585634374669
20
-5.87527149903491
30
0
41
1
10
50.3061454566497
20
-5.88062356130928
30
0
41
1
10
50.4462206067069
20
-5.90184422437306
30
0
41
1
10
50.5366722313702
20
-5.92321505171554
30
0
41
1
10
50.61777309632
20
-5.95026939861336
30
0
0
SPLINE
5
153
100
AcDbEntity
8
1
62
256
6
ByLayer
370
13
48
1
60
0
100
AcDbSpline
70
4
71
3
72
20
73
16
40
0
40
0
40
0
40
0
40
0.125
40
0.125
40
0.249999999999999
40
0.249999999999999
40
0.374999999999999
40
0.374999999999999
40
0.499999999999999
40
0.499999999999999
40
0.749999999999999
40
0.749999999999999
40
0.874999999999999
40
0.874999999999999
40
1
40
1
40
1
40
1
41
1
10
54.4891937365175
20
-4.29627885748158
30
0
41
1
10
54.5158397552826
20
-4.25890729679409
30
0
41
1
10
54.5454971377702
20
-4.22382516568445
30
0
41
1
10
54.6110282934403
20
-4.15839794125822
30
0
41
1
10
54.6469175220402
20
-4.12818737491273
30
0
41
1
10
54.722085733255
20
-4.07520309495362
30
0
41
1
10
54.7617037633906
20
-4.05205888875679
30
0
41
1
10
54.8452016083069
20
-4.01277163972088
30
0
41
1
10
54.8885168675401
20
-3.99697533114511
30
0
41
1
10
55.0196875609606
20
-3.96215510839809
30
0
41
1
10
55.111527910864
20
-3.95534013460502
30
0
41
1
10
55.2429655584777
20
-3.97064479216237
30
0
41
1
10
55.2865277791254
20
-3.98002752243525
30
0
41
1
10
55.3700485547848
20
-4.00675549794968
30
0
41
1
10
55.4098056132112
20
-4.02392948216092
30
0
41
1
10
55.4476041898306
20
-4.04479176265235
30
0
0
SPLINE
5
154
100
AcDbEntity
8
1
62
256
6
ByLayer
370
13
48
1
60
0
100
AcDbSpline
70
4
71
3
72
8
73
4
40
0
40
0
40
0
40
0
40
1
40
1
40
1
40
1
41
1
10
54.3038705580563
20
-4.65998136758904
30
0
41
1
10
54.2798410585619
20
-4.69348857025554
30
0
41
1
10
54.2580719518182
20
-4.72785960467431
30
0
41
1
10
54.2384322487717
20
-4.7631519785603
30
0
0
SPLINE
5
155
100
AcDbEntity
8
1
62
256
6
ByLayer
370
13
48
1
60
0
100
AcDbSpline
70
4
71
3
72
10
73
6
40
0
40
0
40
0
40
0
40
0.5
40
0.5
40
1
40
1
40
1
40
1
41
1
10
54.5257388220439
20
-5.05332853682214
30
0
41
1
10
54.4851869730258
20
-5.04030108064882
30
0
41
1
10
54.4497700023821
20
-5.023501486703
30
0
41
1
10
54.3896051726921
20
-4.98301624887318
30
0
41
1
10
54.3645132149748
20
-4.95927668836174
30
0
41
1
10
54.3439812536328
20
-4.93090195050823
30
0
0
SPLINE
5
156
100
AcDbEntity
8
1
62
256
6
ByLayer
370
13
48
1
60
0
100
AcDbSpline
70
4
71
3
72
22
73
18
40
0
40
0
40
0
40
0
40
0.125
40
0.125
40
0.250000000000001
40
0.250000000000001
40
0.375000000000001
40
0.375000000000001
40
0.500000000000001
40
0.500000000000001
40
0.625000000000002
40
0.625000000000002
40
0.750000000000001
40
0.750000000000001
40
0.875000000000001
40
0.875000000000001
40
1
40
1
40
1
40
1
41
1
10
61.4829145016818
20
-9.90405665352839
30
0
41
1
10
61.4760087515857
20
-9.87670111616117
30
0
41
1
10
61.4696851671353
20
-9.85091241862071
30
0
41
1
10
61.4585860517231
20
-9.80397030211009
30
0
41
1
10
61.4537345181225
20
-9.78251101682514
30
0
41
1
10
61.4455732051658
20
-9.74406786553621
30
0
41
1
10
61.4423712309012
20
-9.72759716407799
30
0
41
1
10
61.4376846849243
20
-9.69997532801
30
0
41
1
10
61.4361977337961
20
-9.68874792988615
30
0
41
1
10
61.4351100292824
20
-9.67247520275851
30
0
41
1
10
61.4354889076738
20
-9.66739715481208
30
0
41
1
10
61.43808861565
20
-9.66335853781834
30
0
41
1
10
61.4403524162617
20
-9.66448587694478
30
0
41
1
10
61.4465946061911
20
-9.67302177739518
30
0
41
1
10
61.4505683708053
20
-9.68035854053815
30
0
41
1
10
61.4602474817816
20
-9.70135292573519
30
0
41
1
10
61.4659396929384
20
-9.71501611051031
30
0
41
1
10
61.4722443943009
20
-9.7312925200666
30
0
0
SPLINE
5
157
100
AcDbEntity
8
1
62
256
6
ByLayer
370
13
48
1
60
0
100
AcDbSpline
70
4
71
3
72
8
73
4
40
0
40
0
40
0
40
0
40
1
40
1
40
1
40
1
41
1
10
61.0381243838937
20
-6.75816829242956
30
0
41
1
10
61.3192686052481
20
-7.29542209490219
30
0
41
1
10
61.6081941061581
20
-7.83166766388066
30
0
41
1
10
61.9
20
-8.36754001549693
30
0
0
SPLINE
5
158
100
AcDbEntity
8
1
62
256
6
ByLayer
370
13
48
1
60
0
100
AcDbSpline
70
4
71
3
72
8
73
4
40
0
40
0
40
0
40
0
40
1
40
1
40
1
40
1
41
1
10
54.4891937365178
20
-14.5693210796946
30
0
41
1
10
55.2308012638247
20
-14.3729954664831
30
0
41
1
10
55.9761231599485
20
-14.1759743915198
30
0
41
1
10
56.7256556938458
20
-13.9809028298795
30
0
0
SPLINE
5
159
100
AcDbEntity
8
1
62
256
6
ByLayer
370
13
48
1
60
0
100
AcDbSpline
70
4
71
3
72
8
73
4
40
0
40
0
40
0
40
0
40
1
40
1
40
1
40
1
41
1
10
61.4829145016818
20
3.62326015358451
30
0
41
1
10
61.6158955062434
20
4.18566590645503
30
0
41
1
10
61.7556831273665
20
4.74765138010636
30
0
41
1
10
61.9
20
5.30935719200932
30
0
0
SPLINE
5
15A
100
AcDbEntity
8
1
62
256
6
ByLayer
370
13
48
1
60
0
100
AcDbSpline
70
4
71
3
72
8
73
4
40
0
40
0
40
0
40
0
40
1
40
1
40
1
40
1
41
1
10
61.4829145016818
20
6.2807964999445
30
0
41
1
10
61.6158878611912
20
6.24516639564911
30
0
41
1
10
61.7556758712985
20
6.20771031122931
30
0
41
1
10
61.9
20
6.16903877749542
30
0
0
SPLINE
5
15B
100
AcDbEntity
8
1
62
256
6
ByLayer
370
13
48
1
60
0
100
AcDbSpline
70
4
71
3
72
30
73
26
40
0
40
0
40
0
40
0
40
0.0624999999999926
40
0.0624999999999926
40
0.124999999999985
40
0.124999999999985
40
0.249999999999981
40
0.249999999999981
40
0.312499999999983
40
0.312499999999983
40
0.374999999999984
40
0.374999999999984
40
0.499999999999988
40
0.499999999999988
40
0.562499999999989
40
0.562499999999989
40
0.624999999999989
40
0.624999999999989
40
0.749999999999993
40
0.749999999999993
40
0.812499999999995
40
0.812499999999995
40
0.874999999999997
40
0.874999999999997
40
1
40
1
40
1
40
1
41
1
10
56.7256556938256
20
6.40706647064647
30
0
41
1
10
56.6610198285886
20
6.39582051529879
30
0
41
1
10
56.5974392754791
20
6.38043750182703
30
0
41
1
10
56.4754749405804
20
6.342205384567
30
0
41
1
10
56.4166208431829
20
6.31928364900332
30
0
41
1
10
56.246319635452
20
6.23910816547675
30
0
41
1
10
56.1404424496708
20
6.16946737093355
30
0
41
1
10
56.0018079515278
20
6.0478612814718
30
0
41
1
10
55.9585818338502
20
6.00433285336837
30
0
41
1
10
55.8778091967325
20
5.91145099230209
30
0
41
1
10
55.8401256325602
20
5.86183678537148
30
0
41
1
10
55.7373925572837
20
5.70756485708733
30
0
41
1
10
55.6818193029296
20
5.59689453453782
30
0
41
1
10
55.6149002730478
20
5.42041384498327
30
0
41
1
10
55.5954105430319
20
5.35986773701208
30
0
41
1
10
55.562175311306
20
5.2376953531263
30
0
41
1
10
55.5483156916027
20
5.17578469267613
30
0
41
1
10
55.5141809392684
20
4.98775367826957
30
0
41
1
10
55.5012997190823
20
4.85934598308029
30
0
41
1
10
55.4947398025604
20
4.66256002474881
30
0
41
1
10
55.4947109650624
20
4.59609628587398
30
0
41
1
10
55.4986370359807
20
4.4636174948204
30
0
41
1
10
55.5025752639815
20
4.39740821610806
30
0
41
1
10
55.5197927536801
20
4.19884041828149
30
0
41
1
10
55.5384416244879
20
4.0665397262369
30
0
41
1
10
55.5633872425161
20
3.93427049172109
30
0
0
SPLINE
5
15C
100
AcDbEntity
8
1
62
256
6
ByLayer
370
13
48
1
60
0
100
AcDbSpline
70
4
71
3
72
8
73
4
40
0
40
0
40
0
40
0
40
1
40
1
40
1
40
1
41
1
10
53.971399813291
20
-6.02254030979768
30
0
41
1
10
54.016685141208
20
-5.71739122408661
30
0
41
1
10
54.0651304372016
20
-5.40828135998228
30
0
41
1
10
54.1198959328206
20
-5.09569870537709
30
0
0
SPLINE
5
15D
100
AcDbEntity
8
1
62
256
6
ByLayer
370
13
48
1
60
0
100
AcDbSpline
70
4
71
3
72
29
73
25
40
0
40
0
40
0
40
0
40
0.0624999999999973
40
0.0624999999999973
40
0.124999999999995
40
0.124999999999995
40
0.249999999999989
40
0.249999999999989
40
0.374999999999984
40
0.374999999999984
40
0.437499999999985
40
0.437499999999985
40
0.499999999999987
40
0.562499999999988
40
0.562499999999988
40
0.624999999999989
40
0.624999999999989
40
0.749999999999992
40
0.749999999999992
40
0.812499999999994
40
0.812499999999994
40
0.874999999999995
40
0.874999999999995
40
1
40
1
40
1
40
1
41
1
10
46.3272385175722
20
12.5984840200675
30
0
41
1
10
46.2455296023917
20
12.5984840200675
30
0
41
1
10
46.1631421405569
20
12.5986650379233
30
0
41
1
10
45.9993038017665
20
12.5993656408321
30
0
41
1
10
45.9185936952015
20
12.599880124993
30
0
41
1
10
45.6800034872188
20
12.6017771850107
30
0
41
1
10
45.5251987064462
20
12.6035450919451
30
0
41
1
10
45.2273716020646
20
12.6067784990211
30
0
41
1
10
45.089502136073
20
12.6081744920915
30
0
41
1
10
44.8994538099378
20
12.6084787838356
30
0
41
1
10
44.8388042876927
20
12.6082762206181
30
0
41
1
10
44.7240850268559
20
12.6069411236211
30
0
41
1
10
44.6180553344493
20
12.6046988133419
30
0
41
1
10
44.529126844463
20
12.6001331335654
30
0
41
1
10
44.4490004084831
20
12.5941158706536
30
0
41
1
10
44.413127975492
20
12.5903482250945
30
0
41
1
10
44.3212823740552
20
12.5765942391644
30
0
41
1
10
44.2814393473592
20
12.564344721814
30
0
41
1
10
44.2536346747263
20
12.5404971066361
30
0
41
1
10
44.2498473752869
20
12.5315890496126
30
0
41
1
10
44.2533010442096
20
12.5124304453093
30
0
41
1
10
44.2604313419914
20
12.5021261040414
30
0
41
1
10
44.2975650438462
20
12.4691303581377
30
0
41
1
10
44.3438400354659
20
12.4441563483565
30
0
41
1
10
44.4090858143286
20
12.4178004344642
30
0
0
SPLINE
5
15E
100
AcDbEntity
8
1
62
256
6
ByLayer
370
13
48
1
60
0
100
AcDbSpline
70
4
71
3
72
8
73
4
40
0
40
0
40
0
40
0
40
1
40
1
40
1
40
1
41
1
10
54.3257418438577
20
-4.62954578039032
30
0
41
1
10
54.3184280152003
20
-4.63970241390894
30
0
41
1
10
54.3111379049466
20
-4.64984763737283
30
0
41
1
10
54.3038705580563
20
-4.65998136758904
30
0
0
SPLINE
5
15F
100
AcDbEntity
8
1
62
256
6
ByLayer
370
13
48
1
60
0
100
AcDbSpline
70
4
71
3
72
12
73
8
40
0
40
0
40
0
40
0
40
0.499999999999999
40
0.499999999999999
40
0.75
40
0.75
40
1
40
1
40
1
40
1
41
1
10
53.8529317559644
20
14.5963289052324
30
0
41
1
10
53.6754875273991
20
14.5857935049128
30
0
41
1
10
53.5027787351072
20
14.5520981917729
30
0
41
1
10
53.2523027925307
20
14.468093929795
30
0
41
1
10
53.1695955044909
20
14.4341124232708
30
0
41
1
10
53.0110685126624
20
14.3562736930675
30
0
41
1
10
52.9349784326865
20
14.3124243021211
30
0
41
1
10
52.8619994208406
20
14.2637417450902
30
0
0
SPLINE
5
160
100
AcDbEntity
8
1
62
256
6
ByLayer
370
13
48
1
60
0
100
AcDbSpline
70
4
71
3
72
8
73
4
40
0
40
0
40
0
40
0
40
1
40
1
40
1
40
1
41
1
10
54.3533019011014
20
14.3001202814288
30
0
41
1
10
54.3438333494572
20
14.3036860109684
30
0
41
1
10
54.3346365951776
20
14.3071206645196
30
0
41
1
10
54.3257418438576
20
14.3104332135085
30
0
0
SPLINE
5
161
100
AcDbEntity
8
1
62
256
6
ByLayer
370
13
48
1
60
0
100
AcDbSpline
70
4
71
3
72
8
73
4
40
0
40
0
40
0
40
0
40
1
40
1
40
1
40
1
41
1
10
61.9
20
1.89883385880017
30
0
41
1
10
61.749469123275
20
2.24195927741289
30
0
41
1
10
61.6056524621605
20
2.58558854155496
30
0
41
1
10
61.4722443943009
20
2.92999888326184
30
0
0
SPLINE
5
162
100
AcDbEntity
8
1
62
256
6
ByLayer
370
13
48
1
60
0
100
AcDbSpline
70
4
71
3
72
8
73
4
40
0
40
0
40
0
40
0
40
1
40
1
40
1
40
1
41
1
10
53.9713998132909
20
-6.02254030979768
30
0
41
1
10
53.9290892954778
20
-6.30764403810224
30
0
41
1
10
53.8899016863712
20
-6.58851421980174
30
0
41
1
10
53.8529317559641
20
-6.86515175072404
30
0
0
SPLINE
5
163
100
AcDbEntity
8
1
62
256
6
ByLayer
370
13
48
1
60
0
100
AcDbSpline
70
4
71
3
72
8
73
4
40
0
40
0
40
0
40
0
40
1
40
1
40
1
40
1
41
1
10
53.971399813291
20
14.5373628015957
30
0
41
1
10
53.9290634016251
20
14.5682055955437
30
0
41
1
10
53.8898794640664
20
14.5877564639115
30
0
41
1
10
53.8529317559644
20
14.5963289052324
30
0
0
SPLINE
5
164
100
AcDbEntity
8
1
62
256
6
ByLayer
370
13
48
1
60
0
100
AcDbSpline
70
4
71
3
72
8
73
4
40
0
40
0
40
0
40
0
40
1
40
1
40
1
40
1
41
1
10
54.4891937365182
20
6.88987968685544
30
0
41
1
10
54.4064389128997
20
6.91358037065902
30
0
41
1
10
54.3228362792198
20
6.93433691188608
30
0
41
1
10
54.2384322487719
20
6.95232130945848
30
0
0
SPLINE
5
165
100
AcDbEntity
8
1
62
256
6
ByLayer
370
13
48
1
60
0
100
AcDbSpline
70
4
71
3
72
8
73
4
40
0
40
0
40
0
40
0
40
1
40
1
40
1
40
1
41
1
10
57.6684439758511
20
-13.5251885750177
30
0
41
1
10
57.4355797406059
20
-13.6207844618952
30
0
41
1
10
57.2053522644675
20
-13.7227088144493
30
0
41
1
10
56.9776008049159
20
-13.8305758357683
30
0
0
SPLINE
5
166
100
AcDbEntity
8
1
62
256
6
ByLayer
370
13
48
1
60
0
100
AcDbSpline
70
4
71
3
72
24
73
20
40
0
40
0
40
0
40
0
40
0.25
40
0.25
40
0.312500000000001
40
0.312500000000001
40
0.375000000000001
40
0.375000000000001
40
0.500000000000001
40
0.500000000000001
40
0.625000000000002
40
0.625000000000002
40
0.750000000000002
40
0.750000000000002
40
0.875000000000003
40
0.875000000000003
40
0.937500000000001
40
0.937500000000001
40
1
40
1
40
1
40
1
41
1
10
44.4090858143288
20
12.4178004344642
30
0
41
1
10
44.5619882081483
20
12.256780582113
30
0
41
1
10
44.7687824652432
20
12.0000320734066
30
0
41
1
10
45.134784475242
20
11.5786527827209
30
0
41
1
10
45.2134253706362
20
11.4893284959679
30
0
41
1
10
45.3828928145575
20
11.3009955354578
30
0
41
1
10
45.4726965536165
20
11.2031334374289
30
0
41
1
10
45.7581037580173
20
10.9000384587302
30
0
41
1
10
45.9697025608181
20
10.6853005952013
30
0
41
1
10
46.4400215241134
20
10.2381768700941
30
0
41
1
10
46.6987306983892
20
10.0057705139825
30
0
41
1
10
47.2681773600705
20
9.53074407833429
30
0
41
1
10
47.572574980487
20
9.2934989102958
30
0
41
1
10
48.2194583226076
20
8.82739291124378
30
0
41
1
10
48.5620860129064
20
8.59838542522979
30
0
41
1
10
49.1049173786172
20
8.26563753627843
30
0
41
1
10
49.2909786598491
20
8.15634600890428
30
0
41
1
10
49.6713787634166
20
7.94289685881643
30
0
41
1
10
49.8653593722226
20
7.83892344720741
30
0
41
1
10
50.0630729000948
20
7.73797054789344
30
0
0
SPLINE
5
167
100
AcDbEntity
8
1
62
256
6
ByLayer
370
13
48
1
60
0
100
AcDbSpline
70
4
71
3
72
10
73
6
40
0
40
0
40
0
40
0
40
0.5
40
0.5
40
1
40
1
40
1
40
1
41
1
10
54.1198959328203
20
14.4044697213098
30
0
41
1
10
54.13004879996
20
14.3941740526206
30
0
41
1
10
54.1450682329721
20
14.3837405312046
30
0
41
1
10
54.1845606396852
20
14.362690642132
30
0
41
1
10
54.2091746724082
20
14.3520235025686
30
0
41
1
10
54.2384322487717
20
14.3414398246023
30
0
0
SPLINE
5
168
100
AcDbEntity
8
1
62
256
6
ByLayer
370
13
48
1
60
0
100
AcDbSpline
70
4
71
3
72
12
73
8
40
0
40
0
40
0
40
0
40
0.249999999999999
40
0.249999999999999
40
0.499999999999999
40
0.499999999999999
40
1
40
1
40
1
40
1
41
1
10
50.0630729000964
20
12.5984840200675
30
0
41
1
10
50.1118279157589
20
12.5984840200676
30
0
41
1
10
50.1610929972227
20
12.6020858538192
30
0
41
1
10
50.2584736077588
20
12.616540233859
30
0
41
1
10
50.3063835512165
20
12.6273086232436
30
0
41
1
10
50.4477682731184
20
12.670255645624
30
0
41
1
10
50.5364032179428
20
12.712276027439
30
0
41
1
10
50.61777309632
20
12.7665642010118
30
0
0
SPLINE
5
169
100
AcDbEntity
8
1
62
256
6
ByLayer
370
13
48
1
60
0
100
AcDbSpline
70
4
71
3
72
8
73
4
40
0
40
0
40
0
40
0
40
1
40
1
40
1
40
1
41
1
10
61.9
20
-10.7624575445283
30
0
41
1
10
61.7495469026316
20
-10.4195094189392
30
0
41
1
10
61.6057321663197
20
-10.0759086284649
30
0
41
1
10
61.4722443943009
20
-9.73129252006663
30
0
0
SPLINE
5
16A
100
AcDbEntity
8
1
62
256
6
ByLayer
370
13
48
1
60
0
100
AcDbSpline
70
4
71
3
72
8
73
4
40
0
40
0
40
0
40
0
40
1
40
1
40
1
40
1
41
1
10
61.4163242480537
20
-3.30648134652836
30
0
41
1
10
59.4559618761819
20
-3.56935236760648
30
0
41
1
10
57.4950454225842
20
-3.83118615934319
30
0
41
1
10
55.5337429767969
20
-4.09229738181639
30
0
0
SPLINE
5
16B
100
AcDbEntity
8
1
62
256
6
ByLayer
370
13
48
1
60
0
100
AcDbSpline
70
4
71
3
72
12
73
8
40
0
40
0
40
0
40
0
40
0.499999999999997
40
0.499999999999997
40
0.749999999999999
40
0.749999999999999
40
1
40
1
40
1
40
1
41
1
10
54.3439812536328
20
-4.93090195050823
30
0
41
1
10
54.3135405491376
20
-4.88883353844852
30
0
41
1
10
54.2971916618806
20
-4.84293268453294
30
0
41
1
10
54.2921855064048
20
-4.7712652690787
30
0
41
1
10
54.2938682083136
20
-4.74662268333188
30
0
41
1
10
54.3036217521795
20
-4.69804941306208
30
0
41
1
10
54.3116276512817
20
-4.67400060356948
30
0
41
1
10
54.3225942456262
20
-4.65026407874495
30
0
0
SPLINE
5
16C
100
AcDbEntity
8
1
62
256
6
ByLayer
370
13
48
1
60
0
100
AcDbSpline
70
4
71
3
72
8
73
4
40
0
40
0
40
0
40
0
40
1
40
1
40
1
40
1
41
1
10
50.61777309632
20
12.7665642010118
30
0
41
1
10
51.3658300097998
20
13.2656511404452
30
0
41
1
10
52.1139073953017
20
13.7647074093759
30
0
41
1
10
52.8619994208406
20
14.2637417450903
30
0
0
SPLINE
5
16D
100
AcDbEntity
8
1
62
256
6
ByLayer
370
13
48
1
60
0
100
AcDbSpline
70
4
71
3
72
8
73
4
40
0
40
0
40
0
40
0
40
1
40
1
40
1
40
1
41
1
10
53.971399813291
20
7.0115366182857
30
0
41
1
10
54.0601947400392
20
6.99107275064358
30
0
41
1
10
54.149205786902
20
6.97133324710805
30
0
41
1
10
54.2384322487719
20
6.95232130945851
30
0
0
SPLINE
5
16E
100
AcDbEntity
8
1
62
256
6
ByLayer
370
13
48
1
60
0
100
AcDbSpline
70
4
71
3
72
8
73
4
40
0
40
0
40
0
40
0
40
1
40
1
40
1
40
1
41
1
10
56.7256556938268
20
6.40706647065531
30
0
41
1
10
56.8050164140589
20
6.38262170849708
30
0
41
1
10
56.888650808642
20
6.36087834261406
30
0
41
1
10
56.9776008048892
20
6.34258416913272
30
0
0
SPLINE
5
16F
100
AcDbEntity
8
1
62
256
6
ByLayer
370
13
48
1
60
0
100
AcDbSpline
70
4
71
3
72
32
73
28
40
0
40
0
40
0
40
0
40
0.124999999999997
40
0.124999999999997
40
0.187499999999995
40
0.187499999999995
40
0.249999999999993
40
0.249999999999993
40
0.312499999999991
40
0.312499999999991
40
0.37499999999999
40
0.37499999999999
40
0.499999999999986
40
0.499999999999986
40
0.562499999999987
40
0.562499999999987
40
0.624999999999989
40
0.624999999999989
40
0.687499999999991
40
0.687499999999991
40
0.749999999999992
40
0.749999999999992
40
0.812499999999994
40
0.812499999999994
40
0.874999999999995
40
0.874999999999995
40
1
40
1
40
1
40
1
41
1
10
46.3272385175722
20
-5.86622930814121
30
0
41
1
10
46.1636787644708
20
-5.86622930814121
30
0
41
1
10
46.0014906702302
20
-5.88190705163765
30
0
41
1
10
45.7603390721058
20
-5.92961189428331
30
0
41
1
10
45.6806849464291
20
-5.94956700660316
30
0
41
1
10
45.526096164862
20
-5.99663425170701
30
0
41
1
10
45.45068183851
20
-6.02383319890345
30
0
41
1
10
45.3036424761759
20
-6.08552944552537
30
0
41
1
10
45.232016590203
20
-6.12002541943718
30
0
41
1
10
45.0927531084564
20
-6.19658812335734
30
0
41
1
10
45.0252731575375
20
-6.23865678046997
30
0
41
1
10
44.834736681984
20
-6.3727536666153
30
0
41
1
10
44.7213885987925
20
-6.47358475663606
30
0
41
1
10
44.573471719904
20
-6.64244866283855
30
0
41
1
10
44.5281883022025
20
-6.70150114974103
30
0
41
1
10
44.4480800375718
20
-6.82186414624917
30
0
41
1
10
44.412871039948
20
-6.88359299270974
30
0
41
1
10
44.3522459258663
20
-7.01005684936604
30
0
41
1
10
44.3268134216127
20
-7.07483732175149
30
0
41
1
10
44.2863619374641
20
-7.20729259557331
30
0
41
1
10
44.2718036778216
20
-7.27343616248368
30
0
41
1
10
44.2535424142446
20
-7.40549569700408
30
0
41
1
10
44.2498411598298
20
-7.47141185269993
30
0
41
1
10
44.2533149186299
20
-7.60298868042986
30
0
41
1
10
44.2606209843673
20
-7.66903638510172
30
0
41
1
10
44.2982448528823
20
-7.86150740354222
30
0
41
1
10
44.3438266296993
20
-7.98371307899433
30
0
41
1
10
44.4090858143288
20
-8.10033458836051
30
0
0
SPLINE
5
170
100
AcDbEntity
8
1
62
256
6
ByLayer
370
13
48
1
60
0
100
AcDbSpline
70
4
71
3
72
8
73
4
40
0
40
0
40
0
40
0
40
1
40
1
40
1
40
1
41
1
10
61.0381243838937
20
-8.45351629602465
30
0
41
1
10
61.3238834711662
20
-9.46477044652599
30
0
41
1
10
61.6115805252114
20
-10.4755198698096
30
0
41
1
10
61.9
20
-11.4860811446599
30
0
0
SPLINE
5
171
100
AcDbEntity
8
1
62
256
6
ByLayer
370
13
48
1
60
0
100
AcDbSpline
70
4
71
3
72
12
73
8
40
0
40
0
40
0
40
0
40
0.249999999999987
40
0.249999999999987
40
0.499999999999974
40
0.499999999999974
40
1
40
1
40
1
40
1
41
1
10
61.4163242480537
20
-3.30648134652836
30
0
41
1
10
61.4667720574335
20
-3.29971664457676
30
0
41
1
10
61.5154041263858
20
-3.29049749526592
30
0
41
1
10
61.6090661339631
20
-3.26718997682912
30
0
41
1
10
61.6539006627895
20
-3.25307171558083
30
0
41
1
10
61.7772733844707
20
-3.20524394277561
30
0
41
1
10
61.8475311869881
20
-3.16486792496491
30
0
41
1
10
61.9
20
-3.11992646209839
30
0
0
SPLINE
5
172
100
AcDbEntity
8
1
62
256
6
ByLayer
370
13
48
1
60
0
100
AcDbSpline
70
4
71
3
72
12
73
8
40
0
40
0
40
0
40
0
40
0.499999999999986
40
0.499999999999986
40
0.749999999999993
40
0.749999999999993
40
1
40
1
40
1
40
1
41
1
10
53.971399813291
20
7.0115366182857
30
0
41
1
10
53.7695213053369
20
7.05806196852649
30
0
41
1
10
53.5752428770223
20
7.09649499086694
30
0
41
1
10
53.2941610769368
20
7.14239691536923
30
0
41
1
10
53.2022972256794
20
7.15564648556298
30
0
41
1
10
53.0269138422768
20
7.17718989649521
30
0
41
1
10
52.9427286781809
20
7.18560006124773
30
0
41
1
10
52.8619994208406
20
7.1914753463391
30
0
0
SPLINE
5
173
100
AcDbEntity
8
1
62
256
6
ByLayer
370
13
48
1
60
0
100
AcDbSpline
70
4
71
3
72
10
73
6
40
0
40
0
40
0
40
0
40
0.5
40
0.5
40
1
40
1
40
1
40
1
41
1
10
50.0630729000948
20
-12.489989191871
30
0
41
1
10
50.1625372343167
20
-12.4987843724498
30
0
41
1
10
50.2586858933169
20
-12.5215592750988
30
0
41
1
10
50.4445897640676
20
-12.5930130107929
30
0
41
1
10
50.5347771996583
20
-12.642283493567
30
0
41
1
10
50.6177730963202
20
-12.704081710458
30
0
0
SPLINE
5
174
100
AcDbEntity
8
1
62
256
6
ByLayer
370
13
48
1
60
0
100
AcDbSpline
70
4
71
3
72
8
73
4
40
0
40
0
40
0
40
0
40
1
40
1
40
1
40
1
41
1
10
54.3225942456262
20
-4.65026407874495
30
0
41
1
10
54.3265309569456
20
-4.64174330711589
30
0
41
1
10
54.3308114453011
20
-4.63303946221185
30
0
41
1
10
54.3354349230661
20
-4.62412895662101
30
0
0
SPLINE
5
175
100
AcDbEntity
8
1
62
256
6
ByLayer
370
13
48
1
60
0
100
AcDbSpline
70
4
71
3
72
12
73
8
40
0
40
0
40
0
40
0
40
0.5
40
0.5
40
0.75
40
0.75
40
1
40
1
40
1
40
1
41
1
10
53.971399813291
20
-14.6045439724947
30
0
41
1
10
53.7695213053369
20
-14.6057627163663
30
0
41
1
10
53.5752428770221
20
-14.5770087784954
30
0
41
1
10
53.2941610769367
20
-14.4923402904441
30
0
41
1
10
53.2022972256794
20
-14.4569589494359
30
0
41
1
10
53.0269138422768
20
-14.3740491370306
30
0
41
1
10
52.9427286781809
20
-14.3263495556184
30
0
41
1
10
52.8619994208406
20
-14.2723597131788
30
0
0
SPLINE
5
176
100
AcDbEntity
8
1
62
256
6
ByLayer
370
13
48
1
60
0
100
AcDbSpline
70
4
71
3
72
8
73
4
40
0
40
0
40
0
40
0
40
1
40
1
40
1
40
1
41
1
10
50.61777309632
20
-5.95026939861336
30
0
41
1
10
51.3658300161673
20
-6.19981287045417
30
0
41
1
10
52.1139074018752
20
-6.44934100498796
30
0
41
1
10
52.8619994208406
20
-6.69885817065258
30
0
0
SPLINE
5
177
100
AcDbEntity
8
1
62
256
6
ByLayer
370
13
48
1
60
0
100
AcDbSpline
70
4
71
3
72
8
73
4
40
0
40
0
40
0
40
0
40
1
40
1
40
1
40
1
41
1
10
54.3038705580563
20
14.3183401164038
30
0
41
1
10
54.2800326175155
20
14.3266980932204
30
0
41
1
10
54.2582252965946
20
14.3342798588714
30
0
41
1
10
54.2384322487718
20
14.3414398246023
30
0
0
SPLINE
5
178
100
AcDbEntity
8
1
62
256
6
ByLayer
370
13
48
1
60
0
100
AcDbSpline
70
4
71
3
72
8
73
4
40
0
40
0
40
0
40
0
40
1
40
1
40
1
40
1
41
1
10
53.971399813291
20
14.5373628015957
30
0
41
1
10
54.016685141208
20
14.5043716721434
30
0
41
1
10
54.0651304372018
20
14.4600055015715
30
0
41
1
10
54.1198959328208
20
14.4044697213098
30
0
0
SPLINE
5
179
100
AcDbEntity
8
1
62
256
6
ByLayer
370
13
48
1
60
0
100
AcDbSpline
70
4
71
3
72
8
73
4
40
0
40
0
40
0
40
0
40
1
40
1
40
1
40
1
41
1
10
50.6177730963203
20
-12.7040817104581
30
0
41
1
10
51.3269354084826
20
-13.232119458594
30
0
41
1
10
52.0785922039807
20
-13.7484352575624
30
0
41
1
10
52.8619994208406
20
-14.2723597131788
30
0
0
SPLINE
5
17A
100
AcDbEntity
8
1
62
256
6
ByLayer
370
13
48
1
60
0
100
AcDbSpline
70
4
71
3
72
24
73
20
40
0
40
0
40
0
40
0
40
0.250000000000001
40
0.250000000000001
40
0.312500000000001
40
0.312500000000001
40
0.375000000000001
40
0.375000000000001
40
0.500000000000001
40
0.500000000000001
40
0.625000000000002
40
0.625000000000002
40
0.750000000000002
40
0.750000000000002
40
0.875000000000002
40
0.875000000000002
40
0.937500000000001
40
0.937500000000001
40
1
40
1
40
1
40
1
41
1
10
44.4090858143288
20
-8.10033458836051
30
0
41
1
10
44.5619882081481
20
-8.81268024166152
30
0
41
1
10
44.7687824652431
20
-9.43784929746036
30
0
41
1
10
45.1347844752419
20
-10.1156240091345
30
0
41
1
10
45.2134253706362
20
-10.2459586725415
30
0
41
1
10
45.3828928145574
20
-10.4961946622344
30
0
41
1
10
45.4726965536165
20
-10.6145774139364
30
0
41
1
10
45.7581037580172
20
-10.9506576888575
30
0
41
1
10
45.969702560818
20
-11.149322319508
30
0
41
1
10
46.4400215241134
20
-11.5014059890286
30
0
41
1
10
46.6987306983891
20
-11.6548097939185
30
0
41
1
10
47.2681773600705
20
-11.9213744646703
30
0
41
1
10
47.572574980487
20
-12.0316150683976
30
0
41
1
10
48.2194583226076
20
-12.2156790507961
30
0
41
1
10
48.5620860129064
20
-12.28954588272
30
0
41
1
10
49.1049173786172
20
-12.3793206809043
30
0
41
1
10
49.2909786598491
20
-12.4057647805718
30
0
41
1
10
49.6713787634166
20
-12.4523718502436
30
0
41
1
10
49.8653593722236
20
-12.4725062800906
30
0
41
1
10
50.0630729000958
20
-12.4899891918711
30
0
0
SPLINE
5
17B
100
AcDbEntity
8
1
62
256
6
ByLayer
370
13
48
1
60
0
100
AcDbSpline
70
4
71
3
72
8
73
4
40
0
40
0
40
0
40
0
40
1
40
1
40
1
40
1
41
1
10
61
20
-8.17813497960046
30
0
41
1
10
61
20
-8.27061874198341
30
0
41
1
10
61.0126134642323
20
-8.3632373703928
30
0
41
1
10
61.0381243838916
20
-8.45351629602516
30
0
0
SPLINE
5
17C
100
AcDbEntity
8
1
62
256
6
ByLayer
370
13
48
1
60
0
100
AcDbSpline
70
4
71
3
72
8
73
4
40
0
40
0
40
0
40
0
40
1
40
1
40
1
40
1
41
1
10
61.7547989964613
20
5.63971824686757
30
0
41
1
10
61.8031751487114
20
5.75046562816294
30
0
41
1
10
61.8515773994994
20
5.86120853221118
30
0
41
1
10
61.9
20
5.97194794523273
30
0
0
SPLINE
5
17D
100
AcDbEntity
8
1
62
256
6
ByLayer
370
13
48
1
60
0
100
AcDbSpline
70
4
71
3
72
26
73
22
40
0
40
0
40
0
40
0
40
0.0434544330138739
40
0.0434544330138739
40
0.143924482078427
40
0.143924482078427
40
0.24439453114298
40
0.24439453114298
40
0.344864580207534
40
0.344864580207534
40
0.445334629272087
40
0.445334629272087
40
0.545804678336641
40
0.545804678336641
40
0.646274727401194
40
0.646274727401194
40
0.847214825530314
40
0.847214825530314
40
0.947684874594869
40
0.947684874594869
40
1
40
1
40
1
40
1
41
1
10
48.3797214178013
20
-5.87659725044435
30
0
41
1
10
48.3587580275337
20
-5.8971853488637
30
0
41
1
10
48.3373559841697
20
-5.91700431198561
30
0
41
1
10
48.2651043705006
20
-5.98010700385723
30
0
41
1
10
48.2130141157719
20
-6.01945139244248
30
0
41
1
10
48.1073823634747
20
-6.08819727022612
30
0
41
1
10
48.0536026849278
20
-6.11780435841442
30
0
41
1
10
47.9442542636801
20
-6.16759516981725
30
0
41
1
10
47.8888056787494
20
-6.18763093566736
30
0
41
1
10
47.7794638623301
20
-6.21727374190533
30
0
41
1
10
47.7251596580475
20
-6.22708211136236
30
0
41
1
10
47.6172951744867
20
-6.23677142824823
30
0
41
1
10
47.5633541470305
20
-6.23657963406103
30
0
41
1
10
47.4588435808324
20
-6.22611628112472
30
0
41
1
10
47.408121880329
20
-6.21593873591519
30
0
41
1
10
47.2603393965548
20
-6.17081981491739
30
0
41
1
10
47.1666648605118
20
-6.12031799057411
30
0
41
1
10
47.0420362923613
20
-6.0185944622819
30
0
41
1
10
47.0028522949682
20
-5.9803226950128
30
0
41
1
10
46.9467776012542
20
-5.91532694883199
30
0
41
1
10
46.9281738273338
20
-5.89179849656887
30
0
41
1
10
46.9102699324061
20
-5.8671137828251
30
0
0
SPLINE
5
17E
100
AcDbEntity
8
1
62
256
6
ByLayer
370
18
48
1
60
0
100
AcDbSpline
70
4
71
1
72
4
73
2
40
0
40
0
40
1
40
1
41
1
10
62.9999930045994
20
-6.06686717512423
30
0
41
1
10
62.285135395505
20
-2.99398294771396
30
0
0
SPLINE
5
17F
100
AcDbEntity
8
1
62
256
6
ByLayer
370
18
48
1
60
0
100
AcDbSpline
70
4
71
1
72
4
73
2
40
0
40
0
40
1
40
1
41
1
10
62.278099874613
20
-8.78120869732356
30
0
41
1
10
62.9929638302452
20
-6.121003849028
30
0
0
LINE
5
81
100
AcDbEntity
8
1
62
256
6
ByLayer
370
13
48
1
60
0
100
AcDbLine
10
61.416324
20
-3.306481
30
0
11
61.416324
21
1.087913
31
0
39
0
210
0
220
0
230
1
0
LINE
5
82
100
AcDbEntity
8
1
62
256
6
ByLayer
370
13
48
1
60
0
100
AcDbLine
10
56.977601
20
6.342584
30
0
11
56.977601
21
3.019663
31
0
39
0
210
0
220
0
230
1
0
LINE
5
83
100
AcDbEntity
8
1
62
256
6
ByLayer
370
13
48
1
60
0
100
AcDbLine
10
61.9
20
1.898834
30
0
11
61.9
21
1.30891
31
0
39
0
210
0
220
0
230
1
0
LINE
5
84
100
AcDbEntity
8
1
62
256
6
ByLayer
370
13
48
1
60
0
100
AcDbLine
10
61.9
20
-3.119926
30
0
11
61.9
21
1.30891
31
0
39
0
210
0
220
0
230
1
0
LINE
5
85
100
AcDbEntity
8
1
62
256
6
ByLayer
370
13
48
1
60
0
100
AcDbLine
10
46.327239
20
-5.866229
30
0
11
50.063073
21
-5.866229
31
0
39
0
210
0
220
0
230
1
0
LINE
5
86
100
AcDbEntity
8
1
62
256
6
ByLayer
370
13
48
1
60
0
100
AcDbLine
10
54.489194
20
6.88988
30
0
11
54.489194
21
-4.296279
31
0
39
0
210
0
220
0
230
1
0
LINE
5
87
100
AcDbEntity
8
1
62
256
6
ByLayer
370
13
48
1
60
0
100
AcDbLine
10
61.9
20
-11.788042
30
0
11
61.9
21
-11.486081
31
0
39
0
210
0
220
0
230
1
0
LINE
5
88
100
AcDbEntity
8
1
62
256
6
ByLayer
370
13
48
1
60
0
100
AcDbLine
10
54.238432
20
-4.763152
30
0
11
54.238432
21
6.952321
31
0
39
0
210
0
220
0
230
1
0
LINE
5
89
100
AcDbEntity
8
1
62
256
6
ByLayer
370
13
48
1
60
0
100
AcDbLine
10
53.9714
20
7.011537
30
0
11
53.9714
21
-6.02254
31
0
39
0
210
0
220
0
230
1
0
LINE
5
8A
100
AcDbEntity
8
1
62
256
6
ByLayer
370
13
48
1
60
0
100
AcDbLine
10
57.10701
20
2.345168
30
0
11
61.472244
21
2.929999
31
0
39
0
210
0
220
0
230
1
0
LINE
5
8B
100
AcDbEntity
8
1
62
256
6
ByLayer
370
13
48
1
60
0
100
AcDbLine
10
61.9
20
-8.36754
30
0
11
61.9
21
-10.762458
31
0
39
0
210
0
220
0
230
1
0
LINE
5
8C
100
AcDbEntity
8
1
62
256
6
ByLayer
370
13
48
1
60
0
100
AcDbLine
10
57.668444
20
-13.525189
30
0
11
61.9
21
-11.788042
31
0
39
0
210
0
220
0
230
1
0
LINE
5
8D
100
AcDbEntity
8
1
62
256
6
ByLayer
370
13
48
1
60
0
100
AcDbLine
10
61.482915
20
3.62326
30
0
11
56.977601
21
3.019663
31
0
39
0
210
0
220
0
230
1
0
LINE
5
8E
100
AcDbEntity
8
1
62
256
6
ByLayer
370
13
48
1
60
0
100
AcDbLine
10
61.9
20
5.619003
30
0
11
61.9
21
5.309357
31
0
39
0
210
0
220
0
230
1
0
LINE
5
8F
100
AcDbEntity
8
1
62
256
6
ByLayer
370
13
48
1
60
0
100
AcDbLine
10
52.861999
20
-6.698858
30
0
11
52.861999
21
7.191475
31
0
39
0
210
0
220
0
230
1
0
LINE
5
90
100
AcDbEntity
8
1
62
256
6
ByLayer
370
13
48
1
60
0
100
AcDbLine
10
50.063073
20
-5.866229
30
0
11
50.063073
21
7.737971
31
0
39
0
210
0
220
0
230
1
0
LINE
5
91
100
AcDbEntity
8
1
62
256
6
ByLayer
370
13
48
1
60
0
100
AcDbLine
10
50.617773
20
7.527244
30
0
11
50.617773
21
-5.950269
31
0
39
0
210
0
220
0
230
1
0
LINE
5
92
100
AcDbEntity
8
1
62
256
6
ByLayer
370
13
48
1
60
0
100
AcDbLine
10
61.9
20
-10.762458
30
0
11
61.9
21
-11.352381
31
0
39
0
210
0
220
0
230
1
0
LINE
5
93
100
AcDbEntity
8
1
62
256
6
ByLayer
370
13
48
1
60
0
100
AcDbLine
10
61.9
20
-11.478396
30
0
11
61.9
21
-11.486081
31
0
39
0
210
0
220
0
230
1
0
LINE
5
94
100
AcDbEntity
8
1
62
256
6
ByLayer
370
13
48
1
60
0
100
AcDbLine
10
46.327239
20
12.598484
30
0
11
50.063073
21
12.598484
31
0
39
0
210
0
220
0
230
1
0
LINE
5
95
100
AcDbEntity
8
1
62
256
6
ByLayer
370
13
48
1
60
0
100
AcDbLine
10
56.624896
20
0.347029
30
0
11
56.04635
21
1.42661
31
0
39
0
210
0
220
0
230
1
0
LINE
5
96
100
AcDbEntity
8
1
62
256
6
ByLayer
370
13
48
1
60
0
100
AcDbLine
10
61.9
20
6.169039
30
0
11
61.9
21
5.971948
31
0
39
0
210
0
220
0
230
1
0
LINE
5
97
100
AcDbEntity
8
1
62
256
6
ByLayer
370
13
48
1
60
0
100
AcDbLine
10
61.9
20
5.619003
30
0
11
57.668444
21
6.222308
31
0
39
0
210
0
220
0
230
1
0
LINE
5
98
100
AcDbEntity
8
1
62
256
6
ByLayer
370
13
48
1
60
0
100
AcDbLine
10
0
20
-12.49675
30
0
11
0
21
12.49675
31
0
39
0
210
0
220
0
230
1
0
LINE
5
99
100
AcDbEntity
8
SK1
62
256
6
ByLayer
370
13
48
1
60
0
100
AcDbLine
10
0
20
-12.49675
30
0
11
0
21
12.49675
31
0
39
0
210
0
220
0
230
1
0
LINE
5
9B
100
AcDbEntity
8
1
62
256
6
ByLayer
370
13
48
1
60
0
100
AcDbLine
10
52.252402
20
8.859788
30
0
11
52.939063
21
9.256232
31
0
39
0
210
0
220
0
230
1
0
LINE
5
9C
100
AcDbEntity
8
1
62
256
6
ByLayer
370
13
48
1
60
0
100
AcDbLine
10
61.038124
20
-6.758168
30
0
11
61.038124
21
-8.45784
31
0
39
0
210
0
220
0
230
1
0
LINE
5
9D
100
AcDbEntity
8
1
62
256
6
ByLayer
370
13
48
1
60
0
100
AcDbLine
10
61
20
-6.642874
30
0
11
61
21
-8.178135
31
0
39
0
210
0
220
0
230
1
0
LINE
5
9E
100
AcDbEntity
8
1
62
256
6
ByLayer
370
13
48
1
60
0
100
AcDbLine
10
52.861999
20
-14.272503
30
0
11
52.861999
21
-14.27236
31
0
39
0
210
0
220
0
230
1
0
LINE
5
9F
100
AcDbEntity
8
1
62
256
6
ByLayer
370
13
48
1
60
0
100
AcDbLine
10
50.617773
20
-12.776352
30
0
11
50.617773
21
-12.704082
31
0
39
0
210
0
220
0
230
1
0
LINE
5
A0
100
AcDbEntity
8
1
62
256
6
ByLayer
370
13
48
1
60
0
100
AcDbLine
10
57.668444
20
-13.525189
30
0
11
57.668444
21
-7.089388
31
0
39
0
210
0
220
0
230
1
0
LINE
5
A1
100
AcDbEntity
8
SK1
62
256
6
ByLayer
370
13
48
1
60
0
100
AcDbLine
10
-57
20
11.49675
30
0
11
-57
21
-11.49675
31
0
39
0
210
0
220
0
230
1
0
LINE
5
A2
100
AcDbEntity
8
SK1
62
256
6
ByLayer
370
13
48
1
60
0
100
AcDbLine
10
-56
20
12.49675
30
0
11
-56
21
-12.49675
31
0
39
0
210
0
220
0
230
1
0
LINE
5
A3
100
AcDbEntity
8
1
62
256
6
ByLayer
370
13
48
1
60
0
100
AcDbLine
10
41.888348
20
12.49675
30
0
11
41.888348
21
-12.49675
31
0
39
0
210
0
220
0
230
1
0
LINE
5
A4
100
AcDbEntity
8
1
62
256
6
ByLayer
370
13
48
1
60
0
100
AcDbLine
10
50.063073
20
-12.489989
30
0
11
50.063073
21
-12.608402
31
0
39
0
210
0
220
0
230
1
0
LINE
5
A5
100
AcDbEntity
8
1
62
256
6
ByLayer
370
13
48
1
60
0
100
AcDbLine
10
42.203286
20
-12.608402
30
0
11
42.203286
21
12.608402
31
0
39
0
210
0
220
0
230
1
0
LINE
5
A6
100
AcDbEntity
8
1
62
256
6
ByLayer
370
13
48
1
60
0
100
AcDbLine
10
54.525739
20
-5.053329
30
0
11
54.318242
21
-4.666135
31
0
39
0
210
0
220
0
230
1
0
LINE
5
A7
100
AcDbEntity
8
81
62
256
6
ByLayer
370
18
48
1
60
0
100
AcDbLine
10
63
20
12.75
30
0
11
68
21
12.75
31
0
39
0
210
0
220
0
230
1
0
LINE
5
A8
100
AcDbEntity
8
SK4
62
256
6
ByLayer
370
18
48
0.05
60
0
100
AcDbLine
10
-62
20
0
30
0
11
68
21
0
31
0
39
0
210
0
220
0
230
1
0
LINE
5
AA
100
AcDbEntity
8
80
62
256
6
ByLayer
370
18
48
1
60
0
100
AcDbLine
10
0
20
0
30
0
11
-5
21
0
31
0
39
0
210
0
220
0
230
1
0
LINE
5
AB
100
AcDbEntity
8
1
62
256
6
ByLayer
370
13
48
1
60
0
100
AcDbLine
10
0
20
-12.49675
30
0
11
41.888348
21
-12.49675
31
0
39
0
210
0
220
0
230
1
0
LINE
5
AC
100
AcDbEntity
8
1
62
256
6
ByLayer
370
13
48
1
60
0
100
AcDbLine
10
41.888348
20
12.49675
30
0
11
0
21
12.49675
31
0
39
0
210
0
220
0
230
1
0
LINE
5
AD
100
AcDbEntity
8
1
62
256
6
ByLayer
370
18
48
1
60
0
100
AcDbLine
10
56.688648
20
1.630288
30
0
11
56.443699
21
1.457083
31
0
39
0
210
0
220
0
230
1
0
LINE
5
AE
100
AcDbEntity
8
1
62
256
6
ByLayer
370
13
48
1
60
0
100
AcDbLine
10
50.617773
20
-12.776352
30
0
11
52.861999
21
-14.272503
31
0
39
0
210
0
220
0
230
1
0
LINE
5
AF
100
AcDbEntity
8
SK1
62
256
6
ByLayer
370
13
48
1
60
0
100
AcDbLine
10
-57
20
-11.49675
30
0
11
-56
21
-12.49675
31
0
39
0
210
0
220
0
230
1
0
LINE
5
B0
100
AcDbEntity
8
SK1
62
256
6
ByLayer
370
13
48
1
60
0
100
AcDbLine
10
-56
20
12.49675
30
0
11
-57
21
11.49675
31
0
39
0
210
0
220
0
230
1
0
LINE
5
B1
100
AcDbEntity
8
SK1
62
256
6
ByLayer
370
13
48
1
60
0
100
AcDbLine
10
-56
20
-12.49675
30
0
11
0
21
-12.49675
31
0
39
0
210
0
220
0
230
1
0
LINE
5
B2
100
AcDbEntity
8
SK1
62
256
6
ByLayer
370
13
48
1
60
0
100
AcDbLine
10
0
20
12.49675
30
0
11
-56
21
12.49675
31
0
39
0
210
0
220
0
230
1
0
LINE
5
B3
100
AcDbEntity
8
1
62
256
6
ByLayer
370
13
48
1
60
0
100
AcDbLine
10
42.203286
20
-12.608402
30
0
11
50.063073
21
-12.608402
31
0
39
0
210
0
220
0
230
1
0
LINE
5
B4
100
AcDbEntity
8
1
62
256
6
ByLayer
370
13
48
1
60
0
100
AcDbLine
10
44.977456
20
12.608402
30
0
11
42.203286
21
12.608402
31
0
39
0
210
0
220
0
230
1
0
LINE
5
B5
100
AcDbEntity
8
4
62
256
6
ByLayer
370
18
48
0.05
60
0
100
AcDbLine
10
0
20
0
30
0
11
68
21
0
31
0
39
0
210
0
220
0
230
1
0
LINE
5
B7
100
AcDbEntity
8
SK2
62
256
6
ByLayer
370
13
48
1
60
0
100
AcDbLine
10
54.318742
20
15.076136
30
0
11
48.270451
21
16.696771
31
0
39
0
210
0
220
0
230
1
0
LINE
5
B9
100
AcDbEntity
8
SK2
62
256
6
ByLayer
370
13
48
1
60
0
100
AcDbLine
10
63
20
14.3375
30
0
11
63
21
27.999152
31
0
39
0
210
0
220
0
230
1
0
LINE
5
BA
100
AcDbEntity
8
1
62
256
6
ByLayer
370
13
48
1
60
0
100
AcDbLine
10
51.337265
20
15.87502
30
0
11
51.961754
21
19.015936
31
0
39
0
210
0
220
0
230
1
0
LINE
5
BB
100
AcDbEntity
8
1
62
256
6
ByLayer
370
13
48
1
60
0
100
AcDbLine
10
51.337265
20
15.87502
30
0
11
52.753405
21
18.747285
31
0
39
0
210
0
220
0
230
1
0
LINE
5
BC
100
AcDbEntity
8
1
62
256
6
ByLayer
370
13
48
1
60
0
100
AcDbLine
10
51.961754
20
19.015936
30
0
11
52.753405
21
18.747285
31
0
39
0
210
0
220
0
230
1
0
LINE
5
BD
100
AcDbEntity
8
1
62
256
6
ByLayer
370
13
48
1
60
0
100
AcDbLine
10
63
20
24.824152
30
0
11
59.859085
21
24.199663
31
0
39
0
210
0
220
0
230
1
0
LINE
5
BE
100
AcDbEntity
8
1
62
256
6
ByLayer
370
13
48
1
60
0
100
AcDbLine
10
63
20
24.824152
30
0
11
59.804476
21
25.03387
31
0
39
0
210
0
220
0
230
1
0
LINE
5
BF
100
AcDbEntity
8
1
62
256
6
ByLayer
370
13
48
1
60
0
100
AcDbLine
10
59.859085
20
24.199663
30
0
11
59.804476
21
25.03387
31
0
39
0
210
0
220
0
230
1
0
MTEXT
5
180
100
AcDbEntity
8
SK2
62
256
6
ByLayer
370
18
48
1
60
0
100
AcDbMText
10
51.458044
20
20.550421
30
0
210
0
220
0
230
1
1
\W0.9771;75%%d
40
4.5
41
0
44
1.084337
50
37.5
71
7
72
5
7
iso_b_vert
0
MTEXT
5
183
100
AcDbEntity
8
SK6
62
256
6
ByLayer
370
18
48
1
60
0
100
AcDbMText
10
-16.788
20
-50.75821
30
0
210
0
220
0
230
1
1
\W0.7733;495-025A25-7509H
40
4
41
0
44
1.084337
50
0
71
7
72
5
7
iso_b_vert
0
DIMENSION
5
186
100
AcDbEntity
8
2
62
256
6
ByLayer
370
18
48
1
60
0
100
AcDbDimension
2
_U0
10
87.896875
20
12.75
30
0
11
87.896875
21
0
31
0
70
32
71
1
72
1
41
1
210
0
220
0
230
1
3
Standard
100
AcDbAlignedDimension
13
63
23
-12.75
33
0
14
63
24
12.75
34
0
50
90
100
AcDbRotatedDimension
1001
ACAD
1000
DSTYLE
1002
{
1070
   371
1070
    13
1070
   372
1070
    13
1070
   170
1070
     0
1070
   144
1040
1.0
1070
   277
1070
     2
1070
   284
1070
     8
1070
   278
1070
    46
1070
   146
1040
0.777778
1070
   345
1005
16
1070
   347
1005
16
1070
   346
1005
16
1070
   344
1005
187
1070
   343
1005
187
1070
   172
1070
     1
1070
    76
1070
     0
1070
    75
1070
     0
1070
   282
1070
     0
1070
   281
1070
     0
1070
    71
1070
     0
1070
    74
1070
     0
1070
   279
1070
     0
1070
   173
1070
     1
1070
   340
1005
181
1070
   271
1070
     2
1070
   272
1070
     2
1070
    77
1070
     1
1070
    73
1070
     0
1070
   171
1070
     3
1070
   274
1070
     4
1070
   177
1070
   150
1070
   176
1070
     9
1070
   178
1070
    43
1070
    78
1070
     8
1070
    48
1040
-0.1
1070
    41
1040
3.175
1070
   147
1040
2.25
1070
    42
1040
1.5875
1070
    44
1040
3.175
1070
   140
1040
4.5
1002
}
1001
ACAD_DSTYLE_DIM_LINETYPE
1070
   380
1005
16
1001
ACAD_DSTYLE_DIM_EXT1_LINETYPE
1070
   381
1005
16
1001
ACAD_DSTYLE_DIM_EXT2_LINETYPE
1070
   382
1005
16
0
DIMENSION
5
1AC
100
AcDbEntity
8
SK2
62
256
6
ByLayer
370
18
48
1
60
0
100
AcDbDimension
2
_U1
10
0
20
-37.25
30
0
11
31.5
21
-37.25
31
0
70
32
71
1
72
1
41
1
210
0
220
0
230
1
3
Standard
100
AcDbAlignedDimension
13
63
23
-12.75
33
0
14
0
24
0
34
0
50
0
100
AcDbRotatedDimension
1001
ACAD
1000
DSTYLE
1002
{
1070
   371
1070
    13
1070
   372
1070
    13
1070
   170
1070
     0
1070
   144
1040
1.0
1070
   277
1070
     2
1070
   284
1070
     8
1070
   278
1070
    46
1070
   146
1040
0.777778
1070
   345
1005
16
1070
   347
1005
16
1070
   346
1005
16
1070
   344
1005
187
1070
   343
1005
187
1070
   172
1070
     1
1070
    76
1070
     0
1070
    75
1070
     0
1070
   282
1070
     0
1070
   281
1070
     0
1070
    71
1070
     0
1070
    74
1070
     0
1070
   279
1070
     0
1070
   173
1070
     1
1070
   340
1005
181
1070
   271
1070
     2
1070
   272
1070
     2
1070
    77
1070
     1
1070
    73
1070
     1
1070
   171
1070
     3
1070
   274
1070
     4
1070
   177
1070
   150
1070
   176
1070
     9
1070
   178
1070
    43
1070
    78
1070
     8
1070
    48
1040
-0.1
1070
    41
1040
3.175
1070
   147
1040
2.25
1070
    42
1040
1.5875
1070
    44
1040
3.175
1070
   140
1040
4.5
1002
}
1001
ACAD_DSTYLE_DIM_LINETYPE
1070
   380
1005
16
1001
ACAD_DSTYLE_DIM_EXT1_LINETYPE
1070
   381
1005
16
1001
ACAD_DSTYLE_DIM_EXT2_LINETYPE
1070
   382
1005
16
0
DIMENSION
5
1C8
100
AcDbEntity
8
2
62
256
6
ByLayer
370
18
48
1
60
0
100
AcDbDimension
2
_U2
10
63
20
33.25
30
0
11
3
21
33.25
31
0
70
32
71
1
72
1
41
1
210
0
220
0
230
1
3
Standard
100
AcDbAlignedDimension
13
-57
23
12.5
33
0
14
63
24
12.75
34
0
50
0
100
AcDbRotatedDimension
1001
ACAD
1000
DSTYLE
1002
{
1070
   371
1070
    13
1070
   372
1070
    13
1070
   170
1070
     0
1070
   144
1040
1.0
1070
   277
1070
     2
1070
   284
1070
     8
1070
   278
1070
    46
1070
   146
1040
0.777778
1070
   345
1005
16
1070
   347
1005
16
1070
   346
1005
16
1070
   344
1005
187
1070
   343
1005
187
1070
   172
1070
     1
1070
    76
1070
     0
1070
    75
1070
     0
1070
   282
1070
     0
1070
   281
1070
     0
1070
    71
1070
     0
1070
    74
1070
     0
1070
   279
1070
     0
1070
   173
1070
     1
1070
   340
1005
181
1070
   271
1070
     2
1070
   272
1070
     2
1070
    77
1070
     1
1070
    73
1070
     1
1070
   171
1070
     3
1070
   274
1070
     4
1070
   177
1070
   150
1070
   176
1070
     9
1070
   178
1070
    43
1070
    78
1070
     8
1070
    48
1040
-0.1
1070
    41
1040
3.175
1070
   147
1040
2.25
1070
    42
1040
1.5875
1070
    44
1040
3.175
1070
   140
1040
4.5
1002
}
1001
ACAD_DSTYLE_DIM_LINETYPE
1070
   380
1005
16
1001
ACAD_DSTYLE_DIM_EXT1_LINETYPE
1070
   381
1005
16
1001
ACAD_DSTYLE_DIM_EXT2_LINETYPE
1070
   382
1005
16
0
DIMENSION
5
1E4
100
AcDbEntity
8
SK2
62
256
6
ByLayer
370
18
48
1
60
0
100
AcDbDimension
2
_U3
10
55.05
20
23.25
30
0
11
-0.975
21
23.25
31
0
70
32
71
1
72
1
41
1
210
0
220
0
230
1
3
Standard
100
AcDbAlignedDimension
13
-57
23
12.5
33
0
14
55.05
24
14.85
34
0
50
0
100
AcDbRotatedDimension
1001
ACAD
1000
DSTYLE
1002
{
1070
   371
1070
    13
1070
   372
1070
    13
1070
   170
1070
     0
1070
   144
1040
1.0
1070
   277
1070
     2
1070
   284
1070
     8
1070
   278
1070
    46
1070
   146
1040
0.777778
1070
   345
1005
16
1070
   347
1005
16
1070
   346
1005
16
1070
   344
1005
187
1070
   343
1005
187
1070
   172
1070
     1
1070
    76
1070
     0
1070
    75
1070
     0
1070
   282
1070
     0
1070
   281
1070
     0
1070
    71
1070
     0
1070
    74
1070
     0
1070
   279
1070
     0
1070
   173
1070
     1
1070
   340
1005
181
1070
   271
1070
     2
1070
   272
1070
     2
1070
    77
1070
     1
1070
    73
1070
     1
1070
   171
1070
     3
1070
   274
1070
     4
1070
   177
1070
   150
1070
   176
1070
     9
1070
   178
1070
    43
1070
    78
1070
     8
1070
    48
1040
-0.1
1070
    41
1040
3.175
1070
   147
1040
2.25
1070
    42
1040
1.5875
1070
    44
1040
3.175
1070
   140
1040
4.5
1002
}
1001
ACAD_DSTYLE_DIM_LINETYPE
1070
   380
1005
16
1001
ACAD_DSTYLE_DIM_EXT1_LINETYPE
1070
   381
1005
16
1001
ACAD_DSTYLE_DIM_EXT2_LINETYPE
1070
   382
1005
16
0
DIMENSION
5
200
100
AcDbEntity
8
SK2
62
256
6
ByLayer
370
18
48
1
60
0
100
AcDbDimension
2
_U4
10
98.75
20
14.85
30
0
11
98.75
21
0
31
0
70
32
71
1
72
1
41
1
210
0
220
0
230
1
3
Standard
100
AcDbAlignedDimension
13
55.05
23
-14.85
33
0
14
55.05
24
14.85
34
0
50
90
100
AcDbRotatedDimension
1001
ACAD
1000
DSTYLE
1002
{
1070
   371
1070
    13
1070
   372
1070
    13
1070
   170
1070
     0
1070
   144
1040
1.0
1070
   277
1070
     2
1070
   284
1070
     8
1070
   278
1070
    46
1070
   146
1040
0.777778
1070
   345
1005
16
1070
   347
1005
16
1070
   346
1005
16
1070
   344
1005
187
1070
   343
1005
187
1070
   172
1070
     1
1070
    76
1070
     0
1070
    75
1070
     0
1070
   282
1070
     0
1070
   281
1070
     0
1070
    71
1070
     0
1070
    74
1070
     0
1070
   279
1070
     0
1070
   173
1070
     1
1070
   340
1005
181
1070
   271
1070
     2
1070
   272
1070
     2
1070
    77
1070
     1
1070
    73
1070
     0
1070
   171
1070
     3
1070
   274
1070
     4
1070
   177
1070
   150
1070
   176
1070
     9
1070
   178
1070
    43
1070
    78
1070
     8
1070
    48
1040
-0.1
1070
    41
1040
3.175
1070
   147
1040
2.25
1070
    42
1040
1.5875
1070
    44
1040
3.175
1070
   140
1040
4.5
1002
}
1001
ACAD_DSTYLE_DIM_LINETYPE
1070
   380
1005
16
1001
ACAD_DSTYLE_DIM_EXT1_LINETYPE
1070
   381
1005
16
1001
ACAD_DSTYLE_DIM_EXT2_LINETYPE
1070
   382
1005
16
0
DIMENSION
5
21D
100
AcDbEntity
8
SK2
62
256
6
ByLayer
370
18
48
1
60
0
100
AcDbDimension
2
_U5
10
-82.103125
20
-12.5
30
0
11
-82.103125
21
0
31
0
70
32
71
1
72
1
41
1
210
0
220
0
230
1
3
Standard
100
AcDbAlignedDimension
13
-57
23
12.5
33
0
14
-57
24
-12.5
34
0
50
90
100
AcDbRotatedDimension
1001
ACAD
1000
DSTYLE
1002
{
1070
   371
1070
    13
1070
   372
1070
    13
1070
   170
1070
     0
1070
   144
1040
1.0
1070
   277
1070
     2
1070
   284
1070
     8
1070
   278
1070
    46
1070
   146
1040
0.777778
1070
   345
1005
16
1070
   347
1005
16
1070
   346
1005
16
1070
   344
1005
187
1070
   343
1005
187
1070
   172
1070
     1
1070
    76
1070
     0
1070
    75
1070
     0
1070
   282
1070
     0
1070
   281
1070
     0
1070
    71
1070
     0
1070
    74
1070
     0
1070
   279
1070
     0
1070
   173
1070
     1
1070
   340
1005
181
1070
   271
1070
     2
1070
   272
1070
     2
1070
    77
1070
     1
1070
    73
1070
     0
1070
   171
1070
     3
1070
   274
1070
     4
1070
   177
1070
   150
1070
   176
1070
     9
1070
   178
1070
    43
1070
    78
1070
     8
1070
    48
1040
-0.1
1070
    41
1040
3.175
1070
   147
1040
2.25
1070
    42
1040
1.5875
1070
    44
1040
3.175
1070
   140
1040
4.5
1002
}
1001
ACAD_DSTYLE_DIM_LINETYPE
1070
   380
1005
16
1001
ACAD_DSTYLE_DIM_EXT1_LINETYPE
1070
   381
1005
16
1001
ACAD_DSTYLE_DIM_EXT2_LINETYPE
1070
   382
1005
16
0
ENDSEC
0
SECTION
2
OBJECTS
0
DICTIONARY
5
2aa
330
0
100
AcDbDictionary
280
0
281
1
3
ACAD_GROUP
350
2ab
3
ACAD_MLINESTYLE
350
2ac
0
DICTIONARY
5
2ab
330
0
100
AcDbDictionary
280
0
281
1
0
DICTIONARY
5
2ac
330
0
100
AcDbDictionary
280
0
281
1
3
Standard
350
18
0
MLINESTYLE
5
18
330
2ac
100
AcDbMlineStyle
2
Standard
70
0
3

62
256
51
90
52
90
71
2
49
-0.5
62
256
6
ByLayer
49
0.5
62
256
6
ByLayer
0
RASTERVARIABLES
5
298
330

100
AcDbRasterVariables
90
0
70
1
71
1
72
1
0
ENDSEC
0
EOF
