0
SECTION
2
HEADER
9
$ACADVER
1
AC1015
9
$DWGCODEPAGE
3
ANSI_1252
9
$HANDSEED
5
28f
9
$ANGBASE
50
0
9
$ANGDIR
70
0
9
$ATTMODE
70
1
9
$AUNITS
70
0
9
$AUPREC
70
0
9
$CECOLOR
62
256
9
$CELTSCALE
40
1
9
$CELTYPE
6
ByLayer
9
$CELWEIGHT
370
18
9
$CLAYER
8
0
9
$CMLJUST
70
0
9
$CMLSCALE
40
1
9
$CMLSTYLE
2
Standard
9
$DIMSTYLE
2
Standard
9
$TEXTSIZE
40
0.2
9
$TEXTSTYLE
7
Standard
9
$LUNITS
70
2
9
$LUPREC
70
4
9
$EXTNAMES
290
1
9
$INSUNITS
70
4
9
$LTSCALE
40
1
9
$LWDISPLAY
290
1
9
$PDMODE
70
0
9
$PDSIZE
40
0
9
$PLINEGEN
70
0
0
ENDSEC
0
SECTION
2
CLASSES
0
CLASS
1
RASTERVARIABLES
2
AcDbRasterVariables
3
ISM
90
0
280
0
281
0
0
ENDSEC
0
SECTION
2
TABLES
0
TABLE
2
VPORT
5
285
100
AcDbSymbolTable
0
VPORT
5
1
100
AcDbSymbolTableRecord
100
AcDbViewportTableRecord
2
*Active
70
0
10
0
20
0
11
1
21
1
12
-1
22
1
13
0
23
0
14
0.5
24
0.5
15
10
25
10
16
0
26
0
36
1
17
0
27
0
37
0
0
ENDTAB
0
TABLE
2
LTYPE
5
286
100
AcDbSymbolTable
0
LTYPE
5
14
100
AcDbSymbolTableRecord
100
AcDbLinetypeTableRecord
70
0
2
ByBlock
3

72
65
73
0
40
0
0
LTYPE
5
15
100
AcDbSymbolTableRecord
100
AcDbLinetypeTableRecord
70
0
2
ByLayer
3

72
65
73
0
40
0
0
LTYPE
5
16
100
AcDbSymbolTableRecord
100
AcDbLinetypeTableRecord
70
0
2
Continuous
3
Solid line
72
65
73
0
40
0
0
LTYPE
5
6E
100
AcDbSymbolTableRecord
100
AcDbLinetypeTableRecord
70
0
2
CENTER
3
____ _ ____ _ ____ _ ____
72
65
73
4
40
47.5
49
22
74
0
49
-8.5
74
0
49
8.5
74
0
49
-8.5
74
0
0
LTYPE
5
6F
100
AcDbSymbolTableRecord
100
AcDbLinetypeTableRecord
70
0
2
DASHED
3
__ __ __ __ __ __ __ __ __
72
65
73
2
40
25.72
49
12.86
74
0
49
-12.86
74
0
0
ENDTAB
0
TABLE
2
LAYER
5
287
100
AcDbSymbolTable
0
LAYER
5
10
100
AcDbSymbolTableRecord
100
AcDbLayerTableRecord
2
0
70
0
62
7
6
Continuous
290
1
370
-3
390
0
0
LAYER
5
71
100
AcDbSymbolTableRecord
100
AcDbLayerTableRecord
2
81
70
0
62
-3
6
Continuous
290
1
370
-3
390
0
0
LAYER
5
73
100
AcDbSymbolTableRecord
100
AcDbLayerTableRecord
2
80
70
0
62
-6
6
Continuous
290
1
370
-3
390
0
0
LAYER
5
75
100
AcDbSymbolTableRecord
100
AcDbLayerTableRecord
2
1
70
0
62
4
6
Continuous
290
1
370
-3
390
0
0
LAYER
5
BD
100
AcDbSymbolTableRecord
100
AcDbLayerTableRecord
2
4
70
0
62
-2
6
CENTER
290
1
370
-3
390
0
0
LAYER
5
162
100
AcDbSymbolTableRecord
100
AcDbLayerTableRecord
2
Defpoints
70
0
62
7
6
Continuous
290
0
370
-3
390
0
0
LAYER
5
171
100
AcDbSymbolTableRecord
100
AcDbLayerTableRecord
2
2
70
0
62
7
6
Continuous
290
1
370
-3
390
0
0
LAYER
5
271
100
AcDbSymbolTableRecord
100
AcDbLayerTableRecord
2
SK1
70
0
62
4
6
Continuous
290
1
370
-3
390
0
0
LAYER
5
272
100
AcDbSymbolTableRecord
100
AcDbLayerTableRecord
2
SK4
70
0
62
2
6
CENTER
290
1
370
-3
390
0
0
LAYER
5
273
100
AcDbSymbolTableRecord
100
AcDbLayerTableRecord
2
SK2
70
0
62
7
6
Continuous
290
1
370
-3
390
0
0
LAYER
5
274
100
AcDbSymbolTableRecord
100
AcDbLayerTableRecord
2
SK6
70
0
62
5
6
Continuous
290
1
370
-3
390
0
0
ENDTAB
0
TABLE
2
STYLE
5
288
100
AcDbSymbolTable
0
STYLE
5
11
100
AcDbSymbolTableRecord
100
AcDbTextStyleTableRecord
2
Standard
3
txt
70
0
71
0
40
0
41
1
42
0
50
0
0
STYLE
5
153
100
AcDbSymbolTableRecord
100
AcDbTextStyleTableRecord
2
iso_b_vert
3
simplex.shx
70
0
71
0
40
0
41
1
42
0
50
0
0
STYLE
5
154
100
AcDbSymbolTableRecord
100
AcDbTextStyleTableRecord
2
DWGDirectTextStyle
3
simplex
70
0
71
0
40
0
41
1
42
0
50
0
0
ENDTAB
0
TABLE
2
DIMSTYLE
5
289
100
AcDbSymbolTable
100
AcDbDimStyleTable
0
DIMSTYLE
105
27
100
AcDbSymbolTableRecord
100
AcDbDimStyleTableRecord
2
Standard
70
0
3
<>
41
0.18
42
0.0625
44
0.18
140
0.18
147
0.09
73
0
74
0
77
1
271
2
275
0
278
52
280
0
340
11
0
ENDTAB
0
TABLE
2
VIEW
5
28a
100
AcDbSymbolTable
0
ENDTAB
0
TABLE
2
UCS
5
28b
100
AcDbSymbolTable
0
ENDTAB
0
TABLE
2
APPID
5
28c
100
AcDbSymbolTable
0
APPID
5
12
100
AcDbSymbolTableRecord
100
AcDbRegAppTableRecord
2
ACAD
70
0
0
APPID
5
157
100
AcDbSymbolTableRecord
100
AcDbRegAppTableRecord
2
ACAD_DSTYLE_DIMBREAK
70
0
0
APPID
5
230
100
AcDbSymbolTableRecord
100
AcDbRegAppTableRecord
2
ACAD_DSTYLE_DIM_LINETYPE
70
0
0
APPID
5
231
100
AcDbSymbolTableRecord
100
AcDbRegAppTableRecord
2
ACAD_DSTYLE_DIM_EXT1_LINETYPE
70
0
0
APPID
5
232
100
AcDbSymbolTableRecord
100
AcDbRegAppTableRecord
2
ACAD_DSTYLE_DIM_EXT2_LINETYPE
70
0
0
APPID
5
26D
100
AcDbSymbolTableRecord
100
AcDbRegAppTableRecord
2
ACAD_MLEADERVER
70
0
0
ENDTAB
0
TABLE
2
BLOCK_RECORD
5
28d
100
AcDbSymbolTable
0
BLOCK_RECORD
5
1F
100
AcDbSymbolTableRecord
100
AcDbBlockTableRecord
2
*Model_Space
340
0
70
0
0
BLOCK_RECORD
5
1B
100
AcDbSymbolTableRecord
100
AcDbBlockTableRecord
2
*Paper_Space
340
0
70
0
0
BLOCK_RECORD
5
23
100
AcDbSymbolTableRecord
100
AcDbBlockTableRecord
2
*Paper_Space0
340
0
70
0
0
BLOCK_RECORD
5
159
100
AcDbSymbolTableRecord
100
AcDbBlockTableRecord
2
_Closed
340
0
70
0
0
BLOCK_RECORD
5
163
100
AcDbSymbolTableRecord
100
AcDbBlockTableRecord
2
*D2
340
0
70
0
0
BLOCK_RECORD
5
172
100
AcDbSymbolTableRecord
100
AcDbBlockTableRecord
2
_U0
340
0
70
0
0
BLOCK_RECORD
5
183
100
AcDbSymbolTableRecord
100
AcDbBlockTableRecord
2
*D4
340
0
70
0
0
BLOCK_RECORD
5
18F
100
AcDbSymbolTableRecord
100
AcDbBlockTableRecord
2
_U1
340
0
70
0
0
BLOCK_RECORD
5
19F
100
AcDbSymbolTableRecord
100
AcDbBlockTableRecord
2
*D6
340
0
70
0
0
BLOCK_RECORD
5
1AB
100
AcDbSymbolTableRecord
100
AcDbBlockTableRecord
2
_U2
340
0
70
0
0
BLOCK_RECORD
5
1BB
100
AcDbSymbolTableRecord
100
AcDbBlockTableRecord
2
*D8
340
0
70
0
0
BLOCK_RECORD
5
1C7
100
AcDbSymbolTableRecord
100
AcDbBlockTableRecord
2
_U3
340
0
70
0
0
BLOCK_RECORD
5
1D7
100
AcDbSymbolTableRecord
100
AcDbBlockTableRecord
2
*D10
340
0
70
0
0
BLOCK_RECORD
5
1E5
100
AcDbSymbolTableRecord
100
AcDbBlockTableRecord
2
_U4
340
0
70
0
0
BLOCK_RECORD
5
1F6
100
AcDbSymbolTableRecord
100
AcDbBlockTableRecord
2
*D12
340
0
70
0
0
BLOCK_RECORD
5
204
100
AcDbSymbolTableRecord
100
AcDbBlockTableRecord
2
_U5
340
0
70
0
0
ENDTAB
0
ENDSEC
0
SECTION
2
BLOCKS
0
BLOCK
5
20
100
AcDbEntity
8
0
100
AcDbBlockBegin
2
*Model_Space
70
0
10
0
20
0
30
0
3
*Model_Space
0
ENDBLK
5
21
100
AcDbEntity
8
0
100
AcDbBlockEnd
0
BLOCK
5
1C
100
AcDbEntity
8
0
100
AcDbBlockBegin
2
*Paper_Space
70
0
10
0
20
0
30
0
3
*Paper_Space
0
ENDBLK
5
1D
100
AcDbEntity
8
0
100
AcDbBlockEnd
0
BLOCK
5
24
100
AcDbEntity
8
0
100
AcDbBlockBegin
2
*Paper_Space0
70
0
10
0
20
0
30
0
3
*Paper_Space0
0
ENDBLK
5
25
100
AcDbEntity
8
0
100
AcDbBlockEnd
0
BLOCK
5
15A
100
AcDbEntity
8
0
100
AcDbBlockBegin
2
_Closed
70
0
10
0
20
0
30
0
3
_Closed
0
LINE
5
15C
100
AcDbEntity
8
0
62
256
6
ByLayer
370
-2
48
1
60
0
100
AcDbLine
10
-1
20
0.166667
30
0
11
0
21
0
31
0
39
0
210
0
220
0
230
1
0
LINE
5
15D
100
AcDbEntity
8
0
62
256
6
ByLayer
370
-2
48
1
60
0
100
AcDbLine
10
0
20
0
30
0
11
-1
21
-0.166667
31
0
39
0
210
0
220
0
230
1
0
LINE
5
15E
100
AcDbEntity
8
0
62
256
6
ByLayer
370
-2
48
1
60
0
100
AcDbLine
10
-1
20
0.166667
30
0
11
-1
21
-0.166667
31
0
39
0
210
0
220
0
230
1
0
LINE
5
15F
100
AcDbEntity
8
0
62
256
6
ByLayer
370
-2
48
1
60
0
100
AcDbLine
10
0
20
0
30
0
11
-1
21
0
31
0
39
0
210
0
220
0
230
1
0
ENDBLK
5
15B
100
AcDbEntity
8
0
100
AcDbBlockEnd
0
BLOCK
5
164
100
AcDbEntity
8
0
100
AcDbBlockBegin
2
*D2
70
1
10
0
20
0
30
0
3
*D2
0
LINE
5
166
100
AcDbEntity
8
0
62
256
6
ByLayer
370
-2
48
1
60
0
100
AcDbLine
10
52.5875
20
-6
30
0
11
79.071875
21
-6
31
0
39
0
210
0
220
0
230
1
0
LINE
5
167
100
AcDbEntity
8
0
62
256
6
ByLayer
370
-2
48
1
60
0
100
AcDbLine
10
52.5875
20
6
30
0
11
79.071875
21
6
31
0
39
0
210
0
220
0
230
1
0
LINE
5
168
100
AcDbEntity
8
0
62
256
6
ByLayer
370
-2
48
1
60
0
100
AcDbLine
10
75.896875
20
6
30
0
11
75.896875
21
34.900605
31
0
39
0
210
0
220
0
230
1
0
LINE
5
169
100
AcDbEntity
8
0
62
256
6
ByLayer
370
-2
48
1
60
0
100
AcDbLine
10
75.896875
20
-9.175
30
0
11
75.896875
21
-12.35
31
0
39
0
210
0
220
0
230
1
0
LINE
5
16A
100
AcDbEntity
8
0
62
256
6
ByLayer
370
-2
48
1
60
0
100
AcDbLine
10
75.896875
20
9.175
30
0
11
75.896875
21
12.35
31
0
39
0
210
0
220
0
230
1
0
SOLID
5
16B
100
AcDbEntity
8
0
62
256
6
ByLayer
370
-1
48
1
60
0
100
AcDbTrace
10
76.426042
20
-9.175
30
0
11
75.367708
21
-9.175
31
0
12
75.896875
22
-6
32
0
13
75.896875
23
-6
33
0
39
0
210
0
220
0
230
1
0
SOLID
5
16C
100
AcDbEntity
8
0
62
256
6
ByLayer
370
-1
48
1
60
0
100
AcDbTrace
10
75.367708
20
9.175
30
0
11
76.426042
21
9.175
31
0
12
75.896875
22
6
32
0
13
75.896875
23
6
33
0
39
0
210
0
220
0
230
1
0
MTEXT
5
16D
100
AcDbEntity
8
0
62
256
6
ByLayer
370
18
48
1
60
0
100
AcDbMText
10
66.503125
20
24.435427
30
0
210
0
220
0
230
1
1
\A1;12
40
4.5
41
0
44
1
50
90
71
5
72
5
7
iso_b_vert
0
POINT
5
16E
100
AcDbEntity
8
Defpoints
62
0
6
ByLayer
370
-1
48
1
60
0
100
AcDbPoint
10
51
20
-6
30
0
39
0
210
0
220
0
230
1
50
360
0
POINT
5
16F
100
AcDbEntity
8
Defpoints
62
0
6
ByLayer
370
-1
48
1
60
0
100
AcDbPoint
10
51
20
6
30
0
39
0
210
0
220
0
230
1
50
360
0
POINT
5
170
100
AcDbEntity
8
Defpoints
62
0
6
ByLayer
370
-1
48
1
60
0
100
AcDbPoint
10
75.896875
20
6
30
0
39
0
210
0
220
0
230
1
50
360
0
ENDBLK
5
165
100
AcDbEntity
8
0
100
AcDbBlockEnd
0
BLOCK
5
17E
100
AcDbEntity
8
0
100
AcDbBlockBegin
2
_U0
70
0
10
0
20
0
30
0
3
_U0
0
MTEXT
5
173
100
AcDbEntity
8
2
62
256
6
ByLayer
370
18
48
1
60
0
100
AcDbMText
10
73.815029
20
17.255375
30
0
210
0
220
0
230
1
1
%%c
40
3.175
41
0
44
1.084337
50
90
71
7
72
5
7
iso_b_vert
0
MTEXT
5
174
100
AcDbEntity
8
2
62
256
6
ByLayer
370
18
48
1
60
0
100
AcDbMText
10
74.216453
20
26.84
30
0
210
0
220
0
230
1
1
\W0.6385;12
40
4.5
41
0
44
1.084337
50
90
71
7
72
5
7
iso_b_vert
0
LINE
5
175
100
AcDbEntity
8
2
62
256
6
ByLayer
370
13
48
1
60
0
100
AcDbLine
10
52.5875
20
-6
30
0
11
79.071875
21
-6
31
0
39
0
210
0
220
0
230
1
0
LINE
5
176
100
AcDbEntity
8
2
62
256
6
ByLayer
370
13
48
1
60
0
100
AcDbLine
10
52.5875
20
6
30
0
11
79.071875
21
6
31
0
39
0
210
0
220
0
230
1
0
LINE
5
177
100
AcDbEntity
8
2
62
256
6
ByLayer
370
13
48
1
60
0
100
AcDbLine
10
75.896875
20
-6
30
0
11
75.896875
21
31.758353
31
0
39
0
210
0
220
0
230
1
0
LINE
5
178
100
AcDbEntity
8
2
62
256
6
ByLayer
370
13
48
1
60
0
100
AcDbLine
10
75.896875
20
-6
30
0
11
75.478878
21
-2.825002
31
0
39
0
210
0
220
0
230
1
0
LINE
5
179
100
AcDbEntity
8
2
62
256
6
ByLayer
370
13
48
1
60
0
100
AcDbLine
10
75.896875
20
-6
30
0
11
76.314872
21
-2.824998
31
0
39
0
210
0
220
0
230
1
0
LINE
5
17A
100
AcDbEntity
8
2
62
256
6
ByLayer
370
13
48
1
60
0
100
AcDbLine
10
75.478878
20
-2.825002
30
0
11
76.314872
21
-2.824998
31
0
39
0
210
0
220
0
230
1
0
LINE
5
17B
100
AcDbEntity
8
2
62
256
6
ByLayer
370
13
48
1
60
0
100
AcDbLine
10
75.896875
20
6
30
0
11
76.314872
21
2.825002
31
0
39
0
210
0
220
0
230
1
0
LINE
5
17C
100
AcDbEntity
8
2
62
256
6
ByLayer
370
13
48
1
60
0
100
AcDbLine
10
75.896875
20
6
30
0
11
75.478878
21
2.824998
31
0
39
0
210
0
220
0
230
1
0
LINE
5
17D
100
AcDbEntity
8
2
62
256
6
ByLayer
370
13
48
1
60
0
100
AcDbLine
10
76.314872
20
2.825002
30
0
11
75.478878
21
2.824998
31
0
39
0
210
0
220
0
230
1
0
ENDBLK
5
17F
100
AcDbEntity
8
0
100
AcDbBlockEnd
0
BLOCK
5
184
100
AcDbEntity
8
0
100
AcDbBlockBegin
2
*D4
70
1
10
0
20
0
30
0
3
*D4
0
LINE
5
186
100
AcDbEntity
8
0
62
256
6
ByLayer
370
-2
48
1
60
0
100
AcDbLine
10
51
20
-7.5875
30
0
11
51
21
-33.675
31
0
39
0
210
0
220
0
230
1
0
LINE
5
187
100
AcDbEntity
8
0
62
256
6
ByLayer
370
-2
48
1
60
0
100
AcDbLine
10
0
20
-1.5875
30
0
11
0
21
-33.675
31
0
39
0
210
0
220
0
230
1
0
LINE
5
188
100
AcDbEntity
8
0
62
256
6
ByLayer
370
-2
48
1
60
0
100
AcDbLine
10
47.825
20
-30.5
30
0
11
3.175
21
-30.5
31
0
39
0
210
0
220
0
230
1
0
SOLID
5
189
100
AcDbEntity
8
0
62
256
6
ByLayer
370
-1
48
1
60
0
100
AcDbTrace
10
47.825
20
-31.029167
30
0
11
47.825
21
-29.970833
31
0
12
51
22
-30.5
32
0
13
51
23
-30.5
33
0
39
0
210
0
220
0
230
1
0
SOLID
5
18A
100
AcDbEntity
8
0
62
256
6
ByLayer
370
-1
48
1
60
0
100
AcDbTrace
10
3.175
20
-29.970833
30
0
11
3.175
21
-31.029167
31
0
12
0
22
-30.5
32
0
13
0
23
-30.5
33
0
39
0
210
0
220
0
230
1
0
MTEXT
5
18B
100
AcDbEntity
8
0
62
256
6
ByLayer
370
18
48
1
60
0
100
AcDbMText
10
25.5
20
-21.10625
30
0
210
0
220
0
230
1
1
\A1;51
40
4.5
41
0
44
1
50
0
71
5
72
5
7
iso_b_vert
0
POINT
5
18C
100
AcDbEntity
8
Defpoints
62
0
6
ByLayer
370
-1
48
1
60
0
100
AcDbPoint
10
51
20
-6
30
0
39
0
210
0
220
0
230
1
50
360
0
POINT
5
18D
100
AcDbEntity
8
Defpoints
62
0
6
ByLayer
370
-1
48
1
60
0
100
AcDbPoint
10
0
20
0
30
0
39
0
210
0
220
0
230
1
50
360
0
POINT
5
18E
100
AcDbEntity
8
Defpoints
62
0
6
ByLayer
370
-1
48
1
60
0
100
AcDbPoint
10
0
20
-30.5
30
0
39
0
210
0
220
0
230
1
50
360
0
ENDBLK
5
185
100
AcDbEntity
8
0
100
AcDbBlockEnd
0
BLOCK
5
19A
100
AcDbEntity
8
0
100
AcDbBlockBegin
2
_U1
70
0
10
0
20
0
30
0
3
_U1
0
MTEXT
5
190
100
AcDbEntity
8
SK2
62
256
6
ByLayer
370
18
48
1
60
0
100
AcDbMText
10
23.178073
20
-29.172328
30
0
210
0
220
0
230
1
1
\W0.7621;51
40
4.5
41
0
44
1.084337
50
0
71
7
72
5
7
iso_b_vert
0
LINE
5
191
100
AcDbEntity
8
SK2
62
256
6
ByLayer
370
13
48
1
60
0
100
AcDbLine
10
51
20
-7.5875
30
0
11
51
21
-33.675
31
0
39
0
210
0
220
0
230
1
0
LINE
5
192
100
AcDbEntity
8
SK2
62
256
6
ByLayer
370
13
48
1
60
0
100
AcDbLine
10
0
20
-1.5875
30
0
11
0
21
-33.675
31
0
39
0
210
0
220
0
230
1
0
LINE
5
193
100
AcDbEntity
8
SK2
62
256
6
ByLayer
370
13
48
1
60
0
100
AcDbLine
10
51
20
-30.5
30
0
11
0
21
-30.5
31
0
39
0
210
0
220
0
230
1
0
LINE
5
194
100
AcDbEntity
8
SK2
62
256
6
ByLayer
370
13
48
1
60
0
100
AcDbLine
10
51
20
-30.5
30
0
11
47.825002
21
-30.917997
31
0
39
0
210
0
220
0
230
1
0
LINE
5
195
100
AcDbEntity
8
SK2
62
256
6
ByLayer
370
13
48
1
60
0
100
AcDbLine
10
51
20
-30.5
30
0
11
47.824998
21
-30.082003
31
0
39
0
210
0
220
0
230
1
0
LINE
5
196
100
AcDbEntity
8
SK2
62
256
6
ByLayer
370
13
48
1
60
0
100
AcDbLine
10
47.825002
20
-30.917997
30
0
11
47.824998
21
-30.082003
31
0
39
0
210
0
220
0
230
1
0
LINE
5
197
100
AcDbEntity
8
SK2
62
256
6
ByLayer
370
13
48
1
60
0
100
AcDbLine
10
0
20
-30.5
30
0
11
3.174998
21
-30.082003
31
0
39
0
210
0
220
0
230
1
0
LINE
5
198
100
AcDbEntity
8
SK2
62
256
6
ByLayer
370
13
48
1
60
0
100
AcDbLine
10
0
20
-30.5
30
0
11
3.175002
21
-30.917997
31
0
39
0
210
0
220
0
230
1
0
LINE
5
199
100
AcDbEntity
8
SK2
62
256
6
ByLayer
370
13
48
1
60
0
100
AcDbLine
10
3.174998
20
-30.082003
30
0
11
3.175002
21
-30.917997
31
0
39
0
210
0
220
0
230
1
0
ENDBLK
5
19B
100
AcDbEntity
8
0
100
AcDbBlockEnd
0
BLOCK
5
1A0
100
AcDbEntity
8
0
100
AcDbBlockBegin
2
*D6
70
1
10
0
20
0
30
0
3
*D6
0
LINE
5
1A2
100
AcDbEntity
8
0
62
256
6
ByLayer
370
-2
48
1
60
0
100
AcDbLine
10
-49
20
9.5875
30
0
11
-49
21
29.675
31
0
39
0
210
0
220
0
230
1
0
LINE
5
1A3
100
AcDbEntity
8
0
62
256
6
ByLayer
370
-2
48
1
60
0
100
AcDbLine
10
51
20
7.5875
30
0
11
51
21
29.675
31
0
39
0
210
0
220
0
230
1
0
LINE
5
1A4
100
AcDbEntity
8
0
62
256
6
ByLayer
370
-2
48
1
60
0
100
AcDbLine
10
-45.825
20
26.5
30
0
11
47.825
21
26.5
31
0
39
0
210
0
220
0
230
1
0
SOLID
5
1A5
100
AcDbEntity
8
0
62
256
6
ByLayer
370
-1
48
1
60
0
100
AcDbTrace
10
-45.825
20
27.029167
30
0
11
-45.825
21
25.970833
31
0
12
-49
22
26.5
32
0
13
-49
23
26.5
33
0
39
0
210
0
220
0
230
1
0
SOLID
5
1A6
100
AcDbEntity
8
0
62
256
6
ByLayer
370
-1
48
1
60
0
100
AcDbTrace
10
47.825
20
25.970833
30
0
11
47.825
21
27.029167
31
0
12
51
22
26.5
32
0
13
51
23
26.5
33
0
39
0
210
0
220
0
230
1
0
MTEXT
5
1A7
100
AcDbEntity
8
0
62
256
6
ByLayer
370
18
48
1
60
0
100
AcDbMText
10
1
20
35.89375
30
0
210
0
220
0
230
1
1
\A1;100
40
4.5
41
0
44
1
50
0
71
5
72
5
7
iso_b_vert
0
POINT
5
1A8
100
AcDbEntity
8
Defpoints
62
0
6
ByLayer
370
-1
48
1
60
0
100
AcDbPoint
10
-49
20
8
30
0
39
0
210
0
220
0
230
1
50
360
0
POINT
5
1A9
100
AcDbEntity
8
Defpoints
62
0
6
ByLayer
370
-1
48
1
60
0
100
AcDbPoint
10
51
20
6
30
0
39
0
210
0
220
0
230
1
50
360
0
POINT
5
1AA
100
AcDbEntity
8
Defpoints
62
0
6
ByLayer
370
-1
48
1
60
0
100
AcDbPoint
10
51
20
26.5
30
0
39
0
210
0
220
0
230
1
50
360
0
ENDBLK
5
1A1
100
AcDbEntity
8
0
100
AcDbBlockEnd
0
BLOCK
5
1B6
100
AcDbEntity
8
0
100
AcDbBlockBegin
2
_U2
70
0
10
0
20
0
30
0
3
_U2
0
MTEXT
5
1AC
100
AcDbEntity
8
2
62
256
6
ByLayer
370
18
48
1
60
0
100
AcDbMText
10
-3.305209
20
27.827672
30
0
210
0
220
0
230
1
1
\W0.7426;100
40
4.5
41
0
44
1.084337
50
0
71
7
72
5
7
iso_b_vert
0
LINE
5
1AD
100
AcDbEntity
8
2
62
256
6
ByLayer
370
13
48
1
60
0
100
AcDbLine
10
-49
20
9.5875
30
0
11
-49
21
29.675
31
0
39
0
210
0
220
0
230
1
0
LINE
5
1AE
100
AcDbEntity
8
2
62
256
6
ByLayer
370
13
48
1
60
0
100
AcDbLine
10
51
20
7.5875
30
0
11
51
21
29.675
31
0
39
0
210
0
220
0
230
1
0
LINE
5
1AF
100
AcDbEntity
8
2
62
256
6
ByLayer
370
13
48
1
60
0
100
AcDbLine
10
-49
20
26.5
30
0
11
51
21
26.5
31
0
39
0
210
0
220
0
230
1
0
LINE
5
1B0
100
AcDbEntity
8
2
62
256
6
ByLayer
370
13
48
1
60
0
100
AcDbLine
10
-49
20
26.5
30
0
11
-45.825002
21
26.917997
31
0
39
0
210
0
220
0
230
1
0
LINE
5
1B1
100
AcDbEntity
8
2
62
256
6
ByLayer
370
13
48
1
60
0
100
AcDbLine
10
-49
20
26.5
30
0
11
-45.824998
21
26.082003
31
0
39
0
210
0
220
0
230
1
0
LINE
5
1B2
100
AcDbEntity
8
2
62
256
6
ByLayer
370
13
48
1
60
0
100
AcDbLine
10
-45.825002
20
26.917997
30
0
11
-45.824998
21
26.082003
31
0
39
0
210
0
220
0
230
1
0
LINE
5
1B3
100
AcDbEntity
8
2
62
256
6
ByLayer
370
13
48
1
60
0
100
AcDbLine
10
51
20
26.5
30
0
11
47.825002
21
26.082003
31
0
39
0
210
0
220
0
230
1
0
LINE
5
1B4
100
AcDbEntity
8
2
62
256
6
ByLayer
370
13
48
1
60
0
100
AcDbLine
10
51
20
26.5
30
0
11
47.824998
21
26.917997
31
0
39
0
210
0
220
0
230
1
0
LINE
5
1B5
100
AcDbEntity
8
2
62
256
6
ByLayer
370
13
48
1
60
0
100
AcDbLine
10
47.825002
20
26.082003
30
0
11
47.824998
21
26.917997
31
0
39
0
210
0
220
0
230
1
0
ENDBLK
5
1B7
100
AcDbEntity
8
0
100
AcDbBlockEnd
0
BLOCK
5
1BC
100
AcDbEntity
8
0
100
AcDbBlockBegin
2
*D8
70
1
10
0
20
0
30
0
3
*D8
0
LINE
5
1BE
100
AcDbEntity
8
0
62
256
6
ByLayer
370
-2
48
1
60
0
100
AcDbLine
10
-49
20
9.5875
30
0
11
-49
21
19.675
31
0
39
0
210
0
220
0
230
1
0
LINE
5
1BF
100
AcDbEntity
8
0
62
256
6
ByLayer
370
-2
48
1
60
0
100
AcDbLine
10
43.06
20
9.6575
30
0
11
43.06
21
19.675
31
0
39
0
210
0
220
0
230
1
0
LINE
5
1C0
100
AcDbEntity
8
0
62
256
6
ByLayer
370
-2
48
1
60
0
100
AcDbLine
10
-45.825
20
16.5
30
0
11
39.885
21
16.5
31
0
39
0
210
0
220
0
230
1
0
SOLID
5
1C1
100
AcDbEntity
8
0
62
256
6
ByLayer
370
-1
48
1
60
0
100
AcDbTrace
10
-45.825
20
17.029167
30
0
11
-45.825
21
15.970833
31
0
12
-49
22
16.5
32
0
13
-49
23
16.5
33
0
39
0
210
0
220
0
230
1
0
SOLID
5
1C2
100
AcDbEntity
8
0
62
256
6
ByLayer
370
-1
48
1
60
0
100
AcDbTrace
10
39.885
20
15.970833
30
0
11
39.885
21
17.029167
31
0
12
43.06
22
16.5
32
0
13
43.06
23
16.5
33
0
39
0
210
0
220
0
230
1
0
MTEXT
5
1C3
100
AcDbEntity
8
0
62
256
6
ByLayer
370
18
48
1
60
0
100
AcDbMText
10
-2.97
20
25.89375
30
0
210
0
220
0
230
1
1
\A1;92.06
40
4.5
41
0
44
1
50
0
71
5
72
5
7
iso_b_vert
0
POINT
5
1C4
100
AcDbEntity
8
Defpoints
62
0
6
ByLayer
370
-1
48
1
60
0
100
AcDbPoint
10
-49
20
8
30
0
39
0
210
0
220
0
230
1
50
360
0
POINT
5
1C5
100
AcDbEntity
8
Defpoints
62
0
6
ByLayer
370
-1
48
1
60
0
100
AcDbPoint
10
43.06
20
8.07
30
0
39
0
210
0
220
0
230
1
50
360
0
POINT
5
1C6
100
AcDbEntity
8
Defpoints
62
0
6
ByLayer
370
-1
48
1
60
0
100
AcDbPoint
10
43.06
20
16.5
30
0
39
0
210
0
220
0
230
1
50
360
0
ENDBLK
5
1BD
100
AcDbEntity
8
0
100
AcDbBlockEnd
0
BLOCK
5
1D2
100
AcDbEntity
8
0
100
AcDbBlockBegin
2
_U3
70
0
10
0
20
0
30
0
3
_U3
0
MTEXT
5
1C8
100
AcDbEntity
8
SK2
62
256
6
ByLayer
370
18
48
1
60
0
100
AcDbMText
10
-10.972172
20
17.827672
30
0
210
0
220
0
230
1
1
\W0.8825;92.06
40
4.5
41
0
44
1.084337
50
0
71
7
72
5
7
iso_b_vert
0
LINE
5
1C9
100
AcDbEntity
8
SK2
62
256
6
ByLayer
370
13
48
1
60
0
100
AcDbLine
10
-49
20
9.5875
30
0
11
-49
21
19.675
31
0
39
0
210
0
220
0
230
1
0
LINE
5
1CA
100
AcDbEntity
8
SK2
62
256
6
ByLayer
370
13
48
1
60
0
100
AcDbLine
10
43.06
20
9.6575
30
0
11
43.06
21
19.675
31
0
39
0
210
0
220
0
230
1
0
LINE
5
1CB
100
AcDbEntity
8
SK2
62
256
6
ByLayer
370
13
48
1
60
0
100
AcDbLine
10
-49
20
16.5
30
0
11
43.06
21
16.5
31
0
39
0
210
0
220
0
230
1
0
LINE
5
1CC
100
AcDbEntity
8
SK2
62
256
6
ByLayer
370
13
48
1
60
0
100
AcDbLine
10
-49
20
16.5
30
0
11
-45.825002
21
16.917997
31
0
39
0
210
0
220
0
230
1
0
LINE
5
1CD
100
AcDbEntity
8
SK2
62
256
6
ByLayer
370
13
48
1
60
0
100
AcDbLine
10
-49
20
16.5
30
0
11
-45.824998
21
16.082003
31
0
39
0
210
0
220
0
230
1
0
LINE
5
1CE
100
AcDbEntity
8
SK2
62
256
6
ByLayer
370
13
48
1
60
0
100
AcDbLine
10
-45.825002
20
16.917997
30
0
11
-45.824998
21
16.082003
31
0
39
0
210
0
220
0
230
1
0
LINE
5
1CF
100
AcDbEntity
8
SK2
62
256
6
ByLayer
370
13
48
1
60
0
100
AcDbLine
10
43.06
20
16.5
30
0
11
39.885002
21
16.082003
31
0
39
0
210
0
220
0
230
1
0
LINE
5
1D0
100
AcDbEntity
8
SK2
62
256
6
ByLayer
370
13
48
1
60
0
100
AcDbLine
10
43.06
20
16.5
30
0
11
39.884998
21
16.917997
31
0
39
0
210
0
220
0
230
1
0
LINE
5
1D1
100
AcDbEntity
8
SK2
62
256
6
ByLayer
370
13
48
1
60
0
100
AcDbLine
10
39.885002
20
16.082003
30
0
11
39.884998
21
16.917997
31
0
39
0
210
0
220
0
230
1
0
ENDBLK
5
1D3
100
AcDbEntity
8
0
100
AcDbBlockEnd
0
BLOCK
5
1D8
100
AcDbEntity
8
0
100
AcDbBlockBegin
2
*D10
70
1
10
0
20
0
30
0
3
*D10
0
LINE
5
1DA
100
AcDbEntity
8
0
62
256
6
ByLayer
370
-2
48
1
60
0
100
AcDbLine
10
44.6475
20
-8.07
30
0
11
89.925
21
-8.07
31
0
39
0
210
0
220
0
230
1
0
LINE
5
1DB
100
AcDbEntity
8
0
62
256
6
ByLayer
370
-2
48
1
60
0
100
AcDbLine
10
44.6475
20
8.07
30
0
11
89.925
21
8.07
31
0
39
0
210
0
220
0
230
1
0
LINE
5
1DC
100
AcDbEntity
8
0
62
256
6
ByLayer
370
-2
48
1
60
0
100
AcDbLine
10
86.75
20
8.07
30
0
11
86.75
21
46.960848
31
0
39
0
210
0
220
0
230
1
0
LINE
5
1DD
100
AcDbEntity
8
0
62
256
6
ByLayer
370
-2
48
1
60
0
100
AcDbLine
10
86.75
20
-11.245
30
0
11
86.75
21
-14.42
31
0
39
0
210
0
220
0
230
1
0
LINE
5
1DE
100
AcDbEntity
8
0
62
256
6
ByLayer
370
-2
48
1
60
0
100
AcDbLine
10
86.75
20
11.245
30
0
11
86.75
21
14.42
31
0
39
0
210
0
220
0
230
1
0
SOLID
5
1DF
100
AcDbEntity
8
0
62
256
6
ByLayer
370
-1
48
1
60
0
100
AcDbTrace
10
87.279167
20
-11.245
30
0
11
86.220833
21
-11.245
31
0
12
86.75
22
-8.07
32
0
13
86.75
23
-8.07
33
0
39
0
210
0
220
0
230
1
0
SOLID
5
1E0
100
AcDbEntity
8
0
62
256
6
ByLayer
370
-1
48
1
60
0
100
AcDbTrace
10
86.220833
20
11.245
30
0
11
87.279167
21
11.245
31
0
12
86.75
22
8.07
32
0
13
86.75
23
8.07
33
0
39
0
210
0
220
0
230
1
0
MTEXT
5
1E1
100
AcDbEntity
8
0
62
256
6
ByLayer
370
18
48
1
60
0
100
AcDbMText
10
77.35625
20
31.031384
30
0
210
0
220
0
230
1
1
\A1;16.14
40
4.5
41
0
44
1
50
90
71
5
72
5
7
iso_b_vert
0
POINT
5
1E2
100
AcDbEntity
8
Defpoints
62
0
6
ByLayer
370
-1
48
1
60
0
100
AcDbPoint
10
43.06
20
-8.07
30
0
39
0
210
0
220
0
230
1
50
360
0
POINT
5
1E3
100
AcDbEntity
8
Defpoints
62
0
6
ByLayer
370
-1
48
1
60
0
100
AcDbPoint
10
43.06
20
8.07
30
0
39
0
210
0
220
0
230
1
50
360
0
POINT
5
1E4
100
AcDbEntity
8
Defpoints
62
0
6
ByLayer
370
-1
48
1
60
0
100
AcDbPoint
10
86.75
20
8.07
30
0
39
0
210
0
220
0
230
1
50
360
0
ENDBLK
5
1D9
100
AcDbEntity
8
0
100
AcDbBlockEnd
0
BLOCK
5
1F1
100
AcDbEntity
8
0
100
AcDbBlockBegin
2
_U4
70
0
10
0
20
0
30
0
3
_U4
0
MTEXT
5
1E6
100
AcDbEntity
8
SK2
62
256
6
ByLayer
370
18
48
1
60
0
100
AcDbMText
10
84.668154
20
19.325375
30
0
210
0
220
0
230
1
1
%%c
40
3.175
41
0
44
1.084337
50
90
71
7
72
5
7
iso_b_vert
0
MTEXT
5
1E7
100
AcDbEntity
8
SK2
62
256
6
ByLayer
370
18
48
1
60
0
100
AcDbMText
10
85.069578
20
28.91
30
0
210
0
220
0
230
1
1
\W0.7495;16.14
40
4.5
41
0
44
1.084337
50
90
71
7
72
5
7
iso_b_vert
0
LINE
5
1E8
100
AcDbEntity
8
SK2
62
256
6
ByLayer
370
13
48
1
60
0
100
AcDbLine
10
44.6475
20
-8.07
30
0
11
89.925
21
-8.07
31
0
39
0
210
0
220
0
230
1
0
LINE
5
1E9
100
AcDbEntity
8
SK2
62
256
6
ByLayer
370
13
48
1
60
0
100
AcDbLine
10
44.6475
20
8.07
30
0
11
89.925
21
8.07
31
0
39
0
210
0
220
0
230
1
0
LINE
5
1EA
100
AcDbEntity
8
SK2
62
256
6
ByLayer
370
13
48
1
60
0
100
AcDbLine
10
86.75
20
-8.07
30
0
11
86.75
21
42.880268
31
0
39
0
210
0
220
0
230
1
0
LINE
5
1EB
100
AcDbEntity
8
SK2
62
256
6
ByLayer
370
13
48
1
60
0
100
AcDbLine
10
86.75
20
-8.07
30
0
11
86.332003
21
-4.895002
31
0
39
0
210
0
220
0
230
1
0
LINE
5
1EC
100
AcDbEntity
8
SK2
62
256
6
ByLayer
370
13
48
1
60
0
100
AcDbLine
10
86.75
20
-8.07
30
0
11
87.167997
21
-4.894998
31
0
39
0
210
0
220
0
230
1
0
LINE
5
1ED
100
AcDbEntity
8
SK2
62
256
6
ByLayer
370
13
48
1
60
0
100
AcDbLine
10
86.332003
20
-4.895002
30
0
11
87.167997
21
-4.894998
31
0
39
0
210
0
220
0
230
1
0
LINE
5
1EE
100
AcDbEntity
8
SK2
62
256
6
ByLayer
370
13
48
1
60
0
100
AcDbLine
10
86.75
20
8.07
30
0
11
87.167997
21
4.895002
31
0
39
0
210
0
220
0
230
1
0
LINE
5
1EF
100
AcDbEntity
8
SK2
62
256
6
ByLayer
370
13
48
1
60
0
100
AcDbLine
10
86.75
20
8.07
30
0
11
86.332003
21
4.894998
31
0
39
0
210
0
220
0
230
1
0
LINE
5
1F0
100
AcDbEntity
8
SK2
62
256
6
ByLayer
370
13
48
1
60
0
100
AcDbLine
10
87.167997
20
4.895002
30
0
11
86.332003
21
4.894998
31
0
39
0
210
0
220
0
230
1
0
ENDBLK
5
1F2
100
AcDbEntity
8
0
100
AcDbBlockEnd
0
BLOCK
5
1F7
100
AcDbEntity
8
0
100
AcDbBlockBegin
2
*D12
70
1
10
0
20
0
30
0
3
*D12
0
LINE
5
1F9
100
AcDbEntity
8
0
62
256
6
ByLayer
370
-2
48
1
60
0
100
AcDbLine
10
-50.5875
20
8
30
0
11
-77.278125
21
8
31
0
39
0
210
0
220
0
230
1
0
LINE
5
1FA
100
AcDbEntity
8
0
62
256
6
ByLayer
370
-2
48
1
60
0
100
AcDbLine
10
-50.5875
20
-8
30
0
11
-77.278125
21
-8
31
0
39
0
210
0
220
0
230
1
0
LINE
5
1FB
100
AcDbEntity
8
0
62
256
6
ByLayer
370
-2
48
1
60
0
100
AcDbLine
10
-74.103125
20
8
30
0
11
-74.103125
21
36.900605
31
0
39
0
210
0
220
0
230
1
0
LINE
5
1FC
100
AcDbEntity
8
0
62
256
6
ByLayer
370
-2
48
1
60
0
100
AcDbLine
10
-74.103125
20
11.175
30
0
11
-74.103125
21
14.35
31
0
39
0
210
0
220
0
230
1
0
LINE
5
1FD
100
AcDbEntity
8
0
62
256
6
ByLayer
370
-2
48
1
60
0
100
AcDbLine
10
-74.103125
20
-11.175
30
0
11
-74.103125
21
-14.35
31
0
39
0
210
0
220
0
230
1
0
SOLID
5
1FE
100
AcDbEntity
8
0
62
256
6
ByLayer
370
-1
48
1
60
0
100
AcDbTrace
10
-74.632292
20
11.175
30
0
11
-73.573958
21
11.175
31
0
12
-74.103125
22
8
32
0
13
-74.103125
23
8
33
0
39
0
210
0
220
0
230
1
0
SOLID
5
1FF
100
AcDbEntity
8
0
62
256
6
ByLayer
370
-1
48
1
60
0
100
AcDbTrace
10
-73.573958
20
-11.175
30
0
11
-74.632292
21
-11.175
31
0
12
-74.103125
22
-8
32
0
13
-74.103125
23
-8
33
0
39
0
210
0
220
0
230
1
0
MTEXT
5
200
100
AcDbEntity
8
0
62
256
6
ByLayer
370
18
48
1
60
0
100
AcDbMText
10
-83.496875
20
26.435427
30
0
210
0
220
0
230
1
1
\A1;16
40
4.5
41
0
44
1
50
90
71
5
72
5
7
iso_b_vert
0
POINT
5
201
100
AcDbEntity
8
Defpoints
62
0
6
ByLayer
370
-1
48
1
60
0
100
AcDbPoint
10
-49
20
8
30
0
39
0
210
0
220
0
230
1
50
360
0
POINT
5
202
100
AcDbEntity
8
Defpoints
62
0
6
ByLayer
370
-1
48
1
60
0
100
AcDbPoint
10
-49
20
-8
30
0
39
0
210
0
220
0
230
1
50
360
0
POINT
5
203
100
AcDbEntity
8
Defpoints
62
0
6
ByLayer
370
-1
48
1
60
0
100
AcDbPoint
10
-74.103125
20
-8
30
0
39
0
210
0
220
0
230
1
50
360
0
ENDBLK
5
1F8
100
AcDbEntity
8
0
100
AcDbBlockEnd
0
BLOCK
5
210
100
AcDbEntity
8
0
100
AcDbBlockBegin
2
_U5
70
0
10
0
20
0
30
0
3
_U5
0
MTEXT
5
205
100
AcDbEntity
8
SK2
62
256
6
ByLayer
370
18
48
1
60
0
100
AcDbMText
10
-76.184971
20
19.255375
30
0
210
0
220
0
230
1
1
%%c
40
3.175
41
0
44
1.084337
50
90
71
7
72
5
7
iso_b_vert
0
MTEXT
5
206
100
AcDbEntity
8
SK2
62
256
6
ByLayer
370
18
48
1
60
0
100
AcDbMText
10
-75.783547
20
28.84
30
0
210
0
220
0
230
1
1
\W0.6385;16
40
4.5
41
0
44
1.084337
50
90
71
7
72
5
7
iso_b_vert
0
LINE
5
207
100
AcDbEntity
8
SK2
62
256
6
ByLayer
370
13
48
1
60
0
100
AcDbLine
10
-50.5875
20
8
30
0
11
-77.278125
21
8
31
0
39
0
210
0
220
0
230
1
0
LINE
5
208
100
AcDbEntity
8
SK2
62
256
6
ByLayer
370
13
48
1
60
0
100
AcDbLine
10
-50.5875
20
-8
30
0
11
-77.278125
21
-8
31
0
39
0
210
0
220
0
230
1
0
LINE
5
209
100
AcDbEntity
8
SK2
62
256
6
ByLayer
370
13
48
1
60
0
100
AcDbLine
10
-74.103125
20
-8
30
0
11
-74.103125
21
33.758353
31
0
39
0
210
0
220
0
230
1
0
LINE
5
20A
100
AcDbEntity
8
SK2
62
256
6
ByLayer
370
13
48
1
60
0
100
AcDbLine
10
-74.103125
20
8
30
0
11
-73.685128
21
4.825002
31
0
39
0
210
0
220
0
230
1
0
LINE
5
20B
100
AcDbEntity
8
SK2
62
256
6
ByLayer
370
13
48
1
60
0
100
AcDbLine
10
-74.103125
20
8
30
0
11
-74.521122
21
4.824998
31
0
39
0
210
0
220
0
230
1
0
LINE
5
20C
100
AcDbEntity
8
SK2
62
256
6
ByLayer
370
13
48
1
60
0
100
AcDbLine
10
-73.685128
20
4.825002
30
0
11
-74.521122
21
4.824998
31
0
39
0
210
0
220
0
230
1
0
LINE
5
20D
100
AcDbEntity
8
SK2
62
256
6
ByLayer
370
13
48
1
60
0
100
AcDbLine
10
-74.103125
20
-8
30
0
11
-74.521122
21
-4.825002
31
0
39
0
210
0
220
0
230
1
0
LINE
5
20E
100
AcDbEntity
8
SK2
62
256
6
ByLayer
370
13
48
1
60
0
100
AcDbLine
10
-74.103125
20
-8
30
0
11
-73.685128
21
-4.824998
31
0
39
0
210
0
220
0
230
1
0
LINE
5
20F
100
AcDbEntity
8
SK2
62
256
6
ByLayer
370
13
48
1
60
0
100
AcDbLine
10
-74.521122
20
-4.825002
30
0
11
-73.685128
21
-4.824998
31
0
39
0
210
0
220
0
230
1
0
ENDBLK
5
211
100
AcDbEntity
8
0
100
AcDbBlockEnd
0
ENDSEC
0
SECTION
2
ENTITIES
0
ARC
5
C7
100
AcDbEntity
8
1
62
256
6
ByLayer
370
13
48
1
60
0
100
AcDbCircle
39
0
10
34.020029
20
-7.489354
30
0
40
1
210
0
220
0
230
1
100
AcDbArc
50
82.874984
51
90
0
ARC
5
C8
100
AcDbEntity
8
1
62
256
6
ByLayer
370
13
48
1
60
0
100
AcDbCircle
39
0
10
34.020029
20
7.489354
30
0
40
1
210
0
220
0
230
1
100
AcDbArc
50
270
51
277.125016
0
ARC
5
C9
100
AcDbEntity
8
1
62
256
6
ByLayer
370
13
48
1
60
0
100
AcDbCircle
39
0
10
1.715003
20
-6.989354
30
0
40
0.5
210
0
220
0
230
1
100
AcDbArc
50
90
51
135
0
ARC
5
CA
100
AcDbEntity
8
1
62
256
6
ByLayer
370
13
48
1
60
0
100
AcDbCircle
39
0
10
1.715003
20
6.989354
30
0
40
0.5
210
0
220
0
230
1
100
AcDbArc
50
225
51
270
0
ARC
5
CB
100
AcDbEntity
8
SK2
62
256
6
ByLayer
370
13
48
1
60
0
100
AcDbCircle
39
0
10
51
20
6
30
0
40
12.0784076436792
210
0
220
0
230
1
100
AcDbArc
50
90
51
165
0
ELLIPSE
5
CC
100
AcDbEntity
8
1
62
256
6
ByLayer
370
18
48
1
60
0
100
AcDbEllipse
10
45.756045
20
2.784372
30
0
11
0.748244328016212
21
-1.04965724314729
31
0
210
0
220
0
230
1
40
0.990737
41
-0.873907354592071
42
0.173290196604538
0
ELLIPSE
5
CD
100
AcDbEntity
8
1
62
256
6
ByLayer
370
18
48
1
60
0
100
AcDbEllipse
10
45.756045
20
2.784372
30
0
11
0.748244328016212
21
-1.04965724314729
31
0
210
0
220
0
230
1
40
0.990737
41
0.173290196604538
42
1.22048774780113
0
ELLIPSE
5
CE
100
AcDbEntity
8
1
62
256
6
ByLayer
370
18
48
1
60
0
100
AcDbEllipse
10
45.756045
20
2.784372
30
0
11
0.748244328016212
21
-1.04965724314729
31
0
210
0
220
0
230
1
40
0.990737
41
-2.96830245698528
42
-1.92110490578868
0
ELLIPSE
5
CF
100
AcDbEntity
8
1
62
256
6
ByLayer
370
18
48
1
60
0
100
AcDbEllipse
10
45.756045
20
2.784372
30
0
11
0.748244328016212
21
-1.04965724314729
31
0
210
0
220
0
230
1
40
0.990737
41
-1.92110490578868
42
-0.873907354592071
0
ELLIPSE
5
D0
100
AcDbEntity
8
1
62
256
6
ByLayer
370
18
48
1
60
0
100
AcDbEllipse
10
45.756045
20
2.784372
30
0
11
0.748244328016212
21
-1.04965724314729
31
0
210
0
220
0
230
1
40
0.990737
41
1.22048774780113
42
2.26768529899771
0
ELLIPSE
5
D1
100
AcDbEntity
8
1
62
256
6
ByLayer
370
18
48
1
60
0
100
AcDbEllipse
10
45.756045
20
2.784372
30
0
11
0.748244328016212
21
-1.04965724314729
31
0
210
0
220
0
230
1
40
0.990737
41
2.26768529899771
42
-2.96830245698528
0
ELLIPSE
5
D2
100
AcDbEntity
8
1
62
256
6
ByLayer
370
18
48
1
60
0
100
AcDbEllipse
10
45.617828
20
2.685844
30
0
11
-0.577211248422732
21
0.809727444696221
31
0
210
0
220
0
230
1
40
0.990737
41
-1.39750613019039
42
-0.350308578993776
0
ELLIPSE
5
D3
100
AcDbEntity
8
1
62
256
6
ByLayer
370
18
48
1
60
0
100
AcDbEllipse
10
46.410826
20
3.492883
30
0
11
0.214763176381602
21
-0.212773788051706
31
0
210
0
220
0
230
1
40
0.482855
41
-2.85569060171118
42
-1.5688059411447
0
ELLIPSE
5
D4
100
AcDbEntity
8
1
62
256
6
ByLayer
370
18
48
1
60
0
100
AcDbEllipse
10
46.717194
20
2.394345
30
0
11
0.0735831422129167
21
0.291619765006078
31
0
210
0
220
0
230
1
40
0.487869
41
0.278046459783022
42
1.56493112034475
0
ELLIPSE
5
D5
100
AcDbEntity
8
1
62
256
6
ByLayer
370
18
48
1
60
0
100
AcDbEllipse
10
46.717194
20
2.394345
30
0
11
0.0735831422114639
21
0.291619765004869
31
0
210
0
220
0
230
1
40
0.487869
41
1.56493112033626
42
2.85181578090257
0
ELLIPSE
5
D6
100
AcDbEntity
8
1
62
256
6
ByLayer
370
18
48
1
60
0
100
AcDbEllipse
10
45.31146
20
3.784383
30
0
11
0.289534595985551
21
0.0782873064988015
31
0
210
0
220
0
230
1
40
0.490566
41
-2.85380510981023
42
-1.5669204492485
0
ELLIPSE
5
D7
100
AcDbEntity
8
1
62
256
6
ByLayer
370
18
48
1
60
0
100
AcDbEllipse
10
45.617828
20
2.685844
30
0
11
-0.577211248422732
21
0.809727444696221
31
0
210
0
220
0
230
1
40
0.990737
41
-2.44470368138698
42
-1.39750613019038
0
ELLIPSE
5
D8
100
AcDbEntity
8
1
62
256
6
ByLayer
370
18
48
1
60
0
100
AcDbEllipse
10
46.410826
20
3.492883
30
0
11
0.214763176383417
21
-0.212773788052257
31
0
210
0
220
0
230
1
40
0.482855
41
-1.56880594115127
42
-0.281921280590645
0
ELLIPSE
5
D9
100
AcDbEntity
8
1
62
256
6
ByLayer
370
18
48
1
60
0
100
AcDbEllipse
10
45.756045
20
2.784372
30
0
11
-0.812646568575849
21
1.14000243621753
31
0
210
0
220
0
230
1
40
0.990737
41
0
42
6.28318530717959
0
ELLIPSE
5
DA
100
AcDbEntity
8
1
62
256
6
ByLayer
370
18
48
1
60
0
100
AcDbEllipse
10
45.727033
20
2.76369
30
0
11
-1.21896985286377
21
1.71000365432629
31
0
210
0
220
0
230
1
40
0.990737
41
0
42
6.28318530717959
0
ELLIPSE
5
DB
100
AcDbEntity
8
1
62
256
6
ByLayer
370
18
48
1
60
0
100
AcDbEllipse
10
45.753698
20
2.782699
30
0
11
1.33972869987918
21
-1.87940740881902
31
0
210
0
220
0
230
1
40
0.990737
41
0
42
6.28318530717959
0
ELLIPSE
5
DC
100
AcDbEntity
8
1
62
256
6
ByLayer
370
18
48
1
60
0
100
AcDbEllipse
10
46.710433
20
2.983504
30
0
11
0.0816804022286957
21
-0.290820353465952
31
0
210
0
220
0
230
1
40
0.483636
41
0.449974668404315
42
-2.98450704388025
0
ELLIPSE
5
DD
100
AcDbEntity
8
1
62
256
6
ByLayer
370
18
48
1
60
0
100
AcDbEllipse
10
45.617828
20
2.685844
30
0
11
-0.577211248422732
21
0.809727444696221
31
0
210
0
220
0
230
1
40
0.990737
41
3.01846028664557
42
-2.44470368138698
0
ELLIPSE
5
DE
100
AcDbEntity
8
1
62
256
6
ByLayer
370
18
48
1
60
0
100
AcDbEllipse
10
45.617828
20
2.685844
30
0
11
-0.577211248422732
21
0.809727444696221
31
0
210
0
220
0
230
1
40
0.990737
41
-0.35030857899379
42
0.374188294002695
0
ELLIPSE
5
DF
100
AcDbEntity
8
1
62
256
6
ByLayer
370
18
48
1
60
0
100
AcDbEllipse
10
45.617828
20
2.685844
30
0
11
0.577211248422731
21
-0.809727444696221
31
0
210
0
220
0
230
1
40
0.990737
41
-2.28445000220322
42
-1.66725828921928
0
ELLIPSE
5
E0
100
AcDbEntity
8
1
62
256
6
ByLayer
370
18
48
1
60
0
100
AcDbEllipse
10
45.617828
20
2.685844
30
0
11
-0.577211248422732
21
0.809727444696221
31
0
210
0
220
0
230
1
40
0.990737
41
2.06070008076669
42
2.70093028165652
0
ELLIPSE
5
E1
100
AcDbEntity
8
1
62
256
6
ByLayer
370
18
48
1
60
0
100
AcDbEllipse
10
45.31146
20
3.784383
30
0
11
0.289534595983836
21
0.0782873064994941
31
0
210
0
220
0
230
1
40
0.490566
41
-1.56692044925658
42
-0.868464035838374
0
ELLIPSE
5
E2
100
AcDbEntity
8
1
62
256
6
ByLayer
370
18
48
1
60
0
100
AcDbEllipse
10
45.898796
20
3.786078
30
0
11
0.290970643540504
21
-0.0780356958593735
31
0
210
0
220
0
230
1
40
0.486273
41
-0.155038950994449
42
2.28894262123529
0
ELLIPSE
5
E3
100
AcDbEntity
8
1
62
256
6
ByLayer
370
18
48
1
60
0
100
AcDbEllipse
10
45.924196
20
1.587306
30
0
11
0.289534595985672
21
0.0782873064990443
31
0
210
0
220
0
230
1
40
0.490566
41
2.27312777601479
42
2.8615568649008
0
ELLIPSE
5
E4
100
AcDbEntity
8
1
62
256
6
ByLayer
370
18
48
1
60
0
100
AcDbEllipse
10
46.429464
20
1.88327
30
0
11
0.209825108632253
21
0.213970563576861
31
0
210
0
220
0
230
1
40
0.491381
41
-1.70282697006197
42
0.158825346341895
0
ELLIPSE
5
E5
100
AcDbEntity
8
1
62
256
6
ByLayer
370
18
48
1
60
0
100
AcDbEllipse
10
44.806192
20
3.488418
30
0
11
0.209825108632257
21
0.213970563576856
31
0
210
0
220
0
230
1
40
0.491381
41
-0.162920777252825
42
0.886093100113627
0
ELLIPSE
5
E6
100
AcDbEntity
8
1
62
256
6
ByLayer
370
18
48
1
60
0
100
AcDbEllipse
10
45.645471
20
2.70555
30
0
11
-1.21896985286377
21
1.71000365432629
31
0
210
0
220
0
230
1
40
0.990737
41
0.955892326799535
42
-3.14152970811394
0
ELLIPSE
5
E7
100
AcDbEntity
8
1
62
256
6
ByLayer
370
18
48
1
60
0
100
AcDbEllipse
10
45.645471
20
2.70555
30
0
11
-1.21896985286377
21
1.71000365432629
31
0
210
0
220
0
230
1
40
0.990737
41
0
42
0.955892363939305
0
ELLIPSE
5
E8
100
AcDbEntity
8
1
62
256
6
ByLayer
370
18
48
1
60
0
100
AcDbEllipse
10
45.649415
20
2.708361
30
0
11
-1.24821267322296
21
1.75102626826505
31
0
210
0
220
0
230
1
40
0.990737
41
0.95589216065501
42
-2.57123283703833
0
ELLIPSE
5
E9
100
AcDbEntity
8
1
62
256
6
ByLayer
370
18
48
1
60
0
100
AcDbEllipse
10
45.649415
20
2.708361
30
0
11
-1.24821267322296
21
1.75102626826505
31
0
210
0
220
0
230
1
40
0.990737
41
-0.5703328160849
42
-2.08447610580349E-16
0
ELLIPSE
5
EA
100
AcDbEntity
8
1
62
256
6
ByLayer
370
18
48
1
60
0
100
AcDbEllipse
10
45.649415
20
2.708361
30
0
11
-1.24821267322296
21
1.75102626826505
31
0
210
0
220
0
230
1
40
0.990737
41
0
42
0.955892458520033
0
ELLIPSE
5
EB
100
AcDbEntity
8
1
62
256
6
ByLayer
370
18
48
1
60
0
100
AcDbEllipse
10
45.680511
20
2.730527
30
0
11
-1.31286257385476
21
1.84171888553732
31
0
210
0
220
0
230
1
40
0.990737
41
2.62339093261615
42
-1.98182928214252E-16
0
ELLIPSE
5
EC
100
AcDbEntity
8
1
62
256
6
ByLayer
370
18
48
1
60
0
100
AcDbEllipse
10
45.680511
20
2.730527
30
0
11
-1.31286257385476
21
1.84171888553732
31
0
210
0
220
0
230
1
40
0.990737
41
0
42
0.518229405435727
0
ELLIPSE
5
ED
100
AcDbEntity
8
1
62
256
6
ByLayer
370
13
48
1
60
0
100
AcDbEllipse
10
28.816678
20
0.210587
30
0
11
7.8206452267551
21
2.69035275273831
31
0
210
0
220
0
230
1
40
0.181234
41
-0.436823353977641
42
0.531185006561164
0
ELLIPSE
5
EE
100
AcDbEntity
8
1
62
256
6
ByLayer
370
13
48
1
60
0
100
AcDbEllipse
10
67.030334
20
3.967328
30
0
11
33.4207586294501
21
10.145453561836
31
0
210
0
220
0
230
1
40
0.083954
41
-2.98620468820068
42
-2.90099368210037
0
ELLIPSE
5
EF
100
AcDbEntity
8
1
62
256
6
ByLayer
370
13
48
1
60
0
100
AcDbEllipse
10
48.0885
20
-2.683603
30
0
11
-0.920348743342302
21
-0.272356829053289
31
0
210
0
220
0
230
1
40
0.044574
41
0.200129730648077
42
0.43394509955492
0
ELLIPSE
5
F0
100
AcDbEntity
8
1
62
256
6
ByLayer
370
13
48
1
60
0
100
AcDbEllipse
10
53.859999
20
0
30
0
11
20.4438961549648
21
6.21494515485455
31
0
210
0
220
0
230
1
40
0.091329
41
2.86862223283546
42
-2.92413628370278
0
ELLIPSE
5
F1
100
AcDbEntity
8
1
62
256
6
ByLayer
370
13
48
1
60
0
100
AcDbEllipse
10
67.030334
20
3.967328
30
0
11
33.4207586039645
21
10.1454535535767
31
0
210
0
220
0
230
1
40
0.083954
41
2.50881798012624
42
2.9352443890508
0
ELLIPSE
5
F2
100
AcDbEntity
8
1
62
256
6
ByLayer
370
13
48
1
60
0
100
AcDbEllipse
10
73.100032
20
4.801243
30
0
11
38.4512832010894
21
11.3558415881765
31
0
210
0
220
0
230
1
40
0.011452
41
-3.06378074693133
42
-2.51962029369154
0
ELLIPSE
5
F3
100
AcDbEntity
8
1
62
256
6
ByLayer
370
13
48
1
60
0
100
AcDbEllipse
10
42.05642
20
4.60809
30
0
11
-0.580461834697035
21
0.814287454441091
31
0
210
0
220
0
230
1
40
0.990737
41
-0.376241104695341
42
-0.0685647678446342
0
ELLIPSE
5
F4
100
AcDbEntity
8
1
62
256
6
ByLayer
370
13
48
1
60
0
100
AcDbEllipse
10
41.06175
20
0.761527
30
0
11
-0.870692752045552
21
1.22143118166164
31
0
210
0
220
0
230
1
40
0.990737
41
-0.0885091911946035
42
2.72235584380407
0
ELLIPSE
5
F5
100
AcDbEntity
8
1
62
256
6
ByLayer
370
13
48
1
60
0
100
AcDbEllipse
10
39.173905
20
-5.216753
30
0
11
27.2227460652192
21
8.03937231072747
31
0
210
0
220
0
230
1
40
0.009615
41
-1.46085198400964
42
-1.28630065765563
0
ELLIPSE
5
F6
100
AcDbEntity
8
1
62
256
6
ByLayer
370
13
48
1
60
0
100
AcDbEllipse
10
45.601407
20
9.207275
30
0
11
6.96554201636441
21
-9.7714494532931
31
0
210
0
220
0
230
1
40
0.990737
41
-1.94414303783655
42
-1.66424882183481
0
ELLIPSE
5
F7
100
AcDbEntity
8
1
62
256
6
ByLayer
370
13
48
1
60
0
100
AcDbEllipse
10
48.090482
20
-2.356599
30
0
11
0.570291650517433
21
1.23100804771769
31
0
210
0
220
0
230
1
40
0.628644
41
1.77706597875119
42
2.27001666132852
0
ELLIPSE
5
F8
100
AcDbEntity
8
1
62
256
6
ByLayer
370
13
48
1
60
0
100
AcDbEllipse
10
45.601407
20
9.207275
30
0
11
6.96554201636441
21
-9.7714494532931
31
0
210
0
220
0
230
1
40
0.990737
41
-1.54418365103474
42
-0.687427232293449
0
ELLIPSE
5
F9
100
AcDbEntity
8
1
62
256
6
ByLayer
370
13
48
1
60
0
100
AcDbEllipse
10
42.166994
20
4.686912
30
0
11
0.580461834697034
21
-0.814287454441092
31
0
210
0
220
0
230
1
40
0.990737
41
2.85766562512727
42
-1.46969013276557
0
ELLIPSE
5
FA
100
AcDbEntity
8
1
62
256
6
ByLayer
370
13
48
1
60
0
100
AcDbEllipse
10
40.807432
20
0.580237
30
0
11
-0.772131751111949
21
1.28600643813505
31
0
210
0
220
0
230
1
40
0.604914
41
-0.822971096370442
42
-0.0394907874422719
0
ELLIPSE
5
FB
100
AcDbEntity
8
1
62
256
6
ByLayer
370
13
48
1
60
0
100
AcDbEllipse
10
43.041858
20
8.056049
30
0
11
1.00185359960204
21
-0.759100664248717
31
0
210
0
220
0
230
1
40
0.987157
41
-1.99056492131141
42
-1.65013413532122
0
ELLIPSE
5
FC
100
AcDbEntity
8
1
62
256
6
ByLayer
370
13
48
1
60
0
100
AcDbEllipse
10
48.066663
20
-2.587457
30
0
11
-0.930990741597298
21
-0.311160898012032
31
0
210
0
220
0
230
1
40
0.299477
41
-0.0827179880654364
42
0.253925035419769
0
POINT
5
70
100
AcDbEntity
8
81
62
256
6
ByLayer
370
18
48
1
60
0
100
AcDbPoint
10
51
20
6
30
0
39
0
210
0
220
0
230
1
50
360
0
POINT
5
72
100
AcDbEntity
8
80
62
256
6
ByLayer
370
18
48
1
60
0
100
AcDbPoint
10
0
20
0
30
0
39
0
210
0
220
0
230
1
50
360
0
POINT
5
74
100
AcDbEntity
8
1
62
256
6
ByLayer
370
18
48
1
60
1
100
AcDbPoint
10
51
20
-6
30
0
39
0
210
0
220
0
230
1
50
360
0
POINT
5
76
100
AcDbEntity
8
1
62
256
6
ByLayer
370
18
48
1
60
1
100
AcDbPoint
10
51
20
6
30
0
39
0
210
0
220
0
230
1
50
360
0
POINT
5
77
100
AcDbEntity
8
1
62
256
6
ByLayer
370
18
48
1
60
1
100
AcDbPoint
10
51
20
-6
30
0
39
0
210
0
220
0
230
1
50
360
0
POINT
5
78
100
AcDbEntity
8
1
62
256
6
ByLayer
370
18
48
1
60
1
100
AcDbPoint
10
0
20
0
30
0
39
0
210
0
220
0
230
1
50
360
0
POINT
5
79
100
AcDbEntity
8
1
62
256
6
ByLayer
370
18
48
1
60
1
100
AcDbPoint
10
-49
20
8
30
0
39
0
210
0
220
0
230
1
50
360
0
POINT
5
7A
100
AcDbEntity
8
1
62
256
6
ByLayer
370
18
48
1
60
1
100
AcDbPoint
10
51
20
6
30
0
39
0
210
0
220
0
230
1
50
360
0
POINT
5
7B
100
AcDbEntity
8
1
62
256
6
ByLayer
370
18
48
1
60
1
100
AcDbPoint
10
-49
20
8
30
0
39
0
210
0
220
0
230
1
50
360
0
POINT
5
7C
100
AcDbEntity
8
1
62
256
6
ByLayer
370
18
48
1
60
1
100
AcDbPoint
10
43.06
20
8.07
30
0
39
0
210
0
220
0
230
1
50
360
0
POINT
5
7D
100
AcDbEntity
8
1
62
256
6
ByLayer
370
18
48
1
60
1
100
AcDbPoint
10
43.06
20
-8.07
30
0
39
0
210
0
220
0
230
1
50
360
0
POINT
5
7E
100
AcDbEntity
8
1
62
256
6
ByLayer
370
18
48
1
60
1
100
AcDbPoint
10
43.06
20
8.07
30
0
39
0
210
0
220
0
230
1
50
360
0
POINT
5
7F
100
AcDbEntity
8
1
62
256
6
ByLayer
370
18
48
1
60
1
100
AcDbPoint
10
-49
20
8
30
0
39
0
210
0
220
0
230
1
50
360
0
POINT
5
80
100
AcDbEntity
8
1
62
256
6
ByLayer
370
18
48
1
60
1
100
AcDbPoint
10
-49
20
-8
30
0
39
0
210
0
220
0
230
1
50
360
0
SPLINE
5
FD
100
AcDbEntity
8
1
62
256
6
ByLayer
370
18
48
1
60
0
100
AcDbSpline
70
4
71
3
72
8
73
4
40
0
40
0
40
0
40
0
40
1
40
1
40
1
40
1
41
1
10
44.7454429691942
20
3.35336604022251
30
0
41
1
10
44.7496973681135
20
3.34831282802975
30
0
41
1
10
44.7539527155334
20
3.34325901171479
30
0
41
1
10
44.7582090602041
20
3.33820456084496
30
0
0
SPLINE
5
FE
100
AcDbEntity
8
1
62
256
6
ByLayer
370
18
48
1
60
0
100
AcDbSpline
70
4
71
3
72
8
73
4
40
0
40
0
40
0
40
0
40
1
40
1
40
1
40
1
41
1
10
46.7375611553853
20
3.35709617222221
30
0
41
1
10
46.7307442860439
20
3.35516996617534
30
0
41
1
10
46.723926612276
20
3.35324365110893
30
0
41
1
10
46.7171080935817
20
3.35131722179832
30
0
0
SPLINE
5
FF
100
AcDbEntity
8
1
62
256
6
ByLayer
370
18
48
1
60
0
100
AcDbSpline
70
4
71
3
72
8
73
4
40
0
40
0
40
0
40
0
40
1
40
1
40
1
40
1
41
1
10
46.7498262515363
20
2.20338686315699
30
0
41
1
10
46.7447531282114
20
2.20785645065061
30
0
41
1
10
46.7396794765493
20
2.21232694177837
30
0
41
1
10
46.7346052701072
20
2.21679838287474
30
0
0
SPLINE
5
100
100
AcDbEntity
8
1
62
256
6
ByLayer
370
18
48
1
60
0
100
AcDbSpline
70
4
71
3
72
16
73
12
40
0
40
0
40
0
40
0
40
0.125
40
0.125
40
0.25
40
0.25
40
0.5
40
0.5
40
0.75
40
0.75
40
1
40
1
40
1
40
1
41
1
10
46.8977597972195
20
2.78267446544683
30
0
41
1
10
46.9132046144764
20
2.78250849414607
30
0
41
1
10
46.9285727645677
20
2.78652975040254
30
0
41
1
10
46.955585935602
20
2.80279786516297
30
0
41
1
10
46.9670679164199
20
2.81485453897935
30
0
41
1
10
46.9940314667065
20
2.85594176490059
30
0
41
1
10
47.0029640107226
20
2.88902095994999
30
0
41
1
10
47.0117455337841
20
2.95510365497682
30
0
41
1
10
47.0114858733312
20
2.98881909254371
30
0
41
1
10
47.0049367638536
20
3.05532863248433
30
0
41
1
10
46.9985831535376
20
3.08825554081864
30
0
41
1
10
46.9896091453684
20
3.12043349832271
30
0
0
SPLINE
5
101
100
AcDbEntity
8
1
62
256
6
ByLayer
370
18
48
1
60
0
100
AcDbSpline
70
4
71
3
72
8
73
4
40
0
40
0
40
0
40
0
40
1
40
1
40
1
40
1
41
1
10
45.7353695142142
20
3.932085760755
30
0
41
1
10
45.733216405995
20
3.92539815486489
30
0
41
1
10
45.7310632317681
20
3.91870968607714
30
0
41
1
10
45.7289099886301
20
3.91202031078342
30
0
0
SPLINE
5
102
100
AcDbEntity
8
1
62
256
6
ByLayer
370
18
48
1
60
0
100
AcDbSpline
70
4
71
3
72
8
73
4
40
0
40
0
40
0
40
0
40
1
40
1
40
1
40
1
41
1
10
46.3043851460487
20
3.75943179799793
30
0
41
1
10
46.3063314449224
20
3.76617604502175
30
0
41
1
10
46.3082777093078
20
3.77291937641235
30
0
41
1
10
46.3102239404407
20
3.77966183622019
30
0
0
SPLINE
5
103
100
AcDbEntity
8
1
62
256
6
ByLayer
370
18
48
1
60
0
100
AcDbSpline
70
4
71
3
72
8
73
4
40
0
40
0
40
0
40
0
40
1
40
1
40
1
40
1
41
1
10
46.877479718852
20
2.77627525108372
30
0
41
1
10
46.8842405669631
20
2.77840846888213
30
0
41
1
10
46.8910005797405
20
2.78054153803944
30
0
41
1
10
46.8977597972195
20
2.78267446544683
30
0
0
SPLINE
5
104
100
AcDbEntity
8
1
62
256
6
ByLayer
370
18
48
1
60
0
100
AcDbSpline
70
4
71
3
72
16
73
12
40
0
40
0
40
0
40
0
40
0.125
40
0.125
40
0.25
40
0.25
40
0.5
40
0.5
40
0.75
40
0.75
40
1
40
1
40
1
40
1
41
1
10
46.3351704671441
20
1.7813890809164
30
0
41
1
10
46.3427525431646
20
1.76903695562407
30
0
41
1
10
46.3539114325189
20
1.75880980693367
30
0
41
1
10
46.3814672205878
20
1.74538332949516
30
0
41
1
10
46.3976181718191
20
1.74222172648999
30
0
41
1
10
46.4465674418523
20
1.74116886113083
30
0
41
1
10
46.4795789097036
20
1.75054219068016
30
0
41
1
10
46.5409724654434
20
1.77667298885888
30
0
41
1
10
46.5699150720223
20
1.79386583563033
30
0
41
1
10
46.6239696407671
20
1.83277902664358
30
0
41
1
10
46.6491641341987
20
1.85461618592339
30
0
41
1
10
46.6723923236136
20
1.87825565940358
30
0
0
SPLINE
5
105
100
AcDbEntity
8
1
62
256
6
ByLayer
370
18
48
1
60
0
100
AcDbSpline
70
4
71
3
72
18
73
14
40
0
40
0
40
0
40
0
40
0.25
40
0.25
40
0.5
40
0.5
40
0.625
40
0.625
40
0.75
40
0.75
40
0.875
40
0.875
40
1
40
1
40
1
40
1
41
1
10
46.6723923236136
20
1.87825565940358
30
0
41
1
10
46.6956094825966
20
1.90188390714431
30
0
41
1
10
46.7168447504098
20
1.92728954457382
30
0
41
1
10
46.7542076304065
20
1.98140561073407
30
0
41
1
10
46.7703905669274
20
2.01008735129435
30
0
41
1
10
46.7880422227274
20
2.05534824922182
30
0
41
1
10
46.792761444281
20
2.07072466794611
30
0
41
1
10
46.7987515959543
20
2.10175932793783
30
0
41
1
10
46.8000535980332
20
2.11773139153951
30
0
41
1
10
46.7969666110186
20
2.14840438930634
30
0
41
1
10
46.7924598291371
20
2.16329241405816
30
0
41
1
10
46.7757732327735
20
2.18814617059476
30
0
41
1
10
46.7638337962027
20
2.19756470378695
30
0
41
1
10
46.7498262515363
20
2.20338686315699
30
0
0
SPLINE
5
106
100
AcDbEntity
8
1
62
256
6
ByLayer
370
18
48
1
60
0
100
AcDbSpline
70
4
71
3
72
8
73
4
40
0
40
0
40
0
40
0
40
1
40
1
40
1
40
1
41
1
10
45.1733125923523
20
3.76065801877408
30
0
41
1
10
45.1689069740007
20
3.76556055288623
30
0
41
1
10
45.1645023777297
20
3.77046247771307
30
0
41
1
10
45.1600987535865
20
3.77536382246311
30
0
0
SPLINE
5
107
100
AcDbEntity
8
1
62
256
6
ByLayer
370
18
48
1
60
0
100
AcDbSpline
70
4
71
3
72
8
73
4
40
0
40
0
40
0
40
0
40
1
40
1
40
1
40
1
41
1
10
44.7577080653453
20
2.19965673115729
30
0
41
1
10
44.763706210281
20
2.20099931250502
30
0
41
1
10
44.7697055798067
20
2.20234230238427
30
0
41
1
10
44.7757062367297
20
2.20368572192137
30
0
0
SPLINE
5
108
100
AcDbEntity
8
1
62
256
6
ByLayer
370
18
48
1
60
0
100
AcDbSpline
70
4
71
3
72
18
73
14
40
0
40
0
40
0
40
0
40
0.25
40
0.25
40
0.5
40
0.5
40
0.625
40
0.625
40
0.75
40
0.75
40
0.875
40
0.875
40
1
40
1
40
1
40
1
41
1
10
46.9896091453684
20
3.12043349832271
30
0
41
1
10
46.9806393987103
20
3.15259617539479
30
0
41
1
10
46.9690633351166
20
3.18398360072146
30
0
41
1
10
46.9403002310977
20
3.2441108708858
30
0
41
1
10
46.9231706740116
20
3.27288169039125
30
0
41
1
10
46.8919452291487
20
3.31157659693915
30
0
41
1
10
46.8806569773113
20
3.32363608948262
30
0
41
1
10
46.8559661480526
20
3.34498242981934
30
0
41
1
10
46.8422984730095
20
3.35445991915725
30
0
41
1
10
46.812996963236
20
3.3679465000007
30
0
41
1
10
46.7971296204065
20
3.3719546754125
30
0
41
1
10
46.7655860466245
20
3.37093636716472
30
0
41
1
10
46.7505320396249
20
3.36582645754785
30
0
41
1
10
46.7375611553853
20
3.35709617222221
30
0
0
SPLINE
5
109
100
AcDbEntity
8
1
62
256
6
ByLayer
370
18
48
1
60
0
100
AcDbSpline
70
4
71
3
72
18
73
14
40
0
40
0
40
0
40
0
40
0.125
40
0.125
40
0.249999999999999
40
0.249999999999999
40
0.5
40
0.5
40
0.75
40
0.75
40
0.875
40
0.875
40
1
40
1
40
1
40
1
41
1
10
46.7171080935817
20
3.35131722179832
30
0
41
1
10
46.6919930243792
20
3.34422148625541
30
0
41
1
10
46.6652729204578
20
3.34550101236209
30
0
41
1
10
46.6128386840846
20
3.35598905415989
30
0
41
1
10
46.5871410542139
20
3.36538488732407
30
0
41
1
10
46.5131236710839
20
3.40100784388989
30
0
41
1
10
46.4676414528058
20
3.43460486457141
30
0
41
1
10
46.3882244128359
20
3.51313055483217
30
0
41
1
10
46.354313981496
20
3.5580457355386
30
0
41
1
10
46.3184556761803
20
3.63103234870263
30
0
41
1
10
46.309008352476
20
3.65635521143412
30
0
41
1
10
46.2984664132978
20
3.70820599280753
30
0
41
1
10
46.2972200255781
20
3.73460347226489
30
0
41
1
10
46.3043851460487
20
3.75943179799793
30
0
0
SPLINE
5
10A
100
AcDbEntity
8
1
62
256
6
ByLayer
370
18
48
1
60
0
100
AcDbSpline
70
4
71
3
72
16
73
12
40
0
40
0
40
0
40
0
40
0.125
40
0.125
40
0.25
40
0.25
40
0.5
40
0.5
40
0.75
40
0.75
40
1
40
1
40
1
40
1
41
1
10
46.3102239404407
20
3.77966183622019
30
0
41
1
10
46.3190182791689
20
3.79251207607766
30
0
41
1
10
46.3241564256355
20
3.80742263382072
30
0
41
1
10
46.3252630837664
20
3.83829290579129
30
0
41
1
10
46.3213061631074
20
3.85401876467685
30
0
41
1
10
46.3010591385476
20
3.89739827846418
30
0
41
1
10
46.2776672010563
20
3.92159385966769
30
0
41
1
10
46.2260476816422
20
3.96225326596735
30
0
41
1
10
46.1971431881017
20
3.97898812350741
30
0
41
1
10
46.1369263051581
20
4.00686019803499
30
0
41
1
10
46.1054637186441
20
4.01801090773677
30
0
41
1
10
46.07326152106
20
4.02654939176068
30
0
0
SPLINE
5
10B
100
AcDbEntity
8
1
62
256
6
ByLayer
370
18
48
1
60
0
100
AcDbSpline
70
4
71
3
72
18
73
14
40
0
40
0
40
0
40
0
40
0.25
40
0.25
40
0.5
40
0.5
40
0.625
40
0.625
40
0.75
40
0.75
40
0.875
40
0.875
40
1
40
1
40
1
40
1
41
1
10
46.07326152106
20
4.02654939176068
30
0
41
1
10
46.0410746154189
20
4.03508382109203
30
0
41
1
10
46.0081779760695
20
4.04100479753433
30
0
41
1
10
45.9416653782317
20
4.0467404052888
30
0
41
1
10
45.9080564511762
20
4.04661817273396
30
0
41
1
10
45.8584341294918
20
4.03952095327392
30
0
41
1
10
45.8421280424546
20
4.03599116144727
30
0
41
1
10
45.8106956956673
20
4.02576723338939
30
0
41
1
10
45.7952648684234
20
4.01894392994723
30
0
41
1
10
45.7678951591778
20
4.00093404256057
30
0
41
1
10
45.7558281244698
20
3.98955058598361
30
0
41
1
10
45.7393080854933
20
3.9624930138481
30
0
41
1
10
45.7352648817717
20
3.94730259819156
30
0
41
1
10
45.7353695142142
20
3.932085760755
30
0
0
SPLINE
5
10C
100
AcDbEntity
8
1
62
256
6
ByLayer
370
18
48
1
60
0
100
AcDbSpline
70
4
71
3
72
16
73
12
40
0
40
0
40
0
40
0
40
0.125
40
0.125
40
0.25
40
0.25
40
0.5
40
0.5
40
0.75
40
0.75
40
1
40
1
40
1
40
1
41
1
10
44.5975094235111
20
2.77407843793267
30
0
41
1
10
44.5839278012376
20
2.77557258096522
30
0
41
1
10
44.5704174226057
20
2.77287563030114
30
0
41
1
10
44.5467028019023
20
2.75895887508392
30
0
41
1
10
44.5366449205934
20
2.74791736539567
30
0
41
1
10
44.5131587606804
20
2.70930898448827
30
0
41
1
10
44.505600189352
20
2.67720922084575
30
0
41
1
10
44.4988036928188
20
2.61254154472195
30
0
41
1
10
44.4996589002545
20
2.5792506406444
30
0
41
1
10
44.5069816002895
20
2.51329255190413
30
0
41
1
10
44.5135062450727
20
2.48048756486449
30
0
41
1
10
44.522480253242
20
2.44830960736041
30
0
0
SPLINE
5
10D
100
AcDbEntity
8
1
62
256
6
ByLayer
370
18
48
1
60
0
100
AcDbSpline
70
4
71
3
72
18
73
14
40
0
40
0
40
0
40
0
40
0.25
40
0.25
40
0.5
40
0.5
40
0.625
40
0.625
40
0.75
40
0.75
40
0.875
40
0.875
40
1
40
1
40
1
40
1
41
1
10
44.522480253242
20
2.44830960736041
30
0
41
1
10
44.5314499999
20
2.41614693028834
30
0
41
1
10
44.5428554476088
20
2.38463788205195
30
0
41
1
10
44.5708453239833
20
2.32395941938836
30
0
41
1
10
44.5873820141723
20
2.29476597688293
30
0
41
1
10
44.6171170169923
20
2.25500861417405
30
0
41
1
10
44.6278080415375
20
2.2425233903389
30
0
41
1
10
44.6509961390852
20
2.22010583319641
30
0
41
1
10
44.6637415138844
20
2.20997088550172
30
0
41
1
10
44.6907326506851
20
2.19483736373169
30
0
41
1
10
44.7051870459942
20
2.18982197384608
30
0
41
1
10
44.7334044966601
20
2.18846926739152
30
0
41
1
10
44.7466012370743
20
2.19225523131348
30
0
41
1
10
44.7577080653453
20
2.19965673115729
30
0
0
SPLINE
5
10E
100
AcDbEntity
8
1
62
256
6
ByLayer
370
18
48
1
60
0
100
AcDbSpline
70
4
71
3
72
8
73
4
40
0
40
0
40
0
40
0
40
1
40
1
40
1
40
1
41
1
10
46.3195017379589
20
1.79434492494562
30
0
41
1
10
46.3247252180821
20
1.79002540060696
30
0
41
1
10
46.3299481185951
20
1.78570680096729
30
0
41
1
10
46.3351704671441
20
1.7813890809164
30
0
0
SPLINE
5
10F
100
AcDbEntity
8
1
62
256
6
ByLayer
370
18
48
1
60
0
100
AcDbSpline
70
4
71
3
72
8
73
4
40
0
40
0
40
0
40
0
40
1
40
1
40
1
40
1
41
1
10
44.6153346114593
20
2.77872769263601
30
0
41
1
10
44.6093916251197
20
2.77717748461106
30
0
41
1
10
44.6034499165844
20
2.77562774064089
30
0
41
1
10
44.5975094235111
20
2.77407843793267
30
0
0
SPLINE
5
110
100
AcDbEntity
8
1
62
256
6
ByLayer
370
18
48
1
60
0
100
AcDbSpline
70
4
71
3
72
18
73
14
40
0
40
0
40
0
40
0
40
0.125
40
0.125
40
0.250000000000001
40
0.250000000000001
40
0.500000000000001
40
0.500000000000001
40
0.75
40
0.75
40
0.875
40
0.875
40
1
40
1
40
1
40
1
41
1
10
45.7289099886301
20
3.91202031078342
30
0
41
1
10
45.7209788157692
20
3.88738092341006
30
0
41
1
10
45.7052236001716
20
3.86550754722049
30
0
41
1
10
45.6677740735029
20
3.82646978074933
30
0
41
1
10
45.6459339707143
20
3.80941120771649
30
0
41
1
10
45.5761442006796
20
3.76438825207561
30
0
41
1
10
45.5238618780052
20
3.74233784099582
30
0
41
1
10
45.4169562565757
20
3.71321020588812
30
0
41
1
10
45.3623573078613
20
3.70614700247984
30
0
41
1
10
45.2842664854958
20
3.71085532558152
30
0
41
1
10
45.2588225348768
20
3.71500856235102
30
0
41
1
10
45.2114425645634
20
3.73098183371454
30
0
41
1
10
45.1895314715104
20
3.74260978990233
30
0
41
1
10
45.1733125923523
20
3.76065801877408
30
0
0
SPLINE
5
111
100
AcDbEntity
8
1
62
256
6
ByLayer
370
18
48
1
60
0
100
AcDbSpline
70
4
71
3
72
16
73
12
40
0
40
0
40
0
40
0
40
0.125
40
0.125
40
0.25
40
0.25
40
0.5
40
0.5
40
0.75
40
0.75
40
1
40
1
40
1
40
1
41
1
10
45.1600987535865
20
3.77536382246311
30
0
41
1
10
45.1543798725494
20
3.78904411948721
30
0
41
1
10
45.1450787546545
20
3.80059557377001
30
0
41
1
10
45.1208215169165
20
3.81637341075177
30
0
41
1
10
45.1060946651941
20
3.82055017788502
30
0
41
1
10
45.0606227855346
20
3.82408188825801
30
0
41
1
10
45.028985290371
20
3.81568799011558
30
0
41
1
10
44.9695767611596
20
3.7909722108399
30
0
41
1
10
44.9412297015634
20
3.77420389755775
30
0
41
1
10
44.887948723376
20
3.73584215774488
30
0
41
1
10
44.8629252644116
20
3.71412691975971
30
0
41
1
10
44.8396970749967
20
3.69048744627952
30
0
0
SPLINE
5
112
100
AcDbEntity
8
1
62
256
6
ByLayer
370
18
48
1
60
0
100
AcDbSpline
70
4
71
3
72
18
73
14
40
0
40
0
40
0
40
0
40
0.25
40
0.25
40
0.5
40
0.5
40
0.625
40
0.625
40
0.75
40
0.75
40
0.875
40
0.875
40
1
40
1
40
1
40
1
41
1
10
44.8396970749967
20
3.69048744627952
30
0
41
1
10
44.8164799160137
20
3.66685919853882
30
0
41
1
10
44.7950740323156
20
3.64133193819958
30
0
41
1
10
44.7569379246746
20
3.58666467954009
30
0
41
1
10
44.7401621212565
20
3.5575603159798
30
0
41
1
10
44.7210200234136
20
3.51123696189137
30
0
41
1
10
44.7157035745677
20
3.49543481187541
30
0
41
1
10
44.7082106911836
20
3.46332893507795
30
0
41
1
10
44.7059863888608
20
3.44669941311946
30
0
41
1
10
44.7067630029024
20
3.41437947442606
30
0
41
1
10
44.7098568372636
20
3.39848423520038
30
0
41
1
10
44.7232173105111
20
3.37125946396151
30
0
41
1
10
44.7332994804964
20
3.36051698507438
30
0
41
1
10
44.7454429691942
20
3.35336604022251
30
0
0
SPLINE
5
113
100
AcDbEntity
8
1
62
256
6
ByLayer
370
18
48
1
60
0
100
AcDbSpline
70
4
71
3
72
18
73
14
40
0
40
0
40
0
40
0
40
0.125000000000001
40
0.125000000000001
40
0.250000000000001
40
0.250000000000001
40
0.5
40
0.5
40
0.75
40
0.75
40
0.875
40
0.875
40
1
40
1
40
1
40
1
41
1
10
46.7346052701072
20
2.21679838287474
30
0
41
1
10
46.7159151334877
20
2.23326831683016
30
0
41
1
10
46.703620066493
20
2.25547300612436
30
0
41
1
10
46.6863416109046
20
2.30336372602639
30
0
41
1
10
46.6815274785911
20
2.32913621968172
30
0
41
1
10
46.6749965517731
20
2.40814022312256
30
0
41
1
10
46.681014110098
20
2.46322981977806
30
0
41
1
10
46.7085023879682
20
2.57088292873379
30
0
41
1
10
46.7299737656801
20
2.62341937197778
30
0
41
1
10
46.7745073046104
20
2.69333793707469
30
0
41
1
10
46.7914587519006
20
2.71518820325028
30
0
41
1
10
46.8305943616813
20
2.75270353379722
30
0
41
1
10
46.8525902777417
20
2.76842200576635
30
0
41
1
10
46.877479718852
20
2.77627525108372
30
0
0
SPLINE
5
114
100
AcDbEntity
8
1
62
256
6
ByLayer
370
18
48
1
60
0
100
AcDbSpline
70
4
71
3
72
18
73
14
40
0
40
0
40
0
40
0
40
0.125000000000001
40
0.125000000000001
40
0.250000000000001
40
0.250000000000001
40
0.500000000000001
40
0.500000000000001
40
0.75
40
0.75
40
0.875
40
0.875
40
1
40
1
40
1
40
1
41
1
10
44.7582090602041
20
3.33820456084496
30
0
41
1
10
44.7738867162677
20
3.31958719113948
30
0
41
1
10
44.7835214259207
20
3.29548607584115
30
0
41
1
10
44.7962123897413
20
3.24432517920525
30
0
41
1
10
44.799113311592
20
3.21718886046656
30
0
41
1
10
44.8010376109645
20
3.134901039494
30
0
41
1
10
44.7934549604969
20
3.07869577262687
30
0
41
1
10
44.7659660754476
20
2.97104223084568
30
0
41
1
10
44.7460604184107
20
2.91962190586028
30
0
41
1
10
44.7061289232414
20
2.85298389083246
30
0
41
1
10
44.6910871167021
20
2.83249490508405
30
0
41
1
10
44.6565466642124
20
2.79825521561116
30
0
41
1
10
44.6372131696061
20
2.78443464104126
30
0
41
1
10
44.6153346114593
20
2.77872769263601
30
0
0
SPLINE
5
115
100
AcDbEntity
8
1
62
256
6
ByLayer
370
18
48
1
60
0
100
AcDbSpline
70
4
71
3
72
16
73
12
40
0
40
0
40
0
40
0
40
0.124999999999999
40
0.124999999999999
40
0.249999999999998
40
0.249999999999998
40
0.499999999999998
40
0.499999999999998
40
0.749999999999999
40
0.749999999999999
40
1
40
1
40
1
40
1
41
1
10
45.7598997065163
20
1.6246671426245
30
0
41
1
10
45.7618674856138
20
1.61078550539426
30
0
41
1
10
45.7596559830723
20
1.59691583934153
30
0
41
1
10
45.7466269781709
20
1.57243278149809
30
0
41
1
10
45.7359825493844
20
1.56197127003054
30
0
41
1
10
45.6983662874528
20
1.53733521761006
30
0
41
1
10
45.6666886673253
20
1.52908519490819
30
0
41
1
10
45.6026311661703
20
1.52103915994513
30
0
41
1
10
45.5695269541067
20
1.52132849214908
30
0
41
1
10
45.5037960288263
20
1.52760832842276
30
0
41
1
10
45.4710300751344
20
1.53365522989853
30
0
41
1
10
45.4388278775504
20
1.54219371392242
30
0
0
SPLINE
5
116
100
AcDbEntity
8
1
62
256
6
ByLayer
370
18
48
1
60
0
100
AcDbSpline
70
4
71
3
72
8
73
4
40
0
40
0
40
0
40
0
40
1
40
1
40
1
40
1
41
1
10
45.1850452802899
20
1.77709106715932
30
0
41
1
10
45.1861727870171
20
1.78324990226798
30
0
41
1
10
45.1873007471603
20
1.78940990847141
30
0
41
1
10
45.1884291842626
20
1.79557114572177
30
0
0
SPLINE
5
117
100
AcDbEntity
8
1
62
256
6
ByLayer
370
18
48
1
60
0
100
AcDbSpline
70
4
71
3
72
16
73
12
40
0
40
0
40
0
40
0
40
0.25
40
0.25
40
0.5
40
0.5
40
0.749999999999999
40
0.749999999999999
40
0.875
40
0.875
40
1
40
1
40
1
40
1
41
1
10
45.4388278775504
20
1.54219371392242
30
0
41
1
10
45.4066295710125
20
1.5507311662268
30
0
41
1
10
45.3750222394559
20
1.5617485124904
30
0
41
1
10
45.3140012299122
20
1.58908072402008
30
0
41
1
10
45.2845661073895
20
1.60534553065895
30
0
41
1
10
45.2308450999898
20
1.64467345341069
30
0
41
1
10
45.2062732116411
20
1.66761827054611
30
0
41
1
10
45.1823539830716
20
1.70883857543325
30
0
41
1
10
45.177024726484
20
1.72351494346913
30
0
41
1
10
45.1748371045451
20
1.75190024943177
30
0
41
1
10
45.1781166758832
20
1.76557322033193
30
0
41
1
10
45.1850452802899
20
1.77709106715932
30
0
0
SPLINE
5
118
100
AcDbEntity
8
1
62
256
6
ByLayer
370
18
48
1
60
0
100
AcDbSpline
70
4
71
3
72
18
73
14
40
0
40
0
40
0
40
0
40
0.125
40
0.125
40
0.25
40
0.25
40
0.499999999999999
40
0.499999999999999
40
0.749999999999999
40
0.749999999999999
40
0.874999999999999
40
0.874999999999999
40
1
40
1
40
1
40
1
41
1
10
46.3195017379589
20
1.79434492494562
30
0
41
1
10
46.3001501982627
20
1.81034756011195
30
0
41
1
10
46.2752955082238
20
1.82009888815264
30
0
41
1
10
46.2236649276797
20
1.83266507320854
30
0
41
1
10
46.196146414677
20
1.83547520509555
30
0
41
1
10
46.1138721020079
20
1.8368811887423
30
0
41
1
10
46.0579630746208
20
1.82880206069225
30
0
41
1
10
45.9509210081904
20
1.79970873464202
30
0
41
1
10
45.9001163725742
20
1.77876337424743
30
0
41
1
10
45.8348720742222
20
1.73703688804611
30
0
41
1
10
45.8149267559045
20
1.72135753411288
30
0
41
1
10
45.7819408806726
20
1.68549784703882
30
0
41
1
10
45.7688258083421
20
1.66548727099675
30
0
41
1
10
45.7639043416812
20
1.64298263293628
30
0
0
SPLINE
5
119
100
AcDbEntity
8
1
62
256
6
ByLayer
370
18
48
1
60
0
100
AcDbSpline
70
4
71
3
72
8
73
4
40
0
40
0
40
0
40
0
40
1
40
1
40
1
40
1
41
1
10
45.7639043416812
20
1.64298263293628
30
0
41
1
10
45.7625689603146
20
1.63687626741606
30
0
41
1
10
45.7612340903299
20
1.63077112381543
30
0
41
1
10
45.7598997065163
20
1.6246671426245
30
0
0
SPLINE
5
11A
100
AcDbEntity
8
1
62
256
6
ByLayer
370
18
48
1
60
0
100
AcDbSpline
70
4
71
3
72
20
73
16
40
0
40
0
40
0
40
0
40
0.125
40
0.125
40
0.25
40
0.25
40
0.5
40
0.5
40
0.625
40
0.625
40
0.75
40
0.75
40
0.875
40
0.875
40
1
40
1
40
1
40
1
41
1
10
45.1884291842626
20
1.79557114572177
30
0
41
1
10
45.1925899383544
20
1.81828875492556
30
0
41
1
10
45.1886622917652
20
1.84280292166829
30
0
41
1
10
45.1735311284746
20
1.89133775444688
30
0
41
1
10
45.1621431817052
20
1.91537551049356
30
0
41
1
10
45.121506936194
20
1.98531943286494
30
0
41
1
10
45.0859376907816
20
2.02915585255286
30
0
41
1
10
45.0262647666426
20
2.08807190068774
30
0
41
1
10
45.0055803641883
20
2.10624422332558
30
0
41
1
10
44.9625407166591
20
2.13957613478936
30
0
41
1
10
44.9399454648182
20
2.15488987465358
30
0
41
1
10
44.8937469362849
20
2.18081760258491
30
0
41
1
10
44.8701234220924
20
2.19154324171484
30
0
41
1
10
44.8221508250157
20
2.20541560678731
30
0
41
1
10
44.7978945964779
20
2.2086532240408
30
0
41
1
10
44.7757062367297
20
2.20368572192137
30
0
0
SPLINE
5
11B
100
AcDbEntity
8
1
62
256
6
ByLayer
370
18
48
1
60
0
100
AcDbSpline
70
4
71
3
72
10
73
6
40
0
40
0
40
0
40
0
40
0.375000000000405
40
0.750000000000811
40
1
40
1
40
1
40
1
41
1
10
45.0550939204985
20
0.0470596341879173
30
0
41
1
10
45.2390824723598
20
-0.0017253379121485
30
0
41
1
10
45.6149197189062
20
-0.0685035929924709
30
0
41
1
10
46.1205959683804
20
-0.0727677712251875
30
0
41
1
10
46.4303799634366
20
-0.0315868372087778
30
0
41
1
10
46.5523957127717
20
-0.0083117966371731
30
0
0
SPLINE
5
11C
100
AcDbEntity
8
1
62
256
6
ByLayer
370
18
48
1
60
0
100
AcDbSpline
70
4
71
3
72
17
73
13
40
0
40
0
40
0
40
0
40
0.0625
40
0.125
40
0.25
40
0.375
40
0.5
40
0.625
40
0.75
40
0.875
40
0.9375
40
1
40
1
40
1
40
1
41
1
10
41.0613929016012
20
-0.62475185314662
30
0
41
1
10
41.0361837091883
20
-0.618067579934774
30
0
41
1
10
40.9863986128927
20
-0.602219851382955
30
0
41
1
10
40.8903170716125
20
-0.560918703121644
30
0
41
1
10
40.7785111929093
20
-0.491991666017071
30
0
41
1
10
40.6627816035729
20
-0.384751838413678
30
0
41
1
10
40.5699358733452
20
-0.257109395913744
30
0
41
1
10
40.5035425070108
20
-0.11396966589993
30
0
41
1
10
40.4661509824744
20
0.0391669720297614
30
0
41
1
10
40.4603634336584
20
0.170206324311096
30
0
41
1
10
40.4710746925758
20
0.274074377881419
30
0
41
1
10
40.4814828053277
20
0.325187072167722
30
0
41
1
10
40.4879253148927
20
0.350415061542264
30
0
0
SPLINE
5
11D
100
AcDbEntity
8
1
62
256
6
ByLayer
370
18
48
1
60
0
100
AcDbSpline
70
4
71
3
72
8
73
4
40
0
40
0
40
0
40
0
40
1
40
1
40
1
40
1
41
1
10
40.4879253316225
20
0.350415069051195
30
0
41
1
10
40.7914310762908
20
1.53890219885116
30
0
41
1
10
41.094936820951
20
2.72738932861921
30
0
41
1
10
41.3984425656274
20
3.91587645845075
30
0
0
SPLINE
5
11E
100
AcDbEntity
8
1
62
256
6
ByLayer
370
18
48
1
60
0
100
AcDbSpline
70
4
71
3
72
8
73
4
40
0
40
0
40
0
40
0
40
1
40
1
40
1
40
1
41
1
10
43.2761645686119
20
8.04799207451813
30
0
41
1
10
43.8357766254264
20
7.22323123380045
30
0
41
1
10
44.3953886822409
20
6.39847039308276
30
0
41
1
10
44.9550007390554
20
5.57370955236507
30
0
0
SPLINE
5
11F
100
AcDbEntity
8
1
62
256
6
ByLayer
370
18
48
1
60
0
100
AcDbSpline
70
4
71
3
72
8
73
4
40
0
40
0
40
0
40
0
40
1
40
1
40
1
40
1
41
1
10
50.0647245663784
20
1.6179925883531
30
0
41
1
10
49.5389161074558
20
1.76462123451526
30
0
41
1
10
49.0131076485333
20
1.91124988067742
30
0
41
1
10
48.4872991896108
20
2.0578785268396
30
0
0
SPLINE
5
120
100
AcDbEntity
8
1
62
256
6
ByLayer
370
18
48
1
60
0
100
AcDbSpline
70
4
71
3
72
10
73
6
40
0
40
0
40
0
40
0
40
0.375000000000406
40
0.750000000000812
40
1
40
1
40
1
40
1
41
1
10
46.4523025313302
20
5.51833812154032
30
0
41
1
10
46.2683139794689
20
5.56712309364039
30
0
41
1
10
45.8924767329226
20
5.63390134872071
30
0
41
1
10
45.3868004834484
20
5.63816552695343
30
0
41
1
10
45.0770164883922
20
5.59698459293702
30
0
41
1
10
44.955000739057
20
5.57370955236541
30
0
0
SPLINE
5
121
100
AcDbEntity
8
1
62
256
6
ByLayer
370
18
48
1
60
0
100
AcDbSpline
70
4
71
3
72
10
73
6
40
0
40
0
40
0
40
0
40
0.249999999999985
40
0.624999999999992
40
1
40
1
40
1
40
1
41
1
10
43.7212172204879
20
0.7423814522474
30
0
41
1
10
43.8166232711941
20
0.661456539758376
30
0
41
1
10
44.0674164138348
20
0.471637335880786
30
0
41
1
10
44.5109943589918
20
0.224204661623389
30
0
41
1
10
44.8711053686471
20
0.0958446062833502
30
0
41
1
10
45.0550939205093
20
0.0470596341850467
30
0
0
SPLINE
5
122
100
AcDbEntity
8
1
62
256
6
ByLayer
370
18
48
1
60
0
100
AcDbSpline
70
4
71
3
72
8
73
4
40
0
40
0
40
0
40
0
40
1
40
1
40
1
40
1
41
1
10
50.4017742136775
20
6.15862089243686
30
0
41
1
10
49.5299092195652
20
5.71341936278483
30
0
41
1
10
48.6580442254531
20
5.26821783313281
30
0
41
1
10
47.7861792313408
20
4.82301630348081
30
0
0
SPLINE
5
123
100
AcDbEntity
8
1
62
256
6
ByLayer
370
18
48
1
60
0
100
AcDbSpline
70
4
71
3
72
8
73
4
40
0
40
0
40
0
40
0
40
1
40
1
40
1
40
1
41
1
10
44.6241977408629
20
-1.56943743667412
30
0
41
1
10
44.7678298007451
20
-1.03060507972108
30
0
41
1
10
44.9114618606272
20
-0.491772722768019
30
0
41
1
10
45.0550939205093
20
0.0470596341850467
30
0
0
SPLINE
5
124
100
AcDbEntity
8
1
62
256
6
ByLayer
370
18
48
1
60
0
100
AcDbSpline
70
4
71
3
72
8
73
4
40
0
40
0
40
0
40
0
40
1
40
1
40
1
40
1
41
1
10
41.0613929183284
20
-0.624751845633
30
0
41
1
10
41.9480010190482
20
-0.169040746339533
30
0
41
1
10
42.834609119768
20
0.286670352953962
30
0
41
1
10
43.7212172204879
20
0.742381452247429
30
0
0
SPLINE
5
125
100
AcDbEntity
8
1
62
256
6
ByLayer
370
18
48
1
60
0
100
AcDbSpline
70
4
71
3
72
17
73
13
40
0
40
0
40
0
40
0
40
0.0625
40
0.125
40
0.25
40
0.375
40
0.5
40
0.625
40
0.75
40
0.875
40
0.9375
40
1
40
1
40
1
40
1
41
1
10
50.401774266464
20
6.15862092565533
30
0
41
1
10
50.4269834588769
20
6.15193665244348
30
0
41
1
10
50.4767685551725
20
6.13608892389166
30
0
41
1
10
50.5728500964527
20
6.09478777563032
30
0
41
1
10
50.6846559751559
20
6.02586073852575
30
0
41
1
10
50.8003855644922
20
5.91862091092236
30
0
41
1
10
50.8932312947198
20
5.7909784684224
30
0
41
1
10
50.9596246610543
20
5.64783873840858
30
0
41
1
10
50.9970161855907
20
5.49470210047889
30
0
41
1
10
51.0028037344067
20
5.36366274819756
30
0
41
1
10
50.9920924754894
20
5.2597946946272
30
0
41
1
10
50.9816843627374
20
5.20868200034093
30
0
41
1
10
50.9752418531724
20
5.18345401096636
30
0
0
SPLINE
5
126
100
AcDbEntity
8
1
62
256
6
ByLayer
370
18
48
1
60
0
100
AcDbSpline
70
4
71
3
72
8
73
4
40
0
40
0
40
0
40
0
40
1
40
1
40
1
40
1
41
1
10
43.2761645686082
20
8.0479920745191
30
0
41
1
10
44.4637661761199
20
7.73309687750537
30
0
41
1
10
45.6513677835997
20
7.41820168050009
30
0
41
1
10
46.8389693911429
20
7.10330648347801
30
0
0
SPLINE
5
127
100
AcDbEntity
8
1
62
256
6
ByLayer
370
18
48
1
60
0
100
AcDbSpline
70
4
71
3
72
8
73
4
40
0
40
0
40
0
40
0
40
1
40
1
40
1
40
1
41
1
10
48.1870025633938
20
-2.51412302771428
30
0
41
1
10
47.642133613187
20
-1.67885261735515
30
0
41
1
10
47.0972646629801
20
-0.84358220699599
30
0
41
1
10
46.5523957127733
20
-0.0083117966368604
30
0
0
SPLINE
5
128
100
AcDbEntity
8
1
62
256
6
ByLayer
370
18
48
1
60
0
100
AcDbSpline
70
4
71
3
72
8
73
4
40
0
40
0
40
0
40
0
40
1
40
1
40
1
40
1
41
1
10
44.6241977408629
20
-1.56943743667412
30
0
41
1
10
43.4365961333197
20
-1.25454223965204
30
0
41
1
10
42.24899452584
20
-0.939647042646754
30
0
41
1
10
41.0613929183284
20
-0.624751845633
30
0
0
SPLINE
5
129
100
AcDbEntity
8
1
62
256
6
ByLayer
370
18
48
1
60
0
100
AcDbSpline
70
4
71
3
72
8
73
4
40
0
40
0
40
0
40
0
40
1
40
1
40
1
40
1
41
1
10
41.3984425656274
20
3.91587645845075
30
0
41
1
10
41.7019483103038
20
5.1043635882823
30
0
41
1
10
42.005454054964
20
6.29285071805032
30
0
41
1
10
42.3089597996324
20
7.48133784785028
30
0
0
SPLINE
5
12A
100
AcDbEntity
8
1
62
256
6
ByLayer
370
18
48
1
60
0
100
AcDbSpline
70
4
71
3
72
8
73
4
40
0
40
0
40
0
40
0
40
1
40
1
40
1
40
1
41
1
10
40.4879253316234
20
0.35041506905489
30
0
41
1
10
41.3179713359729
20
0.902308561709731
30
0
41
1
10
42.1480173403223
20
1.45420205436457
30
0
41
1
10
42.9780633446718
20
2.00609554701941
30
0
0
SPLINE
5
12B
100
AcDbEntity
8
1
62
256
6
ByLayer
370
18
48
1
60
0
100
AcDbSpline
70
4
71
3
72
8
73
4
40
0
40
0
40
0
40
0
40
1
40
1
40
1
40
1
41
1
10
46.4523025313302
20
5.51833812154032
30
0
41
1
10
46.5811914846011
20
6.04666090885289
30
0
41
1
10
46.710080437872
20
6.57498369616545
30
0
41
1
10
46.8389693911429
20
7.10330648347801
30
0
0
SPLINE
5
12C
100
AcDbEntity
8
1
62
256
6
ByLayer
370
18
48
1
60
0
100
AcDbSpline
70
4
71
3
72
8
73
4
40
0
40
0
40
0
40
0
40
1
40
1
40
1
40
1
41
1
10
49.1542073323734
20
-1.94746880104643
30
0
41
1
10
48.704735455375
20
-1.05630830775922
30
0
41
1
10
48.2552635783767
20
-0.165147814472022
30
0
41
1
10
47.8057917013783
20
0.726012678815181
30
0
0
SPLINE
5
12D
100
AcDbEntity
8
1
62
256
6
ByLayer
370
18
48
1
60
0
100
AcDbSpline
70
4
71
3
72
8
73
4
40
0
40
0
40
0
40
0
40
1
40
1
40
1
40
1
41
1
10
46.8389693911429
20
7.10330648347801
30
0
41
1
10
48.026570998686
20
6.7884112864559
30
0
41
1
10
49.2141726061658
20
6.47351608945061
30
0
41
1
10
50.4017742136775
20
6.15862089243689
30
0
0
SPLINE
5
12E
100
AcDbEntity
8
1
62
256
6
ByLayer
370
18
48
1
60
0
100
AcDbSpline
70
4
71
3
72
10
73
6
40
0
40
0
40
0
40
0
40
0.375000000000406
40
0.750000000000812
40
1
40
1
40
1
40
1
41
1
10
43.020097262218
20
3.50751922888864
30
0
41
1
10
42.9730767950077
20
3.32339348795446
30
0
41
1
10
42.9098045793745
20
2.94698679161718
30
0
41
1
10
42.9100016256227
20
2.43979148130202
30
0
41
1
10
42.9537845531011
20
2.12869163743619
30
0
41
1
10
42.9780633446714
20
2.00609554702101
30
0
0
SPLINE
5
12F
100
AcDbEntity
8
1
62
256
6
ByLayer
370
18
48
1
60
0
100
AcDbSpline
70
4
71
3
72
10
73
6
40
0
40
0
40
0
40
0
40
0.375000000000406
40
0.750000000000812
40
1
40
1
40
1
40
1
41
1
10
48.4872991896108
20
2.0578785268396
30
0
41
1
10
48.5343196568211
20
2.24200426777378
30
0
41
1
10
48.5975918724542
20
2.61841096411103
30
0
41
1
10
48.597394826206
20
3.12560627442622
30
0
41
1
10
48.5536118987277
20
3.43670611829202
30
0
41
1
10
48.5293331071572
20
3.55930220870724
30
0
0
SPLINE
5
130
100
AcDbEntity
8
1
62
256
6
ByLayer
370
18
48
1
60
0
100
AcDbSpline
70
4
71
3
72
8
73
4
40
0
40
0
40
0
40
0
40
1
40
1
40
1
40
1
41
1
10
50.9752418003823
20
5.18345397774897
30
0
41
1
10
50.1599389026405
20
4.64207005473557
30
0
41
1
10
49.3446360048988
20
4.1006861317222
30
0
41
1
10
48.529333107157
20
3.5593022087088
30
0
0
SPLINE
5
131
100
AcDbEntity
8
1
62
256
6
ByLayer
370
18
48
1
60
0
100
AcDbSpline
70
4
71
3
72
10
73
6
40
0
40
0
40
0
40
0
40
0.249999999999984
40
0.624999999999992
40
1
40
1
40
1
40
1
41
1
10
43.7016047504503
20
4.83938507691303
30
0
41
1
10
43.6217612266379
20
4.74439724907424
30
0
41
1
10
43.4347161306403
20
4.49450196696608
30
0
41
1
10
43.1919258617262
20
4.05173528153111
30
0
41
1
10
43.0671177294238
20
3.6916449698129
30
0
41
1
10
43.0200972622152
20
3.50751922887778
30
0
0
SPLINE
5
132
100
AcDbEntity
8
1
62
256
6
ByLayer
370
18
48
1
60
0
100
AcDbSpline
70
4
71
3
72
8
73
4
40
0
40
0
40
0
40
0
40
1
40
1
40
1
40
1
41
1
10
50.0647245663784
20
1.6179925883531
30
0
41
1
10
49.761218821702
20
0.429505458521561
30
0
41
1
10
49.4577130770418
20
-0.75898167124646
30
0
41
1
10
49.1542073323734
20
-1.94746880104643
30
0
0
SPLINE
5
133
100
AcDbEntity
8
1
62
256
6
ByLayer
370
18
48
1
60
0
100
AcDbSpline
70
4
71
3
72
29
73
25
40
0
40
0
40
0
40
0
40
0.125000000000944
40
0.171875000000893
40
0.218750000000841
40
0.242187500000815
40
0.265625000000789
40
0.277343750000776
40
0.289062500000763
40
0.312500000000737
40
0.359375000000686
40
0.406250000000634
40
0.50000000000053
40
0.593750000000427
40
0.640625000000375
40
0.687500000000323
40
0.710937500000298
40
0.722656250000285
40
0.734375000000272
40
0.757812500000246
40
0.78125000000022
40
0.828125000000168
40
0.875000000000116
40
1
40
1
40
1
40
1
41
1
10
46.5523957127717
20
-0.0083117966371731
30
0
41
1
10
46.6134035874401
20
0.0033257236487714
30
0
41
1
10
46.6966370296228
20
0.0216657308112644
30
0
41
1
10
46.8011594282695
20
0.0490358111928515
30
0
41
1
10
46.8567130892612
20
0.0648603614460228
30
0
41
1
10
46.9008778976196
20
0.0782202720878615
30
0
41
1
10
46.9283593377532
20
0.086851549629273
30
0
41
1
10
46.9502664277121
20
0.0939123202958854
30
0
41
1
10
46.9721462466069
20
0.101177363970976
30
0
41
1
10
47.0103853248446
20
0.114583202029962
30
0
41
1
10
47.0647563910071
20
0.13567286891336
30
0
41
1
10
47.1507735048346
20
0.173591714827722
30
0
41
1
10
47.2556378297163
20
0.22868909890704
30
0
41
1
10
47.3549568030065
20
0.293216201502958
30
0
41
1
10
47.430060559942
20
0.349692916719107
30
0
41
1
10
47.4750152181338
20
0.386794973075581
30
0
41
1
10
47.5053839286913
20
0.413584208837619
30
0
41
1
10
47.5224056528133
20
0.429110325803009
30
0
41
1
10
47.5392619753906
20
0.444759795199445
30
0
41
1
10
47.5602096464397
20
0.464501579343789
30
0
41
1
10
47.5934269841423
20
0.496477383638705
30
0
41
1
10
47.6343524268704
20
0.537176843407963
30
0
41
1
10
47.7092500062403
20
0.614923168726875
30
0
41
1
10
47.7658699394722
20
0.678518764895784
30
0
41
1
10
47.8057917013784
20
0.726012678815181
30
0
0
SPLINE
5
134
100
AcDbEntity
8
1
62
256
6
ByLayer
370
18
48
1
60
0
100
AcDbSpline
70
4
71
3
72
29
73
25
40
0
40
0
40
0
40
0
40
0.125000000000946
40
0.171875000000894
40
0.218750000000842
40
0.242187500000817
40
0.265625000000791
40
0.277343750000778
40
0.289062500000765
40
0.312500000000739
40
0.359375000000687
40
0.406250000000635
40
0.500000000000532
40
0.593750000000428
40
0.640625000000376
40
0.687500000000324
40
0.710937500000298
40
0.722656250000285
40
0.734375000000272
40
0.757812500000247
40
0.781250000000221
40
0.828125000000169
40
0.875000000000117
40
1
40
1
40
1
40
1
41
1
10
42.9780633446714
20
2.00609554702101
30
0
41
1
10
42.9902027404569
20
1.94479750181262
30
0
41
1
10
43.0092200917359
20
1.86114651210249
30
0
41
1
10
43.037427782205
20
1.7560615960854
30
0
41
1
10
43.0536937009408
20
1.700197720137
30
0
41
1
10
43.0674021647929
20
1.65577943559793
30
0
41
1
10
43.0762493770366
20
1.6281374721446
30
0
41
1
10
43.0834817428088
20
1.60610083368974
30
0
41
1
10
43.0909175305802
20
1.58408975324147
30
0
41
1
10
43.1046196554091
20
1.54561503538452
30
0
41
1
10
43.1261245362666
20
1.49089107694709
30
0
41
1
10
43.1646866423147
20
1.404275610539
30
0
41
1
10
43.2205416953227
20
1.29860379682623
30
0
41
1
10
43.2857494740372
20
1.19841145054764
30
0
41
1
10
43.3427179260653
20
1.12257967972081
30
0
41
1
10
43.3801044569008
20
1.07716025279004
30
0
41
1
10
43.4070807054592
20
1.04646239454266
30
0
41
1
10
43.4227101156786
20
1.02925168984538
30
0
41
1
10
43.4384610542589
20
1.01220581069259
30
0
41
1
10
43.4583280568687
20
0.991019988708899
30
0
41
1
10
43.4905004173652
20
0.957419108079819
30
0
41
1
10
43.5314381443302
20
0.916009652749381
30
0
41
1
10
43.6096107624571
20
0.840197583963089
30
0
41
1
10
43.6735141951348
20
0.782843908491913
30
0
41
1
10
43.7212172204879
20
0.7423814522474
30
0
0
SPLINE
5
135
100
AcDbEntity
8
1
62
256
6
ByLayer
370
18
48
1
60
0
100
AcDbSpline
70
4
71
3
72
29
73
25
40
0
40
0
40
0
40
0
40
0.125000000000945
40
0.171875000000894
40
0.218750000000842
40
0.242187500000816
40
0.26562500000079
40
0.277343750000777
40
0.289062500000764
40
0.312500000000738
40
0.359375000000687
40
0.406250000000635
40
0.500000000000531
40
0.593750000000427
40
0.640625000000376
40
0.687500000000324
40
0.710937500000298
40
0.722656250000285
40
0.734375000000272
40
0.757812500000246
40
0.78125000000022
40
0.828125000000168
40
0.875000000000117
40
1
40
1
40
1
40
1
41
1
10
44.955000739057
20
5.57370955236541
30
0
41
1
10
44.8939928643886
20
5.56207203207944
30
0
41
1
10
44.8107594222059
20
5.54373202491698
30
0
41
1
10
44.7062370235592
20
5.51636194453539
30
0
41
1
10
44.6506833625675
20
5.50053739428222
30
0
41
1
10
44.6065185542091
20
5.48717748364038
30
0
41
1
10
44.5790371140756
20
5.47854620609894
30
0
41
1
10
44.5571300241167
20
5.47148543543236
30
0
41
1
10
44.5352502052218
20
5.46422039175727
30
0
41
1
10
44.4970111269841
20
5.45081455369825
30
0
41
1
10
44.4426400608217
20
5.42972488681488
30
0
41
1
10
44.3566229469942
20
5.39180604090052
30
0
41
1
10
44.2517586221124
20
5.33670865682117
30
0
41
1
10
44.1524396488222
20
5.27218155422528
30
0
41
1
10
44.0773358918867
20
5.21570483900913
30
0
41
1
10
44.032381233695
20
5.17860278265266
30
0
41
1
10
44.0020125231375
20
5.15181354689062
30
0
41
1
10
43.9849907990154
20
5.13628742992523
30
0
41
1
10
43.9681344764382
20
5.1206379605288
30
0
41
1
10
43.947186805389
20
5.10089617638445
30
0
41
1
10
43.9139694676863
20
5.06892037208954
30
0
41
1
10
43.8730440249584
20
5.02822091232025
30
0
41
1
10
43.7981464455884
20
4.95047458700137
30
0
41
1
10
43.7415265123566
20
4.88687899083246
30
0
41
1
10
43.7016047504503
20
4.83938507691306
30
0
0
SPLINE
5
136
100
AcDbEntity
8
1
62
256
6
ByLayer
370
18
48
1
60
0
100
AcDbSpline
70
4
71
3
72
8
73
4
40
0
40
0
40
0
40
0
40
1
40
1
40
1
40
1
41
1
10
41.3984425656274
20
3.91587645845075
30
0
41
1
10
41.9389941311576
20
3.77975738193004
30
0
41
1
10
42.4795456966878
20
3.64363830540935
30
0
41
1
10
43.020097262218
20
3.50751922888864
30
0
0
SPLINE
5
137
100
AcDbEntity
8
1
62
256
6
ByLayer
370
18
48
1
60
0
100
AcDbSpline
70
4
71
3
72
29
73
25
40
0
40
0
40
0
40
0
40
0.125000000000945
40
0.171875000000893
40
0.218750000000841
40
0.242187500000815
40
0.26562500000079
40
0.277343750000777
40
0.289062500000764
40
0.312500000000738
40
0.359375000000686
40
0.406250000000634
40
0.50000000000053
40
0.593750000000427
40
0.640625000000375
40
0.687500000000323
40
0.710937500000297
40
0.722656250000284
40
0.734375000000271
40
0.757812500000245
40
0.781250000000219
40
0.828125000000168
40
0.875000000000116
40
1
40
1
40
1
40
1
41
1
10
48.5293331071573
20
3.55930220870724
30
0
41
1
10
48.5171937113719
20
3.62060025391563
30
0
41
1
10
48.4981763600929
20
3.70425124362575
30
0
41
1
10
48.4699686696238
20
3.80933615964284
30
0
41
1
10
48.453702750888
20
3.86520003559124
30
0
41
1
10
48.4399942870359
20
3.90961832013031
30
0
41
1
10
48.4311470747922
20
3.93726028358364
30
0
41
1
10
48.42391470902
20
3.9592969220385
30
0
41
1
10
48.4164789212485
20
3.98130800248677
30
0
41
1
10
48.4027767964196
20
4.01978272034373
30
0
41
1
10
48.3812719155622
20
4.07450667878115
30
0
41
1
10
48.3427098095141
20
4.16112214518924
30
0
41
1
10
48.2868547565061
20
4.26679395890201
30
0
41
1
10
48.2216469777916
20
4.3669863051806
30
0
41
1
10
48.1646785257635
20
4.44281807600743
30
0
41
1
10
48.1272919949279
20
4.4882375029382
30
0
41
1
10
48.1003157463695
20
4.51893536118556
30
0
41
1
10
48.0846863361502
20
4.53614606588283
30
0
41
1
10
48.0689353975699
20
4.55319194503565
30
0
41
1
10
48.0490683949601
20
4.57437776701931
30
0
41
1
10
48.0168960344636
20
4.60797864764842
30
0
41
1
10
47.9759583074986
20
4.64938810297883
30
0
41
1
10
47.8977856893717
20
4.72520017176515
30
0
41
1
10
47.833882256694
20
4.78255384723633
30
0
41
1
10
47.7861792313408
20
4.82301630348084
30
0
0
SPLINE
5
138
100
AcDbEntity
8
1
62
256
6
ByLayer
370
18
48
1
60
0
100
AcDbSpline
70
4
71
3
72
10
73
6
40
0
40
0
40
0
40
0
40
0.249999999999984
40
0.624999999999992
40
1
40
1
40
1
40
1
41
1
10
47.7861792313408
20
4.82301630348084
30
0
41
1
10
47.6907731806347
20
4.90394121596987
30
0
41
1
10
47.4399800379939
20
5.09376041984746
30
0
41
1
10
46.996402092837
20
5.34119309410485
30
0
41
1
10
46.6362910831817
20
5.46955314944489
30
0
41
1
10
46.4523025313194
20
5.5183381215432
30
0
0
SPLINE
5
139
100
AcDbEntity
8
1
62
256
6
ByLayer
370
18
48
1
60
0
100
AcDbSpline
70
4
71
3
72
10
73
6
40
0
40
0
40
0
40
0
40
0.249999999999985
40
0.624999999999992
40
1
40
1
40
1
40
1
41
1
10
47.8057917013784
20
0.726012678815181
30
0
41
1
10
47.8856352251908
20
0.821000506653974
30
0
41
1
10
48.0726803211884
20
1.07089578876216
30
0
41
1
10
48.3154705901026
20
1.51366247419713
30
0
41
1
10
48.440278722405
20
1.87375278591534
30
0
41
1
10
48.4872991896135
20
2.05787852685046
30
0
0
SPLINE
5
13A
100
AcDbEntity
8
1
62
256
6
ByLayer
370
18
48
1
60
0
100
AcDbSpline
70
4
71
3
72
17
73
13
40
0
40
0
40
0
40
0
40
0.0625
40
0.125
40
0.25
40
0.375
40
0.5
40
0.625
40
0.75
40
0.875
40
0.9375
40
1
40
1
40
1
40
1
41
1
10
42.3089597970512
20
7.48133789574567
30
0
41
1
10
42.3154023066162
20
7.50656588512015
30
0
41
1
10
42.3307646622251
20
7.55636481641867
30
0
41
1
10
42.3710970180773
20
7.6523787870282
30
0
41
1
10
42.4388342890122
20
7.76392247094114
30
0
41
1
10
42.5447352166121
20
7.87906490327933
30
0
41
1
10
42.671179033406
20
7.9710735522261
30
0
41
1
10
42.813306479182
20
8.03641208091494
30
0
41
1
10
42.9656560572261
20
8.07257155084264
30
0
41
1
10
43.0962524782311
20
8.07722415296038
30
0
41
1
10
43.1999040273991
20
8.06556618842953
30
0
41
1
10
43.2509553736187
20
8.05467639562892
30
0
41
1
10
43.2761645660318
20
8.04799212241704
30
0
0
SPLINE
5
13B
100
AcDbEntity
8
1
62
256
6
ByLayer
370
18
48
1
60
0
100
AcDbSpline
70
4
71
3
72
8
73
4
40
0
40
0
40
0
40
0
40
1
40
1
40
1
40
1
41
1
10
42.3089597996324
20
7.48133784785028
30
0
41
1
10
42.7731747832384
20
6.60068692420455
30
0
41
1
10
43.2373897668443
20
5.72003600055879
30
0
41
1
10
43.7016047504504
20
4.83938507691306
30
0
0
SPLINE
5
13C
100
AcDbEntity
8
1
62
256
6
ByLayer
370
18
48
1
60
0
100
AcDbSpline
70
4
71
3
72
8
73
4
40
0
40
0
40
0
40
0
40
1
40
1
40
1
40
1
41
1
10
48.1870025633975
20
-2.51412302771527
30
0
41
1
10
46.9994009558858
20
-2.19922783070152
30
0
41
1
10
45.8117993484061
20
-1.88433263369623
30
0
41
1
10
44.6241977408629
20
-1.56943743667412
30
0
0
SPLINE
5
13D
100
AcDbEntity
8
1
62
256
6
ByLayer
370
18
48
1
60
0
100
AcDbSpline
70
4
71
3
72
17
73
13
40
0
40
0
40
0
40
0
40
0.0625
40
0.125
40
0.25
40
0.375
40
0.5
40
0.625
40
0.75
40
0.875
40
0.9375
40
1
40
1
40
1
40
1
41
1
10
49.154207371014
20
-1.94746882323699
30
0
41
1
10
49.147764861449
20
-1.97269681261147
30
0
41
1
10
49.13240250584
20
-2.02249574391001
30
0
41
1
10
49.0920701499879
20
-2.11850971451955
30
0
41
1
10
49.024332879053
20
-2.23005339843249
30
0
41
1
10
48.918431951453
20
-2.34519583077068
30
0
41
1
10
48.7919881346592
20
-2.43720447971745
30
0
41
1
10
48.6498606888832
20
-2.50254300840632
30
0
41
1
10
48.497511110839
20
-2.53870247833399
30
0
41
1
10
48.366914689834
20
-2.54335508045176
30
0
41
1
10
48.263263140666
20
-2.53169711592093
30
0
41
1
10
48.2122117944464
20
-2.5208073231203
30
0
41
1
10
48.1870026020334
20
-2.51412304990845
30
0
0
SPLINE
5
13E
100
AcDbEntity
8
1
62
256
6
ByLayer
370
18
48
1
60
0
100
AcDbSpline
70
4
71
3
72
8
73
4
40
0
40
0
40
0
40
0
40
1
40
1
40
1
40
1
41
1
10
50.9752418003833
20
5.18345397775266
30
0
41
1
10
50.6717360557149
20
3.9949668479527
30
0
41
1
10
50.3682303110547
20
2.80647971818465
30
0
41
1
10
50.0647245663784
20
1.6179925883531
30
0
0
SPLINE
5
13F
100
AcDbEntity
8
1
62
256
6
ByLayer
370
13
48
1
60
0
100
AcDbSpline
70
4
71
3
72
9
73
5
40
0
40
0
40
0
40
0
40
0.5
40
1
40
1
40
1
40
1
41
1
10
41.9492583887229
20
7.46229367114498
30
0
41
1
10
41.94525264574
20
7.46186528874694
30
0
41
1
10
41.9372474193077
20
7.46095995315642
30
0
41
1
10
41.9292547025248
20
7.45995754905155
30
0
41
1
10
41.9252614705601
20
7.45943208751868
30
0
0
SPLINE
5
140
100
AcDbEntity
8
1
62
256
6
ByLayer
370
13
48
1
60
0
100
AcDbSpline
70
4
71
3
72
12
73
8
40
0
40
0
40
0
40
0
40
0.225885929718769
40
0.225885929718769
40
0.612942964859384
40
0.612942964859384
40
1
40
1
40
1
40
1
41
1
10
47.1895350768597
20
-3.06515535132363
30
0
41
1
10
47.1690623768215
20
-3.07978834446053
30
0
41
1
10
47.1480200184547
20
-3.093649612012
30
0
41
1
10
47.0897058791802
20
-3.12889162460274
30
0
41
1
10
47.0514487026237
20
-3.14877611991668
30
0
41
1
10
46.9720667968596
20
-3.18382679337282
30
0
41
1
10
46.9307641671709
20
-3.19902494663034
30
0
41
1
10
46.8887995679542
20
-3.21154624835521
30
0
0
SPLINE
5
141
100
AcDbEntity
8
1
62
256
6
ByLayer
370
13
48
1
60
0
100
AcDbSpline
70
4
71
3
72
14
73
10
40
0
40
0
40
0
40
0
40
0.500000000000001
40
0.500000000000001
40
0.625000000000002
40
0.625000000000002
40
0.750000000000003
40
0.750000000000003
40
1
40
1
40
1
40
1
41
1
10
32.5348835778387
20
5.35794021879218
30
0
41
1
10
32.7120228447404
20
5.00896563324366
30
0
41
1
10
32.9161958700515
20
4.60190009013721
30
0
41
1
10
33.2236305933571
20
4.0361608222955
30
0
41
1
10
33.2879334714531
20
3.91980082667919
30
0
41
1
10
33.4214809942482
20
3.68311495229094
30
0
41
1
10
33.4904896915786
20
3.56319669498933
30
0
41
1
10
33.704663503441
20
3.19936011697715
30
0
41
1
10
33.8569701699016
20
2.951375554527
30
0
41
1
10
34.0200286530165
20
2.6994235116945
30
0
0
SPLINE
5
142
100
AcDbEntity
8
1
62
256
6
ByLayer
370
13
48
1
60
0
100
AcDbSpline
70
4
71
3
72
9
73
5
40
0
40
0
40
0
40
0
40
0.5
40
1
40
1
40
1
40
1
41
1
10
34.0468003595236
20
6.34562634707837
30
0
41
1
10
34.0630301872094
20
6.3464735081958
30
0
41
1
10
34.0954705702048
20
6.34898746347221
30
0
41
1
10
34.1278722913523
20
6.35314566476274
30
0
41
1
10
34.1440633876075
20
6.35564003117722
30
0
0
SPLINE
5
143
100
AcDbEntity
8
1
62
256
6
ByLayer
370
13
48
1
60
0
100
AcDbSpline
70
4
71
3
72
20
73
16
40
0
40
0
40
0
40
0
40
0.250000000000005
40
0.250000000000005
40
0.375000000000005
40
0.375000000000005
40
0.437500000000005
40
0.437500000000005
40
0.500000000000006
40
0.500000000000006
40
0.750000000000003
40
0.750000000000003
40
0.875000000000001
40
0.875000000000001
40
1
40
1
40
1
40
1
41
1
10
34.1440633876074
20
2.51231428270941
30
0
41
1
10
34.475674619029
20
2.02404690817463
30
0
41
1
10
34.8387212858268
20
1.53800459743241
30
0
41
1
10
35.4353207333633
20
0.825470611321805
30
0
41
1
10
35.6428560980535
20
0.590665961706065
30
0
41
1
10
35.9678090134166
20
0.24393872814565
30
0
41
1
10
36.0781220744452
20
0.129589831342116
30
0
41
1
10
36.3012908770925
20
-0.0950369078462074
30
0
41
1
10
36.4143633532142
20
-0.205547870141089
30
0
41
1
10
36.9872370564094
20
-0.748984619633148
30
0
41
1
10
37.4694929857743
20
-1.15465091025848
30
0
41
1
10
38.2310311972219
20
-1.7164844587758
30
0
41
1
10
38.491251878269
20
-1.89596608460423
30
0
41
1
10
39.0250383245992
20
-2.23855454065369
30
0
41
1
10
39.2988942510135
20
-2.40174088219828
30
0
41
1
10
39.5764663622837
20
-2.55455291357248
30
0
0
SPLINE
5
144
100
AcDbEntity
8
1
62
256
6
ByLayer
370
13
48
1
60
0
100
AcDbSpline
70
4
71
3
72
8
73
4
40
0
40
0
40
0
40
0
40
1
40
1
40
1
40
1
41
1
10
34.0200286530145
20
2.69942351169544
30
0
41
1
10
34.0609537041124
20
2.63618760988794
30
0
41
1
10
34.1023119296279
20
2.57378950682423
30
0
41
1
10
34.1440633876075
20
2.51231428270933
30
0
0
SPLINE
5
145
100
AcDbEntity
8
1
62
256
6
ByLayer
370
13
48
1
60
0
100
AcDbSpline
70
4
71
3
72
18
73
14
40
0
40
0
40
0
40
0
40
0.0379184513649318
40
0.0379184513649318
40
0.144816401213267
40
0.144816401213267
40
0.35861230090995
40
0.35861230090995
40
0.572408200606633
40
0.572408200606633
40
0.786204100303317
40
0.786204100303317
40
1
40
1
40
1
40
1
41
1
10
33.5578169649556
20
3.44073387023033
30
0
41
1
10
33.5720235197949
20
3.44107727106495
30
0
41
1
10
33.5868068057686
20
3.44110924075073
30
0
41
1
10
33.6453914658424
20
3.4401446914373
30
0
41
1
10
33.6932561245804
20
3.43712401825351
30
0
41
1
10
33.8447860070009
20
3.42312622307702
30
0
41
1
10
33.9574622230015
20
3.4073167458159
30
0
41
1
10
34.2018949824323
20
3.36960425803974
30
0
41
1
10
34.3306703521741
20
3.3480894646444
30
0
41
1
10
34.5968260325625
20
3.30632094071754
30
0
41
1
10
34.7346287772209
20
3.28576927414042
30
0
41
1
10
35.0201504979968
20
3.25445788318874
30
0
41
1
10
35.1652495831623
20
3.24346569927113
30
0
41
1
10
35.3127088710495
20
3.24820216232345
30
0
0
SPLINE
5
146
100
AcDbEntity
8
1
62
256
6
ByLayer
370
13
48
1
60
0
100
AcDbSpline
70
4
71
3
72
26
73
22
40
0
40
0
40
0
40
0
40
0.0624999999999985
40
0.0624999999999985
40
0.124999999999997
40
0.124999999999997
40
0.249999999999994
40
0.249999999999994
40
0.312499999999992
40
0.312499999999992
40
0.374999999999991
40
0.374999999999991
40
0.499999999999987
40
0.499999999999987
40
0.562499999999989
40
0.562499999999989
40
0.62499999999999
40
0.62499999999999
40
0.749999999999994
40
0.749999999999994
40
1
40
1
40
1
40
1
41
1
10
40.2810598099386
20
-3.38273559264499
30
0
41
1
10
40.3081015901137
20
-3.41110906288713
30
0
41
1
10
40.3474578950567
20
-3.43387792119606
30
0
41
1
10
40.4453751755419
20
-3.47067516848657
30
0
41
1
10
40.5043585504093
20
-3.48471885308228
30
0
41
1
10
40.7041408254986
20
-3.51509221217359
30
0
41
1
10
40.8623815417188
20
-3.51956700749472
30
0
41
1
10
41.1252308083436
20
-3.51023078051884
30
0
41
1
10
41.2173491132314
20
-3.50431740172567
30
0
41
1
10
41.4053361963291
20
-3.48801383747002
30
0
41
1
10
41.5017014996771
20
-3.47761054475285
30
0
41
1
10
41.7968415962261
20
-3.44066292770816
30
0
41
1
10
42.0016104756407
20
-3.40842842463317
30
0
41
1
10
42.3181914137692
20
-3.35112704277165
30
0
41
1
10
42.4252735203509
20
-3.33051703675767
30
0
41
1
10
42.6397968816962
20
-3.28710508110004
30
0
41
1
10
42.7475682082244
20
-3.26424455789453
30
0
41
1
10
43.0722195408948
20
-3.19263336524693
30
0
41
1
10
43.2904304440565
20
-3.14086769826528
30
0
41
1
10
43.9492385060239
20
-2.97611190578624
30
0
41
1
10
44.3945964182797
20
-2.85350914204258
30
0
41
1
10
44.8418938293297
20
-2.723943924932
30
0
0
SPLINE
5
147
100
AcDbEntity
8
1
62
256
6
ByLayer
370
13
48
1
60
0
100
AcDbSpline
70
4
71
3
72
22
73
18
40
0
40
0
40
0
40
0
40
0.0572184447484342
40
0.0572184447484342
40
0.185670981645674
40
0.185670981645674
40
0.314123518542913
40
0.314123518542913
40
0.442576055440152
40
0.442576055440152
40
0.571028592337391
40
0.571028592337391
40
0.699481129234631
40
0.699481129234631
40
0.956386203029095
40
0.956386203029095
40
1
40
1
40
1
40
1
41
1
10
40.8925797038937
20
1.95385170194109
30
0
41
1
10
40.8787868117386
20
1.96282959904363
30
0
41
1
10
40.8657464503063
20
1.97167016681104
30
0
41
1
10
40.8262779712247
20
1.99972638339068
30
0
41
1
10
40.8029708630605
20
2.01839416960587
30
0
41
1
10
40.7649847880173
20
2.05511243087631
30
0
41
1
10
40.7509433773621
20
2.07256491023827
30
0
41
1
10
40.7327030223053
20
2.10693092258182
30
0
41
1
10
40.7285412622287
20
2.12404400045719
30
0
41
1
10
40.7308027501915
20
2.15813317805151
30
0
41
1
10
40.7370788137687
20
2.17508794670812
30
0
41
1
10
40.7597062630139
20
2.21025499886511
30
0
41
1
10
40.7762410700241
20
2.22853974009266
30
0
41
1
10
40.8382731889979
20
2.28459352088464
30
0
41
1
10
40.8976057554747
20
2.32519752749892
30
0
41
1
10
40.9790011000409
20
2.374223908679
30
0
41
1
10
40.9911560093246
20
2.38139967700852
30
0
41
1
10
41.0036137548518
20
2.38861330789601
30
0
0
SPLINE
5
148
100
AcDbEntity
8
1
62
256
6
ByLayer
370
13
48
1
60
0
100
AcDbSpline
70
4
71
3
72
8
73
4
40
0
40
0
40
0
40
0
40
1
40
1
40
1
40
1
41
1
10
34.1440633876074
20
-6.49012392009814
30
0
41
1
10
34.1055098675857
20
-6.48241903395177
30
0
41
1
10
34.0649461120735
20
-6.47576966194083
30
0
41
1
10
34.0200286530134
20
-6.47140628858909
30
0
0
SPLINE
5
149
100
AcDbEntity
8
1
62
256
6
ByLayer
370
13
48
1
60
0
100
AcDbSpline
70
4
71
3
72
8
73
4
40
0
40
0
40
0
40
0
40
1
40
1
40
1
40
1
41
1
10
41.9252614705603
20
7.46971672575401
30
0
41
1
10
41.9310573292075
20
7.47065147202869
30
0
41
1
10
41.938815404661
20
7.46822394142143
30
0
41
1
10
41.9492583887221
20
7.46229367114609
30
0
0
SPLINE
5
14A
100
AcDbEntity
8
1
62
256
6
ByLayer
370
13
48
1
60
0
100
AcDbSpline
70
4
71
3
72
8
73
4
40
0
40
0
40
0
40
0
40
1
40
1
40
1
40
1
41
1
10
39.5764663622838
20
-2.55455291357245
30
0
41
1
10
39.7900587679187
20
-2.83853981557951
30
0
41
1
10
40.0231171253284
20
-3.11527367364397
30
0
41
1
10
40.2810598099386
20
-3.38273559264496
30
0
0
SPLINE
5
14B
100
AcDbEntity
8
1
62
256
6
ByLayer
370
13
48
1
60
0
100
AcDbSpline
70
4
71
3
72
8
73
4
40
0
40
0
40
0
40
0
40
1
40
1
40
1
40
1
41
1
10
34.1440633876075
20
6.3556400311773
30
0
41
1
10
36.7327799028894
20
6.75445228147325
30
0
41
1
10
39.3276338266668
20
7.11761537974095
30
0
41
1
10
41.9252614705601
20
7.45943208751868
30
0
0
SPLINE
5
14C
100
AcDbEntity
8
1
62
256
6
ByLayer
370
13
48
1
60
0
100
AcDbSpline
70
4
71
3
72
8
73
4
40
0
40
0
40
0
40
0
40
1
40
1
40
1
40
1
41
1
10
34.0468003595236
20
6.34562634707837
30
0
41
1
10
34.0378930751308
20
6.34516140652906
30
0
41
1
10
34.0289692494227
20
6.34480640753554
30
0
41
1
10
34.0200286530134
20
6.34456258075338
30
0
0
SPLINE
5
14D
100
AcDbEntity
8
1
62
256
6
ByLayer
370
13
48
1
60
0
100
AcDbSpline
70
4
71
3
72
18
73
14
40
0
40
0
40
0
40
0
40
0.250000000000017
40
0.250000000000017
40
0.375000000000014
40
0.375000000000014
40
0.500000000000012
40
0.500000000000012
40
0.625000000000009
40
0.625000000000009
40
0.750000000000006
40
0.750000000000006
40
1
40
1
40
1
40
1
41
1
10
47.2585593591829
20
-2.94796433309514
30
0
41
1
10
47.2950398626765
20
-2.94087939745862
30
0
41
1
10
47.3393211309672
20
-2.92783162241463
30
0
41
1
10
47.4139102499605
20
-2.89425810604004
30
0
41
1
10
47.4402637323682
20
-2.88061063210969
30
0
41
1
10
47.4934609122188
20
-2.84859509391578
30
0
41
1
10
47.5204977290171
20
-2.83016104007854
30
0
41
1
10
47.57485295521
20
-2.78772303895042
30
0
41
1
10
47.602411161166
20
-2.76348401833476
30
0
41
1
10
47.6561650648525
20
-2.70945919162026
30
0
41
1
10
47.6819898862845
20
-2.68009925561802
30
0
41
1
10
47.7556698347402
20
-2.58461376480901
30
0
41
1
10
47.8002476334018
20
-2.50938690061508
30
0
41
1
10
47.8346861338338
20
-2.42982148811052
30
0
0
SPLINE
5
14E
100
AcDbEntity
8
1
62
256
6
ByLayer
370
13
48
1
60
0
100
AcDbSpline
70
4
71
3
72
10
73
6
40
0
40
0
40
0
40
0
40
0.5
40
0.5
40
1
40
1
40
1
40
1
41
1
10
41.92526147056
20
-4.68457221193037
30
0
41
1
10
41.9753089525118
20
-4.67065682818898
30
0
41
1
10
42.0272866455001
20
-4.65597323691139
30
0
41
1
10
42.131535870594
20
-4.62603926850625
30
0
41
1
10
42.184274006417
20
-4.61066091659191
30
0
41
1
10
42.2376994109034
20
-4.59482175064085
30
0
0
SPLINE
5
14F
100
AcDbEntity
8
1
62
256
6
ByLayer
370
13
48
1
60
0
100
AcDbSpline
70
4
71
3
72
20
73
16
40
0
40
0
40
0
40
0
40
0.134019040061188
40
0.134019040061188
40
0.268038080122375
40
0.268038080122375
40
0.402057120183563
40
0.402057120183563
40
0.53607616024475
40
0.53607616024475
40
0.670095200305938
40
0.670095200305938
40
0.804114240367125
40
0.804114240367125
40
1
40
1
40
1
40
1
41
1
10
36.1092440319793
20
2.0486816599749
30
0
41
1
10
36.0560723767698
20
2.0037517618477
30
0
41
1
10
36.007392838711
20
1.95539263232078
30
0
41
1
10
35.9162576243278
20
1.85585853486847
30
0
41
1
10
35.8736642846536
20
1.80453397773135
30
0
41
1
10
35.7921448832556
20
1.70083511587379
30
0
41
1
10
35.7532423275835
20
1.64843628656138
30
0
41
1
10
35.6791324796412
20
1.54598282798472
30
0
41
1
10
35.6437185094521
20
1.4956423150287
30
0
41
1
10
35.5750827246408
20
1.39757789617198
30
0
41
1
10
35.5418696586027
20
1.34984745862468
30
0
41
1
10
35.4769244205474
20
1.25773929524843
30
0
41
1
10
35.445028722083
20
1.21313073128613
30
0
41
1
10
35.3686894487169
20
1.10984678912351
30
0
41
1
10
35.3255274024733
20
1.05450115692798
30
0
41
1
10
35.283763272067
20
1.00613832393779
30
0
0
SPLINE
5
150
100
AcDbEntity
8
1
62
256
6
ByLayer
370
13
48
1
60
0
100
AcDbSpline
70
4
71
3
72
8
73
4
40
0
40
0
40
0
40
0
40
1
40
1
40
1
40
1
41
1
10
34.0200286530136
20
-5.48146747819175
30
0
41
1
10
34.0648775111034
20
-5.4500909333436
30
0
41
1
10
34.1056497265712
20
-5.41884314267961
30
0
41
1
10
34.1440633876075
20
-5.38802334812743
30
0
0
SPLINE
5
151
100
AcDbEntity
8
1
62
256
6
ByLayer
370
13
48
1
60
0
100
AcDbSpline
70
4
71
3
72
28
73
24
40
0
40
0
40
0
40
0
40
0.0624999999999939
40
0.0624999999999939
40
0.124999999999988
40
0.124999999999988
40
0.249999999999987
40
0.249999999999987
40
0.374999999999987
40
0.374999999999987
40
0.499999999999986
40
0.499999999999986
40
0.562499999999989
40
0.562499999999989
40
0.624999999999992
40
0.624999999999992
40
0.749999999999994
40
0.749999999999994
40
0.812499999999995
40
0.812499999999995
40
0.874999999999997
40
0.874999999999997
40
1
40
1
40
1
40
1
41
1
10
34.0200286530134
20
6.3445625807542
30
0
41
1
10
33.9506815983195
20
6.34267135690004
30
0
41
1
10
33.8809223264782
20
6.33996384559711
30
0
41
1
10
33.7446910075333
20
6.33289860241376
30
0
41
1
10
33.6779531077227
20
6.32854376668891
30
0
41
1
10
33.4818782897385
20
6.31272371855547
30
0
41
1
10
33.3561094696934
20
6.29850533027209
30
0
41
1
10
33.1189233116005
20
6.25997655767515
30
0
41
1
10
33.0115874136203
20
6.23634141104225
30
0
41
1
10
32.8194236195747
20
6.17742937130316
30
0
41
1
10
32.7342311752859
20
6.14159324370621
30
0
41
1
10
32.6309272357118
20
6.07955363261041
30
0
41
1
10
32.6002305239133
20
6.0574184940927
30
0
41
1
10
32.5461878952465
20
6.00994825619316
30
0
41
1
10
32.522728893682
20
5.98443624577055
30
0
41
1
10
32.4644585245849
20
5.90400616264381
30
0
41
1
10
32.441561456651
20
5.8455391735771
30
0
41
1
10
32.4283106103029
20
5.75013847796475
30
0
41
1
10
32.4274771993545
20
5.71693825912698
30
0
41
1
10
32.4325038360144
20
5.64924547516642
30
0
41
1
10
32.4383226729612
20
5.61461420441117
30
0
41
1
10
32.4648420370294
20
5.50841393152888
30
0
41
1
10
32.4947340887785
20
5.4342108482472
30
0
41
1
10
32.5348835778386
20
5.35794021879221
30
0
0
LINE
5
81
100
AcDbEntity
8
1
62
256
6
ByLayer
370
18
48
1
60
0
100
AcDbLine
10
46.180417
20
3.68713
30
0
11
46.175806
21
3.667775
31
0
39
0
210
0
220
0
230
1
0
LINE
5
82
100
AcDbEntity
8
1
62
256
6
ByLayer
370
18
48
1
60
0
100
AcDbLine
10
46.606026
20
2.125141
30
0
11
46.734605
21
2.216798
31
0
39
0
210
0
220
0
230
1
0
LINE
5
83
100
AcDbEntity
8
1
62
256
6
ByLayer
370
18
48
1
60
0
100
AcDbLine
10
46.606026
20
2.125141
30
0
11
46.62002
21
2.110855
31
0
39
0
210
0
220
0
230
1
0
LINE
5
84
100
AcDbEntity
8
1
62
256
6
ByLayer
370
18
48
1
60
0
100
AcDbLine
10
45.030292
20
3.682832
30
0
11
45.044734
21
3.669001
31
0
39
0
210
0
220
0
230
1
0
LINE
5
85
100
AcDbEntity
8
1
62
256
6
ByLayer
370
18
48
1
60
0
100
AcDbLine
10
46.588529
20
3.25966
30
0
11
46.607755
21
3.264564
31
0
39
0
210
0
220
0
230
1
0
LINE
5
86
100
AcDbEntity
8
1
62
256
6
ByLayer
370
18
48
1
60
0
100
AcDbLine
10
46.62002
20
2.110855
30
0
11
46.749826
21
2.203387
31
0
39
0
210
0
220
0
230
1
0
LINE
5
87
100
AcDbEntity
8
1
62
256
6
ByLayer
370
18
48
1
60
0
100
AcDbLine
10
46.180417
20
3.68713
30
0
11
46.310224
21
3.779662
31
0
39
0
210
0
220
0
230
1
0
LINE
5
88
100
AcDbEntity
8
1
62
256
6
ByLayer
370
18
48
1
60
0
100
AcDbLine
10
46.175806
20
3.667775
30
0
11
46.304385
21
3.759432
31
0
39
0
210
0
220
0
230
1
0
LINE
5
89
100
AcDbEntity
8
1
62
256
6
ByLayer
370
18
48
1
60
0
100
AcDbLine
10
45.030292
20
3.682832
30
0
11
45.160099
21
3.775364
31
0
39
0
210
0
220
0
230
1
0
LINE
5
8A
100
AcDbEntity
8
1
62
256
6
ByLayer
370
18
48
1
60
0
100
AcDbLine
10
45.044734
20
3.669001
30
0
11
45.173313
21
3.760658
31
0
39
0
210
0
220
0
230
1
0
LINE
5
8B
100
AcDbEntity
8
1
62
256
6
ByLayer
370
18
48
1
60
0
100
AcDbLine
10
46.588529
20
3.25966
30
0
11
46.717108
21
3.351317
31
0
39
0
210
0
220
0
230
1
0
LINE
5
8C
100
AcDbEntity
8
1
62
256
6
ByLayer
370
18
48
1
60
0
100
AcDbLine
10
46.607755
20
3.264564
30
0
11
46.737561
21
3.357096
31
0
39
0
210
0
220
0
230
1
0
LINE
5
8D
100
AcDbEntity
8
1
62
256
6
ByLayer
370
18
48
1
60
0
100
AcDbLine
10
45.635325
20
1.551325
30
0
11
45.630093
21
1.532135
31
0
39
0
210
0
220
0
230
1
0
LINE
5
8E
100
AcDbEntity
8
1
62
256
6
ByLayer
370
18
48
1
60
0
100
AcDbLine
10
45.635325
20
1.551325
30
0
11
45.763904
21
1.642983
31
0
39
0
210
0
220
0
230
1
0
LINE
5
8F
100
AcDbEntity
8
1
62
256
6
ByLayer
370
18
48
1
60
0
100
AcDbLine
10
45.630093
20
1.532135
30
0
11
45.7599
21
1.624667
31
0
39
0
210
0
220
0
230
1
0
LINE
5
90
100
AcDbEntity
8
1
62
256
6
ByLayer
370
18
48
1
60
0
100
AcDbLine
10
44.518705
20
2.709846
30
0
11
44.615335
21
2.778728
31
0
39
0
210
0
220
0
230
1
0
LINE
5
91
100
AcDbEntity
8
1
62
256
6
ByLayer
370
18
48
1
60
0
100
AcDbLine
10
44.426562
20
4.415596
30
0
11
44.426502
21
4.415553
31
0
39
0
210
0
220
0
230
1
0
LINE
5
92
100
AcDbEntity
8
1
62
256
6
ByLayer
370
18
48
1
60
0
100
AcDbLine
10
44.522155
20
2.720362
30
0
11
44.597509
21
2.774078
31
0
39
0
210
0
220
0
230
1
0
LINE
5
93
100
AcDbEntity
8
SK1
62
256
6
ByLayer
370
13
48
1
60
0
100
AcDbLine
10
0
20
-7.99725
30
0
11
0
21
7.99725
31
0
39
0
210
0
220
0
230
1
0
LINE
5
95
100
AcDbEntity
8
SK1
62
256
6
ByLayer
370
13
48
1
60
0
100
AcDbLine
10
-49
20
6.99725
30
0
11
-49
21
-6.99725
31
0
39
0
210
0
220
0
230
1
0
LINE
5
96
100
AcDbEntity
8
SK1
62
256
6
ByLayer
370
13
48
1
60
0
100
AcDbLine
10
-48
20
7.99725
30
0
11
-48
21
-7.99725
31
0
39
0
210
0
220
0
230
1
0
LINE
5
97
100
AcDbEntity
8
1
62
256
6
ByLayer
370
13
48
1
60
0
100
AcDbLine
10
34.775205
20
-6.554469
30
0
11
47.188934
21
-2.958679
31
0
39
0
210
0
220
0
230
1
0
LINE
5
98
100
AcDbEntity
8
1
62
256
6
ByLayer
370
13
48
1
60
0
100
AcDbLine
10
46.8888
20
-3.211546
30
0
11
47.258559
21
-2.947964
31
0
39
0
210
0
220
0
230
1
0
LINE
5
99
100
AcDbEntity
8
1
62
256
6
ByLayer
370
13
48
1
60
0
100
AcDbLine
10
1.361449
20
6.635801
30
0
11
1.361449
21
-6.635801
31
0
39
0
210
0
220
0
230
1
0
LINE
5
9A
100
AcDbEntity
8
1
62
256
6
ByLayer
370
13
48
1
60
0
100
AcDbLine
10
40.070687
20
1.887291
30
0
11
41.027025
21
2.461487
31
0
39
0
210
0
220
0
230
1
0
LINE
5
9B
100
AcDbEntity
8
1
62
256
6
ByLayer
370
13
48
1
60
0
100
AcDbLine
10
40.301432
20
2.054428
30
0
11
40.087503
21
1.901929
31
0
39
0
210
0
220
0
230
1
0
LINE
5
9C
100
AcDbEntity
8
1
62
256
6
ByLayer
370
13
48
1
60
0
100
AcDbLine
10
46.818718
20
-2.151333
30
0
11
44.841894
21
-2.723944
31
0
39
0
210
0
220
0
230
1
0
LINE
5
9D
100
AcDbEntity
8
1
62
256
6
ByLayer
370
13
48
1
60
0
100
AcDbLine
10
41.925261
20
7.459432
30
0
11
41.925261
21
7.469726
31
0
39
0
210
0
220
0
230
1
0
LINE
5
9E
100
AcDbEntity
8
1
62
256
6
ByLayer
370
13
48
1
60
0
100
AcDbLine
10
34.020029
20
6.344563
30
0
11
34.020029
21
6.489354
31
0
39
0
210
0
220
0
230
1
0
LINE
5
9F
100
AcDbEntity
8
1
62
256
6
ByLayer
370
13
48
1
60
0
100
AcDbLine
10
34.020029
20
-6.489354
30
0
11
34.020029
21
-6.471406
31
0
39
0
210
0
220
0
230
1
0
LINE
5
A0
100
AcDbEntity
8
1
62
256
6
ByLayer
370
13
48
1
60
0
100
AcDbLine
10
40.301432
20
2.054428
30
0
11
41.032452
21
2.482709
31
0
39
0
210
0
220
0
230
1
0
LINE
5
A1
100
AcDbEntity
8
1
62
256
6
ByLayer
370
13
48
1
60
0
100
AcDbLine
10
34.144063
20
-6.490124
30
0
11
34.144063
21
-6.497076
31
0
39
0
210
0
220
0
230
1
0
LINE
5
A2
100
AcDbEntity
8
1
62
256
6
ByLayer
370
13
48
1
60
0
100
AcDbLine
10
34.144063
20
6.497076
30
0
11
34.144063
21
6.35564
31
0
39
0
210
0
220
0
230
1
0
LINE
5
A3
100
AcDbEntity
8
1
62
256
6
ByLayer
370
13
48
1
60
0
100
AcDbLine
10
34.020029
20
-5.481467
30
0
11
34.020029
21
2.699424
31
0
39
0
210
0
220
0
230
1
0
LINE
5
A4
100
AcDbEntity
8
1
62
256
6
ByLayer
370
13
48
1
60
0
100
AcDbLine
10
34.144063
20
2.512314
30
0
11
34.144063
21
-5.388023
31
0
39
0
210
0
220
0
230
1
0
LINE
5
A5
100
AcDbEntity
8
1
62
256
6
ByLayer
370
13
48
1
60
0
100
AcDbLine
10
1.715003
20
6.489354
30
0
11
1.715003
21
-6.489354
31
0
39
0
210
0
220
0
230
1
0
LINE
5
A6
100
AcDbEntity
8
1
62
256
6
ByLayer
370
13
48
1
60
0
100
AcDbLine
10
0
20
-7.99725
30
0
11
0
21
7.99725
31
0
39
0
210
0
220
0
230
1
0
LINE
5
A7
100
AcDbEntity
8
81
62
256
6
ByLayer
370
18
48
1
60
0
100
AcDbLine
10
51
20
6
30
0
11
56
21
6
31
0
39
0
210
0
220
0
230
1
0
LINE
5
A8
100
AcDbEntity
8
SK4
62
256
6
ByLayer
370
18
48
0.05
60
0
100
AcDbLine
10
-54
20
0
30
0
11
56
21
0
31
0
39
0
210
0
220
0
230
1
0
LINE
5
AA
100
AcDbEntity
8
80
62
256
6
ByLayer
370
18
48
1
60
0
100
AcDbLine
10
0
20
0
30
0
11
-5
21
0
31
0
39
0
210
0
220
0
230
1
0
LINE
5
AB
100
AcDbEntity
8
1
62
256
6
ByLayer
370
18
48
1
60
0
100
AcDbLine
10
46.836262
20
2.755006
30
0
11
46.710168
21
2.66512
31
0
39
0
210
0
220
0
230
1
0
LINE
5
AC
100
AcDbEntity
8
1
62
256
6
ByLayer
370
18
48
1
60
0
100
AcDbLine
10
45.516726
20
3.71831
30
0
11
45.639032
21
3.805496
31
0
39
0
210
0
220
0
230
1
0
LINE
5
AD
100
AcDbEntity
8
1
62
256
6
ByLayer
370
18
48
1
60
0
100
AcDbLine
10
45.841294
20
1.740605
30
0
11
45.71893
21
1.653379
31
0
39
0
210
0
220
0
230
1
0
LINE
5
AE
100
AcDbEntity
8
1
62
256
6
ByLayer
370
18
48
1
60
0
100
AcDbLine
10
44.525489
20
2.706569
30
0
11
44.651583
21
2.796455
31
0
39
0
210
0
220
0
230
1
0
LINE
5
AF
100
AcDbEntity
8
1
62
256
6
ByLayer
370
18
48
1
60
0
100
AcDbLine
10
46.864441
20
0.995546
30
0
11
46.946002
21
1.053687
31
0
39
0
210
0
220
0
230
1
0
LINE
5
B0
100
AcDbEntity
8
1
62
256
6
ByLayer
370
18
48
1
60
0
100
AcDbLine
10
44.508063
20
4.473694
30
0
11
44.426502
21
4.415553
31
0
39
0
210
0
220
0
230
1
0
LINE
5
B1
100
AcDbEntity
8
1
62
256
6
ByLayer
370
13
48
1
60
0
100
AcDbLine
10
47.188837
20
-3.065713
30
0
11
47.52021
21
-2.829495
31
0
39
0
210
0
220
0
230
1
0
LINE
5
B2
100
AcDbEntity
8
1
62
256
6
ByLayer
370
13
48
1
60
0
100
AcDbLine
10
34.144063
20
-6.497076
30
0
11
34.345475
21
-6.522253
31
0
39
0
210
0
220
0
230
1
0
LINE
5
B3
100
AcDbEntity
8
1
62
256
6
ByLayer
370
13
48
1
60
0
100
AcDbLine
10
41.925261
20
7.469726
30
0
11
34.144063
21
6.497076
31
0
39
0
210
0
220
0
230
1
0
LINE
5
B4
100
AcDbEntity
8
1
62
256
6
ByLayer
370
13
48
1
60
0
100
AcDbLine
10
1.715003
20
-6.489354
30
0
11
34.020029
21
-6.489354
31
0
39
0
210
0
220
0
230
1
0
LINE
5
B5
100
AcDbEntity
8
1
62
256
6
ByLayer
370
13
48
1
60
0
100
AcDbLine
10
34.020029
20
6.489354
30
0
11
1.715003
21
6.489354
31
0
39
0
210
0
220
0
230
1
0
LINE
5
B6
100
AcDbEntity
8
1
62
256
6
ByLayer
370
13
48
1
60
0
100
AcDbLine
10
1.361449
20
6.635801
30
0
11
0
21
7.99725
31
0
39
0
210
0
220
0
230
1
0
LINE
5
B7
100
AcDbEntity
8
1
62
256
6
ByLayer
370
13
48
1
60
0
100
AcDbLine
10
0
20
-7.99725
30
0
11
1.361449
21
-6.635801
31
0
39
0
210
0
220
0
230
1
0
LINE
5
B8
100
AcDbEntity
8
SK1
62
256
6
ByLayer
370
13
48
1
60
0
100
AcDbLine
10
-48
20
-7.99725
30
0
11
0
21
-7.99725
31
0
39
0
210
0
220
0
230
1
0
LINE
5
B9
100
AcDbEntity
8
SK1
62
256
6
ByLayer
370
13
48
1
60
0
100
AcDbLine
10
0
20
7.99725
30
0
11
-48
21
7.99725
31
0
39
0
210
0
220
0
230
1
0
LINE
5
BA
100
AcDbEntity
8
SK1
62
256
6
ByLayer
370
13
48
1
60
0
100
AcDbLine
10
-49
20
-6.99725
30
0
11
-48
21
-7.99725
31
0
39
0
210
0
220
0
230
1
0
LINE
5
BB
100
AcDbEntity
8
SK1
62
256
6
ByLayer
370
13
48
1
60
0
100
AcDbLine
10
-48
20
7.99725
30
0
11
-49
21
6.99725
31
0
39
0
210
0
220
0
230
1
0
LINE
5
BC
100
AcDbEntity
8
4
62
256
6
ByLayer
370
18
48
0.05
60
0
100
AcDbLine
10
0
20
0
30
0
11
56
21
0
31
0
39
0
210
0
220
0
230
1
0
LINE
5
BE
100
AcDbEntity
8
SK2
62
256
6
ByLayer
370
13
48
1
60
0
100
AcDbLine
10
42.318742
20
8.326136
30
0
11
36.26634
21
9.947872
31
0
39
0
210
0
220
0
230
1
0
LINE
5
C0
100
AcDbEntity
8
SK2
62
256
6
ByLayer
370
13
48
1
60
0
100
AcDbLine
10
51
20
7.5875
30
0
11
51
21
21.253408
31
0
39
0
210
0
220
0
230
1
0
LINE
5
C1
100
AcDbEntity
8
1
62
256
6
ByLayer
370
13
48
1
60
0
100
AcDbLine
10
39.333154
20
9.126122
30
0
11
39.957571
21
12.267052
31
0
39
0
210
0
220
0
230
1
0
LINE
5
C2
100
AcDbEntity
8
1
62
256
6
ByLayer
370
13
48
1
60
0
100
AcDbLine
10
39.333154
20
9.126122
30
0
11
40.749229
21
11.998419
31
0
39
0
210
0
220
0
230
1
0
LINE
5
C3
100
AcDbEntity
8
1
62
256
6
ByLayer
370
13
48
1
60
0
100
AcDbLine
10
39.957571
20
12.267052
30
0
11
40.749229
21
11.998419
31
0
39
0
210
0
220
0
230
1
0
LINE
5
C4
100
AcDbEntity
8
1
62
256
6
ByLayer
370
13
48
1
60
0
100
AcDbLine
10
51
20
18.078408
30
0
11
47.85907
21
17.45399
31
0
39
0
210
0
220
0
230
1
0
LINE
5
C5
100
AcDbEntity
8
1
62
256
6
ByLayer
370
13
48
1
60
0
100
AcDbLine
10
51
20
18.078408
30
0
11
47.804481
21
18.288199
31
0
39
0
210
0
220
0
230
1
0
LINE
5
C6
100
AcDbEntity
8
1
62
256
6
ByLayer
370
13
48
1
60
0
100
AcDbLine
10
47.85907
20
17.45399
30
0
11
47.804481
21
18.288199
31
0
39
0
210
0
220
0
230
1
0
MTEXT
5
152
100
AcDbEntity
8
SK2
62
256
6
ByLayer
370
18
48
1
60
0
100
AcDbMText
10
39.455453
20
13.803798
30
0
210
0
220
0
230
1
1
\W0.9771;75%%d
40
4.5
41
0
44
1.084337
50
37.5
71
7
72
5
7
iso_b_vert
0
MTEXT
5
155
100
AcDbEntity
8
SK6
62
256
6
ByLayer
370
18
48
1
60
0
100
AcDbMText
10
-18.788
20
-50.781178
30
0
210
0
220
0
230
1
1
\W0.7398;495-012A16-7509L
40
4
41
0
44
1.084337
50
0
71
7
72
5
7
iso_b_vert
0
DIMENSION
5
158
100
AcDbEntity
8
2
62
256
6
ByLayer
370
18
48
1
60
0
100
AcDbDimension
2
_U0
10
75.896875
20
6
30
0
11
75.896875
21
24.435427
31
0
70
32
71
1
72
1
41
1
210
0
220
0
230
1
3
Standard
100
AcDbAlignedDimension
13
51
23
-6
33
0
14
51
24
6
34
0
50
90
100
AcDbRotatedDimension
1001
ACAD
1000
DSTYLE
1002
{
1070
   371
1070
    13
1070
   372
1070
    13
1070
   170
1070
     0
1070
   144
1040
1.0
1070
   277
1070
     2
1070
   284
1070
     8
1070
   278
1070
    46
1070
   146
1040
0.777778
1070
   345
1005
16
1070
   347
1005
16
1070
   346
1005
16
1070
   344
1005
159
1070
   343
1005
159
1070
   172
1070
     1
1070
    76
1070
     0
1070
    75
1070
     0
1070
   282
1070
     0
1070
   281
1070
     0
1070
    71
1070
     0
1070
    74
1070
     0
1070
   279
1070
     0
1070
   173
1070
     1
1070
   340
1005
153
1070
   271
1070
     2
1070
   272
1070
     2
1070
    77
1070
     1
1070
    73
1070
     0
1070
   171
1070
     3
1070
   274
1070
     4
1070
   177
1070
   150
1070
   176
1070
     9
1070
   178
1070
    43
1070
    78
1070
     8
1070
    48
1040
-0.1
1070
    41
1040
3.175
1070
   147
1040
2.25
1070
    42
1040
1.5875
1070
    44
1040
3.175
1070
   140
1040
4.5
1002
}
1001
ACAD_DSTYLE_DIM_LINETYPE
1070
   380
1005
16
1001
ACAD_DSTYLE_DIM_EXT1_LINETYPE
1070
   381
1005
16
1001
ACAD_DSTYLE_DIM_EXT2_LINETYPE
1070
   382
1005
16
0
DIMENSION
5
180
100
AcDbEntity
8
SK2
62
256
6
ByLayer
370
18
48
1
60
0
100
AcDbDimension
2
_U1
10
0
20
-30.5
30
0
11
25.5
21
-30.5
31
0
70
32
71
1
72
1
41
1
210
0
220
0
230
1
3
Standard
100
AcDbAlignedDimension
13
51
23
-6
33
0
14
0
24
0
34
0
50
0
100
AcDbRotatedDimension
1001
ACAD
1000
DSTYLE
1002
{
1070
   371
1070
    13
1070
   372
1070
    13
1070
   170
1070
     0
1070
   144
1040
1.0
1070
   277
1070
     2
1070
   284
1070
     8
1070
   278
1070
    46
1070
   146
1040
0.777778
1070
   345
1005
16
1070
   347
1005
16
1070
   346
1005
16
1070
   344
1005
159
1070
   343
1005
159
1070
   172
1070
     1
1070
    76
1070
     0
1070
    75
1070
     0
1070
   282
1070
     0
1070
   281
1070
     0
1070
    71
1070
     0
1070
    74
1070
     0
1070
   279
1070
     0
1070
   173
1070
     1
1070
   340
1005
153
1070
   271
1070
     2
1070
   272
1070
     2
1070
    77
1070
     1
1070
    73
1070
     1
1070
   171
1070
     3
1070
   274
1070
     4
1070
   177
1070
   150
1070
   176
1070
     9
1070
   178
1070
    43
1070
    78
1070
     8
1070
    48
1040
-0.1
1070
    41
1040
3.175
1070
   147
1040
2.25
1070
    42
1040
1.5875
1070
    44
1040
3.175
1070
   140
1040
4.5
1002
}
1001
ACAD_DSTYLE_DIM_LINETYPE
1070
   380
1005
16
1001
ACAD_DSTYLE_DIM_EXT1_LINETYPE
1070
   381
1005
16
1001
ACAD_DSTYLE_DIM_EXT2_LINETYPE
1070
   382
1005
16
0
DIMENSION
5
19C
100
AcDbEntity
8
2
62
256
6
ByLayer
370
18
48
1
60
0
100
AcDbDimension
2
_U2
10
51
20
26.5
30
0
11
1
21
26.5
31
0
70
32
71
1
72
1
41
1
210
0
220
0
230
1
3
Standard
100
AcDbAlignedDimension
13
-49
23
8
33
0
14
51
24
6
34
0
50
0
100
AcDbRotatedDimension
1001
ACAD
1000
DSTYLE
1002
{
1070
   371
1070
    13
1070
   372
1070
    13
1070
   170
1070
     0
1070
   144
1040
1.0
1070
   277
1070
     2
1070
   284
1070
     8
1070
   278
1070
    46
1070
   146
1040
0.777778
1070
   345
1005
16
1070
   347
1005
16
1070
   346
1005
16
1070
   344
1005
159
1070
   343
1005
159
1070
   172
1070
     1
1070
    76
1070
     0
1070
    75
1070
     0
1070
   282
1070
     0
1070
   281
1070
     0
1070
    71
1070
     0
1070
    74
1070
     0
1070
   279
1070
     0
1070
   173
1070
     1
1070
   340
1005
153
1070
   271
1070
     2
1070
   272
1070
     2
1070
    77
1070
     1
1070
    73
1070
     1
1070
   171
1070
     3
1070
   274
1070
     4
1070
   177
1070
   150
1070
   176
1070
     9
1070
   178
1070
    43
1070
    78
1070
     8
1070
    48
1040
-0.1
1070
    41
1040
3.175
1070
   147
1040
2.25
1070
    42
1040
1.5875
1070
    44
1040
3.175
1070
   140
1040
4.5
1002
}
1001
ACAD_DSTYLE_DIM_LINETYPE
1070
   380
1005
16
1001
ACAD_DSTYLE_DIM_EXT1_LINETYPE
1070
   381
1005
16
1001
ACAD_DSTYLE_DIM_EXT2_LINETYPE
1070
   382
1005
16
0
DIMENSION
5
1B8
100
AcDbEntity
8
SK2
62
256
6
ByLayer
370
18
48
1
60
0
100
AcDbDimension
2
_U3
10
43.06
20
16.5
30
0
11
-2.97
21
16.5
31
0
70
32
71
1
72
1
41
1
210
0
220
0
230
1
3
Standard
100
AcDbAlignedDimension
13
-49
23
8
33
0
14
43.06
24
8.07
34
0
50
0
100
AcDbRotatedDimension
1001
ACAD
1000
DSTYLE
1002
{
1070
   371
1070
    13
1070
   372
1070
    13
1070
   170
1070
     0
1070
   144
1040
1.0
1070
   277
1070
     2
1070
   284
1070
     8
1070
   278
1070
    46
1070
   146
1040
0.777778
1070
   345
1005
16
1070
   347
1005
16
1070
   346
1005
16
1070
   344
1005
159
1070
   343
1005
159
1070
   172
1070
     1
1070
    76
1070
     0
1070
    75
1070
     0
1070
   282
1070
     0
1070
   281
1070
     0
1070
    71
1070
     0
1070
    74
1070
     0
1070
   279
1070
     0
1070
   173
1070
     1
1070
   340
1005
153
1070
   271
1070
     2
1070
   272
1070
     2
1070
    77
1070
     1
1070
    73
1070
     1
1070
   171
1070
     3
1070
   274
1070
     4
1070
   177
1070
   150
1070
   176
1070
     9
1070
   178
1070
    43
1070
    78
1070
     8
1070
    48
1040
-0.1
1070
    41
1040
3.175
1070
   147
1040
2.25
1070
    42
1040
1.5875
1070
    44
1040
3.175
1070
   140
1040
4.5
1002
}
1001
ACAD_DSTYLE_DIM_LINETYPE
1070
   380
1005
16
1001
ACAD_DSTYLE_DIM_EXT1_LINETYPE
1070
   381
1005
16
1001
ACAD_DSTYLE_DIM_EXT2_LINETYPE
1070
   382
1005
16
0
DIMENSION
5
1D4
100
AcDbEntity
8
SK2
62
256
6
ByLayer
370
18
48
1
60
0
100
AcDbDimension
2
_U4
10
86.75
20
8.07
30
0
11
86.75
21
31.031384
31
0
70
32
71
1
72
1
41
1
210
0
220
0
230
1
3
Standard
100
AcDbAlignedDimension
13
43.06
23
-8.07
33
0
14
43.06
24
8.07
34
0
50
90
100
AcDbRotatedDimension
1001
ACAD
1000
DSTYLE
1002
{
1070
   371
1070
    13
1070
   372
1070
    13
1070
   170
1070
     0
1070
   144
1040
1.0
1070
   277
1070
     2
1070
   284
1070
     8
1070
   278
1070
    46
1070
   146
1040
0.777778
1070
   345
1005
16
1070
   347
1005
16
1070
   346
1005
16
1070
   344
1005
159
1070
   343
1005
159
1070
   172
1070
     1
1070
    76
1070
     0
1070
    75
1070
     0
1070
   282
1070
     0
1070
   281
1070
     0
1070
    71
1070
     0
1070
    74
1070
     0
1070
   279
1070
     0
1070
   173
1070
     1
1070
   340
1005
153
1070
   271
1070
     2
1070
   272
1070
     2
1070
    77
1070
     1
1070
    73
1070
     0
1070
   171
1070
     3
1070
   274
1070
     4
1070
   177
1070
   150
1070
   176
1070
     9
1070
   178
1070
    43
1070
    78
1070
     8
1070
    48
1040
-0.1
1070
    41
1040
3.175
1070
   147
1040
2.25
1070
    42
1040
1.5875
1070
    44
1040
3.175
1070
   140
1040
4.5
1002
}
1001
ACAD_DSTYLE_DIM_LINETYPE
1070
   380
1005
16
1001
ACAD_DSTYLE_DIM_EXT1_LINETYPE
1070
   381
1005
16
1001
ACAD_DSTYLE_DIM_EXT2_LINETYPE
1070
   382
1005
16
0
DIMENSION
5
1F3
100
AcDbEntity
8
SK2
62
256
6
ByLayer
370
18
48
1
60
0
100
AcDbDimension
2
_U5
10
-74.103125
20
-8
30
0
11
-74.103125
21
26.435427
31
0
70
32
71
1
72
1
41
1
210
0
220
0
230
1
3
Standard
100
AcDbAlignedDimension
13
-49
23
8
33
0
14
-49
24
-8
34
0
50
90
100
AcDbRotatedDimension
1001
ACAD
1000
DSTYLE
1002
{
1070
   371
1070
    13
1070
   372
1070
    13
1070
   170
1070
     0
1070
   144
1040
1.0
1070
   277
1070
     2
1070
   284
1070
     8
1070
   278
1070
    46
1070
   146
1040
0.777778
1070
   345
1005
16
1070
   347
1005
16
1070
   346
1005
16
1070
   344
1005
159
1070
   343
1005
159
1070
   172
1070
     1
1070
    76
1070
     0
1070
    75
1070
     0
1070
   282
1070
     0
1070
   281
1070
     0
1070
    71
1070
     0
1070
    74
1070
     0
1070
   279
1070
     0
1070
   173
1070
     1
1070
   340
1005
153
1070
   271
1070
     2
1070
   272
1070
     2
1070
    77
1070
     1
1070
    73
1070
     0
1070
   171
1070
     3
1070
   274
1070
     4
1070
   177
1070
   150
1070
   176
1070
     9
1070
   178
1070
    43
1070
    78
1070
     8
1070
    48
1040
-0.1
1070
    41
1040
3.175
1070
   147
1040
2.25
1070
    42
1040
1.5875
1070
    44
1040
3.175
1070
   140
1040
4.5
1002
}
1001
ACAD_DSTYLE_DIM_LINETYPE
1070
   380
1005
16
1001
ACAD_DSTYLE_DIM_EXT1_LINETYPE
1070
   381
1005
16
1001
ACAD_DSTYLE_DIM_EXT2_LINETYPE
1070
   382
1005
16
0
ENDSEC
0
SECTION
2
OBJECTS
0
DICTIONARY
5
282
330
0
100
AcDbDictionary
280
0
281
1
3
ACAD_GROUP
350
283
3
ACAD_MLINESTYLE
350
284
0
DICTIONARY
5
283
330
0
100
AcDbDictionary
280
0
281
1
0
DICTIONARY
5
284
330
0
100
AcDbDictionary
280
0
281
1
3
Standard
350
18
0
MLINESTYLE
5
18
330
284
100
AcDbMlineStyle
2
Standard
70
0
3

62
256
51
90
52
90
71
2
49
-0.5
62
256
6
ByLayer
49
0.5
62
256
6
ByLayer
0
RASTERVARIABLES
5
270
330

100
AcDbRasterVariables
90
0
70
1
71
1
72
1
0
ENDSEC
0
EOF
