0
SECTION
2
HEADER
9
$ACADVER
1
AC1015
9
$DWGCODEPAGE
3
ANSI_1252
9
$HANDSEED
5
282
9
$ANGBASE
50
0
9
$ANGDIR
70
0
9
$ATTMODE
70
1
9
$AUNITS
70
0
9
$AUPREC
70
0
9
$CECOLOR
62
256
9
$CELTSCALE
40
1
9
$CELTYPE
6
ByLayer
9
$CELWEIGHT
370
18
9
$CLAYER
8
0
9
$CMLJUST
70
0
9
$CMLSCALE
40
1
9
$CMLSTYLE
2
Standard
9
$DIMSTYLE
2
Standard
9
$TEXTSIZE
40
0.2
9
$TEXTSTYLE
7
Standard
9
$LUNITS
70
2
9
$LUPREC
70
4
9
$EXTNAMES
290
1
9
$INSUNITS
70
4
9
$LTSCALE
40
1
9
$LWDISPLAY
290
1
9
$PDMODE
70
0
9
$PDSIZE
40
0
9
$PLINEGEN
70
0
0
ENDSEC
0
SECTION
2
CLASSES
0
CLASS
1
RASTERVARIABLES
2
AcDbRasterVariables
3
ISM
90
0
280
0
281
0
0
ENDSEC
0
SECTION
2
TABLES
0
TABLE
2
VPORT
5
278
100
AcDbSymbolTable
0
VPORT
5
1
100
AcDbSymbolTableRecord
100
AcDbViewportTableRecord
2
*Active
70
0
10
0
20
0
11
1
21
1
12
-1
22
1
13
0
23
0
14
0.5
24
0.5
15
10
25
10
16
0
26
0
36
1
17
0
27
0
37
0
0
ENDTAB
0
TABLE
2
LTYPE
5
279
100
AcDbSymbolTable
0
LTYPE
5
14
100
AcDbSymbolTableRecord
100
AcDbLinetypeTableRecord
70
0
2
ByBlock
3

72
65
73
0
40
0
0
LTYPE
5
15
100
AcDbSymbolTableRecord
100
AcDbLinetypeTableRecord
70
0
2
ByLayer
3

72
65
73
0
40
0
0
LTYPE
5
16
100
AcDbSymbolTableRecord
100
AcDbLinetypeTableRecord
70
0
2
Continuous
3
Solid line
72
65
73
0
40
0
0
LTYPE
5
6E
100
AcDbSymbolTableRecord
100
AcDbLinetypeTableRecord
70
0
2
CENTER
3
____ _ ____ _ ____ _ ____
72
65
73
4
40
47.5
49
22
74
0
49
-8.5
74
0
49
8.5
74
0
49
-8.5
74
0
0
LTYPE
5
6F
100
AcDbSymbolTableRecord
100
AcDbLinetypeTableRecord
70
0
2
DASHED
3
__ __ __ __ __ __ __ __ __
72
65
73
2
40
25.72
49
12.86
74
0
49
-12.86
74
0
0
ENDTAB
0
TABLE
2
LAYER
5
27a
100
AcDbSymbolTable
0
LAYER
5
10
100
AcDbSymbolTableRecord
100
AcDbLayerTableRecord
2
0
70
0
62
7
6
Continuous
290
1
370
-3
390
0
0
LAYER
5
71
100
AcDbSymbolTableRecord
100
AcDbLayerTableRecord
2
81
70
0
62
-3
6
Continuous
290
1
370
-3
390
0
0
LAYER
5
73
100
AcDbSymbolTableRecord
100
AcDbLayerTableRecord
2
80
70
0
62
-6
6
Continuous
290
1
370
-3
390
0
0
LAYER
5
75
100
AcDbSymbolTableRecord
100
AcDbLayerTableRecord
2
1
70
0
62
4
6
Continuous
290
1
370
-3
390
0
0
LAYER
5
B9
100
AcDbSymbolTableRecord
100
AcDbLayerTableRecord
2
4
70
0
62
-2
6
CENTER
290
1
370
-3
390
0
0
LAYER
5
156
100
AcDbSymbolTableRecord
100
AcDbLayerTableRecord
2
Defpoints
70
0
62
7
6
Continuous
290
0
370
-3
390
0
0
LAYER
5
165
100
AcDbSymbolTableRecord
100
AcDbLayerTableRecord
2
2
70
0
62
7
6
Continuous
290
1
370
-3
390
0
0
LAYER
5
264
100
AcDbSymbolTableRecord
100
AcDbLayerTableRecord
2
SK1
70
0
62
4
6
Continuous
290
1
370
-3
390
0
0
LAYER
5
265
100
AcDbSymbolTableRecord
100
AcDbLayerTableRecord
2
SK4
70
0
62
2
6
CENTER
290
1
370
-3
390
0
0
LAYER
5
266
100
AcDbSymbolTableRecord
100
AcDbLayerTableRecord
2
SK2
70
0
62
7
6
Continuous
290
1
370
-3
390
0
0
LAYER
5
267
100
AcDbSymbolTableRecord
100
AcDbLayerTableRecord
2
SK6
70
0
62
5
6
Continuous
290
1
370
-3
390
0
0
ENDTAB
0
TABLE
2
STYLE
5
27b
100
AcDbSymbolTable
0
STYLE
5
11
100
AcDbSymbolTableRecord
100
AcDbTextStyleTableRecord
2
Standard
3
txt
70
0
71
0
40
0
41
1
42
0
50
0
0
STYLE
5
147
100
AcDbSymbolTableRecord
100
AcDbTextStyleTableRecord
2
iso_b_vert
3
simplex.shx
70
0
71
0
40
0
41
1
42
0
50
0
0
STYLE
5
148
100
AcDbSymbolTableRecord
100
AcDbTextStyleTableRecord
2
DWGDirectTextStyle
3
simplex
70
0
71
0
40
0
41
1
42
0
50
0
0
ENDTAB
0
TABLE
2
DIMSTYLE
5
27c
100
AcDbSymbolTable
100
AcDbDimStyleTable
0
DIMSTYLE
105
27
100
AcDbSymbolTableRecord
100
AcDbDimStyleTableRecord
2
Standard
70
0
3
<>
41
0.18
42
0.0625
44
0.18
140
0.18
147
0.09
73
0
74
0
77
1
271
2
275
0
278
52
280
0
340
11
0
ENDTAB
0
TABLE
2
VIEW
5
27d
100
AcDbSymbolTable
0
ENDTAB
0
TABLE
2
UCS
5
27e
100
AcDbSymbolTable
0
ENDTAB
0
TABLE
2
APPID
5
27f
100
AcDbSymbolTable
0
APPID
5
12
100
AcDbSymbolTableRecord
100
AcDbRegAppTableRecord
2
ACAD
70
0
0
APPID
5
14B
100
AcDbSymbolTableRecord
100
AcDbRegAppTableRecord
2
ACAD_DSTYLE_DIMBREAK
70
0
0
APPID
5
223
100
AcDbSymbolTableRecord
100
AcDbRegAppTableRecord
2
ACAD_DSTYLE_DIM_LINETYPE
70
0
0
APPID
5
224
100
AcDbSymbolTableRecord
100
AcDbRegAppTableRecord
2
ACAD_DSTYLE_DIM_EXT1_LINETYPE
70
0
0
APPID
5
225
100
AcDbSymbolTableRecord
100
AcDbRegAppTableRecord
2
ACAD_DSTYLE_DIM_EXT2_LINETYPE
70
0
0
APPID
5
260
100
AcDbSymbolTableRecord
100
AcDbRegAppTableRecord
2
ACAD_MLEADERVER
70
0
0
ENDTAB
0
TABLE
2
BLOCK_RECORD
5
280
100
AcDbSymbolTable
0
BLOCK_RECORD
5
1F
100
AcDbSymbolTableRecord
100
AcDbBlockTableRecord
2
*Model_Space
340
0
70
0
0
BLOCK_RECORD
5
1B
100
AcDbSymbolTableRecord
100
AcDbBlockTableRecord
2
*Paper_Space
340
0
70
0
0
BLOCK_RECORD
5
23
100
AcDbSymbolTableRecord
100
AcDbBlockTableRecord
2
*Paper_Space0
340
0
70
0
0
BLOCK_RECORD
5
14D
100
AcDbSymbolTableRecord
100
AcDbBlockTableRecord
2
_Closed
340
0
70
0
0
BLOCK_RECORD
5
157
100
AcDbSymbolTableRecord
100
AcDbBlockTableRecord
2
*D2
340
0
70
0
0
BLOCK_RECORD
5
166
100
AcDbSymbolTableRecord
100
AcDbBlockTableRecord
2
_U0
340
0
70
0
0
BLOCK_RECORD
5
177
100
AcDbSymbolTableRecord
100
AcDbBlockTableRecord
2
*D4
340
0
70
0
0
BLOCK_RECORD
5
183
100
AcDbSymbolTableRecord
100
AcDbBlockTableRecord
2
_U1
340
0
70
0
0
BLOCK_RECORD
5
193
100
AcDbSymbolTableRecord
100
AcDbBlockTableRecord
2
*D6
340
0
70
0
0
BLOCK_RECORD
5
19F
100
AcDbSymbolTableRecord
100
AcDbBlockTableRecord
2
_U2
340
0
70
0
0
BLOCK_RECORD
5
1AF
100
AcDbSymbolTableRecord
100
AcDbBlockTableRecord
2
*D8
340
0
70
0
0
BLOCK_RECORD
5
1BB
100
AcDbSymbolTableRecord
100
AcDbBlockTableRecord
2
_U3
340
0
70
0
0
BLOCK_RECORD
5
1CB
100
AcDbSymbolTableRecord
100
AcDbBlockTableRecord
2
*D10
340
0
70
0
0
BLOCK_RECORD
5
1D8
100
AcDbSymbolTableRecord
100
AcDbBlockTableRecord
2
_U4
340
0
70
0
0
BLOCK_RECORD
5
1E9
100
AcDbSymbolTableRecord
100
AcDbBlockTableRecord
2
*D12
340
0
70
0
0
BLOCK_RECORD
5
1F7
100
AcDbSymbolTableRecord
100
AcDbBlockTableRecord
2
_U5
340
0
70
0
0
ENDTAB
0
ENDSEC
0
SECTION
2
BLOCKS
0
BLOCK
5
20
100
AcDbEntity
8
0
100
AcDbBlockBegin
2
*Model_Space
70
0
10
0
20
0
30
0
3
*Model_Space
0
ENDBLK
5
21
100
AcDbEntity
8
0
100
AcDbBlockEnd
0
BLOCK
5
1C
100
AcDbEntity
8
0
100
AcDbBlockBegin
2
*Paper_Space
70
0
10
0
20
0
30
0
3
*Paper_Space
0
ENDBLK
5
1D
100
AcDbEntity
8
0
100
AcDbBlockEnd
0
BLOCK
5
24
100
AcDbEntity
8
0
100
AcDbBlockBegin
2
*Paper_Space0
70
0
10
0
20
0
30
0
3
*Paper_Space0
0
ENDBLK
5
25
100
AcDbEntity
8
0
100
AcDbBlockEnd
0
BLOCK
5
14E
100
AcDbEntity
8
0
100
AcDbBlockBegin
2
_Closed
70
0
10
0
20
0
30
0
3
_Closed
0
LINE
5
150
100
AcDbEntity
8
0
62
256
6
ByLayer
370
-2
48
1
60
0
100
AcDbLine
10
-1
20
0.166667
30
0
11
0
21
0
31
0
39
0
210
0
220
0
230
1
0
LINE
5
151
100
AcDbEntity
8
0
62
256
6
ByLayer
370
-2
48
1
60
0
100
AcDbLine
10
0
20
0
30
0
11
-1
21
-0.166667
31
0
39
0
210
0
220
0
230
1
0
LINE
5
152
100
AcDbEntity
8
0
62
256
6
ByLayer
370
-2
48
1
60
0
100
AcDbLine
10
-1
20
0.166667
30
0
11
-1
21
-0.166667
31
0
39
0
210
0
220
0
230
1
0
LINE
5
153
100
AcDbEntity
8
0
62
256
6
ByLayer
370
-2
48
1
60
0
100
AcDbLine
10
0
20
0
30
0
11
-1
21
0
31
0
39
0
210
0
220
0
230
1
0
ENDBLK
5
14F
100
AcDbEntity
8
0
100
AcDbBlockEnd
0
BLOCK
5
158
100
AcDbEntity
8
0
100
AcDbBlockBegin
2
*D2
70
1
10
0
20
0
30
0
3
*D2
0
LINE
5
15A
100
AcDbEntity
8
0
62
256
6
ByLayer
370
-2
48
1
60
0
100
AcDbLine
10
52.5875
20
-6
30
0
11
79.071875
21
-6
31
0
39
0
210
0
220
0
230
1
0
LINE
5
15B
100
AcDbEntity
8
0
62
256
6
ByLayer
370
-2
48
1
60
0
100
AcDbLine
10
52.5875
20
6
30
0
11
79.071875
21
6
31
0
39
0
210
0
220
0
230
1
0
LINE
5
15C
100
AcDbEntity
8
0
62
256
6
ByLayer
370
-2
48
1
60
0
100
AcDbLine
10
75.896875
20
6
30
0
11
75.896875
21
34.900605
31
0
39
0
210
0
220
0
230
1
0
LINE
5
15D
100
AcDbEntity
8
0
62
256
6
ByLayer
370
-2
48
1
60
0
100
AcDbLine
10
75.896875
20
-9.175
30
0
11
75.896875
21
-12.35
31
0
39
0
210
0
220
0
230
1
0
LINE
5
15E
100
AcDbEntity
8
0
62
256
6
ByLayer
370
-2
48
1
60
0
100
AcDbLine
10
75.896875
20
9.175
30
0
11
75.896875
21
12.35
31
0
39
0
210
0
220
0
230
1
0
SOLID
5
15F
100
AcDbEntity
8
0
62
256
6
ByLayer
370
-1
48
1
60
0
100
AcDbTrace
10
76.426042
20
-9.175
30
0
11
75.367708
21
-9.175
31
0
12
75.896875
22
-6
32
0
13
75.896875
23
-6
33
0
39
0
210
0
220
0
230
1
0
SOLID
5
160
100
AcDbEntity
8
0
62
256
6
ByLayer
370
-1
48
1
60
0
100
AcDbTrace
10
75.367708
20
9.175
30
0
11
76.426042
21
9.175
31
0
12
75.896875
22
6
32
0
13
75.896875
23
6
33
0
39
0
210
0
220
0
230
1
0
MTEXT
5
161
100
AcDbEntity
8
0
62
256
6
ByLayer
370
18
48
1
60
0
100
AcDbMText
10
66.503125
20
24.435427
30
0
210
0
220
0
230
1
1
\A1;12
40
4.5
41
0
44
1
50
90
71
5
72
5
7
iso_b_vert
0
POINT
5
162
100
AcDbEntity
8
Defpoints
62
0
6
ByLayer
370
-1
48
1
60
0
100
AcDbPoint
10
51
20
-6
30
0
39
0
210
0
220
0
230
1
50
360
0
POINT
5
163
100
AcDbEntity
8
Defpoints
62
0
6
ByLayer
370
-1
48
1
60
0
100
AcDbPoint
10
51
20
6
30
0
39
0
210
0
220
0
230
1
50
360
0
POINT
5
164
100
AcDbEntity
8
Defpoints
62
0
6
ByLayer
370
-1
48
1
60
0
100
AcDbPoint
10
75.896875
20
6
30
0
39
0
210
0
220
0
230
1
50
360
0
ENDBLK
5
159
100
AcDbEntity
8
0
100
AcDbBlockEnd
0
BLOCK
5
172
100
AcDbEntity
8
0
100
AcDbBlockBegin
2
_U0
70
0
10
0
20
0
30
0
3
_U0
0
MTEXT
5
167
100
AcDbEntity
8
2
62
256
6
ByLayer
370
18
48
1
60
0
100
AcDbMText
10
73.815029
20
17.255375
30
0
210
0
220
0
230
1
1
%%c
40
3.175
41
0
44
1.084337
50
90
71
7
72
5
7
iso_b_vert
0
MTEXT
5
168
100
AcDbEntity
8
2
62
256
6
ByLayer
370
18
48
1
60
0
100
AcDbMText
10
74.216453
20
26.84
30
0
210
0
220
0
230
1
1
\W0.6385;12
40
4.5
41
0
44
1.084337
50
90
71
7
72
5
7
iso_b_vert
0
LINE
5
169
100
AcDbEntity
8
2
62
256
6
ByLayer
370
13
48
1
60
0
100
AcDbLine
10
52.5875
20
-6
30
0
11
79.071875
21
-6
31
0
39
0
210
0
220
0
230
1
0
LINE
5
16A
100
AcDbEntity
8
2
62
256
6
ByLayer
370
13
48
1
60
0
100
AcDbLine
10
52.5875
20
6
30
0
11
79.071875
21
6
31
0
39
0
210
0
220
0
230
1
0
LINE
5
16B
100
AcDbEntity
8
2
62
256
6
ByLayer
370
13
48
1
60
0
100
AcDbLine
10
75.896875
20
-6
30
0
11
75.896875
21
31.758353
31
0
39
0
210
0
220
0
230
1
0
LINE
5
16C
100
AcDbEntity
8
2
62
256
6
ByLayer
370
13
48
1
60
0
100
AcDbLine
10
75.896875
20
-6
30
0
11
75.478878
21
-2.825002
31
0
39
0
210
0
220
0
230
1
0
LINE
5
16D
100
AcDbEntity
8
2
62
256
6
ByLayer
370
13
48
1
60
0
100
AcDbLine
10
75.896875
20
-6
30
0
11
76.314872
21
-2.824998
31
0
39
0
210
0
220
0
230
1
0
LINE
5
16E
100
AcDbEntity
8
2
62
256
6
ByLayer
370
13
48
1
60
0
100
AcDbLine
10
75.478878
20
-2.825002
30
0
11
76.314872
21
-2.824998
31
0
39
0
210
0
220
0
230
1
0
LINE
5
16F
100
AcDbEntity
8
2
62
256
6
ByLayer
370
13
48
1
60
0
100
AcDbLine
10
75.896875
20
6
30
0
11
76.314872
21
2.825002
31
0
39
0
210
0
220
0
230
1
0
LINE
5
170
100
AcDbEntity
8
2
62
256
6
ByLayer
370
13
48
1
60
0
100
AcDbLine
10
75.896875
20
6
30
0
11
75.478878
21
2.824998
31
0
39
0
210
0
220
0
230
1
0
LINE
5
171
100
AcDbEntity
8
2
62
256
6
ByLayer
370
13
48
1
60
0
100
AcDbLine
10
76.314872
20
2.825002
30
0
11
75.478878
21
2.824998
31
0
39
0
210
0
220
0
230
1
0
ENDBLK
5
173
100
AcDbEntity
8
0
100
AcDbBlockEnd
0
BLOCK
5
178
100
AcDbEntity
8
0
100
AcDbBlockBegin
2
*D4
70
1
10
0
20
0
30
0
3
*D4
0
LINE
5
17A
100
AcDbEntity
8
0
62
256
6
ByLayer
370
-2
48
1
60
0
100
AcDbLine
10
51
20
-7.5875
30
0
11
51
21
-33.675
31
0
39
0
210
0
220
0
230
1
0
LINE
5
17B
100
AcDbEntity
8
0
62
256
6
ByLayer
370
-2
48
1
60
0
100
AcDbLine
10
0
20
-1.5875
30
0
11
0
21
-33.675
31
0
39
0
210
0
220
0
230
1
0
LINE
5
17C
100
AcDbEntity
8
0
62
256
6
ByLayer
370
-2
48
1
60
0
100
AcDbLine
10
47.825
20
-30.5
30
0
11
3.175
21
-30.5
31
0
39
0
210
0
220
0
230
1
0
SOLID
5
17D
100
AcDbEntity
8
0
62
256
6
ByLayer
370
-1
48
1
60
0
100
AcDbTrace
10
47.825
20
-31.029167
30
0
11
47.825
21
-29.970833
31
0
12
51
22
-30.5
32
0
13
51
23
-30.5
33
0
39
0
210
0
220
0
230
1
0
SOLID
5
17E
100
AcDbEntity
8
0
62
256
6
ByLayer
370
-1
48
1
60
0
100
AcDbTrace
10
3.175
20
-29.970833
30
0
11
3.175
21
-31.029167
31
0
12
0
22
-30.5
32
0
13
0
23
-30.5
33
0
39
0
210
0
220
0
230
1
0
MTEXT
5
17F
100
AcDbEntity
8
0
62
256
6
ByLayer
370
18
48
1
60
0
100
AcDbMText
10
25.5
20
-21.10625
30
0
210
0
220
0
230
1
1
\A1;51
40
4.5
41
0
44
1
50
0
71
5
72
5
7
iso_b_vert
0
POINT
5
180
100
AcDbEntity
8
Defpoints
62
0
6
ByLayer
370
-1
48
1
60
0
100
AcDbPoint
10
51
20
-6
30
0
39
0
210
0
220
0
230
1
50
360
0
POINT
5
181
100
AcDbEntity
8
Defpoints
62
0
6
ByLayer
370
-1
48
1
60
0
100
AcDbPoint
10
0
20
0
30
0
39
0
210
0
220
0
230
1
50
360
0
POINT
5
182
100
AcDbEntity
8
Defpoints
62
0
6
ByLayer
370
-1
48
1
60
0
100
AcDbPoint
10
0
20
-30.5
30
0
39
0
210
0
220
0
230
1
50
360
0
ENDBLK
5
179
100
AcDbEntity
8
0
100
AcDbBlockEnd
0
BLOCK
5
18E
100
AcDbEntity
8
0
100
AcDbBlockBegin
2
_U1
70
0
10
0
20
0
30
0
3
_U1
0
MTEXT
5
184
100
AcDbEntity
8
SK2
62
256
6
ByLayer
370
18
48
1
60
0
100
AcDbMText
10
23.178073
20
-29.172328
30
0
210
0
220
0
230
1
1
\W0.7621;51
40
4.5
41
0
44
1.084337
50
0
71
7
72
5
7
iso_b_vert
0
LINE
5
185
100
AcDbEntity
8
SK2
62
256
6
ByLayer
370
13
48
1
60
0
100
AcDbLine
10
51
20
-7.5875
30
0
11
51
21
-33.675
31
0
39
0
210
0
220
0
230
1
0
LINE
5
186
100
AcDbEntity
8
SK2
62
256
6
ByLayer
370
13
48
1
60
0
100
AcDbLine
10
0
20
-1.5875
30
0
11
0
21
-33.675
31
0
39
0
210
0
220
0
230
1
0
LINE
5
187
100
AcDbEntity
8
SK2
62
256
6
ByLayer
370
13
48
1
60
0
100
AcDbLine
10
51
20
-30.5
30
0
11
0
21
-30.5
31
0
39
0
210
0
220
0
230
1
0
LINE
5
188
100
AcDbEntity
8
SK2
62
256
6
ByLayer
370
13
48
1
60
0
100
AcDbLine
10
51
20
-30.5
30
0
11
47.825002
21
-30.917997
31
0
39
0
210
0
220
0
230
1
0
LINE
5
189
100
AcDbEntity
8
SK2
62
256
6
ByLayer
370
13
48
1
60
0
100
AcDbLine
10
51
20
-30.5
30
0
11
47.824998
21
-30.082003
31
0
39
0
210
0
220
0
230
1
0
LINE
5
18A
100
AcDbEntity
8
SK2
62
256
6
ByLayer
370
13
48
1
60
0
100
AcDbLine
10
47.825002
20
-30.917997
30
0
11
47.824998
21
-30.082003
31
0
39
0
210
0
220
0
230
1
0
LINE
5
18B
100
AcDbEntity
8
SK2
62
256
6
ByLayer
370
13
48
1
60
0
100
AcDbLine
10
0
20
-30.5
30
0
11
3.174998
21
-30.082003
31
0
39
0
210
0
220
0
230
1
0
LINE
5
18C
100
AcDbEntity
8
SK2
62
256
6
ByLayer
370
13
48
1
60
0
100
AcDbLine
10
0
20
-30.5
30
0
11
3.175002
21
-30.917997
31
0
39
0
210
0
220
0
230
1
0
LINE
5
18D
100
AcDbEntity
8
SK2
62
256
6
ByLayer
370
13
48
1
60
0
100
AcDbLine
10
3.174998
20
-30.082003
30
0
11
3.175002
21
-30.917997
31
0
39
0
210
0
220
0
230
1
0
ENDBLK
5
18F
100
AcDbEntity
8
0
100
AcDbBlockEnd
0
BLOCK
5
194
100
AcDbEntity
8
0
100
AcDbBlockBegin
2
*D6
70
1
10
0
20
0
30
0
3
*D6
0
LINE
5
196
100
AcDbEntity
8
0
62
256
6
ByLayer
370
-2
48
1
60
0
100
AcDbLine
10
-49
20
9.5875
30
0
11
-49
21
29.675
31
0
39
0
210
0
220
0
230
1
0
LINE
5
197
100
AcDbEntity
8
0
62
256
6
ByLayer
370
-2
48
1
60
0
100
AcDbLine
10
51
20
7.5875
30
0
11
51
21
29.675
31
0
39
0
210
0
220
0
230
1
0
LINE
5
198
100
AcDbEntity
8
0
62
256
6
ByLayer
370
-2
48
1
60
0
100
AcDbLine
10
-45.825
20
26.5
30
0
11
47.825
21
26.5
31
0
39
0
210
0
220
0
230
1
0
SOLID
5
199
100
AcDbEntity
8
0
62
256
6
ByLayer
370
-1
48
1
60
0
100
AcDbTrace
10
-45.825
20
27.029167
30
0
11
-45.825
21
25.970833
31
0
12
-49
22
26.5
32
0
13
-49
23
26.5
33
0
39
0
210
0
220
0
230
1
0
SOLID
5
19A
100
AcDbEntity
8
0
62
256
6
ByLayer
370
-1
48
1
60
0
100
AcDbTrace
10
47.825
20
25.970833
30
0
11
47.825
21
27.029167
31
0
12
51
22
26.5
32
0
13
51
23
26.5
33
0
39
0
210
0
220
0
230
1
0
MTEXT
5
19B
100
AcDbEntity
8
0
62
256
6
ByLayer
370
18
48
1
60
0
100
AcDbMText
10
1
20
35.89375
30
0
210
0
220
0
230
1
1
\A1;100
40
4.5
41
0
44
1
50
0
71
5
72
5
7
iso_b_vert
0
POINT
5
19C
100
AcDbEntity
8
Defpoints
62
0
6
ByLayer
370
-1
48
1
60
0
100
AcDbPoint
10
-49
20
8
30
0
39
0
210
0
220
0
230
1
50
360
0
POINT
5
19D
100
AcDbEntity
8
Defpoints
62
0
6
ByLayer
370
-1
48
1
60
0
100
AcDbPoint
10
51
20
6
30
0
39
0
210
0
220
0
230
1
50
360
0
POINT
5
19E
100
AcDbEntity
8
Defpoints
62
0
6
ByLayer
370
-1
48
1
60
0
100
AcDbPoint
10
51
20
26.5
30
0
39
0
210
0
220
0
230
1
50
360
0
ENDBLK
5
195
100
AcDbEntity
8
0
100
AcDbBlockEnd
0
BLOCK
5
1AA
100
AcDbEntity
8
0
100
AcDbBlockBegin
2
_U2
70
0
10
0
20
0
30
0
3
_U2
0
MTEXT
5
1A0
100
AcDbEntity
8
2
62
256
6
ByLayer
370
18
48
1
60
0
100
AcDbMText
10
-3.305209
20
27.827672
30
0
210
0
220
0
230
1
1
\W0.7426;100
40
4.5
41
0
44
1.084337
50
0
71
7
72
5
7
iso_b_vert
0
LINE
5
1A1
100
AcDbEntity
8
2
62
256
6
ByLayer
370
13
48
1
60
0
100
AcDbLine
10
-49
20
9.5875
30
0
11
-49
21
29.675
31
0
39
0
210
0
220
0
230
1
0
LINE
5
1A2
100
AcDbEntity
8
2
62
256
6
ByLayer
370
13
48
1
60
0
100
AcDbLine
10
51
20
7.5875
30
0
11
51
21
29.675
31
0
39
0
210
0
220
0
230
1
0
LINE
5
1A3
100
AcDbEntity
8
2
62
256
6
ByLayer
370
13
48
1
60
0
100
AcDbLine
10
-49
20
26.5
30
0
11
51
21
26.5
31
0
39
0
210
0
220
0
230
1
0
LINE
5
1A4
100
AcDbEntity
8
2
62
256
6
ByLayer
370
13
48
1
60
0
100
AcDbLine
10
-49
20
26.5
30
0
11
-45.825002
21
26.917997
31
0
39
0
210
0
220
0
230
1
0
LINE
5
1A5
100
AcDbEntity
8
2
62
256
6
ByLayer
370
13
48
1
60
0
100
AcDbLine
10
-49
20
26.5
30
0
11
-45.824998
21
26.082003
31
0
39
0
210
0
220
0
230
1
0
LINE
5
1A6
100
AcDbEntity
8
2
62
256
6
ByLayer
370
13
48
1
60
0
100
AcDbLine
10
-45.825002
20
26.917997
30
0
11
-45.824998
21
26.082003
31
0
39
0
210
0
220
0
230
1
0
LINE
5
1A7
100
AcDbEntity
8
2
62
256
6
ByLayer
370
13
48
1
60
0
100
AcDbLine
10
51
20
26.5
30
0
11
47.825002
21
26.082003
31
0
39
0
210
0
220
0
230
1
0
LINE
5
1A8
100
AcDbEntity
8
2
62
256
6
ByLayer
370
13
48
1
60
0
100
AcDbLine
10
51
20
26.5
30
0
11
47.824998
21
26.917997
31
0
39
0
210
0
220
0
230
1
0
LINE
5
1A9
100
AcDbEntity
8
2
62
256
6
ByLayer
370
13
48
1
60
0
100
AcDbLine
10
47.825002
20
26.082003
30
0
11
47.824998
21
26.917997
31
0
39
0
210
0
220
0
230
1
0
ENDBLK
5
1AB
100
AcDbEntity
8
0
100
AcDbBlockEnd
0
BLOCK
5
1B0
100
AcDbEntity
8
0
100
AcDbBlockBegin
2
*D8
70
1
10
0
20
0
30
0
3
*D8
0
LINE
5
1B2
100
AcDbEntity
8
0
62
256
6
ByLayer
370
-2
48
1
60
0
100
AcDbLine
10
-49
20
9.5875
30
0
11
-49
21
19.675
31
0
39
0
210
0
220
0
230
1
0
LINE
5
1B3
100
AcDbEntity
8
0
62
256
6
ByLayer
370
-2
48
1
60
0
100
AcDbLine
10
44.96
20
13.2875
30
0
11
44.96
21
19.675
31
0
39
0
210
0
220
0
230
1
0
LINE
5
1B4
100
AcDbEntity
8
0
62
256
6
ByLayer
370
-2
48
1
60
0
100
AcDbLine
10
-45.825
20
16.5
30
0
11
41.785
21
16.5
31
0
39
0
210
0
220
0
230
1
0
SOLID
5
1B5
100
AcDbEntity
8
0
62
256
6
ByLayer
370
-1
48
1
60
0
100
AcDbTrace
10
-45.825
20
17.029167
30
0
11
-45.825
21
15.970833
31
0
12
-49
22
16.5
32
0
13
-49
23
16.5
33
0
39
0
210
0
220
0
230
1
0
SOLID
5
1B6
100
AcDbEntity
8
0
62
256
6
ByLayer
370
-1
48
1
60
0
100
AcDbTrace
10
41.785
20
15.970833
30
0
11
41.785
21
17.029167
31
0
12
44.96
22
16.5
32
0
13
44.96
23
16.5
33
0
39
0
210
0
220
0
230
1
0
MTEXT
5
1B7
100
AcDbEntity
8
0
62
256
6
ByLayer
370
18
48
1
60
0
100
AcDbMText
10
-2.02
20
25.89375
30
0
210
0
220
0
230
1
1
\A1;93.96
40
4.5
41
0
44
1
50
0
71
5
72
5
7
iso_b_vert
0
POINT
5
1B8
100
AcDbEntity
8
Defpoints
62
0
6
ByLayer
370
-1
48
1
60
0
100
AcDbPoint
10
-49
20
8
30
0
39
0
210
0
220
0
230
1
50
360
0
POINT
5
1B9
100
AcDbEntity
8
Defpoints
62
0
6
ByLayer
370
-1
48
1
60
0
100
AcDbPoint
10
44.96
20
11.7
30
0
39
0
210
0
220
0
230
1
50
360
0
POINT
5
1BA
100
AcDbEntity
8
Defpoints
62
0
6
ByLayer
370
-1
48
1
60
0
100
AcDbPoint
10
44.96
20
16.5
30
0
39
0
210
0
220
0
230
1
50
360
0
ENDBLK
5
1B1
100
AcDbEntity
8
0
100
AcDbBlockEnd
0
BLOCK
5
1C6
100
AcDbEntity
8
0
100
AcDbBlockBegin
2
_U3
70
0
10
0
20
0
30
0
3
_U3
0
MTEXT
5
1BC
100
AcDbEntity
8
SK2
62
256
6
ByLayer
370
18
48
1
60
0
100
AcDbMText
10
-10.022172
20
17.827672
30
0
210
0
220
0
230
1
1
\W0.8825;93.96
40
4.5
41
0
44
1.084337
50
0
71
7
72
5
7
iso_b_vert
0
LINE
5
1BD
100
AcDbEntity
8
SK2
62
256
6
ByLayer
370
13
48
1
60
0
100
AcDbLine
10
-49
20
9.5875
30
0
11
-49
21
19.675
31
0
39
0
210
0
220
0
230
1
0
LINE
5
1BE
100
AcDbEntity
8
SK2
62
256
6
ByLayer
370
13
48
1
60
0
100
AcDbLine
10
44.96
20
13.2875
30
0
11
44.96
21
19.675
31
0
39
0
210
0
220
0
230
1
0
LINE
5
1BF
100
AcDbEntity
8
SK2
62
256
6
ByLayer
370
13
48
1
60
0
100
AcDbLine
10
-49
20
16.5
30
0
11
44.96
21
16.5
31
0
39
0
210
0
220
0
230
1
0
LINE
5
1C0
100
AcDbEntity
8
SK2
62
256
6
ByLayer
370
13
48
1
60
0
100
AcDbLine
10
-49
20
16.5
30
0
11
-45.825002
21
16.917997
31
0
39
0
210
0
220
0
230
1
0
LINE
5
1C1
100
AcDbEntity
8
SK2
62
256
6
ByLayer
370
13
48
1
60
0
100
AcDbLine
10
-49
20
16.5
30
0
11
-45.824998
21
16.082003
31
0
39
0
210
0
220
0
230
1
0
LINE
5
1C2
100
AcDbEntity
8
SK2
62
256
6
ByLayer
370
13
48
1
60
0
100
AcDbLine
10
-45.825002
20
16.917997
30
0
11
-45.824998
21
16.082003
31
0
39
0
210
0
220
0
230
1
0
LINE
5
1C3
100
AcDbEntity
8
SK2
62
256
6
ByLayer
370
13
48
1
60
0
100
AcDbLine
10
44.96
20
16.5
30
0
11
41.785002
21
16.082003
31
0
39
0
210
0
220
0
230
1
0
LINE
5
1C4
100
AcDbEntity
8
SK2
62
256
6
ByLayer
370
13
48
1
60
0
100
AcDbLine
10
44.96
20
16.5
30
0
11
41.784998
21
16.917997
31
0
39
0
210
0
220
0
230
1
0
LINE
5
1C5
100
AcDbEntity
8
SK2
62
256
6
ByLayer
370
13
48
1
60
0
100
AcDbLine
10
41.785002
20
16.082003
30
0
11
41.784998
21
16.917997
31
0
39
0
210
0
220
0
230
1
0
ENDBLK
5
1C7
100
AcDbEntity
8
0
100
AcDbBlockEnd
0
BLOCK
5
1CC
100
AcDbEntity
8
0
100
AcDbBlockBegin
2
*D10
70
1
10
0
20
0
30
0
3
*D10
0
LINE
5
1CE
100
AcDbEntity
8
0
62
256
6
ByLayer
370
-2
48
1
60
0
100
AcDbLine
10
46.5475
20
-11.7
30
0
11
89.925
21
-11.7
31
0
39
0
210
0
220
0
230
1
0
LINE
5
1CF
100
AcDbEntity
8
0
62
256
6
ByLayer
370
-2
48
1
60
0
100
AcDbLine
10
46.5475
20
11.7
30
0
11
89.925
21
11.7
31
0
39
0
210
0
220
0
230
1
0
LINE
5
1D0
100
AcDbEntity
8
0
62
256
6
ByLayer
370
-2
48
1
60
0
100
AcDbLine
10
86.75
20
11.7
30
0
11
86.75
21
48.248414
31
0
39
0
210
0
220
0
230
1
0
LINE
5
1D1
100
AcDbEntity
8
0
62
256
6
ByLayer
370
-2
48
1
60
0
100
AcDbLine
10
86.75
20
-8.525
30
0
11
86.75
21
8.525
31
0
39
0
210
0
220
0
230
1
0
SOLID
5
1D2
100
AcDbEntity
8
0
62
256
6
ByLayer
370
-1
48
1
60
0
100
AcDbTrace
10
86.220833
20
-8.525
30
0
11
87.279167
21
-8.525
31
0
12
86.75
22
-11.7
32
0
13
86.75
23
-11.7
33
0
39
0
210
0
220
0
230
1
0
SOLID
5
1D3
100
AcDbEntity
8
0
62
256
6
ByLayer
370
-1
48
1
60
0
100
AcDbTrace
10
87.279167
20
8.525
30
0
11
86.220833
21
8.525
31
0
12
86.75
22
11.7
32
0
13
86.75
23
11.7
33
0
39
0
210
0
220
0
230
1
0
MTEXT
5
1D4
100
AcDbEntity
8
0
62
256
6
ByLayer
370
18
48
1
60
0
100
AcDbMText
10
77.35625
20
34.140378
30
0
210
0
220
0
230
1
1
\A1;23.4
40
4.5
41
0
44
1
50
90
71
5
72
5
7
iso_b_vert
0
POINT
5
1D5
100
AcDbEntity
8
Defpoints
62
0
6
ByLayer
370
-1
48
1
60
0
100
AcDbPoint
10
44.96
20
-11.7
30
0
39
0
210
0
220
0
230
1
50
360
0
POINT
5
1D6
100
AcDbEntity
8
Defpoints
62
0
6
ByLayer
370
-1
48
1
60
0
100
AcDbPoint
10
44.96
20
11.7
30
0
39
0
210
0
220
0
230
1
50
360
0
POINT
5
1D7
100
AcDbEntity
8
Defpoints
62
0
6
ByLayer
370
-1
48
1
60
0
100
AcDbPoint
10
86.75
20
11.7
30
0
39
0
210
0
220
0
230
1
50
360
0
ENDBLK
5
1CD
100
AcDbEntity
8
0
100
AcDbBlockEnd
0
BLOCK
5
1E4
100
AcDbEntity
8
0
100
AcDbBlockBegin
2
_U4
70
0
10
0
20
0
30
0
3
_U4
0
MTEXT
5
1D9
100
AcDbEntity
8
SK2
62
256
6
ByLayer
370
18
48
1
60
0
100
AcDbMText
10
84.668154
20
22.955375
30
0
210
0
220
0
230
1
1
%%c
40
3.175
41
0
44
1.084337
50
90
71
7
72
5
7
iso_b_vert
0
MTEXT
5
1DA
100
AcDbEntity
8
SK2
62
256
6
ByLayer
370
18
48
1
60
0
100
AcDbMText
10
85.069578
20
32.54
30
0
210
0
220
0
230
1
1
\W0.8975;23.4
40
4.5
41
0
44
1.084337
50
90
71
7
72
5
7
iso_b_vert
0
LINE
5
1DB
100
AcDbEntity
8
SK2
62
256
6
ByLayer
370
13
48
1
60
0
100
AcDbLine
10
46.5475
20
-11.7
30
0
11
89.925
21
-11.7
31
0
39
0
210
0
220
0
230
1
0
LINE
5
1DC
100
AcDbEntity
8
SK2
62
256
6
ByLayer
370
13
48
1
60
0
100
AcDbLine
10
46.5475
20
11.7
30
0
11
89.925
21
11.7
31
0
39
0
210
0
220
0
230
1
0
LINE
5
1DD
100
AcDbEntity
8
SK2
62
256
6
ByLayer
370
13
48
1
60
0
100
AcDbLine
10
86.75
20
-11.7
30
0
11
86.75
21
45.468257
31
0
39
0
210
0
220
0
230
1
0
LINE
5
1DE
100
AcDbEntity
8
SK2
62
256
6
ByLayer
370
13
48
1
60
0
100
AcDbLine
10
86.75
20
-11.7
30
0
11
86.332003
21
-8.525002
31
0
39
0
210
0
220
0
230
1
0
LINE
5
1DF
100
AcDbEntity
8
SK2
62
256
6
ByLayer
370
13
48
1
60
0
100
AcDbLine
10
86.75
20
-11.7
30
0
11
87.167997
21
-8.524998
31
0
39
0
210
0
220
0
230
1
0
LINE
5
1E0
100
AcDbEntity
8
SK2
62
256
6
ByLayer
370
13
48
1
60
0
100
AcDbLine
10
86.332003
20
-8.525002
30
0
11
87.167997
21
-8.524998
31
0
39
0
210
0
220
0
230
1
0
LINE
5
1E1
100
AcDbEntity
8
SK2
62
256
6
ByLayer
370
13
48
1
60
0
100
AcDbLine
10
86.75
20
11.7
30
0
11
87.167997
21
8.525002
31
0
39
0
210
0
220
0
230
1
0
LINE
5
1E2
100
AcDbEntity
8
SK2
62
256
6
ByLayer
370
13
48
1
60
0
100
AcDbLine
10
86.75
20
11.7
30
0
11
86.332003
21
8.524998
31
0
39
0
210
0
220
0
230
1
0
LINE
5
1E3
100
AcDbEntity
8
SK2
62
256
6
ByLayer
370
13
48
1
60
0
100
AcDbLine
10
87.167997
20
8.525002
30
0
11
86.332003
21
8.524998
31
0
39
0
210
0
220
0
230
1
0
ENDBLK
5
1E5
100
AcDbEntity
8
0
100
AcDbBlockEnd
0
BLOCK
5
1EA
100
AcDbEntity
8
0
100
AcDbBlockBegin
2
*D12
70
1
10
0
20
0
30
0
3
*D12
0
LINE
5
1EC
100
AcDbEntity
8
0
62
256
6
ByLayer
370
-2
48
1
60
0
100
AcDbLine
10
-50.5875
20
8
30
0
11
-77.278125
21
8
31
0
39
0
210
0
220
0
230
1
0
LINE
5
1ED
100
AcDbEntity
8
0
62
256
6
ByLayer
370
-2
48
1
60
0
100
AcDbLine
10
-50.5875
20
-8
30
0
11
-77.278125
21
-8
31
0
39
0
210
0
220
0
230
1
0
LINE
5
1EE
100
AcDbEntity
8
0
62
256
6
ByLayer
370
-2
48
1
60
0
100
AcDbLine
10
-74.103125
20
8
30
0
11
-74.103125
21
36.900605
31
0
39
0
210
0
220
0
230
1
0
LINE
5
1EF
100
AcDbEntity
8
0
62
256
6
ByLayer
370
-2
48
1
60
0
100
AcDbLine
10
-74.103125
20
11.175
30
0
11
-74.103125
21
14.35
31
0
39
0
210
0
220
0
230
1
0
LINE
5
1F0
100
AcDbEntity
8
0
62
256
6
ByLayer
370
-2
48
1
60
0
100
AcDbLine
10
-74.103125
20
-11.175
30
0
11
-74.103125
21
-14.35
31
0
39
0
210
0
220
0
230
1
0
SOLID
5
1F1
100
AcDbEntity
8
0
62
256
6
ByLayer
370
-1
48
1
60
0
100
AcDbTrace
10
-74.632292
20
11.175
30
0
11
-73.573958
21
11.175
31
0
12
-74.103125
22
8
32
0
13
-74.103125
23
8
33
0
39
0
210
0
220
0
230
1
0
SOLID
5
1F2
100
AcDbEntity
8
0
62
256
6
ByLayer
370
-1
48
1
60
0
100
AcDbTrace
10
-73.573958
20
-11.175
30
0
11
-74.632292
21
-11.175
31
0
12
-74.103125
22
-8
32
0
13
-74.103125
23
-8
33
0
39
0
210
0
220
0
230
1
0
MTEXT
5
1F3
100
AcDbEntity
8
0
62
256
6
ByLayer
370
18
48
1
60
0
100
AcDbMText
10
-83.496875
20
26.435427
30
0
210
0
220
0
230
1
1
\A1;16
40
4.5
41
0
44
1
50
90
71
5
72
5
7
iso_b_vert
0
POINT
5
1F4
100
AcDbEntity
8
Defpoints
62
0
6
ByLayer
370
-1
48
1
60
0
100
AcDbPoint
10
-49
20
8
30
0
39
0
210
0
220
0
230
1
50
360
0
POINT
5
1F5
100
AcDbEntity
8
Defpoints
62
0
6
ByLayer
370
-1
48
1
60
0
100
AcDbPoint
10
-49
20
-8
30
0
39
0
210
0
220
0
230
1
50
360
0
POINT
5
1F6
100
AcDbEntity
8
Defpoints
62
0
6
ByLayer
370
-1
48
1
60
0
100
AcDbPoint
10
-74.103125
20
-8
30
0
39
0
210
0
220
0
230
1
50
360
0
ENDBLK
5
1EB
100
AcDbEntity
8
0
100
AcDbBlockEnd
0
BLOCK
5
203
100
AcDbEntity
8
0
100
AcDbBlockBegin
2
_U5
70
0
10
0
20
0
30
0
3
_U5
0
MTEXT
5
1F8
100
AcDbEntity
8
SK2
62
256
6
ByLayer
370
18
48
1
60
0
100
AcDbMText
10
-76.184971
20
19.255375
30
0
210
0
220
0
230
1
1
%%c
40
3.175
41
0
44
1.084337
50
90
71
7
72
5
7
iso_b_vert
0
MTEXT
5
1F9
100
AcDbEntity
8
SK2
62
256
6
ByLayer
370
18
48
1
60
0
100
AcDbMText
10
-75.783547
20
28.84
30
0
210
0
220
0
230
1
1
\W0.6385;16
40
4.5
41
0
44
1.084337
50
90
71
7
72
5
7
iso_b_vert
0
LINE
5
1FA
100
AcDbEntity
8
SK2
62
256
6
ByLayer
370
13
48
1
60
0
100
AcDbLine
10
-50.5875
20
8
30
0
11
-77.278125
21
8
31
0
39
0
210
0
220
0
230
1
0
LINE
5
1FB
100
AcDbEntity
8
SK2
62
256
6
ByLayer
370
13
48
1
60
0
100
AcDbLine
10
-50.5875
20
-8
30
0
11
-77.278125
21
-8
31
0
39
0
210
0
220
0
230
1
0
LINE
5
1FC
100
AcDbEntity
8
SK2
62
256
6
ByLayer
370
13
48
1
60
0
100
AcDbLine
10
-74.103125
20
-8
30
0
11
-74.103125
21
33.758353
31
0
39
0
210
0
220
0
230
1
0
LINE
5
1FD
100
AcDbEntity
8
SK2
62
256
6
ByLayer
370
13
48
1
60
0
100
AcDbLine
10
-74.103125
20
8
30
0
11
-73.685128
21
4.825002
31
0
39
0
210
0
220
0
230
1
0
LINE
5
1FE
100
AcDbEntity
8
SK2
62
256
6
ByLayer
370
13
48
1
60
0
100
AcDbLine
10
-74.103125
20
8
30
0
11
-74.521122
21
4.824998
31
0
39
0
210
0
220
0
230
1
0
LINE
5
1FF
100
AcDbEntity
8
SK2
62
256
6
ByLayer
370
13
48
1
60
0
100
AcDbLine
10
-73.685128
20
4.825002
30
0
11
-74.521122
21
4.824998
31
0
39
0
210
0
220
0
230
1
0
LINE
5
200
100
AcDbEntity
8
SK2
62
256
6
ByLayer
370
13
48
1
60
0
100
AcDbLine
10
-74.103125
20
-8
30
0
11
-74.521122
21
-4.825002
31
0
39
0
210
0
220
0
230
1
0
LINE
5
201
100
AcDbEntity
8
SK2
62
256
6
ByLayer
370
13
48
1
60
0
100
AcDbLine
10
-74.103125
20
-8
30
0
11
-73.685128
21
-4.824998
31
0
39
0
210
0
220
0
230
1
0
LINE
5
202
100
AcDbEntity
8
SK2
62
256
6
ByLayer
370
13
48
1
60
0
100
AcDbLine
10
-74.521122
20
-4.825002
30
0
11
-73.685128
21
-4.824998
31
0
39
0
210
0
220
0
230
1
0
ENDBLK
5
204
100
AcDbEntity
8
0
100
AcDbBlockEnd
0
ENDSEC
0
SECTION
2
ENTITIES
0
ARC
5
C3
100
AcDbEntity
8
1
62
256
6
ByLayer
370
18
48
1
60
0
100
AcDbCircle
39
0
10
30.207106
20
8.379119
30
0
40
0.5
210
0
220
0
230
1
100
AcDbArc
50
90
51
135
0
ARC
5
C4
100
AcDbEntity
8
1
62
256
6
ByLayer
370
18
48
1
60
0
100
AcDbCircle
39
0
10
30.207106
20
-8.379119
30
0
40
0.5
210
0
220
0
230
1
100
AcDbArc
50
225
51
270
0
ARC
5
C5
100
AcDbEntity
8
SK2
62
256
6
ByLayer
370
13
48
1
60
0
100
AcDbCircle
39
0
10
51
20
6
30
0
40
12.9723095210679
210
0
220
0
230
1
100
AcDbArc
50
90
51
135
0
ARC
5
C6
100
AcDbEntity
8
SK2
62
256
6
ByLayer
370
13
48
1
60
0
100
AcDbCircle
39
0
10
51
20
6
30
0
40
12.9723095210679
210
0
220
0
230
1
100
AcDbArc
50
24.357104
51
90
0
ELLIPSE
5
C7
100
AcDbEntity
8
1
62
256
6
ByLayer
370
18
48
1
60
0
100
AcDbEllipse
10
44.99252
20
5.695003
30
0
11
0.911495996288532
21
-0.911495996288506
31
0
210
0
220
0
230
1
40
0.996195
41
1.57079632679488
42
2.61799387799148
0
ELLIPSE
5
C8
100
AcDbEntity
8
1
62
256
6
ByLayer
370
18
48
1
60
0
100
AcDbEllipse
10
44.99252
20
5.695003
30
0
11
0.911495996288532
21
-0.911495996288506
31
0
210
0
220
0
230
1
40
0.996195
41
2.61799387799148
42
-2.61799387799151
0
ELLIPSE
5
C9
100
AcDbEntity
8
1
62
256
6
ByLayer
370
18
48
1
60
0
100
AcDbEllipse
10
45.208318
20
6.718105
30
0
11
0.29160906464366
21
-0.0789719132402562
31
0
210
0
220
0
230
1
40
0.486171
41
-2.85557889557142
42
-1.5686942350088
0
ELLIPSE
5
CA
100
AcDbEntity
8
1
62
256
6
ByLayer
370
18
48
1
60
0
100
AcDbEllipse
10
45.208318
20
6.718105
30
0
11
0.291609064643117
21
-0.0789719132390872
31
0
210
0
220
0
230
1
40
0.486171
41
-1.56869423501568
42
-0.281809574450275
0
ELLIPSE
5
CB
100
AcDbEntity
8
1
62
256
6
ByLayer
370
18
48
1
60
0
100
AcDbEllipse
10
44.915484
20
5.617967
30
0
11
-0.703146983211913
21
0.703146983211893
31
0
210
0
220
0
230
1
40
0.996195
41
-1.04719755119661
42
-1.25522846488428E-14
0
ELLIPSE
5
CC
100
AcDbEntity
8
1
62
256
6
ByLayer
370
18
48
1
60
0
100
AcDbEllipse
10
44.97635
20
5.678833
30
0
11
-1.48492424049177
21
1.48492424049173
31
0
210
0
220
0
230
1
40
0.996195
41
0
42
6.28318530717959
0
ELLIPSE
5
CD
100
AcDbEntity
8
1
62
256
6
ByLayer
370
18
48
1
60
0
100
AcDbEllipse
10
44.99252
20
5.695003
30
0
11
0.911495996288532
21
-0.911495996288506
31
0
210
0
220
0
230
1
40
0.996195
41
-2.61799387799151
42
-1.57079632679491
0
ELLIPSE
5
CE
100
AcDbEntity
8
1
62
256
6
ByLayer
370
18
48
1
60
0
100
AcDbEllipse
10
44.915484
20
5.617967
30
0
11
-0.703146983211913
21
0.703146983211893
31
0
210
0
220
0
230
1
40
0.996195
41
-2.09439510239319
42
-1.04719755119661
0
ELLIPSE
5
CF
100
AcDbEntity
8
1
62
256
6
ByLayer
370
18
48
1
60
0
100
AcDbEllipse
10
45.722788
20
4.810664
30
0
11
0.213015406383124
21
0.213015406383124
31
0
210
0
220
0
230
1
40
0.488964
41
1.5707963267949
42
2.8576809873604
0
ELLIPSE
5
D0
100
AcDbEntity
8
1
62
256
6
ByLayer
370
18
48
1
60
0
100
AcDbEllipse
10
44.99252
20
5.695003
30
0
11
0.911495996288532
21
-0.911495996288506
31
0
210
0
220
0
230
1
40
0.996195
41
-1.57079632679491
42
-0.523598775598309
0
ELLIPSE
5
D1
100
AcDbEntity
8
1
62
256
6
ByLayer
370
18
48
1
60
0
100
AcDbEllipse
10
46.015621
20
5.910801
30
0
11
0.078971913238181
21
-0.29160906464209
31
0
210
0
220
0
230
1
40
0.486171
41
-2.85978307913813
42
-1.57289841856913
0
ELLIPSE
5
D2
100
AcDbEntity
8
1
62
256
6
ByLayer
370
18
48
1
60
0
100
AcDbEllipse
10
46.015621
20
5.910801
30
0
11
0.0789719132401056
21
-0.291609064644298
31
0
210
0
220
0
230
1
40
0.486171
41
-1.57289841857876
42
-0.286013758018198
0
ELLIPSE
5
D3
100
AcDbEntity
8
1
62
256
6
ByLayer
370
18
48
1
60
0
100
AcDbEllipse
10
44.99252
20
5.695003
30
0
11
0.911495996288532
21
-0.911495996288506
31
0
210
0
220
0
230
1
40
0.996195
41
0.523598775598291
42
1.57079632679488
0
ELLIPSE
5
D4
100
AcDbEntity
8
1
62
256
6
ByLayer
370
18
48
1
60
0
100
AcDbEllipse
10
44.99252
20
5.695003
30
0
11
-0.989949493661181
21
0.989949493661152
31
0
210
0
220
0
230
1
40
0.996195
41
0
42
6.28318530717959
0
ELLIPSE
5
D5
100
AcDbEntity
8
1
62
256
6
ByLayer
370
18
48
1
60
0
100
AcDbEllipse
10
44.99252
20
5.695003
30
0
11
0.911495996288532
21
-0.911495996288506
31
0
210
0
220
0
230
1
40
0.996195
41
-0.523598775598309
42
0.523598775598291
0
ELLIPSE
5
D6
100
AcDbEntity
8
1
62
256
6
ByLayer
370
18
48
1
60
0
100
AcDbEllipse
10
44.10818
20
6.425271
30
0
11
0.213015406383252
21
0.213015406383252
31
0
210
0
220
0
230
1
40
0.488964
41
-2.85768098735982
42
-1.5707963267949
0
ELLIPSE
5
D7
100
AcDbEntity
8
1
62
256
6
ByLayer
370
18
48
1
60
0
100
AcDbEllipse
10
44.991212
20
5.693695
30
0
11
1.63203020768673
21
-1.63203020768668
31
0
210
0
220
0
230
1
40
0.996195
41
0
42
6.28318530717959
0
ELLIPSE
5
D8
100
AcDbEntity
8
1
62
256
6
ByLayer
370
18
48
1
60
0
100
AcDbEllipse
10
44.93309
20
5.635573
30
0
11
-1.5205472484847
21
1.52054724848466
31
0
210
0
220
0
230
1
40
0.996195
41
0.787304314836366
42
-2.17138866974911
0
ELLIPSE
5
D9
100
AcDbEntity
8
1
62
256
6
ByLayer
370
18
48
1
60
0
100
AcDbEllipse
10
44.93309
20
5.635573
30
0
11
-1.5205472484847
21
1.52054724848466
31
0
210
0
220
0
230
1
40
0.996195
41
-0.970318531427154
42
-4.14611116023555E-16
0
ELLIPSE
5
DA
100
AcDbEntity
8
1
62
256
6
ByLayer
370
18
48
1
60
0
100
AcDbEllipse
10
44.93309
20
5.635573
30
0
11
-1.5205472484847
21
1.52054724848466
31
0
210
0
220
0
230
1
40
0.996195
41
0
42
0.787304335107093
0
ELLIPSE
5
DB
100
AcDbEntity
8
1
62
256
6
ByLayer
370
18
48
1
60
0
100
AcDbEllipse
10
44.950421
20
5.652904
30
0
11
-1.59930244031163
21
1.59930244031159
31
0
210
0
220
0
230
1
40
0.996195
41
0.787304644028938
42
0.926123905043011
0
ELLIPSE
5
DC
100
AcDbEntity
8
1
62
256
6
ByLayer
370
18
48
1
60
0
100
AcDbEllipse
10
44.950421
20
5.652904
30
0
11
-1.59930244031163
21
1.59930244031159
31
0
210
0
220
0
230
1
40
0.996195
41
2.21555108419653
42
-3.94194228540003E-16
0
ELLIPSE
5
DD
100
AcDbEntity
8
1
62
256
6
ByLayer
370
18
48
1
60
0
100
AcDbEllipse
10
44.950421
20
5.652904
30
0
11
-1.59930244031163
21
1.59930244031159
31
0
210
0
220
0
230
1
40
0.996195
41
0
42
0.78730450598019
0
ELLIPSE
5
DE
100
AcDbEntity
8
1
62
256
6
ByLayer
370
18
48
1
60
0
100
AcDbEllipse
10
44.915484
20
5.617967
30
0
11
-0.703146983211913
21
0.703146983211893
31
0
210
0
220
0
230
1
40
0.996195
41
2.34546098624037
42
3.14159265358979
0
ELLIPSE
5
DF
100
AcDbEntity
8
1
62
256
6
ByLayer
370
18
48
1
60
0
100
AcDbEllipse
10
44.915484
20
5.617967
30
0
11
-0.703146983211913
21
0.703146983211893
31
0
210
0
220
0
230
1
40
0.996195
41
-3.04050552278165
42
-2.09439510239321
0
ELLIPSE
5
E0
100
AcDbEntity
8
1
62
256
6
ByLayer
370
18
48
1
60
0
100
AcDbEllipse
10
44.915484
20
5.617967
30
0
11
0.703146983211912
21
-0.703146983211893
31
0
210
0
220
0
230
1
40
0.996195
41
3.14159265358978
42
-2.34058470495856
0
ELLIPSE
5
E1
100
AcDbEntity
8
1
62
256
6
ByLayer
370
18
48
1
60
0
100
AcDbEllipse
10
44.915484
20
5.617967
30
0
11
-0.703146983211913
21
0.703146983211893
31
0
210
0
220
0
230
1
40
0.996195
41
1.22918075251729
42
1.89595108139128
0
ELLIPSE
5
E2
100
AcDbEntity
8
1
62
256
6
ByLayer
370
18
48
1
60
0
100
AcDbEllipse
10
45.719751
20
6.422234
30
0
11
0.213829090630809
21
-0.213829090630809
31
0
210
0
220
0
230
1
40
0.48525
41
0.160894922806281
42
2.98069963607325
0
ELLIPSE
5
E3
100
AcDbEntity
8
1
62
256
6
ByLayer
370
18
48
1
60
0
100
AcDbEllipse
10
44.930891
20
5.633375
30
0
11
-1.48492424049177
21
1.48492424049173
31
0
210
0
220
0
230
1
40
0.996195
41
0.787304387538199
42
-3.14155196986833
0
ELLIPSE
5
E4
100
AcDbEntity
8
1
62
256
6
ByLayer
370
18
48
1
60
0
100
AcDbEllipse
10
44.930891
20
5.633375
30
0
11
-1.48492424049177
21
1.48492424049173
31
0
210
0
220
0
230
1
40
0.996195
41
0
42
0.787304281903873
0
ELLIPSE
5
E5
100
AcDbEntity
8
1
62
256
6
ByLayer
370
18
48
1
60
0
100
AcDbEllipse
10
46.016794
20
5.320925
30
0
11
0.0772615110085903
21
0.291471703339799
31
0
210
0
220
0
230
1
40
0.488028
41
-2.53003656607798
42
0.15875792935908
0
ELLIPSE
5
E6
100
AcDbEntity
8
1
62
256
6
ByLayer
370
18
48
1
60
0
100
AcDbEllipse
10
44.618442
20
6.719277
30
0
11
0.291471703339785
21
0.0772615110085936
31
0
210
0
220
0
230
1
40
0.488028
41
-0.158757929358863
42
2.23035059638212
0
ELLIPSE
5
E7
100
AcDbEntity
8
1
62
256
6
ByLayer
370
18
48
1
60
0
100
AcDbEllipse
10
45.212527
20
4.516658
30
0
11
0.291471703339792
21
0.0772615110085892
31
0
210
0
220
0
230
1
40
0.488028
41
-0.654686081164244
42
0.162988194236112
0
ELLIPSE
5
E8
100
AcDbEntity
8
1
62
256
6
ByLayer
370
18
48
1
60
0
100
AcDbEllipse
10
43.814175
20
5.91501
30
0
11
0.0772615110085878
21
0.291471703339784
31
0
210
0
220
0
230
1
40
0.488028
41
-0.162988194235969
42
0.611554714559431
0
ELLIPSE
5
E9
100
AcDbEntity
8
1
62
256
6
ByLayer
370
18
48
1
60
0
100
AcDbEllipse
10
44.935705
20
12.138188
30
0
11
8.48528137423875
21
-8.48528137423851
31
0
210
0
220
0
230
1
40
0.996195
41
-1.57518192832389
42
-0.891102654476177
0
ELLIPSE
5
EA
100
AcDbEntity
8
1
62
256
6
ByLayer
370
18
48
1
60
0
100
AcDbEllipse
10
43.58306
20
0
30
0
11
9.25270602175897
21
8.71402803101556
31
0
210
0
220
0
230
1
40
0.184189
41
1.77876393562917
42
-2.78451964073088
0
ELLIPSE
5
EB
100
AcDbEntity
8
1
62
256
6
ByLayer
370
18
48
1
60
0
100
AcDbEllipse
10
44.699016
20
0.075535
30
0
11
0.707106781186557
21
-0.707106781186538
31
0
210
0
220
0
230
1
40
0.996195
41
-2.81127285838997
42
-2.53055376466104
0
ELLIPSE
5
EC
100
AcDbEntity
8
1
62
256
6
ByLayer
370
18
48
1
60
0
100
AcDbEllipse
10
44.512956
20
-0.110525
30
0
11
0.0979850741704878
21
1.17257370880249
31
0
210
0
220
0
230
1
40
0.723603
41
1.31875454215223
42
1.75491320436202
0
ELLIPSE
5
ED
100
AcDbEntity
8
1
62
256
6
ByLayer
370
18
48
1
60
0
100
AcDbEllipse
10
44.935705
20
12.138188
30
0
11
8.48528137423875
21
-8.48528137423851
31
0
210
0
220
0
230
1
40
0.996195
41
-2.07789395915327
42
-1.6718993710148
0
ELLIPSE
5
EE
100
AcDbEntity
8
1
62
256
6
ByLayer
370
18
48
1
60
0
100
AcDbEllipse
10
27.935458
20
1.085969
30
0
11
8.75651776545473
21
3.20379040851886
31
0
210
0
220
0
230
1
40
0.160763
41
-0.303556046242142
42
0.432584830615038
0
ELLIPSE
5
EF
100
AcDbEntity
8
1
62
256
6
ByLayer
370
18
48
1
60
0
100
AcDbEllipse
10
39.090925
20
5.308841
30
0
11
0.883883476483197
21
-0.883883476483172
31
0
210
0
220
0
230
1
40
0.996195
41
2.07538544346648
42
-0.045868734545398
0
ELLIPSE
5
F0
100
AcDbEntity
8
1
62
256
6
ByLayer
370
18
48
1
60
0
100
AcDbEllipse
10
48.88686
20
0
30
0
11
143.80120510072
21
-0.550338294924033
31
0
210
0
220
0
230
1
40
0.061627
41
1.62187216240875
42
1.67875838260817
0
ELLIPSE
5
F1
100
AcDbEntity
8
1
62
256
6
ByLayer
370
18
48
1
60
0
100
AcDbEllipse
10
44.528282
20
-0.016755
30
0
11
0.821675240534549
21
0.79364385810219
31
0
210
0
220
0
230
1
40
0.001328
41
-2.90275576844319
42
-2.21600739806333
0
ELLIPSE
5
F2
100
AcDbEntity
8
1
62
256
6
ByLayer
370
18
48
1
60
0
100
AcDbEllipse
10
44.503573
20
0.074856
30
0
11
0.796695304029001
21
0.849175588230947
31
0
210
0
220
0
230
1
40
0.226386
41
2.9268812747451
42
-3.04111099991416
0
ELLIPSE
5
F3
100
AcDbEntity
8
1
62
256
6
ByLayer
370
18
48
1
60
0
100
AcDbEllipse
10
42.20085
20
2.903333
30
0
11
0.707106781186557
21
-0.707106781186538
31
0
210
0
220
0
230
1
40
0.996195
41
-2.55126130969282
42
-0.59613329192772
0
ELLIPSE
5
F4
100
AcDbEntity
8
1
62
256
6
ByLayer
370
18
48
1
60
0
100
AcDbEllipse
10
44.540745
20
0
30
0
11
9.19217346220224
21
8.87911332427681
31
0
210
0
220
0
230
1
40
0.001053
41
-2.97656718262567
42
-1.84803742078779
0
ELLIPSE
5
F5
100
AcDbEntity
8
1
62
256
6
ByLayer
370
18
48
1
60
0
100
AcDbEllipse
10
44.544945
20
-0.078536
30
0
11
0.965497639460198
21
0.260411805025781
31
0
210
0
220
0
230
1
40
0.043578
41
-2.72940855060621
42
-1.7788568647264
0
ELLIPSE
5
F6
100
AcDbEntity
8
1
62
256
6
ByLayer
370
18
48
1
60
0
100
AcDbEllipse
10
38.884776
20
5.102692
30
0
11
-0.883883476483197
21
0.883883476483172
31
0
210
0
220
0
230
1
40
0.996195
41
-3.02429017988518
42
-2.94712457137318
0
ELLIPSE
5
F7
100
AcDbEntity
8
1
62
256
6
ByLayer
370
18
48
1
60
0
100
AcDbEllipse
10
38.884776
20
5.102692
30
0
11
-0.883883476483197
21
0.883883476483172
31
0
210
0
220
0
230
1
40
0.996195
41
-1.0695323805923
42
-0.117335650263249
0
POINT
5
70
100
AcDbEntity
8
81
62
256
6
ByLayer
370
18
48
1
60
0
100
AcDbPoint
10
51
20
6
30
0
39
0
210
0
220
0
230
1
50
360
0
POINT
5
72
100
AcDbEntity
8
80
62
256
6
ByLayer
370
18
48
1
60
0
100
AcDbPoint
10
0
20
0
30
0
39
0
210
0
220
0
230
1
50
360
0
POINT
5
74
100
AcDbEntity
8
1
62
256
6
ByLayer
370
18
48
1
60
1
100
AcDbPoint
10
51
20
-6
30
0
39
0
210
0
220
0
230
1
50
360
0
POINT
5
76
100
AcDbEntity
8
1
62
256
6
ByLayer
370
18
48
1
60
1
100
AcDbPoint
10
51
20
6
30
0
39
0
210
0
220
0
230
1
50
360
0
POINT
5
77
100
AcDbEntity
8
1
62
256
6
ByLayer
370
18
48
1
60
1
100
AcDbPoint
10
51
20
-6
30
0
39
0
210
0
220
0
230
1
50
360
0
POINT
5
78
100
AcDbEntity
8
1
62
256
6
ByLayer
370
18
48
1
60
1
100
AcDbPoint
10
0
20
0
30
0
39
0
210
0
220
0
230
1
50
360
0
POINT
5
79
100
AcDbEntity
8
1
62
256
6
ByLayer
370
18
48
1
60
1
100
AcDbPoint
10
-49
20
8
30
0
39
0
210
0
220
0
230
1
50
360
0
POINT
5
7A
100
AcDbEntity
8
1
62
256
6
ByLayer
370
18
48
1
60
1
100
AcDbPoint
10
51
20
6
30
0
39
0
210
0
220
0
230
1
50
360
0
POINT
5
7B
100
AcDbEntity
8
1
62
256
6
ByLayer
370
18
48
1
60
1
100
AcDbPoint
10
-49
20
8
30
0
39
0
210
0
220
0
230
1
50
360
0
POINT
5
7C
100
AcDbEntity
8
1
62
256
6
ByLayer
370
18
48
1
60
1
100
AcDbPoint
10
44.96
20
11.7
30
0
39
0
210
0
220
0
230
1
50
360
0
POINT
5
7D
100
AcDbEntity
8
1
62
256
6
ByLayer
370
18
48
1
60
1
100
AcDbPoint
10
44.96
20
-11.7
30
0
39
0
210
0
220
0
230
1
50
360
0
POINT
5
7E
100
AcDbEntity
8
1
62
256
6
ByLayer
370
18
48
1
60
1
100
AcDbPoint
10
44.96
20
11.7
30
0
39
0
210
0
220
0
230
1
50
360
0
POINT
5
7F
100
AcDbEntity
8
1
62
256
6
ByLayer
370
18
48
1
60
1
100
AcDbPoint
10
-49
20
8
30
0
39
0
210
0
220
0
230
1
50
360
0
POINT
5
80
100
AcDbEntity
8
1
62
256
6
ByLayer
370
18
48
1
60
1
100
AcDbPoint
10
-49
20
-8
30
0
39
0
210
0
220
0
230
1
50
360
0
SPLINE
5
F8
100
AcDbEntity
8
1
62
256
6
ByLayer
370
18
48
1
60
0
100
AcDbSpline
70
4
71
3
72
16
73
12
40
0
40
0
40
0
40
0
40
0.124999999999999
40
0.124999999999999
40
0.249999999999998
40
0.249999999999998
40
0.499999999999998
40
0.499999999999998
40
0.749999999999999
40
0.749999999999999
40
1
40
1
40
1
40
1
41
1
10
44.4112538386242
20
4.69160085857561
30
0
41
1
10
44.4052700140955
20
4.67908223652034
30
0
41
1
10
44.3956610680523
20
4.66868837917156
30
0
41
1
10
44.3707601313085
20
4.6549646919101
30
0
41
1
10
44.3557015281839
20
4.65167414948738
30
0
41
1
10
44.3092887032153
20
4.65030597886201
30
0
41
1
10
44.2770885361075
20
4.65955431611542
30
0
41
1
10
44.216638240625
20
4.68550747282302
30
0
41
1
10
44.1878071245367
20
4.70264889995261
30
0
41
1
10
44.1336027532799
20
4.74150058705266
30
0
41
1
10
44.1081395277531
20
4.76332827400444
30
0
41
1
10
44.0844923015828
20
4.78697550017469
30
0
0
SPLINE
5
F9
100
AcDbEntity
8
1
62
256
6
ByLayer
370
18
48
1
60
0
100
AcDbSpline
70
4
71
3
72
18
73
14
40
0
40
0
40
0
40
0
40
0.125
40
0.125
40
0.249999999999999
40
0.249999999999999
40
0.5
40
0.5
40
0.75
40
0.75
40
0.875
40
0.875
40
1
40
1
40
1
40
1
41
1
10
46.1230509515247
20
5.69186986267363
30
0
41
1
10
46.0986230950738
20
5.69780132337641
30
0
41
1
10
46.0769442065841
20
5.7118296096865
30
0
41
1
10
46.0382494084663
20
5.74636312885735
30
0
41
1
10
46.0213384916743
20
5.76702428714688
30
0
41
1
10
45.9766816721719
20
5.83410248930349
30
0
41
1
10
45.954773040599
20
5.88567727635907
30
0
41
1
10
45.9257058533849
20
5.99343419567506
30
0
41
1
10
45.9185612174623
20
6.04959265487597
30
0
41
1
10
45.9229872842688
20
6.13156999828016
30
0
41
1
10
45.9270198304746
20
6.15856712746682
30
0
41
1
10
45.9426975237288
20
6.20954435791595
30
0
41
1
10
45.9541521336228
20
6.23348387744463
30
0
41
1
10
45.9720025867961
20
6.25189378161761
30
0
0
SPLINE
5
FA
100
AcDbEntity
8
1
62
256
6
ByLayer
370
18
48
1
60
0
100
AcDbSpline
70
4
71
3
72
8
73
4
40
0
40
0
40
0
40
0
40
1
40
1
40
1
40
1
41
1
10
45.9720025867961
20
6.25189378161761
30
0
41
1
10
45.9768513980684
20
6.25689455946957
30
0
41
1
10
45.9816995640144
20
6.26189466671724
30
0
41
1
10
45.9865471156562
20
6.26689413560754
30
0
0
SPLINE
5
FB
100
AcDbEntity
8
1
62
256
6
ByLayer
370
18
48
1
60
0
100
AcDbSpline
70
4
71
3
72
20
73
16
40
0
40
0
40
0
40
0
40
0.125
40
0.125
40
0.25
40
0.25
40
0.5
40
0.5
40
0.625
40
0.625
40
0.75
40
0.75
40
0.875
40
0.875
40
1
40
1
40
1
40
1
41
1
10
44.0022939470499
20
5.12736914941209
30
0
41
1
10
44.0184916429092
20
5.14412717385918
30
0
41
1
10
44.0284534998439
20
5.16660479383165
30
0
41
1
10
44.0415532183226
20
5.21498421178109
30
0
41
1
10
44.044535493584
20
5.24099671934945
30
0
41
1
10
44.0463684579505
20
5.32070029772325
30
0
41
1
10
44.0382864566705
20
5.37606722627453
30
0
41
1
10
44.0163960437162
20
5.45696298905486
30
0
41
1
10
44.00753223462
20
5.48315579097871
30
0
41
1
10
43.9865658141982
20
5.53396420414975
30
0
41
1
10
43.9743279458676
20
5.55883731872854
30
0
41
1
10
43.9463317895561
20
5.60521892515305
30
0
41
1
10
43.9306155231649
20
5.6268318547491
30
0
41
1
10
43.8944246371575
20
5.66408523090519
30
0
41
1
10
43.8740827010961
20
5.67975305789091
30
0
41
1
10
43.8512455823213
20
5.6873930683561
30
0
0
SPLINE
5
FC
100
AcDbEntity
8
1
62
256
6
ByLayer
370
18
48
1
60
0
100
AcDbSpline
70
4
71
3
72
18
73
14
40
0
40
0
40
0
40
0
40
0.25
40
0.25
40
0.5
40
0.5
40
0.625
40
0.625
40
0.75
40
0.75
40
0.875
40
0.875
40
1
40
1
40
1
40
1
41
1
10
45.9005472592518
20
6.60303045784366
30
0
41
1
10
45.8769112625025
20
6.62666645459294
30
0
41
1
10
45.8513856063503
20
6.64837503895404
30
0
41
1
10
45.7967465999235
20
6.68680594921071
30
0
41
1
10
45.7676682106495
20
6.70358122418517
30
0
41
1
10
45.7214219475345
20
6.72226049120877
30
0
41
1
10
45.705651913195
20
6.72734409398444
30
0
41
1
10
45.673630819238
20
6.73412241545518
30
0
41
1
10
45.6570549198442
20
6.73585641496859
30
0
41
1
10
45.6248748939513
20
6.73369818446514
30
0
41
1
10
45.6090675484242
20
6.72969586405577
30
0
41
1
10
45.5820565437763
20
6.71403297692061
30
0
41
1
10
45.5714364648169
20
6.70259365931511
30
0
41
1
10
45.5644109370157
20
6.68903031424807
30
0
0
SPLINE
5
FD
100
AcDbEntity
8
1
62
256
6
ByLayer
370
18
48
1
60
0
100
AcDbSpline
70
4
71
3
72
8
73
4
40
0
40
0
40
0
40
0
40
1
40
1
40
1
40
1
41
1
10
44.9849098697642
20
4.55372878091316
30
0
41
1
10
44.9869760469044
20
4.54755267251983
30
0
41
1
10
44.9890420415776
20
4.54137775266972
30
0
41
1
10
44.9911078623814
20
4.53520396353764
30
0
0
SPLINE
5
FE
100
AcDbEntity
8
1
62
256
6
ByLayer
370
18
48
1
60
0
100
AcDbSpline
70
4
71
3
72
16
73
12
40
0
40
0
40
0
40
0
40
0.125
40
0.125
40
0.25
40
0.25
40
0.5
40
0.5
40
0.75
40
0.75
40
1
40
1
40
1
40
1
41
1
10
45.9898225902177
20
5.11178251273336
30
0
41
1
10
46.0025356436939
20
5.10424060462844
30
0
41
1
10
46.0173151884122
20
5.10033844830966
30
0
41
1
10
46.0479653059627
20
5.10140127817644
30
0
41
1
10
46.0636029712737
20
5.10628143394774
30
0
41
1
10
46.1067825965408
20
5.12876088092034
30
0
41
1
10
46.1309214614789
20
5.15300547833334
30
0
41
1
10
46.1715217331656
20
5.20585616131208
30
0
41
1
10
46.1882563094296
20
5.23512621316334
30
0
41
1
10
46.2161556746973
20
5.29583218047165
30
0
41
1
10
46.2273346517138
20
5.32741324766809
30
0
41
1
10
46.2359122080682
20
5.35963803019277
30
0
0
SPLINE
5
FF
100
AcDbEntity
8
1
62
256
6
ByLayer
370
18
48
1
60
0
100
AcDbSpline
70
4
71
3
72
8
73
4
40
0
40
0
40
0
40
0
40
1
40
1
40
1
40
1
41
1
10
44.4248859508202
20
4.7047771456418
30
0
41
1
10
44.420341011098
20
4.70038417249913
30
0
41
1
10
44.4157969885927
20
4.69599209129552
30
0
41
1
10
44.4112538386242
20
4.69160085857561
30
0
0
SPLINE
5
100
100
AcDbEntity
8
1
62
256
6
ByLayer
370
18
48
1
60
0
100
AcDbSpline
70
4
71
3
72
16
73
12
40
0
40
0
40
0
40
0
40
0.125
40
0.125
40
0.25
40
0.25
40
0.5
40
0.5
40
0.75
40
0.75
40
1
40
1
40
1
40
1
41
1
10
44.9911078623814
20
4.53520396353764
30
0
41
1
10
44.9907830646696
20
4.52115900177128
30
0
41
1
10
44.9946510343165
20
4.50713018168656
30
0
41
1
10
45.0106582353017
20
4.48237284550578
30
0
41
1
10
45.0226084947594
20
4.47179753472184
30
0
41
1
10
45.0634508815344
20
4.44689508885915
30
0
41
1
10
45.0964551894753
20
4.43855662491365
30
0
41
1
10
45.1624554371173
20
4.43040383165752
30
0
41
1
10
45.19616547541
20
4.4306768023196
30
0
41
1
10
45.2627009460712
20
4.43696281666465
30
0
41
1
10
45.2956599467091
20
4.44303299500388
30
0
41
1
10
45.3278847292337
20
4.45161055135827
30
0
0
SPLINE
5
101
100
AcDbEntity
8
1
62
256
6
ByLayer
370
18
48
1
60
0
100
AcDbSpline
70
4
71
3
72
18
73
14
40
0
40
0
40
0
40
0
40
0.125000000000001
40
0.125000000000001
40
0.250000000000001
40
0.250000000000001
40
0.5
40
0.5
40
0.75
40
0.75
40
0.875
40
0.875
40
1
40
1
40
1
40
1
41
1
10
45.5607886354219
20
4.70701554280055
30
0
41
1
10
45.5539409432421
20
4.72996741992674
30
0
41
1
10
45.5554526770041
20
4.75469465322632
30
0
41
1
10
45.5663568044018
20
4.80360771903224
30
0
41
1
10
45.5759356443638
20
4.82778538570113
30
0
41
1
10
45.6120257723697
20
4.89801933484486
30
0
41
1
10
45.6458256060255
20
4.94201276768612
30
0
41
1
10
45.7245170091853
20
5.02070831125781
30
0
41
1
10
45.7693949557035
20
5.05538708025355
30
0
41
1
10
45.8421439171424
20
5.09402811286228
30
0
41
1
10
45.8673573253455
20
5.10467394758228
30
0
41
1
10
45.9189228787587
20
5.11817038629238
30
0
41
1
10
45.9451463582654
20
5.12115703150573
30
0
41
1
10
45.9697641896373
20
5.11599109701592
30
0
0
SPLINE
5
102
100
AcDbEntity
8
1
62
256
6
ByLayer
370
18
48
1
60
0
100
AcDbSpline
70
4
71
3
72
16
73
12
40
0
40
0
40
0
40
0
40
0.125
40
0.125
40
0.25
40
0.25
40
0.5
40
0.5
40
0.75
40
0.75
40
1
40
1
40
1
40
1
41
1
10
43.9858421854223
20
6.26884866009033
30
0
41
1
10
43.9741675902116
20
6.27742902646074
30
0
41
1
10
43.9604234809385
20
6.28236661822478
30
0
41
1
10
43.9316118219957
20
6.2831422469657
30
0
41
1
10
43.9167678835458
20
6.27905581805547
30
0
41
1
10
43.8755263940122
20
6.25851450681631
30
0
41
1
10
43.8521533175754
20
6.23503569790464
30
0
41
1
10
43.8126594073933
20
6.18329137643062
30
0
41
1
10
43.7962567613312
20
6.15435325478114
30
0
41
1
10
43.7687885594765
20
6.09407845088592
30
0
41
1
10
43.7577049091208
20
6.06259271035029
30
0
41
1
10
43.7491273527664
20
6.03036792782561
30
0
0
SPLINE
5
103
100
AcDbEntity
8
1
62
256
6
ByLayer
370
18
48
1
60
0
100
AcDbSpline
70
4
71
3
72
8
73
4
40
0
40
0
40
0
40
0
40
1
40
1
40
1
40
1
41
1
10
43.9891176599838
20
5.11373703721614
30
0
41
1
10
43.9935088927036
20
5.1182801871845
30
0
41
1
10
43.9979009739072
20
5.12282420968984
30
0
41
1
10
44.0022939470499
20
5.12736914941209
30
0
0
SPLINE
5
104
100
AcDbEntity
8
1
62
256
6
ByLayer
370
18
48
1
60
0
100
AcDbSpline
70
4
71
3
72
18
73
14
40
0
40
0
40
0
40
0
40
0.25
40
0.25
40
0.5
40
0.5
40
0.625
40
0.625
40
0.75
40
0.75
40
0.875
40
0.875
40
1
40
1
40
1
40
1
41
1
10
45.3278847292337
20
4.45161055135827
30
0
41
1
10
45.3600942090905
20
4.46018403446575
30
0
41
1
10
45.3915430930818
20
4.47125143866077
30
0
41
1
10
45.4518286802739
20
4.49871765921145
30
0
41
1
10
45.4806955866687
20
4.51506598318642
30
0
41
1
10
45.5195809121538
20
4.54473129822972
30
0
41
1
10
45.5317114572971
20
4.55543572536587
30
0
41
1
10
45.5532224105954
20
4.57876324551799
30
0
41
1
10
45.5627952326206
20
4.59163680005443
30
0
41
1
10
45.5765038452012
20
4.61906647494462
30
0
41
1
10
45.5806408607192
20
4.63383757382741
30
0
41
1
10
45.5799080487272
20
4.66291695258107
30
0
41
1
10
45.5749497928685
20
4.67664539395625
30
0
41
1
10
45.5663654614985
20
4.68832538401415
30
0
0
SPLINE
5
105
100
AcDbEntity
8
1
62
256
6
ByLayer
370
18
48
1
60
0
100
AcDbSpline
70
4
71
3
72
8
73
4
40
0
40
0
40
0
40
0
40
1
40
1
40
1
40
1
41
1
10
43.8327207649457
20
5.69359106097329
30
0
41
1
10
43.8388945540778
20
5.69152524016943
30
0
41
1
10
43.8450694739279
20
5.68945924549624
30
0
41
1
10
43.8512455823213
20
5.6873930683561
30
0
0
SPLINE
5
106
100
AcDbEntity
8
1
62
256
6
ByLayer
370
18
48
1
60
0
100
AcDbSpline
70
4
71
3
72
8
73
4
40
0
40
0
40
0
40
0
40
1
40
1
40
1
40
1
41
1
10
44.0045323442087
20
6.26327183401381
30
0
41
1
10
43.9983011129908
20
6.26513092174972
30
0
41
1
10
43.9920710794851
20
6.26698986146567
30
0
41
1
10
43.9858421854223
20
6.26884866009033
30
0
0
SPLINE
5
107
100
AcDbEntity
8
1
62
256
6
ByLayer
370
18
48
1
60
0
100
AcDbSpline
70
4
71
3
72
18
73
14
40
0
40
0
40
0
40
0
40
0.25
40
0.25
40
0.5
40
0.5
40
0.625
40
0.625
40
0.75
40
0.75
40
0.875
40
0.875
40
1
40
1
40
1
40
1
41
1
10
46.2359122080682
20
5.35963803019277
30
0
41
1
10
46.2444856911757
20
5.3918475100495
30
0
41
1
10
46.250456465696
20
5.42467104528689
30
0
41
1
10
46.2563185270324
20
5.49078365666534
30
0
41
1
10
46.2562722623765
20
5.52407247383809
30
0
41
1
10
46.2493266762993
20
5.57283240745767
30
0
41
1
10
46.2458536204671
20
5.58878687073354
30
0
41
1
10
46.2357622562059
20
5.61931148875385
30
0
41
1
10
46.2290162024769
20
5.63417606644325
30
0
41
1
10
46.2111886364085
20
5.66009135807391
30
0
41
1
10
46.19991206203
20
5.6712538921779
30
0
41
1
10
46.1730951585883
20
5.68559729699456
30
0
41
1
10
46.158034400796
20
5.68840399779026
30
0
41
1
10
46.1429440106942
20
5.68704011185039
30
0
0
SPLINE
5
108
100
AcDbEntity
8
1
62
256
6
ByLayer
370
18
48
1
60
0
100
AcDbSpline
70
4
71
3
72
16
73
12
40
0
40
0
40
0
40
0
40
0.125
40
0.125
40
0.25
40
0.25
40
0.5
40
0.5
40
0.75
40
0.75
40
1
40
1
40
1
40
1
41
1
10
44.9845569132585
20
6.84542720928604
30
0
41
1
10
44.9859201692358
20
6.8605106293179
30
0
41
1
10
44.9830876350342
20
6.87557488484785
30
0
41
1
10
44.9689188926567
20
6.90217067963636
30
0
41
1
10
44.9577623600601
20
6.91353971728137
30
0
41
1
10
44.9188581090185
20
6.9403802988775
30
0
41
1
10
44.8866195895789
20
6.9494845513243
30
0
41
1
10
44.8217257034416
20
6.95874370608516
30
0
41
1
10
44.7883475953508
20
6.95880266562486
30
0
41
1
10
44.7222432881027
20
6.95294781469292
30
0
41
1
10
44.6893796141256
20
6.94697296301447
30
0
41
1
10
44.6571548316009
20
6.93839540666008
30
0
0
SPLINE
5
109
100
AcDbEntity
8
1
62
256
6
ByLayer
370
18
48
1
60
0
100
AcDbSpline
70
4
71
3
72
18
73
14
40
0
40
0
40
0
40
0
40
0.25
40
0.25
40
0.5
40
0.5
40
0.625
40
0.625
40
0.75
40
0.75
40
0.875
40
0.875
40
1
40
1
40
1
40
1
41
1
10
43.7491273527664
20
6.03036792782561
30
0
41
1
10
43.7405538696589
20
5.99815844796885
30
0
41
1
10
43.7344880017762
20
5.96523981936906
30
0
41
1
10
43.7281949792975
20
5.89869624684829
30
0
41
1
10
43.7279108075068
20
5.86507699322891
30
0
41
1
10
43.7340256904786
20
5.81548635650395
30
0
41
1
10
43.7371658795827
20
5.79919902649999
30
0
41
1
10
43.7464196910489
20
5.76783685568475
30
0
41
1
10
43.7526516974989
20
5.75245823071634
30
0
41
1
10
43.7691915690795
20
5.72525524459778
30
0
41
1
10
43.7796806321969
20
5.71330519923268
30
0
41
1
10
43.8046437092422
20
5.69710796801971
30
0
41
1
10
43.8186693129824
20
5.69326611317197
30
0
41
1
10
43.8327207649457
20
5.69359106097329
30
0
0
SPLINE
5
10A
100
AcDbEntity
8
1
62
256
6
ByLayer
370
18
48
1
60
0
100
AcDbSpline
70
4
71
3
72
16
73
12
40
0
40
0
40
0
40
0
40
0.25
40
0.25
40
0.5
40
0.5
40
0.749999999999999
40
0.749999999999999
40
0.875
40
0.875
40
1
40
1
40
1
40
1
41
1
10
44.0844923015828
20
4.78697550017469
30
0
41
1
10
44.060847932747
20
4.81061986901048
30
0
41
1
10
44.0390371722721
20
4.83606001122237
30
0
41
1
10
44.0001649166525
20
4.89028975777578
30
0
41
1
10
43.9830560002664
20
4.91904935601031
30
0
41
1
10
43.9570455227056
20
4.9796295374538
30
0
41
1
10
43.947820517606
20
5.01150288388021
30
0
41
1
10
43.9491910262269
20
5.05828330201305
30
0
41
1
10
43.9525087625552
20
5.0732863917633
30
0
41
1
10
43.9661628097573
20
5.09807379662601
30
0
41
1
10
43.9766036243306
20
5.10775540495951
30
0
41
1
10
43.9891176599838
20
5.11373703721614
30
0
0
SPLINE
5
10B
100
AcDbEntity
8
1
62
256
6
ByLayer
370
18
48
1
60
0
100
AcDbSpline
70
4
71
3
72
18
73
14
40
0
40
0
40
0
40
0
40
0.125
40
0.125
40
0.250000000000001
40
0.250000000000001
40
0.500000000000001
40
0.500000000000001
40
0.75
40
0.75
40
0.875
40
0.875
40
1
40
1
40
1
40
1
41
1
10
45.5494105830257
20
6.67448578538793
30
0
41
1
10
45.5309909104476
20
6.65662586065741
30
0
41
1
10
45.5070589084436
20
6.64518553391565
30
0
41
1
10
45.4561815556067
20
6.62952755995917
30
0
41
1
10
45.4291586315685
20
6.62547788429555
30
0
41
1
10
45.3471279240702
20
6.62103837731846
30
0
41
1
10
45.2909833040412
20
6.62818357673251
30
0
41
1
10
45.1832245444605
20
6.6572447832701
30
0
41
1
10
45.1316382919774
20
6.67916080343289
30
0
41
1
10
45.0645978799686
20
6.72377959685201
30
0
41
1
10
45.0439491904598
20
6.74066306380718
30
0
41
1
10
45.0093418938254
20
6.77942441907075
30
0
41
1
10
44.9953149791851
20
6.80111924835853
30
0
41
1
10
44.9893866640817
20
6.82553415011657
30
0
0
SPLINE
5
10C
100
AcDbEntity
8
1
62
256
6
ByLayer
370
18
48
1
60
0
100
AcDbSpline
70
4
71
3
72
8
73
4
40
0
40
0
40
0
40
0
40
1
40
1
40
1
40
1
41
1
10
44.9893866640817
20
6.82553415011657
30
0
41
1
10
44.9877763250713
20
6.83216609663961
30
0
41
1
10
44.9861664151405
20
6.83879710123202
30
0
41
1
10
44.9845569132585
20
6.84542720928604
30
0
0
SPLINE
5
10D
100
AcDbEntity
8
1
62
256
6
ByLayer
370
18
48
1
60
0
100
AcDbSpline
70
4
71
3
72
8
73
4
40
0
40
0
40
0
40
0
40
1
40
1
40
1
40
1
41
1
10
44.4092993141415
20
6.69230578880953
30
0
41
1
10
44.4107017938442
20
6.6856205758248
30
0
41
1
10
44.4121046488178
20
6.67893445757681
30
0
41
1
10
44.4135078984241
20
6.67224738822915
30
0
0
SPLINE
5
10E
100
AcDbEntity
8
1
62
256
6
ByLayer
370
18
48
1
60
0
100
AcDbSpline
70
4
71
3
72
18
73
14
40
0
40
0
40
0
40
0
40
0.125000000000001
40
0.125000000000001
40
0.250000000000001
40
0.250000000000001
40
0.500000000000001
40
0.500000000000001
40
0.75
40
0.75
40
0.875
40
0.875
40
1
40
1
40
1
40
1
41
1
10
44.4135078984241
20
6.67224738822915
30
0
41
1
10
44.4186765739896
20
6.64761649448872
30
0
41
1
10
44.4156820807232
20
6.62140650168462
30
0
41
1
10
44.4022210986826
20
6.56993658123588
30
0
41
1
10
44.3915759241521
20
6.54469257999847
30
0
41
1
10
44.3529182761662
20
6.47189111087479
30
0
41
1
10
44.31824613291
20
6.42702536843299
30
0
41
1
10
44.2395543913366
20
6.34832948644785
30
0
41
1
10
44.1955491047337
20
6.31452337736735
30
0
41
1
10
44.1253651085422
20
6.27844731000602
30
0
41
1
10
44.1012160453161
20
6.26886582026296
30
0
41
1
10
44.052211618952
20
6.25793050860199
30
0
41
1
10
44.0274720493902
20
6.25642777333351
30
0
41
1
10
44.0045323442087
20
6.26327183401381
30
0
0
SPLINE
5
10F
100
AcDbEntity
8
1
62
256
6
ByLayer
370
18
48
1
60
0
100
AcDbSpline
70
4
71
3
72
8
73
4
40
0
40
0
40
0
40
0
40
1
40
1
40
1
40
1
41
1
10
45.5644109370157
20
6.68903031424807
30
0
41
1
10
45.5594114681254
20
6.68418276260624
30
0
41
1
10
45.5544113608777
20
6.67933459666028
30
0
41
1
10
45.5494105830257
20
6.67448578538793
30
0
0
SPLINE
5
110
100
AcDbEntity
8
1
62
256
6
ByLayer
370
18
48
1
60
0
100
AcDbSpline
70
4
71
3
72
18
73
14
40
0
40
0
40
0
40
0
40
0.25
40
0.25
40
0.5
40
0.5
40
0.625
40
0.625
40
0.75
40
0.75
40
0.875
40
0.875
40
1
40
1
40
1
40
1
41
1
10
44.6571548316009
20
6.93839540666008
30
0
41
1
10
44.6249453517442
20
6.92982192355259
30
0
41
1
10
44.5934013743904
20
6.91865942599514
30
0
41
1
10
44.532684826056
20
6.89076224430218
30
0
41
1
10
44.5034874832146
20
6.87408348388058
30
0
41
1
10
44.4637714546241
20
6.8435874657319
30
0
41
1
10
44.4513080427527
20
6.83255017186767
30
0
41
1
10
44.4289595366595
20
6.80838509892064
30
0
41
1
10
44.4188726673552
20
6.79499749710513
30
0
41
1
10
44.4038763602867
20
6.76628012772707
30
0
41
1
10
44.3989518335076
20
6.75072151758317
30
0
41
1
10
44.3978308191033
20
6.71978831243317
30
0
41
1
10
44.40175392091
20
6.70502471700598
30
0
41
1
10
44.4092993141415
20
6.69230578880953
30
0
0
SPLINE
5
111
100
AcDbEntity
8
1
62
256
6
ByLayer
370
18
48
1
60
0
100
AcDbSpline
70
4
71
3
72
8
73
4
40
0
40
0
40
0
40
0
40
1
40
1
40
1
40
1
41
1
10
45.9697641896373
20
5.11599109701592
30
0
41
1
10
45.976451258985
20
5.11458784740969
30
0
41
1
10
45.9831373772329
20
5.11318499243609
30
0
41
1
10
45.9898225902177
20
5.11178251273336
30
0
0
SPLINE
5
112
100
AcDbEntity
8
1
62
256
6
ByLayer
370
18
48
1
60
0
100
AcDbSpline
70
4
71
3
72
16
73
12
40
0
40
0
40
0
40
0
40
0.125
40
0.125
40
0.25
40
0.25
40
0.5
40
0.5
40
0.75
40
0.75
40
1
40
1
40
1
40
1
41
1
10
45.9865471156562
20
6.26689413560754
30
0
41
1
10
46.000104195977
20
6.27391641840177
30
0
41
1
10
46.011533488771
20
6.2845607998903
30
0
41
1
10
46.0270956346402
20
6.31130019524176
30
0
41
1
10
46.031179903924
20
6.32715252522752
30
0
41
1
10
46.0344862102828
20
6.3755034859295
30
0
41
1
10
46.0260036615307
20
6.40846944153867
30
0
41
1
10
46.0011568663278
20
6.47002609852589
30
0
41
1
10
45.9843473694
20
6.49918914481597
30
0
41
1
10
45.945926845713
20
6.55382467948579
30
0
41
1
10
45.924194485422
20
6.57938323167338
30
0
41
1
10
45.9005472592518
20
6.60303045784366
30
0
0
SPLINE
5
113
100
AcDbEntity
8
1
62
256
6
ByLayer
370
18
48
1
60
0
100
AcDbSpline
70
4
71
3
72
8
73
4
40
0
40
0
40
0
40
0
40
1
40
1
40
1
40
1
41
1
10
45.5663654614985
20
4.68832538401415
30
0
41
1
10
45.5645066628738
20
4.69455427807696
30
0
41
1
10
45.5626477231579
20
4.70078431158259
30
0
41
1
10
45.5607886354219
20
4.70701554280055
30
0
0
SPLINE
5
114
100
AcDbEntity
8
1
62
256
6
ByLayer
370
18
48
1
60
0
100
AcDbSpline
70
4
71
3
72
18
73
14
40
0
40
0
40
0
40
0
40
0.125
40
0.125
40
0.25
40
0.25
40
0.499999999999999
40
0.499999999999999
40
0.749999999999999
40
0.749999999999999
40
0.874999999999999
40
0.874999999999999
40
1
40
1
40
1
40
1
41
1
10
44.9849098697642
20
4.55372878091316
30
0
41
1
10
44.9772552586611
20
4.57660954314943
30
0
41
1
10
44.9615174497462
20
4.59697668515577
30
0
41
1
10
44.9245692906568
20
4.63289765176242
30
0
41
1
10
44.9027258981516
20
4.64881339112338
30
0
41
1
10
44.8334646142659
20
4.6906423712918
30
0
41
1
10
44.7812806067204
20
4.71164139216401
30
0
41
1
10
44.6734253244863
20
4.74079809979125
30
0
41
1
10
44.618072536031
20
4.74885011408156
30
0
41
1
10
44.5385641323783
20
4.74701896469276
30
0
41
1
10
44.5126003113847
20
4.74405756009182
30
0
41
1
10
44.4641215241004
20
4.73094241127052
30
0
41
1
10
44.4416360492409
20
4.72096718049266
30
0
41
1
10
44.4248859508202
20
4.7047771456418
30
0
0
SPLINE
5
115
100
AcDbEntity
8
1
62
256
6
ByLayer
370
18
48
1
60
0
100
AcDbSpline
70
4
71
3
72
8
73
4
40
0
40
0
40
0
40
0
40
1
40
1
40
1
40
1
41
1
10
46.1429440106942
20
5.68704011185039
30
0
41
1
10
46.1363139026401
20
5.68864961373231
30
0
41
1
10
46.1296828980477
20
5.69025952366317
30
0
41
1
10
46.1230509515247
20
5.69186986267363
30
0
0
SPLINE
5
116
100
AcDbEntity
8
1
62
256
6
ByLayer
370
18
48
1
60
0
100
AcDbSpline
70
4
71
3
72
10
73
6
40
0
40
0
40
0
40
0
40
0.375000000000405
40
0.750000000000811
40
1
40
1
40
1
40
1
41
1
10
42.9914696355778
20
3.69395283418558
30
0
41
1
10
43.1265790139743
20
3.55884345578704
30
0
41
1
10
43.4193036215787
20
3.31113492001217
30
0
41
1
10
43.8567169283075
20
3.05147689877234
30
0
41
1
10
44.1469729856485
20
2.93008110140755
30
0
41
1
10
44.2648881833916
20
2.88833569007178
30
0
0
SPLINE
5
117
100
AcDbEntity
8
1
62
256
6
ByLayer
370
18
48
1
60
0
100
AcDbSpline
70
4
71
3
72
17
73
13
40
0
40
0
40
0
40
0
40
0.0625
40
0.125
40
0.25
40
0.375
40
0.5
40
0.625
40
0.75
40
0.875
40
0.9375
40
1
40
1
40
1
40
1
41
1
10
39.1927190421547
20
5.12779246218753
30
0
41
1
10
39.1742070299543
20
5.14630447438802
30
0
41
1
10
39.1389954317171
20
5.18514068277142
30
0
41
1
10
39.0764942338082
20
5.26931055466227
30
0
41
1
10
39.0143855257972
20
5.38520641911106
30
0
41
1
10
38.9683672355146
20
5.53604807753197
30
0
41
1
10
38.9526268336581
20
5.69285701922874
30
0
41
1
10
38.96776959488
20
5.84960682776207
30
0
41
1
10
39.0132120720463
20
6.00027504328199
30
0
41
1
10
39.0748802818688
20
6.11593459185886
30
0
41
1
10
39.1370606353247
20
6.19986715789659
30
0
41
1
10
39.1721248699226
20
6.23856913985375
30
0
41
1
10
39.1905664383278
20
6.25701070825895
30
0
0
SPLINE
5
118
100
AcDbEntity
8
1
62
256
6
ByLayer
370
18
48
1
60
0
100
AcDbSpline
70
4
71
3
72
8
73
4
40
0
40
0
40
0
40
0
40
1
40
1
40
1
40
1
41
1
10
39.1905664688592
20
6.25701069812999
30
0
41
1
10
40.059346234757
20
7.12579046402772
30
0
41
1
10
40.9281260006313
20
7.99457022990211
30
0
41
1
10
41.7969057665521
20
8.86334999582289
30
0
0
SPLINE
5
119
100
AcDbEntity
8
1
62
256
6
ByLayer
370
18
48
1
60
0
100
AcDbSpline
70
4
71
3
72
8
73
4
40
0
40
0
40
0
40
0
40
1
40
1
40
1
40
1
41
1
10
45.5324633103137
20
11.4675366896861
30
0
41
1
10
45.594154122568
20
10.4780426723181
30
0
41
1
10
45.6558449348223
20
9.48854865495011
30
0
41
1
10
45.7175357470765
20
8.49905463758211
30
0
0
SPLINE
5
11A
100
AcDbEntity
8
1
62
256
6
ByLayer
370
18
48
1
60
0
100
AcDbSpline
70
4
71
3
72
8
73
4
40
0
40
0
40
0
40
0
40
1
40
1
40
1
40
1
41
1
10
48.1608667972311
20
2.49938896514396
30
0
41
1
10
47.7734421933886
20
2.89503069120994
30
0
41
1
10
47.3860175895462
20
3.29067241727591
30
0
41
1
10
46.9985929857037
20
3.68631414334186
30
0
0
SPLINE
5
11B
100
AcDbEntity
8
1
62
256
6
ByLayer
370
18
48
1
60
0
100
AcDbSpline
70
4
71
3
72
10
73
6
40
0
40
0
40
0
40
0
40
0.375000000000406
40
0.750000000000812
40
1
40
1
40
1
40
1
41
1
10
46.9909542948919
20
7.6934374934678
30
0
41
1
10
46.8558449164954
20
7.82854687186634
30
0
41
1
10
46.5631203088909
20
8.07625540764121
30
0
41
1
10
46.1257070021621
20
8.33591342888104
30
0
41
1
10
45.8354509448211
20
8.45730922624583
30
0
41
1
10
45.7175357470781
20
8.49905463758157
30
0
0
SPLINE
5
11C
100
AcDbEntity
8
1
62
256
6
ByLayer
370
18
48
1
60
0
100
AcDbSpline
70
4
71
3
72
10
73
6
40
0
40
0
40
0
40
0
40
0.249999999999985
40
0.624999999999992
40
1
40
1
40
1
40
1
41
1
10
42.1858524914795
20
4.96737138200078
30
0
41
1
10
42.2275979028134
20
4.84945618425624
30
0
41
1
10
42.3489937001724
20
4.55920012691138
30
0
41
1
10
42.6086517214203
20
4.12178682018788
30
0
41
1
10
42.8563602571876
20
3.82906221257511
30
0
41
1
10
42.9914696355858
20
3.69395283417759
30
0
0
SPLINE
5
11D
100
AcDbEntity
8
1
62
256
6
ByLayer
370
18
48
1
60
0
100
AcDbSpline
70
4
71
3
72
8
73
4
40
0
40
0
40
0
40
0
40
1
40
1
40
1
40
1
41
1
10
50.7650534910969
20
6.23494650890294
30
0
41
1
10
49.775559473728
20
6.29663732115282
30
0
41
1
10
48.786065456359
20
6.35832813340267
30
0
41
1
10
47.7965714389901
20
6.42001894565254
30
0
0
SPLINE
5
11E
100
AcDbEntity
8
1
62
256
6
ByLayer
370
18
48
1
60
0
100
AcDbSpline
70
4
71
3
72
8
73
4
40
0
40
0
40
0
40
0
40
1
40
1
40
1
40
1
41
1
10
41.8090141630791
20
2.51149736167102
30
0
41
1
10
42.203165987248
20
2.90564918583988
30
0
41
1
10
42.5973178114169
20
3.29980101000874
30
0
41
1
10
42.9914696355858
20
3.69395283417762
30
0
0
SPLINE
5
11F
100
AcDbEntity
8
1
62
256
6
ByLayer
370
18
48
1
60
0
100
AcDbSpline
70
4
71
3
72
8
73
4
40
0
40
0
40
0
40
0
40
1
40
1
40
1
40
1
41
1
10
39.1927190726863
20
5.12779245206391
30
0
41
1
10
40.190430212284
20
5.07431876204288
30
0
41
1
10
41.1881413518818
20
5.02084507202184
30
0
41
1
10
42.1858524914795
20
4.96737138200081
30
0
0
SPLINE
5
120
100
AcDbEntity
8
1
62
256
6
ByLayer
370
18
48
1
60
0
100
AcDbSpline
70
4
71
3
72
17
73
13
40
0
40
0
40
0
40
0
40
0.0625
40
0.125
40
0.25
40
0.375
40
0.5
40
0.625
40
0.75
40
0.875
40
0.9375
40
1
40
1
40
1
40
1
41
1
10
50.7650535417263
20
6.23494651887719
30
0
41
1
10
50.7835655539267
20
6.2164345066767
30
0
41
1
10
50.8187771521639
20
6.1775982982933
30
0
41
1
10
50.8812783500728
20
6.09342842640245
30
0
41
1
10
50.9433870580838
20
5.97753256195367
30
0
41
1
10
50.9894053483663
20
5.82669090353275
30
0
41
1
10
51.0051457502228
20
5.66988196183596
30
0
41
1
10
50.990002989001
20
5.51313215330262
30
0
41
1
10
50.9445605118347
20
5.36246393778271
30
0
41
1
10
50.8828923020121
20
5.24680438920583
30
0
41
1
10
50.8207119485563
20
5.16287182316808
30
0
41
1
10
50.7856477139583
20
5.12416984121091
30
0
41
1
10
50.7672061455531
20
5.10572827280572
30
0
0
SPLINE
5
121
100
AcDbEntity
8
1
62
256
6
ByLayer
370
18
48
1
60
0
100
AcDbSpline
70
4
71
3
72
8
73
4
40
0
40
0
40
0
40
0
40
1
40
1
40
1
40
1
41
1
10
45.5324633103111
20
11.4675366896888
30
0
41
1
10
46.4045616737754
20
10.5954383262244
30
0
41
1
10
47.2766600372164
20
9.72333996278343
30
0
41
1
10
48.148758400704
20
8.85124159929586
30
0
0
SPLINE
5
122
100
AcDbEntity
8
1
62
256
6
ByLayer
370
18
48
1
60
0
100
AcDbSpline
70
4
71
3
72
8
73
4
40
0
40
0
40
0
40
0
40
1
40
1
40
1
40
1
41
1
10
44.4253092534694
20
-0.104797728719205
30
0
41
1
10
44.3718355634439
20
0.892913410877611
30
0
41
1
10
44.3183618734186
20
1.89062455047443
30
0
41
1
10
44.2648881833931
20
2.88833569007127
30
0
0
SPLINE
5
123
100
AcDbEntity
8
1
62
256
6
ByLayer
370
18
48
1
60
0
100
AcDbSpline
70
4
71
3
72
8
73
4
40
0
40
0
40
0
40
0
40
1
40
1
40
1
40
1
41
1
10
41.8090141630791
20
2.51149736167102
30
0
41
1
10
40.9369157995916
20
3.38359572515858
30
0
41
1
10
40.0648174361506
20
4.25569408859954
30
0
41
1
10
39.1927190726863
20
5.12779245206391
30
0
0
SPLINE
5
124
100
AcDbEntity
8
1
62
256
6
ByLayer
370
18
48
1
60
0
100
AcDbSpline
70
4
71
3
72
8
73
4
40
0
40
0
40
0
40
0
40
1
40
1
40
1
40
1
41
1
10
41.7969057665521
20
8.86334999582289
30
0
41
1
10
42.6656855324729
20
9.73212976174369
30
0
41
1
10
43.5344652983473
20
10.6009095276181
30
0
41
1
10
44.403245064245
20
11.4696892935158
30
0
0
SPLINE
5
125
100
AcDbEntity
8
1
62
256
6
ByLayer
370
18
48
1
60
0
100
AcDbSpline
70
4
71
3
72
8
73
4
40
0
40
0
40
0
40
0
40
1
40
1
40
1
40
1
41
1
10
39.1905664688619
20
6.25701069813269
30
0
41
1
10
40.1880652934336
20
6.31491374977404
30
0
41
1
10
41.1855641180052
20
6.37281680141538
30
0
41
1
10
42.1830629425768
20
6.43071985305673
30
0
0
SPLINE
5
126
100
AcDbEntity
8
1
62
256
6
ByLayer
370
18
48
1
60
0
100
AcDbSpline
70
4
71
3
72
8
73
4
40
0
40
0
40
0
40
0
40
1
40
1
40
1
40
1
41
1
10
46.9909542948918
20
7.69343749346777
30
0
41
1
10
47.3768889968292
20
8.07937219541049
30
0
41
1
10
47.7628236987666
20
8.46530689735317
30
0
41
1
10
48.148758400704
20
8.85124159929586
30
0
0
SPLINE
5
127
100
AcDbEntity
8
1
62
256
6
ByLayer
370
18
48
1
60
0
100
AcDbSpline
70
4
71
3
72
8
73
4
40
0
40
0
40
0
40
0
40
1
40
1
40
1
40
1
41
1
10
45.5545274995382
20
-0.106950332548905
30
0
41
1
10
45.6124305511751
20
0.890548492023669
30
0
41
1
10
45.6703336028121
20
1.88804731659627
30
0
41
1
10
45.7282366544491
20
2.88554614116884
30
0
0
SPLINE
5
128
100
AcDbEntity
8
1
62
256
6
ByLayer
370
18
48
1
60
0
100
AcDbSpline
70
4
71
3
72
8
73
4
40
0
40
0
40
0
40
0
40
1
40
1
40
1
40
1
41
1
10
48.148758400704
20
8.85124159929586
30
0
41
1
10
49.0208567641915
20
7.97914323580829
30
0
41
1
10
49.8929551276325
20
7.10704487236734
30
0
41
1
10
50.7650534910969
20
6.23494650890294
30
0
0
SPLINE
5
129
100
AcDbEntity
8
1
62
256
6
ByLayer
370
18
48
1
60
0
100
AcDbSpline
70
4
71
3
72
10
73
6
40
0
40
0
40
0
40
0
40
0.375000000000406
40
0.750000000000812
40
1
40
1
40
1
40
1
41
1
10
42.9838309447659
20
7.70107618431149
30
0
41
1
10
42.8492356983428
20
7.56648093789047
30
0
41
1
10
42.6026413952444
20
7.27469860888129
30
0
41
1
10
42.3446491555883
20
6.83827208742323
30
0
41
1
10
42.224359097398
20
6.54847675049604
30
0
41
1
10
42.1830629425774
20
6.43071985305826
30
0
0
SPLINE
5
12A
100
AcDbEntity
8
1
62
256
6
ByLayer
370
18
48
1
60
0
100
AcDbSpline
70
4
71
3
72
10
73
6
40
0
40
0
40
0
40
0
40
0.375000000000406
40
0.750000000000812
40
1
40
1
40
1
40
1
41
1
10
46.9985929857038
20
3.68631414334186
30
0
41
1
10
47.1331882321269
20
3.82090938976288
30
0
41
1
10
47.3797825352252
20
4.11269171877206
30
0
41
1
10
47.6377747748813
20
4.54911824023014
30
0
41
1
10
47.7580648330717
20
4.83891357715731
30
0
41
1
10
47.7993609878923
20
4.95667047459509
30
0
0
SPLINE
5
12B
100
AcDbEntity
8
1
62
256
6
ByLayer
370
18
48
1
60
0
100
AcDbSpline
70
4
71
3
72
8
73
4
40
0
40
0
40
0
40
0
40
1
40
1
40
1
40
1
41
1
10
50.7672060949212
20
5.10572826283416
30
0
41
1
10
49.7779243925784
20
5.05604233342166
30
0
41
1
10
48.7886426902356
20
5.00635640400915
30
0
41
1
10
47.7993609878928
20
4.95667047459662
30
0
0
SPLINE
5
12C
100
AcDbEntity
8
1
62
256
6
ByLayer
370
18
48
1
60
0
100
AcDbSpline
70
4
71
3
72
10
73
6
40
0
40
0
40
0
40
0
40
0.249999999999984
40
0.624999999999992
40
1
40
1
40
1
40
1
41
1
10
44.2541872760206
20
8.5018441864845
30
0
41
1
10
44.1364303785813
20
8.46054803166567
30
0
41
1
10
43.8466350416503
20
8.34025797348119
30
0
41
1
10
43.4102085201976
20
8.08226573381702
30
0
41
1
10
43.11842619118
20
7.83567143072628
30
0
41
1
10
42.9838309447579
20
7.70107618430356
30
0
0
SPLINE
5
12D
100
AcDbEntity
8
1
62
256
6
ByLayer
370
18
48
1
60
0
100
AcDbSpline
70
4
71
3
72
8
73
4
40
0
40
0
40
0
40
0
40
1
40
1
40
1
40
1
41
1
10
48.1608667972311
20
2.49938896514396
30
0
41
1
10
47.2920870313103
20
1.63060919922319
30
0
41
1
10
46.4233072654359
20
0.761829433348822
30
0
41
1
10
45.5545274995382
20
-0.106950332548905
30
0
0
SPLINE
5
12E
100
AcDbEntity
8
1
62
256
6
ByLayer
370
18
48
1
60
0
100
AcDbSpline
70
4
71
3
72
29
73
25
40
0
40
0
40
0
40
0
40
0.125000000000944
40
0.171875000000893
40
0.218750000000841
40
0.242187500000815
40
0.265625000000789
40
0.277343750000776
40
0.289062500000763
40
0.312500000000737
40
0.359375000000686
40
0.406250000000634
40
0.50000000000053
40
0.593750000000427
40
0.640625000000375
40
0.687500000000323
40
0.710937500000298
40
0.722656250000285
40
0.734375000000272
40
0.757812500000246
40
0.78125000000022
40
0.828125000000168
40
0.875000000000116
40
1
40
1
40
1
40
1
41
1
10
44.2648881833916
20
2.88833569007178
30
0
41
1
10
44.3238457822639
20
2.86746298440363
30
0
41
1
10
44.405535622053
20
2.84110495110099
30
0
41
1
10
44.5103282544314
20
2.8117380941907
30
0
41
1
10
44.5666757191083
20
2.79722847939667
30
0
41
1
10
44.6118683602735
20
2.78636400533424
30
0
41
1
10
44.6401512839245
20
2.77987727293075
30
0
41
1
10
44.6627890399077
20
2.77486139103851
30
0
41
1
10
44.6855070645981
20
2.7700350453307
30
0
41
1
10
44.7255718525322
20
2.76220987752319
30
0
41
1
10
44.7835712448612
20
2.7528283716521
30
0
41
1
10
44.877646599326
20
2.74190431323345
30
0
41
1
10
44.9968497265314
20
2.73621743148311
30
0
41
1
10
45.1160320334928
20
2.74144992447637
30
0
41
1
10
45.2100664157564
20
2.75201540634197
30
0
41
1
10
45.2680304770142
20
2.76117582755924
30
0
41
1
10
45.308065742316
20
2.76884827888219
30
0
41
1
10
45.3307655353276
20
2.77358804158811
30
0
41
1
10
45.3533843316258
20
2.77851765275017
30
0
41
1
10
45.3816427296849
20
2.78489660170405
30
0
41
1
10
45.4267942781159
20
2.79558885423722
30
0
41
1
10
45.4830868332713
20
2.80988374597806
30
0
41
1
10
45.5877682640732
20
2.83885128710287
30
0
41
1
10
45.6693582057295
20
2.86489806375943
30
0
41
1
10
45.7282366544491
20
2.88554614116884
30
0
0
SPLINE
5
12F
100
AcDbEntity
8
1
62
256
6
ByLayer
370
18
48
1
60
0
100
AcDbSpline
70
4
71
3
72
29
73
25
40
0
40
0
40
0
40
0
40
0.125000000000946
40
0.171875000000894
40
0.218750000000842
40
0.242187500000817
40
0.265625000000791
40
0.277343750000778
40
0.289062500000765
40
0.312500000000739
40
0.359375000000687
40
0.406250000000635
40
0.500000000000532
40
0.593750000000428
40
0.640625000000376
40
0.687500000000324
40
0.710937500000298
40
0.722656250000285
40
0.734375000000272
40
0.757812500000247
40
0.781250000000221
40
0.828125000000169
40
0.875000000000117
40
1
40
1
40
1
40
1
41
1
10
42.1830629425774
20
6.43071985305826
30
0
41
1
10
42.1624148651667
20
6.37184140433862
30
0
41
1
10
42.1363680885088
20
6.29025146268242
30
0
41
1
10
42.1074005473832
20
6.18557003187991
30
0
41
1
10
42.0931056557739
20
6.12927747659799
30
0
41
1
10
42.082413402846
20
6.08412592854583
30
0
41
1
10
42.0760344539166
20
6.05586753045932
30
0
41
1
10
42.071104843593
20
6.03324873334847
30
0
41
1
10
42.0663650768613
20
6.01054894432713
30
0
41
1
10
42.0586926019795
20
5.97051369920732
30
0
41
1
10
42.0495321546526
20
5.9125496529947
30
0
41
1
10
42.0389666856883
20
5.81851526354174
30
0
41
1
10
42.0337342328407
20
5.69933295162292
30
0
41
1
10
42.0394211547182
20
5.58012982922185
30
0
41
1
10
42.0503452260108
20
5.48605448189724
30
0
41
1
10
42.0597267058295
20
5.42805507462268
30
0
41
1
10
42.0675518501548
20
5.38799026659623
30
0
41
1
10
42.0723781918521
20
5.36527223793084
30
0
41
1
10
42.0773940745797
20
5.34263448275715
30
0
41
1
10
42.0838808070075
20
5.31435155913343
30
0
41
1
10
42.0947452806766
20
5.26915891759086
30
0
41
1
10
42.1092548956017
20
5.21281145303999
30
0
41
1
10
42.1386217525113
20
5.10801882066218
30
0
41
1
10
42.1649797858125
20
5.02632898087305
30
0
41
1
10
42.1858524914795
20
4.96737138200078
30
0
0
SPLINE
5
130
100
AcDbEntity
8
1
62
256
6
ByLayer
370
18
48
1
60
0
100
AcDbSpline
70
4
71
3
72
29
73
25
40
0
40
0
40
0
40
0
40
0.125000000000945
40
0.171875000000894
40
0.218750000000842
40
0.242187500000816
40
0.26562500000079
40
0.277343750000777
40
0.289062500000764
40
0.312500000000738
40
0.359375000000687
40
0.406250000000635
40
0.500000000000531
40
0.593750000000427
40
0.640625000000376
40
0.687500000000324
40
0.710937500000298
40
0.722656250000285
40
0.734375000000272
40
0.757812500000246
40
0.78125000000022
40
0.828125000000168
40
0.875000000000117
40
1
40
1
40
1
40
1
41
1
10
45.7175357470781
20
8.49905463758159
30
0
41
1
10
45.6585781482057
20
8.51992734324975
30
0
41
1
10
45.5768883084166
20
8.54628537655239
30
0
41
1
10
45.4720956760382
20
8.57565223346265
30
0
41
1
10
45.4157482113613
20
8.59016184825671
30
0
41
1
10
45.3705555701961
20
8.60102632231914
30
0
41
1
10
45.3422726465451
20
8.60751305472263
30
0
41
1
10
45.3196348905619
20
8.61252893661487
30
0
41
1
10
45.2969168658715
20
8.61735528232268
30
0
41
1
10
45.2568520779374
20
8.62518045013016
30
0
41
1
10
45.1988526856085
20
8.63456195600125
30
0
41
1
10
45.1047773311436
20
8.6454860144199
30
0
41
1
10
44.9855742039382
20
8.65117289617027
30
0
41
1
10
44.8663918969768
20
8.64594040317701
30
0
41
1
10
44.7723575147132
20
8.63537492131138
30
0
41
1
10
44.7143934534555
20
8.62621450009414
30
0
41
1
10
44.6743581881537
20
8.61854204877116
30
0
41
1
10
44.651658395142
20
8.61380228606527
30
0
41
1
10
44.6290395988439
20
8.60887267490318
30
0
41
1
10
44.6007812007847
20
8.6024937259493
30
0
41
1
10
44.5556296523537
20
8.59180147341613
30
0
41
1
10
44.4993370971984
20
8.57750658167529
30
0
41
1
10
44.3946556663964
20
8.54853904055051
30
0
41
1
10
44.3130657247402
20
8.52249226389395
30
0
41
1
10
44.2541872760206
20
8.5018441864845
30
0
0
SPLINE
5
131
100
AcDbEntity
8
1
62
256
6
ByLayer
370
18
48
1
60
0
100
AcDbSpline
70
4
71
3
72
8
73
4
40
0
40
0
40
0
40
0
40
1
40
1
40
1
40
1
41
1
10
41.7969057665521
20
8.86334999582289
30
0
41
1
10
42.1925474926234
20
8.47592539198575
30
0
41
1
10
42.5881892186947
20
8.08850078814862
30
0
41
1
10
42.9838309447659
20
7.70107618431149
30
0
0
SPLINE
5
132
100
AcDbEntity
8
1
62
256
6
ByLayer
370
18
48
1
60
0
100
AcDbSpline
70
4
71
3
72
29
73
25
40
0
40
0
40
0
40
0
40
0.125000000000945
40
0.171875000000893
40
0.218750000000841
40
0.242187500000815
40
0.26562500000079
40
0.277343750000777
40
0.289062500000764
40
0.312500000000738
40
0.359375000000686
40
0.406250000000634
40
0.50000000000053
40
0.593750000000427
40
0.640625000000375
40
0.687500000000323
40
0.710937500000297
40
0.722656250000284
40
0.734375000000271
40
0.757812500000245
40
0.781250000000219
40
0.828125000000168
40
0.875000000000116
40
1
40
1
40
1
40
1
41
1
10
47.7993609878923
20
4.95667047459509
30
0
41
1
10
47.8200090653029
20
5.01554892331475
30
0
41
1
10
47.8460558419608
20
5.09713886497093
30
0
41
1
10
47.8750233830864
20
5.20182029577345
30
0
41
1
10
47.8893182746957
20
5.25811285105536
30
0
41
1
10
47.9000105276236
20
5.30326439910752
30
0
41
1
10
47.906389476553
20
5.33152279719405
30
0
41
1
10
47.9113190868767
20
5.35414159430488
30
0
41
1
10
47.9160588536083
20
5.37684138332625
30
0
41
1
10
47.9237313284901
20
5.41687662844603
30
0
41
1
10
47.932891775817
20
5.47484067465865
30
0
41
1
10
47.9434572447814
20
5.56887506411164
30
0
41
1
10
47.9486896976289
20
5.68805737603043
30
0
41
1
10
47.9430027757515
20
5.8072604984315
30
0
41
1
10
47.9320787044589
20
5.90133584575611
30
0
41
1
10
47.9226972246402
20
5.9593352530307
30
0
41
1
10
47.9148720803148
20
5.99940006105712
30
0
41
1
10
47.9100457386175
20
6.02211808972251
30
0
41
1
10
47.90502985589
20
6.0447558448962
30
0
41
1
10
47.8985431234621
20
6.07303876851992
30
0
41
1
10
47.887678649793
20
6.11823141006249
30
0
41
1
10
47.8731690348679
20
6.17457887461336
30
0
41
1
10
47.8438021779584
20
6.27937150699117
30
0
41
1
10
47.8174441446571
20
6.3610613467803
30
0
41
1
10
47.7965714389902
20
6.42001894565257
30
0
0
SPLINE
5
133
100
AcDbEntity
8
1
62
256
6
ByLayer
370
18
48
1
60
0
100
AcDbSpline
70
4
71
3
72
10
73
6
40
0
40
0
40
0
40
0
40
0.249999999999984
40
0.624999999999992
40
1
40
1
40
1
40
1
41
1
10
47.7965714389902
20
6.42001894565257
30
0
41
1
10
47.7548260276562
20
6.53793414339711
30
0
41
1
10
47.6334302302972
20
6.82819020074197
30
0
41
1
10
47.3737722090493
20
7.26560350746547
30
0
41
1
10
47.126063673282
20
7.55832811507827
30
0
41
1
10
46.9909542948839
20
7.69343749347576
30
0
0
SPLINE
5
134
100
AcDbEntity
8
1
62
256
6
ByLayer
370
18
48
1
60
0
100
AcDbSpline
70
4
71
3
72
10
73
6
40
0
40
0
40
0
40
0
40
0.249999999999985
40
0.624999999999992
40
1
40
1
40
1
40
1
41
1
10
45.7282366544491
20
2.88554614116884
30
0
41
1
10
45.8459935518883
20
2.92684229598768
30
0
41
1
10
46.1357888888194
20
3.04713235417216
30
0
41
1
10
46.5722154102721
20
3.30512459383635
30
0
41
1
10
46.8639977392896
20
3.55171889692707
30
0
41
1
10
46.9985929857117
20
3.68631414334982
30
0
0
SPLINE
5
135
100
AcDbEntity
8
1
62
256
6
ByLayer
370
18
48
1
60
0
100
AcDbSpline
70
4
71
3
72
17
73
13
40
0
40
0
40
0
40
0
40
0.0625
40
0.125
40
0.25
40
0.375
40
0.5
40
0.625
40
0.75
40
0.875
40
0.9375
40
1
40
1
40
1
40
1
41
1
10
44.4032450742139
20
11.4696893441451
30
0
41
1
10
44.421686642619
20
11.4881309125503
30
0
41
1
10
44.4603888865835
20
11.5231947009465
30
0
41
1
10
44.5443210800306
20
11.5853754495974
30
0
41
1
10
44.6599809930095
20
11.647042747939
30
0
41
1
10
44.8106482997797
20
11.6924862783338
30
0
41
1
10
44.9673983697557
20
11.7076289495648
30
0
41
1
10
45.124207050351
20
11.6918884587136
30
0
41
1
10
45.2750496135127
20
11.6458712182025
30
0
41
1
10
45.3909451170319
20
11.5837616000932
30
0
41
1
10
45.4751153600093
20
11.5212607959616
30
0
41
1
10
45.5139513080848
20
11.4860487525185
30
0
41
1
10
45.5324633202853
20
11.467536740318
30
0
0
SPLINE
5
136
100
AcDbEntity
8
1
62
256
6
ByLayer
370
18
48
1
60
0
100
AcDbSpline
70
4
71
3
72
8
73
4
40
0
40
0
40
0
40
0
40
1
40
1
40
1
40
1
41
1
10
44.403245064245
20
11.4696892935158
30
0
41
1
10
44.3535591348369
20
10.480407591172
30
0
41
1
10
44.3038732054287
20
9.49112588882826
30
0
41
1
10
44.2541872760206
20
8.5018441864845
30
0
0
SPLINE
5
137
100
AcDbEntity
8
1
62
256
6
ByLayer
370
18
48
1
60
0
100
AcDbSpline
70
4
71
3
72
8
73
4
40
0
40
0
40
0
40
0
40
1
40
1
40
1
40
1
41
1
10
44.4253092534721
20
-0.104797728721906
30
0
41
1
10
43.5532108900077
20
0.767300634742497
30
0
41
1
10
42.6811125265667
20
1.63939899818345
30
0
41
1
10
41.8090141630791
20
2.51149736167102
30
0
0
SPLINE
5
138
100
AcDbEntity
8
1
62
256
6
ByLayer
370
18
48
1
60
0
100
AcDbSpline
70
4
71
3
72
17
73
13
40
0
40
0
40
0
40
0
40
0.0625
40
0.125
40
0.25
40
0.375
40
0.5
40
0.625
40
0.75
40
0.875
40
0.9375
40
1
40
1
40
1
40
1
41
1
10
45.5545275096671
20
-0.106950363080415
30
0
41
1
10
45.536085941262
20
-0.125391931485552
30
0
41
1
10
45.4973836972976
20
-0.16045571988181
30
0
41
1
10
45.4134515038504
20
-0.222636468532642
30
0
41
1
10
45.2977915908715
20
-0.284303766874302
30
0
41
1
10
45.1471242841013
20
-0.32974729726908
30
0
41
1
10
44.9903742141253
20
-0.344889968500126
30
0
41
1
10
44.83356553353
20
-0.329149477648912
30
0
41
1
10
44.6827229703682
20
-0.283132237137835
30
0
41
1
10
44.566827466849
20
-0.22102261902856
30
0
41
1
10
44.4826572238716
20
-0.158521814896972
30
0
41
1
10
44.4438212757962
20
-0.123309771453847
30
0
41
1
10
44.4253092635956
20
-0.104797759253302
30
0
0
SPLINE
5
139
100
AcDbEntity
8
1
62
256
6
ByLayer
370
18
48
1
60
0
100
AcDbSpline
70
4
71
3
72
8
73
4
40
0
40
0
40
0
40
0
40
1
40
1
40
1
40
1
41
1
10
50.7672060949239
20
5.10572826283689
30
0
41
1
10
49.8984263290262
20
4.23694849693916
30
0
41
1
10
49.0296465631519
20
3.36816873106477
30
0
41
1
10
48.1608667972311
20
2.49938896514399
30
0
0
SPLINE
5
13A
100
AcDbEntity
8
1
62
256
6
ByLayer
370
18
48
1
60
0
100
AcDbSpline
70
4
71
3
72
12
73
8
40
0
40
0
40
0
40
0
40
0.499999999999999
40
0.499999999999999
40
0.749999999999999
40
0.749999999999999
40
1
40
1
40
1
40
1
41
1
10
42.0338084181204
20
-2.43954875413769
30
0
41
1
10
42.1615494748573
20
-2.31623216046697
30
0
41
1
10
42.2879966576449
20
-2.1942118940888
30
0
41
1
10
42.4653233961831
20
-2.02316425515335
30
0
41
1
10
42.5226305696327
20
-1.96789886033187
30
0
41
1
10
42.6331743123739
20
-1.86132287725869
30
0
41
1
10
42.6867491704505
20
-1.80968632465667
30
0
41
1
10
42.7367500540681
20
-1.76151417986139
30
0
0
SPLINE
5
13B
100
AcDbEntity
8
1
62
256
6
ByLayer
370
18
48
1
60
0
100
AcDbSpline
70
4
71
3
72
18
73
14
40
0
40
0
40
0
40
0
40
0.0715460227341301
40
0.0715460227341301
40
0.303659517050598
40
0.303659517050598
40
0.535773011367065
40
0.535773011367065
40
0.767886505683533
40
0.767886505683533
40
0.883943252841766
40
0.883943252841766
40
1
40
1
40
1
40
1
41
1
10
33.8431669161522
20
4.77178267156137
30
0
41
1
10
33.8778799174557
20
4.76961483247996
30
0
41
1
10
33.9137689548162
20
4.76683700112028
30
0
41
1
10
34.0705778284471
20
4.75297288277295
30
0
41
1
10
34.2028453709172
20
4.73708004405631
30
0
41
1
10
34.4757565174395
20
4.7017223735516
30
0
41
1
10
34.6170030770322
20
4.68215506856646
30
0
41
1
10
34.9075085691713
20
4.64374117746439
30
0
41
1
10
35.0574989381671
20
4.62463336356109
30
0
41
1
10
35.2848190448394
20
4.60197058234041
30
0
41
1
10
35.3610465902153
20
4.59542594374739
30
0
41
1
10
35.51455067896
20
4.58625465082798
30
0
41
1
10
35.5921120562203
20
4.58357305852564
30
0
41
1
10
35.6694512488229
20
4.58478843726755
30
0
0
SPLINE
5
13C
100
AcDbEntity
8
1
62
256
6
ByLayer
370
18
48
1
60
0
100
AcDbSpline
70
4
71
3
72
26
73
22
40
0
40
0
40
0
40
0
40
0.125000000000005
40
0.125000000000005
40
0.250000000000011
40
0.250000000000011
40
0.375000000000016
40
0.375000000000016
40
0.500000000000022
40
0.500000000000022
40
0.562500000000021
40
0.562500000000021
40
0.62500000000002
40
0.62500000000002
40
0.750000000000018
40
0.750000000000018
40
0.812500000000015
40
0.812500000000015
40
0.875000000000011
40
0.875000000000011
40
1
40
1
40
1
40
1
41
1
10
43.6947251039068
20
0.230279586286116
30
0
41
1
10
43.579600350163
20
0.119104903893316
30
0
41
1
10
43.4642410338146
20
0.0119292602928169
30
0
41
1
10
43.2330711415323
20
-0.194728538888853
30
0
41
1
10
43.1172605182911
20
-0.294209887931998
30
0
41
1
10
42.8851603404677
20
-0.48500732449088
30
0
41
1
10
42.7715450073258
20
-0.574114057936413
30
0
41
1
10
42.5498877706281
20
-0.739136070176869
30
0
41
1
10
42.4417284300543
20
-0.815154756002556
30
0
41
1
10
42.2839058455613
20
-0.918440982294385
30
0
41
1
10
42.2317817695903
20
-0.951219336536553
30
0
41
1
10
42.130579355465
20
-1.01199399244916
30
0
41
1
10
42.0815644404768
20
-1.03996981783004
30
0
41
1
10
41.9393973528312
20
-1.1164822136229
30
0
41
1
10
41.8510571928373
20
-1.15770349757602
30
0
41
1
10
41.7296396707154
20
-1.2026721244039
30
0
41
1
10
41.691301654093
20
-1.21470192623971
30
0
41
1
10
41.6202911764938
20
-1.23223578564503
30
0
41
1
10
41.5874242340212
20
-1.23781559624047
30
0
41
1
10
41.4971553360507
20
-1.24448987678963
30
0
41
1
10
41.4477515650192
20
-1.23534417260939
30
0
41
1
10
41.4130132232216
20
-1.21085371132139
30
0
0
SPLINE
5
13D
100
AcDbEntity
8
1
62
256
6
ByLayer
370
18
48
1
60
0
100
AcDbSpline
70
4
71
3
72
8
73
4
40
0
40
0
40
0
40
0
40
1
40
1
40
1
40
1
41
1
10
43.6161998704097
20
-0.913907111778315
30
0
41
1
10
43.6123348102081
20
-0.917772171979863
30
0
41
1
10
43.6084457415597
20
-0.921589623061323
30
0
41
1
10
43.6045337865168
20
-0.925359439865787
30
0
0
SPLINE
5
13E
100
AcDbEntity
8
1
62
256
6
ByLayer
370
18
48
1
60
0
100
AcDbSpline
70
4
71
3
72
8
73
4
40
0
40
0
40
0
40
0
40
1
40
1
40
1
40
1
41
1
10
43.6045337865168
20
-0.925359439865787
30
0
41
1
10
43.3086920456732
20
-1.21045197131653
30
0
41
1
10
43.0190457067482
20
-1.48954324510757
30
0
41
1
10
42.736750054068
20
-1.76151417986142
30
0
0
SPLINE
5
13F
100
AcDbEntity
8
1
62
256
6
ByLayer
370
18
48
1
60
0
100
AcDbSpline
70
4
71
3
72
12
73
8
40
0
40
0
40
0
40
0
40
0.0201305198557445
40
0.0201305198557445
40
0.52654800538441
40
0.52654800538441
40
1
40
1
40
1
40
1
41
1
10
39.9231178765105
20
4.3913391414811
30
0
41
1
10
39.9224007720112
20
4.39033767163752
30
0
41
1
10
39.9216863983507
20
4.38934365898754
30
0
41
1
10
39.9030739324038
20
4.36353740476363
30
0
41
1
10
39.8870686258578
20
4.3436083903899
30
0
41
1
10
39.8623714815527
20
4.31433668904637
30
0
41
1
10
39.8530792190671
20
4.30414134248903
30
0
41
1
10
39.8470407622019
20
4.29765726030246
30
0
0
SPLINE
5
140
100
AcDbEntity
8
1
62
256
6
ByLayer
370
18
48
1
60
0
100
AcDbSpline
70
4
71
3
72
12
73
8
40
0
40
0
40
0
40
0
40
0.354359720307388
40
0.354359720307388
40
0.757323810489339
40
0.757323810489339
40
1
40
1
40
1
40
1
41
1
10
39.8405514812515
20
4.2906987796045
30
0
41
1
10
39.8430990286468
20
4.29323820007886
30
0
41
1
10
39.8488028223065
20
4.29892159428761
30
0
41
1
10
39.8673981120033
20
4.31770489264909
30
0
41
1
10
39.8810275625309
20
4.3315773889077
30
0
41
1
10
39.908119102655
20
4.3605637973387
30
0
41
1
10
39.919586969558
20
4.37310435936868
30
0
41
1
10
39.9319784855464
20
4.38719782719443
30
0
0
SPLINE
5
141
100
AcDbEntity
8
1
62
256
6
ByLayer
370
18
48
1
60
0
100
AcDbSpline
70
4
71
3
72
28
73
24
40
0
40
0
40
0
40
0
40
0.124999999999996
40
0.124999999999996
40
0.249999999999992
40
0.249999999999992
40
0.374999999999989
40
0.374999999999989
40
0.437499999999987
40
0.437499999999987
40
0.499999999999985
40
0.562499999999983
40
0.562499999999983
40
0.624999999999981
40
0.624999999999981
40
0.749999999999987
40
0.749999999999987
40
0.81249999999999
40
0.81249999999999
40
0.874999999999994
40
0.937499999999997
40
0.937499999999997
40
1
40
1
40
1
40
1
41
1
10
31.6204629310309
20
8.49439376451801
30
0
41
1
10
31.5970436863031
20
8.53344193486276
30
0
41
1
10
31.5870710160114
20
8.56961440818478
30
0
41
1
10
31.5951961554216
20
8.63616712348082
30
0
41
1
10
31.6138747114649
20
8.66680743160043
30
0
41
1
10
31.6798832362648
20
8.71989100611819
30
0
41
1
10
31.7269076014367
20
8.74266532533861
30
0
41
1
10
31.8193866898868
20
8.77200923061559
30
0
41
1
10
31.8537566519049
20
8.7809170598828
30
0
41
1
10
31.9280894272362
20
8.79690650019649
30
0
41
1
10
32.0083584794456
20
8.81118391593265
30
0
41
1
10
32.1002746942475
20
8.822553772947
30
0
41
1
10
32.1980850327507
20
8.83268862043721
30
0
41
1
10
32.2496339400741
20
8.8370993089859
30
0
41
1
10
32.4095222706688
20
8.84857910633031
30
0
41
1
10
32.5239592715901
20
8.85401844772093
30
0
41
1
10
32.7071038493905
20
8.86013975750595
30
0
41
1
10
32.7697773258719
20
8.86182083986665
30
0
41
1
10
32.8963759490814
20
8.86460140533896
30
0
41
1
10
33.0247777779578
20
8.86681865818582
30
0
41
1
10
33.1566890643142
20
8.8681861544429
30
0
41
1
10
33.2903609717067
20
8.86921440696744
30
0
41
1
10
33.3582351201429
20
8.86955790256371
30
0
41
1
10
33.4256460735842
20
8.86975017251874
30
0
0
SPLINE
5
142
100
AcDbEntity
8
1
62
256
6
ByLayer
370
18
48
1
60
0
100
AcDbSpline
70
4
71
3
72
8
73
4
40
0
40
0
40
0
40
0
40
1
40
1
40
1
40
1
41
1
10
44.0349952245695
20
-0.494898001813112
30
0
41
1
10
44.0389259251912
20
-0.491108981636131
30
0
41
1
10
44.0428502230198
20
-0.48725675916819
30
0
41
1
10
44.0467645067952
20
-0.483342475392789
30
0
0
SPLINE
5
143
100
AcDbEntity
8
1
62
256
6
ByLayer
370
18
48
1
60
0
100
AcDbSpline
70
4
71
3
72
34
73
30
40
0
40
0
40
0
40
0
40
0.0625000000000001
40
0.0625000000000001
40
0.125
40
0.125
40
0.1875
40
0.1875
40
0.25
40
0.25
40
0.375
40
0.375
40
0.437500000000001
40
0.437500000000001
40
0.500000000000001
40
0.500000000000001
40
0.625
40
0.625
40
0.65625
40
0.65625
40
0.6875
40
0.6875
40
0.75
40
0.75
40
0.8125
40
0.8125
40
0.875
40
0.875
40
1
40
1
40
1
40
1
41
1
10
40.1021924287097
20
-0.131674236095336
30
0
41
1
10
39.8129693799654
20
-0.0117524956199873
30
0
41
1
10
39.5275418929899
20
0.117802494646838
30
0
41
1
10
38.9671779898542
20
0.394445937708042
30
0
41
1
10
38.6917927692909
20
0.541716170514178
30
0
41
1
10
38.1505383258923
20
0.853865434973358
30
0
41
1
10
37.8839253723368
20
1.0192783932697
30
0
41
1
10
37.3657856170794
20
1.36376412841651
30
0
41
1
10
37.1138596707493
20
1.54299699930687
30
0
41
1
10
36.3791229957498
20
2.10011170594927
30
0
41
1
10
35.9173045557122
20
2.49741561438023
30
0
41
1
10
35.2660389385125
20
3.12637314145451
30
0
41
1
10
35.0555414996684
20
3.34188942159869
30
0
41
1
10
34.6498265719152
20
3.78136266219531
30
0
41
1
10
34.4573034768091
20
4.00235329424282
30
0
41
1
10
33.9089603489523
20
4.66575686400708
30
0
41
1
10
33.5823505517415
20
5.1087386145031
30
0
41
1
10
33.2173645227359
20
5.65113584466525
30
0
41
1
10
33.1464821170814
20
5.75913466673813
30
0
41
1
10
33.0106034728287
20
5.97091317704187
30
0
41
1
10
32.9453708021953
20
6.07503680836615
30
0
41
1
10
32.7572301296409
20
6.38174152586373
30
0
41
1
10
32.6418687265904
20
6.57866352454352
30
0
41
1
10
32.4285649144615
20
6.95532926227199
30
0
41
1
10
32.3306245589532
20
7.13507968971101
30
0
41
1
10
32.1497749900626
20
7.47502599081406
30
0
41
1
10
32.0666686926581
20
7.63563112821657
30
0
41
1
10
31.841535349839
20
8.07428434006005
30
0
41
1
10
31.7212128585361
20
8.31342300443808
30
0
41
1
10
31.6204629310309
20
8.49439376451798
30
0
0
SPLINE
5
144
100
AcDbEntity
8
1
62
256
6
ByLayer
370
18
48
1
60
0
100
AcDbSpline
70
4
71
3
72
18
73
14
40
0
40
0
40
0
40
0
40
0.143085249860711
40
0.143085249860711
40
0.286170499721423
40
0.286170499721423
40
0.429255749582134
40
0.429255749582134
40
0.572340999442845
40
0.572340999442845
40
0.858511499164279
40
0.858511499164279
40
1
40
1
40
1
40
1
41
1
10
36.4455808720084
20
3.72248995795781
30
0
41
1
10
36.3987047875596
20
3.67175367103886
30
0
41
1
10
36.3569251090079
20
3.61658015202042
30
0
41
1
10
36.2804242438443
20
3.50493430724984
30
0
41
1
10
36.245313015302
20
3.44791914245229
30
0
41
1
10
36.1782781048641
20
3.33352641543377
30
0
41
1
10
36.1462917664365
20
3.27592215192314
30
0
41
1
10
36.0850243336778
20
3.1634061732442
30
0
41
1
10
36.0556318129778
20
3.10827085135537
30
0
41
1
10
35.9695908749104
20
2.94713450668996
30
0
41
1
10
35.9149514503242
20
2.84518351476379
30
0
41
1
10
35.8341575533049
20
2.70509713562345
30
0
41
1
10
35.8080159632313
20
2.66150213127443
30
0
41
1
10
35.7822396260834
20
2.62085855696657
30
0
0
SPLINE
5
145
100
AcDbEntity
8
1
62
256
6
ByLayer
370
18
48
1
60
0
100
AcDbSpline
70
4
71
3
72
8
73
4
40
0
40
0
40
0
40
0
40
1
40
1
40
1
40
1
41
1
10
41.4130132232217
20
-1.21085371132128
30
0
41
1
10
40.945156562397
20
-0.882796752387605
30
0
41
1
10
40.5100522050682
20
-0.521189629633568
30
0
41
1
10
40.1021924287096
20
-0.131674236095307
30
0
0
LINE
5
81
100
AcDbEntity
8
1
62
256
6
ByLayer
370
18
48
1
60
0
100
AcDbLine
10
43.932868
20
6.191608
30
0
11
44.004532
21
6.263272
31
0
39
0
210
0
220
0
230
1
0
LINE
5
82
100
AcDbEntity
8
1
62
256
6
ByLayer
370
18
48
1
60
0
100
AcDbLine
10
46.070596
20
5.614692
30
0
11
46.142944
21
5.68704
31
0
39
0
210
0
220
0
230
1
0
LINE
5
83
100
AcDbEntity
8
1
62
256
6
ByLayer
370
18
48
1
60
0
100
AcDbLine
10
44.912209
20
6.773079
30
0
11
44.984557
21
6.845427
31
0
39
0
210
0
220
0
230
1
0
LINE
5
84
100
AcDbEntity
8
1
62
256
6
ByLayer
370
18
48
1
60
0
100
AcDbLine
10
45.900339
20
6.18023
30
0
11
45.972003
21
6.251894
31
0
39
0
210
0
220
0
230
1
0
LINE
5
85
100
AcDbEntity
8
1
62
256
6
ByLayer
370
18
48
1
60
0
100
AcDbLine
10
45.489125
20
4.635352
30
0
11
45.494017
21
4.615977
31
0
39
0
210
0
220
0
230
1
0
LINE
5
86
100
AcDbEntity
8
1
62
256
6
ByLayer
370
18
48
1
60
0
100
AcDbLine
10
44.912209
20
6.773079
30
0
11
44.917723
21
6.75387
31
0
39
0
210
0
220
0
230
1
0
LINE
5
87
100
AcDbEntity
8
1
62
256
6
ByLayer
370
18
48
1
60
0
100
AcDbLine
10
46.051387
20
5.620206
30
0
11
46.123051
21
5.69187
31
0
39
0
210
0
220
0
230
1
0
LINE
5
88
100
AcDbEntity
8
1
62
256
6
ByLayer
370
18
48
1
60
0
100
AcDbLine
10
45.914199
20
6.194546
30
0
11
45.900339
21
6.18023
31
0
39
0
210
0
220
0
230
1
0
LINE
5
89
100
AcDbEntity
8
1
62
256
6
ByLayer
370
18
48
1
60
0
100
AcDbLine
10
45.477747
20
6.602822
30
0
11
45.492063
21
6.616682
31
0
39
0
210
0
220
0
230
1
0
LINE
5
8A
100
AcDbEntity
8
1
62
256
6
ByLayer
370
18
48
1
60
0
100
AcDbLine
10
45.489125
20
4.635352
30
0
11
45.560789
21
4.707016
31
0
39
0
210
0
220
0
230
1
0
LINE
5
8B
100
AcDbEntity
8
1
62
256
6
ByLayer
370
18
48
1
60
0
100
AcDbLine
10
45.477747
20
6.602822
30
0
11
45.549411
21
6.674486
31
0
39
0
210
0
220
0
230
1
0
LINE
5
8C
100
AcDbEntity
8
1
62
256
6
ByLayer
370
18
48
1
60
0
100
AcDbLine
10
45.494017
20
4.615977
30
0
11
45.566365
21
4.688325
31
0
39
0
210
0
220
0
230
1
0
LINE
5
8D
100
AcDbEntity
8
1
62
256
6
ByLayer
370
18
48
1
60
0
100
AcDbLine
10
46.051387
20
5.620206
30
0
11
46.070596
21
5.614692
31
0
39
0
210
0
220
0
230
1
0
LINE
5
8E
100
AcDbEntity
8
1
62
256
6
ByLayer
370
18
48
1
60
0
100
AcDbLine
10
43.913494
20
6.196501
30
0
11
43.932868
21
6.191608
31
0
39
0
210
0
220
0
230
1
0
LINE
5
8F
100
AcDbEntity
8
1
62
256
6
ByLayer
370
18
48
1
60
0
100
AcDbLine
10
43.913494
20
6.196501
30
0
11
43.985842
21
6.268849
31
0
39
0
210
0
220
0
230
1
0
LINE
5
90
100
AcDbEntity
8
1
62
256
6
ByLayer
370
18
48
1
60
0
100
AcDbLine
10
44.917723
20
6.75387
30
0
11
44.989387
21
6.825534
31
0
39
0
210
0
220
0
230
1
0
LINE
5
91
100
AcDbEntity
8
1
62
256
6
ByLayer
370
18
48
1
60
0
100
AcDbLine
10
45.492063
20
6.616682
30
0
11
45.564411
21
6.68903
31
0
39
0
210
0
220
0
230
1
0
LINE
5
92
100
AcDbEntity
8
1
62
256
6
ByLayer
370
18
48
1
60
0
100
AcDbLine
10
43.446052
20
7.118383
30
0
11
43.445967
21
7.118299
31
0
39
0
210
0
220
0
230
1
0
LINE
5
93
100
AcDbEntity
8
1
62
256
6
ByLayer
370
18
48
1
60
0
100
AcDbLine
10
44.382667
20
4.663014
30
0
11
44.411254
21
4.691601
31
0
39
0
210
0
220
0
230
1
0
LINE
5
94
100
AcDbEntity
8
1
62
256
6
ByLayer
370
18
48
1
60
0
100
AcDbLine
10
43.961556
20
5.086176
30
0
11
43.989118
21
5.113737
31
0
39
0
210
0
220
0
230
1
0
LINE
5
95
100
AcDbEntity
8
1
62
256
6
ByLayer
370
18
48
1
60
0
100
AcDbLine
10
43.604534
20
-0.925359
30
0
11
44.034995
21
-0.494898
31
0
39
0
210
0
220
0
230
1
0
LINE
5
96
100
AcDbEntity
8
1
62
256
6
ByLayer
370
18
48
1
60
0
100
AcDbLine
10
44.356613
20
-0.173494
30
0
11
44.425084
21
-0.105023
31
0
39
0
210
0
220
0
230
1
0
LINE
5
97
100
AcDbEntity
8
1
62
256
6
ByLayer
370
18
48
1
60
0
100
AcDbLine
10
44.046765
20
-0.483342
30
0
11
43.6162
21
-0.913907
31
0
39
0
210
0
220
0
230
1
0
LINE
5
98
100
AcDbEntity
8
1
62
256
6
ByLayer
370
18
48
1
60
0
100
AcDbLine
10
35.47499
20
-8.760073
30
0
11
43.73018
21
-0.788129
31
0
39
0
210
0
220
0
230
1
0
LINE
5
99
100
AcDbEntity
8
1
62
256
6
ByLayer
370
18
48
1
60
0
100
AcDbLine
10
29.118131
20
7.99725
30
0
11
29.118131
21
-7.99725
31
0
39
0
210
0
220
0
230
1
0
LINE
5
9A
100
AcDbEntity
8
1
62
256
6
ByLayer
370
18
48
1
60
0
100
AcDbLine
10
43.694725
20
0.23028
30
0
11
43.715722
21
0.250556
31
0
39
0
210
0
220
0
230
1
0
LINE
5
9B
100
AcDbEntity
8
1
62
256
6
ByLayer
370
18
48
1
60
0
100
AcDbLine
10
43.684211
20
-0.716392
30
0
11
43.660881
21
-0.255494
31
0
39
0
210
0
220
0
230
1
0
LINE
5
9C
100
AcDbEntity
8
1
62
256
6
ByLayer
370
18
48
1
60
0
100
AcDbLine
10
0
20
-7.99725
30
0
11
0
21
7.99725
31
0
39
0
210
0
220
0
230
1
0
LINE
5
9D
100
AcDbEntity
8
1
62
256
6
ByLayer
370
18
48
1
60
0
100
AcDbLine
10
30.207106
20
-8.879119
30
0
11
30.207106
21
8.879119
31
0
39
0
210
0
220
0
230
1
0
LINE
5
9E
100
AcDbEntity
8
1
62
256
6
ByLayer
370
18
48
1
60
0
100
AcDbLine
10
30.207106
20
1.090279
30
0
11
30.207106
21
8.879119
31
0
39
0
210
0
220
0
230
1
0
LINE
5
9F
100
AcDbEntity
8
1
62
256
6
ByLayer
370
18
48
1
60
0
100
AcDbLine
10
41.579157
20
8.878587
30
0
11
41.695649
21
8.762095
31
0
39
0
210
0
220
0
230
1
0
LINE
5
A0
100
AcDbEntity
8
1
62
256
6
ByLayer
370
18
48
1
60
0
100
AcDbLine
10
44.046765
20
-0.483342
30
0
11
44.356613
21
-0.173494
31
0
39
0
210
0
220
0
230
1
0
LINE
5
A1
100
AcDbEntity
8
1
62
256
6
ByLayer
370
18
48
1
60
0
100
AcDbLine
10
29.853553
20
8.732672
30
0
11
29.853553
21
-8.732672
31
0
39
0
210
0
220
0
230
1
0
LINE
5
A2
100
AcDbEntity
8
SK1
62
256
6
ByLayer
370
18
48
1
60
0
100
AcDbLine
10
-48
20
7.99725
30
0
11
-48
21
-7.99725
31
0
39
0
210
0
220
0
230
1
0
LINE
5
A4
100
AcDbEntity
8
SK1
62
256
6
ByLayer
370
18
48
1
60
0
100
AcDbLine
10
-49
20
6.99725
30
0
11
-49
21
-6.99725
31
0
39
0
210
0
220
0
230
1
0
LINE
5
A5
100
AcDbEntity
8
SK1
62
256
6
ByLayer
370
18
48
1
60
0
100
AcDbLine
10
0
20
-7.99725
30
0
11
0
21
7.99725
31
0
39
0
210
0
220
0
230
1
0
LINE
5
A6
100
AcDbEntity
8
81
62
256
6
ByLayer
370
18
48
1
60
0
100
AcDbLine
10
51
20
6
30
0
11
56
21
6
31
0
39
0
210
0
220
0
230
1
0
LINE
5
A7
100
AcDbEntity
8
SK4
62
256
6
ByLayer
370
18
48
0.05
60
0
100
AcDbLine
10
-54
20
0
30
0
11
56
21
0
31
0
39
0
210
0
220
0
230
1
0
LINE
5
A9
100
AcDbEntity
8
80
62
256
6
ByLayer
370
18
48
1
60
0
100
AcDbLine
10
0
20
0
30
0
11
-5
21
0
31
0
39
0
210
0
220
0
230
1
0
LINE
5
AA
100
AcDbEntity
8
1
62
256
6
ByLayer
370
18
48
1
60
0
100
AcDbLine
10
0
20
-7.99725
30
0
11
29.118131
21
-7.99725
31
0
39
0
210
0
220
0
230
1
0
LINE
5
AB
100
AcDbEntity
8
1
62
256
6
ByLayer
370
18
48
1
60
0
100
AcDbLine
10
29.118131
20
7.99725
30
0
11
0
21
7.99725
31
0
39
0
210
0
220
0
230
1
0
LINE
5
AC
100
AcDbEntity
8
SK1
62
256
6
ByLayer
370
18
48
1
60
0
100
AcDbLine
10
-49
20
-6.99725
30
0
11
-48
21
-7.99725
31
0
39
0
210
0
220
0
230
1
0
LINE
5
AD
100
AcDbEntity
8
SK1
62
256
6
ByLayer
370
18
48
1
60
0
100
AcDbLine
10
-48
20
7.99725
30
0
11
-49
21
6.99725
31
0
39
0
210
0
220
0
230
1
0
LINE
5
AE
100
AcDbEntity
8
SK1
62
256
6
ByLayer
370
18
48
1
60
0
100
AcDbLine
10
-48
20
-7.99725
30
0
11
0
21
-7.99725
31
0
39
0
210
0
220
0
230
1
0
LINE
5
AF
100
AcDbEntity
8
SK1
62
256
6
ByLayer
370
18
48
1
60
0
100
AcDbLine
10
0
20
7.99725
30
0
11
-48
21
7.99725
31
0
39
0
210
0
220
0
230
1
0
LINE
5
B0
100
AcDbEntity
8
1
62
256
6
ByLayer
370
18
48
1
60
0
100
AcDbLine
10
29.118131
20
-7.99725
30
0
11
29.853553
21
-8.732672
31
0
39
0
210
0
220
0
230
1
0
LINE
5
B1
100
AcDbEntity
8
1
62
256
6
ByLayer
370
18
48
1
60
0
100
AcDbLine
10
29.853553
20
8.732672
30
0
11
29.118131
21
7.99725
31
0
39
0
210
0
220
0
230
1
0
LINE
5
B2
100
AcDbEntity
8
1
62
256
6
ByLayer
370
18
48
1
60
0
100
AcDbLine
10
30.207106
20
-8.879119
30
0
11
34.810458
21
-8.879119
31
0
39
0
210
0
220
0
230
1
0
LINE
5
B3
100
AcDbEntity
8
1
62
256
6
ByLayer
370
18
48
1
60
0
100
AcDbLine
10
40.007741
20
8.879119
30
0
11
30.207106
21
8.879119
31
0
39
0
210
0
220
0
230
1
0
LINE
5
B4
100
AcDbEntity
8
1
62
256
6
ByLayer
370
18
48
1
60
0
100
AcDbLine
10
46.415816
20
4.14845
30
0
11
46.461274
21
4.193909
31
0
39
0
210
0
220
0
230
1
0
LINE
5
B5
100
AcDbEntity
8
1
62
256
6
ByLayer
370
18
48
1
60
0
100
AcDbLine
10
43.491426
20
7.163757
30
0
11
43.445967
21
7.118299
31
0
39
0
210
0
220
0
230
1
0
LINE
5
B6
100
AcDbEntity
8
1
62
256
6
ByLayer
370
18
48
1
60
0
100
AcDbLine
10
44.212337
20
6.321114
30
0
11
44.278889
21
6.387666
31
0
39
0
210
0
220
0
230
1
0
LINE
5
B7
100
AcDbEntity
8
1
62
256
6
ByLayer
370
18
48
1
60
0
100
AcDbLine
10
45.685183
20
4.981372
30
0
11
45.618631
21
4.91482
31
0
39
0
210
0
220
0
230
1
0
LINE
5
B8
100
AcDbEntity
8
4
62
256
6
ByLayer
370
18
48
0.05
60
0
100
AcDbLine
10
0
20
0
30
0
11
56
21
0
31
0
39
0
210
0
220
0
230
1
0
LINE
5
BA
100
AcDbEntity
8
SK2
62
256
6
ByLayer
370
13
48
1
60
0
100
AcDbLine
10
44.644878
20
12.355122
30
0
11
39.582128
21
17.417872
31
0
39
0
210
0
220
0
230
1
0
LINE
5
BC
100
AcDbEntity
8
SK2
62
256
6
ByLayer
370
13
48
1
60
0
100
AcDbLine
10
51
20
7.5875
30
0
11
51
21
22.14731
31
0
39
0
210
0
220
0
230
1
0
LINE
5
BD
100
AcDbEntity
8
1
62
256
6
ByLayer
370
13
48
1
60
0
100
AcDbLine
10
41.827192
20
15.172808
30
0
11
43.927666
21
17.590109
31
0
39
0
210
0
220
0
230
1
0
LINE
5
BE
100
AcDbEntity
8
1
62
256
6
ByLayer
370
13
48
1
60
0
100
AcDbLine
10
41.827192
20
15.172808
30
0
11
44.48174
21
16.964101
31
0
39
0
210
0
220
0
230
1
0
LINE
5
BF
100
AcDbEntity
8
1
62
256
6
ByLayer
370
13
48
1
60
0
100
AcDbLine
10
43.927666
20
17.590109
30
0
11
44.48174
21
16.964101
31
0
39
0
210
0
220
0
230
1
0
LINE
5
C0
100
AcDbEntity
8
1
62
256
6
ByLayer
370
13
48
1
60
0
100
AcDbLine
10
51
20
18.97231
30
0
11
47.856319
21
18.361896
31
0
39
0
210
0
220
0
230
1
0
LINE
5
C1
100
AcDbEntity
8
1
62
256
6
ByLayer
370
13
48
1
60
0
100
AcDbLine
10
51
20
18.97231
30
0
11
47.805447
21
19.19634
31
0
39
0
210
0
220
0
230
1
0
LINE
5
C2
100
AcDbEntity
8
1
62
256
6
ByLayer
370
13
48
1
60
0
100
AcDbLine
10
47.856319
20
18.361896
30
0
11
47.805447
21
19.19634
31
0
39
0
210
0
220
0
230
1
0
MTEXT
5
146
100
AcDbEntity
8
SK2
62
256
6
ByLayer
370
18
48
1
60
0
100
AcDbMText
10
57.52191
20
19.787266
30
0
210
0
220
0
230
1
1
\W1.0427;45%%d
40
4.5
41
0
44
1.084337
50
315.545984196369
71
7
72
5
7
iso_b_vert
0
MTEXT
5
149
100
AcDbEntity
8
SK6
62
256
6
ByLayer
370
18
48
1
60
0
100
AcDbMText
10
-18.788
20
-49.408165
30
0
210
0
220
0
230
1
1
\W0.7458;495-012A16-4509L
40
4
41
0
44
1.084337
50
0
71
7
72
5
7
iso_b_vert
0
DIMENSION
5
14C
100
AcDbEntity
8
2
62
256
6
ByLayer
370
18
48
1
60
0
100
AcDbDimension
2
_U0
10
75.896875
20
6
30
0
11
75.896875
21
24.435427
31
0
70
32
71
1
72
1
41
1
210
0
220
0
230
1
3
Standard
100
AcDbAlignedDimension
13
51
23
-6
33
0
14
51
24
6
34
0
50
90
100
AcDbRotatedDimension
1001
ACAD
1000
DSTYLE
1002
{
1070
   371
1070
    13
1070
   372
1070
    13
1070
   170
1070
     0
1070
   144
1040
1.0
1070
   277
1070
     2
1070
   284
1070
     8
1070
   278
1070
    46
1070
   146
1040
0.777778
1070
   345
1005
16
1070
   347
1005
16
1070
   346
1005
16
1070
   344
1005
14D
1070
   343
1005
14D
1070
   172
1070
     1
1070
    76
1070
     0
1070
    75
1070
     0
1070
   282
1070
     0
1070
   281
1070
     0
1070
    71
1070
     0
1070
    74
1070
     0
1070
   279
1070
     0
1070
   173
1070
     1
1070
   340
1005
147
1070
   271
1070
     2
1070
   272
1070
     2
1070
    77
1070
     1
1070
    73
1070
     0
1070
   171
1070
     3
1070
   274
1070
     4
1070
   177
1070
   150
1070
   176
1070
     9
1070
   178
1070
    43
1070
    78
1070
     8
1070
    48
1040
-0.1
1070
    41
1040
3.175
1070
   147
1040
2.25
1070
    42
1040
1.5875
1070
    44
1040
3.175
1070
   140
1040
4.5
1002
}
1001
ACAD_DSTYLE_DIM_LINETYPE
1070
   380
1005
16
1001
ACAD_DSTYLE_DIM_EXT1_LINETYPE
1070
   381
1005
16
1001
ACAD_DSTYLE_DIM_EXT2_LINETYPE
1070
   382
1005
16
0
DIMENSION
5
174
100
AcDbEntity
8
SK2
62
256
6
ByLayer
370
18
48
1
60
0
100
AcDbDimension
2
_U1
10
0
20
-30.5
30
0
11
25.5
21
-30.5
31
0
70
32
71
1
72
1
41
1
210
0
220
0
230
1
3
Standard
100
AcDbAlignedDimension
13
51
23
-6
33
0
14
0
24
0
34
0
50
0
100
AcDbRotatedDimension
1001
ACAD
1000
DSTYLE
1002
{
1070
   371
1070
    13
1070
   372
1070
    13
1070
   170
1070
     0
1070
   144
1040
1.0
1070
   277
1070
     2
1070
   284
1070
     8
1070
   278
1070
    46
1070
   146
1040
0.777778
1070
   345
1005
16
1070
   347
1005
16
1070
   346
1005
16
1070
   344
1005
14D
1070
   343
1005
14D
1070
   172
1070
     1
1070
    76
1070
     0
1070
    75
1070
     0
1070
   282
1070
     0
1070
   281
1070
     0
1070
    71
1070
     0
1070
    74
1070
     0
1070
   279
1070
     0
1070
   173
1070
     1
1070
   340
1005
147
1070
   271
1070
     2
1070
   272
1070
     2
1070
    77
1070
     1
1070
    73
1070
     1
1070
   171
1070
     3
1070
   274
1070
     4
1070
   177
1070
   150
1070
   176
1070
     9
1070
   178
1070
    43
1070
    78
1070
     8
1070
    48
1040
-0.1
1070
    41
1040
3.175
1070
   147
1040
2.25
1070
    42
1040
1.5875
1070
    44
1040
3.175
1070
   140
1040
4.5
1002
}
1001
ACAD_DSTYLE_DIM_LINETYPE
1070
   380
1005
16
1001
ACAD_DSTYLE_DIM_EXT1_LINETYPE
1070
   381
1005
16
1001
ACAD_DSTYLE_DIM_EXT2_LINETYPE
1070
   382
1005
16
0
DIMENSION
5
190
100
AcDbEntity
8
2
62
256
6
ByLayer
370
18
48
1
60
0
100
AcDbDimension
2
_U2
10
51
20
26.5
30
0
11
1
21
26.5
31
0
70
32
71
1
72
1
41
1
210
0
220
0
230
1
3
Standard
100
AcDbAlignedDimension
13
-49
23
8
33
0
14
51
24
6
34
0
50
0
100
AcDbRotatedDimension
1001
ACAD
1000
DSTYLE
1002
{
1070
   371
1070
    13
1070
   372
1070
    13
1070
   170
1070
     0
1070
   144
1040
1.0
1070
   277
1070
     2
1070
   284
1070
     8
1070
   278
1070
    46
1070
   146
1040
0.777778
1070
   345
1005
16
1070
   347
1005
16
1070
   346
1005
16
1070
   344
1005
14D
1070
   343
1005
14D
1070
   172
1070
     1
1070
    76
1070
     0
1070
    75
1070
     0
1070
   282
1070
     0
1070
   281
1070
     0
1070
    71
1070
     0
1070
    74
1070
     0
1070
   279
1070
     0
1070
   173
1070
     1
1070
   340
1005
147
1070
   271
1070
     2
1070
   272
1070
     2
1070
    77
1070
     1
1070
    73
1070
     1
1070
   171
1070
     3
1070
   274
1070
     4
1070
   177
1070
   150
1070
   176
1070
     9
1070
   178
1070
    43
1070
    78
1070
     8
1070
    48
1040
-0.1
1070
    41
1040
3.175
1070
   147
1040
2.25
1070
    42
1040
1.5875
1070
    44
1040
3.175
1070
   140
1040
4.5
1002
}
1001
ACAD_DSTYLE_DIM_LINETYPE
1070
   380
1005
16
1001
ACAD_DSTYLE_DIM_EXT1_LINETYPE
1070
   381
1005
16
1001
ACAD_DSTYLE_DIM_EXT2_LINETYPE
1070
   382
1005
16
0
DIMENSION
5
1AC
100
AcDbEntity
8
SK2
62
256
6
ByLayer
370
18
48
1
60
0
100
AcDbDimension
2
_U3
10
44.96
20
16.5
30
0
11
-2.02
21
16.5
31
0
70
32
71
1
72
1
41
1
210
0
220
0
230
1
3
Standard
100
AcDbAlignedDimension
13
-49
23
8
33
0
14
44.96
24
11.7
34
0
50
0
100
AcDbRotatedDimension
1001
ACAD
1000
DSTYLE
1002
{
1070
   371
1070
    13
1070
   372
1070
    13
1070
   170
1070
     0
1070
   144
1040
1.0
1070
   277
1070
     2
1070
   284
1070
     8
1070
   278
1070
    46
1070
   146
1040
0.777778
1070
   345
1005
16
1070
   347
1005
16
1070
   346
1005
16
1070
   344
1005
14D
1070
   343
1005
14D
1070
   172
1070
     1
1070
    76
1070
     0
1070
    75
1070
     0
1070
   282
1070
     0
1070
   281
1070
     0
1070
    71
1070
     0
1070
    74
1070
     0
1070
   279
1070
     0
1070
   173
1070
     1
1070
   340
1005
147
1070
   271
1070
     2
1070
   272
1070
     2
1070
    77
1070
     1
1070
    73
1070
     1
1070
   171
1070
     3
1070
   274
1070
     4
1070
   177
1070
   150
1070
   176
1070
     9
1070
   178
1070
    43
1070
    78
1070
     8
1070
    48
1040
-0.1
1070
    41
1040
3.175
1070
   147
1040
2.25
1070
    42
1040
1.5875
1070
    44
1040
3.175
1070
   140
1040
4.5
1002
}
1001
ACAD_DSTYLE_DIM_LINETYPE
1070
   380
1005
16
1001
ACAD_DSTYLE_DIM_EXT1_LINETYPE
1070
   381
1005
16
1001
ACAD_DSTYLE_DIM_EXT2_LINETYPE
1070
   382
1005
16
0
DIMENSION
5
1C8
100
AcDbEntity
8
SK2
62
256
6
ByLayer
370
18
48
1
60
0
100
AcDbDimension
2
_U4
10
86.75
20
11.7
30
0
11
86.75
21
34.140378
31
0
70
32
71
1
72
1
41
1
210
0
220
0
230
1
3
Standard
100
AcDbAlignedDimension
13
44.96
23
-11.7
33
0
14
44.96
24
11.7
34
0
50
90
100
AcDbRotatedDimension
1001
ACAD
1000
DSTYLE
1002
{
1070
   371
1070
    13
1070
   372
1070
    13
1070
   170
1070
     0
1070
   144
1040
1.0
1070
   277
1070
     2
1070
   284
1070
     8
1070
   278
1070
    46
1070
   146
1040
0.777778
1070
   345
1005
16
1070
   347
1005
16
1070
   346
1005
16
1070
   344
1005
14D
1070
   343
1005
14D
1070
   172
1070
     1
1070
    76
1070
     0
1070
    75
1070
     0
1070
   282
1070
     0
1070
   281
1070
     0
1070
    71
1070
     0
1070
    74
1070
     0
1070
   279
1070
     0
1070
   173
1070
     1
1070
   340
1005
147
1070
   271
1070
     2
1070
   272
1070
     2
1070
    77
1070
     1
1070
    73
1070
     0
1070
   171
1070
     3
1070
   274
1070
     4
1070
   177
1070
   150
1070
   176
1070
     9
1070
   178
1070
    43
1070
    78
1070
     8
1070
    48
1040
-0.1
1070
    41
1040
3.175
1070
   147
1040
2.25
1070
    42
1040
1.5875
1070
    44
1040
3.175
1070
   140
1040
4.5
1002
}
1001
ACAD_DSTYLE_DIM_LINETYPE
1070
   380
1005
16
1001
ACAD_DSTYLE_DIM_EXT1_LINETYPE
1070
   381
1005
16
1001
ACAD_DSTYLE_DIM_EXT2_LINETYPE
1070
   382
1005
16
0
DIMENSION
5
1E6
100
AcDbEntity
8
SK2
62
256
6
ByLayer
370
18
48
1
60
0
100
AcDbDimension
2
_U5
10
-74.103125
20
-8
30
0
11
-74.103125
21
26.435427
31
0
70
32
71
1
72
1
41
1
210
0
220
0
230
1
3
Standard
100
AcDbAlignedDimension
13
-49
23
8
33
0
14
-49
24
-8
34
0
50
90
100
AcDbRotatedDimension
1001
ACAD
1000
DSTYLE
1002
{
1070
   371
1070
    13
1070
   372
1070
    13
1070
   170
1070
     0
1070
   144
1040
1.0
1070
   277
1070
     2
1070
   284
1070
     8
1070
   278
1070
    46
1070
   146
1040
0.777778
1070
   345
1005
16
1070
   347
1005
16
1070
   346
1005
16
1070
   344
1005
14D
1070
   343
1005
14D
1070
   172
1070
     1
1070
    76
1070
     0
1070
    75
1070
     0
1070
   282
1070
     0
1070
   281
1070
     0
1070
    71
1070
     0
1070
    74
1070
     0
1070
   279
1070
     0
1070
   173
1070
     1
1070
   340
1005
147
1070
   271
1070
     2
1070
   272
1070
     2
1070
    77
1070
     1
1070
    73
1070
     0
1070
   171
1070
     3
1070
   274
1070
     4
1070
   177
1070
   150
1070
   176
1070
     9
1070
   178
1070
    43
1070
    78
1070
     8
1070
    48
1040
-0.1
1070
    41
1040
3.175
1070
   147
1040
2.25
1070
    42
1040
1.5875
1070
    44
1040
3.175
1070
   140
1040
4.5
1002
}
1001
ACAD_DSTYLE_DIM_LINETYPE
1070
   380
1005
16
1001
ACAD_DSTYLE_DIM_EXT1_LINETYPE
1070
   381
1005
16
1001
ACAD_DSTYLE_DIM_EXT2_LINETYPE
1070
   382
1005
16
0
ENDSEC
0
SECTION
2
OBJECTS
0
DICTIONARY
5
275
330
0
100
AcDbDictionary
280
0
281
1
3
ACAD_GROUP
350
276
3
ACAD_MLINESTYLE
350
277
0
DICTIONARY
5
276
330
0
100
AcDbDictionary
280
0
281
1
0
DICTIONARY
5
277
330
0
100
AcDbDictionary
280
0
281
1
3
Standard
350
18
0
MLINESTYLE
5
18
330
277
100
AcDbMlineStyle
2
Standard
70
0
3

62
256
51
90
52
90
71
2
49
-0.5
62
256
6
ByLayer
49
0.5
62
256
6
ByLayer
0
RASTERVARIABLES
5
263
330

100
AcDbRasterVariables
90
0
70
1
71
1
72
1
0
ENDSEC
0
EOF
