0
SECTION
2
HEADER
9
$ACADVER
1
AC1015
9
$DWGCODEPAGE
3
ANSI_1252
9
$HANDSEED
5
29c
9
$ANGBASE
50
0
9
$ANGDIR
70
0
9
$ATTMODE
70
1
9
$AUNITS
70
0
9
$AUPREC
70
0
9
$CECOLOR
62
256
9
$CELTSCALE
40
1
9
$CELTYPE
6
ByLayer
9
$CELWEIGHT
370
18
9
$CLAYER
8
0
9
$CMLJUST
70
0
9
$CMLSCALE
40
1
9
$CMLSTYLE
2
Standard
9
$DIMSTYLE
2
Standard
9
$TEXTSIZE
40
0.2
9
$TEXTSTYLE
7
Standard
9
$LUNITS
70
2
9
$LUPREC
70
4
9
$EXTNAMES
290
1
9
$INSUNITS
70
4
9
$LTSCALE
40
1
9
$LWDISPLAY
290
1
9
$PDMODE
70
0
9
$PDSIZE
40
0
9
$PLINEGEN
70
0
0
ENDSEC
0
SECTION
2
CLASSES
0
CLASS
1
RASTERVARIABLES
2
AcDbRasterVariables
3
ISM
90
0
280
0
281
0
0
ENDSEC
0
SECTION
2
TABLES
0
TABLE
2
VPORT
5
292
100
AcDbSymbolTable
0
VPORT
5
1
100
AcDbSymbolTableRecord
100
AcDbViewportTableRecord
2
*Active
70
0
10
0
20
0
11
1
21
1
12
-1
22
1
13
0
23
0
14
0.5
24
0.5
15
10
25
10
16
0
26
0
36
1
17
0
27
0
37
0
0
ENDTAB
0
TABLE
2
LTYPE
5
293
100
AcDbSymbolTable
0
LTYPE
5
14
100
AcDbSymbolTableRecord
100
AcDbLinetypeTableRecord
70
0
2
ByBlock
3

72
65
73
0
40
0
0
LTYPE
5
15
100
AcDbSymbolTableRecord
100
AcDbLinetypeTableRecord
70
0
2
ByLayer
3

72
65
73
0
40
0
0
LTYPE
5
16
100
AcDbSymbolTableRecord
100
AcDbLinetypeTableRecord
70
0
2
Continuous
3
Solid line
72
65
73
0
40
0
0
LTYPE
5
6E
100
AcDbSymbolTableRecord
100
AcDbLinetypeTableRecord
70
0
2
CENTER
3
____ _ ____ _ ____ _ ____
72
65
73
4
40
47.5
49
22
74
0
49
-8.5
74
0
49
8.5
74
0
49
-8.5
74
0
0
LTYPE
5
6F
100
AcDbSymbolTableRecord
100
AcDbLinetypeTableRecord
70
0
2
DASHED
3
__ __ __ __ __ __ __ __ __
72
65
73
2
40
25.72
49
12.86
74
0
49
-12.86
74
0
0
ENDTAB
0
TABLE
2
LAYER
5
294
100
AcDbSymbolTable
0
LAYER
5
10
100
AcDbSymbolTableRecord
100
AcDbLayerTableRecord
2
0
70
0
62
7
6
Continuous
290
1
370
-3
390
0
0
LAYER
5
71
100
AcDbSymbolTableRecord
100
AcDbLayerTableRecord
2
81
70
0
62
-3
6
Continuous
290
1
370
-3
390
0
0
LAYER
5
73
100
AcDbSymbolTableRecord
100
AcDbLayerTableRecord
2
80
70
0
62
-6
6
Continuous
290
1
370
-3
390
0
0
LAYER
5
75
100
AcDbSymbolTableRecord
100
AcDbLayerTableRecord
2
1
70
0
62
4
6
Continuous
290
1
370
-3
390
0
0
LAYER
5
C2
100
AcDbSymbolTableRecord
100
AcDbLayerTableRecord
2
4
70
0
62
-2
6
CENTER
290
1
370
-3
390
0
0
LAYER
5
170
100
AcDbSymbolTableRecord
100
AcDbLayerTableRecord
2
Defpoints
70
0
62
7
6
Continuous
290
0
370
-3
390
0
0
LAYER
5
17F
100
AcDbSymbolTableRecord
100
AcDbLayerTableRecord
2
2
70
0
62
7
6
Continuous
290
1
370
-3
390
0
0
LAYER
5
27e
100
AcDbSymbolTableRecord
100
AcDbLayerTableRecord
2
SK1
70
0
62
4
6
Continuous
290
1
370
-3
390
0
0
LAYER
5
27f
100
AcDbSymbolTableRecord
100
AcDbLayerTableRecord
2
SK4
70
0
62
2
6
CENTER
290
1
370
-3
390
0
0
LAYER
5
280
100
AcDbSymbolTableRecord
100
AcDbLayerTableRecord
2
SK2
70
0
62
7
6
Continuous
290
1
370
-3
390
0
0
LAYER
5
281
100
AcDbSymbolTableRecord
100
AcDbLayerTableRecord
2
SK6
70
0
62
5
6
Continuous
290
1
370
-3
390
0
0
ENDTAB
0
TABLE
2
STYLE
5
295
100
AcDbSymbolTable
0
STYLE
5
11
100
AcDbSymbolTableRecord
100
AcDbTextStyleTableRecord
2
Standard
3
txt
70
0
71
0
40
0
41
1
42
0
50
0
0
STYLE
5
161
100
AcDbSymbolTableRecord
100
AcDbTextStyleTableRecord
2
iso_b_vert
3
simplex.shx
70
0
71
0
40
0
41
1
42
0
50
0
0
STYLE
5
162
100
AcDbSymbolTableRecord
100
AcDbTextStyleTableRecord
2
DWGDirectTextStyle
3
simplex
70
0
71
0
40
0
41
1
42
0
50
0
0
ENDTAB
0
TABLE
2
DIMSTYLE
5
296
100
AcDbSymbolTable
100
AcDbDimStyleTable
0
DIMSTYLE
105
27
100
AcDbSymbolTableRecord
100
AcDbDimStyleTableRecord
2
Standard
70
0
3
<>
41
0.18
42
0.0625
44
0.18
140
0.18
147
0.09
73
0
74
0
77
1
271
2
275
0
278
52
280
0
340
11
0
ENDTAB
0
TABLE
2
VIEW
5
297
100
AcDbSymbolTable
0
ENDTAB
0
TABLE
2
UCS
5
298
100
AcDbSymbolTable
0
ENDTAB
0
TABLE
2
APPID
5
299
100
AcDbSymbolTable
0
APPID
5
12
100
AcDbSymbolTableRecord
100
AcDbRegAppTableRecord
2
ACAD
70
0
0
APPID
5
165
100
AcDbSymbolTableRecord
100
AcDbRegAppTableRecord
2
ACAD_DSTYLE_DIMBREAK
70
0
0
APPID
5
23D
100
AcDbSymbolTableRecord
100
AcDbRegAppTableRecord
2
ACAD_DSTYLE_DIM_LINETYPE
70
0
0
APPID
5
23E
100
AcDbSymbolTableRecord
100
AcDbRegAppTableRecord
2
ACAD_DSTYLE_DIM_EXT1_LINETYPE
70
0
0
APPID
5
23F
100
AcDbSymbolTableRecord
100
AcDbRegAppTableRecord
2
ACAD_DSTYLE_DIM_EXT2_LINETYPE
70
0
0
APPID
5
27A
100
AcDbSymbolTableRecord
100
AcDbRegAppTableRecord
2
ACAD_MLEADERVER
70
0
0
ENDTAB
0
TABLE
2
BLOCK_RECORD
5
29a
100
AcDbSymbolTable
0
BLOCK_RECORD
5
1F
100
AcDbSymbolTableRecord
100
AcDbBlockTableRecord
2
*Model_Space
340
0
70
0
0
BLOCK_RECORD
5
1B
100
AcDbSymbolTableRecord
100
AcDbBlockTableRecord
2
*Paper_Space
340
0
70
0
0
BLOCK_RECORD
5
23
100
AcDbSymbolTableRecord
100
AcDbBlockTableRecord
2
*Paper_Space0
340
0
70
0
0
BLOCK_RECORD
5
167
100
AcDbSymbolTableRecord
100
AcDbBlockTableRecord
2
_Closed
340
0
70
0
0
BLOCK_RECORD
5
171
100
AcDbSymbolTableRecord
100
AcDbBlockTableRecord
2
*D2
340
0
70
0
0
BLOCK_RECORD
5
180
100
AcDbSymbolTableRecord
100
AcDbBlockTableRecord
2
_U0
340
0
70
0
0
BLOCK_RECORD
5
191
100
AcDbSymbolTableRecord
100
AcDbBlockTableRecord
2
*D4
340
0
70
0
0
BLOCK_RECORD
5
19D
100
AcDbSymbolTableRecord
100
AcDbBlockTableRecord
2
_U1
340
0
70
0
0
BLOCK_RECORD
5
1AD
100
AcDbSymbolTableRecord
100
AcDbBlockTableRecord
2
*D6
340
0
70
0
0
BLOCK_RECORD
5
1B9
100
AcDbSymbolTableRecord
100
AcDbBlockTableRecord
2
_U2
340
0
70
0
0
BLOCK_RECORD
5
1C9
100
AcDbSymbolTableRecord
100
AcDbBlockTableRecord
2
*D8
340
0
70
0
0
BLOCK_RECORD
5
1D5
100
AcDbSymbolTableRecord
100
AcDbBlockTableRecord
2
_U3
340
0
70
0
0
BLOCK_RECORD
5
1E5
100
AcDbSymbolTableRecord
100
AcDbBlockTableRecord
2
*D10
340
0
70
0
0
BLOCK_RECORD
5
1F2
100
AcDbSymbolTableRecord
100
AcDbBlockTableRecord
2
_U4
340
0
70
0
0
BLOCK_RECORD
5
203
100
AcDbSymbolTableRecord
100
AcDbBlockTableRecord
2
*D12
340
0
70
0
0
BLOCK_RECORD
5
211
100
AcDbSymbolTableRecord
100
AcDbBlockTableRecord
2
_U5
340
0
70
0
0
ENDTAB
0
ENDSEC
0
SECTION
2
BLOCKS
0
BLOCK
5
20
100
AcDbEntity
8
0
100
AcDbBlockBegin
2
*Model_Space
70
0
10
0
20
0
30
0
3
*Model_Space
0
ENDBLK
5
21
100
AcDbEntity
8
0
100
AcDbBlockEnd
0
BLOCK
5
1C
100
AcDbEntity
8
0
100
AcDbBlockBegin
2
*Paper_Space
70
0
10
0
20
0
30
0
3
*Paper_Space
0
ENDBLK
5
1D
100
AcDbEntity
8
0
100
AcDbBlockEnd
0
BLOCK
5
24
100
AcDbEntity
8
0
100
AcDbBlockBegin
2
*Paper_Space0
70
0
10
0
20
0
30
0
3
*Paper_Space0
0
ENDBLK
5
25
100
AcDbEntity
8
0
100
AcDbBlockEnd
0
BLOCK
5
168
100
AcDbEntity
8
0
100
AcDbBlockBegin
2
_Closed
70
0
10
0
20
0
30
0
3
_Closed
0
LINE
5
16A
100
AcDbEntity
8
0
62
256
6
ByLayer
370
-2
48
1
60
0
100
AcDbLine
10
-1
20
0.166667
30
0
11
0
21
0
31
0
39
0
210
0
220
0
230
1
0
LINE
5
16B
100
AcDbEntity
8
0
62
256
6
ByLayer
370
-2
48
1
60
0
100
AcDbLine
10
0
20
0
30
0
11
-1
21
-0.166667
31
0
39
0
210
0
220
0
230
1
0
LINE
5
16C
100
AcDbEntity
8
0
62
256
6
ByLayer
370
-2
48
1
60
0
100
AcDbLine
10
-1
20
0.166667
30
0
11
-1
21
-0.166667
31
0
39
0
210
0
220
0
230
1
0
LINE
5
16D
100
AcDbEntity
8
0
62
256
6
ByLayer
370
-2
48
1
60
0
100
AcDbLine
10
0
20
0
30
0
11
-1
21
0
31
0
39
0
210
0
220
0
230
1
0
ENDBLK
5
169
100
AcDbEntity
8
0
100
AcDbBlockEnd
0
BLOCK
5
172
100
AcDbEntity
8
0
100
AcDbBlockBegin
2
*D2
70
1
10
0
20
0
30
0
3
*D2
0
LINE
5
174
100
AcDbEntity
8
0
62
256
6
ByLayer
370
-2
48
1
60
0
100
AcDbLine
10
52.5875
20
-6
30
0
11
79.071875
21
-6
31
0
39
0
210
0
220
0
230
1
0
LINE
5
175
100
AcDbEntity
8
0
62
256
6
ByLayer
370
-2
48
1
60
0
100
AcDbLine
10
52.5875
20
6
30
0
11
79.071875
21
6
31
0
39
0
210
0
220
0
230
1
0
LINE
5
176
100
AcDbEntity
8
0
62
256
6
ByLayer
370
-2
48
1
60
0
100
AcDbLine
10
75.896875
20
6
30
0
11
75.896875
21
34.900605
31
0
39
0
210
0
220
0
230
1
0
LINE
5
177
100
AcDbEntity
8
0
62
256
6
ByLayer
370
-2
48
1
60
0
100
AcDbLine
10
75.896875
20
-9.175
30
0
11
75.896875
21
-12.35
31
0
39
0
210
0
220
0
230
1
0
LINE
5
178
100
AcDbEntity
8
0
62
256
6
ByLayer
370
-2
48
1
60
0
100
AcDbLine
10
75.896875
20
9.175
30
0
11
75.896875
21
12.35
31
0
39
0
210
0
220
0
230
1
0
SOLID
5
179
100
AcDbEntity
8
0
62
256
6
ByLayer
370
-1
48
1
60
0
100
AcDbTrace
10
76.426042
20
-9.175
30
0
11
75.367708
21
-9.175
31
0
12
75.896875
22
-6
32
0
13
75.896875
23
-6
33
0
39
0
210
0
220
0
230
1
0
SOLID
5
17A
100
AcDbEntity
8
0
62
256
6
ByLayer
370
-1
48
1
60
0
100
AcDbTrace
10
75.367708
20
9.175
30
0
11
76.426042
21
9.175
31
0
12
75.896875
22
6
32
0
13
75.896875
23
6
33
0
39
0
210
0
220
0
230
1
0
MTEXT
5
17B
100
AcDbEntity
8
0
62
256
6
ByLayer
370
18
48
1
60
0
100
AcDbMText
10
66.503125
20
24.435427
30
0
210
0
220
0
230
1
1
\A1;12
40
4.5
41
0
44
1
50
90
71
5
72
5
7
iso_b_vert
0
POINT
5
17C
100
AcDbEntity
8
Defpoints
62
0
6
ByLayer
370
-1
48
1
60
0
100
AcDbPoint
10
51
20
-6
30
0
39
0
210
0
220
0
230
1
50
360
0
POINT
5
17D
100
AcDbEntity
8
Defpoints
62
0
6
ByLayer
370
-1
48
1
60
0
100
AcDbPoint
10
51
20
6
30
0
39
0
210
0
220
0
230
1
50
360
0
POINT
5
17E
100
AcDbEntity
8
Defpoints
62
0
6
ByLayer
370
-1
48
1
60
0
100
AcDbPoint
10
75.896875
20
6
30
0
39
0
210
0
220
0
230
1
50
360
0
ENDBLK
5
173
100
AcDbEntity
8
0
100
AcDbBlockEnd
0
BLOCK
5
18C
100
AcDbEntity
8
0
100
AcDbBlockBegin
2
_U0
70
0
10
0
20
0
30
0
3
_U0
0
MTEXT
5
181
100
AcDbEntity
8
2
62
256
6
ByLayer
370
18
48
1
60
0
100
AcDbMText
10
73.815029
20
17.255375
30
0
210
0
220
0
230
1
1
%%c
40
3.175
41
0
44
1.084337
50
90
71
7
72
5
7
iso_b_vert
0
MTEXT
5
182
100
AcDbEntity
8
2
62
256
6
ByLayer
370
18
48
1
60
0
100
AcDbMText
10
74.216453
20
26.84
30
0
210
0
220
0
230
1
1
\W0.6385;12
40
4.5
41
0
44
1.084337
50
90
71
7
72
5
7
iso_b_vert
0
LINE
5
183
100
AcDbEntity
8
2
62
256
6
ByLayer
370
13
48
1
60
0
100
AcDbLine
10
52.5875
20
-6
30
0
11
79.071875
21
-6
31
0
39
0
210
0
220
0
230
1
0
LINE
5
184
100
AcDbEntity
8
2
62
256
6
ByLayer
370
13
48
1
60
0
100
AcDbLine
10
52.5875
20
6
30
0
11
79.071875
21
6
31
0
39
0
210
0
220
0
230
1
0
LINE
5
185
100
AcDbEntity
8
2
62
256
6
ByLayer
370
13
48
1
60
0
100
AcDbLine
10
75.896875
20
-6
30
0
11
75.896875
21
31.758353
31
0
39
0
210
0
220
0
230
1
0
LINE
5
186
100
AcDbEntity
8
2
62
256
6
ByLayer
370
13
48
1
60
0
100
AcDbLine
10
75.896875
20
-6
30
0
11
75.478878
21
-2.825002
31
0
39
0
210
0
220
0
230
1
0
LINE
5
187
100
AcDbEntity
8
2
62
256
6
ByLayer
370
13
48
1
60
0
100
AcDbLine
10
75.896875
20
-6
30
0
11
76.314872
21
-2.824998
31
0
39
0
210
0
220
0
230
1
0
LINE
5
188
100
AcDbEntity
8
2
62
256
6
ByLayer
370
13
48
1
60
0
100
AcDbLine
10
75.478878
20
-2.825002
30
0
11
76.314872
21
-2.824998
31
0
39
0
210
0
220
0
230
1
0
LINE
5
189
100
AcDbEntity
8
2
62
256
6
ByLayer
370
13
48
1
60
0
100
AcDbLine
10
75.896875
20
6
30
0
11
76.314872
21
2.825002
31
0
39
0
210
0
220
0
230
1
0
LINE
5
18A
100
AcDbEntity
8
2
62
256
6
ByLayer
370
13
48
1
60
0
100
AcDbLine
10
75.896875
20
6
30
0
11
75.478878
21
2.824998
31
0
39
0
210
0
220
0
230
1
0
LINE
5
18B
100
AcDbEntity
8
2
62
256
6
ByLayer
370
13
48
1
60
0
100
AcDbLine
10
76.314872
20
2.825002
30
0
11
75.478878
21
2.824998
31
0
39
0
210
0
220
0
230
1
0
ENDBLK
5
18D
100
AcDbEntity
8
0
100
AcDbBlockEnd
0
BLOCK
5
192
100
AcDbEntity
8
0
100
AcDbBlockBegin
2
*D4
70
1
10
0
20
0
30
0
3
*D4
0
LINE
5
194
100
AcDbEntity
8
0
62
256
6
ByLayer
370
-2
48
1
60
0
100
AcDbLine
10
51
20
-7.5875
30
0
11
51
21
-33.675
31
0
39
0
210
0
220
0
230
1
0
LINE
5
195
100
AcDbEntity
8
0
62
256
6
ByLayer
370
-2
48
1
60
0
100
AcDbLine
10
0
20
-1.5875
30
0
11
0
21
-33.675
31
0
39
0
210
0
220
0
230
1
0
LINE
5
196
100
AcDbEntity
8
0
62
256
6
ByLayer
370
-2
48
1
60
0
100
AcDbLine
10
47.825
20
-30.5
30
0
11
3.175
21
-30.5
31
0
39
0
210
0
220
0
230
1
0
SOLID
5
197
100
AcDbEntity
8
0
62
256
6
ByLayer
370
-1
48
1
60
0
100
AcDbTrace
10
47.825
20
-31.029167
30
0
11
47.825
21
-29.970833
31
0
12
51
22
-30.5
32
0
13
51
23
-30.5
33
0
39
0
210
0
220
0
230
1
0
SOLID
5
198
100
AcDbEntity
8
0
62
256
6
ByLayer
370
-1
48
1
60
0
100
AcDbTrace
10
3.175
20
-29.970833
30
0
11
3.175
21
-31.029167
31
0
12
0
22
-30.5
32
0
13
0
23
-30.5
33
0
39
0
210
0
220
0
230
1
0
MTEXT
5
199
100
AcDbEntity
8
0
62
256
6
ByLayer
370
18
48
1
60
0
100
AcDbMText
10
25.5
20
-21.10625
30
0
210
0
220
0
230
1
1
\A1;51
40
4.5
41
0
44
1
50
0
71
5
72
5
7
iso_b_vert
0
POINT
5
19A
100
AcDbEntity
8
Defpoints
62
0
6
ByLayer
370
-1
48
1
60
0
100
AcDbPoint
10
51
20
-6
30
0
39
0
210
0
220
0
230
1
50
360
0
POINT
5
19B
100
AcDbEntity
8
Defpoints
62
0
6
ByLayer
370
-1
48
1
60
0
100
AcDbPoint
10
0
20
0
30
0
39
0
210
0
220
0
230
1
50
360
0
POINT
5
19C
100
AcDbEntity
8
Defpoints
62
0
6
ByLayer
370
-1
48
1
60
0
100
AcDbPoint
10
0
20
-30.5
30
0
39
0
210
0
220
0
230
1
50
360
0
ENDBLK
5
193
100
AcDbEntity
8
0
100
AcDbBlockEnd
0
BLOCK
5
1A8
100
AcDbEntity
8
0
100
AcDbBlockBegin
2
_U1
70
0
10
0
20
0
30
0
3
_U1
0
MTEXT
5
19E
100
AcDbEntity
8
SK2
62
256
6
ByLayer
370
18
48
1
60
0
100
AcDbMText
10
23.178073
20
-29.172328
30
0
210
0
220
0
230
1
1
\W0.7621;51
40
4.5
41
0
44
1.084337
50
0
71
7
72
5
7
iso_b_vert
0
LINE
5
19F
100
AcDbEntity
8
SK2
62
256
6
ByLayer
370
13
48
1
60
0
100
AcDbLine
10
51
20
-7.5875
30
0
11
51
21
-33.675
31
0
39
0
210
0
220
0
230
1
0
LINE
5
1A0
100
AcDbEntity
8
SK2
62
256
6
ByLayer
370
13
48
1
60
0
100
AcDbLine
10
0
20
-1.5875
30
0
11
0
21
-33.675
31
0
39
0
210
0
220
0
230
1
0
LINE
5
1A1
100
AcDbEntity
8
SK2
62
256
6
ByLayer
370
13
48
1
60
0
100
AcDbLine
10
51
20
-30.5
30
0
11
0
21
-30.5
31
0
39
0
210
0
220
0
230
1
0
LINE
5
1A2
100
AcDbEntity
8
SK2
62
256
6
ByLayer
370
13
48
1
60
0
100
AcDbLine
10
51
20
-30.5
30
0
11
47.825002
21
-30.917997
31
0
39
0
210
0
220
0
230
1
0
LINE
5
1A3
100
AcDbEntity
8
SK2
62
256
6
ByLayer
370
13
48
1
60
0
100
AcDbLine
10
51
20
-30.5
30
0
11
47.824998
21
-30.082003
31
0
39
0
210
0
220
0
230
1
0
LINE
5
1A4
100
AcDbEntity
8
SK2
62
256
6
ByLayer
370
13
48
1
60
0
100
AcDbLine
10
47.825002
20
-30.917997
30
0
11
47.824998
21
-30.082003
31
0
39
0
210
0
220
0
230
1
0
LINE
5
1A5
100
AcDbEntity
8
SK2
62
256
6
ByLayer
370
13
48
1
60
0
100
AcDbLine
10
0
20
-30.5
30
0
11
3.174998
21
-30.082003
31
0
39
0
210
0
220
0
230
1
0
LINE
5
1A6
100
AcDbEntity
8
SK2
62
256
6
ByLayer
370
13
48
1
60
0
100
AcDbLine
10
0
20
-30.5
30
0
11
3.175002
21
-30.917997
31
0
39
0
210
0
220
0
230
1
0
LINE
5
1A7
100
AcDbEntity
8
SK2
62
256
6
ByLayer
370
13
48
1
60
0
100
AcDbLine
10
3.174998
20
-30.082003
30
0
11
3.175002
21
-30.917997
31
0
39
0
210
0
220
0
230
1
0
ENDBLK
5
1A9
100
AcDbEntity
8
0
100
AcDbBlockEnd
0
BLOCK
5
1AE
100
AcDbEntity
8
0
100
AcDbBlockBegin
2
*D6
70
1
10
0
20
0
30
0
3
*D6
0
LINE
5
1B0
100
AcDbEntity
8
0
62
256
6
ByLayer
370
-2
48
1
60
0
100
AcDbLine
10
-49
20
9.5875
30
0
11
-49
21
29.675
31
0
39
0
210
0
220
0
230
1
0
LINE
5
1B1
100
AcDbEntity
8
0
62
256
6
ByLayer
370
-2
48
1
60
0
100
AcDbLine
10
51
20
7.5875
30
0
11
51
21
29.675
31
0
39
0
210
0
220
0
230
1
0
LINE
5
1B2
100
AcDbEntity
8
0
62
256
6
ByLayer
370
-2
48
1
60
0
100
AcDbLine
10
-45.825
20
26.5
30
0
11
47.825
21
26.5
31
0
39
0
210
0
220
0
230
1
0
SOLID
5
1B3
100
AcDbEntity
8
0
62
256
6
ByLayer
370
-1
48
1
60
0
100
AcDbTrace
10
-45.825
20
27.029167
30
0
11
-45.825
21
25.970833
31
0
12
-49
22
26.5
32
0
13
-49
23
26.5
33
0
39
0
210
0
220
0
230
1
0
SOLID
5
1B4
100
AcDbEntity
8
0
62
256
6
ByLayer
370
-1
48
1
60
0
100
AcDbTrace
10
47.825
20
25.970833
30
0
11
47.825
21
27.029167
31
0
12
51
22
26.5
32
0
13
51
23
26.5
33
0
39
0
210
0
220
0
230
1
0
MTEXT
5
1B5
100
AcDbEntity
8
0
62
256
6
ByLayer
370
18
48
1
60
0
100
AcDbMText
10
1
20
35.89375
30
0
210
0
220
0
230
1
1
\A1;100
40
4.5
41
0
44
1
50
0
71
5
72
5
7
iso_b_vert
0
POINT
5
1B6
100
AcDbEntity
8
Defpoints
62
0
6
ByLayer
370
-1
48
1
60
0
100
AcDbPoint
10
-49
20
8
30
0
39
0
210
0
220
0
230
1
50
360
0
POINT
5
1B7
100
AcDbEntity
8
Defpoints
62
0
6
ByLayer
370
-1
48
1
60
0
100
AcDbPoint
10
51
20
6
30
0
39
0
210
0
220
0
230
1
50
360
0
POINT
5
1B8
100
AcDbEntity
8
Defpoints
62
0
6
ByLayer
370
-1
48
1
60
0
100
AcDbPoint
10
51
20
26.5
30
0
39
0
210
0
220
0
230
1
50
360
0
ENDBLK
5
1AF
100
AcDbEntity
8
0
100
AcDbBlockEnd
0
BLOCK
5
1C4
100
AcDbEntity
8
0
100
AcDbBlockBegin
2
_U2
70
0
10
0
20
0
30
0
3
_U2
0
MTEXT
5
1BA
100
AcDbEntity
8
2
62
256
6
ByLayer
370
18
48
1
60
0
100
AcDbMText
10
-3.305209
20
27.827672
30
0
210
0
220
0
230
1
1
\W0.7426;100
40
4.5
41
0
44
1.084337
50
0
71
7
72
5
7
iso_b_vert
0
LINE
5
1BB
100
AcDbEntity
8
2
62
256
6
ByLayer
370
13
48
1
60
0
100
AcDbLine
10
-49
20
9.5875
30
0
11
-49
21
29.675
31
0
39
0
210
0
220
0
230
1
0
LINE
5
1BC
100
AcDbEntity
8
2
62
256
6
ByLayer
370
13
48
1
60
0
100
AcDbLine
10
51
20
7.5875
30
0
11
51
21
29.675
31
0
39
0
210
0
220
0
230
1
0
LINE
5
1BD
100
AcDbEntity
8
2
62
256
6
ByLayer
370
13
48
1
60
0
100
AcDbLine
10
-49
20
26.5
30
0
11
51
21
26.5
31
0
39
0
210
0
220
0
230
1
0
LINE
5
1BE
100
AcDbEntity
8
2
62
256
6
ByLayer
370
13
48
1
60
0
100
AcDbLine
10
-49
20
26.5
30
0
11
-45.825002
21
26.917997
31
0
39
0
210
0
220
0
230
1
0
LINE
5
1BF
100
AcDbEntity
8
2
62
256
6
ByLayer
370
13
48
1
60
0
100
AcDbLine
10
-49
20
26.5
30
0
11
-45.824998
21
26.082003
31
0
39
0
210
0
220
0
230
1
0
LINE
5
1C0
100
AcDbEntity
8
2
62
256
6
ByLayer
370
13
48
1
60
0
100
AcDbLine
10
-45.825002
20
26.917997
30
0
11
-45.824998
21
26.082003
31
0
39
0
210
0
220
0
230
1
0
LINE
5
1C1
100
AcDbEntity
8
2
62
256
6
ByLayer
370
13
48
1
60
0
100
AcDbLine
10
51
20
26.5
30
0
11
47.825002
21
26.082003
31
0
39
0
210
0
220
0
230
1
0
LINE
5
1C2
100
AcDbEntity
8
2
62
256
6
ByLayer
370
13
48
1
60
0
100
AcDbLine
10
51
20
26.5
30
0
11
47.824998
21
26.917997
31
0
39
0
210
0
220
0
230
1
0
LINE
5
1C3
100
AcDbEntity
8
2
62
256
6
ByLayer
370
13
48
1
60
0
100
AcDbLine
10
47.825002
20
26.082003
30
0
11
47.824998
21
26.917997
31
0
39
0
210
0
220
0
230
1
0
ENDBLK
5
1C5
100
AcDbEntity
8
0
100
AcDbBlockEnd
0
BLOCK
5
1CA
100
AcDbEntity
8
0
100
AcDbBlockBegin
2
*D8
70
1
10
0
20
0
30
0
3
*D8
0
LINE
5
1CC
100
AcDbEntity
8
0
62
256
6
ByLayer
370
-2
48
1
60
0
100
AcDbLine
10
-49
20
9.5875
30
0
11
-49
21
19.675
31
0
39
0
210
0
220
0
230
1
0
LINE
5
1CD
100
AcDbEntity
8
0
62
256
6
ByLayer
370
-2
48
1
60
0
100
AcDbLine
10
46.5
20
14.5775
30
0
11
46.5
21
19.675
31
0
39
0
210
0
220
0
230
1
0
LINE
5
1CE
100
AcDbEntity
8
0
62
256
6
ByLayer
370
-2
48
1
60
0
100
AcDbLine
10
-45.825
20
16.5
30
0
11
43.325
21
16.5
31
0
39
0
210
0
220
0
230
1
0
SOLID
5
1CF
100
AcDbEntity
8
0
62
256
6
ByLayer
370
-1
48
1
60
0
100
AcDbTrace
10
-45.825
20
17.029167
30
0
11
-45.825
21
15.970833
31
0
12
-49
22
16.5
32
0
13
-49
23
16.5
33
0
39
0
210
0
220
0
230
1
0
SOLID
5
1D0
100
AcDbEntity
8
0
62
256
6
ByLayer
370
-1
48
1
60
0
100
AcDbTrace
10
43.325
20
15.970833
30
0
11
43.325
21
17.029167
31
0
12
46.5
22
16.5
32
0
13
46.5
23
16.5
33
0
39
0
210
0
220
0
230
1
0
MTEXT
5
1D1
100
AcDbEntity
8
0
62
256
6
ByLayer
370
18
48
1
60
0
100
AcDbMText
10
-1.25
20
25.89375
30
0
210
0
220
0
230
1
1
\A1;95.5
40
4.5
41
0
44
1
50
0
71
5
72
5
7
iso_b_vert
0
POINT
5
1D2
100
AcDbEntity
8
Defpoints
62
0
6
ByLayer
370
-1
48
1
60
0
100
AcDbPoint
10
-49
20
8
30
0
39
0
210
0
220
0
230
1
50
360
0
POINT
5
1D3
100
AcDbEntity
8
Defpoints
62
0
6
ByLayer
370
-1
48
1
60
0
100
AcDbPoint
10
46.5
20
12.99
30
0
39
0
210
0
220
0
230
1
50
360
0
POINT
5
1D4
100
AcDbEntity
8
Defpoints
62
0
6
ByLayer
370
-1
48
1
60
0
100
AcDbPoint
10
46.5
20
16.5
30
0
39
0
210
0
220
0
230
1
50
360
0
ENDBLK
5
1CB
100
AcDbEntity
8
0
100
AcDbBlockEnd
0
BLOCK
5
1E0
100
AcDbEntity
8
0
100
AcDbBlockBegin
2
_U3
70
0
10
0
20
0
30
0
3
_U3
0
MTEXT
5
1D6
100
AcDbEntity
8
SK2
62
256
6
ByLayer
370
18
48
1
60
0
100
AcDbMText
10
-7.26889
20
17.827672
30
0
210
0
220
0
230
1
1
\W0.8668;95.5
40
4.5
41
0
44
1.084337
50
0
71
7
72
5
7
iso_b_vert
0
LINE
5
1D7
100
AcDbEntity
8
SK2
62
256
6
ByLayer
370
13
48
1
60
0
100
AcDbLine
10
-49
20
9.5875
30
0
11
-49
21
19.675
31
0
39
0
210
0
220
0
230
1
0
LINE
5
1D8
100
AcDbEntity
8
SK2
62
256
6
ByLayer
370
13
48
1
60
0
100
AcDbLine
10
46.5
20
14.5775
30
0
11
46.5
21
19.675
31
0
39
0
210
0
220
0
230
1
0
LINE
5
1D9
100
AcDbEntity
8
SK2
62
256
6
ByLayer
370
13
48
1
60
0
100
AcDbLine
10
-49
20
16.5
30
0
11
46.5
21
16.5
31
0
39
0
210
0
220
0
230
1
0
LINE
5
1DA
100
AcDbEntity
8
SK2
62
256
6
ByLayer
370
13
48
1
60
0
100
AcDbLine
10
-49
20
16.5
30
0
11
-45.825002
21
16.917997
31
0
39
0
210
0
220
0
230
1
0
LINE
5
1DB
100
AcDbEntity
8
SK2
62
256
6
ByLayer
370
13
48
1
60
0
100
AcDbLine
10
-49
20
16.5
30
0
11
-45.824998
21
16.082003
31
0
39
0
210
0
220
0
230
1
0
LINE
5
1DC
100
AcDbEntity
8
SK2
62
256
6
ByLayer
370
13
48
1
60
0
100
AcDbLine
10
-45.825002
20
16.917997
30
0
11
-45.824998
21
16.082003
31
0
39
0
210
0
220
0
230
1
0
LINE
5
1DD
100
AcDbEntity
8
SK2
62
256
6
ByLayer
370
13
48
1
60
0
100
AcDbLine
10
46.5
20
16.5
30
0
11
43.325002
21
16.082003
31
0
39
0
210
0
220
0
230
1
0
LINE
5
1DE
100
AcDbEntity
8
SK2
62
256
6
ByLayer
370
13
48
1
60
0
100
AcDbLine
10
46.5
20
16.5
30
0
11
43.324998
21
16.917997
31
0
39
0
210
0
220
0
230
1
0
LINE
5
1DF
100
AcDbEntity
8
SK2
62
256
6
ByLayer
370
13
48
1
60
0
100
AcDbLine
10
43.325002
20
16.082003
30
0
11
43.324998
21
16.917997
31
0
39
0
210
0
220
0
230
1
0
ENDBLK
5
1E1
100
AcDbEntity
8
0
100
AcDbBlockEnd
0
BLOCK
5
1E6
100
AcDbEntity
8
0
100
AcDbBlockBegin
2
*D10
70
1
10
0
20
0
30
0
3
*D10
0
LINE
5
1E8
100
AcDbEntity
8
0
62
256
6
ByLayer
370
-2
48
1
60
0
100
AcDbLine
10
48.0875
20
-12.99
30
0
11
89.925
21
-12.99
31
0
39
0
210
0
220
0
230
1
0
LINE
5
1E9
100
AcDbEntity
8
0
62
256
6
ByLayer
370
-2
48
1
60
0
100
AcDbLine
10
48.0875
20
12.99
30
0
11
89.925
21
12.99
31
0
39
0
210
0
220
0
230
1
0
LINE
5
1EA
100
AcDbEntity
8
0
62
256
6
ByLayer
370
-2
48
1
60
0
100
AcDbLine
10
86.75
20
12.99
30
0
11
86.75
21
53.249422
31
0
39
0
210
0
220
0
230
1
0
LINE
5
1EB
100
AcDbEntity
8
0
62
256
6
ByLayer
370
-2
48
1
60
0
100
AcDbLine
10
86.75
20
-9.815
30
0
11
86.75
21
9.815
31
0
39
0
210
0
220
0
230
1
0
SOLID
5
1EC
100
AcDbEntity
8
0
62
256
6
ByLayer
370
-1
48
1
60
0
100
AcDbTrace
10
86.220833
20
-9.815
30
0
11
87.279167
21
-9.815
31
0
12
86.75
22
-12.99
32
0
13
86.75
23
-12.99
33
0
39
0
210
0
220
0
230
1
0
SOLID
5
1ED
100
AcDbEntity
8
0
62
256
6
ByLayer
370
-1
48
1
60
0
100
AcDbTrace
10
87.279167
20
9.815
30
0
11
86.220833
21
9.815
31
0
12
86.75
22
12.99
32
0
13
86.75
23
12.99
33
0
39
0
210
0
220
0
230
1
0
MTEXT
5
1EE
100
AcDbEntity
8
0
62
256
6
ByLayer
370
18
48
1
60
0
100
AcDbMText
10
77.35625
20
37.105672
30
0
210
0
220
0
230
1
1
\A1;25.98
40
4.5
41
0
44
1
50
90
71
5
72
5
7
iso_b_vert
0
POINT
5
1EF
100
AcDbEntity
8
Defpoints
62
0
6
ByLayer
370
-1
48
1
60
0
100
AcDbPoint
10
46.5
20
-12.99
30
0
39
0
210
0
220
0
230
1
50
360
0
POINT
5
1F0
100
AcDbEntity
8
Defpoints
62
0
6
ByLayer
370
-1
48
1
60
0
100
AcDbPoint
10
46.5
20
12.99
30
0
39
0
210
0
220
0
230
1
50
360
0
POINT
5
1F1
100
AcDbEntity
8
Defpoints
62
0
6
ByLayer
370
-1
48
1
60
0
100
AcDbPoint
10
86.75
20
12.99
30
0
39
0
210
0
220
0
230
1
50
360
0
ENDBLK
5
1E7
100
AcDbEntity
8
0
100
AcDbBlockEnd
0
BLOCK
5
1FE
100
AcDbEntity
8
0
100
AcDbBlockBegin
2
_U4
70
0
10
0
20
0
30
0
3
_U4
0
MTEXT
5
1F3
100
AcDbEntity
8
SK2
62
256
6
ByLayer
370
18
48
1
60
0
100
AcDbMText
10
84.668154
20
24.245375
30
0
210
0
220
0
230
1
1
%%c
40
3.175
41
0
44
1.084337
50
90
71
7
72
5
7
iso_b_vert
0
MTEXT
5
1F4
100
AcDbEntity
8
SK2
62
256
6
ByLayer
370
18
48
1
60
0
100
AcDbMText
10
85.069578
20
33.83
30
0
210
0
220
0
230
1
1
\W0.8825;25.98
40
4.5
41
0
44
1.084337
50
90
71
7
72
5
7
iso_b_vert
0
LINE
5
1F5
100
AcDbEntity
8
SK2
62
256
6
ByLayer
370
13
48
1
60
0
100
AcDbLine
10
48.0875
20
-12.99
30
0
11
89.925
21
-12.99
31
0
39
0
210
0
220
0
230
1
0
LINE
5
1F6
100
AcDbEntity
8
SK2
62
256
6
ByLayer
370
13
48
1
60
0
100
AcDbLine
10
48.0875
20
12.99
30
0
11
89.925
21
12.99
31
0
39
0
210
0
220
0
230
1
0
LINE
5
1F7
100
AcDbEntity
8
SK2
62
256
6
ByLayer
370
13
48
1
60
0
100
AcDbLine
10
86.75
20
-12.99
30
0
11
86.75
21
50.108844
31
0
39
0
210
0
220
0
230
1
0
LINE
5
1F8
100
AcDbEntity
8
SK2
62
256
6
ByLayer
370
13
48
1
60
0
100
AcDbLine
10
86.75
20
-12.99
30
0
11
86.332003
21
-9.815002
31
0
39
0
210
0
220
0
230
1
0
LINE
5
1F9
100
AcDbEntity
8
SK2
62
256
6
ByLayer
370
13
48
1
60
0
100
AcDbLine
10
86.75
20
-12.99
30
0
11
87.167997
21
-9.814998
31
0
39
0
210
0
220
0
230
1
0
LINE
5
1FA
100
AcDbEntity
8
SK2
62
256
6
ByLayer
370
13
48
1
60
0
100
AcDbLine
10
86.332003
20
-9.815002
30
0
11
87.167997
21
-9.814998
31
0
39
0
210
0
220
0
230
1
0
LINE
5
1FB
100
AcDbEntity
8
SK2
62
256
6
ByLayer
370
13
48
1
60
0
100
AcDbLine
10
86.75
20
12.99
30
0
11
87.167997
21
9.815002
31
0
39
0
210
0
220
0
230
1
0
LINE
5
1FC
100
AcDbEntity
8
SK2
62
256
6
ByLayer
370
13
48
1
60
0
100
AcDbLine
10
86.75
20
12.99
30
0
11
86.332003
21
9.814998
31
0
39
0
210
0
220
0
230
1
0
LINE
5
1FD
100
AcDbEntity
8
SK2
62
256
6
ByLayer
370
13
48
1
60
0
100
AcDbLine
10
87.167997
20
9.815002
30
0
11
86.332003
21
9.814998
31
0
39
0
210
0
220
0
230
1
0
ENDBLK
5
1FF
100
AcDbEntity
8
0
100
AcDbBlockEnd
0
BLOCK
5
204
100
AcDbEntity
8
0
100
AcDbBlockBegin
2
*D12
70
1
10
0
20
0
30
0
3
*D12
0
LINE
5
206
100
AcDbEntity
8
0
62
256
6
ByLayer
370
-2
48
1
60
0
100
AcDbLine
10
-50.5875
20
8
30
0
11
-77.278125
21
8
31
0
39
0
210
0
220
0
230
1
0
LINE
5
207
100
AcDbEntity
8
0
62
256
6
ByLayer
370
-2
48
1
60
0
100
AcDbLine
10
-50.5875
20
-8
30
0
11
-77.278125
21
-8
31
0
39
0
210
0
220
0
230
1
0
LINE
5
208
100
AcDbEntity
8
0
62
256
6
ByLayer
370
-2
48
1
60
0
100
AcDbLine
10
-74.103125
20
8
30
0
11
-74.103125
21
36.900605
31
0
39
0
210
0
220
0
230
1
0
LINE
5
209
100
AcDbEntity
8
0
62
256
6
ByLayer
370
-2
48
1
60
0
100
AcDbLine
10
-74.103125
20
11.175
30
0
11
-74.103125
21
14.35
31
0
39
0
210
0
220
0
230
1
0
LINE
5
20A
100
AcDbEntity
8
0
62
256
6
ByLayer
370
-2
48
1
60
0
100
AcDbLine
10
-74.103125
20
-11.175
30
0
11
-74.103125
21
-14.35
31
0
39
0
210
0
220
0
230
1
0
SOLID
5
20B
100
AcDbEntity
8
0
62
256
6
ByLayer
370
-1
48
1
60
0
100
AcDbTrace
10
-74.632292
20
11.175
30
0
11
-73.573958
21
11.175
31
0
12
-74.103125
22
8
32
0
13
-74.103125
23
8
33
0
39
0
210
0
220
0
230
1
0
SOLID
5
20C
100
AcDbEntity
8
0
62
256
6
ByLayer
370
-1
48
1
60
0
100
AcDbTrace
10
-73.573958
20
-11.175
30
0
11
-74.632292
21
-11.175
31
0
12
-74.103125
22
-8
32
0
13
-74.103125
23
-8
33
0
39
0
210
0
220
0
230
1
0
MTEXT
5
20D
100
AcDbEntity
8
0
62
256
6
ByLayer
370
18
48
1
60
0
100
AcDbMText
10
-83.496875
20
26.435427
30
0
210
0
220
0
230
1
1
\A1;16
40
4.5
41
0
44
1
50
90
71
5
72
5
7
iso_b_vert
0
POINT
5
20E
100
AcDbEntity
8
Defpoints
62
0
6
ByLayer
370
-1
48
1
60
0
100
AcDbPoint
10
-49
20
8
30
0
39
0
210
0
220
0
230
1
50
360
0
POINT
5
20F
100
AcDbEntity
8
Defpoints
62
0
6
ByLayer
370
-1
48
1
60
0
100
AcDbPoint
10
-49
20
-8
30
0
39
0
210
0
220
0
230
1
50
360
0
POINT
5
210
100
AcDbEntity
8
Defpoints
62
0
6
ByLayer
370
-1
48
1
60
0
100
AcDbPoint
10
-74.103125
20
-8
30
0
39
0
210
0
220
0
230
1
50
360
0
ENDBLK
5
205
100
AcDbEntity
8
0
100
AcDbBlockEnd
0
BLOCK
5
21D
100
AcDbEntity
8
0
100
AcDbBlockBegin
2
_U5
70
0
10
0
20
0
30
0
3
_U5
0
MTEXT
5
212
100
AcDbEntity
8
SK2
62
256
6
ByLayer
370
18
48
1
60
0
100
AcDbMText
10
-76.184971
20
19.255375
30
0
210
0
220
0
230
1
1
%%c
40
3.175
41
0
44
1.084337
50
90
71
7
72
5
7
iso_b_vert
0
MTEXT
5
213
100
AcDbEntity
8
SK2
62
256
6
ByLayer
370
18
48
1
60
0
100
AcDbMText
10
-75.783547
20
28.84
30
0
210
0
220
0
230
1
1
\W0.6385;16
40
4.5
41
0
44
1.084337
50
90
71
7
72
5
7
iso_b_vert
0
LINE
5
214
100
AcDbEntity
8
SK2
62
256
6
ByLayer
370
13
48
1
60
0
100
AcDbLine
10
-50.5875
20
8
30
0
11
-77.278125
21
8
31
0
39
0
210
0
220
0
230
1
0
LINE
5
215
100
AcDbEntity
8
SK2
62
256
6
ByLayer
370
13
48
1
60
0
100
AcDbLine
10
-50.5875
20
-8
30
0
11
-77.278125
21
-8
31
0
39
0
210
0
220
0
230
1
0
LINE
5
216
100
AcDbEntity
8
SK2
62
256
6
ByLayer
370
13
48
1
60
0
100
AcDbLine
10
-74.103125
20
-8
30
0
11
-74.103125
21
33.758353
31
0
39
0
210
0
220
0
230
1
0
LINE
5
217
100
AcDbEntity
8
SK2
62
256
6
ByLayer
370
13
48
1
60
0
100
AcDbLine
10
-74.103125
20
8
30
0
11
-73.685128
21
4.825002
31
0
39
0
210
0
220
0
230
1
0
LINE
5
218
100
AcDbEntity
8
SK2
62
256
6
ByLayer
370
13
48
1
60
0
100
AcDbLine
10
-74.103125
20
8
30
0
11
-74.521122
21
4.824998
31
0
39
0
210
0
220
0
230
1
0
LINE
5
219
100
AcDbEntity
8
SK2
62
256
6
ByLayer
370
13
48
1
60
0
100
AcDbLine
10
-73.685128
20
4.825002
30
0
11
-74.521122
21
4.824998
31
0
39
0
210
0
220
0
230
1
0
LINE
5
21A
100
AcDbEntity
8
SK2
62
256
6
ByLayer
370
13
48
1
60
0
100
AcDbLine
10
-74.103125
20
-8
30
0
11
-74.521122
21
-4.825002
31
0
39
0
210
0
220
0
230
1
0
LINE
5
21B
100
AcDbEntity
8
SK2
62
256
6
ByLayer
370
13
48
1
60
0
100
AcDbLine
10
-74.103125
20
-8
30
0
11
-73.685128
21
-4.824998
31
0
39
0
210
0
220
0
230
1
0
LINE
5
21C
100
AcDbEntity
8
SK2
62
256
6
ByLayer
370
13
48
1
60
0
100
AcDbLine
10
-74.521122
20
-4.825002
30
0
11
-73.685128
21
-4.824998
31
0
39
0
210
0
220
0
230
1
0
ENDBLK
5
21E
100
AcDbEntity
8
0
100
AcDbBlockEnd
0
ENDSEC
0
SECTION
2
ENTITIES
0
ARC
5
CC
100
AcDbEntity
8
1
62
256
6
ByLayer
370
13
48
1
60
0
100
AcDbCircle
39
0
10
39.048814
20
-9.518579
30
0
40
1
210
0
220
0
230
1
100
AcDbArc
50
76.584266
51
90
0
ARC
5
CD
100
AcDbEntity
8
1
62
256
6
ByLayer
370
13
48
1
60
0
100
AcDbCircle
39
0
10
30.207107
20
8.018579
30
0
40
0.5
210
0
220
0
230
1
100
AcDbArc
50
90
51
135
0
ARC
5
CE
100
AcDbEntity
8
1
62
256
6
ByLayer
370
13
48
1
60
0
100
AcDbCircle
39
0
10
30.207107
20
-8.018579
30
0
40
0.5
210
0
220
0
230
1
100
AcDbArc
50
225
51
270
0
ARC
5
CF
100
AcDbEntity
8
SK2
62
256
6
ByLayer
370
13
48
1
60
0
100
AcDbCircle
39
0
10
51
20
6
30
0
40
13.8098334236006
210
0
220
0
230
1
100
AcDbArc
50
90
51
120
0
ARC
5
D0
100
AcDbEntity
8
SK2
62
256
6
ByLayer
370
13
48
1
60
0
100
AcDbCircle
39
0
10
51
20
6
30
0
40
13.8098334236006
210
0
220
0
230
1
100
AcDbArc
50
29.514685
51
90
0
ELLIPSE
5
D1
100
AcDbEntity
8
1
62
256
6
ByLayer
370
18
48
1
60
0
100
AcDbEllipse
10
45.160946
20
7.149028
30
0
11
0.644525000000019
21
-1.11635004674832
31
0
210
0
220
0
230
1
40
0.99863
41
-1.57079632679492
42
-0.523598775598319
0
ELLIPSE
5
D2
100
AcDbEntity
8
1
62
256
6
ByLayer
370
18
48
1
60
0
100
AcDbEllipse
10
45.160946
20
7.149028
30
0
11
0.644525000000019
21
-1.11635004674832
31
0
210
0
220
0
230
1
40
0.99863
41
-0.523598775598319
42
0.523598775598283
0
ELLIPSE
5
D3
100
AcDbEntity
8
1
62
256
6
ByLayer
370
18
48
1
60
0
100
AcDbEllipse
10
45.160946
20
7.149028
30
0
11
0.644525000000019
21
-1.11635004674832
31
0
210
0
220
0
230
1
40
0.99863
41
2.61799387799148
42
-2.61799387799152
0
ELLIPSE
5
D4
100
AcDbEntity
8
1
62
256
6
ByLayer
370
18
48
1
60
0
100
AcDbEllipse
10
45.160946
20
7.149028
30
0
11
0.644525000000019
21
-1.11635004674832
31
0
210
0
220
0
230
1
40
0.99863
41
-2.61799387799152
42
-1.57079632679492
0
ELLIPSE
5
D5
100
AcDbEntity
8
1
62
256
6
ByLayer
370
18
48
1
60
0
100
AcDbEllipse
10
45.160946
20
7.149028
30
0
11
0.644525000000019
21
-1.11635004674832
31
0
210
0
220
0
230
1
40
0.99863
41
0.52359877559828
42
1.57079632679488
0
ELLIPSE
5
D6
100
AcDbEntity
8
1
62
256
6
ByLayer
370
18
48
1
60
0
100
AcDbEllipse
10
45.160946
20
7.149028
30
0
11
0.644525000000019
21
-1.11635004674832
31
0
210
0
220
0
230
1
40
0.99863
41
1.57079632679488
42
2.61799387799148
0
ELLIPSE
5
D7
100
AcDbEntity
8
1
62
256
6
ByLayer
370
18
48
1
60
0
100
AcDbEllipse
10
45.104291
20
7.116318
30
0
11
-0.497200000000016
21
0.861175661523237
31
0
210
0
220
0
230
1
40
0.99863
41
-2.09439510239323
42
-1.04719755119661
0
ELLIPSE
5
D8
100
AcDbEntity
8
1
62
256
6
ByLayer
370
18
48
1
60
0
100
AcDbEllipse
10
45.673967
20
8.104381
30
0
11
0.261650868635389
21
-0.151400146256763
31
0
210
0
220
0
230
1
40
0.486769
41
-1.57003868687128
42
-0.283154026298474
0
ELLIPSE
5
D9
100
AcDbEntity
8
1
62
256
6
ByLayer
370
18
48
1
60
0
100
AcDbEllipse
10
45.104291
20
7.116318
30
0
11
-0.497200000000016
21
0.861175661523237
31
0
210
0
220
0
230
1
40
0.99863
41
-1.04719755119661
42
0
0
ELLIPSE
5
DA
100
AcDbEntity
8
1
62
256
6
ByLayer
370
18
48
1
60
0
100
AcDbEllipse
10
46.244817
20
7.11564
30
0
11
0.000290938479672151
21
-0.302296372293249
31
0
210
0
220
0
230
1
40
0.486769
41
-2.85843862729375
42
-1.57155396673571
0
ELLIPSE
5
DB
100
AcDbEntity
8
1
62
256
6
ByLayer
370
18
48
1
60
0
100
AcDbEllipse
10
45.675141
20
6.127576
30
0
11
0.261527176329429
21
0.150992785654847
31
0
210
0
220
0
230
1
40
0.487772
41
1.5707963267949
42
2.85768098735499
0
ELLIPSE
5
DC
100
AcDbEntity
8
1
62
256
6
ByLayer
370
18
48
1
60
0
100
AcDbEllipse
10
45.673967
20
8.104381
30
0
11
0.261650868638367
21
-0.151400146260265
31
0
210
0
220
0
230
1
40
0.486769
41
-2.85692334741775
42
-1.57003868685979
0
ELLIPSE
5
DD
100
AcDbEntity
8
1
62
256
6
ByLayer
370
18
48
1
60
0
100
AcDbEllipse
10
44.533441
20
8.105059
30
0
11
0.261527176329788
21
0.150992785653479
31
0
210
0
220
0
230
1
40
0.487772
41
-2.85768098735513
42
-1.5707963267949
0
ELLIPSE
5
DE
100
AcDbEntity
8
1
62
256
6
ByLayer
370
18
48
1
60
0
100
AcDbEllipse
10
46.244817
20
7.11564
30
0
11
0.00029093847846834
21
-0.302296372293924
31
0
210
0
220
0
230
1
40
0.486769
41
-1.57155396672708
42
-0.284669306171307
0
ELLIPSE
5
DF
100
AcDbEntity
8
1
62
256
6
ByLayer
370
18
48
1
60
0
100
AcDbEllipse
10
45.160946
20
7.149028
30
0
11
-0.700000000000022
21
1.2124355652982
31
0
210
0
220
0
230
1
40
0.99863
41
0
42
6.28318530717959
0
ELLIPSE
5
E0
100
AcDbEntity
8
1
62
256
6
ByLayer
370
18
48
1
60
0
100
AcDbEllipse
10
45.149054
20
7.142162
30
0
11
-1.05000000000003
21
1.8186533479473
31
0
210
0
220
0
230
1
40
0.99863
41
0
42
6.28318530717959
0
ELLIPSE
5
E1
100
AcDbEntity
8
1
62
256
6
ByLayer
370
18
48
1
60
0
100
AcDbEllipse
10
45.117239
20
7.123793
30
0
11
-1.0751892705181
21
1.86228244429018
31
0
210
0
220
0
230
1
40
0.99863
41
0
42
6.28318530717959
0
ELLIPSE
5
E2
100
AcDbEntity
8
1
62
256
6
ByLayer
370
18
48
1
60
0
100
AcDbEllipse
10
45.129985
20
7.131152
30
0
11
-1.13087760071257
21
1.95873746157568
31
0
210
0
220
0
230
1
40
0.99863
41
0
42
6.28318530717959
0
ELLIPSE
5
E3
100
AcDbEntity
8
1
62
256
6
ByLayer
370
18
48
1
60
0
100
AcDbEllipse
10
45.159984
20
7.148472
30
0
11
1.15401962695659
21
-1.99882062682042
31
0
210
0
220
0
230
1
40
0.99863
41
0
42
6.28318530717959
0
ELLIPSE
5
E4
100
AcDbEntity
8
1
62
256
6
ByLayer
370
18
48
1
60
0
100
AcDbEllipse
10
46.09172
20
7.68641
30
0
11
0.151200000000002
21
-0.261886082104417
31
0
210
0
220
0
230
1
40
0.486436
41
0.160895641953311
42
2.86392282944667
0
ELLIPSE
5
E5
100
AcDbEntity
8
1
62
256
6
ByLayer
370
18
48
1
60
0
100
AcDbEllipse
10
45.104291
20
7.116318
30
0
11
0.497200000000015
21
-0.861175661523237
31
0
210
0
220
0
230
1
40
0.99863
41
3.14159265358978
42
-2.26345196431712
0
ELLIPSE
5
E6
100
AcDbEntity
8
1
62
256
6
ByLayer
370
18
48
1
60
0
100
AcDbEllipse
10
45.104291
20
7.116318
30
0
11
-0.497200000000016
21
0.861175661523237
31
0
210
0
220
0
230
1
40
0.99863
41
1.18426624691087
42
1.93689007024818
0
ELLIPSE
5
E7
100
AcDbEntity
8
1
62
256
6
ByLayer
370
18
48
1
60
0
100
AcDbEllipse
10
45.115622
20
7.12286
30
0
11
-1.05000000000003
21
1.8186533479473
31
0
210
0
220
0
230
1
40
0.99863
41
1.04779113512379
42
-3.14152273310872
0
ELLIPSE
5
E8
100
AcDbEntity
8
1
62
256
6
ByLayer
370
18
48
1
60
0
100
AcDbEllipse
10
45.115622
20
7.12286
30
0
11
-1.05000000000003
21
1.8186533479473
31
0
210
0
220
0
230
1
40
0.99863
41
0
42
1.04779100957544
0
ELLIPSE
5
E9
100
AcDbEntity
8
1
62
256
6
ByLayer
370
18
48
1
60
0
100
AcDbEllipse
10
45.104291
20
7.116318
30
0
11
-0.497200000000016
21
0.861175661523237
31
0
210
0
220
0
230
1
40
0.99863
41
-3.06411663121394
42
-2.09439510239323
0
ELLIPSE
5
EA
100
AcDbEntity
8
1
62
256
6
ByLayer
370
18
48
1
60
0
100
AcDbEllipse
10
45.104291
20
7.116318
30
0
11
-0.497200000000016
21
0.861175661523237
31
0
210
0
220
0
230
1
40
0.99863
41
2.25600717496099
42
3.14159265358978
0
ELLIPSE
5
EB
100
AcDbEntity
8
1
62
256
6
ByLayer
370
18
48
1
60
0
100
AcDbEllipse
10
46.092398
20
6.545052
30
0
11
0.150792337369788
21
0.26176251654076
31
0
210
0
220
0
230
1
40
0.487437
41
-2.52868257474963
42
0.160113734513462
0
ELLIPSE
5
EC
100
AcDbEntity
8
1
62
256
6
ByLayer
370
18
48
1
60
0
100
AcDbEllipse
10
45.103613
20
8.257677
30
0
11
0.30208915776774
21
-0.000291263412111155
31
0
210
0
220
0
230
1
40
0.487437
41
-0.160113734513282
42
2.48555348910746
0
ELLIPSE
5
ED
100
AcDbEntity
8
1
62
256
6
ByLayer
370
18
48
1
60
0
100
AcDbEllipse
10
45.104968
20
5.974959
30
0
11
0.302089157767738
21
-0.000291263412110885
31
0
210
0
220
0
230
1
40
0.487437
41
-0.656040483037705
42
0.161632389081574
0
ELLIPSE
5
EE
100
AcDbEntity
8
1
62
256
6
ByLayer
370
18
48
1
60
0
100
AcDbEllipse
10
44.116184
20
7.687584
30
0
11
0.150792337369781
21
0.261762516540765
31
0
210
0
220
0
230
1
40
0.487437
41
-0.161632389081796
42
0.61291143897768
0
ELLIPSE
5
EF
100
AcDbEntity
8
1
62
256
6
ByLayer
370
13
48
1
60
0
100
AcDbEllipse
10
43.432483
20
1E-06
30
0
11
187.754264030071
21
-0.223603234164614
31
0
210
0
220
0
230
1
40
0.045355
41
1.59769168287414
42
1.61958722290564
0
ELLIPSE
5
F0
100
AcDbEntity
8
1
62
256
6
ByLayer
370
13
48
1
60
0
100
AcDbEllipse
10
51.153518
20
1.680852
30
0
11
2.62828632456262
21
1.95295437604487
31
0
210
0
220
0
230
1
40
0.161435
41
-3.04137940100825
42
-2.0140982765615
0
ELLIPSE
5
F1
100
AcDbEntity
8
1
62
256
6
ByLayer
370
13
48
1
60
0
100
AcDbEllipse
10
80.854005
20
22.616069
30
0
11
41.7507792864895
21
30.9507394984218
31
0
210
0
220
0
230
1
40
0.109507
41
2.89115681163163
42
2.89414070051616
0
ELLIPSE
5
F2
100
AcDbEntity
8
1
62
256
6
ByLayer
370
13
48
1
60
0
100
AcDbEllipse
10
43.312157
20
0
30
0
11
4.93930108784096
21
-8.51333922321644
31
0
210
0
220
0
230
1
40
0.060484
41
3.01746272559265
42
3.1071585552885
0
ELLIPSE
5
F3
100
AcDbEntity
8
1
62
256
6
ByLayer
370
13
48
1
60
0
100
AcDbEllipse
10
42.608383
20
-1.940333
30
0
11
4.89773367640689
21
4.79326046285403
31
0
210
0
220
0
230
1
40
0.209896
41
-2.42761183973529
42
-2.03519566610682
0
ELLIPSE
5
F4
100
AcDbEntity
8
1
62
256
6
ByLayer
370
13
48
1
60
0
100
AcDbEllipse
10
39.627505
20
9.150446
30
0
11
-0.625000000000019
21
1.08253175473054
31
0
210
0
220
0
230
1
40
0.848048
41
2.07889037058292
42
2.25412085928726
0
ELLIPSE
5
F5
100
AcDbEntity
8
1
62
256
6
ByLayer
370
13
48
1
60
0
100
AcDbEllipse
10
43.218903
20
2.448217
30
0
11
-0.750000000000023
21
1.29903810567664
31
0
210
0
220
0
230
1
40
0.99863
41
0.785398163397449
42
1.26919222710806
0
ELLIPSE
5
F6
100
AcDbEntity
8
1
62
256
6
ByLayer
370
13
48
1
60
0
100
AcDbEllipse
10
49.55
20
1.108668
30
0
11
0.707106782486978
21
-0.707106782486979
31
0
210
0
220
0
230
1
40
1
41
-0.101848919146224
42
0.0794287426066471
0
ELLIPSE
5
F7
100
AcDbEntity
8
1
62
256
6
ByLayer
370
13
48
1
60
0
100
AcDbEllipse
10
45.1244
20
13.627928
30
0
11
6.00000000000019
21
-10.3923048454132
31
0
210
0
220
0
230
1
40
0.99863
41
-1.65361823119112
42
-0.808894249803418
0
ELLIPSE
5
F8
100
AcDbEntity
8
1
62
256
6
ByLayer
370
13
48
1
60
0
100
AcDbEllipse
10
39.627505
20
9.150446
30
0
11
-0.625000000000019
21
1.08253175473054
31
0
210
0
220
0
230
1
40
0.997564
41
1.80816066469702
42
2.5338982743946
0
ELLIPSE
5
F9
100
AcDbEntity
8
1
62
256
6
ByLayer
370
13
48
1
60
0
100
AcDbEllipse
10
39.6451
20
9.160605
30
0
11
-0.625000000000019
21
1.08253175473054
31
0
210
0
220
0
230
1
40
0.848048
41
2.09947899458691
42
2.2309319303741
0
ELLIPSE
5
FA
100
AcDbEntity
8
1
62
256
6
ByLayer
370
13
48
1
60
0
100
AcDbEllipse
10
49.772326
20
0
30
0
11
10.9823031499922
21
8.33064300547191
31
0
210
0
220
0
230
1
40
0.162032
41
2.77022855176146
42
-3.01482175090914
0
ELLIPSE
5
FB
100
AcDbEntity
8
1
62
256
6
ByLayer
370
13
48
1
60
0
100
AcDbEllipse
10
50.338938
20
5.36504
30
0
11
0.000594039336762458
21
0.999999823558618
31
0
210
0
220
0
230
1
40
0.045324
41
2.30613788363191
42
2.75302672771414
0
ELLIPSE
5
FC
100
AcDbEntity
8
1
62
256
6
ByLayer
370
13
48
1
60
0
100
AcDbEllipse
10
43.114657
20
2.388031
30
0
11
-1.43440102572895
21
0.43874103681755
31
0
210
0
220
0
230
1
40
0.67997
41
-0.655892770209617
42
-0.315432775153764
0
ELLIPSE
5
FD
100
AcDbEntity
8
1
62
256
6
ByLayer
370
13
48
1
60
0
100
AcDbEllipse
10
50.452249
20
5.43046
30
0
11
0.500000000000016
21
-0.86602540378443
31
0
210
0
220
0
230
1
40
0.99863
41
-1.19078714756576
42
-0.523598775598309
0
ELLIPSE
5
FE
100
AcDbEntity
8
1
62
256
6
ByLayer
370
13
48
1
60
0
100
AcDbEllipse
10
41.255387
20
6.048853
30
0
11
0.500000000000016
21
-0.86602540378443
31
0
210
0
220
0
230
1
40
0.99863
41
-2.52623725672556
42
-0.620296604669477
0
ELLIPSE
5
FF
100
AcDbEntity
8
1
62
256
6
ByLayer
370
13
48
1
60
0
100
AcDbEllipse
10
39.51757
20
9.086975
30
0
11
1.08916666576001
21
0.628830667638708
31
0
210
0
220
0
230
1
40
0.993908
41
3.14159265358979
42
-2.06414177433623
0
ELLIPSE
5
100
100
AcDbEntity
8
1
62
256
6
ByLayer
370
13
48
1
60
0
100
AcDbEllipse
10
43.114657
20
2.388031
30
0
11
-0.750000000000023
21
1.29903810567664
31
0
210
0
220
0
230
1
40
0.99863
41
-3.05327534510594
42
-2.82525138243735
0
ELLIPSE
5
101
100
AcDbEntity
8
1
62
256
6
ByLayer
370
13
48
1
60
0
100
AcDbEllipse
10
45.22217
20
1.684375
30
0
11
0.00118807867352491
21
1.99999964711723
31
0
210
0
220
0
230
1
40
0.045324
41
1.59699422132639
42
2.46714062669541
0
ELLIPSE
5
102
100
AcDbEntity
8
1
62
256
6
ByLayer
370
13
48
1
60
0
100
AcDbEllipse
10
45.1244
20
13.627928
30
0
11
6.00000000000019
21
-10.3923048454132
31
0
210
0
220
0
230
1
40
0.99863
41
-0.565526053366448
42
-0.523598775598297
0
POINT
5
70
100
AcDbEntity
8
81
62
256
6
ByLayer
370
18
48
1
60
0
100
AcDbPoint
10
51
20
6
30
0
39
0
210
0
220
0
230
1
50
360
0
POINT
5
72
100
AcDbEntity
8
80
62
256
6
ByLayer
370
18
48
1
60
0
100
AcDbPoint
10
0
20
0
30
0
39
0
210
0
220
0
230
1
50
360
0
POINT
5
74
100
AcDbEntity
8
1
62
256
6
ByLayer
370
18
48
1
60
1
100
AcDbPoint
10
51
20
-6
30
0
39
0
210
0
220
0
230
1
50
360
0
POINT
5
76
100
AcDbEntity
8
1
62
256
6
ByLayer
370
18
48
1
60
1
100
AcDbPoint
10
51
20
6
30
0
39
0
210
0
220
0
230
1
50
360
0
POINT
5
77
100
AcDbEntity
8
1
62
256
6
ByLayer
370
18
48
1
60
1
100
AcDbPoint
10
51
20
-6
30
0
39
0
210
0
220
0
230
1
50
360
0
POINT
5
78
100
AcDbEntity
8
1
62
256
6
ByLayer
370
18
48
1
60
1
100
AcDbPoint
10
0
20
0
30
0
39
0
210
0
220
0
230
1
50
360
0
POINT
5
79
100
AcDbEntity
8
1
62
256
6
ByLayer
370
18
48
1
60
1
100
AcDbPoint
10
-49
20
8
30
0
39
0
210
0
220
0
230
1
50
360
0
POINT
5
7A
100
AcDbEntity
8
1
62
256
6
ByLayer
370
18
48
1
60
1
100
AcDbPoint
10
51
20
6
30
0
39
0
210
0
220
0
230
1
50
360
0
POINT
5
7B
100
AcDbEntity
8
1
62
256
6
ByLayer
370
18
48
1
60
1
100
AcDbPoint
10
-49
20
8
30
0
39
0
210
0
220
0
230
1
50
360
0
POINT
5
7C
100
AcDbEntity
8
1
62
256
6
ByLayer
370
18
48
1
60
1
100
AcDbPoint
10
46.5
20
12.99
30
0
39
0
210
0
220
0
230
1
50
360
0
POINT
5
7D
100
AcDbEntity
8
1
62
256
6
ByLayer
370
18
48
1
60
1
100
AcDbPoint
10
46.5
20
-12.99
30
0
39
0
210
0
220
0
230
1
50
360
0
POINT
5
7E
100
AcDbEntity
8
1
62
256
6
ByLayer
370
18
48
1
60
1
100
AcDbPoint
10
46.5
20
12.99
30
0
39
0
210
0
220
0
230
1
50
360
0
POINT
5
7F
100
AcDbEntity
8
1
62
256
6
ByLayer
370
18
48
1
60
1
100
AcDbPoint
10
-49
20
8
30
0
39
0
210
0
220
0
230
1
50
360
0
POINT
5
80
100
AcDbEntity
8
1
62
256
6
ByLayer
370
18
48
1
60
1
100
AcDbPoint
10
-49
20
-8
30
0
39
0
210
0
220
0
230
1
50
360
0
SPLINE
5
103
100
AcDbEntity
8
1
62
256
6
ByLayer
370
18
48
1
60
0
100
AcDbSpline
70
4
71
3
72
8
73
4
40
0
40
0
40
0
40
0
40
1
40
1
40
1
40
1
41
1
10
44.8586467881835
20
8.2649868720608
30
0
41
1
10
44.8583756338612
20
8.25822674761289
30
0
41
1
10
44.8581045492875
20
8.25146561788267
30
0
41
1
10
44.8578335382011
20
8.24470343179453
30
0
0
SPLINE
5
104
100
AcDbEntity
8
1
62
256
6
ByLayer
370
18
48
1
60
0
100
AcDbSpline
70
4
71
3
72
8
73
4
40
0
40
0
40
0
40
0
40
1
40
1
40
1
40
1
41
1
10
46.2741272527572
20
6.84590394387513
30
0
41
1
10
46.2682444369814
20
6.84923511194427
30
0
41
1
10
46.2623608024531
20
6.85256687249753
30
0
41
1
10
46.2564763076731
20
6.85589925580939
30
0
0
SPLINE
5
105
100
AcDbEntity
8
1
62
256
6
ByLayer
370
18
48
1
60
0
100
AcDbSpline
70
4
71
3
72
8
73
4
40
0
40
0
40
0
40
0
40
1
40
1
40
1
40
1
41
1
10
45.4563509723795
20
6.02908784171635
30
0
41
1
10
45.4562865295529
20
6.03565420905994
30
0
41
1
10
45.4562221892036
20
6.04222168112062
30
0
41
1
10
45.4561579567369
20
6.04879031425315
30
0
0
SPLINE
5
106
100
AcDbEntity
8
1
62
256
6
ByLayer
370
18
48
1
60
0
100
AcDbSpline
70
4
71
3
72
16
73
12
40
0
40
0
40
0
40
0
40
0.125
40
0.125
40
0.25
40
0.25
40
0.5
40
0.5
40
0.75
40
0.75
40
1
40
1
40
1
40
1
41
1
10
45.9762455145202
20
6.32924909557144
30
0
41
1
10
45.9863255181223
20
6.31853068148681
30
0
41
1
10
45.9993529207863
20
6.31079851089899
30
0
41
1
10
46.0288286759072
20
6.30365842681991
30
0
41
1
10
46.0450319139387
20
6.30422990090071
30
0
41
1
10
46.0921795452393
20
6.31454897372168
30
0
41
1
10
46.1216547819112
20
6.3316528397529
30
0
41
1
10
46.1744179387452
20
6.37211808148913
30
0
41
1
10
46.1981450975488
20
6.39605213596889
30
0
41
1
10
46.2408321634847
20
6.44748400337588
30
0
41
1
10
46.2598445432924
20
6.47511904285147
30
0
41
1
10
46.2765312837153
20
6.50406101624299
30
0
0
SPLINE
5
107
100
AcDbEntity
8
1
62
256
6
ByLayer
370
18
48
1
60
0
100
AcDbSpline
70
4
71
3
72
8
73
4
40
0
40
0
40
0
40
0
40
1
40
1
40
1
40
1
41
1
10
45.9752751606592
20
7.96385345904736
30
0
41
1
10
45.9692889891356
20
7.96052138122076
30
0
41
1
10
45.9633019824951
20
7.95718884087856
30
0
41
1
10
45.9573140984052
20
7.95385581458007
30
0
0
SPLINE
5
108
100
AcDbEntity
8
1
62
256
6
ByLayer
370
18
48
1
60
0
100
AcDbSpline
70
4
71
3
72
8
73
4
40
0
40
0
40
0
40
0
40
1
40
1
40
1
40
1
41
1
10
46.2561317699464
20
7.43628842527127
30
0
41
1
10
46.2620121974373
20
7.43980757185878
30
0
41
1
10
46.2678917653531
20
7.44332620153099
30
0
41
1
10
46.27377051516
20
7.44684433922853
30
0
0
SPLINE
5
109
100
AcDbEntity
8
1
62
256
6
ByLayer
370
18
48
1
60
0
100
AcDbSpline
70
4
71
3
72
8
73
4
40
0
40
0
40
0
40
0
40
1
40
1
40
1
40
1
41
1
10
45.9582729149822
20
6.3386865205602
30
0
41
1
10
45.9642646454629
20
6.33554013000168
30
0
41
1
10
45.9702554978544
20
6.33239433126394
30
0
41
1
10
45.9762455145202
20
6.32924909557144
30
0
0
SPLINE
5
10A
100
AcDbEntity
8
1
62
256
6
ByLayer
370
18
48
1
60
0
100
AcDbSpline
70
4
71
3
72
16
73
12
40
0
40
0
40
0
40
0
40
0.125
40
0.125
40
0.25
40
0.25
40
0.5
40
0.5
40
0.75
40
0.75
40
1
40
1
40
1
40
1
41
1
10
44.8599738796416
20
6.02944211323148
30
0
41
1
10
44.8557479246143
20
6.01579978991856
30
0
41
1
10
44.8555830932633
20
6.00109195686827
30
0
41
1
10
44.8641715643811
20
5.9727664077609
30
0
41
1
10
44.8727842212068
20
5.9593468764119
30
0
41
1
10
44.9053365014924
20
5.92446051313519
30
0
41
1
10
44.9349064830056
20
5.90777651803049
30
0
41
1
10
44.9963619825807
20
5.88271216289459
30
0
41
1
10
45.028963188681
20
5.8742332266159
30
0
41
1
10
45.0948613223459
20
5.86308605674154
30
0
41
1
10
45.1283033015036
20
5.86043916093846
30
0
41
1
10
45.1617111559078
20
5.86041931535527
30
0
0
SPLINE
5
10B
100
AcDbEntity
8
1
62
256
6
ByLayer
370
18
48
1
60
0
100
AcDbSpline
70
4
71
3
72
18
73
14
40
0
40
0
40
0
40
0
40
0.25
40
0.25
40
0.5
40
0.5
40
0.625
40
0.625
40
0.75
40
0.75
40
0.875
40
0.875
40
1
40
1
40
1
40
1
41
1
10
45.1617111559078
20
5.86041931535527
30
0
41
1
10
45.1951031458355
20
5.86039947919622
30
0
41
1
10
45.2284319321012
20
5.86300045435061
30
0
41
1
10
45.2940095385857
20
5.8740648024563
30
0
41
1
10
45.3262730971861
20
5.88247079695543
30
0
41
1
10
45.371818462208
20
5.90123831870929
30
0
41
1
10
45.3864222904214
20
5.90850542238263
30
0
41
1
10
45.413511154111
20
5.9256284057511
30
0
41
1
10
45.4262498384214
20
5.9356781253768
30
0
41
1
10
45.4469691983591
20
5.95884365387667
30
0
41
1
10
45.4550104339386
20
5.97216895611174
30
0
41
1
10
45.4623276297137
20
6.00073509287606
30
0
41
1
10
45.4613594310205
20
6.01543372750024
30
0
41
1
10
45.4563509723795
20
6.02908784171635
30
0
0
SPLINE
5
10C
100
AcDbEntity
8
1
62
256
6
ByLayer
370
18
48
1
60
0
100
AcDbSpline
70
4
71
3
72
8
73
4
40
0
40
0
40
0
40
0
40
1
40
1
40
1
40
1
41
1
10
45.4548546024332
20
8.24434877773493
30
0
41
1
10
45.4549109212199
20
8.25111109135875
30
0
41
1
10
45.4549673492057
20
8.25787234860348
30
0
41
1
10
45.4550238809214
20
8.26463260054567
30
0
0
SPLINE
5
10D
100
AcDbEntity
8
1
62
256
6
ByLayer
370
18
48
1
60
0
100
AcDbSpline
70
4
71
3
72
8
73
4
40
0
40
0
40
0
40
0
40
1
40
1
40
1
40
1
41
1
10
44.0408705078059
20
7.44817076990199
30
0
41
1
10
44.0464177264327
20
7.44464584472857
30
0
41
1
10
44.0519659360381
20
7.44112042650576
30
0
41
1
10
44.057515187265
20
7.4375944902383
30
0
0
SPLINE
5
10E
100
AcDbEntity
8
1
62
256
6
ByLayer
370
18
48
1
60
0
100
AcDbSpline
70
4
71
3
72
18
73
14
40
0
40
0
40
0
40
0
40
0.25
40
0.25
40
0.5
40
0.5
40
0.625
40
0.625
40
0.75
40
0.75
40
0.875
40
0.875
40
1
40
1
40
1
40
1
41
1
10
46.2765312837153
20
6.50406101624299
30
0
41
1
10
46.2932101000615
20
6.53298924588285
30
0
41
1
10
46.3075542526774
20
6.56319603357088
30
0
41
1
10
46.3305415779605
20
6.62566214011935
30
0
41
1
10
46.3392437604218
20
6.65790432784397
30
0
41
1
10
46.3454218984629
20
6.70695464387623
30
0
41
1
10
46.3462971184395
20
6.72332245529302
30
0
41
1
10
46.3446867055882
20
6.75555549366368
30
0
41
1
10
46.3421564362457
20
6.77173964864252
30
0
41
1
10
46.3319727680204
20
6.80157599880258
30
0
41
1
10
46.3241631828688
20
6.81538858806812
30
0
41
1
10
46.3024100340508
20
6.83643665270515
30
0
41
1
10
46.2888253459088
20
6.84318224819646
30
0
41
1
10
46.2741272527572
20
6.84590394387513
30
0
0
SPLINE
5
10F
100
AcDbEntity
8
1
62
256
6
ByLayer
370
18
48
1
60
0
100
AcDbSpline
70
4
71
3
72
18
73
14
40
0
40
0
40
0
40
0
40
0.125
40
0.125
40
0.249999999999999
40
0.249999999999999
40
0.5
40
0.5
40
0.75
40
0.75
40
0.875
40
0.875
40
1
40
1
40
1
40
1
41
1
10
46.2564763076731
20
6.85589925580939
30
0
41
1
10
46.2348015861909
20
6.86817362818229
30
0
41
1
10
46.217845701571
20
6.8875389297713
30
0
41
1
10
46.1900304630262
20
6.93127046500311
30
0
41
1
10
46.179311361145
20
6.95575925948893
30
0
41
1
10
46.1542028480456
20
7.03249411584656
30
0
41
1
10
46.1466483905247
20
7.08813150782834
30
0
41
1
10
46.1465790466369
20
7.19980788728634
30
0
41
1
10
46.1540712945205
20
7.2558202993493
30
0
41
1
10
46.1790618078873
20
7.33356893115734
30
0
41
1
10
46.1897287770851
20
7.35847801218151
30
0
41
1
10
46.2175354941526
20
7.40335417919363
30
0
41
1
10
46.234483516453
20
7.42333301046096
30
0
41
1
10
46.2561317699464
20
7.43628842527127
30
0
0
SPLINE
5
110
100
AcDbEntity
8
1
62
256
6
ByLayer
370
18
48
1
60
0
100
AcDbSpline
70
4
71
3
72
16
73
12
40
0
40
0
40
0
40
0
40
0.125
40
0.125
40
0.25
40
0.25
40
0.5
40
0.5
40
0.75
40
0.75
40
1
40
1
40
1
40
1
41
1
10
46.27377051516
20
7.44684433922853
30
0
41
1
10
46.2884583378943
20
7.44998871780049
30
0
41
1
10
46.3020313244562
20
7.45718420784837
30
0
41
1
10
46.3235946504088
20
7.47875998587824
30
0
41
1
10
46.3314771025615
20
7.49291950307779
30
0
41
1
10
46.3467851490129
20
7.53853641407758
30
0
41
1
10
46.3469720015648
20
7.57248685554424
30
0
41
1
10
46.3386864924536
20
7.63825133792207
30
0
41
1
10
46.329934503244
20
7.67073479894992
30
0
41
1
10
46.3068819838516
20
7.73340537415615
30
0
41
1
10
46.2924874382262
20
7.76370754771213
30
0
41
1
10
46.2757663242449
20
7.79266936668682
30
0
0
SPLINE
5
111
100
AcDbEntity
8
1
62
256
6
ByLayer
370
18
48
1
60
0
100
AcDbSpline
70
4
71
3
72
18
73
14
40
0
40
0
40
0
40
0
40
0.25
40
0.25
40
0.5
40
0.5
40
0.625
40
0.625
40
0.75
40
0.75
40
0.875
40
0.875
40
1
40
1
40
1
40
1
41
1
10
46.2757663242449
20
7.79266936668682
30
0
41
1
10
46.2590531506634
20
7.82161743248571
30
0
41
1
10
46.240033549078
20
7.84920305627239
30
0
41
1
10
46.1972847939193
20
7.90051331973328
30
0
41
1
10
46.17360190898
20
7.92427935982025
30
0
41
1
10
46.1339292140683
20
7.95438579210656
30
0
41
1
10
46.1200782033632
20
7.96341583075184
30
0
41
1
10
46.0910709401087
20
7.97834806954214
30
0
41
1
10
46.0756129598858
20
7.98437337035421
30
0
41
1
10
46.0442364179388
20
7.9907708087037
30
0
41
1
10
46.0280960118747
20
7.99109090356419
30
0
41
1
10
45.9983439742555
20
7.9831792557849
30
0
41
1
10
45.9853468357346
20
7.97500644880765
30
0
41
1
10
45.9752751606592
20
7.96385345904736
30
0
0
SPLINE
5
112
100
AcDbEntity
8
1
62
256
6
ByLayer
370
18
48
1
60
0
100
AcDbSpline
70
4
71
3
72
16
73
12
40
0
40
0
40
0
40
0
40
0.125
40
0.125
40
0.25
40
0.25
40
0.5
40
0.5
40
0.75
40
0.75
40
1
40
1
40
1
40
1
41
1
10
44.3387522460429
20
7.96482561820568
30
0
41
1
10
44.3294359706503
20
7.97598497097769
30
0
41
1
10
44.31717007308
20
7.98415679673633
30
0
41
1
10
44.2890464018583
20
7.99207750681859
30
0
41
1
10
44.2734269057205
20
7.99184305627728
30
0
41
1
10
44.2277046652929
20
7.98234693326049
30
0
41
1
10
44.1987926234073
20
7.9655682278908
30
0
41
1
10
44.146843133833
20
7.92557275716592
30
0
41
1
10
44.1233600912034
20
7.90177964322498
30
0
41
1
10
44.080990121941
20
7.8505308516678
30
0
41
1
10
44.0620478495823
20
7.82293628874677
30
0
41
1
10
44.0453611091594
20
7.79399431535529
30
0
0
SPLINE
5
113
100
AcDbEntity
8
1
62
256
6
ByLayer
370
18
48
1
60
0
100
AcDbSpline
70
4
71
3
72
18
73
14
40
0
40
0
40
0
40
0
40
0.25
40
0.25
40
0.5
40
0.5
40
0.625
40
0.625
40
0.75
40
0.75
40
0.875
40
0.875
40
1
40
1
40
1
40
1
41
1
10
44.0453611091594
20
7.79399431535529
30
0
41
1
10
44.0286822928132
20
7.76506608571543
30
0
41
1
10
44.0142682043262
20
7.73481892053337
30
0
41
1
10
43.9909639311286
20
7.6721698240211
30
0
41
1
10
43.9820187310669
20
7.63978733001952
30
0
41
1
10
43.9752296571642
20
7.59038429000299
30
0
41
1
10
43.9741096322505
20
7.57387514038993
30
0
41
1
10
43.9751040716749
20
7.54128646959546
30
0
41
1
10
43.9772562878774
20
7.52488404553446
30
0
41
1
10
43.9864929285347
20
7.49450092875307
30
0
41
1
10
43.99372334302
20
7.48035395514748
30
0
41
1
10
44.0141131057864
20
7.45851873920648
30
0
41
1
10
44.0269364957837
20
7.45133360802646
30
0
41
1
10
44.0408705078059
20
7.44817076990199
30
0
0
SPLINE
5
114
100
AcDbEntity
8
1
62
256
6
ByLayer
370
18
48
1
60
0
100
AcDbSpline
70
4
71
3
72
8
73
4
40
0
40
0
40
0
40
0
40
1
40
1
40
1
40
1
41
1
10
44.8591368925049
20
6.04914496831276
30
0
41
1
10
44.8594158172712
20
6.04257620764454
30
0
41
1
10
44.8596948142084
20
6.03600860806938
30
0
41
1
10
44.8599738796416
20
6.02944211323148
30
0
0
SPLINE
5
115
100
AcDbEntity
8
1
62
256
6
ByLayer
370
18
48
1
60
0
100
AcDbSpline
70
4
71
3
72
8
73
4
40
0
40
0
40
0
40
0
40
1
40
1
40
1
40
1
41
1
10
44.3557185799559
20
7.95480722548749
30
0
41
1
10
44.3500620930283
20
7.95814716900162
30
0
41
1
10
44.3444066655597
20
7.9614866254089
30
0
41
1
10
44.3387522460429
20
7.96482561820568
30
0
0
SPLINE
5
116
100
AcDbEntity
8
1
62
256
6
ByLayer
370
18
48
1
60
0
100
AcDbSpline
70
4
71
3
72
18
73
14
40
0
40
0
40
0
40
0
40
0.125
40
0.125
40
0.250000000000001
40
0.250000000000001
40
0.500000000000001
40
0.500000000000001
40
0.75
40
0.75
40
0.875
40
0.875
40
1
40
1
40
1
40
1
41
1
10
45.9573140984052
20
7.95385581458007
30
0
41
1
10
45.9352585567202
20
7.94157907385491
30
0
41
1
10
45.9094930777297
20
7.93690277776562
30
0
41
1
10
45.8568265239973
20
7.93525223122919
30
0
41
1
10
45.8298922185896
20
7.93845928150228
30
0
41
1
10
45.7500101761744
20
7.95569231274609
30
0
41
1
10
45.6977693292426
20
7.97720696689009
30
0
41
1
10
45.6010862489942
20
8.03309999902081
30
0
41
1
10
45.5566708281225
20
8.06747109813017
30
0
41
1
10
45.5027980388026
20
8.12753698817531
30
0
41
1
10
45.4869550782968
20
8.14903492809017
30
0
41
1
10
45.4629349773646
20
8.19507216977297
30
0
41
1
10
45.4546472699944
20
8.21945394147392
30
0
41
1
10
45.4548546024332
20
8.24434877773493
30
0
0
SPLINE
5
117
100
AcDbEntity
8
1
62
256
6
ByLayer
370
18
48
1
60
0
100
AcDbSpline
70
4
71
3
72
16
73
12
40
0
40
0
40
0
40
0
40
0.125
40
0.125
40
0.25
40
0.25
40
0.5
40
0.5
40
0.75
40
0.75
40
1
40
1
40
1
40
1
41
1
10
45.4550238809214
20
8.26463260054567
30
0
41
1
10
45.4600135641583
20
8.27871586254597
30
0
41
1
10
45.460939900603
20
8.29386335076705
30
0
41
1
10
45.4537035133843
20
8.32296952587757
30
0
41
1
10
45.4456745984525
20
8.33672608076608
30
0
41
1
10
45.4145477090398
20
8.37243539384698
30
0
41
1
10
45.3855409223129
20
8.38944454961319
30
0
41
1
10
45.3248990899975
20
8.41497867576047
30
0
41
1
10
45.2925420000712
20
8.42359855257797
30
0
41
1
10
45.2269609630798
20
8.43492879830211
30
0
41
1
10
45.1935890913711
20
8.43761617065979
30
0
41
1
10
45.160181236967
20
8.43763601624298
30
0
0
SPLINE
5
118
100
AcDbEntity
8
1
62
256
6
ByLayer
370
18
48
1
60
0
100
AcDbSpline
70
4
71
3
72
18
73
14
40
0
40
0
40
0
40
0
40
0.25
40
0.25
40
0.5
40
0.5
40
0.625
40
0.625
40
0.75
40
0.75
40
0.875
40
0.875
40
1
40
1
40
1
40
1
41
1
10
45.160181236967
20
8.43763601624298
30
0
41
1
10
45.1267892470393
20
8.43765585240203
30
0
41
1
10
45.0933905249024
20
8.43501449975363
30
0
41
1
10
45.0274959705034
20
8.42376716168414
30
0
41
1
10
44.9949893943026
20
8.41522086090802
30
0
41
1
10
44.9488330934189
20
8.39610061516993
30
0
41
1
10
44.9339844602686
20
8.38869217330031
30
0
41
1
10
44.9062796231521
20
8.37121355750801
30
0
41
1
10
44.8931628857016
20
8.36094556880016
30
0
41
1
10
44.8714964981959
20
8.33723327367895
30
0
41
1
10
44.8628760919503
20
8.32357358710385
30
0
41
1
10
44.8541955101233
20
8.29422029903557
30
0
41
1
10
44.854402410672
20
8.27908212872268
30
0
41
1
10
44.8586467881835
20
8.2649868720608
30
0
0
SPLINE
5
119
100
AcDbEntity
8
1
62
256
6
ByLayer
370
18
48
1
60
0
100
AcDbSpline
70
4
71
3
72
18
73
14
40
0
40
0
40
0
40
0
40
0.125000000000001
40
0.125000000000001
40
0.250000000000001
40
0.250000000000001
40
0.5
40
0.5
40
0.75
40
0.75
40
0.875
40
0.875
40
1
40
1
40
1
40
1
41
1
10
45.4561579567369
20
6.04879031425315
30
0
41
1
10
45.4559213653426
20
6.07298496459939
30
0
41
1
10
45.4641857162021
20
6.09671176578976
30
0
41
1
10
45.4880968193064
20
6.14155101585865
30
0
41
1
10
45.503919907994
20
6.16260637246364
30
0
41
1
10
45.5577493033459
20
6.22156310157916
30
0
41
1
10
45.6021149251961
20
6.25550064417948
30
0
41
1
10
45.6987285371146
20
6.31128391966004
30
0
41
1
10
45.750957102249
20
6.33311050222451
30
0
41
1
10
45.830763599468
20
6.35133779760454
30
0
41
1
10
45.8576649123936
20
6.3549749039224
30
0
41
1
10
45.9104335135349
20
6.35435756800209
30
0
41
1
10
45.936214909759
20
6.35026966830003
30
0
41
1
10
45.9582729149822
20
6.3386865205602
30
0
0
SPLINE
5
11A
100
AcDbEntity
8
1
62
256
6
ByLayer
370
18
48
1
60
0
100
AcDbSpline
70
4
71
3
72
18
73
14
40
0
40
0
40
0
40
0
40
0.125000000000001
40
0.125000000000001
40
0.250000000000001
40
0.250000000000001
40
0.500000000000001
40
0.500000000000001
40
0.75
40
0.75
40
0.875
40
0.875
40
1
40
1
40
1
40
1
41
1
10
44.8578335382011
20
8.24470343179453
30
0
41
1
10
44.8568353064011
20
8.21979585594462
30
0
41
1
10
44.8474804685196
20
8.19543946177845
30
0
41
1
10
44.8216889412486
20
8.1495145483108
30
0
41
1
10
44.8050816228833
20
8.12800641649034
30
0
41
1
10
44.7493639596036
20
8.06795949537829
30
0
41
1
10
44.7043568026319
20
8.03365156230296
30
0
41
1
10
44.6077429418293
20
7.977868143129
30
0
41
1
10
44.5561561694531
20
7.95641209978632
30
0
41
1
10
44.4782360612986
20
7.93927391164044
30
0
41
1
10
44.4521175148168
20
7.9360887357397
30
0
41
1
10
44.4012324799589
20
7.93779354916077
30
0
41
1
10
44.3765424168419
20
7.94251153032593
30
0
41
1
10
44.3557185799559
20
7.95480722548749
30
0
0
SPLINE
5
11B
100
AcDbEntity
8
1
62
256
6
ByLayer
370
18
48
1
60
0
100
AcDbSpline
70
4
71
3
72
16
73
12
40
0
40
0
40
0
40
0
40
0.124999999999999
40
0.124999999999999
40
0.249999999999998
40
0.249999999999998
40
0.499999999999998
40
0.499999999999998
40
0.749999999999999
40
0.749999999999999
40
1
40
1
40
1
40
1
41
1
10
44.3397225999039
20
6.33022125472976
30
0
41
1
10
44.3304193050238
20
6.31951435508896
30
0
41
1
10
44.3181628396625
20
6.31179720411598
30
0
41
1
10
44.2900480887051
20
6.30469133106897
30
0
41
1
10
44.2744281029223
20
6.30528170939985
30
0
41
1
10
44.2286940668016
20
6.31565595759469
30
0
41
1
10
44.1997618905322
20
6.33279451993286
30
0
41
1
10
44.1477645999415
20
6.37332199350678
30
0
41
1
10
44.1242532082674
20
6.39728410954868
30
0
41
1
10
44.0818222544386
20
6.44876654041659
30
0
41
1
10
44.0628471826111
20
6.47642414593676
30
0
41
1
10
44.0461260686299
20
6.50538596491143
30
0
0
SPLINE
5
11C
100
AcDbEntity
8
1
62
256
6
ByLayer
370
18
48
1
60
0
100
AcDbSpline
70
4
71
3
72
8
73
4
40
0
40
0
40
0
40
0
40
1
40
1
40
1
40
1
41
1
10
44.041227245403
20
6.84723037454862
30
0
41
1
10
44.0467703980611
20
6.85055475514184
30
0
41
1
10
44.0523145410539
20
6.85387972714452
30
0
41
1
10
44.0578597249917
20
6.85720532077642
30
0
0
SPLINE
5
11D
100
AcDbEntity
8
1
62
256
6
ByLayer
370
18
48
1
60
0
100
AcDbSpline
70
4
71
3
72
16
73
12
40
0
40
0
40
0
40
0
40
0.25
40
0.25
40
0.5
40
0.5
40
0.749999999999999
40
0.749999999999999
40
0.875
40
0.875
40
1
40
1
40
1
40
1
41
1
10
44.0461260686299
20
6.50538596491143
30
0
41
1
10
44.0294069750892
20
6.53434428438035
30
0
41
1
10
44.0149526463131
20
6.56457927426007
30
0
41
1
10
43.9915697691065
20
6.62709663026226
30
0
41
1
10
43.982586191558
20
6.65936144470626
30
0
41
1
10
43.9734659420401
20
6.72479684320933
30
0
41
1
10
43.9730241587163
20
6.75809844299116
30
0
41
1
10
43.9870084234772
20
6.80324929787201
30
0
41
1
10
43.9943188558353
20
6.81701102907783
30
0
41
1
10
44.0144309985081
20
6.83771312852804
30
0
41
1
10
44.0273082521983
20
6.84452792511348
30
0
41
1
10
44.041227245403
20
6.84723037454862
30
0
0
SPLINE
5
11E
100
AcDbEntity
8
1
62
256
6
ByLayer
370
18
48
1
60
0
100
AcDbSpline
70
4
71
3
72
18
73
14
40
0
40
0
40
0
40
0
40
0.125
40
0.125
40
0.25
40
0.25
40
0.499999999999999
40
0.499999999999999
40
0.749999999999999
40
0.749999999999999
40
0.874999999999999
40
0.874999999999999
40
1
40
1
40
1
40
1
41
1
10
44.8591368925049
20
6.04914496831276
30
0
41
1
10
44.8581035538955
20
6.07348039791739
30
0
41
1
10
44.8485482807349
20
6.09744322736773
30
0
41
1
10
44.8227799869878
20
6.14206328802231
30
0
41
1
10
44.8060548273609
20
6.16323721467697
30
0
41
1
10
44.7505664782916
20
6.22190582217948
30
0
41
1
10
44.7057643533907
20
6.25579299579266
30
0
41
1
10
44.609014636191
20
6.31180434179132
30
0
41
1
10
44.5573468197948
20
6.33374371874271
30
0
41
1
10
44.4793205455083
20
6.35211844080192
30
0
41
1
10
44.4531695707803
20
6.35580156284081
30
0
41
1
10
44.402225128969
20
6.35526306554152
30
0
41
1
10
44.3775098588127
20
6.35120826918291
30
0
41
1
10
44.3566773965329
20
6.33963793146762
30
0
0
SPLINE
5
11F
100
AcDbEntity
8
1
62
256
6
ByLayer
370
18
48
1
60
0
100
AcDbSpline
70
4
71
3
72
8
73
4
40
0
40
0
40
0
40
0
40
1
40
1
40
1
40
1
41
1
10
44.3566773965329
20
6.33963793146762
30
0
41
1
10
44.3510247559962
20
6.33649845812474
30
0
41
1
10
44.3453731742785
20
6.33335957545208
30
0
41
1
10
44.3397225999039
20
6.33022125472976
30
0
0
SPLINE
5
120
100
AcDbEntity
8
1
62
256
6
ByLayer
370
18
48
1
60
0
100
AcDbSpline
70
4
71
3
72
20
73
16
40
0
40
0
40
0
40
0
40
0.125
40
0.125
40
0.25
40
0.25
40
0.5
40
0.5
40
0.625
40
0.625
40
0.75
40
0.75
40
0.875
40
0.875
40
1
40
1
40
1
40
1
41
1
10
44.0578597249917
20
6.85720532077642
30
0
41
1
10
44.078305832899
20
6.86946739305674
30
0
41
1
10
44.0941597410089
20
6.88883972889971
30
0
41
1
10
44.1200564377383
20
6.93259694772158
30
0
41
1
10
44.1299759177966
20
6.95712806814012
30
0
41
1
10
44.1531301294305
20
7.03407724855145
30
0
41
1
10
44.159937970028
20
7.08981359142379
30
0
41
1
10
44.159817016235
20
7.17366831977273
30
0
41
1
10
44.1580064350158
20
7.20124658325526
30
0
41
1
10
44.1507385996202
20
7.25565440275841
30
0
41
1
10
44.1452154602475
20
7.28276660741514
30
0
41
1
10
44.1297851313499
20
7.33458709184345
30
0
41
1
10
44.1199469130346
20
7.35938615474311
30
0
41
1
10
44.0940026460929
20
7.40437421418571
30
0
41
1
10
44.0780344044338
20
7.42455679397324
30
0
41
1
10
44.057515187265
20
7.4375944902383
30
0
0
SPLINE
5
121
100
AcDbEntity
8
1
62
256
6
ByLayer
370
18
48
1
60
0
100
AcDbSpline
70
4
71
3
72
10
73
6
40
0
40
0
40
0
40
0
40
0.375000000000405
40
0.750000000000811
40
1
40
1
40
1
40
1
41
1
10
42.7048240908407
20
5.73098490698334
30
0
41
1
10
42.8003608485062
20
5.56551038871336
30
0
41
1
10
43.019066796849
20
5.25051851307319
30
0
41
1
10
43.3746372157768
20
4.8866508342079
30
0
41
1
10
43.6238362303691
20
4.69441362046467
30
0
41
1
10
43.7270430627026
20
4.62363777147291
30
0
0
SPLINE
5
122
100
AcDbEntity
8
1
62
256
6
ByLayer
370
18
48
1
60
0
100
AcDbSpline
70
4
71
3
72
17
73
13
40
0
40
0
40
0
40
0
40
0.0625
40
0.125
40
0.25
40
0.375
40
0.5
40
0.625
40
0.75
40
0.875
40
0.9375
40
1
40
1
40
1
40
1
41
1
10
39.4091460285402
20
8.10061631574115
30
0
41
1
10
39.3960560591798
20
8.12328880774282
30
0
41
1
10
39.3721012424618
20
8.16991826879317
30
0
41
1
10
39.3335469190852
20
8.26741534682577
30
0
41
1
10
39.3036310753864
20
8.39548355121616
30
0
41
1
10
39.2983784057917
20
8.55318639604968
30
0
41
1
10
39.3239706261106
20
8.70884802039254
30
0
41
1
10
39.3794245214696
20
8.85648601177076
30
0
41
1
10
39.4626079106977
20
8.99042841952505
30
0
41
1
10
39.5523751315632
20
9.08633929214875
30
0
41
1
10
39.6343787779193
20
9.15144472664772
30
0
41
1
10
39.6783754452544
20
9.17981642265815
30
0
41
1
10
39.7010168653939
20
9.1928884526705
30
0
0
SPLINE
5
123
100
AcDbEntity
8
1
62
256
6
ByLayer
370
18
48
1
60
0
100
AcDbSpline
70
4
71
3
72
8
73
4
40
0
40
0
40
0
40
0
40
1
40
1
40
1
40
1
41
1
10
39.7010168972408
20
9.19288843785836
30
0
41
1
10
40.7676511040579
20
9.80870998429103
30
0
41
1
10
41.8342853108463
20
10.4245315307072
30
0
41
1
10
42.9009195176917
20
11.0403530771562
30
0
0
SPLINE
5
124
100
AcDbEntity
8
1
62
256
6
ByLayer
370
18
48
1
60
0
100
AcDbSpline
70
4
71
3
72
8
73
4
40
0
40
0
40
0
40
0
40
1
40
1
40
1
40
1
41
1
10
47.1926929749927
20
12.5944492073265
30
0
41
1
10
46.99277054324
20
11.6207351182273
30
0
41
1
10
46.7928481114873
20
10.6470210291281
30
0
41
1
10
46.5929256797345
20
9.67330694002902
30
0
0
SPLINE
5
125
100
AcDbEntity
8
1
62
256
6
ByLayer
370
18
48
1
60
0
100
AcDbSpline
70
4
71
3
72
8
73
4
40
0
40
0
40
0
40
0
40
1
40
1
40
1
40
1
41
1
10
47.4009195176916
20
3.24612444309625
30
0
41
1
10
47.1270853795324
20
3.72739721072651
30
0
41
1
10
46.8532512413731
20
4.20866997835677
30
0
41
1
10
46.5794171032138
20
4.68994274598703
30
0
0
SPLINE
5
126
100
AcDbEntity
8
1
62
256
6
ByLayer
370
18
48
1
60
0
100
AcDbSpline
70
4
71
3
72
10
73
6
40
0
40
0
40
0
40
0
40
0.375000000000406
40
0.750000000000812
40
1
40
1
40
1
40
1
41
1
10
47.6151446515977
20
8.56595980451772
30
0
41
1
10
47.5196078939322
20
8.73143432278769
30
0
41
1
10
47.3009019455894
20
9.04642619842787
30
0
41
1
10
46.9453315266616
20
9.41029387729316
30
0
41
1
10
46.6961325120694
20
9.60253109103635
30
0
41
1
10
46.5929256797359
20
9.67330694002814
30
0
0
SPLINE
5
127
100
AcDbEntity
8
1
62
256
6
ByLayer
370
18
48
1
60
0
100
AcDbSpline
70
4
71
3
72
10
73
6
40
0
40
0
40
0
40
0
40
0.249999999999985
40
0.624999999999992
40
1
40
1
40
1
40
1
41
1
10
42.2569428266271
20
7.16992607259866
30
0
41
1
10
42.2666330936595
20
7.04515840945694
30
0
41
1
10
42.3085158970111
20
6.73322712534818
30
0
41
1
10
42.4458493410698
20
6.24336027029278
30
0
41
1
10
42.6092873331789
20
5.89645942524299
30
0
41
1
10
42.7048240908464
20
5.73098490697359
30
0
0
SPLINE
5
128
100
AcDbEntity
8
1
62
256
6
ByLayer
370
18
48
1
60
0
100
AcDbSpline
70
4
71
3
72
8
73
4
40
0
40
0
40
0
40
0
40
1
40
1
40
1
40
1
41
1
10
50.8926929749946
20
6.18586121931827
30
0
41
1
10
49.9494706219335
20
6.49958035917965
30
0
41
1
10
49.0062482688725
20
6.81329949904099
30
0
41
1
10
48.0630259158114
20
7.12701863890234
30
0
0
SPLINE
5
129
100
AcDbEntity
8
1
62
256
6
ByLayer
370
18
48
1
60
0
100
AcDbSpline
70
4
71
3
72
8
73
4
40
0
40
0
40
0
40
0
40
1
40
1
40
1
40
1
41
1
10
41.2591460603907
20
4.89632230692845
30
0
41
1
10
41.7410387372092
20
5.17454317361018
30
0
41
1
10
42.2229314140278
20
5.45276404029187
30
0
41
1
10
42.7048240908464
20
5.73098490697359
30
0
0
SPLINE
5
12A
100
AcDbEntity
8
1
62
256
6
ByLayer
370
18
48
1
60
0
100
AcDbSpline
70
4
71
3
72
8
73
4
40
0
40
0
40
0
40
0
40
1
40
1
40
1
40
1
41
1
10
39.4091460603888
20
8.10061630093418
30
0
41
1
10
40.3584116491349
20
7.79038622482233
30
0
41
1
10
41.307677237881
20
7.48015614871051
30
0
41
1
10
42.2569428266271
20
7.16992607259868
30
0
0
SPLINE
5
12B
100
AcDbEntity
8
1
62
256
6
ByLayer
370
18
48
1
60
0
100
AcDbSpline
70
4
71
3
72
17
73
13
40
0
40
0
40
0
40
0
40
0.0625
40
0.125
40
0.25
40
0.375
40
0.5
40
0.625
40
0.75
40
0.875
40
0.9375
40
1
40
1
40
1
40
1
41
1
10
50.892693021624
20
6.18586121304506
30
0
41
1
10
50.9057829909844
20
6.16318872104338
30
0
41
1
10
50.9297378077024
20
6.11655925999301
30
0
41
1
10
50.968292131079
20
6.01906218196044
30
0
41
1
10
50.9982079747778
20
5.89099397757002
30
0
41
1
10
51.0034606443725
20
5.73329113273653
30
0
41
1
10
50.9778684240537
20
5.57762950839364
30
0
41
1
10
50.9224145286946
20
5.42999151701542
30
0
41
1
10
50.8392311394665
20
5.29604910926113
30
0
41
1
10
50.749463918601
20
5.20013823663746
30
0
41
1
10
50.6674602722449
20
5.13503280213845
30
0
41
1
10
50.6234636049098
20
5.10666110612803
30
0
41
1
10
50.6008221847703
20
5.09358907611568
30
0
0
SPLINE
5
12C
100
AcDbEntity
8
1
62
256
6
ByLayer
370
18
48
1
60
0
100
AcDbSpline
70
4
71
3
72
8
73
4
40
0
40
0
40
0
40
0
40
1
40
1
40
1
40
1
41
1
10
47.1926929749908
20
12.5944492073298
30
0
41
1
10
47.8093596416581
20
11.5263512093277
30
0
41
1
10
48.426026308309
20
10.4582532113544
30
0
41
1
10
49.0426929749927
20
9.39015521332402
30
0
0
SPLINE
5
12D
100
AcDbEntity
8
1
62
256
6
ByLayer
370
18
48
1
60
0
100
AcDbSpline
70
4
71
3
72
8
73
4
40
0
40
0
40
0
40
0
40
1
40
1
40
1
40
1
41
1
10
43.1091460603906
20
1.69202831292603
30
0
41
1
10
43.3151117278284
20
2.66923146577469
30
0
41
1
10
43.5210773952662
20
3.64643461862335
30
0
41
1
10
43.7270430627039
20
4.62363777147203
30
0
0
SPLINE
5
12E
100
AcDbEntity
8
1
62
256
6
ByLayer
370
18
48
1
60
0
100
AcDbSpline
70
4
71
3
72
8
73
4
40
0
40
0
40
0
40
0
40
1
40
1
40
1
40
1
41
1
10
41.2591460603907
20
4.89632230692845
30
0
41
1
10
40.6424793937069
20
5.96442030495885
30
0
41
1
10
40.0258127270561
20
7.03251830293215
30
0
41
1
10
39.4091460603888
20
8.10061630093418
30
0
0
SPLINE
5
12F
100
AcDbEntity
8
1
62
256
6
ByLayer
370
18
48
1
60
0
100
AcDbSpline
70
4
71
3
72
8
73
4
40
0
40
0
40
0
40
0
40
1
40
1
40
1
40
1
41
1
10
42.9009195176917
20
11.0403530771562
30
0
41
1
10
43.9675537245371
20
11.6561746236052
30
0
41
1
10
45.0341879313254
20
12.2719961700214
30
0
41
1
10
46.1008221381425
20
12.8878177164541
30
0
0
SPLINE
5
130
100
AcDbEntity
8
1
62
256
6
ByLayer
370
18
48
1
60
0
100
AcDbSpline
70
4
71
3
72
8
73
4
40
0
40
0
40
0
40
0
40
1
40
1
40
1
40
1
41
1
10
39.7010168972442
20
9.19288843786026
30
0
41
1
10
40.6790702096275
20
8.99039104499485
30
0
41
1
10
41.6571235220108
20
8.78789365212944
30
0
41
1
10
42.6351768343941
20
8.585396259264
30
0
0
SPLINE
5
131
100
AcDbEntity
8
1
62
256
6
ByLayer
370
18
48
1
60
0
100
AcDbSpline
70
4
71
3
72
8
73
4
40
0
40
0
40
0
40
0
40
1
40
1
40
1
40
1
41
1
10
47.6151446515977
20
8.56595980451769
30
0
41
1
10
48.0909940927294
20
8.84069160745315
30
0
41
1
10
48.5668435338611
20
9.11542341038859
30
0
41
1
10
49.0426929749927
20
9.39015521332402
30
0
0
SPLINE
5
132
100
AcDbEntity
8
1
62
256
6
ByLayer
370
18
48
1
60
0
100
AcDbSpline
70
4
71
3
72
8
73
4
40
0
40
0
40
0
40
0
40
1
40
1
40
1
40
1
41
1
10
44.2010168972408
20
1.39865980379841
30
0
41
1
10
44.5146756670069
20
2.34692751501262
30
0
41
1
10
44.828334436773
20
3.29519522622687
30
0
41
1
10
45.1419932065391
20
4.24346293744108
30
0
0
SPLINE
5
133
100
AcDbEntity
8
1
62
256
6
ByLayer
370
18
48
1
60
0
100
AcDbSpline
70
4
71
3
72
8
73
4
40
0
40
0
40
0
40
0
40
1
40
1
40
1
40
1
41
1
10
49.0426929749927
20
9.39015521332402
30
0
41
1
10
49.6593596416765
20
8.32205721529363
30
0
41
1
10
50.2760263083272
20
7.2539592173203
30
0
41
1
10
50.8926929749947
20
6.1858612193183
30
0
0
SPLINE
5
134
100
AcDbEntity
8
1
62
256
6
ByLayer
370
18
48
1
60
0
100
AcDbSpline
70
4
71
3
72
10
73
6
40
0
40
0
40
0
40
0
40
0.375000000000406
40
0.750000000000812
40
1
40
1
40
1
40
1
41
1
10
43.7405516392246
20
9.60700196551403
30
0
41
1
10
43.5753038980309
20
9.51159613765458
30
0
41
1
10
43.2607874679489
20
9.2931141234271
30
0
41
1
10
42.89759125307
20
8.93773170998651
30
0
41
1
10
42.7057816428681
20
8.68858989936541
30
0
41
1
10
42.635176834395
20
8.58539625926537
30
0
0
SPLINE
5
135
100
AcDbEntity
8
1
62
256
6
ByLayer
370
18
48
1
60
0
100
AcDbSpline
70
4
71
3
72
10
73
6
40
0
40
0
40
0
40
0
40
0.375000000000406
40
0.750000000000812
40
1
40
1
40
1
40
1
41
1
10
46.5794171032138
20
4.68994274598703
30
0
41
1
10
46.7446648444076
20
4.78534857384648
30
0
41
1
10
47.0591812744896
20
5.00383058807392
30
0
41
1
10
47.4223774893684
20
5.35921300151455
30
0
41
1
10
47.6141870995704
20
5.60835481213562
30
0
41
1
10
47.6847919080434
20
5.71154845223569
30
0
0
SPLINE
5
136
100
AcDbEntity
8
1
62
256
6
ByLayer
370
18
48
1
60
0
100
AcDbSpline
70
4
71
3
72
8
73
4
40
0
40
0
40
0
40
0
40
1
40
1
40
1
40
1
41
1
10
50.6008221381392
20
5.09358908239219
30
0
41
1
10
49.6288120614409
20
5.29957553900712
30
0
41
1
10
48.6568019847426
20
5.50556199562209
30
0
41
1
10
47.6847919080443
20
5.71154845223703
30
0
0
SPLINE
5
137
100
AcDbEntity
8
1
62
256
6
ByLayer
370
18
48
1
60
0
100
AcDbSpline
70
4
71
3
72
10
73
6
40
0
40
0
40
0
40
0
40
0.249999999999984
40
0.624999999999992
40
1
40
1
40
1
40
1
41
1
10
45.1779755358992
20
10.05348177406
30
0
41
1
10
45.0533048178262
20
10.0439330363452
30
0
41
1
10
44.7416368755802
20
10.0023919465375
30
0
41
1
10
44.2522685700461
20
9.86554600460511
30
0
41
1
10
43.905799380408
20
9.70240779336976
30
0
41
1
10
43.7405516392149
20
9.6070019655084
30
0
0
SPLINE
5
138
100
AcDbEntity
8
1
62
256
6
ByLayer
370
18
48
1
60
0
100
AcDbSpline
70
4
71
3
72
8
73
4
40
0
40
0
40
0
40
0
40
1
40
1
40
1
40
1
41
1
10
47.4009195176916
20
3.24612444309625
30
0
41
1
10
46.3342853108463
20
2.63030289664721
30
0
41
1
10
45.2676511040579
20
2.01448135023108
30
0
41
1
10
44.2010168972408
20
1.39865980379841
30
0
0
SPLINE
5
139
100
AcDbEntity
8
1
62
256
6
ByLayer
370
18
48
1
60
0
100
AcDbSpline
70
4
71
3
72
29
73
25
40
0
40
0
40
0
40
0
40
0.125000000000944
40
0.171875000000893
40
0.218750000000841
40
0.242187500000815
40
0.265625000000789
40
0.277343750000776
40
0.289062500000763
40
0.312500000000737
40
0.359375000000686
40
0.406250000000634
40
0.50000000000053
40
0.593750000000427
40
0.640625000000375
40
0.687500000000323
40
0.710937500000298
40
0.722656250000285
40
0.734375000000272
40
0.757812500000246
40
0.78125000000022
40
0.828125000000168
40
0.875000000000116
40
1
40
1
40
1
40
1
41
1
10
43.7270430627026
20
4.62363777147291
30
0
41
1
10
43.77864647887
20
4.58824984697657
30
0
41
1
10
43.8508136602084
20
4.54169486959299
30
0
41
1
10
43.9445477598073
20
4.48627151292547
30
0
41
1
10
43.9952824861833
20
4.45770865773338
30
0
41
1
10
44.0361746723751
20
4.43554732951895
30
0
41
1
10
44.0618476117324
20
4.42198030267926
30
0
41
1
10
44.0824421741767
20
4.41129147807479
30
0
41
1
10
44.1031637296356
20
4.40076518944306
30
0
41
1
10
44.1398862943259
20
4.38286498692852
30
0
41
1
10
44.193554060371
20
4.35883381310131
30
0
41
1
10
44.2817209748995
20
4.32400534331921
30
0
41
1
10
44.3955603830377
20
4.28775829094778
30
0
41
1
10
44.5122221346188
20
4.26207335112486
30
0
41
1
10
44.605943477887
20
4.24803132210084
30
0
41
1
10
44.664403819837
20
4.24193541103273
30
0
41
1
10
44.7051320982845
20
4.23902576659509
30
0
41
1
10
44.7283262248594
20
4.23775259847875
30
0
41
1
10
44.7514914139339
20
4.23668386744373
30
0
41
1
10
44.7804897663968
20
4.23556157865721
30
0
41
1
10
44.8269537543783
20
4.23425167734413
30
0
41
1
10
44.8851336272694
20
4.23355089403432
30
0
41
1
10
44.9939455115485
20
4.23455333266378
30
0
41
1
10
45.0796578475026
20
4.23868856858365
30
0
41
1
10
45.1419932065392
20
4.24346293744105
30
0
0
SPLINE
5
13A
100
AcDbEntity
8
1
62
256
6
ByLayer
370
18
48
1
60
0
100
AcDbSpline
70
4
71
3
72
29
73
25
40
0
40
0
40
0
40
0
40
0.125000000000946
40
0.171875000000894
40
0.218750000000842
40
0.242187500000817
40
0.265625000000791
40
0.277343750000778
40
0.289062500000765
40
0.312500000000739
40
0.359375000000687
40
0.406250000000635
40
0.500000000000532
40
0.593750000000428
40
0.640625000000376
40
0.687500000000324
40
0.710937500000298
40
0.722656250000285
40
0.734375000000272
40
0.757812500000247
40
0.781250000000221
40
0.828125000000169
40
0.875000000000117
40
1
40
1
40
1
40
1
41
1
10
42.635176834395
20
8.58539625926537
30
0
41
1
10
42.599874430158
20
8.53379943921468
30
0
41
1
10
42.5534370428225
20
8.46163799682103
30
0
41
1
10
42.4981629633631
20
8.367905360116
30
0
41
1
10
42.4696799231607
20
8.31716972039214
30
0
41
1
10
42.4475823367003
20
8.27627577625066
30
0
41
1
10
42.4340550910849
20
8.25060132192385
30
0
41
1
10
42.4233980453734
20
8.2300053131824
30
0
41
1
10
42.4129035751621
20
8.209282031188
30
0
41
1
10
42.3950592443996
20
8.17255551077011
30
0
41
1
10
42.3711082659263
20
8.11887943527398
30
0
41
1
10
42.3364083587571
20
8.03069334633631
30
0
41
1
10
42.3003213308953
20
7.91681882075716
30
0
41
1
10
42.2747925350626
20
7.80010746946579
30
0
41
1
10
42.2608714317179
20
7.70633845040191
30
0
41
1
10
42.2548491266182
20
7.64784520699993
30
0
41
1
10
42.251989846436
20
7.60709241846104
30
0
41
1
10
42.2507450971546
20
7.58388387790342
30
0
41
1
10
42.2497046105954
20
7.56070405191173
30
0
41
1
10
42.2486175308444
20
7.53168712083874
30
0
41
1
10
42.247363710485
20
7.48519278440975
30
0
41
1
10
42.2467325056576
20
7.42697379500606
30
0
41
1
10
42.2478634906946
20
7.31808600521953
30
0
41
1
10
42.2520976931109
20
7.23230990416954
30
0
41
1
10
42.2569428266271
20
7.16992607259866
30
0
0
SPLINE
5
13B
100
AcDbEntity
8
1
62
256
6
ByLayer
370
18
48
1
60
0
100
AcDbSpline
70
4
71
3
72
29
73
25
40
0
40
0
40
0
40
0
40
0.125000000000945
40
0.171875000000894
40
0.218750000000842
40
0.242187500000816
40
0.26562500000079
40
0.277343750000777
40
0.289062500000764
40
0.312500000000738
40
0.359375000000687
40
0.406250000000635
40
0.500000000000531
40
0.593750000000427
40
0.640625000000376
40
0.687500000000324
40
0.710937500000298
40
0.722656250000285
40
0.734375000000272
40
0.757812500000246
40
0.78125000000022
40
0.828125000000168
40
0.875000000000117
40
1
40
1
40
1
40
1
41
1
10
46.5929256797359
20
9.67330694002814
30
0
41
1
10
46.5413222635685
20
9.70869486452449
30
0
41
1
10
46.4691550822302
20
9.75524984190807
30
0
41
1
10
46.3754209826312
20
9.81067319857559
30
0
41
1
10
46.3246862562552
20
9.83923605376768
30
0
41
1
10
46.2837940700633
20
9.8613973819821
30
0
41
1
10
46.2581211307061
20
9.8749644088218
30
0
41
1
10
46.2375265682618
20
9.88565323342624
30
0
41
1
10
46.2168050128029
20
9.89617952205799
30
0
41
1
10
46.1800824481126
20
9.91407972457253
30
0
41
1
10
46.1264146820675
20
9.93811089839971
30
0
41
1
10
46.0382477675389
20
9.97293936818184
30
0
41
1
10
45.9244083594007
20
10.0091864205533
30
0
41
1
10
45.8077466078196
20
10.0348713603762
30
0
41
1
10
45.7140252645514
20
10.0489133894002
30
0
41
1
10
45.6555649226014
20
10.0550093004683
30
0
41
1
10
45.6148366441539
20
10.0579189449059
30
0
41
1
10
45.591642517579
20
10.0591921130223
30
0
41
1
10
45.5684773285045
20
10.0602608440573
30
0
41
1
10
45.5394789760416
20
10.0613831328438
30
0
41
1
10
45.4930149880602
20
10.0626930341569
30
0
41
1
10
45.434835115169
20
10.0633938174667
30
0
41
1
10
45.3260232308899
20
10.0623913788372
30
0
41
1
10
45.2403108949358
20
10.0582561429174
30
0
41
1
10
45.1779755358992
20
10.05348177406
30
0
0
SPLINE
5
13C
100
AcDbEntity
8
1
62
256
6
ByLayer
370
18
48
1
60
0
100
AcDbSpline
70
4
71
3
72
8
73
4
40
0
40
0
40
0
40
0
40
1
40
1
40
1
40
1
41
1
10
42.9009195176917
20
11.0403530771562
30
0
41
1
10
43.180796891536
20
10.5625693732755
30
0
41
1
10
43.4606742653803
20
10.0847856693948
30
0
41
1
10
43.7405516392246
20
9.60700196551403
30
0
0
SPLINE
5
13D
100
AcDbEntity
8
1
62
256
6
ByLayer
370
18
48
1
60
0
100
AcDbSpline
70
4
71
3
72
29
73
25
40
0
40
0
40
0
40
0
40
0.125000000000945
40
0.171875000000893
40
0.218750000000841
40
0.242187500000815
40
0.26562500000079
40
0.277343750000777
40
0.289062500000764
40
0.312500000000738
40
0.359375000000686
40
0.406250000000634
40
0.50000000000053
40
0.593750000000427
40
0.640625000000375
40
0.687500000000323
40
0.710937500000297
40
0.722656250000284
40
0.734375000000271
40
0.757812500000245
40
0.781250000000219
40
0.828125000000168
40
0.875000000000116
40
1
40
1
40
1
40
1
41
1
10
47.6847919080435
20
5.71154845223569
30
0
41
1
10
47.7200943122804
20
5.76314527228638
30
0
41
1
10
47.7665316996161
20
5.83530671468003
30
0
41
1
10
47.8218057790753
20
5.92903935138503
30
0
41
1
10
47.8502888192778
20
5.97977499110888
30
0
41
1
10
47.8723864057381
20
6.02066893525037
30
0
41
1
10
47.8859136513536
20
6.04634338957717
30
0
41
1
10
47.896570697065
20
6.06693939831862
30
0
41
1
10
47.9070651672764
20
6.08766268031306
30
0
41
1
10
47.9249094980389
20
6.12438920073095
30
0
41
1
10
47.9488604765122
20
6.17806527622704
30
0
41
1
10
47.9835603836813
20
6.26625136516472
30
0
41
1
10
48.0196474115432
20
6.38012589074387
30
0
41
1
10
48.0451762073759
20
6.49683724203527
30
0
41
1
10
48.0590973107206
20
6.59060626109914
30
0
41
1
10
48.0651196158203
20
6.64909950450112
30
0
41
1
10
48.0679788960024
20
6.68985229303999
30
0
41
1
10
48.0692236452839
20
6.71306083359761
30
0
41
1
10
48.0702641318432
20
6.7362406595893
30
0
41
1
10
48.0713512115941
20
6.76525759066232
30
0
41
1
10
48.0726050319535
20
6.81175192709131
30
0
41
1
10
48.0732362367809
20
6.86997091649499
30
0
41
1
10
48.0721052517439
20
6.97885870628153
30
0
41
1
10
48.0678710493276
20
7.06463480733152
30
0
41
1
10
48.0630259158114
20
7.12701863890237
30
0
0
SPLINE
5
13E
100
AcDbEntity
8
1
62
256
6
ByLayer
370
18
48
1
60
0
100
AcDbSpline
70
4
71
3
72
10
73
6
40
0
40
0
40
0
40
0
40
0.249999999999984
40
0.624999999999992
40
1
40
1
40
1
40
1
41
1
10
48.0630259158114
20
7.12701863890237
30
0
41
1
10
48.053335648779
20
7.25178630204411
30
0
41
1
10
48.0114528454274
20
7.56371758615288
30
0
41
1
10
47.8741194013687
20
8.05358444120827
30
0
41
1
10
47.7106814092595
20
8.40048528625806
30
0
41
1
10
47.6151446515921
20
8.56595980452747
30
0
0
SPLINE
5
13F
100
AcDbEntity
8
1
62
256
6
ByLayer
370
18
48
1
60
0
100
AcDbSpline
70
4
71
3
72
10
73
6
40
0
40
0
40
0
40
0
40
0.249999999999985
40
0.624999999999992
40
1
40
1
40
1
40
1
41
1
10
45.1419932065392
20
4.24346293744108
30
0
41
1
10
45.2666639246123
20
4.2530116751559
30
0
41
1
10
45.5783318668582
20
4.29455276496356
30
0
41
1
10
46.0677001723924
20
4.43139870689592
30
0
41
1
10
46.4141693620305
20
4.59453691813127
30
0
41
1
10
46.5794171032236
20
4.68994274599265
30
0
0
SPLINE
5
140
100
AcDbEntity
8
1
62
256
6
ByLayer
370
18
48
1
60
0
100
AcDbSpline
70
4
71
3
72
17
73
13
40
0
40
0
40
0
40
0
40
0.0625
40
0.125
40
0.25
40
0.375
40
0.5
40
0.625
40
0.75
40
0.875
40
0.9375
40
1
40
1
40
1
40
1
41
1
10
46.1008221560192
20
12.8878177599743
30
0
41
1
10
46.1234635761586
20
12.9008897899866
30
0
41
1
10
46.170032656638
20
12.924805674606
30
0
41
1
10
46.2674171824396
20
12.9632706764861
30
0
41
1
10
46.3953621603214
20
12.9930549586609
30
0
41
1
10
46.5529507777218
20
12.9981239356954
30
0
41
1
10
46.708536205998
20
12.9723292676834
30
0
41
1
10
46.8561389614706
20
12.9166619497606
30
0
41
1
10
46.9900884450868
20
12.8332623635633
30
0
41
1
10
47.0860402555722
20
12.743319593979
30
0
41
1
10
47.1511985017589
20
12.6611823164691
30
0
41
1
10
47.1796030235123
20
12.6171217428502
30
0
41
1
10
47.1926929928727
20
12.5944492508485
30
0
0
SPLINE
5
141
100
AcDbEntity
8
1
62
256
6
ByLayer
370
18
48
1
60
0
100
AcDbSpline
70
4
71
3
72
8
73
4
40
0
40
0
40
0
40
0
40
1
40
1
40
1
40
1
41
1
10
46.1008221381425
20
12.8878177164541
30
0
41
1
10
45.7932066040614
20
11.9430390689894
30
0
41
1
10
45.4855910699804
20
10.9982604215247
30
0
41
1
10
45.1779755358993
20
10.05348177406
30
0
0
SPLINE
5
142
100
AcDbEntity
8
1
62
256
6
ByLayer
370
18
48
1
60
0
100
AcDbSpline
70
4
71
3
72
8
73
4
40
0
40
0
40
0
40
0
40
1
40
1
40
1
40
1
41
1
10
43.1091460603926
20
1.6920283129227
30
0
41
1
10
42.4924793937251
20
2.76012631092473
30
0
41
1
10
41.8758127270744
20
3.82822430889806
30
0
41
1
10
41.2591460603907
20
4.89632230692845
30
0
0
SPLINE
5
143
100
AcDbEntity
8
1
62
256
6
ByLayer
370
18
48
1
60
0
100
AcDbSpline
70
4
71
3
72
17
73
13
40
0
40
0
40
0
40
0
40
0.0625
40
0.125
40
0.25
40
0.375
40
0.5
40
0.625
40
0.75
40
0.875
40
0.9375
40
1
40
1
40
1
40
1
41
1
10
44.201016894145
20
1.39865976881188
30
0
41
1
10
44.1783754740056
20
1.38558773879959
30
0
41
1
10
44.1318063935262
20
1.36167185418014
30
0
41
1
10
44.0344218677246
20
1.32320685230013
30
0
41
1
10
43.9064768898427
20
1.29342257012524
30
0
41
1
10
43.7488882724424
20
1.28835359309079
30
0
41
1
10
43.5933028441662
20
1.31414826110279
30
0
41
1
10
43.4457000886936
20
1.36981557902561
30
0
41
1
10
43.3117506050774
20
1.4532151652229
30
0
41
1
10
43.2157987945919
20
1.5431579348072
30
0
41
1
10
43.1506405484052
20
1.62529521231704
30
0
41
1
10
43.1222360266519
20
1.66935578593592
30
0
41
1
10
43.1091460572915
20
1.69202827793768
30
0
0
SPLINE
5
144
100
AcDbEntity
8
1
62
256
6
ByLayer
370
18
48
1
60
0
100
AcDbSpline
70
4
71
3
72
8
73
4
40
0
40
0
40
0
40
0
40
1
40
1
40
1
40
1
41
1
10
50.6008221381425
20
5.09358908239412
30
0
41
1
10
49.5341879313254
20
4.47776753596142
30
0
41
1
10
48.4675537245371
20
3.86194598954529
30
0
41
1
10
47.4009195176917
20
3.24612444309625
30
0
0
SPLINE
5
145
100
AcDbEntity
8
1
62
256
6
ByLayer
370
13
48
1
60
0
100
AcDbSpline
70
4
71
3
72
10
73
6
40
0
40
0
40
0
40
0
40
0.5
40
0.5
40
1
40
1
40
1
40
1
41
1
10
39.0488140824531
20
-5.17046416025724
30
0
41
1
10
39.1278867214869
20
-5.33784797341644
30
0
41
1
10
39.2104437515741
20
-5.50509382448405
30
0
41
1
10
39.377715955856
20
-5.84391045752122
30
0
41
1
10
39.4624483412823
20
-6.01547302709574
30
0
41
1
10
39.5448058072915
20
-6.19176931142823
30
0
0
SPLINE
5
146
100
AcDbEntity
8
1
62
256
6
ByLayer
370
13
48
1
60
0
100
AcDbSpline
70
4
71
3
72
8
73
4
40
0
40
0
40
0
40
0
40
1
40
1
40
1
40
1
41
1
10
39.3031976462267
20
8.07809482276861
30
0
41
1
10
39.3050603009326
20
8.07069688308715
30
0
41
1
10
39.3074092378968
20
8.06329423015629
30
0
41
1
10
39.3101949810891
20
8.05593654653094
30
0
0
SPLINE
5
147
100
AcDbEntity
8
1
62
256
6
ByLayer
370
13
48
1
60
0
100
AcDbSpline
70
4
71
3
72
8
73
4
40
0
40
0
40
0
40
0
40
1
40
1
40
1
40
1
41
1
10
50.3049268954259
20
4.69421949692884
30
0
41
1
10
50.3489209146602
20
4.63906592937863
30
0
41
1
10
50.392356897038
20
4.58970171794255
30
0
41
1
10
50.435138678069
20
4.54635833243219
30
0
0
SPLINE
5
148
100
AcDbEntity
8
1
62
256
6
ByLayer
370
13
48
1
60
0
100
AcDbSpline
70
4
71
3
72
8
73
4
40
0
40
0
40
0
40
0
40
1
40
1
40
1
40
1
41
1
10
39.3365527940573
20
1.82242321600412
30
0
41
1
10
39.2385585643808
20
1.57969152651719
30
0
41
1
10
39.1411779837137
20
1.33675528564203
30
0
41
1
10
39.0488140824537
20
1.09276820435883
30
0
0
SPLINE
5
149
100
AcDbEntity
8
1
62
256
6
ByLayer
370
13
48
1
60
0
100
AcDbSpline
70
4
71
3
72
12
73
8
40
0
40
0
40
0
40
0
40
0.25000000000001
40
0.25000000000001
40
0.50000000000002
40
0.50000000000002
40
1
40
1
40
1
40
1
41
1
10
38.7248527247297
20
8.28990200213818
30
0
41
1
10
38.7388656620254
20
8.27952478777368
30
0
41
1
10
38.7564174485249
20
8.26914435514672
30
0
41
1
10
38.7984358274634
20
8.24849288865082
30
0
41
1
10
38.8231740233159
20
8.23813084001455
30
0
41
1
10
38.9059609222995
20
8.20824671178255
30
0
41
1
10
38.9724562679649
20
8.18980768276538
30
0
41
1
10
39.048814082453
20
8.17379400214219
30
0
0
SPLINE
5
14A
100
AcDbEntity
8
1
62
256
6
ByLayer
370
13
48
1
60
0
100
AcDbSpline
70
4
71
3
72
8
73
4
40
0
40
0
40
0
40
0
40
1
40
1
40
1
40
1
41
1
10
39.0488140824535
20
1.95683485237075
30
0
41
1
10
39.1467383060843
20
1.90783052441759
30
0
41
1
10
39.2426933500683
20
1.86309049441556
30
0
41
1
10
39.3365527940575
20
1.8224232160041
30
0
0
SPLINE
5
14B
100
AcDbEntity
8
1
62
256
6
ByLayer
370
13
48
1
60
0
100
AcDbSpline
70
4
71
3
72
12
73
8
40
0
40
0
40
0
40
0
40
0.25
40
0.25
40
0.5
40
0.5
40
1
40
1
40
1
40
1
41
1
10
39.3101949810892
20
8.05593654653097
30
0
41
1
10
39.3179552949807
20
8.03544006480061
30
0
41
1
10
39.3281431971604
20
8.01674134674639
30
0
41
1
10
39.3537849037435
20
7.98300226392408
30
0
41
1
10
39.3693729848561
20
7.96793367682699
30
0
41
1
10
39.4229744217289
20
7.92989689139205
30
0
41
1
10
39.4682642105366
20
7.91323204819076
30
0
41
1
10
39.5240148904084
20
7.90573298596837
30
0
0
SPLINE
5
14C
100
AcDbEntity
8
1
62
256
6
ByLayer
370
13
48
1
60
0
100
AcDbSpline
70
4
71
3
72
8
73
4
40
0
40
0
40
0
40
0
40
1
40
1
40
1
40
1
41
1
10
39.0488140824531
20
8.17379400214219
30
0
41
1
10
39.0752894069224
20
8.16824162491284
30
0
41
1
10
39.102211330614
20
8.16384883966649
30
0
41
1
10
39.1295092513002
20
8.16070739035064
30
0
0
SPLINE
5
14D
100
AcDbEntity
8
1
62
256
6
ByLayer
370
13
48
1
60
0
100
AcDbSpline
70
4
71
3
72
12
73
8
40
0
40
0
40
0
40
0
40
0.499999999999996
40
0.499999999999996
40
0.749999999999998
40
0.749999999999998
40
1
40
1
40
1
40
1
41
1
10
45.3940885464876
20
0.10592287429435
30
0
41
1
10
44.6909982110354
20
0.125509045294479
30
0
41
1
10
43.9981243861654
20
0.200591789150053
30
0
41
1
10
42.9734483809372
20
0.392712467716933
30
0
41
1
10
42.634761373864
20
0.470049008565383
30
0
41
1
10
41.9677967427448
20
0.649538440091703
30
0
41
1
10
41.6388271109889
20
0.751811869333636
30
0
41
1
10
41.3142877704704
20
0.866385262843181
30
0
0
SPLINE
5
14E
100
AcDbEntity
8
1
62
256
6
ByLayer
370
13
48
1
60
0
100
AcDbSpline
70
4
71
3
72
30
73
26
40
0
40
0
40
0
40
0
40
0.0625000000000051
40
0.0625000000000051
40
0.12500000000001
40
0.12500000000001
40
0.25000000000002
40
0.25000000000002
40
0.312500000000025
40
0.312500000000025
40
0.375000000000031
40
0.375000000000031
40
0.500000000000031
40
0.500000000000031
40
0.562500000000027
40
0.562500000000027
40
0.625000000000024
40
0.625000000000024
40
0.750000000000016
40
0.750000000000016
40
0.875000000000008
40
0.875000000000008
40
0.937500000000004
40
0.937500000000004
40
1
40
1
40
1
40
1
41
1
10
34.2855476880177
20
8.51641582669203
30
0
41
1
10
34.214261540254
20
8.51634284799388
30
0
41
1
10
34.1430842900344
20
8.5161994803189
30
0
41
1
10
34.00095514681
20
8.51572390443152
30
0
41
1
10
33.9297257801915
20
8.5153901317149
30
0
41
1
10
33.7183033676927
20
8.51396626653059
30
0
41
1
10
33.5825578337861
20
8.51249647622427
30
0
41
1
10
33.38692941382
20
8.50859768860468
30
0
41
1
10
33.3230614250159
20
8.50700991049433
30
0
41
1
10
33.1981786071308
20
8.5030128078551
30
0
41
1
10
33.1367542109339
20
8.50058158062359
30
0
41
1
10
32.9607531032473
20
8.49174219937427
30
0
41
1
10
32.8544341121226
20
8.48386091294662
30
0
41
1
10
32.7124351653166
20
8.46725539821566
30
0
41
1
10
32.6680387773196
20
8.46091622657377
30
0
41
1
10
32.5856321795271
20
8.44620268595168
30
0
41
1
10
32.5481540044474
20
8.43789903803699
30
0
41
1
10
32.4489597038808
20
8.41023388995669
30
0
41
1
10
32.399363618929
20
8.38797652157811
30
0
41
1
10
32.3350628135266
20
8.33367982527284
30
0
41
1
10
32.3217741917313
20
8.30267144584423
30
0
41
1
10
32.3282021669186
20
8.25068467314708
30
0
41
1
10
32.3348145578244
20
8.23232078114671
30
0
41
1
10
32.356523837318
20
8.19422937438159
30
0
41
1
10
32.3715583434449
20
8.17452456464514
30
0
41
1
10
32.390561059039
20
8.15420559593244
30
0
0
SPLINE
5
14F
100
AcDbEntity
8
1
62
256
6
ByLayer
370
13
48
1
60
0
100
AcDbSpline
70
4
71
3
72
8
73
4
40
0
40
0
40
0
40
0
40
1
40
1
40
1
40
1
41
1
10
39.1295092513003
20
8.16070739035064
30
0
41
1
10
39.1422743059633
20
8.15923838570743
30
0
41
1
10
39.1549886706662
20
8.15797607308753
30
0
41
1
10
39.167646470495
20
8.15691353038198
30
0
0
SPLINE
5
150
100
AcDbEntity
8
1
62
256
6
ByLayer
370
13
48
1
60
0
100
AcDbSpline
70
4
71
3
72
8
73
4
40
0
40
0
40
0
40
0
40
1
40
1
40
1
40
1
41
1
10
39.5448058072914
20
-6.19176931142829
30
0
41
1
10
39.5517166099978
20
-6.20656273451334
30
0
41
1
10
39.5586806118544
20
-6.2213340054428
30
0
41
1
10
39.5656982030642
20
-6.23608336399198
30
0
0
SPLINE
5
151
100
AcDbEntity
8
1
62
256
6
ByLayer
370
13
48
1
60
0
100
AcDbSpline
70
4
71
3
72
12
73
8
40
0
40
0
40
0
40
0
40
0.499999999999994
40
0.499999999999994
40
0.749999999999997
40
0.749999999999997
40
1
40
1
40
1
40
1
41
1
10
41.3142877704703
20
0.866385262843124
30
0
41
1
10
40.9251172135903
20
1.00377566760727
30
0
41
1
10
40.5700235158245
20
1.15557979651896
30
0
41
1
10
40.0766202616149
20
1.39759002526358
30
0
41
1
10
39.9188124696327
20
1.48067736332638
30
0
41
1
10
39.6156314372014
20
1.65069308987322
30
0
41
1
10
39.4720632498264
20
1.73662185397887
30
0
41
1
10
39.3365527940575
20
1.8224232160041
30
0
0
SPLINE
5
152
100
AcDbEntity
8
1
62
256
6
ByLayer
370
13
48
1
60
0
100
AcDbSpline
70
4
71
3
72
8
73
4
40
0
40
0
40
0
40
0
40
1
40
1
40
1
40
1
41
1
10
39.167646470495
20
8.15691353038198
30
0
41
1
10
39.2096364835666
20
8.1533887328107
30
0
41
1
10
39.2523947346593
20
8.15288894838886
30
0
41
1
10
39.2956916738696
20
8.1558016756855
30
0
0
SPLINE
5
153
100
AcDbEntity
8
1
62
256
6
ByLayer
370
13
48
1
60
0
100
AcDbSpline
70
4
71
3
72
10
73
6
40
0
40
0
40
0
40
0
40
0.5
40
0.5
40
1
40
1
40
1
40
1
41
1
10
38.474613728253
20
8.48482423810864
30
0
41
1
10
38.501838747792
20
8.46644956922194
30
0
41
1
10
38.5341685176971
20
8.44072583312681
30
0
41
1
10
38.6147820707342
20
8.37541532236051
30
0
41
1
10
38.6628664069814
20
8.33580567624765
30
0
41
1
10
38.7248527247297
20
8.28990200213815
30
0
0
SPLINE
5
154
100
AcDbEntity
8
1
62
256
6
ByLayer
370
13
48
1
60
0
100
AcDbSpline
70
4
71
3
72
8
73
4
40
0
40
0
40
0
40
0
40
1
40
1
40
1
40
1
41
1
10
39.2956916738701
20
8.1558016756812
30
0
41
1
10
39.2946978606274
20
8.12770118734966
30
0
41
1
10
39.2972241942112
20
8.10181969113034
30
0
41
1
10
39.3031976462267
20
8.07809482276861
30
0
0
SPLINE
5
155
100
AcDbEntity
8
1
62
256
6
ByLayer
370
13
48
1
60
0
100
AcDbSpline
70
4
71
3
72
8
73
4
40
0
40
0
40
0
40
0
40
1
40
1
40
1
40
1
41
1
10
39.0488140824532
20
-7.11701625293784
30
0
41
1
10
39.2123271802802
20
-6.83637644632316
30
0
41
1
10
39.3833540336235
20
-6.55153938831265
30
0
41
1
10
39.5448058072915
20
-6.27205928290738
30
0
0
SPLINE
5
156
100
AcDbEntity
8
1
62
256
6
ByLayer
370
13
48
1
60
0
100
AcDbSpline
70
4
71
3
72
30
73
26
40
0
40
0
40
0
40
0
40
0.125000000000001
40
0.125000000000001
40
0.1875
40
0.1875
40
0.21875
40
0.21875
40
0.25
40
0.25
40
0.375
40
0.375
40
0.437500000000001
40
0.437500000000001
40
0.500000000000002
40
0.500000000000002
40
0.625000000000001
40
0.625000000000001
40
0.687500000000001
40
0.687500000000001
40
0.750000000000001
40
0.750000000000001
40
0.875000000000001
40
0.875000000000001
40
1
40
1
40
1
40
1
41
1
10
32.3905610590394
20
8.15420559593224
30
0
41
1
10
32.4924632624317
20
8.01716219564813
30
0
41
1
10
32.6118464730863
20
7.84583621669776
30
0
41
1
10
32.8233709235443
20
7.54392902907767
30
0
41
1
10
32.8993202748277
20
7.43577287187361
30
0
41
1
10
33.0224915311034
20
7.26284644127654
30
0
41
1
10
33.0650920212208
20
7.20342112765809
30
0
41
1
10
33.1535886301267
20
7.08109117847491
30
0
41
1
10
33.1995979509629
20
7.01803506132222
30
0
41
1
10
33.4362320957913
20
6.69725502663783
30
0
41
1
10
33.6474887861934
20
6.4218212103851
30
0
41
1
10
34.0021850979214
20
5.98943589658197
30
0
41
1
10
34.1267278400232
20
5.84208295980466
30
0
41
1
10
34.3893559881056
20
5.54228563033334
30
0
41
1
10
34.5280244008901
20
5.38925098608783
30
0
41
1
10
34.958882643122
20
4.9317152156612
30
0
41
1
10
35.2671046799355
20
4.62730079237514
30
0
41
1
10
35.7620431114381
20
4.17862834360812
30
0
41
1
10
35.9324590499438
20
4.03038178855263
30
0
41
1
10
36.2843865529081
20
3.73757090581006
30
0
41
1
10
36.4661224436857
20
3.59288291048651
30
0
41
1
10
37.0209055753005
20
3.1712587428519
30
0
41
1
10
37.4057693330012
20
2.90480521214155
30
0
41
1
10
38.2050661566482
20
2.40502533774071
30
0
41
1
10
38.619496359314
20
2.17167879721791
30
0
41
1
10
39.048814082453
20
1.95683485237177
30
0
0
SPLINE
5
157
100
AcDbEntity
8
1
62
256
6
ByLayer
370
13
48
1
60
0
100
AcDbSpline
70
4
71
3
72
8
73
4
40
0
40
0
40
0
40
0
40
1
40
1
40
1
40
1
41
1
10
39.2807967313823
20
-8.54585955568166
30
0
41
1
10
39.2029549461648
20
-8.52729517441824
30
0
41
1
10
39.125146412832
20
-8.50870082529138
30
0
41
1
10
39.0488140824531
20
-8.48877606590881
30
0
0
SPLINE
5
158
100
AcDbEntity
8
1
62
256
6
ByLayer
370
13
48
1
60
0
100
AcDbSpline
70
4
71
3
72
22
73
18
40
0
40
0
40
0
40
0
40
0.125
40
0.125
40
0.25
40
0.25
40
0.375
40
0.375
40
0.5
40
0.5
40
0.625
40
0.625
40
0.75
40
0.75
40
0.875
40
0.875
40
1
40
1
40
1
40
1
41
1
10
39.0488140824531
20
1.09276820435909
30
0
41
1
10
38.9486356141862
20
0.828138281343769
30
0
41
1
10
38.8671816766553
20
0.559159771823431
30
0
41
1
10
38.7322390273984
20
0.0146473636677911
30
0
41
1
10
38.6788090971097
20
-0.260899742610348
30
0
41
1
10
38.59472691075
20
-0.817384247997438
30
0
41
1
10
38.5640880574436
20
-1.09974570341745
30
0
41
1
10
38.5240603916031
20
-1.65540846418182
30
0
41
1
10
38.5143592018458
20
-1.93015146719412
30
0
41
1
10
38.514217114616
20
-2.4734592154623
30
0
41
1
10
38.5237761991102
20
-2.74208821482932
30
0
41
1
10
38.5639504528634
20
-3.27277162549726
30
0
41
1
10
38.5941929315934
20
-3.52981868411098
30
0
41
1
10
38.6776360929112
20
-4.02769765733905
30
0
41
1
10
38.7308117243635
20
-4.26852699573556
30
0
41
1
10
38.8661053890396
20
-4.7335592544282
30
0
41
1
10
38.9487058858702
20
-4.95855152047096
30
0
41
1
10
39.048814082453
20
-5.17046416025721
30
0
0
SPLINE
5
159
100
AcDbEntity
8
1
62
256
6
ByLayer
370
13
48
1
60
0
100
AcDbSpline
70
4
71
3
72
14
73
10
40
0
40
0
40
0
40
0
40
0.25
40
0.25
40
0.5
40
0.5
40
0.75
40
0.75
40
1
40
1
40
1
40
1
41
1
10
50.3109829765681
20
0.459896077143583
30
0
41
1
10
50.3468655956881
20
0.501984929232549
30
0
41
1
10
50.3793691300846
20
0.547109156723138
30
0
41
1
10
50.4374200452452
20
0.644246707479056
30
0
41
1
10
50.4630996358349
20
0.696755213514336
30
0
41
1
10
50.5049046598314
20
0.80604585495891
30
0
41
1
10
50.5212794209539
20
0.863080720704289
30
0
41
1
10
50.543878649973
20
0.982564723654349
30
0
41
1
10
50.5500000000002
20
1.04510239494712
30
0
41
1
10
50.5500000000002
20
1.1086679240772
30
0
0
SPLINE
5
15A
100
AcDbEntity
8
1
62
256
6
ByLayer
370
13
48
1
60
0
100
AcDbSpline
70
4
71
3
72
12
73
8
40
0
40
0
40
0
40
0
40
0.0724613070963157
40
0.0724613070963157
40
0.536230653548158
40
0.536230653548158
40
1
40
1
40
1
40
1
41
1
10
50.5298582654632
20
4.4252735460409
30
0
41
1
10
50.5286033622143
20
4.42753146357575
30
0
41
1
10
50.527280415258
20
4.42984738258016
30
0
41
1
10
50.5169681055663
20
4.44740744973109
30
0
41
1
10
50.5050928954749
20
4.46504939636407
30
0
41
1
10
50.4747063288948
20
4.50389072576712
30
0
41
1
10
50.4565199989329
20
4.52469633495119
30
0
41
1
10
50.435138678069
20
4.54635833243219
30
0
0
SPLINE
5
15B
100
AcDbEntity
8
1
62
256
6
ByLayer
370
13
48
1
60
0
100
AcDbSpline
70
4
71
3
72
10
73
6
40
0
40
0
40
0
40
0
40
0.109531369987123
40
0.109531369987123
40
1
40
1
40
1
40
1
41
1
10
50.1912813424654
20
4.8517855204536
30
0
41
1
10
50.1953570192216
20
4.845587491022
30
0
41
1
10
50.1994423781474
20
4.83943477229244
30
0
41
1
10
50.236830020156
20
4.78367419101275
30
0
41
1
10
50.2711488322791
20
4.73656572306774
30
0
41
1
10
50.3049268954265
20
4.69421949692293
30
0
0
SPLINE
5
15C
100
AcDbEntity
8
1
62
256
6
ByLayer
370
13
48
1
60
0
100
AcDbSpline
70
4
71
3
72
16
73
12
40
0
40
0
40
0
40
0
40
0.0607604840775959
40
0.0607604840775959
40
0.371123411142414
40
0.371123411142414
40
0.681486338207233
40
0.681486338207233
40
0.991849265272052
40
0.991849265272052
40
1
40
1
40
1
40
1
41
1
10
42.0849701158753
20
3.4579953871492
30
0
41
1
10
42.079729751269
20
3.45682863989737
30
0
41
1
10
42.0746188853181
20
3.45575243553401
30
0
41
1
10
42.0441892723405
20
3.44975623896136
30
0
41
1
10
42.0229471958431
20
3.44738615183832
30
0
41
1
10
41.9879256889554
20
3.44886713462591
30
0
41
1
10
41.9740461422855
20
3.45282173243149
30
0
41
1
10
41.9539232823113
20
3.46813452556333
30
0
41
1
10
41.947587524849
20
3.47938580168577
30
0
41
1
10
41.9443089360802
20
3.49509509350153
30
0
41
1
10
41.9442272602168
20
3.4955000084436
30
0
41
1
10
41.9441477962518
20
3.49590782588629
30
0
0
SPLINE
5
15D
100
AcDbEntity
8
1
62
256
6
ByLayer
370
13
48
1
60
0
100
AcDbSpline
70
4
71
3
72
8
73
4
40
0
40
0
40
0
40
0
40
1
40
1
40
1
40
1
41
1
10
39.2956916738697
20
8.15580167568598
30
0
41
1
10
39.3220377350088
20
8.14626328010431
30
0
41
1
10
39.3539647631131
20
8.13935322301586
30
0
41
1
10
39.3895282701142
20
8.13696361892798
30
0
0
SPLINE
5
15E
100
AcDbEntity
8
1
62
256
6
ByLayer
370
13
48
1
60
0
100
AcDbSpline
70
4
71
3
72
36
73
32
40
0
40
0
40
0
40
0
40
0.0061124303884901
40
0.0061124303884901
40
0.072371601695924
40
0.072371601695924
40
0.138630773003358
40
0.138630773003358
40
0.204889944310792
40
0.204889944310792
40
0.271149115618226
40
0.271149115618226
40
0.33740828692566
40
0.33740828692566
40
0.469926629540528
40
0.469926629540528
40
0.536185800847962
40
0.536185800847962
40
0.602444972155396
40
0.602444972155396
40
0.66870414346283
40
0.66870414346283
40
0.734963314770264
40
0.734963314770264
40
0.801222486077698
40
0.801222486077698
40
0.867481657385132
40
0.867481657385132
40
0.933740828692566
40
0.933740828692566
40
1
40
1
40
1
40
1
41
1
10
44.3703511836351
20
1.48705782546682
30
0
41
1
10
44.3660067381405
20
1.48183377994957
30
0
41
1
10
44.3616263613127
20
1.47663858515463
30
0
41
1
10
44.3093368717957
20
1.41546802352721
30
0
41
1
10
44.2568841351093
20
1.36262936332213
30
0
41
1
10
44.1465265742449
20
1.26680840186174
30
0
41
1
10
44.0883352244012
20
1.22340148023264
30
0
41
1
10
43.9657701790133
20
1.14532788391219
30
0
41
1
10
43.9009717738899
20
1.11053561000014
30
0
41
1
10
43.7684867999704
20
1.05159380335979
30
0
41
1
10
43.7004807703976
20
1.02716910913438
30
0
41
1
10
43.5607068592945
20
0.988294107119771
30
0
41
1
10
43.4883481111122
20
0.973782110448497
30
0
41
1
10
43.2693362546804
20
0.946670336093092
30
0
41
1
10
43.1228096945271
20
0.94999088519387
30
0
41
1
10
42.9018849780484
20
0.987956165581409
30
0
41
1
10
42.82949834581
20
1.00600542442945
30
0
41
1
10
42.6890641282146
20
1.05199401584272
30
0
41
1
10
42.6206924036038
20
1.07998846818057
30
0
41
1
10
42.4876718086554
20
1.14613754000322
30
0
41
1
10
42.4234662902862
20
1.18417400800678
30
0
41
1
10
42.3027394318922
20
1.26800168677036
30
0
41
1
10
42.245703761083
20
1.31403559925476
30
0
41
1
10
42.1382321710502
20
1.41454764004456
30
0
41
1
10
42.0877881723894
20
1.46919414107074
30
0
41
1
10
41.9966050971045
20
1.58383699086966
30
0
41
1
10
41.9554177409317
20
1.64420751150274
30
0
41
1
10
41.8819000510994
20
1.77131910805232
30
0
41
1
10
41.8493298605653
20
1.83875271576605
30
0
41
1
10
41.7952671872567
20
1.97667501410027
30
0
41
1
10
41.7736604856141
20
2.0470815835817
30
0
41
1
10
41.7574128099654
20
2.11893472272968
30
0
0
SPLINE
5
15F
100
AcDbEntity
8
1
62
256
6
ByLayer
370
13
48
1
60
0
100
AcDbSpline
70
4
71
3
72
24
73
20
40
0
40
0
40
0
40
0
40
0.0383439091976237
40
0.0383439091976237
40
0.198974609581024
40
0.198974609581024
40
0.359605309964423
40
0.359605309964423
40
0.520236010347823
40
0.520236010347823
40
0.600551360539523
40
0.600551360539523
40
0.680866710731222
40
0.680866710731222
40
0.761182060922922
40
0.761182060922922
40
0.841497411114622
40
0.841497411114622
40
1
40
1
40
1
40
1
41
1
10
34.9110291211072
20
5.00414032688113
30
0
41
1
10
34.9371248141438
20
4.99660802683405
30
0
41
1
10
34.9635229294612
20
4.988819582567
30
0
41
1
10
35.1019322172916
20
4.9470908180507
30
0
41
1
10
35.2193238010975
20
4.90867609323288
30
0
41
1
10
35.4550537573792
20
4.82237238618379
30
0
41
1
10
35.5739404697642
20
4.77449972792695
30
0
41
1
10
35.8103756876449
20
4.662286621481
30
0
41
1
10
35.9283582403726
20
4.59772117677571
30
0
41
1
10
36.0922981088522
20
4.48069085336849
30
0
41
1
10
36.145409358812
20
4.43767040076276
30
0
41
1
10
36.2431738837224
20
4.3443422695791
30
0
41
1
10
36.2878668202611
20
4.29409060030255
30
0
41
1
10
36.3676036304465
20
4.18534119254917
30
0
41
1
10
36.4023072361391
20
4.12695598270122
30
0
41
1
10
36.4592945543897
20
4.00833192833446
30
0
41
1
10
36.482223673587
20
3.9471795126544
30
0
41
1
10
36.5365835203714
20
3.76388137114387
30
0
41
1
10
36.5539768434273
20
3.64574258931194
30
0
41
1
10
36.5626621126605
20
3.53309539233081
30
0
0
LINE
5
81
100
AcDbEntity
8
1
62
256
6
ByLayer
370
18
48
1
60
0
100
AcDbLine
10
46.220562
20
7.416125
30
0
11
46.203427
21
7.405859
31
0
39
0
210
0
220
0
230
1
0
LINE
5
82
100
AcDbEntity
8
1
62
256
6
ByLayer
370
18
48
1
60
0
100
AcDbLine
10
45.403453
20
6.018361
30
0
11
45.456158
21
6.04879
31
0
39
0
210
0
220
0
230
1
0
LINE
5
83
100
AcDbEntity
8
1
62
256
6
ByLayer
370
18
48
1
60
0
100
AcDbLine
10
44.303014
20
7.924378
30
0
11
44.355719
21
7.954807
31
0
39
0
210
0
220
0
230
1
0
LINE
5
84
100
AcDbEntity
8
1
62
256
6
ByLayer
370
18
48
1
60
0
100
AcDbLine
10
45.403453
20
6.018361
30
0
11
45.403143
21
5.998368
31
0
39
0
210
0
220
0
230
1
0
LINE
5
85
100
AcDbEntity
8
1
62
256
6
ByLayer
370
18
48
1
60
0
100
AcDbLine
10
45.401816
20
8.233913
30
0
11
45.40215
21
8.21392
31
0
39
0
210
0
220
0
230
1
0
LINE
5
86
100
AcDbEntity
8
1
62
256
6
ByLayer
370
18
48
1
60
0
100
AcDbLine
10
46.203771
20
6.82547
30
0
11
46.220919
21
6.815184
31
0
39
0
210
0
220
0
230
1
0
LINE
5
87
100
AcDbEntity
8
1
62
256
6
ByLayer
370
18
48
1
60
0
100
AcDbLine
10
45.403143
20
5.998368
30
0
11
45.456351
21
6.029088
31
0
39
0
210
0
220
0
230
1
0
LINE
5
88
100
AcDbEntity
8
1
62
256
6
ByLayer
370
18
48
1
60
0
100
AcDbLine
10
44.285544
20
7.934106
30
0
11
44.303014
21
7.924378
31
0
39
0
210
0
220
0
230
1
0
LINE
5
89
100
AcDbEntity
8
1
62
256
6
ByLayer
370
18
48
1
60
0
100
AcDbLine
10
46.203427
20
7.405859
30
0
11
46.256132
21
7.436288
31
0
39
0
210
0
220
0
230
1
0
LINE
5
8A
100
AcDbEntity
8
1
62
256
6
ByLayer
370
18
48
1
60
0
100
AcDbLine
10
45.904609
20
7.923427
30
0
11
45.922067
21
7.933134
31
0
39
0
210
0
220
0
230
1
0
LINE
5
8B
100
AcDbEntity
8
1
62
256
6
ByLayer
370
18
48
1
60
0
100
AcDbLine
10
45.401816
20
8.233913
30
0
11
45.455024
21
8.264633
31
0
39
0
210
0
220
0
230
1
0
LINE
5
8C
100
AcDbEntity
8
1
62
256
6
ByLayer
370
18
48
1
60
0
100
AcDbLine
10
45.40215
20
8.21392
30
0
11
45.454855
21
8.244349
31
0
39
0
210
0
220
0
230
1
0
LINE
5
8D
100
AcDbEntity
8
1
62
256
6
ByLayer
370
18
48
1
60
0
100
AcDbLine
10
45.904609
20
7.923427
30
0
11
45.957314
21
7.953856
31
0
39
0
210
0
220
0
230
1
0
LINE
5
8E
100
AcDbEntity
8
1
62
256
6
ByLayer
370
18
48
1
60
0
100
AcDbLine
10
44.285544
20
7.934106
30
0
11
44.338752
21
7.964826
31
0
39
0
210
0
220
0
230
1
0
LINE
5
8F
100
AcDbEntity
8
1
62
256
6
ByLayer
370
18
48
1
60
0
100
AcDbLine
10
46.203771
20
6.82547
30
0
11
46.256476
21
6.855899
31
0
39
0
210
0
220
0
230
1
0
LINE
5
90
100
AcDbEntity
8
1
62
256
6
ByLayer
370
18
48
1
60
0
100
AcDbLine
10
46.220919
20
6.815184
30
0
11
46.274127
21
6.845904
31
0
39
0
210
0
220
0
230
1
0
LINE
5
91
100
AcDbEntity
8
1
62
256
6
ByLayer
370
18
48
1
60
0
100
AcDbLine
10
43.988019
20
6.816511
30
0
11
44.041227
21
6.84723
31
0
39
0
210
0
220
0
230
1
0
LINE
5
92
100
AcDbEntity
8
1
62
256
6
ByLayer
370
18
48
1
60
0
100
AcDbLine
10
44.286515
20
6.299502
30
0
11
44.339723
21
6.330221
31
0
39
0
210
0
220
0
230
1
0
LINE
5
93
100
AcDbEntity
8
1
62
256
6
ByLayer
370
18
48
1
60
0
100
AcDbLine
10
44.065673
20
8.941543
30
0
11
44.065622
21
8.941513
31
0
39
0
210
0
220
0
230
1
0
LINE
5
94
100
AcDbEntity
8
1
62
256
6
ByLayer
370
13
48
1
60
0
100
AcDbLine
10
45.394089
20
0.105923
30
0
11
47.688239
21
0.042014
31
0
39
0
210
0
220
0
230
1
0
LINE
5
95
100
AcDbEntity
8
1
62
256
6
ByLayer
370
13
48
1
60
0
100
AcDbLine
10
41.314288
20
-5.006302
30
0
11
47.688239
21
0.042014
31
0
39
0
210
0
220
0
230
1
0
LINE
5
96
100
AcDbEntity
8
1
62
256
6
ByLayer
370
13
48
1
60
0
100
AcDbLine
10
39.544806
20
-6.191769
30
0
11
39.544806
21
-6.272059
31
0
39
0
210
0
220
0
230
1
0
LINE
5
97
100
AcDbEntity
8
1
62
256
6
ByLayer
370
13
48
1
60
0
100
AcDbLine
10
45.131521
20
1.632039
30
0
11
50.55
21
1.62882
31
0
39
0
210
0
220
0
230
1
0
LINE
5
98
100
AcDbEntity
8
1
62
256
6
ByLayer
370
13
48
1
60
0
100
AcDbLine
10
50.452842
20
4.430802
30
0
11
50.55
21
4.430745
31
0
39
0
210
0
220
0
230
1
0
LINE
5
99
100
AcDbEntity
8
1
62
256
6
ByLayer
370
13
48
1
60
0
100
AcDbLine
10
39.048814
20
1.092768
30
0
11
39.048814
21
1.956835
31
0
39
0
210
0
220
0
230
1
0
LINE
5
9A
100
AcDbEntity
8
1
62
256
6
ByLayer
370
13
48
1
60
0
100
AcDbLine
10
41.314288
20
0.866385
30
0
11
41.314288
21
-5.006302
31
0
39
0
210
0
220
0
230
1
0
LINE
5
9B
100
AcDbEntity
8
1
62
256
6
ByLayer
370
13
48
1
60
0
100
AcDbLine
10
50.55
20
1.108668
30
0
11
50.55
21
1.62882
31
0
39
0
210
0
220
0
230
1
0
LINE
5
9C
100
AcDbEntity
8
1
62
256
6
ByLayer
370
13
48
1
60
0
100
AcDbLine
10
38.428403
20
8.458144
30
0
11
38.393512
21
8.518578
31
0
39
0
210
0
220
0
230
1
0
LINE
5
9D
100
AcDbEntity
8
1
62
256
6
ByLayer
370
13
48
1
60
0
100
AcDbLine
10
38.474614
20
8.484824
30
0
11
38.428403
21
8.458144
31
0
39
0
210
0
220
0
230
1
0
LINE
5
9E
100
AcDbEntity
8
1
62
256
6
ByLayer
370
13
48
1
60
0
100
AcDbLine
10
50.55
20
1.62882
30
0
11
50.55
21
4.430745
31
0
39
0
210
0
220
0
230
1
0
LINE
5
9F
100
AcDbEntity
8
1
62
256
6
ByLayer
370
13
48
1
60
0
100
AcDbLine
10
50.181549
20
0.333332
30
0
11
39.280797
21
-8.54586
31
0
39
0
210
0
220
0
230
1
0
LINE
5
A0
100
AcDbEntity
8
1
62
256
6
ByLayer
370
13
48
1
60
0
100
AcDbLine
10
48.569961
20
-0.304754
30
0
11
47.688239
21
0.042014
31
0
39
0
210
0
220
0
230
1
0
LINE
5
A1
100
AcDbEntity
8
1
62
256
6
ByLayer
370
13
48
1
60
0
100
AcDbLine
10
39.048814
20
-7.117016
30
0
11
39.048814
21
-5.170464
31
0
39
0
210
0
220
0
230
1
0
LINE
5
A2
100
AcDbEntity
8
1
62
256
6
ByLayer
370
13
48
1
60
0
100
AcDbLine
10
0
20
-7.99725
30
0
11
0
21
7.99725
31
0
39
0
210
0
220
0
230
1
0
LINE
5
A3
100
AcDbEntity
8
SK1
62
256
6
ByLayer
370
13
48
1
60
0
100
AcDbLine
10
0
20
-7.99725
30
0
11
0
21
7.99725
31
0
39
0
210
0
220
0
230
1
0
LINE
5
A5
100
AcDbEntity
8
1
62
256
6
ByLayer
370
13
48
1
60
0
100
AcDbLine
10
41.985382
20
3.638434
30
0
11
41.771273
21
2.837172
31
0
39
0
210
0
220
0
230
1
0
LINE
5
A6
100
AcDbEntity
8
SK1
62
256
6
ByLayer
370
13
48
1
60
0
100
AcDbLine
10
-49
20
6.99725
30
0
11
-49
21
-6.99725
31
0
39
0
210
0
220
0
230
1
0
LINE
5
A7
100
AcDbEntity
8
SK1
62
256
6
ByLayer
370
13
48
1
60
0
100
AcDbLine
10
-48
20
7.99725
30
0
11
-48
21
-7.99725
31
0
39
0
210
0
220
0
230
1
0
LINE
5
A8
100
AcDbEntity
8
SK1
62
256
6
ByLayer
370
13
48
1
60
0
100
AcDbLine
10
-48
20
7.99725
30
0
11
-48
21
0.833669
31
0
39
0
210
0
220
0
230
1
0
LINE
5
A9
100
AcDbEntity
8
1
62
256
6
ByLayer
370
13
48
1
60
0
100
AcDbLine
10
29.478671
20
7.99725
30
0
11
29.478671
21
-7.99725
31
0
39
0
210
0
220
0
230
1
0
LINE
5
AA
100
AcDbEntity
8
1
62
256
6
ByLayer
370
13
48
1
60
0
100
AcDbLine
10
29.478671
20
7.99725
30
0
11
29.478671
21
0.833669
31
0
39
0
210
0
220
0
230
1
0
LINE
5
AB
100
AcDbEntity
8
1
62
256
6
ByLayer
370
13
48
1
60
0
100
AcDbLine
10
39.048814
20
-8.488776
30
0
11
39.048814
21
-8.518579
31
0
39
0
210
0
220
0
230
1
0
LINE
5
AC
100
AcDbEntity
8
1
62
256
6
ByLayer
370
13
48
1
60
0
100
AcDbLine
10
29.853554
20
8.372133
30
0
11
29.853554
21
-8.372133
31
0
39
0
210
0
220
0
230
1
0
LINE
5
AD
100
AcDbEntity
8
1
62
256
6
ByLayer
370
13
48
1
60
0
100
AcDbLine
10
30.207107
20
-8.518579
30
0
11
30.207107
21
8.518579
31
0
39
0
210
0
220
0
230
1
0
LINE
5
AE
100
AcDbEntity
8
1
62
256
6
ByLayer
370
13
48
1
60
0
100
AcDbLine
10
30.207107
20
0.888015
30
0
11
30.207107
21
8.518579
31
0
39
0
210
0
220
0
230
1
0
LINE
5
AF
100
AcDbEntity
8
81
62
256
6
ByLayer
370
18
48
1
60
0
100
AcDbLine
10
51
20
6
30
0
11
56
21
6
31
0
39
0
210
0
220
0
230
1
0
LINE
5
B0
100
AcDbEntity
8
SK4
62
256
6
ByLayer
370
18
48
0.05
60
0
100
AcDbLine
10
-54
20
0
30
0
11
56
21
0
31
0
39
0
210
0
220
0
230
1
0
LINE
5
B2
100
AcDbEntity
8
80
62
256
6
ByLayer
370
18
48
1
60
0
100
AcDbLine
10
0
20
0
30
0
11
-5
21
0
31
0
39
0
210
0
220
0
230
1
0
LINE
5
B3
100
AcDbEntity
8
1
62
256
6
ByLayer
370
13
48
1
60
0
100
AcDbLine
10
0
20
-7.99725
30
0
11
29.478671
21
-7.99725
31
0
39
0
210
0
220
0
230
1
0
LINE
5
B4
100
AcDbEntity
8
1
62
256
6
ByLayer
370
13
48
1
60
0
100
AcDbLine
10
29.478671
20
7.99725
30
0
11
0
21
7.99725
31
0
39
0
210
0
220
0
230
1
0
LINE
5
B5
100
AcDbEntity
8
1
62
256
6
ByLayer
370
18
48
1
60
0
100
AcDbLine
10
46.165622
20
5.304206
30
0
11
46.199054
21
5.323508
31
0
39
0
210
0
220
0
230
1
0
LINE
5
B6
100
AcDbEntity
8
1
62
256
6
ByLayer
370
18
48
1
60
0
100
AcDbLine
10
44.099054
20
8.960815
30
0
11
44.065622
21
8.941513
31
0
39
0
210
0
220
0
230
1
0
LINE
5
B7
100
AcDbEntity
8
1
62
256
6
ByLayer
370
18
48
1
60
0
100
AcDbLine
10
44.607091
20
7.977493
30
0
11
44.656036
21
8.005752
31
0
39
0
210
0
220
0
230
1
0
LINE
5
B8
100
AcDbEntity
8
1
62
256
6
ByLayer
370
18
48
1
60
0
100
AcDbLine
10
45.650436
20
6.2834
30
0
11
45.601491
21
6.255142
31
0
39
0
210
0
220
0
230
1
0
LINE
5
B9
100
AcDbEntity
8
SK1
62
256
6
ByLayer
370
13
48
1
60
0
100
AcDbLine
10
-49
20
-6.99725
30
0
11
-48
21
-7.99725
31
0
39
0
210
0
220
0
230
1
0
LINE
5
BA
100
AcDbEntity
8
SK1
62
256
6
ByLayer
370
13
48
1
60
0
100
AcDbLine
10
-48
20
7.99725
30
0
11
-49
21
6.99725
31
0
39
0
210
0
220
0
230
1
0
LINE
5
BB
100
AcDbEntity
8
SK1
62
256
6
ByLayer
370
13
48
1
60
0
100
AcDbLine
10
-48
20
-7.99725
30
0
11
0
21
-7.99725
31
0
39
0
210
0
220
0
230
1
0
LINE
5
BC
100
AcDbEntity
8
SK1
62
256
6
ByLayer
370
13
48
1
60
0
100
AcDbLine
10
0
20
7.99725
30
0
11
-48
21
7.99725
31
0
39
0
210
0
220
0
230
1
0
LINE
5
BD
100
AcDbEntity
8
1
62
256
6
ByLayer
370
13
48
1
60
0
100
AcDbLine
10
29.478671
20
-7.99725
30
0
11
29.853554
21
-8.372133
31
0
39
0
210
0
220
0
230
1
0
LINE
5
BE
100
AcDbEntity
8
1
62
256
6
ByLayer
370
13
48
1
60
0
100
AcDbLine
10
29.853554
20
8.372133
30
0
11
29.478671
21
7.99725
31
0
39
0
210
0
220
0
230
1
0
LINE
5
BF
100
AcDbEntity
8
1
62
256
6
ByLayer
370
13
48
1
60
0
100
AcDbLine
10
30.207107
20
-8.518579
30
0
11
39.048814
21
-8.518579
31
0
39
0
210
0
220
0
230
1
0
LINE
5
C0
100
AcDbEntity
8
1
62
256
6
ByLayer
370
13
48
1
60
0
100
AcDbLine
10
38.393953
20
8.518579
30
0
11
30.207107
21
8.518579
31
0
39
0
210
0
220
0
230
1
0
LINE
5
C1
100
AcDbEntity
8
4
62
256
6
ByLayer
370
18
48
0.05
60
0
100
AcDbLine
10
0
20
0
30
0
11
56
21
0
31
0
39
0
210
0
220
0
230
1
0
LINE
5
C3
100
AcDbEntity
8
SK2
62
256
6
ByLayer
370
13
48
1
60
0
100
AcDbLine
10
46.50625
20
13.783403
30
0
11
42.507583
21
20.709297
31
0
39
0
210
0
220
0
230
1
0
LINE
5
C5
100
AcDbEntity
8
SK2
62
256
6
ByLayer
370
13
48
1
60
0
100
AcDbLine
10
51
20
7.5875
30
0
11
51
21
22.984833
31
0
39
0
210
0
220
0
230
1
0
LINE
5
C6
100
AcDbEntity
8
1
62
256
6
ByLayer
370
13
48
1
60
0
100
AcDbLine
10
44.095083
20
17.959667
30
0
11
46.743056
21
19.76066
31
0
39
0
210
0
220
0
230
1
0
LINE
5
C7
100
AcDbEntity
8
1
62
256
6
ByLayer
370
13
48
1
60
0
100
AcDbLine
10
44.095083
20
17.959667
30
0
11
47.118963
21
19.013947
31
0
39
0
210
0
220
0
230
1
0
LINE
5
C8
100
AcDbEntity
8
1
62
256
6
ByLayer
370
13
48
1
60
0
100
AcDbLine
10
46.743056
20
19.76066
30
0
11
47.118963
21
19.013947
31
0
39
0
210
0
220
0
230
1
0
LINE
5
C9
100
AcDbEntity
8
1
62
256
6
ByLayer
370
13
48
1
60
0
100
AcDbLine
10
51
20
19.809833
30
0
11
47.854106
21
19.210928
31
0
39
0
210
0
220
0
230
1
0
LINE
5
CA
100
AcDbEntity
8
1
62
256
6
ByLayer
370
13
48
1
60
0
100
AcDbLine
10
51
20
19.809833
30
0
11
47.806289
21
20.045552
31
0
39
0
210
0
220
0
230
1
0
LINE
5
CB
100
AcDbEntity
8
1
62
256
6
ByLayer
370
13
48
1
60
0
100
AcDbLine
10
47.854106
20
19.210928
30
0
11
47.806289
21
20.045552
31
0
39
0
210
0
220
0
230
1
0
MTEXT
5
160
100
AcDbEntity
8
SK2
62
256
6
ByLayer
370
18
48
1
60
0
100
AcDbMText
10
57.627293
20
20.503658
30
0
210
0
220
0
230
1
1
\W0.9771;30%%d
40
4.5
41
0
44
1.084337
50
318.387124030615
71
7
72
5
7
iso_b_vert
0
MTEXT
5
163
100
AcDbEntity
8
SK6
62
256
6
ByLayer
370
18
48
1
60
0
100
AcDbMText
10
-18.788
20
-48.648227
30
0
210
0
220
0
230
1
1
\W0.7398;495-012A16-3009L
40
4
41
0
44
1.084337
50
0
71
7
72
5
7
iso_b_vert
0
DIMENSION
5
166
100
AcDbEntity
8
2
62
256
6
ByLayer
370
18
48
1
60
0
100
AcDbDimension
2
_U0
10
75.896875
20
6
30
0
11
75.896875
21
24.435427
31
0
70
32
71
1
72
1
41
1
210
0
220
0
230
1
3
Standard
100
AcDbAlignedDimension
13
51
23
-6
33
0
14
51
24
6
34
0
50
90
100
AcDbRotatedDimension
1001
ACAD
1000
DSTYLE
1002
{
1070
   371
1070
    13
1070
   372
1070
    13
1070
   170
1070
     0
1070
   144
1040
1.0
1070
   277
1070
     2
1070
   284
1070
     8
1070
   278
1070
    46
1070
   146
1040
0.777778
1070
   345
1005
16
1070
   347
1005
16
1070
   346
1005
16
1070
   344
1005
167
1070
   343
1005
167
1070
   172
1070
     1
1070
    76
1070
     0
1070
    75
1070
     0
1070
   282
1070
     0
1070
   281
1070
     0
1070
    71
1070
     0
1070
    74
1070
     0
1070
   279
1070
     0
1070
   173
1070
     1
1070
   340
1005
161
1070
   271
1070
     2
1070
   272
1070
     2
1070
    77
1070
     1
1070
    73
1070
     0
1070
   171
1070
     3
1070
   274
1070
     4
1070
   177
1070
   150
1070
   176
1070
     9
1070
   178
1070
    43
1070
    78
1070
     8
1070
    48
1040
-0.1
1070
    41
1040
3.175
1070
   147
1040
2.25
1070
    42
1040
1.5875
1070
    44
1040
3.175
1070
   140
1040
4.5
1002
}
1001
ACAD_DSTYLE_DIM_LINETYPE
1070
   380
1005
16
1001
ACAD_DSTYLE_DIM_EXT1_LINETYPE
1070
   381
1005
16
1001
ACAD_DSTYLE_DIM_EXT2_LINETYPE
1070
   382
1005
16
0
DIMENSION
5
18E
100
AcDbEntity
8
SK2
62
256
6
ByLayer
370
18
48
1
60
0
100
AcDbDimension
2
_U1
10
0
20
-30.5
30
0
11
25.5
21
-30.5
31
0
70
32
71
1
72
1
41
1
210
0
220
0
230
1
3
Standard
100
AcDbAlignedDimension
13
51
23
-6
33
0
14
0
24
0
34
0
50
0
100
AcDbRotatedDimension
1001
ACAD
1000
DSTYLE
1002
{
1070
   371
1070
    13
1070
   372
1070
    13
1070
   170
1070
     0
1070
   144
1040
1.0
1070
   277
1070
     2
1070
   284
1070
     8
1070
   278
1070
    46
1070
   146
1040
0.777778
1070
   345
1005
16
1070
   347
1005
16
1070
   346
1005
16
1070
   344
1005
167
1070
   343
1005
167
1070
   172
1070
     1
1070
    76
1070
     0
1070
    75
1070
     0
1070
   282
1070
     0
1070
   281
1070
     0
1070
    71
1070
     0
1070
    74
1070
     0
1070
   279
1070
     0
1070
   173
1070
     1
1070
   340
1005
161
1070
   271
1070
     2
1070
   272
1070
     2
1070
    77
1070
     1
1070
    73
1070
     1
1070
   171
1070
     3
1070
   274
1070
     4
1070
   177
1070
   150
1070
   176
1070
     9
1070
   178
1070
    43
1070
    78
1070
     8
1070
    48
1040
-0.1
1070
    41
1040
3.175
1070
   147
1040
2.25
1070
    42
1040
1.5875
1070
    44
1040
3.175
1070
   140
1040
4.5
1002
}
1001
ACAD_DSTYLE_DIM_LINETYPE
1070
   380
1005
16
1001
ACAD_DSTYLE_DIM_EXT1_LINETYPE
1070
   381
1005
16
1001
ACAD_DSTYLE_DIM_EXT2_LINETYPE
1070
   382
1005
16
0
DIMENSION
5
1AA
100
AcDbEntity
8
2
62
256
6
ByLayer
370
18
48
1
60
0
100
AcDbDimension
2
_U2
10
51
20
26.5
30
0
11
1
21
26.5
31
0
70
32
71
1
72
1
41
1
210
0
220
0
230
1
3
Standard
100
AcDbAlignedDimension
13
-49
23
8
33
0
14
51
24
6
34
0
50
0
100
AcDbRotatedDimension
1001
ACAD
1000
DSTYLE
1002
{
1070
   371
1070
    13
1070
   372
1070
    13
1070
   170
1070
     0
1070
   144
1040
1.0
1070
   277
1070
     2
1070
   284
1070
     8
1070
   278
1070
    46
1070
   146
1040
0.777778
1070
   345
1005
16
1070
   347
1005
16
1070
   346
1005
16
1070
   344
1005
167
1070
   343
1005
167
1070
   172
1070
     1
1070
    76
1070
     0
1070
    75
1070
     0
1070
   282
1070
     0
1070
   281
1070
     0
1070
    71
1070
     0
1070
    74
1070
     0
1070
   279
1070
     0
1070
   173
1070
     1
1070
   340
1005
161
1070
   271
1070
     2
1070
   272
1070
     2
1070
    77
1070
     1
1070
    73
1070
     1
1070
   171
1070
     3
1070
   274
1070
     4
1070
   177
1070
   150
1070
   176
1070
     9
1070
   178
1070
    43
1070
    78
1070
     8
1070
    48
1040
-0.1
1070
    41
1040
3.175
1070
   147
1040
2.25
1070
    42
1040
1.5875
1070
    44
1040
3.175
1070
   140
1040
4.5
1002
}
1001
ACAD_DSTYLE_DIM_LINETYPE
1070
   380
1005
16
1001
ACAD_DSTYLE_DIM_EXT1_LINETYPE
1070
   381
1005
16
1001
ACAD_DSTYLE_DIM_EXT2_LINETYPE
1070
   382
1005
16
0
DIMENSION
5
1C6
100
AcDbEntity
8
SK2
62
256
6
ByLayer
370
18
48
1
60
0
100
AcDbDimension
2
_U3
10
46.5
20
16.5
30
0
11
-1.25
21
16.5
31
0
70
32
71
1
72
1
41
1
210
0
220
0
230
1
3
Standard
100
AcDbAlignedDimension
13
-49
23
8
33
0
14
46.5
24
12.99
34
0
50
0
100
AcDbRotatedDimension
1001
ACAD
1000
DSTYLE
1002
{
1070
   371
1070
    13
1070
   372
1070
    13
1070
   170
1070
     0
1070
   144
1040
1.0
1070
   277
1070
     2
1070
   284
1070
     8
1070
   278
1070
    46
1070
   146
1040
0.777778
1070
   345
1005
16
1070
   347
1005
16
1070
   346
1005
16
1070
   344
1005
167
1070
   343
1005
167
1070
   172
1070
     1
1070
    76
1070
     0
1070
    75
1070
     0
1070
   282
1070
     0
1070
   281
1070
     0
1070
    71
1070
     0
1070
    74
1070
     0
1070
   279
1070
     0
1070
   173
1070
     1
1070
   340
1005
161
1070
   271
1070
     2
1070
   272
1070
     2
1070
    77
1070
     1
1070
    73
1070
     1
1070
   171
1070
     3
1070
   274
1070
     4
1070
   177
1070
   150
1070
   176
1070
     9
1070
   178
1070
    43
1070
    78
1070
     8
1070
    48
1040
-0.1
1070
    41
1040
3.175
1070
   147
1040
2.25
1070
    42
1040
1.5875
1070
    44
1040
3.175
1070
   140
1040
4.5
1002
}
1001
ACAD_DSTYLE_DIM_LINETYPE
1070
   380
1005
16
1001
ACAD_DSTYLE_DIM_EXT1_LINETYPE
1070
   381
1005
16
1001
ACAD_DSTYLE_DIM_EXT2_LINETYPE
1070
   382
1005
16
0
DIMENSION
5
1E2
100
AcDbEntity
8
SK2
62
256
6
ByLayer
370
18
48
1
60
0
100
AcDbDimension
2
_U4
10
86.75
20
12.99
30
0
11
86.75
21
37.105672
31
0
70
32
71
1
72
1
41
1
210
0
220
0
230
1
3
Standard
100
AcDbAlignedDimension
13
46.5
23
-12.99
33
0
14
46.5
24
12.99
34
0
50
90
100
AcDbRotatedDimension
1001
ACAD
1000
DSTYLE
1002
{
1070
   371
1070
    13
1070
   372
1070
    13
1070
   170
1070
     0
1070
   144
1040
1.0
1070
   277
1070
     2
1070
   284
1070
     8
1070
   278
1070
    46
1070
   146
1040
0.777778
1070
   345
1005
16
1070
   347
1005
16
1070
   346
1005
16
1070
   344
1005
167
1070
   343
1005
167
1070
   172
1070
     1
1070
    76
1070
     0
1070
    75
1070
     0
1070
   282
1070
     0
1070
   281
1070
     0
1070
    71
1070
     0
1070
    74
1070
     0
1070
   279
1070
     0
1070
   173
1070
     1
1070
   340
1005
161
1070
   271
1070
     2
1070
   272
1070
     2
1070
    77
1070
     1
1070
    73
1070
     0
1070
   171
1070
     3
1070
   274
1070
     4
1070
   177
1070
   150
1070
   176
1070
     9
1070
   178
1070
    43
1070
    78
1070
     8
1070
    48
1040
-0.1
1070
    41
1040
3.175
1070
   147
1040
2.25
1070
    42
1040
1.5875
1070
    44
1040
3.175
1070
   140
1040
4.5
1002
}
1001
ACAD_DSTYLE_DIM_LINETYPE
1070
   380
1005
16
1001
ACAD_DSTYLE_DIM_EXT1_LINETYPE
1070
   381
1005
16
1001
ACAD_DSTYLE_DIM_EXT2_LINETYPE
1070
   382
1005
16
0
DIMENSION
5
200
100
AcDbEntity
8
SK2
62
256
6
ByLayer
370
18
48
1
60
0
100
AcDbDimension
2
_U5
10
-74.103125
20
-8
30
0
11
-74.103125
21
26.435427
31
0
70
32
71
1
72
1
41
1
210
0
220
0
230
1
3
Standard
100
AcDbAlignedDimension
13
-49
23
8
33
0
14
-49
24
-8
34
0
50
90
100
AcDbRotatedDimension
1001
ACAD
1000
DSTYLE
1002
{
1070
   371
1070
    13
1070
   372
1070
    13
1070
   170
1070
     0
1070
   144
1040
1.0
1070
   277
1070
     2
1070
   284
1070
     8
1070
   278
1070
    46
1070
   146
1040
0.777778
1070
   345
1005
16
1070
   347
1005
16
1070
   346
1005
16
1070
   344
1005
167
1070
   343
1005
167
1070
   172
1070
     1
1070
    76
1070
     0
1070
    75
1070
     0
1070
   282
1070
     0
1070
   281
1070
     0
1070
    71
1070
     0
1070
    74
1070
     0
1070
   279
1070
     0
1070
   173
1070
     1
1070
   340
1005
161
1070
   271
1070
     2
1070
   272
1070
     2
1070
    77
1070
     1
1070
    73
1070
     0
1070
   171
1070
     3
1070
   274
1070
     4
1070
   177
1070
   150
1070
   176
1070
     9
1070
   178
1070
    43
1070
    78
1070
     8
1070
    48
1040
-0.1
1070
    41
1040
3.175
1070
   147
1040
2.25
1070
    42
1040
1.5875
1070
    44
1040
3.175
1070
   140
1040
4.5
1002
}
1001
ACAD_DSTYLE_DIM_LINETYPE
1070
   380
1005
16
1001
ACAD_DSTYLE_DIM_EXT1_LINETYPE
1070
   381
1005
16
1001
ACAD_DSTYLE_DIM_EXT2_LINETYPE
1070
   382
1005
16
0
ENDSEC
0
SECTION
2
OBJECTS
0
DICTIONARY
5
28f
330
0
100
AcDbDictionary
280
0
281
1
3
ACAD_GROUP
350
290
3
ACAD_MLINESTYLE
350
291
0
DICTIONARY
5
290
330
0
100
AcDbDictionary
280
0
281
1
0
DICTIONARY
5
291
330
0
100
AcDbDictionary
280
0
281
1
3
Standard
350
18
0
MLINESTYLE
5
18
330
291
100
AcDbMlineStyle
2
Standard
70
0
3

62
256
51
90
52
90
71
2
49
-0.5
62
256
6
ByLayer
49
0.5
62
256
6
ByLayer
0
RASTERVARIABLES
5
27d
330

100
AcDbRasterVariables
90
0
70
1
71
1
72
1
0
ENDSEC
0
EOF
