0
SECTION
2
HEADER
9
$ACADVER
1
AC1015
9
$DWGCODEPAGE
3
ANSI_1252
9
$HANDSEED
5
1a2
9
$ANGBASE
50
0
9
$ANGDIR
70
0
9
$ATTMODE
70
1
9
$AUNITS
70
0
9
$AUPREC
70
0
9
$CECOLOR
62
256
9
$CELTSCALE
40
1
9
$CELTYPE
6
ByLayer
9
$CELWEIGHT
370
18
9
$CLAYER
8
0
9
$CMLJUST
70
0
9
$CMLSCALE
40
1
9
$CMLSTYLE
2
Standard
9
$DIMSTYLE
2
Standard
9
$TEXTSIZE
40
0.2
9
$TEXTSTYLE
7
Standard
9
$LUNITS
70
2
9
$LUPREC
70
4
9
$EXTNAMES
290
1
9
$INSUNITS
70
4
9
$LTSCALE
40
1
9
$LWDISPLAY
290
1
9
$PDMODE
70
0
9
$PDSIZE
40
0
9
$PLINEGEN
70
0
0
ENDSEC
0
SECTION
2
CLASSES
0
CLASS
1
RASTERVARIABLES
2
AcDbRasterVariables
3
ISM
90
0
280
0
281
0
0
ENDSEC
0
SECTION
2
TABLES
0
TABLE
2
VPORT
5
198
100
AcDbSymbolTable
0
VPORT
5
1
100
AcDbSymbolTableRecord
100
AcDbViewportTableRecord
2
*Active
70
0
10
0
20
0
11
1
21
1
12
-1
22
1
13
0
23
0
14
0.5
24
0.5
15
10
25
10
16
0
26
0
36
1
17
0
27
0
37
0
0
ENDTAB
0
TABLE
2
LTYPE
5
199
100
AcDbSymbolTable
0
LTYPE
5
14
100
AcDbSymbolTableRecord
100
AcDbLinetypeTableRecord
70
0
2
ByBlock
3

72
65
73
0
40
0
0
LTYPE
5
15
100
AcDbSymbolTableRecord
100
AcDbLinetypeTableRecord
70
0
2
ByLayer
3

72
65
73
0
40
0
0
LTYPE
5
16
100
AcDbSymbolTableRecord
100
AcDbLinetypeTableRecord
70
0
2
CONTINUOUS
3
Solid line
72
65
73
0
40
0
0
LTYPE
5
6A
100
AcDbSymbolTableRecord
100
AcDbLinetypeTableRecord
70
0
2
CENTER
3
____ _ ____ _ ____ _ ____
72
65
73
4
40
47.5
49
22
74
0
49
-8.5
74
0
49
8.5
74
0
49
-8.5
74
0
0
LTYPE
5
6B
100
AcDbSymbolTableRecord
100
AcDbLinetypeTableRecord
70
0
2
DASHED
3
__ __ __ __ __ __ __ __ __
72
65
73
2
40
25.72
49
12.86
74
0
49
-12.86
74
0
0
ENDTAB
0
TABLE
2
LAYER
5
19a
100
AcDbSymbolTable
0
LAYER
5
10
100
AcDbSymbolTableRecord
100
AcDbLayerTableRecord
2
0
70
0
62
7
6
CONTINUOUS
290
1
370
-3
390
0
0
LAYER
5
6D
100
AcDbSymbolTableRecord
100
AcDbLayerTableRecord
2
81
70
0
62
-3
6
CONTINUOUS
290
1
370
-3
390
0
0
LAYER
5
6F
100
AcDbSymbolTableRecord
100
AcDbLayerTableRecord
2
80
70
0
62
-6
6
CONTINUOUS
290
1
370
-3
390
0
0
LAYER
5
74
100
AcDbSymbolTableRecord
100
AcDbLayerTableRecord
2
2
70
0
62
7
6
CONTINUOUS
290
1
370
-3
390
0
0
LAYER
5
78
100
AcDbSymbolTableRecord
100
AcDbLayerTableRecord
2
1
70
0
62
4
6
CONTINUOUS
290
1
370
-3
390
0
0
LAYER
5
86
100
AcDbSymbolTableRecord
100
AcDbLayerTableRecord
2
4
70
0
62
-2
6
CENTER
290
1
370
-3
390
0
0
LAYER
5
184
100
AcDbSymbolTableRecord
100
AcDbLayerTableRecord
2
SK2
70
0
62
7
6
CONTINUOUS
290
1
370
-3
390
0
0
LAYER
5
185
100
AcDbSymbolTableRecord
100
AcDbLayerTableRecord
2
SK1
70
0
62
4
6
CONTINUOUS
290
1
370
-3
390
0
0
LAYER
5
186
100
AcDbSymbolTableRecord
100
AcDbLayerTableRecord
2
SK4
70
0
62
2
6
CENTER
290
1
370
-3
390
0
0
LAYER
5
187
100
AcDbSymbolTableRecord
100
AcDbLayerTableRecord
2
SK6
70
0
62
5
6
CONTINUOUS
290
1
370
-3
390
0
0
ENDTAB
0
TABLE
2
STYLE
5
19b
100
AcDbSymbolTable
0
STYLE
5
11
100
AcDbSymbolTableRecord
100
AcDbTextStyleTableRecord
2
Standard
3
txt
70
0
71
0
40
0
41
1
42
0
50
0
0
STYLE
5
E0
100
AcDbSymbolTableRecord
100
AcDbTextStyleTableRecord
2
iso_b_vert
3
simplex.shx
70
0
71
0
40
0
41
1
42
0
50
0
0
STYLE
5
E1
100
AcDbSymbolTableRecord
100
AcDbTextStyleTableRecord
2
DWGDirectTextStyle
3
simplex
70
0
71
0
40
0
41
1
42
0
50
0
0
ENDTAB
0
TABLE
2
DIMSTYLE
5
19c
100
AcDbSymbolTable
100
AcDbDimStyleTable
0
DIMSTYLE
105
27
100
AcDbSymbolTableRecord
100
AcDbDimStyleTableRecord
2
Standard
70
0
3
<>
41
0.18
42
0.0625
44
0.18
140
0.18
147
0.09
73
0
74
0
77
1
271
2
275
0
278
52
280
0
340
11
0
ENDTAB
0
TABLE
2
VIEW
5
19d
100
AcDbSymbolTable
0
ENDTAB
0
TABLE
2
UCS
5
19e
100
AcDbSymbolTable
0
ENDTAB
0
TABLE
2
APPID
5
19f
100
AcDbSymbolTable
0
APPID
5
12
100
AcDbSymbolTableRecord
100
AcDbRegAppTableRecord
2
ACAD
70
0
0
ENDTAB
0
TABLE
2
BLOCK_RECORD
5
1a0
100
AcDbSymbolTable
0
BLOCK_RECORD
5
1F
100
AcDbSymbolTableRecord
100
AcDbBlockTableRecord
2
*Model_Space
340
0
70
0
0
BLOCK_RECORD
5
1B
100
AcDbSymbolTableRecord
100
AcDbBlockTableRecord
2
*Paper_Space
340
0
70
0
0
BLOCK_RECORD
5
23
100
AcDbSymbolTableRecord
100
AcDbBlockTableRecord
2
*Paper_Space0
340
0
70
0
0
BLOCK_RECORD
5
E3
100
AcDbSymbolTableRecord
100
AcDbBlockTableRecord
2
DimnDraft3D1
340
0
70
0
0
BLOCK_RECORD
5
ED
100
AcDbSymbolTableRecord
100
AcDbBlockTableRecord
2
DimnDraft3D2
340
0
70
0
0
BLOCK_RECORD
5
F7
100
AcDbSymbolTableRecord
100
AcDbBlockTableRecord
2
DimnDraft3D3
340
0
70
0
0
BLOCK_RECORD
5
101
100
AcDbSymbolTableRecord
100
AcDbBlockTableRecord
2
DimnDraft3D4
340
0
70
0
0
BLOCK_RECORD
5
10B
100
AcDbSymbolTableRecord
100
AcDbBlockTableRecord
2
DimnDraft3D5
340
0
70
0
0
BLOCK_RECORD
5
115
100
AcDbSymbolTableRecord
100
AcDbBlockTableRecord
2
DimnDraft3D6
340
0
70
0
0
BLOCK_RECORD
5
120
100
AcDbSymbolTableRecord
100
AcDbBlockTableRecord
2
DimnDraft3D7
340
0
70
0
0
ENDTAB
0
ENDSEC
0
SECTION
2
BLOCKS
0
BLOCK
5
20
100
AcDbEntity
8
0
100
AcDbBlockBegin
2
*Model_Space
70
0
10
0
20
0
30
0
3
*Model_Space
0
ENDBLK
5
21
100
AcDbEntity
8
0
100
AcDbBlockEnd
0
BLOCK
5
1C
100
AcDbEntity
8
0
100
AcDbBlockBegin
2
*Paper_Space
70
0
10
0
20
0
30
0
3
*Paper_Space
0
ENDBLK
5
1D
100
AcDbEntity
8
0
100
AcDbBlockEnd
0
BLOCK
5
24
100
AcDbEntity
8
0
100
AcDbBlockBegin
2
*Paper_Space0
70
0
10
0
20
0
30
0
3
*Paper_Space0
0
ENDBLK
5
25
100
AcDbEntity
8
0
100
AcDbBlockEnd
0
BLOCK
5
EA
100
AcDbEntity
8
0
100
AcDbBlockBegin
2
DimnDraft3D1
70
0
10
0
20
0
30
0
3
DimnDraft3D1
0
MTEXT
5
E4
100
AcDbEntity
8
SK2
62
256
6
ByLayer
370
13
48
1
60
0
100
AcDbMText
10
42.51528
20
-19.088398
30
0
210
0
220
0
230
1
1
\W0.6930;100,08
40
3.5
41
0
44
1.084337
50
0
71
7
72
5
7
iso_b_vert
0
LINE
5
E5
100
AcDbEntity
8
SK2
62
256
6
ByLayer
370
13
48
1
60
0
100
AcDbLine
10
0
20
-1.5875
30
0
11
0
21
-21.963398
31
0
39
0
210
0
220
0
230
1
0
LINE
5
E6
100
AcDbEntity
8
SK2
62
256
6
ByLayer
370
13
48
1
60
0
100
AcDbLine
10
100.0843
20
-11.3375
30
0
11
100.0843
21
-21.963398
31
0
39
0
210
0
220
0
230
1
0
LINE
5
E7
100
AcDbEntity
8
SK2
62
256
6
ByLayer
370
13
48
1
60
0
100
AcDbLine
10
0
20
-19.963398
30
0
11
100.0843
21
-19.963398
31
0
39
0
210
0
220
0
230
1
0
SOLID
5
E8
100
AcDbEntity
8
SK2
62
256
6
ByLayer
370
13
48
1
60
0
100
AcDbTrace
10
0
20
-19.963398
30
0
11
3.499998
21
-19.502615
31
0
12
3.500002
22
-20.424182
32
0
13
0
23
-19.963398
33
0
39
0
210
0
220
0
230
1
0
SOLID
5
E9
100
AcDbEntity
8
SK2
62
256
6
ByLayer
370
13
48
1
60
0
100
AcDbTrace
10
100.0843
20
-19.963398
30
0
11
96.584302
21
-20.424182
31
0
12
96.584298
22
-19.502615
32
0
13
100.0843
23
-19.963398
33
0
39
0
210
0
220
0
230
1
0
ENDBLK
5
EB
100
AcDbEntity
8
0
100
AcDbBlockEnd
0
BLOCK
5
F4
100
AcDbEntity
8
0
100
AcDbBlockBegin
2
DimnDraft3D2
70
0
10
0
20
0
30
0
3
DimnDraft3D2
0
MTEXT
5
EE
100
AcDbEntity
8
SK2
62
256
6
ByLayer
370
13
48
1
60
0
100
AcDbMText
10
19.606521
20
-37.817985
30
0
210
0
220
0
230
1
1
\W0.6930;153,00
40
3.5
41
0
44
1.084337
50
0
71
7
72
5
7
iso_b_vert
0
LINE
5
EF
100
AcDbEntity
8
SK2
62
256
6
ByLayer
370
13
48
1
60
0
100
AcDbLine
10
-50
20
-11.5875
30
0
11
-50
21
-40.692985
31
0
39
0
210
0
220
0
230
1
0
LINE
5
F0
100
AcDbEntity
8
SK2
62
256
6
ByLayer
370
13
48
1
60
0
100
AcDbLine
10
103
20
-1.5875
30
0
11
103
21
-40.692985
31
0
39
0
210
0
220
0
230
1
0
LINE
5
F1
100
AcDbEntity
8
SK2
62
256
6
ByLayer
370
13
48
1
60
0
100
AcDbLine
10
-50
20
-38.692985
30
0
11
103
21
-38.692985
31
0
39
0
210
0
220
0
230
1
0
SOLID
5
F2
100
AcDbEntity
8
SK2
62
256
6
ByLayer
370
13
48
1
60
0
100
AcDbTrace
10
-50
20
-38.692985
30
0
11
-46.500002
21
-38.232202
31
0
12
-46.499998
22
-39.153769
32
0
13
-50
23
-38.692985
33
0
39
0
210
0
220
0
230
1
0
SOLID
5
F3
100
AcDbEntity
8
SK2
62
256
6
ByLayer
370
13
48
1
60
0
100
AcDbTrace
10
103
20
-38.692985
30
0
11
99.500002
21
-39.153769
31
0
12
99.499998
22
-38.232202
32
0
13
103
23
-38.692985
33
0
39
0
210
0
220
0
230
1
0
ENDBLK
5
F5
100
AcDbEntity
8
0
100
AcDbBlockEnd
0
BLOCK
5
FE
100
AcDbEntity
8
0
100
AcDbBlockBegin
2
DimnDraft3D3
70
0
10
0
20
0
30
0
3
DimnDraft3D3
0
MTEXT
5
F8
100
AcDbEntity
8
SK2
62
256
6
ByLayer
370
13
48
1
60
0
100
AcDbMText
10
47.729211
20
22.234119
30
0
210
0
220
0
230
1
1
\W0.7050;100,41
40
3.5
41
0
44
1.084337
50
0
71
7
72
5
7
iso_b_vert
0
LINE
5
F9
100
AcDbEntity
8
SK2
62
256
6
ByLayer
370
13
48
1
60
0
100
AcDbLine
10
2.59
20
11.3375
30
0
11
2.59
21
23.359119
31
0
39
0
210
0
220
0
230
1
0
LINE
5
FA
100
AcDbEntity
8
SK2
62
256
6
ByLayer
370
13
48
1
60
0
100
AcDbLine
10
103
20
1.5875
30
0
11
103
21
23.359119
31
0
39
0
210
0
220
0
230
1
0
LINE
5
FB
100
AcDbEntity
8
SK2
62
256
6
ByLayer
370
13
48
1
60
0
100
AcDbLine
10
2.59
20
21.359119
30
0
11
103
21
21.359119
31
0
39
0
210
0
220
0
230
1
0
SOLID
5
FC
100
AcDbEntity
8
SK2
62
256
6
ByLayer
370
13
48
1
60
0
100
AcDbTrace
10
2.59
20
21.359119
30
0
11
6.089998
21
21.819903
31
0
12
6.090002
22
20.898335
32
0
13
2.59
23
21.359119
33
0
39
0
210
0
220
0
230
1
0
SOLID
5
FD
100
AcDbEntity
8
SK2
62
256
6
ByLayer
370
13
48
1
60
0
100
AcDbTrace
10
103
20
21.359119
30
0
11
99.500002
21
20.898335
31
0
12
99.499998
22
21.819903
32
0
13
103
23
21.359119
33
0
39
0
210
0
220
0
230
1
0
ENDBLK
5
FF
100
AcDbEntity
8
0
100
AcDbBlockEnd
0
BLOCK
5
108
100
AcDbEntity
8
0
100
AcDbBlockBegin
2
DimnDraft3D4
70
0
10
0
20
0
30
0
3
DimnDraft3D4
0
MTEXT
5
102
100
AcDbEntity
8
SK2
62
256
6
ByLayer
370
13
48
1
60
0
100
AcDbMText
10
109.840636
20
-21.677503
30
0
210
0
220
0
230
1
1
\W0.7150;2,92
40
3.5
41
0
44
1.084337
50
0
71
7
72
5
7
iso_b_vert
0
LINE
5
103
100
AcDbEntity
8
SK2
62
256
6
ByLayer
370
13
48
1
60
0
100
AcDbLine
10
103
20
-1.5875
30
0
11
103
21
-24.552503
31
0
39
0
210
0
220
0
230
1
0
LINE
5
104
100
AcDbEntity
8
SK2
62
256
6
ByLayer
370
13
48
1
60
0
100
AcDbLine
10
100.0843
20
-11.3375
30
0
11
100.0843
21
-24.552503
31
0
39
0
210
0
220
0
230
1
0
LINE
5
105
100
AcDbEntity
8
SK2
62
256
6
ByLayer
370
13
48
1
60
0
100
AcDbLine
10
91.3343
20
-22.552503
30
0
11
116.997215
21
-22.552503
31
0
39
0
210
0
220
0
230
1
0
SOLID
5
106
100
AcDbEntity
8
SK2
62
256
6
ByLayer
370
13
48
1
60
0
100
AcDbTrace
10
103
20
-22.552503
30
0
11
106.499998
21
-22.091719
31
0
12
106.500002
22
-23.013287
32
0
13
103
23
-22.552503
33
0
39
0
210
0
220
0
230
1
0
SOLID
5
107
100
AcDbEntity
8
SK2
62
256
6
ByLayer
370
13
48
1
60
0
100
AcDbTrace
10
100.0843
20
-22.552503
30
0
11
96.584302
21
-23.013287
31
0
12
96.584298
22
-22.091719
32
0
13
100.0843
23
-22.552503
33
0
39
0
210
0
220
0
230
1
0
ENDBLK
5
109
100
AcDbEntity
8
0
100
AcDbBlockEnd
0
BLOCK
5
112
100
AcDbEntity
8
0
100
AcDbBlockBegin
2
DimnDraft3D5
70
0
10
0
20
0
30
0
3
DimnDraft3D5
0
MTEXT
5
10C
100
AcDbEntity
8
SK2
62
256
6
ByLayer
370
13
48
1
60
0
100
AcDbMText
10
16.525897
20
-27.468428
30
0
210
0
220
0
230
1
1
\W0.6930;150,08
40
3.5
41
0
44
1.084337
50
0
71
7
72
5
7
iso_b_vert
0
LINE
5
10D
100
AcDbEntity
8
SK2
62
256
6
ByLayer
370
13
48
1
60
0
100
AcDbLine
10
-50
20
-11.5875
30
0
11
-50
21
-30.343428
31
0
39
0
210
0
220
0
230
1
0
LINE
5
10E
100
AcDbEntity
8
SK2
62
256
6
ByLayer
370
13
48
1
60
0
100
AcDbLine
10
100.0843
20
-11.3375
30
0
11
100.0843
21
-30.343428
31
0
39
0
210
0
220
0
230
1
0
LINE
5
10F
100
AcDbEntity
8
SK2
62
256
6
ByLayer
370
13
48
1
60
0
100
AcDbLine
10
-50
20
-28.343428
30
0
11
100.0843
21
-28.343428
31
0
39
0
210
0
220
0
230
1
0
SOLID
5
110
100
AcDbEntity
8
SK2
62
256
6
ByLayer
370
13
48
1
60
0
100
AcDbTrace
10
-50
20
-28.343428
30
0
11
-46.500002
21
-27.882645
31
0
12
-46.499998
22
-28.804212
32
0
13
-50
23
-28.343428
33
0
39
0
210
0
220
0
230
1
0
SOLID
5
111
100
AcDbEntity
8
SK2
62
256
6
ByLayer
370
13
48
1
60
0
100
AcDbTrace
10
100.0843
20
-28.343428
30
0
11
96.584302
21
-28.804212
31
0
12
96.584298
22
-27.882645
32
0
13
100.0843
23
-28.343428
33
0
39
0
210
0
220
0
230
1
0
ENDBLK
5
113
100
AcDbEntity
8
0
100
AcDbBlockEnd
0
BLOCK
5
11D
100
AcDbEntity
8
0
100
AcDbBlockBegin
2
DimnDraft3D6
70
0
10
0
20
0
30
0
3
DimnDraft3D6
0
MTEXT
5
116
100
AcDbEntity
8
SK2
62
256
6
ByLayer
370
13
48
1
60
0
100
AcDbMText
10
-60.375163
20
29.34918
30
0
210
0
220
0
230
1
1
\W0.7421;20,000
40
3.5
41
0
44
1.084337
50
90
71
7
72
5
7
iso_b_vert
0
MTEXT
5
117
100
AcDbEntity
8
SK2
62
256
6
ByLayer
370
13
48
1
60
0
100
AcDbMText
10
-60.375163
20
24.126524
30
0
210
0
220
0
230
1
1
%%c
40
3.5
41
0
44
1.084337
50
90
71
7
72
5
7
iso_b_vert
0
LINE
5
118
100
AcDbEntity
8
SK2
62
256
6
ByLayer
370
13
48
1
60
0
100
AcDbLine
10
-51.5875
20
-10
30
0
11
-60.625163
21
-10
31
0
39
0
210
0
220
0
230
1
0
LINE
5
119
100
AcDbEntity
8
SK2
62
256
6
ByLayer
370
13
48
1
60
0
100
AcDbLine
10
-51.5875
20
10
30
0
11
-60.625163
21
10
31
0
39
0
210
0
220
0
230
1
0
LINE
5
11A
100
AcDbEntity
8
SK2
62
256
6
ByLayer
370
13
48
1
60
0
100
AcDbLine
10
-58.625163
20
-10
30
0
11
-58.625163
21
41.737338
31
0
39
0
210
0
220
0
230
1
0
SOLID
5
11B
100
AcDbEntity
8
SK2
62
256
6
ByLayer
370
13
48
1
60
0
100
AcDbTrace
10
-58.625163
20
-10
30
0
11
-59.085946
21
-6.500002
31
0
12
-58.164379
22
-6.499998
32
0
13
-58.625163
23
-10
33
0
39
0
210
0
220
0
230
1
0
SOLID
5
11C
100
AcDbEntity
8
SK2
62
256
6
ByLayer
370
13
48
1
60
0
100
AcDbTrace
10
-58.625163
20
10
30
0
11
-58.164379
21
6.500002
31
0
12
-59.085946
22
6.499998
32
0
13
-58.625163
23
10
33
0
39
0
210
0
220
0
230
1
0
ENDBLK
5
11E
100
AcDbEntity
8
0
100
AcDbBlockEnd
0
BLOCK
5
128
100
AcDbEntity
8
0
100
AcDbBlockBegin
2
DimnDraft3D7
70
0
10
0
20
0
30
0
3
DimnDraft3D7
0
MTEXT
5
121
100
AcDbEntity
8
2
62
256
6
ByLayer
370
13
48
1
60
0
100
AcDbMText
10
113.333343
20
27.692266
30
0
210
0
220
0
230
1
1
\W0.6930;19,500
40
3.5
41
0
44
1.084337
50
90
71
7
72
5
7
iso_b_vert
0
MTEXT
5
122
100
AcDbEntity
8
2
62
256
6
ByLayer
370
13
48
1
60
0
100
AcDbMText
10
113.333343
20
22.46961
30
0
210
0
220
0
230
1
1
%%c
40
3.5
41
0
44
1.084337
50
90
71
7
72
5
7
iso_b_vert
0
LINE
5
123
100
AcDbEntity
8
2
62
256
6
ByLayer
370
13
48
1
60
0
100
AcDbLine
10
101.6718
20
-9.75
30
0
11
117.083343
21
-9.75
31
0
39
0
210
0
220
0
230
1
0
LINE
5
124
100
AcDbEntity
8
2
62
256
6
ByLayer
370
13
48
1
60
0
100
AcDbLine
10
101.6718
20
9.75
30
0
11
117.083343
21
9.75
31
0
39
0
210
0
220
0
230
1
0
LINE
5
125
100
AcDbEntity
8
2
62
256
6
ByLayer
370
13
48
1
60
0
100
AcDbLine
10
115.083343
20
-9.75
30
0
11
115.083343
21
39.205424
31
0
39
0
210
0
220
0
230
1
0
SOLID
5
126
100
AcDbEntity
8
2
62
256
6
ByLayer
370
13
48
1
60
0
100
AcDbTrace
10
115.083343
20
-9.75
30
0
11
114.622559
21
-6.250002
31
0
12
115.544126
22
-6.249998
32
0
13
115.083343
23
-9.75
33
0
39
0
210
0
220
0
230
1
0
SOLID
5
127
100
AcDbEntity
8
2
62
256
6
ByLayer
370
13
48
1
60
0
100
AcDbTrace
10
115.083343
20
9.75
30
0
11
115.544126
21
6.250002
31
0
12
114.622559
22
6.249998
32
0
13
115.083343
23
9.75
33
0
39
0
210
0
220
0
230
1
0
ENDBLK
5
129
100
AcDbEntity
8
0
100
AcDbBlockEnd
0
ENDSEC
0
SECTION
2
ENTITIES
0
ARC
5
94
100
AcDbEntity
8
1
62
256
6
ByLayer
370
18
48
1
60
0
100
AcDbCircle
39
0
10
-0.166667
20
9.854197
30
0
40
0.166667000000004
210
0
220
0
230
-1
100
AcDbArc
50
269.96419
51
0
0
ARC
5
95
100
AcDbEntity
8
1
62
256
6
ByLayer
370
18
48
1
60
0
100
AcDbCircle
39
0
10
-0.166667
20
-9.854197
30
0
40
0.166667000000004
210
0
220
0
230
-1
100
AcDbArc
50
0
51
90.03581
0
ELLIPSE
5
96
100
AcDbEntity
8
1
62
256
6
ByLayer
370
18
48
1
60
0
100
AcDbEllipse
10
1.368152
20
-9.451368
30
0
11
-0.25
21
3.06151588455594E-17
31
0
210
0
220
0
230
1
40
0.999997
41
-1.55548249981747
42
-0.0272444161166535
0
ELLIPSE
5
97
100
AcDbEntity
8
1
62
256
6
ByLayer
370
18
48
1
60
0
100
AcDbEllipse
10
1.368152
20
9.451368
30
0
11
-0.25
21
3.06151588455594E-17
31
0
210
0
220
0
230
1
40
0.999997
41
0.0272444161165611
42
1.59191528693776
0
POINT
5
6C
100
AcDbEntity
8
81
62
256
6
ByLayer
370
18
48
1
60
0
100
AcDbPoint
10
103
20
0
30
0
39
0
210
0
220
0
230
1
50
360
0
POINT
5
6E
100
AcDbEntity
8
80
62
256
6
ByLayer
370
18
48
1
60
0
100
AcDbPoint
10
0
20
0
30
0
39
0
210
0
220
0
230
1
50
360
0
POINT
5
70
100
AcDbEntity
8
SK2
62
256
6
ByLayer
370
18
48
1
60
1
100
AcDbPoint
10
-50
20
-10
30
0
39
0
210
0
220
0
230
1
50
360
0
POINT
5
72
100
AcDbEntity
8
SK2
62
256
6
ByLayer
370
18
48
1
60
1
100
AcDbPoint
10
-50
20
10
30
0
39
0
210
0
220
0
230
1
50
360
0
POINT
5
73
100
AcDbEntity
8
2
62
256
6
ByLayer
370
18
48
1
60
1
100
AcDbPoint
10
100.0843
20
-9.75
30
0
39
0
210
0
220
0
230
1
50
360
0
POINT
5
75
100
AcDbEntity
8
2
62
256
6
ByLayer
370
18
48
1
60
1
100
AcDbPoint
10
100.0843
20
9.75
30
0
39
0
210
0
220
0
230
1
50
360
0
SPLINE
5
98
100
AcDbEntity
8
1
62
256
6
ByLayer
370
18
48
1
60
0
100
AcDbSpline
70
4
71
3
72
26
73
22
40
0
40
0
40
0
40
0
40
0.061811372548229
40
0.125165654663345
40
0.173884138936522
40
0.213170708486058
40
0.250760281555197
40
0.286749760789553
40
0.36205087788022
40
0.431302936225988
40
0.495326897689602
40
0.55498939819933
40
0.611539225913785
40
0.673023249791391
40
0.746145152332243
40
0.812186832829855
40
0.846096037440735
40
0.888101892875567
40
0.939214709201876
40
0.9839415047498
40
1
40
1
40
1
40
1
41
1
10
1.36879506977476
20
-9.20124535843411
30
0
41
1
10
1.68415168545934
20
-9.20222865522786
30
0
41
1
10
2.32270185787849
20
-9.20382947608329
30
0
41
1
10
3.20979914540379
20
-9.20478375798922
30
0
41
1
10
3.98175067698583
20
-9.20502287360839
30
0
41
1
10
4.6221325130573
20
-9.20496250070022
30
0
41
1
10
5.19786673508693
20
-9.20492319709172
30
0
41
1
10
5.95746439459685
20
-9.20504249065391
30
0
41
1
10
6.87826176912282
20
-9.20618418323463
30
0
41
1
10
7.94200352058991
20
-9.2078586862965
30
0
41
1
10
8.9263740946115
20
-9.20814088928066
30
0
41
1
10
9.84588307549754
20
-9.20861246805637
30
0
41
1
10
10.7524472364914
20
-9.20991140874759
30
0
41
1
10
11.7276751444138
20
-9.20977727941562
30
0
41
1
10
12.7513306949555
20
-9.2100716753678
30
0
41
1
10
13.6343055312755
20
-9.2114419272252
30
0
41
1
10
14.3585327826179
20
-9.21150878226243
30
0
41
1
10
15.0065909578203
20
-9.21126053314418
30
0
41
1
10
15.7098437731208
20
-9.21149714991768
30
0
41
1
10
16.2807214751806
20
-9.21223772819869
30
0
41
1
10
16.5908304178222
20
-9.21250070857363
30
0
41
1
10
16.6727560955471
20
-9.21257017310145
30
0
0
SPLINE
5
99
100
AcDbEntity
8
1
62
256
6
ByLayer
370
18
48
1
60
0
100
AcDbSpline
70
4
71
3
72
36
73
32
40
0
40
0
40
0
40
0
40
0.0365757112037638
40
0.0743619008416903
40
0.108861300375938
40
0.140482215941334
40
0.167867757995088
40
0.190946565205473
40
0.210650974485347
40
0.233163763079
40
0.261962164585751
40
0.294788610806772
40
0.330130270349735
40
0.361843466845476
40
0.389612213757422
40
0.417659281924769
40
0.471810432940027
40
0.527507161759353
40
0.578076236519209
40
0.626539448060406
40
0.676466962222372
40
0.731642838237876
40
0.772437338744228
40
0.80860419343917
40
0.841888723561352
40
0.877470710123965
40
0.915358856625645
40
0.942722974072536
40
0.969665682915934
40
0.992254060753996
40
1
40
1
40
1
40
1
41
1
10
44.5500097233693
20
-9.22722839397483
30
0
41
1
10
44.8571425328359
20
-9.22668844719419
30
0
41
1
10
45.4863025171887
20
-9.22587475248648
30
0
41
1
10
46.4252194158479
20
-9.22258305836945
30
0
41
1
10
47.3275471581082
20
-9.22560484201776
30
0
41
1
10
48.1139420586925
20
-9.23004187977747
30
0
41
1
10
48.8075808052148
20
-9.23036652937554
30
0
41
1
10
49.3982596545806
20
-9.22932853311841
30
0
41
1
10
49.9471421751854
20
-9.22521135560635
30
0
41
1
10
50.5701607040164
20
-9.22657860022497
30
0
41
1
10
51.2705103035074
20
-9.2317237218036
30
0
41
1
10
52.1049204359697
20
-9.23238796051044
30
0
41
1
10
52.9691048216554
20
-9.23359116373842
30
0
41
1
10
53.7886830310432
20
-9.23356478361782
30
0
41
1
10
54.5374159407802
20
-9.23235618096939
30
0
41
1
10
55.486536210875
20
-9.23238356301172
30
0
41
1
10
56.6802968336458
20
-9.23403244948847
30
0
41
1
10
58.0588142743018
20
-9.23583945667954
30
0
41
1
10
59.3977137111891
20
-9.23641351449857
30
0
41
1
10
60.6848138323529
20
-9.23683590561134
30
0
41
1
10
62.0136754620332
20
-9.23849619654496
30
0
41
1
10
63.2684155131884
20
-9.23695180472012
30
0
41
1
10
64.4087476092602
20
-9.23681083875272
30
0
41
1
10
65.3637930515294
20
-9.23794663605904
30
0
41
1
10
66.2610878987412
20
-9.23983915863889
30
0
41
1
10
67.1837818305644
20
-9.24119408772572
30
0
41
1
10
68.0560230915893
20
-9.24180490448245
30
0
41
1
10
68.8490743386282
20
-9.24129202543082
30
0
41
1
10
69.465104618883
20
-9.23495928467227
30
0
41
1
10
69.9682633552109
20
-9.23043891107287
30
0
41
1
10
70.2237122666606
20
-9.23332944302314
30
0
41
1
10
70.2889294488012
20
-9.23426682876186
30
0
0
SPLINE
5
9A
100
AcDbEntity
8
1
62
256
6
ByLayer
370
18
48
1
60
0
100
AcDbSpline
70
4
71
3
72
26
73
22
40
0
40
0
40
0
40
0
40
0.0176969157201342
40
0.0678752644812938
40
0.12854495214613
40
0.195817747042307
40
0.261406652078326
40
0.330595956612284
40
0.394926809697383
40
0.449735392267158
40
0.503068977607037
40
0.561596968503128
40
0.624946861764397
40
0.665789770848583
40
0.703295772376916
40
0.738127645348302
40
0.771251160771453
40
0.811951036271275
40
0.866029840001398
40
0.934002887062643
40
1
40
1
40
1
40
1
41
1
10
16.6690731195615
20
9.21250541501649
30
0
41
1
10
16.5782426417438
20
9.21245120887667
30
0
41
1
10
16.2298689100281
20
9.21223689559372
30
0
41
1
10
15.5701076522012
20
9.21129018166897
30
0
41
1
10
14.6558915190774
20
9.21138601924702
30
0
41
1
10
13.6625810515848
20
9.2115823517168
30
0
41
1
10
12.6255458142837
20
9.20991466155789
30
0
41
1
10
11.6036023531343
20
9.20984583633745
30
0
41
1
10
10.6370228675544
20
9.20979403595845
30
0
41
1
10
9.75170949853924
20
9.2085338373879
30
0
41
1
10
8.89657803741267
20
9.20812160829635
30
0
41
1
10
8.00696067835008
20
9.20680793096082
30
0
41
1
10
7.20251893182072
20
9.19795098572874
30
0
41
1
10
6.48226648908312
20
9.19043329864672
30
0
41
1
10
5.90063231093916
20
9.18898553646341
30
0
41
1
10
5.35814612805484
20
9.19231201300823
30
0
41
1
10
4.82973779077372
20
9.20057185877175
30
0
41
1
10
4.19052576260773
20
9.20405864190568
30
0
41
1
10
3.35913762992482
20
9.20481430608558
30
0
41
1
10
2.39529887401142
20
9.2039835099975
30
0
41
1
10
1.70781567293798
20
9.20232877645483
30
0
41
1
10
1.36880539669659
20
9.20123365747602
30
0
0
SPLINE
5
9B
100
AcDbEntity
8
1
62
256
6
ByLayer
370
18
48
1
60
0
100
AcDbSpline
70
4
71
2
72
6
73
3
40
0
40
0
40
0
40
1
40
1
40
1
41
1
10
71.5913048517892
20
-0.0001439232677001
30
0
41
1
10
71.5913137088276
20
-0.0001389444147719
30
0
41
1
10
71.5913225658397
20
-0.0001341663070775
30
0
0
SPLINE
5
9C
100
AcDbEntity
8
1
62
256
6
ByLayer
370
18
48
1
60
0
100
AcDbSpline
70
4
71
2
72
6
73
3
40
0
40
0
40
0
40
1
40
1
40
1
41
1
10
99.0090684242259
20
-9.26194716563197
30
0
41
1
10
99.3848118012364
20
-9.26111564081714
30
0
41
1
10
99.7602128116523
20
-9.26250856342494
30
0
0
SPLINE
5
9D
100
AcDbEntity
8
1
62
256
6
ByLayer
370
18
48
1
60
0
100
AcDbSpline
70
4
71
3
72
29
73
25
40
0
40
0
40
0
40
0
40
0.0027978687169852
40
0.0237077482534181
40
0.0485352591290311
40
0.0755441263571661
40
0.102682214029161
40
0.146059359349951
40
0.187347042927046
40
0.232902505046006
40
0.281365910344296
40
0.336583179440609
40
0.412017576077861
40
0.479937854047714
40
0.546665787667966
40
0.618304142764942
40
0.695527233696119
40
0.766220537293199
40
0.838651529613589
40
0.883033682589951
40
0.924706801953151
40
0.961460091106978
40
0.99148801676967
40
1
40
1
40
1
40
1
41
1
10
70.2647146850616
20
9.23365845244129
30
0
41
1
10
70.2465445586179
20
9.23337643514691
30
0
41
1
10
70.0920656654465
20
9.23119022683028
30
0
41
1
10
69.7451217563647
20
9.23198193423687
30
0
41
1
10
69.2706818980424
20
9.2376771967744
30
0
41
1
10
68.7536751663224
20
9.24107687719101
30
0
41
1
10
68.0909387493501
20
9.24182783075526
30
0
41
1
10
67.3215290646505
20
9.24141744599964
30
0
41
1
10
66.4271578231381
20
9.23999066897201
30
0
41
1
10
65.5079638972838
20
9.23831780261833
30
0
41
1
10
64.4824161459306
20
9.23677296684909
30
0
41
1
10
63.2537247787641
20
9.23694935553823
30
0
41
1
10
61.8969405313155
20
9.23860911066512
30
0
41
1
10
60.4526928025822
20
9.23642741368525
30
0
41
1
10
59.0363459626766
20
9.23667119320294
30
0
41
1
10
57.5561509870849
20
9.23489472551512
30
0
41
1
10
56.0566794991421
20
9.23306715671501
30
0
41
1
10
54.5399723693945
20
9.23195690463885
30
0
41
1
10
53.262498025865
20
9.23408266024947
30
0
41
1
10
52.1724380726716
20
9.23244530639982
30
0
41
1
10
51.3305662700786
20
9.23191121376789
30
0
41
1
10
50.6150045486569
20
9.2268936960939
30
0
41
1
10
50.0903121479675
20
9.22539534119923
30
0
41
1
10
49.8292556605028
20
9.226490706124
30
0
41
1
10
49.7718446016182
20
9.22677717923165
30
0
0
SPLINE
5
9E
100
AcDbEntity
8
1
62
256
6
ByLayer
370
18
48
1
60
0
100
AcDbSpline
70
4
71
2
72
6
73
3
40
0
40
0
40
0
40
1
40
1
40
1
41
1
10
71.5913225658359
20
0.0001341663091523
30
0
41
1
10
71.5913137091401
20
0.0001389442462596
30
0
41
1
10
71.5913048524179
20
0.0001439229143045
30
0
0
SPLINE
5
9F
100
AcDbEntity
8
1
62
256
6
ByLayer
370
18
48
1
60
0
100
AcDbSpline
70
4
71
1
72
4
73
2
40
0
40
0
40
1
40
1
41
1
10
17.1811613439162
20
0.0056282651683262
30
0
41
1
10
17.1811454876831
20
0.0056364597622292
30
0
0
SPLINE
5
A0
100
AcDbEntity
8
SK1
62
256
6
ByLayer
370
18
48
1
60
0
100
AcDbSpline
70
4
71
3
72
14
73
10
40
0
40
0
40
0
40
0
40
0.25
40
0.25
40
0.5
40
0.5
40
0.75
40
0.75
40
1
40
1
40
1
40
1
41
1
10
-49.3803334577281
20
5.46471171664771
30
0
41
1
10
-49.4205517758489
20
5.38491976004096
30
0
41
1
10
-49.4625426101761
20
5.302683492108
30
0
41
1
10
-49.5496065737633
20
5.13528272154471
30
0
41
1
10
-49.5948612891772
20
5.04975766911483
30
0
41
1
10
-49.6891115175205
20
4.87573941431998
30
0
41
1
10
-49.7367912349698
20
4.78968052955832
30
0
41
1
10
-49.8335758984626
20
4.61964910758729
30
0
41
1
10
-49.8828058190972
20
4.53546517774495
30
0
41
1
10
-49.9326497003088
20
4.45294891981646
30
0
0
SPLINE
5
A1
100
AcDbEntity
8
SK1
62
256
6
ByLayer
370
18
48
1
60
0
100
AcDbSpline
70
4
71
3
72
10
73
6
40
0
40
0
40
0
40
0
40
0.821946263927674
40
0.821946263927674
40
1
40
1
40
1
40
1
41
1
10
-49.9326497003088
20
4.45294891981646
30
0
41
1
10
-49.8286111479053
20
4.50281510716223
30
0
41
1
10
-49.7260709420888
20
4.5580755676425
30
0
41
1
10
-49.6086433257913
20
4.6351971054026
30
0
41
1
10
-49.5880296858159
20
4.64930703556428
30
0
41
1
10
-49.5677713201756
20
4.66387271281951
30
0
0
SPLINE
5
A2
100
AcDbEntity
8
SK1
62
256
6
ByLayer
370
18
48
1
60
0
100
AcDbSpline
70
4
71
3
72
10
73
6
40
0
40
0
40
0
40
0
40
0.283923600962137
40
0.283923600962137
40
1
40
1
40
1
40
1
41
1
10
-49.251888624269
20
5.2610433319058
30
0
41
1
10
-49.2588523615179
20
5.28295060909991
30
0
41
1
10
-49.2677090367166
20
5.30415284710767
30
0
41
1
10
-49.3046123719607
20
5.37670216852172
30
0
41
1
10
-49.3401455407917
20
5.42285313342381
30
0
41
1
10
-49.3803334577275
20
5.46471171664811
30
0
0
SPLINE
5
A3
100
AcDbEntity
8
SK1
62
256
6
ByLayer
370
18
48
1
60
0
100
AcDbSpline
70
4
71
3
72
14
73
10
40
0
40
0
40
0
40
0
40
0.25
40
0.25
40
0.5
40
0.5
40
0.75
40
0.75
40
1
40
1
40
1
40
1
41
1
10
-49.3803334577281
20
-5.46471171664783
30
0
41
1
10
-49.4205517758489
20
-5.38491976004104
30
0
41
1
10
-49.4625426101761
20
-5.30268349210806
30
0
41
1
10
-49.5496065737633
20
-5.13528272154474
30
0
41
1
10
-49.5948612891772
20
-5.04975766911485
30
0
41
1
10
-49.6891115175205
20
-4.87573941431995
30
0
41
1
10
-49.7367912349698
20
-4.7896805295583
30
0
41
1
10
-49.8335758984627
20
-4.61964910758721
30
0
41
1
10
-49.8828058190973
20
-4.53546517774487
30
0
41
1
10
-49.9326497003088
20
-4.45294891981635
30
0
0
SPLINE
5
A4
100
AcDbEntity
8
SK1
62
256
6
ByLayer
370
18
48
1
60
0
100
AcDbSpline
70
4
71
3
72
14
73
10
40
0
40
0
40
0
40
0
40
0.500000000000016
40
0.500000000000016
40
0.750000000000016
40
0.750000000000016
40
0.875000000000008
40
0.875000000000008
40
1
40
1
40
1
40
1
41
1
10
-47.6
20
8.20308655644888
30
0
41
1
10
-47.5789465118595
20
8.24004567259962
30
0
41
1
10
-47.5585985142981
20
8.27771592899492
30
0
41
1
10
-47.5303873672755
20
8.33402704214919
30
0
41
1
10
-47.5214287539013
20
8.35267819492523
30
0
41
1
10
-47.5102864584886
20
8.37815110267118
30
0
41
1
10
-47.50688945626
20
8.38638301886689
30
0
41
1
10
-47.5017228477084
20
8.4007755708169
30
0
41
1
10
-47.5
20
8.4068650908936
30
0
41
1
10
-47.5
20
8.41017474064719
30
0
0
SPLINE
5
A5
100
AcDbEntity
8
SK1
62
256
6
ByLayer
370
18
48
1
60
0
100
AcDbSpline
70
4
71
3
72
14
73
10
40
0
40
0
40
0
40
0
40
0.124999999999995
40
0.124999999999995
40
0.24999999999999
40
0.24999999999999
40
0.499999999999994
40
0.499999999999994
40
1
40
1
40
1
40
1
41
1
10
-47.5
20
8.81073707345314
30
0
41
1
10
-47.5
20
8.81002200063341
30
0
41
1
10
-47.5017107697461
20
8.80634239064943
30
0
41
1
10
-47.5068845888983
20
8.79606900197959
30
0
41
1
10
-47.5102281895671
20
8.78969177897943
30
0
41
1
10
-47.521528237522
20
8.76848100269331
30
0
41
1
10
-47.5303630420009
20
8.75229556071295
30
0
41
1
10
-47.5585252427809
20
8.70123612349786
30
0
41
1
10
-47.5788396428357
20
8.6650721175626
30
0
41
1
10
-47.6
20
8.62792539427338
30
0
0
SPLINE
5
A6
100
AcDbEntity
8
SK1
62
256
6
ByLayer
370
18
48
1
60
0
100
AcDbSpline
70
4
71
3
72
8
73
4
40
0
40
0
40
0
40
0
40
1
40
1
40
1
40
1
41
1
10
-49.9326497003088
20
-4.45294891981635
30
0
41
1
10
-49.9551377065737
20
-4.4111685333163
30
0
41
1
10
-49.9775888281581
20
-4.36936801457568
30
0
41
1
10
-50
20
-4.32754569063513
30
0
0
SPLINE
5
A7
100
AcDbEntity
8
SK1
62
256
6
ByLayer
370
18
48
1
60
0
100
AcDbSpline
70
4
71
3
72
10
73
6
40
0
40
0
40
0
40
0
40
0.5
40
0.5
40
1
40
1
40
1
40
1
41
1
10
-47.6
20
-8.62792539427338
30
0
41
1
10
-47.8994584109412
20
-8.10223016892883
30
0
41
1
10
-48.1980939139552
20
-7.57606454044222
30
0
41
1
10
-48.7922772368209
20
-6.52206026301394
30
0
41
1
10
-49.0879009188326
20
-5.99425687796628
30
0
41
1
10
-49.3803334577281
20
-5.46471171664783
30
0
0
SPLINE
5
A8
100
AcDbEntity
8
SK1
62
256
6
ByLayer
370
18
48
1
60
0
100
AcDbSpline
70
4
71
3
72
8
73
4
40
0
40
0
40
0
40
0
40
1
40
1
40
1
40
1
41
1
10
-49.9326497003088
20
4.45294891981646
30
0
41
1
10
-49.9551377065736
20
4.41116853331638
30
0
41
1
10
-49.977588828158
20
4.36936801457571
30
0
41
1
10
-50
20
4.32754569063513
30
0
0
SPLINE
5
A9
100
AcDbEntity
8
SK1
62
256
6
ByLayer
370
18
48
1
60
0
100
AcDbSpline
70
4
71
3
72
10
73
6
40
0
40
0
40
0
40
0
40
0.5
40
0.5
40
1
40
1
40
1
40
1
41
1
10
-50
20
3.90270685281064
30
0
41
1
10
-49.6125332873841
20
4.62577294170111
30
0
41
1
10
-49.2140293861031
20
5.3435043660177
30
0
41
1
10
-48.4112271373743
20
6.77567289972532
30
0
41
1
10
-48.0063281113468
20
7.48978300492428
30
0
41
1
10
-47.6
20
8.20308655644885
30
0
0
SPLINE
5
AA
100
AcDbEntity
8
SK1
62
256
6
ByLayer
370
18
48
1
60
0
100
AcDbSpline
70
4
71
3
72
14
73
10
40
0
40
0
40
0
40
0
40
0.125000000000004
40
0.125000000000004
40
0.250000000000008
40
0.250000000000008
40
0.500000000000005
40
0.500000000000005
40
1
40
1
40
1
40
1
41
1
10
-47.5
20
-8.81073707345314
30
0
41
1
10
-47.5
20
-8.81002200063341
30
0
41
1
10
-47.5017107697461
20
-8.80634239064943
30
0
41
1
10
-47.5068845888983
20
-8.79606900197959
30
0
41
1
10
-47.5102281895671
20
-8.78969177897943
30
0
41
1
10
-47.521528237522
20
-8.76848100269331
30
0
41
1
10
-47.5303630420009
20
-8.75229556071295
30
0
41
1
10
-47.558525242781
20
-8.70123612349786
30
0
41
1
10
-47.5788396428357
20
-8.66507211756257
30
0
41
1
10
-47.6
20
-8.62792539427338
30
0
0
SPLINE
5
AB
100
AcDbEntity
8
SK1
62
256
6
ByLayer
370
18
48
1
60
0
100
AcDbSpline
70
4
71
3
72
10
73
6
40
0
40
0
40
0
40
0
40
0.5
40
0.5
40
1
40
1
40
1
40
1
41
1
10
-47.6
20
8.62792539427338
30
0
41
1
10
-47.8994584109412
20
8.1022301689288
30
0
41
1
10
-48.1980939139553
20
7.57606454044219
30
0
41
1
10
-48.7922772368209
20
6.52206026301388
30
0
41
1
10
-49.0879009188327
20
5.99425687796619
30
0
41
1
10
-49.3803334577281
20
5.46471171664771
30
0
0
SPLINE
5
AC
100
AcDbEntity
8
1
62
256
6
ByLayer
370
18
48
1
60
0
100
AcDbSpline
70
4
71
3
72
20
73
16
40
0
40
0
40
0
40
0
40
0.257007319694343
40
0.257007319694343
40
0.47343463223126
40
0.47343463223126
40
0.527541460365489
40
0.527541460365489
40
0.581648288499718
40
0.581648288499718
40
0.689861944768176
40
0.689861944768176
40
0.906289257305092
40
0.906289257305092
40
1
40
1
40
1
40
1
41
1
10
71.5546496066843
20
0.0197473879854044
30
0
41
1
10
72.7656102751894
20
-0.633735126439262
30
0
41
1
10
73.973559169114
20
-1.28586210594889
30
0
41
1
10
76.2040792810844
20
-2.46410684610081
30
0
41
1
10
77.2257396619313
20
-2.99399944816051
30
0
41
1
10
78.5097752597753
20
-3.6370439622138
30
0
41
1
10
78.7669397542544
20
-3.76466920984086
30
0
41
1
10
79.2821002185165
20
-4.01773309446787
30
0
41
1
10
79.540327843409
20
-4.1432716240036
30
0
41
1
10
80.3144942115713
20
-4.51533835475939
30
0
41
1
10
80.8297845419049
20
-4.75726776966323
30
0
41
1
10
82.3745142504771
20
-5.46281188293588
30
0
41
1
10
83.4027121885242
20
-5.90633495832469
30
0
41
1
10
84.8791713055236
20
-6.49505835788958
30
0
41
1
10
85.3261654620375
20
-6.66694136340354
30
0
41
1
10
85.7729908889609
20
-6.83196555252377
30
0
0
SPLINE
5
AD
100
AcDbEntity
8
1
62
256
6
ByLayer
370
13
48
1
60
0
100
AcDbSpline
70
4
71
3
72
18
73
14
40
0
40
0
40
0
40
0
40
0.0146727384299664
40
0.0146727384299664
40
0.12415354527108
40
0.12415354527108
40
0.343115158953304
40
0.343115158953304
40
0.452595965794419
40
0.452595965794419
40
0.562076772635534
40
0.562076772635534
40
1
40
1
40
1
40
1
41
1
10
85.7729908898235
20
-6.83196555284235
30
0
41
1
10
85.8421427323533
20
-6.85750511718098
30
0
41
1
10
85.9112905335652
20
-6.88288040294282
30
0
41
1
10
86.4963186749594
20
-7.09617683727089
30
0
41
1
10
87.0112261229758
20
-7.27481020180798
30
0
41
1
10
88.5545889418835
20
-7.78061448220541
30
0
41
1
10
89.5816407057196
20
-8.07777399720629
30
0
41
1
10
91.1248551419205
20
-8.45807248787165
30
0
41
1
10
91.6397390035203
20
-8.57392482970471
30
0
41
1
10
92.6713059448863
20
-8.78295211064795
30
0
41
1
10
93.1875854363873
20
-8.87601741400238
30
0
41
1
10
95.7613517380797
20
-9.280459617909
30
0
41
1
10
97.8077128865166
20
-9.41233052708216
30
0
41
1
10
99.8694125638863
20
-9.3438638100418
30
0
0
SPLINE
5
AE
100
AcDbEntity
8
1
62
256
6
ByLayer
370
13
48
1
60
0
100
AcDbSpline
70
4
71
3
72
38
73
34
40
0
40
0
40
0
40
0
40
0.0041577848695932
40
0.0041577848695932
40
0.0946888953359937
40
0.0946888953359937
40
0.139954450569194
40
0.139954450569194
40
0.185220005802394
40
0.185220005802394
40
0.275751116268795
40
0.275751116268795
40
0.321016671501995
40
0.321016671501995
40
0.366282226735195
40
0.366282226735195
40
0.456813337201596
40
0.456813337201596
40
0.547344447667996
40
0.547344447667996
40
0.592610002901197
40
0.592610002901197
40
0.637875558134397
40
0.683141113367597
40
0.683141113367597
40
0.728406668600797
40
0.728406668600797
40
0.818937779067198
40
0.909468889533599
40
0.909468889533599
40
0.9547344447668
40
0.9547344447668
40
1
40
1
40
1
40
1
41
1
10
1.36887981259966
20
-9.20139455494788
30
0
41
1
10
1.36888094476797
20
-9.20139543770762
30
0
41
1
10
1.36888207530555
20
-9.20134206781952
30
0
41
1
10
1.36890778616342
20
-9.19889342104045
30
0
41
1
10
1.36893163146925
20
-9.17095827981697
30
0
41
1
10
1.3689669480915
20
-9.09077247876735
30
0
41
1
10
1.36897864241925
20
-9.05764364228469
30
0
41
1
10
1.36900195440654
20
-8.97835918618554
30
0
41
1
10
1.3690136035452
20
-8.93205158953629
30
0
41
1
10
1.36904826511284
20
-8.77422800541231
30
0
41
1
10
1.36907096992286
20
-8.64423148518296
30
0
41
1
10
1.36910458687257
20
-8.41204966251686
30
0
41
1
10
1.36911570743021
20
-8.32847534139788
30
0
41
1
10
1.36913766328718
20
-8.14976357614813
30
0
41
1
10
1.36914853846872
20
-8.05427946705845
30
0
41
1
10
1.36918050322518
20
-7.7522837954449
30
0
41
1
10
1.36920095392881
20
-7.5303893214741
30
0
41
1
10
1.3692396901759
20
-7.04676125083898
30
0
41
1
10
1.36925797724234
20
-6.78502543031388
30
0
41
1
10
1.3692831328641
20
-6.36197575922526
30
0
41
1
10
1.36929114927671
20
-6.21558810475864
30
0
41
1
10
1.36930619848789
20
-5.91361219423837
30
0
41
1
10
1.36932020511324
20
-5.60371459949246
30
0
41
1
10
1.36933185077834
20
-5.27810102441228
30
0
41
1
10
1.36934215130222
20
-4.94459204238274
30
0
41
1
10
1.36934662828432
20
-4.77369223427661
30
0
41
1
10
1.36935765465589
20
-4.25475718287777
30
0
41
1
10
1.36936609065151
20
-3.54279047108238
30
0
41
1
10
1.36935958121307
20
-2.79171785057875
30
0
41
1
10
1.36934790158429
20
-2.21337432412125
30
0
41
1
10
1.36934285451864
20
-2.01762471021166
30
0
41
1
10
1.36933034772125
20
-1.62407984772912
30
0
41
1
10
1.36932288478997
20
-1.42607263727138
30
0
41
1
10
1.36931414472451
20
-1.2270167796521
30
0
0
SPLINE
5
AF
100
AcDbEntity
8
1
62
256
6
ByLayer
370
18
48
1
60
0
100
AcDbSpline
70
4
71
3
72
14
73
10
40
0
40
0
40
0
40
0
40
0.25
40
0.25
40
0.5
40
0.5
40
0.75
40
0.75
40
1
40
1
40
1
40
1
41
1
10
100.117699482248
20
9.47687048507939
30
0
41
1
10
100.310983135513
20
8.92108505212587
30
0
41
1
10
100.507137812653
20
8.3649064522717
30
0
41
1
10
100.904466429657
20
7.25213275789153
30
0
41
1
10
101.105653196438
20
6.69553348208558
30
0
41
1
10
101.512324632313
20
5.58206263615554
30
0
41
1
10
101.717469512638
20
5.0259761307646
30
0
41
1
10
102.129875860167
20
3.91653170230836
30
0
41
1
10
102.337275414597
20
3.3627904762026
30
0
41
1
10
102.545368045219
20
2.80999747685504
30
0
0
SPLINE
5
B0
100
AcDbEntity
8
1
62
256
6
ByLayer
370
18
48
1
60
0
100
AcDbSpline
70
4
71
3
72
20
73
16
40
0
40
0
40
0
40
0
40
0.254097392807368
40
0.254097392807368
40
0.381146089211052
40
0.381146089211052
40
0.508194785614736
40
0.508194785614736
40
0.63524348201842
40
0.63524348201842
40
0.762292178422104
40
0.762292178422104
40
0.889340874825788
40
0.889340874825788
40
1
40
1
40
1
40
1
41
1
10
19.9241757140849
20
-9.04673423984548
30
0
41
1
10
20.6606947986169
20
-8.97269970989794
30
0
41
1
10
21.3960124426633
20
-8.87382065977837
30
0
41
1
10
22.4974890903384
20
-8.69151716855427
30
0
41
1
10
22.864444928342
20
-8.62486454185051
30
0
41
1
10
23.5980568385673
20
-8.47924463725201
30
0
41
1
10
23.9650274559538
20
-8.40059852712096
30
0
41
1
10
24.6997244577332
20
-8.23309535730354
30
0
41
1
10
25.067367987289
20
-8.14442090537878
30
0
41
1
10
25.8031623077931
20
-7.95413876044844
30
0
41
1
10
26.1716340095631
20
-7.8527459368442
30
0
41
1
10
26.9072887285278
20
-7.6396998213977
30
0
41
1
10
27.274635204041
20
-7.5280146295423
30
0
41
1
10
27.9621938267305
20
-7.31146380875003
30
0
41
1
10
28.282206992662
20
-7.20722466651725
30
0
41
1
10
28.6020891463765
20
-7.09894688434312
30
0
0
SPLINE
5
B1
100
AcDbEntity
8
1
62
256
6
ByLayer
370
18
48
1
60
0
100
AcDbSpline
70
4
71
3
72
40
73
36
40
0
40
0
40
0
40
0
40
0.0195010158352863
40
0.0195010158352863
40
0.128445347409145
40
0.128445347409145
40
0.182917513196074
40
0.182917513196074
40
0.237389678983003
40
0.237389678983003
40
0.291861844769931
40
0.291861844769931
40
0.34633401055686
40
0.34633401055686
40
0.400806176343788
40
0.400806176343788
40
0.455278342130717
40
0.455278342130717
40
0.509750507917646
40
0.509750507917646
40
0.564222673704574
40
0.564222673704574
40
0.618694839491503
40
0.618694839491503
40
0.673167005278431
40
0.673167005278431
40
0.72763917106536
40
0.72763917106536
40
0.782111336852289
40
0.782111336852289
40
0.836583502639217
40
0.836583502639217
40
0.891055668426146
40
0.891055668426146
40
1
40
1
40
1
40
1
41
1
10
70.2538721491844
20
9.23354366339109
30
0
41
1
10
70.3855379959188
20
9.23684840528588
30
0
41
1
10
70.5171790375863
20
9.23933213914992
30
0
41
1
10
71.3840350102786
20
9.25002730374433
30
0
41
1
10
72.118364679956
20
9.23267173573149
30
0
41
1
10
73.2195660052844
20
9.17311333307867
30
0
41
1
10
73.5869588720981
20
9.14711347637436
30
0
41
1
10
74.3224189591963
20
9.08117658468146
30
0
41
1
10
74.6904929155563
20
9.0417436883919
30
0
41
1
10
75.4273898940785
20
8.95072116851063
30
0
41
1
10
75.7956396544835
20
8.89914210250021
30
0
41
1
10
76.5309658046386
20
8.78497052821689
30
0
41
1
10
76.8982758386923
20
8.72181377087858
30
0
41
1
10
77.6330505832231
20
8.58335940611937
30
0
41
1
10
78.0004226408329
20
8.50841124907819
30
0
41
1
10
78.7351882031493
20
8.34809343946378
30
0
41
1
10
79.1026080586881
20
8.26326108024008
30
0
41
1
10
79.837340162776
20
8.08121841984106
30
0
41
1
10
80.2046141207704
20
7.98366742345837
30
0
41
1
10
80.9405104612094
20
7.77740949804934
30
0
41
1
10
81.3092686604301
20
7.66843874292516
30
0
41
1
10
82.0458569357343
20
7.4406883035
30
0
41
1
10
82.4137629108508
20
7.32183088660904
30
0
41
1
10
83.1488886372589
20
7.07462677998345
30
0
41
1
10
83.5159675993452
20
6.94609306750257
30
0
41
1
10
84.2506147610154
20
6.68140559123873
30
0
41
1
10
84.6181357379874
20
6.5454318850349
30
0
41
1
10
85.3533168772333
20
6.2646161787292
30
0
41
1
10
85.7209563018079
20
6.11938792418192
30
0
41
1
10
86.4564662537367
20
5.81964184800398
30
0
41
1
10
86.824221335298
20
5.66496828217839
30
0
41
1
10
87.5607217515512
20
5.34787473274355
30
0
41
1
10
87.9292207640227
20
5.18600690576829
30
0
41
1
10
89.0331212282156
20
4.69130032597317
30
0
41
1
10
89.7677272210801
20
4.34857987506948
30
0
41
1
10
90.5014843522057
20
3.99452832913013
30
0
0
SPLINE
5
B2
100
AcDbEntity
8
1
62
256
6
ByLayer
370
18
48
1
60
0
100
AcDbSpline
70
4
71
3
72
48
73
44
40
0
40
0
40
0
40
0
40
0.124999999999992
40
0.124999999999992
40
0.187499999999988
40
0.187499999999988
40
0.218749999999986
40
0.218749999999986
40
0.249999999999984
40
0.249999999999984
40
0.374999999999976
40
0.374999999999976
40
0.499999999999967
40
0.499999999999967
40
0.562499999999965
40
0.562499999999965
40
0.624999999999964
40
0.624999999999964
40
0.749999999999955
40
0.749999999999955
40
0.812499999999953
40
0.812499999999953
40
0.843749999999952
40
0.843749999999952
40
0.859374999999952
40
0.859374999999952
40
0.867187499999952
40
0.867187499999952
40
0.871093749999951
40
0.871093749999951
40
0.874999999999951
40
0.874999999999951
40
0.882812499999955
40
0.882812499999955
40
0.886718749999956
40
0.886718749999956
40
0.890624999999958
40
0.890624999999958
40
0.906249999999964
40
0.906249999999964
40
0.937499999999976
40
0.937499999999976
40
1
40
1
40
1
40
1
41
1
10
90.5014843522058
20
3.99452832913008
30
0
41
1
10
90.8732445650595
20
3.627338157016
30
0
41
1
10
91.2580101783496
20
3.28324668734413
30
0
41
1
10
91.8544836480311
20
2.80143242244489
30
0
41
1
10
92.0565268892119
20
2.64654444479564
30
0
41
1
10
92.3644842002033
20
2.42290188617966
30
0
41
1
10
92.4679530323015
20
2.34980435409835
30
0
41
1
10
92.6765552792421
20
2.20656573112291
30
0
41
1
10
92.781775886528
20
2.13637344405993
30
0
41
1
10
93.3084683632755
20
1.79524289157035
30
0
41
1
10
93.7343319952603
20
1.55143173314676
30
0
41
1
10
94.5954539945013
20
1.12441803597798
30
0
41
1
10
95.0308351592142
20
0.942007705223659
30
0
41
1
10
95.6915054177486
20
0.717412780530964
30
0
41
1
10
95.913014015488
20
0.650838925733154
30
0
41
1
10
96.3588365206896
20
0.535789219450038
30
0
41
1
10
96.5838981134831
20
0.487224140909973
30
0
41
1
10
97.2542784147583
20
0.373262203493624
30
0
41
1
10
97.6968769246693
20
0.338398800631495
30
0
41
1
10
98.3527014804906
20
0.362902221414487
30
0
41
1
10
98.5690849169285
20
0.38362945929174
30
0
41
1
10
98.8882764495216
20
0.435152096238738
30
0
41
1
10
98.9936848010541
20
0.455714435206232
30
0
41
1
10
99.15024152925
20
0.491888754551979
30
0
41
1
10
99.2021533007543
20
0.504832958589731
30
0
41
1
10
99.2795664377551
20
0.525602315474828
30
0
41
1
10
99.3053124186264
20
0.532724219570866
30
0
41
1
10
99.3437674964231
20
0.543798959958622
30
0
41
1
10
99.3565037588658
20
0.547675175198094
30
0
41
1
10
99.380598290922
20
0.558526700647832
30
0
41
1
10
99.3920232782124
20
0.565595669331742
30
0
41
1
10
99.4232521291382
20
0.592041479595366
30
0
41
1
10
99.4394254578572
20
0.616839956234145
30
0
41
1
10
99.4480672209697
20
0.66368268443685
30
0
41
1
10
99.4491642229556
20
0.680176376756719
30
0
41
1
10
99.4522179083772
20
0.712635773438365
30
0
41
1
10
99.453693790217
20
0.728883722946932
30
0
41
1
10
99.4608215202313
20
0.8102136070776
30
0
41
1
10
99.4657187487513
20
0.875580459602844
30
0
41
1
10
99.4781037149983
20
1.07227804146009
30
0
41
1
10
99.4832960756279
20
1.20426714919651
30
0
41
1
10
99.4906198974637
20
1.60254373447475
30
0
41
1
10
99.4844714966165
20
1.87110760044746
30
0
41
1
10
99.4695527918293
20
2.13941676629611
30
0
0
SPLINE
5
B3
100
AcDbEntity
8
1
62
256
6
ByLayer
370
18
48
1
60
0
100
AcDbSpline
70
4
71
3
72
8
73
4
40
0
40
0
40
0
40
0
40
1
40
1
40
1
40
1
41
1
10
102.983952013716
20
-0.216143533223231
30
0
41
1
10
102.982360897137
20
-0.173948430390169
30
0
41
1
10
102.98869760949
20
-0.119154957383699
30
0
41
1
10
102.999742799671
20
-0.0617402313170885
30
0
0
SPLINE
5
B4
100
AcDbEntity
8
1
62
256
6
ByLayer
370
18
48
1
60
0
100
AcDbSpline
70
4
71
3
72
36
73
32
40
0
40
0
40
0
40
0
40
0.11559375360965
40
0.11559375360965
40
0.173390630414474
40
0.173390630414474
40
0.231187507219298
40
0.231187507219298
40
0.288984384024122
40
0.288984384024122
40
0.346781260828946
40
0.346781260828946
40
0.462375014438593
40
0.462375014438593
40
0.520171891243416
40
0.520171891243416
40
0.577968768048238
40
0.577968768048238
40
0.635765644853061
40
0.635765644853061
40
0.693562521657884
40
0.693562521657884
40
0.809156275267528
40
0.809156275267528
40
0.86695315207235
40
0.86695315207235
40
0.924750028877172
40
0.924750028877172
40
0.982546905681994
40
0.982546905681994
40
1
40
1
40
1
40
1
41
1
10
19.9241757140849
20
-3.03399744674258
30
0
41
1
10
20.765819040176
20
-3.48635215476784
30
0
41
1
10
21.6058034044979
20
-3.91909787743725
30
0
41
1
10
22.8600209324514
20
-4.54636266320273
30
0
41
1
10
23.2767794316951
20
-4.75232026855809
30
0
41
1
10
24.1090721626934
20
-5.15560133042678
30
0
41
1
10
24.5253718987376
20
-5.35174218945548
30
0
41
1
10
25.35791267128
20
-5.73382494072808
30
0
41
1
10
25.774091217046
20
-5.9198593609766
30
0
41
1
10
26.6059385763604
20
-6.28235006648208
30
0
41
1
10
27.0211203187578
20
-6.45945291128524
30
0
41
1
10
28.2687242770987
20
-6.97224859902633
30
0
41
1
10
29.1039150006758
20
-7.2888197534441
30
0
41
1
10
30.3591375022315
20
-7.72886024408473
30
0
41
1
10
30.7775469251009
20
-7.87011068034673
30
0
41
1
10
31.6179987319618
20
-8.13749303229065
30
0
41
1
10
32.0405592665234
20
-8.26412804722366
30
0
41
1
10
32.8824077670918
20
-8.50182829186065
30
0
41
1
10
33.3021923039821
20
-8.61301565865435
30
0
41
1
10
34.1389507723742
20
-8.82055761759861
30
0
41
1
10
34.5558945630292
20
-8.91685066606357
30
0
41
1
10
35.8073781693239
20
-9.17996877929863
30
0
41
1
10
36.640843734426
20
-9.32282274886236
30
0
41
1
10
37.8866816051995
20
-9.48991354868832
30
0
41
1
10
38.3018178966284
20
-9.53737750860131
30
0
41
1
10
39.13369459258
20
-9.61536592606768
30
0
41
1
10
39.5500785119968
20
-9.64604884375908
30
0
41
1
10
40.3832567823231
20
-9.69086767180011
30
0
41
1
10
40.8000158068617
20
-9.7050032523928
30
0
41
1
10
41.3427619684396
20
-9.71234838946671
30
0
41
1
10
41.4687493391368
20
-9.71327263694161
30
0
41
1
10
41.594845024538
20
-9.71341937752993
30
0
0
SPLINE
5
B5
100
AcDbEntity
8
1
62
256
6
ByLayer
370
18
48
1
60
0
100
AcDbSpline
70
4
71
3
72
30
73
26
40
0
40
0
40
0
40
0
40
0.0484540728906735
40
0.0484540728906735
40
0.121649913437546
40
0.121649913437546
40
0.194845753984419
40
0.194845753984419
40
0.268041594531292
40
0.268041594531292
40
0.414433275625038
40
0.414433275625038
40
0.487629116171909
40
0.487629116171909
40
0.56082495671878
40
0.56082495671878
40
0.634020797265651
40
0.634020797265651
40
0.707216637812522
40
0.707216637812522
40
0.853608318906261
40
0.853608318906261
40
0.92680415945313
40
0.92680415945313
40
1
40
1
40
1
40
1
41
1
10
82.9926608047985
20
7.11397763979176
30
0
41
1
10
83.2686475731474
20
7.22024062955535
30
0
41
1
10
83.544175719285
20
7.32389953997537
30
0
41
1
10
84.2351413180993
20
7.57710968601128
30
0
41
1
10
84.6510253457708
20
7.72209222695668
30
0
41
1
10
85.4827109176734
20
7.9980477142893
30
0
41
1
10
85.8984484149642
20
8.12908828733401
30
0
41
1
10
86.7293846167995
20
8.37758670397295
30
0
41
1
10
87.1441082568335
20
8.49544608788571
30
0
41
1
10
88.3901432825712
20
8.82586426930001
30
0
41
1
10
89.224220391206
20
9.01494392240323
30
0
41
1
10
90.4776893706739
20
9.2534039862156
30
0
41
1
10
90.895480994149
20
9.32549595941509
30
0
41
1
10
91.7346118298859
20
9.4525884416575
30
0
41
1
10
92.1564776054858
20
9.50784303901625
30
0
41
1
10
92.9985202931067
20
9.6013507962511
30
0
41
1
10
93.418710263858
20
9.63962123038465
30
0
41
1
10
94.2568956512091
20
9.699306052438
30
0
41
1
10
94.6748041447932
20
9.72065182631619
30
0
41
1
10
95.9301738139972
20
9.75866034241312
30
0
41
1
10
96.7675221920543
20
9.75008020144824
30
0
41
1
10
98.0210246164795
20
9.68570305024326
30
0
41
1
10
98.439015307933
20
9.65563180594521
30
0
41
1
10
99.2773060969203
20
9.57887264227924
30
0
41
1
10
99.6972328170269
20
9.53212860311419
30
0
41
1
10
100.117699482248
20
9.47687048507939
30
0
0
SPLINE
5
B6
100
AcDbEntity
8
1
62
256
6
ByLayer
370
18
48
1
60
0
100
AcDbSpline
70
4
71
3
72
10
73
6
40
0
40
0
40
0
40
0
40
0.781556453083546
40
0.781556453083546
40
1
40
1
40
1
40
1
41
1
10
19.9241757140849
20
9.04673423984551
30
0
41
1
10
19.0623745313696
20
9.129610878818
30
0
41
1
10
18.2127868253625
20
9.1844730120782
30
0
41
1
10
17.1336951779591
20
9.21004788513497
30
0
41
1
10
16.8984491591502
20
9.21276790527034
30
0
41
1
10
16.663561160223
20
9.21255324979555
30
0
0
SPLINE
5
B7
100
AcDbEntity
8
1
62
256
6
ByLayer
370
18
48
1
60
0
100
AcDbSpline
70
4
71
3
72
16
73
12
40
0
40
0
40
0
40
0
40
0.0831151194764602
40
0.0831151194764602
40
0.197598770085813
40
0.197598770085813
40
0.65553337252322
40
0.65553337252322
40
0.884500673741924
40
0.884500673741924
40
1
40
1
40
1
40
1
41
1
10
17.1288356791762
20
0.0337632505830356
30
0
41
1
10
17.5027908812305
20
-0.167312906408029
30
0
41
1
10
17.8768296063625
20
-0.368488949328196
30
0
41
1
10
18.766727741515
20
-0.846150871370327
30
0
41
1
10
19.2834014303377
20
-1.12268649956982
30
0
41
1
10
21.8652831297445
20
-2.49558188687928
30
0
41
1
10
23.9026100441802
20
-3.54926038831357
30
0
41
1
10
26.9598274136501
20
-4.98918836703805
30
0
41
1
10
27.9789441683008
20
-5.44599178148155
30
0
41
1
10
29.5176964448633
20
-6.08932078964034
30
0
41
1
10
30.0346807885651
20
-6.29766957193843
30
0
41
1
10
30.5529952040737
20
-6.49782211258582
30
0
0
SPLINE
5
B8
100
AcDbEntity
8
1
62
256
6
ByLayer
370
13
48
1
60
0
100
AcDbSpline
70
4
71
3
72
18
73
14
40
0
40
0
40
0
40
0
40
0.095308806070887
40
0.095308806070887
40
0.479956546803367
40
0.479956546803367
40
0.672280417169609
40
0.672280417169609
40
0.768442352352728
40
0.768442352352728
40
0.864604287535848
40
0.864604287535848
40
1
40
1
40
1
40
1
41
1
10
30.5529952039772
20
-6.49782211254845
30
0
41
1
10
31.0621937337846
20
-6.69445445844883
30
0
41
1
10
31.5726759613851
20
-6.88317633119652
30
0
41
1
10
34.1512038141523
20
-7.78970872943358
30
0
41
1
10
36.1926921180275
20
-8.35633470796799
30
0
41
1
10
39.2610055959894
20
-8.93300644639376
30
0
41
1
10
40.2847559812032
20
-9.07962249917813
30
0
41
1
10
41.8272387774356
20
-9.22750108051906
30
0
41
1
10
42.3429040673308
20
-9.2647548092751
30
0
41
1
10
43.3759040947135
20
-9.31451693166014
30
0
41
1
10
43.8916563218972
20
-9.32698609396928
30
0
41
1
10
45.1328837645785
20
-9.32716568606591
30
0
41
1
10
45.8580874650875
20
-9.30269510331715
30
0
41
1
10
46.5839784565327
20
-9.25377037808295
30
0
0
SPLINE
5
B9
100
AcDbEntity
8
1
62
256
6
ByLayer
370
18
48
1
60
0
100
AcDbSpline
70
4
71
3
72
12
73
8
40
0
40
0
40
0
40
0
40
0.5
40
0.5
40
0.75
40
0.75
40
1
40
1
40
1
40
1
41
1
10
102.432500013131
20
2.22655698438743
30
0
41
1
10
102.581140450441
20
1.93366136092593
30
0
41
1
10
102.701390963411
20
1.63629585758048
30
0
41
1
10
102.839799275074
20
1.18363999441553
30
0
41
1
10
102.879053742529
20
1.03123730580552
30
0
41
1
10
102.943650702451
20
0.726452077999454
30
0
41
1
10
102.968981852596
20
0.574375778397552
30
0
41
1
10
102.988001180146
20
0.422586033301656
30
0
0
SPLINE
5
BA
100
AcDbEntity
8
1
62
256
6
ByLayer
370
18
48
1
60
0
100
AcDbSpline
70
4
71
3
72
49
73
45
40
0
40
0
40
0
40
0
40
0.0856943096349721
40
0.0856943096349721
40
0.115216764626044
40
0.115216764626044
40
0.144739219617117
40
0.144739219617117
40
0.203784129599261
40
0.203784129599261
40
0.321873949563551
40
0.321873949563551
40
0.380918859545695
40
0.380918859545695
40
0.43996376952784
40
0.43996376952784
40
0.499008679509985
40
0.499008679509985
40
0.55805358949213
40
0.565434203239898
40
0.565434203239898
40
0.569124510113782
40
0.569124510113782
40
0.572814816987666
40
0.572814816987666
40
0.57650512386155
40
0.57650512386155
40
0.580195430735434
40
0.580195430735434
40
0.587576044483202
40
0.587576044483202
40
0.617098499474274
40
0.617098499474274
40
0.676143409456418
40
0.676143409456418
40
0.794233229420708
40
0.794233229420708
40
0.853278139402852
40
0.853278139402852
40
0.882800594393925
40
0.882800594393925
40
0.912323049384997
40
0.912323049384997
40
1
40
1
40
1
40
1
41
1
10
19.9241757140849
20
-3.0049873405813
30
0
41
1
10
19.9241757140849
20
-2.83619960453453
30
0
41
1
10
19.9241757140849
20
-2.69018580844292
30
0
41
1
10
19.9241757140849
20
-2.52381497856143
30
0
41
1
10
19.9241757140849
20
-2.48384340675253
30
0
41
1
10
19.9241757140849
20
-2.40923407062653
30
0
41
1
10
19.9241757140849
20
-2.37453700150476
30
0
41
1
10
19.9241757140849
20
-2.27920138322509
30
0
41
1
10
19.9241757140849
20
-2.2270997597663
30
0
41
1
10
19.9241757140849
20
-2.10345064948666
30
0
41
1
10
19.9241757140849
20
-2.06439273277388
30
0
41
1
10
19.9241757140849
20
-2.06760742404342
30
0
41
1
10
19.9241757140849
20
-2.07902354418033
30
0
41
1
10
19.9241757140849
20
-2.12249320830256
30
0
41
1
10
19.9241757140849
20
-2.15464406084345
30
0
41
1
10
19.9241757140849
20
-2.23937062628878
30
0
41
1
10
19.9241757140849
20
-2.29179812836219
30
0
41
1
10
19.9241757140849
20
-2.41642314766372
30
0
41
1
10
19.9241757140849
20
-2.49772549010535
30
0
41
1
10
19.9241757140849
20
-2.59123196697669
30
0
41
1
10
19.9241757140849
20
-2.60704176619831
30
0
41
1
10
19.9241757140849
20
-2.6121466359873
30
0
41
1
10
19.9241757140849
20
-2.62765081471858
30
0
41
1
10
19.9241757140849
20
-2.63752606877878
30
0
41
1
10
19.9241757140849
20
-2.66057322764701
30
0
41
1
10
19.9241757140849
20
-2.67366333833792
30
0
41
1
10
19.9241757140849
20
-2.70311467352946
30
0
41
1
10
19.9241757140849
20
-2.7199419383598
30
0
41
1
10
19.9241757140849
20
-2.76945986027704
30
0
41
1
10
19.9241757140849
20
-2.80257318976268
30
0
41
1
10
19.9241757140849
20
-2.96864817928807
30
0
41
1
10
19.9241757140849
20
-3.10312158454036
30
0
41
1
10
19.9241757140849
20
-3.51102387052393
30
0
41
1
10
19.9241757140849
20
-3.78945818093899
30
0
41
1
10
19.9241757140849
20
-4.63606684498112
30
0
41
1
10
19.9241757140849
20
-5.21699394046507
30
0
41
1
10
19.9241757140849
20
-6.11420195898376
30
0
41
1
10
19.9241757140849
20
-6.41759538054129
30
0
41
1
10
19.9241757140849
20
-6.87952807523044
30
0
41
1
10
19.9241757140849
20
-7.03491687161525
30
0
41
1
10
19.9241757140849
20
-7.34551151933215
30
0
41
1
10
19.9241757140849
20
-7.50095592825883
30
0
41
1
10
19.9241757140849
20
-8.11863057894882
30
0
41
1
10
19.9241757140849
20
-8.58200343039385
30
0
41
1
10
19.9241757140849
20
-9.04673423985764
30
0
0
SPLINE
5
BB
100
AcDbEntity
8
1
62
256
6
ByLayer
370
18
48
1
60
0
100
AcDbSpline
70
4
71
3
72
10
73
6
40
0
40
0
40
0
40
0
40
0.5
40
0.5
40
1
40
1
40
1
40
1
41
1
10
102.999742799671
20
0.0617402313164632
30
0
41
1
10
102.994486735086
20
0.0395230634832444
30
0
41
1
10
102.987369338999
20
0.0163561439423177
30
0
41
1
10
102.970084661542
20
-0.0270974902610703
30
0
41
1
10
102.959980529069
20
-0.0471534127564439
30
0
41
1
10
102.949579625078
20
-0.0635235759660873
30
0
0
SPLINE
5
BC
100
AcDbEntity
8
1
62
256
6
ByLayer
370
18
48
1
60
0
100
AcDbSpline
70
4
71
3
72
46
73
42
40
0
40
0
40
0
40
0
40
0.124999999999982
40
0.124999999999982
40
0.187499999999972
40
0.187499999999972
40
0.249999999999963
40
0.249999999999963
40
0.312499999999954
40
0.312499999999954
40
0.343749999999952
40
0.343749999999952
40
0.374999999999951
40
0.374999999999951
40
0.390624999999952
40
0.390624999999952
40
0.406249999999953
40
0.406249999999953
40
0.421874999999954
40
0.421874999999954
40
0.437499999999955
40
0.437499999999955
40
0.453124999999957
40
0.453124999999957
40
0.468749999999958
40
0.468749999999958
40
0.49999999999996
40
0.49999999999996
40
0.531249999999963
40
0.531249999999963
40
0.562499999999965
40
0.562499999999965
40
0.62499999999997
40
0.62499999999997
40
0.687499999999975
40
0.687499999999975
40
0.74999999999998
40
0.74999999999998
40
0.87499999999999
40
0.87499999999999
40
1
40
1
40
1
40
1
41
1
10
99.7444295846703
20
-4.6147548189347
30
0
41
1
10
99.4688884908609
20
-4.50130384506849
30
0
41
1
10
99.1980408905886
20
-4.36878834210873
30
0
41
1
10
98.8001899761763
20
-4.13581186591497
30
0
41
1
10
98.6689952516263
20
-4.05237600735782
30
0
41
1
10
98.4102041089918
20
-3.87088830797811
30
0
41
1
10
98.2818496234295
20
-3.7722425525462
30
0
41
1
10
98.0366280685675
20
-3.55921661577074
30
0
41
1
10
97.919070266889
20
-3.44492637448605
30
0
41
1
10
97.7559970132919
20
-3.25307661383087
30
0
41
1
10
97.7035577591934
20
-3.18521191152965
30
0
41
1
10
97.60732952289
20
-3.04049565672403
30
0
41
1
10
97.5641487877705
20
-2.96491171609156
30
0
41
1
10
97.5119847351929
20
-2.84329237690281
30
0
41
1
10
97.4970659407992
20
-2.80200997718896
30
0
41
1
10
97.4738133799728
20
-2.7183489833489
30
0
41
1
10
97.465394233858
20
-2.67528881845769
30
0
41
1
10
97.4575475669616
20
-2.59089549312594
30
0
41
1
10
97.4580238651408
20
-2.54941488465124
30
0
41
1
10
97.4688713701927
20
-2.4691254532172
30
0
41
1
10
97.4789934340592
20
-2.43187995122597
30
0
41
1
10
97.5076613003632
20
-2.36258703155855
30
0
41
1
10
97.5261787751545
20
-2.3309024469043
30
0
41
1
10
97.5683529878337
20
-2.27470652236596
30
0
41
1
10
97.5923152646062
20
-2.24963782883105
30
0
41
1
10
97.6700271470402
20
-2.18249494190522
30
0
41
1
10
97.7278007832304
20
-2.14933631767457
30
0
41
1
10
97.8501792013834
20
-2.09630563119703
30
0
41
1
10
97.9147412136574
20
-2.0768125807806
30
0
41
1
10
98.0452626362217
20
-2.04775610130545
30
0
41
1
10
98.1117566229399
20
-2.03805247420814
30
0
41
1
10
98.3138807143997
20
-2.01927769442318
30
0
41
1
10
98.4528121337058
20
-2.02047680892969
30
0
41
1
10
98.7295499333371
20
-2.03976012081651
30
0
41
1
10
98.8679950949995
20
-2.05791172186261
30
0
41
1
10
99.1449946170333
20
-2.10640024416793
30
0
41
1
10
99.2835496476102
20
-2.13681195263902
30
0
41
1
10
99.6993503975394
20
-2.24318497298699
30
0
41
1
10
99.9770566209926
20
-2.3340865694916
30
0
41
1
10
100.531429668004
20
-2.55047682795103
30
0
41
1
10
100.804653375257
20
-2.67455914339891
30
0
41
1
10
101.073379648522
20
-2.81667196208628
30
0
0
SPLINE
5
BD
100
AcDbEntity
8
1
62
256
6
ByLayer
370
18
48
1
60
0
100
AcDbSpline
70
4
71
3
72
48
73
44
40
0
40
0
40
0
40
0
40
0.03125
40
0.03125
40
0.0468750000000001
40
0.0468750000000001
40
0.0625000000000002
40
0.0625000000000002
40
0.0781250000000002
40
0.0781250000000002
40
0.0937500000000003
40
0.0937500000000003
40
0.125000000000001
40
0.125000000000001
40
0.156250000000001
40
0.156250000000001
40
0.187500000000001
40
0.187500000000001
40
0.250000000000002
40
0.250000000000002
40
0.281250000000003
40
0.281250000000003
40
0.312500000000003
40
0.312500000000003
40
0.375000000000004
40
0.375000000000004
40
0.437500000000005
40
0.437500000000005
40
0.500000000000005
40
0.500000000000005
40
0.531250000000006
40
0.531250000000006
40
0.562500000000006
40
0.562500000000006
40
0.625000000000007
40
0.625000000000007
40
0.687500000000007
40
0.687500000000007
40
0.750000000000006
40
0.750000000000006
40
0.875000000000003
40
0.875000000000003
40
1
40
1
40
1
40
1
41
1
10
2.88837879235842
20
-2.02989760184107
30
0
41
1
10
2.81575183286023
20
-2.2596743597928
30
0
41
1
10
2.77329535772569
20
-2.49110965554078
30
0
41
1
10
2.75573218307625
20
-2.84048620233563
30
0
41
1
10
2.75770912867347
20
-2.95808936763211
30
0
41
1
10
2.77666066871512
20
-3.18821343547864
30
0
41
1
10
2.79349856185198
20
-3.30116082466938
30
0
41
1
10
2.8405095744202
20
-3.52316532523145
30
0
41
1
10
2.87067496311386
20
-3.63222349629299
30
0
41
1
10
2.94323856075556
20
-3.84671792709068
30
0
41
1
10
2.98536548931119
20
-3.95126062928594
30
0
41
1
10
3.12526477488314
20
-4.25429621210628
30
0
41
1
10
3.23693473147279
20
-4.44398158438139
30
0
41
1
10
3.48785430340251
20
-4.80447357118243
30
0
41
1
10
3.62795698385816
20
-4.97590074583067
30
0
41
1
10
3.92337054349653
20
-5.29674107419993
30
0
41
1
10
4.07924438542119
20
-5.44711488162642
30
0
41
1
10
4.56524798912068
20
-5.8750329382213
30
0
41
1
10
4.91343084843715
20
-6.12973846205372
30
0
41
1
10
5.45890284551263
20
-6.48071225243839
30
0
41
1
10
5.64385478400743
20
-6.5918516679703
30
0
41
1
10
6.01733576606156
20
-6.80354623070045
30
0
41
1
10
6.20611805584252
20
-6.90425800369437
30
0
41
1
10
6.77744334682689
20
-7.19325677282555
30
0
41
1
10
7.1648677376686
20
-7.3687217445536
30
0
41
1
10
7.94936620785097
20
-7.69082262693232
30
0
41
1
10
8.34648287571389
20
-7.83731836129715
30
0
41
1
10
9.1481068439152
20
-8.10593137141947
30
0
41
1
10
9.55262286704016
20
-8.22804619199775
30
0
41
1
10
10.1640018808028
20
-8.3949863690452
30
0
41
1
10
10.3687339115437
20
-8.44793476878542
30
0
41
1
10
10.777950375836
20
-8.54784591509758
30
0
41
1
10
10.9826200109958
20
-8.59483724628817
30
0
41
1
10
11.5968054791323
20
-8.727415304875
30
0
41
1
10
12.0064886269681
20
-8.8046528983846
30
0
41
1
10
12.8265646591186
20
-8.93917866019498
30
0
41
1
10
13.2369571961616
20
-8.99645810596661
30
0
41
1
10
14.0589472919164
20
-9.09052435875705
30
0
41
1
10
14.4705400143862
20
-9.12704949673883
30
0
41
1
10
15.7084689663413
20
-9.207839198404
30
0
41
1
10
16.5378575776617
20
-9.22435901657306
30
0
41
1
10
18.2145215424584
20
-9.18424080165556
30
0
41
1
10
19.0619058118528
20
-9.1296559540616
30
0
41
1
10
19.9241757140849
20
-9.04673423984562
30
0
0
SPLINE
5
BE
100
AcDbEntity
8
1
62
256
6
ByLayer
370
18
48
1
60
0
100
AcDbSpline
70
4
71
3
72
22
73
18
40
0
40
0
40
0
40
0
40
0.250000000000006
40
0.250000000000006
40
0.375000000000009
40
0.375000000000009
40
0.437500000000009
40
0.437500000000009
40
0.500000000000009
40
0.500000000000009
40
0.750000000000005
40
0.750000000000005
40
0.812500000000004
40
0.812500000000004
40
0.875000000000002
40
0.875000000000002
40
1
40
1
40
1
40
1
41
1
10
98.0144072232226
20
-6.85180687527006
30
0
41
1
10
98.168004067812
20
-7.26384360746601
30
0
41
1
10
98.3240582490089
20
-7.62472970565449
30
0
41
1
10
98.5609031707907
20
-8.09232345904911
30
0
41
1
10
98.6403284895576
20
-8.23580391376984
30
0
41
1
10
98.7602026567969
20
-8.43197757485842
30
0
41
1
10
98.8003931422857
20
-8.49434260831069
30
0
41
1
10
98.8804083448862
20
-8.61166078533287
30
0
41
1
10
98.9202191517671
20
-8.66661743859817
30
0
41
1
10
99.1183395438663
20
-8.92321219575362
30
0
41
1
10
99.2738269158405
20
-9.07079508234409
30
0
41
1
10
99.4654176814034
20
-9.18305853497981
30
0
41
1
10
99.5035988809301
20
-9.20186864069794
30
0
41
1
10
99.5797192519597
20
-9.23207049525004
30
0
41
1
10
99.617722237644
20
-9.24347300343794
30
0
41
1
10
99.7309383509019
20
-9.26618233066549
30
0
41
1
10
99.8051577521481
20
-9.26603674164207
30
0
41
1
10
99.8783085196299
20
-9.25052491281761
30
0
0
SPLINE
5
BF
100
AcDbEntity
8
1
62
256
6
ByLayer
370
18
48
1
60
0
100
AcDbSpline
70
4
71
3
72
10
73
6
40
0
40
0
40
0
40
0
40
0.5
40
0.5
40
1
40
1
40
1
40
1
41
1
10
102.949579625078
20
-0.0635235759661157
30
0
41
1
10
102.649625505327
20
-0.535626568158335
30
0
41
1
10
102.341742603955
20
-0.999490335552792
30
0
41
1
10
101.715056646074
20
-1.91587014791824
30
0
41
1
10
101.396212539142
20
-2.36834353517932
30
0
41
1
10
101.073379648522
20
-2.8166719620865
30
0
0
SPLINE
5
C0
100
AcDbEntity
8
1
62
256
6
ByLayer
370
18
48
1
60
0
100
AcDbSpline
70
4
71
3
72
60
73
56
40
0
40
0
40
0
40
0
40
0.0556034364823407
40
0.0556034364823407
40
0.111206872964681
40
0.111206872964681
40
0.139008591205852
40
0.139008591205852
40
0.166810309447022
40
0.166810309447022
40
0.194612027688192
40
0.194612027688192
40
0.222413745929363
40
0.222413745929363
40
0.278017182411704
40
0.278017182411704
40
0.305818900652874
40
0.305818900652874
40
0.333620618894044
40
0.333620618894044
40
0.389224055376385
40
0.389224055376385
40
0.417025773617556
40
0.417025773617556
40
0.444827491858727
40
0.444827491858727
40
0.500430928341069
40
0.500430928341069
40
0.556034364823412
40
0.556034364823412
40
0.583836083064583
40
0.583836083064583
40
0.611637801305754
40
0.611637801305754
40
0.667241237788096
40
0.667241237788096
40
0.695042956029267
40
0.695042956029267
40
0.722844674270438
40
0.722844674270438
40
0.778448110752779
40
0.778448110752779
40
0.80624982899395
40
0.80624982899395
40
0.83405154723512
40
0.83405154723512
40
0.861853265476291
40
0.861853265476291
40
0.889654983717462
40
0.889654983717462
40
0.945258420199803
40
0.945258420199803
40
0.973060138440974
40
0.973060138440974
40
1
40
1
40
1
40
1
41
1
10
99.7148316784117
20
-9.73589403234902
30
0
41
1
10
98.6889757096729
20
-9.76605966473636
30
0
41
1
10
97.6618353449779
20
-9.74466810087554
30
0
41
1
10
95.6127618249315
20
-9.60026712743306
30
0
41
1
10
94.589614876188
20
-9.47740762615416
30
0
41
1
10
93.0512912521212
20
-9.21903180304642
30
0
41
1
10
92.5376202872914
20
-9.120486138937
30
0
41
1
10
91.512315005154
20
-8.90013230779618
30
0
41
1
10
91.0002094460278
20
-8.77823277542154
30
0
41
1
10
89.9761268528396
20
-8.51179265186209
30
0
41
1
10
89.4641351264544
20
-8.3672642676905
30
0
41
1
10
88.439291620827
20
-8.0564066148487
30
0
41
1
10
87.926010051241
20
-7.88992699783026
30
0
41
1
10
86.3865325306549
20
-7.36002742076951
30
0
41
1
10
85.363102699785
20
-6.96721588952468
30
0
41
1
10
83.8265483885632
20
-6.32598360046615
30
0
41
1
10
83.3141067470365
20
-6.10359949093072
30
0
41
1
10
82.2877504483114
20
-5.64278771534524
30
0
41
1
10
81.7742998270047
20
-5.40455528457082
30
0
41
1
10
80.2366328111412
20
-4.67093280813137
30
0
41
1
10
79.2133448785445
20
-4.15552959972527
30
0
41
1
10
77.6753122488449
20
-3.3521595380299
30
0
41
1
10
77.1615661303056
20
-3.07907155844231
30
0
41
1
10
76.1356207770655
20
-2.52653253276603
30
0
41
1
10
75.6232374513565
20
-2.24699729079222
30
0
41
1
10
74.0865550941594
20
-1.40088564503199
30
0
41
1
10
73.0626464815546
20
-0.826896967082632
30
0
41
1
10
71.0085269109432
20
0.327672083254924
30
0
41
1
10
69.9845350842274
20
0.903977110885506
30
0
41
1
10
68.447815794792
20
1.75752329054618
30
0
41
1
10
67.9354251752216
20
2.04016778204669
30
0
41
1
10
66.9092788485847
20
2.59983577889989
30
0
41
1
10
66.3954141920965
20
2.87704520960247
30
0
41
1
10
64.8570601237108
20
3.69459482794912
30
0
41
1
10
63.833451730759
20
4.22165433669997
30
0
41
1
10
62.2955212684261
20
4.97641273986397
30
0
41
1
10
61.781938150203
20
5.22218978431488
30
0
41
1
10
60.755236448638
20
5.69891658940705
30
0
41
1
10
60.2426210516637
20
5.9297700859166
30
0
41
1
10
58.7054858515357
20
6.59777710955086
30
0
41
1
10
57.6815368913602
20
7.01019291187845
30
0
41
1
10
56.1412603834242
20
7.57204066608051
30
0
41
1
10
55.6277464846545
20
7.74958117300582
30
0
41
1
10
54.6023678494721
20
8.08320855624493
30
0
41
1
10
54.0900915415301
20
8.23946189493574
30
0
41
1
10
53.0654050384338
20
8.52996322159814
30
0
41
1
10
52.5529886204479
20
8.66420612875035
30
0
41
1
10
51.5270725693594
20
8.90981609073782
30
0
41
1
10
51.0130564293007
20
9.02125003574602
30
0
41
1
10
49.4736957346353
20
9.31887297158653
30
0
41
1
10
48.4498274818444
20
9.4687050583336
30
0
41
1
10
46.9119221460475
20
9.61817743158076
30
0
41
1
10
46.3987698083348
20
9.6554513016338
30
0
41
1
10
45.387249049796
20
9.70372307073097
30
0
41
1
10
44.8902222945368
20
9.71544461770429
30
0
41
1
10
44.3934833899038
20
9.71517198558729
30
0
0
SPLINE
5
C1
100
AcDbEntity
8
1
62
256
6
ByLayer
370
18
48
1
60
0
100
AcDbSpline
70
4
71
3
72
12
73
8
40
0
40
0
40
0
40
0
40
0.249999999999993
40
0.249999999999993
40
0.499999999999986
40
0.499999999999986
40
1
40
1
40
1
40
1
41
1
10
1.24602017733122
20
7.71280194152763
30
0
41
1
10
1.22656627949749
20
7.71938368420049
30
0
41
1
10
1.20897932023757
20
7.72735205568762
30
0
41
1
10
1.17743249065353
20
7.74593757649774
30
0
41
1
10
1.16363754464183
20
7.75654334767145
30
0
41
1
10
1.13026724752228
20
7.79052503991485
30
0
41
1
10
1.11815232879263
20
7.81661275255016
30
0
41
1
10
1.11815232879263
20
7.84279138444603
30
0
0
SPLINE
5
C2
100
AcDbEntity
8
1
62
256
6
ByLayer
370
18
48
1
60
0
100
AcDbSpline
70
4
71
3
72
34
73
30
40
0
40
0
40
0
40
0
40
0.062499999999999
40
0.062499999999999
40
0.0937499999999985
40
0.0937499999999985
40
0.124999999999998
40
0.124999999999998
40
0.187499999999998
40
0.187499999999998
40
0.218749999999998
40
0.218749999999998
40
0.249999999999999
40
0.249999999999999
40
0.374999999999999
40
0.374999999999999
40
0.437499999999999
40
0.437499999999999
40
0.499999999999999
40
0.499999999999999
40
0.562499999999999
40
0.562499999999999
40
0.625
40
0.625
40
0.75
40
0.75
40
0.875
40
0.875
40
1
40
1
40
1
40
1
41
1
10
90.5014843522059
20
3.99452832913008
30
0
41
1
10
90.4534016665713
20
3.72189007693484
30
0
41
1
10
90.4249067590071
20
3.44097990027416
30
0
41
1
10
90.4133069437847
20
3.00646312885533
30
0
41
1
10
90.4146969002368
20
2.85867805970955
30
0
41
1
10
90.4280068810895
20
2.56339394275994
30
0
41
1
10
90.4398587690374
20
2.41575037304571
30
0
41
1
10
90.4903655206671
20
1.97281531617949
30
0
41
1
10
90.5439317695489
20
1.67751949284937
30
0
41
1
10
90.6523810058646
20
1.23456758651329
30
0
41
1
10
90.6932754163822
20
1.08675179659488
30
0
41
1
10
90.7840737763355
20
0.791797385953572
30
0
41
1
10
90.8334892374578
20
0.646197727580386
30
0
41
1
10
91.0990289386065
20
-0.073169690816286
30
0
41
1
10
91.3697784665109
20
-0.621401005856825
30
0
41
1
10
91.8449807440275
20
-1.41145512928381
30
0
41
1
10
92.0128750591736
20
-1.6658051748075
30
0
41
1
10
92.3627224080373
20
-2.15670032425007
30
0
41
1
10
92.5450077725532
20
-2.39374132739181
30
0
41
1
10
92.9223395230833
20
-2.85325107656698
30
0
41
1
10
93.1173939773779
20
-3.0757106091487
30
0
41
1
10
93.5188856938804
20
-3.50763124753678
30
0
41
1
10
93.7257515872609
20
-3.71754175866786
30
0
41
1
10
94.3591057223342
20
-4.32641019659684
30
0
41
1
10
94.7939315560961
20
-4.69956063514601
30
0
41
1
10
95.6834714671566
20
-5.39410702588924
30
0
41
1
10
96.1380345879765
20
-5.71589580689147
30
0
41
1
10
97.063976768081
20
-6.31571383547137
30
0
41
1
10
97.5353817931496
20
-6.59367551318988
30
0
41
1
10
98.0144072232226
20
-6.85180687527006
30
0
0
SPLINE
5
C3
100
AcDbEntity
8
1
62
256
6
ByLayer
370
18
48
1
60
0
100
AcDbSpline
70
4
71
3
72
16
73
12
40
0
40
0
40
0
40
0
40
0.492307699503985
40
0.492307699503985
40
0.615384624379979
40
0.615384624379979
40
0.738461549255973
40
0.738461549255973
40
0.98461539900796
40
0.98461539900796
40
1
40
1
40
1
40
1
41
1
10
99.8783085196297
20
-9.25052491281761
30
0
41
1
10
97.8174680190259
20
-9.30536892486094
30
0
41
1
10
95.7717257048647
20
-9.16221078507013
30
0
41
1
10
93.1988529213626
20
-8.74709009281742
30
0
41
1
10
92.6827597208685
20
-8.65205677648208
30
0
41
1
10
91.6517687825633
20
-8.43950681915089
30
0
41
1
10
91.1371455282743
20
-8.32208303542231
30
0
41
1
10
89.5946501741586
20
-7.93765627724417
30
0
41
1
10
88.5680172087347
20
-7.63849689058591
30
0
41
1
10
87.4752404975438
20
-7.27890845268416
30
0
41
1
10
87.4109524529125
20
-7.2576025240638
30
0
41
1
10
87.3466562645447
20
-7.23614404951067
30
0
0
SPLINE
5
C4
100
AcDbEntity
8
1
62
256
6
ByLayer
370
13
48
1
60
0
100
AcDbSpline
70
4
71
3
72
24
73
20
40
0
40
0
40
0
40
0
40
0.0678820668786452
40
0.0678820668786452
40
0.145461584484899
40
0.145461584484899
40
0.300620619697406
40
0.300620619697406
40
0.378200137303659
40
0.378200137303659
40
0.455779654909913
40
0.455779654909913
40
0.61093869012242
40
0.61093869012242
40
0.921256760547432
40
0.921256760547432
40
0.998836278153685
40
0.998836278153685
40
1
40
1
40
1
40
1
41
1
10
87.3466558619432
20
-7.23614391514482
30
0
41
1
10
86.8965821886104
20
-7.08593447049643
30
0
41
1
10
86.4461094714574
20
-6.92825026348453
30
0
41
1
10
85.4792025068105
20
-6.57517646179329
30
0
41
1
10
84.9631837112599
20
-6.37779684273238
30
0
41
1
10
83.4184319214222
20
-5.76218511131873
30
0
41
1
10
82.3906817910936
20
-5.31984235685255
30
0
41
1
10
80.8466128151855
20
-4.61718393059084
30
0
41
1
10
80.3315409127947
20
-4.37640567659844
30
0
41
1
10
79.299748813601
20
-3.883022766961
30
0
41
1
10
78.7844114948788
20
-3.63105500098129
30
0
41
1
10
77.2443406554561
20
-2.86461577200322
30
0
41
1
10
76.2230553811979
20
-2.33884976493888
30
0
41
1
10
73.1650243660195
20
-0.737031479199459
30
0
41
1
10
71.1342684582417
20
0.363907272200805
30
0
41
1
10
68.5711120338415
20
1.71535593417988
30
0
41
1
10
68.057235353369
20
1.98439340572131
30
0
41
1
10
67.5338571189243
20
2.2551756070518
30
0
41
1
10
67.5261218691986
20
2.2591769051316
30
0
41
1
10
67.5183862456601
20
2.26317767810042
30
0
0
SPLINE
5
C5
100
AcDbEntity
8
1
62
256
6
ByLayer
370
18
48
1
60
0
100
AcDbSpline
70
4
71
3
72
8
73
4
40
0
40
0
40
0
40
0
40
1
40
1
40
1
40
1
41
1
10
99.8694125638864
20
-9.34386381004182
30
0
41
1
10
99.8180624326641
20
-9.47481778126613
30
0
41
1
10
99.7665369873256
20
-9.60549548907443
30
0
41
1
10
99.7148316784116
20
-9.73589403234905
30
0
0
SPLINE
5
C6
100
AcDbEntity
8
1
62
256
6
ByLayer
370
18
48
1
60
0
100
AcDbSpline
70
4
71
3
72
36
73
32
40
0
40
0
40
0
40
0
40
0.0625000000000005
40
0.0625000000000005
40
0.125000000000001
40
0.125000000000001
40
0.187500000000002
40
0.187500000000002
40
0.250000000000002
40
0.250000000000002
40
0.312500000000003
40
0.312500000000003
40
0.375000000000003
40
0.375000000000003
40
0.437500000000004
40
0.437500000000004
40
0.500000000000004
40
0.500000000000004
40
0.562500000000005
40
0.562500000000005
40
0.625000000000005
40
0.625000000000005
40
0.687500000000006
40
0.687500000000006
40
0.750000000000006
40
0.750000000000006
40
0.812500000000007
40
0.812500000000007
40
0.875000000000007
40
0.875000000000007
40
1
40
1
40
1
40
1
41
1
10
101.073379648522
20
-2.81667196208628
30
0
41
1
10
101.086220127048
20
-2.8708991220125
30
0
41
1
10
101.094559610987
20
-2.93100005383764
30
0
41
1
10
101.101151835037
20
-3.06078512018823
30
0
41
1
10
101.099364690018
20
-3.13205208186102
30
0
41
1
10
101.085477145773
20
-3.27945952023796
30
0
41
1
10
101.073559879773
20
-3.35579905494072
30
0
41
1
10
101.039793073371
20
-3.51409670017586
30
0
41
1
10
101.018504404171
20
-3.59328334819833
30
0
41
1
10
100.968678614867
20
-3.74967929404562
30
0
41
1
10
100.939867616081
20
-3.8274535717884
30
0
41
1
10
100.878080948552
20
-3.97480956321454
30
0
41
1
10
100.84449400829
20
-4.04596384234225
30
0
41
1
10
100.774465903546
20
-4.17937414010387
30
0
41
1
10
100.738259238359
20
-4.24133054740835
30
0
41
1
10
100.663609290173
20
-4.35672930147169
30
0
41
1
10
100.625191965108
20
-4.4100004761741
30
0
41
1
10
100.548469391849
20
-4.50543615744712
30
0
41
1
10
100.50985559463
20
-4.54808856241905
30
0
41
1
10
100.431958723997
20
-4.62379160129351
30
0
41
1
10
100.393076163609
20
-4.65639945881011
30
0
41
1
10
100.316389160071
20
-4.71095106555254
30
0
41
1
10
100.278397537325
20
-4.73307417089043
30
0
41
1
10
100.202911922906
20
-4.76721848765644
30
0
41
1
10
100.165473091452
20
-4.77913031332568
30
0
41
1
10
100.092878342815
20
-4.79236424624526
30
0
41
1
10
100.057464588367
20
-4.79381869073941
30
0
41
1
10
99.9882634990093
20
-4.7863834157439
30
0
41
1
10
99.954254217399
20
-4.77738794675145
30
0
41
1
10
99.856366062104
20
-4.7345208184162
30
0
41
1
10
99.7971086580791
20
-4.68585779080897
30
0
41
1
10
99.7444295846703
20
-4.61475481893473
30
0
0
SPLINE
5
C7
100
AcDbEntity
8
1
62
256
6
ByLayer
370
13
48
1
60
0
100
AcDbSpline
70
4
71
3
72
20
73
16
40
0
40
0
40
0
40
0
40
0.0076252166964004
40
0.0076252166964004
40
0.118930704857087
40
0.118930704857087
40
0.341541681178459
40
0.341541681178459
40
0.564152657499832
40
0.564152657499832
40
0.786763633821205
40
0.786763633821205
40
0.898069121981891
40
0.898069121981891
40
1
40
1
40
1
40
1
41
1
10
1.36847163777495
20
7.67691873526044
30
0
41
1
10
1.36847297018309
20
7.68449184760775
30
0
41
1
10
1.3684742993668
20
7.69203755001834
30
0
41
1
10
1.36849498013009
20
7.80929681041084
30
0
41
1
10
1.3685136190945
20
7.9130100464559
30
0
41
1
10
1.36856768644435
20
8.20649039862499
30
0
41
1
10
1.36860127054999
20
8.37867001119989
30
0
41
1
10
1.36866493182143
20
8.67651482139757
30
0
41
1
10
1.36869502073821
20
8.80223970944093
30
0
41
1
10
1.36875290769086
20
9.00500349034914
30
0
41
1
10
1.36878026630501
20
9.08049473805394
30
0
41
1
10
1.3688199410123
20
9.15513483339799
30
0
41
1
10
1.36883296328682
20
9.17356127097793
30
0
41
1
10
1.36885736299783
20
9.19616382509287
30
0
41
1
10
1.36886880965113
20
9.20147469456811
30
0
41
1
10
1.36888009466853
20
9.20139365219171
30
0
0
SPLINE
5
C8
100
AcDbEntity
8
1
62
256
6
ByLayer
370
18
48
1
60
0
100
AcDbSpline
70
4
71
3
72
10
73
6
40
0
40
0
40
0
40
0
40
0.5
40
0.5
40
1
40
1
40
1
40
1
41
1
10
102.988001180146
20
0.422586033301542
30
0
41
1
10
102.966402729863
20
0.804557411083294
30
0
41
1
10
102.915786620406
20
1.18746128397166
30
0
41
1
10
102.765045609438
20
1.9766467015198
30
0
41
1
10
102.665119777772
20
2.38289271056706
30
0
41
1
10
102.545368045219
20
2.80999747685504
30
0
0
SPLINE
5
C9
100
AcDbEntity
8
1
62
256
6
ByLayer
370
18
48
1
60
0
100
AcDbSpline
70
4
71
3
72
8
73
4
40
0
40
0
40
0
40
0
40
1
40
1
40
1
40
1
41
1
10
102.999742799671
20
-0.0617402313166906
30
0
41
1
10
103.00008549719
20
-0.0206046409738576
30
0
41
1
10
103.000085949749
20
0.0205503181283859
30
0
41
1
10
102.999742799671
20
0.0617402313163495
30
0
0
SPLINE
5
CA
100
AcDbEntity
8
1
62
256
6
ByLayer
370
18
48
1
60
0
100
AcDbSpline
70
4
71
3
72
48
73
44
40
0
40
0
40
0
40
0
40
0.0156249999999974
40
0.0156249999999974
40
0.0312499999999949
40
0.0312499999999949
40
0.0624999999999892
40
0.0624999999999892
40
0.0937499999999835
40
0.0937499999999835
40
0.124999999999978
40
0.124999999999978
40
0.140624999999975
40
0.140624999999975
40
0.144531249999974
40
0.144531249999974
40
0.148437499999973
40
0.148437499999973
40
0.152343749999973
40
0.152343749999973
40
0.156249999999972
40
0.156249999999972
40
0.164062499999972
40
0.164062499999972
40
0.171874999999971
40
0.171874999999971
40
0.187499999999972
40
0.187499999999972
40
0.249999999999974
40
0.249999999999974
40
0.37499999999998
40
0.37499999999998
40
0.499999999999985
40
0.499999999999985
40
0.62499999999999
40
0.62499999999999
40
0.749999999999994
40
0.749999999999994
40
0.812499999999996
40
0.812499999999996
40
0.874999999999998
40
0.874999999999998
40
1
40
1
40
1
40
1
41
1
10
2.2377928714539
20
-1.77749583320985
30
0
41
1
10
2.27689302248993
20
-1.68430010253454
30
0
41
1
10
2.32072899541183
20
-1.59174149455322
30
0
41
1
10
2.41526199020484
20
-1.41178076081795
30
0
41
1
10
2.46604734652163
20
-1.32406397428249
30
0
41
1
10
2.62777937123286
20
-1.0669601472739
30
0
41
1
10
2.7480335597929
20
-0.903575471283432
30
0
41
1
10
3.00891722685191
20
-0.590018602398573
30
0
41
1
10
3.15002028452784
20
-0.439565844069108
30
0
41
1
10
3.44462576069248
20
-0.154466481098296
30
0
41
1
10
3.59866018992094
20
-0.0191665570819453
30
0
41
1
10
3.83805494187416
20
0.174789971948968
30
0
41
1
10
3.9192130939243
20
0.23790147231378
30
0
41
1
10
4.02201501023052
20
0.314873744649987
30
0
41
1
10
4.04229041302099
20
0.330862051969803
30
0
41
1
10
4.08518898202914
20
0.358784465277409
30
0
41
1
10
4.10805365625691
20
0.369392967248928
30
0
41
1
10
4.15550338191656
20
0.386535893994562
30
0
41
1
10
4.18033394096872
20
0.393044103867482
30
0
41
1
10
4.23017670778466
20
0.402412056382332
30
0
41
1
10
4.25518919673834
20
0.405087236039378
30
0
41
1
10
4.33040205617601
20
0.409245793120476
30
0
41
1
10
4.38062383525482
20
0.410257134753408
30
0
41
1
10
4.48101596362221
20
0.413413712582582
30
0
41
1
10
4.53121814728558
20
0.414857072254677
30
0
41
1
10
4.68184300896641
20
0.418783431567363
30
0
41
1
10
4.78229575544486
20
0.420863016574913
30
0
41
1
10
5.28452793907522
20
0.428584404266246
30
0
41
1
10
5.68609972607237
20
0.426205548272066
30
0
41
1
10
6.89018846001693
20
0.394007476236908
30
0
41
1
10
7.69358909639405
20
0.33883512268352
30
0
41
1
10
9.28273570755445
20
0.165981629902916
30
0
41
1
10
10.0702092110366
20
0.0482659997317398
30
0
41
1
10
11.6318936051103
20
-0.245121375490299
30
0
41
1
10
12.406077179896
20
-0.420911346698745
30
0
41
1
10
13.9422034970798
20
-0.825275700217361
30
0
41
1
10
14.7041580033759
20
-1.05379567075556
30
0
41
1
10
15.8390398673031
20
-1.43060924775134
30
0
41
1
10
16.2160004656274
20
-1.56184920777636
30
0
41
1
10
16.9674918787548
20
-1.83446019374799
30
0
41
1
10
17.3420525949751
20
-1.9758430387424
30
0
41
1
10
18.4584601741259
20
-2.41149004735311
30
0
41
1
10
19.1944235595067
20
-2.71784260968405
30
0
41
1
10
19.9241757140849
20
-3.03399744674258
30
0
0
SPLINE
5
CB
100
AcDbEntity
8
1
62
256
6
ByLayer
370
18
48
1
60
0
100
AcDbSpline
70
4
71
3
72
8
73
4
40
0
40
0
40
0
40
0
40
1
40
1
40
1
40
1
41
1
10
102.545368045219
20
2.80999747685504
30
0
41
1
10
102.513272708147
20
2.61387789306488
30
0
41
1
10
102.475404068144
20
2.41944156831249
30
0
41
1
10
102.432500013131
20
2.2265569843874
30
0
0
SPLINE
5
CC
100
AcDbEntity
8
1
62
256
6
ByLayer
370
18
48
1
60
0
100
AcDbSpline
70
4
71
3
72
14
73
10
40
0
40
0
40
0
40
0
40
0.25
40
0.25
40
0.5
40
0.5
40
0.75
40
0.75
40
1
40
1
40
1
40
1
41
1
10
99.4695527918294
20
2.13941676629614
30
0
41
1
10
99.4681434864229
20
2.16476277075429
30
0
41
1
10
99.4735273849013
20
2.19043470806747
30
0
41
1
10
99.4989264770321
20
2.23499255309497
30
0
41
1
10
99.5189105436099
20
2.25363169170799
30
0
41
1
10
99.563902737392
20
2.28011161394645
30
0
41
1
10
99.5892674505969
20
2.28868303311461
30
0
41
1
10
99.6403068268447
20
2.29876027423984
30
0
41
1
10
99.6665022423928
20
2.30043959409593
30
0
41
1
10
99.6926424750267
20
2.2996213076986
30
0
0
SPLINE
5
CD
100
AcDbEntity
8
1
62
256
6
ByLayer
370
18
48
1
60
0
100
AcDbSpline
70
4
71
3
72
8
73
4
40
0
40
0
40
0
40
0
40
1
40
1
40
1
40
1
41
1
10
102.988001180146
20
-0.422586033301684
30
0
41
1
10
102.987868601051
20
-0.353755167587451
30
0
41
1
10
102.986546253011
20
-0.284940625326044
30
0
41
1
10
102.983952013716
20
-0.216143533223317
30
0
0
SPLINE
5
CE
100
AcDbEntity
8
1
62
256
6
ByLayer
370
18
48
1
60
0
100
AcDbSpline
70
4
71
3
72
106
73
102
40
0
40
0
40
0
40
0
40
0.0199654823215294
40
0.0199654823215294
40
0.0385552596240255
40
0.0385552596240255
40
0.0571450369265215
40
0.0571450369265215
40
0.0757348142290175
40
0.0757348142290175
40
0.0943245915315135
40
0.0943245915315135
40
0.131504146136505
40
0.131504146136505
40
0.150093923439001
40
0.150093923439001
40
0.168683700741497
40
0.168683700741497
40
0.187273478043993
40
0.187273478043993
40
0.205863255346489
40
0.205863255346489
40
0.224453032648985
40
0.224453032648985
40
0.233747921300233
40
0.233747921300233
40
0.243042809951481
40
0.243042809951481
40
0.280222364556474
40
0.280222364556474
40
0.298812141858971
40
0.298812141858971
40
0.317401919161467
40
0.317401919161467
40
0.335991696463964
40
0.335991696463964
40
0.35458147376646
40
0.35458147376646
40
0.391761028371453
40
0.391761028371453
40
0.401055917022701
40
0.401055917022701
40
0.410350805673949
40
0.410350805673949
40
0.428940582976445
40
0.428940582976445
40
0.447530360278942
40
0.447530360278942
40
0.466120137581438
40
0.466120137581438
40
0.484709914883934
40
0.484709914883934
40
0.50329969218643
40
0.50329969218643
40
0.540479246791422
40
0.540479246791422
40
0.549774135442671
40
0.549774135442671
40
0.559069024093919
40
0.559069024093919
40
0.577658801396414
40
0.577658801396414
40
0.59624857869891
40
0.59624857869891
40
0.614838356001406
40
0.614838356001406
40
0.652017910606398
40
0.652017910606398
40
0.670607687908894
40
0.670607687908894
40
0.68919746521139
40
0.68919746521139
40
0.707787242513885
40
0.707787242513885
40
0.72637701981638
40
0.72637701981638
40
0.763556574421371
40
0.763556574421371
40
0.782146351723867
40
0.782146351723867
40
0.800736129026363
40
0.800736129026363
40
0.819325906328859
40
0.819325906328859
40
0.837915683631355
40
0.837915683631355
40
0.856505460933851
40
0.856505460933851
40
0.875095238236347
40
0.875095238236347
40
0.91227479284134
40
0.91227479284134
40
0.930864570143836
40
0.930864570143836
40
0.949454347446332
40
0.949454347446332
40
0.968044124748827
40
0.968044124748827
40
0.986633902051324
40
0.986633902051324
40
1
40
1
40
1
40
1
41
1
10
28.594305524079
20
7.08917278503631
30
0
41
1
10
29.0424563164025
20
7.2604167944466
30
0
41
1
10
29.4913589619816
20
7.42464509964159
30
0
41
1
10
30.3591375022315
20
7.7288602440847
30
0
41
1
10
30.7775469251009
20
7.8701106803467
30
0
41
1
10
31.6179987319618
20
8.13749303229065
30
0
41
1
10
32.0405592665233
20
8.26412804722366
30
0
41
1
10
32.8824077670917
20
8.50182829186065
30
0
41
1
10
33.3021923039821
20
8.61301565865435
30
0
41
1
10
34.1389507723742
20
8.82055761759858
30
0
41
1
10
34.5558945630293
20
8.91685066606357
30
0
41
1
10
35.8073781693239
20
9.17996877929863
30
0
41
1
10
36.640843734426
20
9.32282274886234
30
0
41
1
10
37.8866816051995
20
9.48991354868832
30
0
41
1
10
38.3018178966284
20
9.53737750860128
30
0
41
1
10
39.1336945925799
20
9.61536592606768
30
0
41
1
10
39.5500785119968
20
9.64604884375908
30
0
41
1
10
40.3832567823231
20
9.69086767180011
30
0
41
1
10
40.8000158068618
20
9.7050032523928
30
0
41
1
10
41.6337445796158
20
9.71628633931604
30
0
41
1
10
42.0517669678773
20
9.71338126547428
30
0
41
1
10
42.8903252486709
20
9.69061147096903
30
0
41
1
10
43.3107141598158
20
9.67074694565937
30
0
41
1
10
43.9427058819451
20
9.62796099510095
30
0
41
1
10
44.1536240254365
20
9.61152644725934
30
0
41
1
10
44.5741567445494
20
9.57438025958345
30
0
41
1
10
44.7839010040551
20
9.55362185033437
30
0
41
1
10
45.8320404796919
20
9.43962358234006
30
0
41
1
10
46.6687817391563
20
9.31624625097538
30
0
41
1
10
47.9186870032733
20
9.08317895748354
30
0
41
1
10
48.3339682135934
20
8.99706052110849
30
0
41
1
10
49.1651091580158
20
8.81014960526079
30
0
41
1
10
49.580973797597
20
8.70943578887645
30
0
41
1
10
50.4127354277818
20
8.49327458202731
30
0
41
1
10
50.8286389636393
20
8.37782994936154
30
0
41
1
10
51.6600775431089
20
8.13166477489179
30
0
41
1
10
52.0752628772048
20
8.0005278767168
30
0
41
1
10
53.3247267555555
20
7.58845471463567
30
0
41
1
10
54.1615515688661
20
7.28795756792587
30
0
41
1
10
55.2099667548656
20
6.87614034427315
30
0
41
1
10
55.4196856327059
20
6.79182725188434
30
0
41
1
10
55.8400368114884
20
6.6204002648642
30
0
41
1
10
56.0508504312365
20
6.533173442144
30
0
41
1
10
56.6825279204568
20
6.26805716152023
30
0
41
1
10
57.1028007167254
20
6.08662732184828
30
0
41
1
10
57.9411491301835
20
5.71378864518087
30
0
41
1
10
58.3592718433812
20
5.52245000588593
30
0
41
1
10
59.1928454689879
20
5.12902205964085
30
0
41
1
10
59.609118139096
20
4.92818940662468
30
0
41
1
10
60.4418913713621
20
4.52042093269526
30
0
41
1
10
60.8581090530367
20
4.3130467190507
30
0
41
1
10
61.6897658415599
20
3.89063073382161
30
0
41
1
10
62.1050774854939
20
3.67537200098047
30
0
41
1
10
63.3500128989422
20
3.01819318734891
30
0
41
1
10
64.1828666346169
20
2.57217435578028
30
0
41
1
10
65.2255361546189
20
2.00134045353252
30
0
41
1
10
65.4341551615834
20
1.88651030642228
30
0
41
1
10
65.8514453559376
20
1.65528365981129
30
0
41
1
10
66.0600589519056
20
1.53877766293306
30
0
41
1
10
66.6870924469756
20
1.18893062066198
30
0
41
1
10
67.106569681274
20
0.955032216693724
30
0
41
1
10
67.9479805555587
20
0.485062020248108
30
0
41
1
10
68.3703097612599
20
0.248672582284684
30
0
41
1
10
69.2105192127524
20
-0.22344767345578
30
0
41
1
10
69.6286730372607
20
-0.460497335902375
30
0
41
1
10
70.8825387914019
20
-1.16479496772217
30
0
41
1
10
71.7171157068062
20
-1.62638706411272
30
0
41
1
10
72.9641276192905
20
-2.31232069098533
30
0
41
1
10
73.3787693670001
20
-2.54023456588851
30
0
41
1
10
74.2095776556266
20
-2.98832287885173
30
0
41
1
10
74.6253602230919
20
-3.209192999138
30
0
41
1
10
75.4570740869486
20
-3.6456652128746
30
0
41
1
10
75.873076904736
20
-3.86114595000001
30
0
41
1
10
76.704743856781
20
-4.28755511481492
30
0
41
1
10
77.1207156133364
20
-4.49795030773825
30
0
41
1
10
78.373012216463
20
-5.11421234985804
30
0
41
1
10
79.2119449152369
20
-5.50819616264033
30
0
41
1
10
80.4739719937293
20
-6.07710077269752
30
0
41
1
10
80.8942723919546
20
-6.26069975902538
30
0
41
1
10
81.7331686552031
20
-6.61427446820855
30
0
41
1
10
82.1518293197431
20
-6.78472407048528
30
0
41
1
10
82.9871843308558
20
-7.1136484167987
30
0
41
1
10
83.4036436809037
20
-7.27240039439948
30
0
41
1
10
84.2351413180992
20
-7.57710968601128
30
0
41
1
10
84.6510253457708
20
-7.72209222695665
30
0
41
1
10
85.4827109176734
20
-7.99804771428927
30
0
41
1
10
85.8984484149642
20
-8.12908828733401
30
0
41
1
10
86.7293846167995
20
-8.37758670397292
30
0
41
1
10
87.1441082568334
20
-8.49544608788568
30
0
41
1
10
88.3901432825713
20
-8.82586426929996
30
0
41
1
10
89.2242203912059
20
-9.01494392240323
30
0
41
1
10
90.4776893706739
20
-9.2534039862156
30
0
41
1
10
90.895480994149
20
-9.32549595941509
30
0
41
1
10
91.7346118298859
20
-9.4525884416575
30
0
41
1
10
92.1564776054859
20
-9.50784303901628
30
0
41
1
10
92.9985202931066
20
-9.6013507962511
30
0
41
1
10
93.418710263858
20
-9.63962123038465
30
0
41
1
10
94.2568956512092
20
-9.699306052438
30
0
41
1
10
94.6748041447931
20
-9.72065182631619
30
0
41
1
10
95.3941320472636
20
-9.74243073879967
30
0
41
1
10
95.6950596475276
20
-9.74715639474221
30
0
41
1
10
95.9959452173282
20
-9.74747884069009
30
0
0
SPLINE
5
CF
100
AcDbEntity
8
1
62
256
6
ByLayer
370
18
48
1
60
0
100
AcDbSpline
70
4
71
3
72
14
73
10
40
0
40
0
40
0
40
0
40
0.25
40
0.25
40
0.5
40
0.5
40
0.75
40
0.75
40
1
40
1
40
1
40
1
41
1
10
99.8783085196278
20
-9.25052491281764
30
0
41
1
10
99.8816578200967
20
-9.24981468410311
30
0
41
1
10
99.8843722614545
20
-9.25078847109836
30
0
41
1
10
99.8881311625688
20
-9.25718486052341
30
0
41
1
10
99.8891225775395
20
-9.26268524623944
30
0
41
1
10
99.8882427384435
20
-9.2793469454719
30
0
41
1
10
99.8862938904409
20
-9.29055904164147
30
0
41
1
10
99.8794771894775
20
-9.31622387228589
30
0
41
1
10
99.874685705444
20
-9.33041615545241
30
0
41
1
10
99.8694125638863
20
-9.3438638100418
30
0
0
SPLINE
5
D0
100
AcDbEntity
8
1
62
256
6
ByLayer
370
18
48
1
60
0
100
AcDbSpline
70
4
71
3
72
14
73
10
40
0
40
0
40
0
40
0
40
0.25
40
0.25
40
0.5
40
0.5
40
0.75
40
0.75
40
1
40
1
40
1
40
1
41
1
10
100.117699482241
20
-9.47687048509894
30
0
41
1
10
100.312366898856
20
-8.91710605288984
30
0
41
1
10
100.509347111309
20
-8.35866037590213
30
0
41
1
10
100.907395809135
20
-7.24398801801385
30
0
41
1
10
101.108473791327
20
-6.68776792719979
30
0
41
1
10
101.514120306929
20
-5.57718928380888
30
0
41
1
10
101.718643563873
20
-5.02280705001908
30
0
41
1
10
102.130282959302
20
-3.91544725609469
30
0
41
1
10
102.337396843832
20
-3.36246790239801
30
0
41
1
10
102.545368045226
20
-2.80999747683543
30
0
0
SPLINE
5
D1
100
AcDbEntity
8
1
62
256
6
ByLayer
370
18
48
1
60
0
100
AcDbSpline
70
4
71
3
72
14
73
10
40
0
40
0
40
0
40
0
40
0.125000000000001
40
0.125000000000001
40
0.250000000000003
40
0.250000000000003
40
0.500000000000001
40
0.500000000000001
40
1
40
1
40
1
40
1
41
1
10
102.545368045224
20
-2.80999747683884
30
0
41
1
10
102.575466435668
20
-2.70264900060016
30
0
41
1
10
102.604477017093
20
-2.59598459931186
30
0
41
1
10
102.659624658523
20
-2.3857607722392
30
0
41
1
10
102.685826454618
20
-2.28197701008861
30
0
41
1
10
102.760133510781
20
-1.97412895411148
30
0
41
1
10
102.803940616505
20
-1.77357142788452
30
0
41
1
10
102.916613802277
20
-1.18199720979101
30
0
41
1
10
102.966594872132
20
-0.801159350286923
30
0
41
1
10
102.988001180146
20
-0.422586033301656
30
0
0
SPLINE
5
D2
100
AcDbEntity
8
1
62
256
6
ByLayer
370
18
48
1
60
0
100
AcDbSpline
70
4
71
3
72
12
73
8
40
0
40
0
40
0
40
0
40
0.499999999999995
40
0.499999999999995
40
0.749999999999998
40
0.749999999999998
40
1
40
1
40
1
40
1
41
1
10
100.117699482248
20
9.47687048507939
30
0
41
1
10
100.053718562869
20
9.54677000604082
30
0
41
1
10
99.9882128999487
20
9.60352653364916
30
0
41
1
10
99.8873008247868
20
9.66856718566626
30
0
41
1
10
99.8531358427657
20
9.68692610703161
30
0
41
1
10
99.784306890645
20
9.71662889631492
30
0
41
1
10
99.7496830974931
20
9.72797703975863
30
0
41
1
10
99.7148316784116
20
9.73589403234902
30
0
0
SPLINE
5
D3
100
AcDbEntity
8
1
62
256
6
ByLayer
370
18
48
1
60
0
100
AcDbSpline
70
4
71
3
72
8
73
4
40
0
40
0
40
0
40
0
40
1
40
1
40
1
40
1
41
1
10
99.7444295846703
20
-4.61475481893476
30
0
41
1
10
99.1745825456533
20
-5.36828491937922
30
0
41
1
10
98.5970370954312
20
-6.11296755501488
30
0
41
1
10
98.0144072232226
20
-6.85180687527006
30
0
0
SPLINE
5
D4
100
AcDbEntity
8
1
62
256
6
ByLayer
370
18
48
1
60
0
100
AcDbSpline
70
4
71
3
72
10
73
6
40
0
40
0
40
0
40
0
40
0.5
40
0.5
40
1
40
1
40
1
40
1
41
1
10
102.983952013714
20
0.216143533226926
30
0
41
1
10
102.983158666362
20
0.195104614034363
30
0
41
1
10
102.984427887939
20
0.170438937585487
30
0
41
1
10
102.989945146985
20
0.118307303061812
30
0
41
1
10
102.994169891428
20
0.0907091304382845
30
0
41
1
10
102.999742799671
20
0.061740231316378
30
0
0
SPLINE
5
D5
100
AcDbEntity
8
1
62
256
6
ByLayer
370
18
48
1
60
0
100
AcDbSpline
70
4
71
3
72
8
73
4
40
0
40
0
40
0
40
0
40
1
40
1
40
1
40
1
41
1
10
2.23779287143515
20
-1.77749583320474
30
0
41
1
10
2.45115834851643
20
-1.86570980672849
30
0
41
1
10
2.66809230007163
20
-1.9498754533958
30
0
41
1
10
2.88837879235845
20
-2.02989760184107
30
0
0
SPLINE
5
D6
100
AcDbEntity
8
1
62
256
6
ByLayer
370
18
48
1
60
0
100
AcDbSpline
70
4
71
3
72
116
73
112
40
0
40
0
40
0
40
0
40
0.0035662767598931
40
0.0035662767598931
40
0.0210475701500704
40
0.0210475701500704
40
0.0385288635402477
40
0.0385288635402477
40
0.056010156930425
40
0.056010156930425
40
0.0734914503206023
40
0.0734914503206023
40
0.0909727437107796
40
0.0909727437107796
40
0.108454037100957
40
0.108454037100957
40
0.125935330491134
40
0.125935330491134
40
0.143416623881311
40
0.143416623881311
40
0.160897917271489
40
0.160897917271489
40
0.195860504051844
40
0.195860504051844
40
0.213341797442021
40
0.213341797442021
40
0.230823090832199
40
0.230823090832199
40
0.248304384222376
40
0.248304384222376
40
0.265785677612553
40
0.265785677612553
40
0.283266971002731
40
0.283266971002731
40
0.300748264392908
40
0.300748264392908
40
0.318229557783085
40
0.318229557783085
40
0.335710851173262
40
0.335710851173262
40
0.370673437953617
40
0.370673437953617
40
0.388154731343794
40
0.388154731343794
40
0.405636024733972
40
0.405636024733972
40
0.423117318124149
40
0.423117318124149
40
0.440598611514326
40
0.440598611514326
40
0.458079904904504
40
0.458079904904504
40
0.475561198294681
40
0.475561198294681
40
0.493042491684858
40
0.493042491684858
40
0.510523785075035
40
0.510523785075035
40
0.528005078465213
40
0.528005078465213
40
0.54548637185539
40
0.54548637185539
40
0.562967665245567
40
0.562967665245567
40
0.580448958635745
40
0.580448958635745
40
0.597930252025922
40
0.597930252025922
40
0.615411545416099
40
0.615411545416099
40
0.632892838806277
40
0.632892838806277
40
0.650374132196454
40
0.650374132196454
40
0.667855425586631
40
0.667855425586631
40
0.685336718976808
40
0.685336718976808
40
0.702818012366986
40
0.702818012366986
40
0.720299305757163
40
0.720299305757163
40
0.73778059914734
40
0.73778059914734
40
0.755261892537518
40
0.755261892537518
40
0.772743185927695
40
0.772743185927695
40
0.790224479317872
40
0.790224479317872
40
0.80770577270805
40
0.80770577270805
40
0.825187066098227
40
0.825187066098227
40
0.842668359488404
40
0.842668359488404
40
0.860149652878581
40
0.860149652878581
40
0.877630946268759
40
0.877630946268759
40
0.895112239658936
40
0.895112239658936
40
0.912593533049113
40
0.912593533049113
40
0.930074826439291
40
0.930074826439291
40
0.947556119829468
40
0.947556119829468
40
0.965037413219645
40
0.965037413219645
40
1
40
1
40
1
40
1
41
1
10
83.0065571502021
20
-7.12186303612509
30
0
41
1
10
82.9316011576166
20
-7.14748186873211
30
0
41
1
10
82.8566293687892
20
-7.1729055893438
30
0
41
1
10
82.4140285594078
20
-7.32174428447061
30
0
41
1
10
82.0460336611395
20
-7.44063328310492
30
0
41
1
10
81.3091736139229
20
-7.66846850845738
30
0
41
1
10
80.9408030583435
20
-7.77732214842226
30
0
41
1
10
80.2053674888609
20
-7.98346160108454
30
0
41
1
10
79.8382792552338
20
-8.08097268956681
30
0
41
1
10
79.1038273398444
20
-8.26297199759676
30
0
41
1
10
78.7365030941143
20
-8.3477934856808
30
0
41
1
10
78.001860919547
20
-8.5081104424988
30
0
41
1
10
77.6345129132747
20
-8.58306859376714
30
0
41
1
10
76.8997040039942
20
-8.7215598642747
30
0
41
1
10
76.5323324904732
20
-8.78474481216006
30
0
41
1
10
75.7968017167923
20
-8.89897514210489
30
0
41
1
10
75.4282678579453
20
-8.95060009693117
30
0
41
1
10
74.6918979989235
20
-9.04158271578282
30
0
41
1
10
74.3240446815698
20
-9.08100944732266
30
0
41
1
10
73.588935414161
20
-9.14695755200668
30
0
41
1
10
73.2216684612017
20
-9.17297692681558
30
0
41
1
10
72.120720849
20
-9.23258949033763
30
0
41
1
10
71.3864101497284
20
-9.25000300554288
30
0
41
1
10
70.2832941199828
20
-9.23647317568864
30
0
41
1
10
69.9152928537449
20
-9.22524769325145
30
0
41
1
10
69.179021797716
20
-9.19105897565285
30
0
41
1
10
68.8109581782983
20
-9.16803748555068
30
0
41
1
10
68.0753911722732
20
-9.10990212762189
30
0
41
1
10
67.707797668519
20
-9.07464872007188
30
0
41
1
10
66.9728587564198
20
-8.9910207562838
30
0
41
1
10
66.6055211365143
20
-8.94299112983177
30
0
41
1
10
65.8712620188232
20
-8.83557397311236
30
0
41
1
10
65.5044346130066
20
-8.7759934684961
30
0
41
1
10
64.7698339807461
20
-8.64511837862383
30
0
41
1
10
64.4021688000064
20
-8.57363864414737
30
0
41
1
10
63.6660289784716
20
-8.41871495950477
30
0
41
1
10
63.2973151543729
20
-8.33556578998736
30
0
41
1
10
62.5609154346565
20
-8.15844500502212
30
0
41
1
10
62.1934485522969
20
-8.06425082444082
30
0
41
1
10
61.0911831014514
20
-7.76561158283565
30
0
41
1
10
60.3564208197491
20
-7.54508725661984
30
0
41
1
10
59.2544918195387
20
-7.18573033302059
30
0
41
1
10
58.8873422521199
20
-7.06077356574781
30
0
41
1
10
58.1524912179854
20
-6.80067656193344
30
0
41
1
10
57.784524298907
20
-6.66569085727213
30
0
41
1
10
57.0477890094419
20
-6.3878861808283
30
0
41
1
10
56.6792253381978
20
-6.24490229659457
30
0
41
1
10
55.9433780891207
20
-5.95055598859332
30
0
41
1
10
55.5758510947253
20
-5.79916134206709
30
0
41
1
10
54.8415843874851
20
-5.48774212038893
30
0
41
1
10
54.4744535366899
20
-5.32847092272789
30
0
41
1
10
53.7400013067354
20
-5.00414276068787
30
0
41
1
10
53.3726902713124
20
-4.83876867913838
30
0
41
1
10
52.6377457835051
20
-4.50119991862834
30
0
41
1
10
52.2700342910262
20
-4.32882299407626
30
0
41
1
10
51.5344272679263
20
-3.97763459170727
30
0
41
1
10
51.1662300061164
20
-3.79885494746938
30
0
41
1
10
50.4298307992744
20
-3.43770235805835
30
0
41
1
10
50.061914608094
20
-3.25512569084111
30
0
41
1
10
49.3265534229732
20
-2.88594937137737
30
0
41
1
10
48.9590559853345
20
-2.6992873553323
30
0
41
1
10
48.2246625563584
20
-2.32229410175344
30
0
41
1
10
47.8578725521209
20
-2.13164755972858
30
0
41
1
10
47.1235903719635
20
-1.7486622377005
30
0
41
1
10
46.7561904214812
20
-1.5561086609371
30
0
41
1
10
46.020715965986
20
-1.16905385070493
30
0
41
1
10
45.6526819182747
20
-0.974577453275742
30
0
41
1
10
44.9161826900421
20
-0.583610409417901
30
0
41
1
10
44.5480144816432
20
-0.386828672711459
30
0
41
1
10
43.8126072430559
20
0.0057558685652452
30
0
41
1
10
43.4450244937155
20
0.20148227364021
30
0
41
1
10
42.7100169626687
20
0.591879948063593
30
0
41
1
10
42.3426404762401
20
0.786707844081604
30
0
41
1
10
41.6081463313909
20
1.17554139236336
30
0
41
1
10
41.2411446540242
20
1.36977240560299
30
0
41
1
10
40.5068781030723
20
1.75625734488514
30
0
41
1
10
40.1392663691927
20
1.94781442488014
30
0
41
1
10
39.4033498679335
20
2.32844091204592
30
0
41
1
10
39.0347983048369
20
2.51763920497001
30
0
41
1
10
38.298148994386
20
2.89254959083678
30
0
41
1
10
37.9303210305583
20
3.07819519695704
30
0
41
1
10
37.1956484469652
20
3.44476765863101
30
0
41
1
10
36.8284261273847
20
3.62513331715613
30
0
41
1
10
36.0939007884669
20
3.98109987788138
30
0
41
1
10
35.7266493727621
20
4.15657927388588
30
0
41
1
10
34.9920805122138
20
4.50187525525183
30
0
41
1
10
34.6247565802193
20
4.67164923849617
30
0
41
1
10
33.8898368605599
20
5.00440069137292
30
0
41
1
10
33.522308147284
20
5.16784137881643
30
0
41
1
10
32.7860345032358
20
5.48777686523886
30
0
41
1
10
32.4174252498932
20
5.64429448710638
30
0
41
1
10
31.6815142597489
20
5.94870623519145
30
0
41
1
10
31.3138996960662
20
6.09645950935496
30
0
41
1
10
30.5793425781795
20
6.38339274566187
30
0
41
1
10
30.2125798647487
20
6.5233443056149
30
0
41
1
10
29.4786495199175
20
6.79403118281448
30
0
41
1
10
29.111569214347
20
6.92481506338524
30
0
41
1
10
28.3770077305389
20
7.17626974672197
30
0
41
1
10
28.0094678622251
20
7.29657720160901
30
0
41
1
10
27.2740974611214
20
7.52818135122376
30
0
41
1
10
26.9064889791994
20
7.63994239864769
30
0
41
1
10
26.1701787744903
20
7.85315637099151
30
0
41
1
10
25.8021042347203
20
7.95442206865687
30
0
41
1
10
25.0666866089987
20
8.14458740991969
30
0
41
1
10
24.6992013124461
20
8.23321820973916
30
0
41
1
10
23.9647744125786
20
8.40065263372972
30
0
41
1
10
23.5979145134921
20
8.47927353429532
30
0
41
1
10
22.8644704014424
20
8.6248588394933
30
0
41
1
10
22.4975715693433
20
8.69150229419157
30
0
41
1
10
21.396189319529
20
8.87379383143639
30
0
41
1
10
20.6608370793303
20
8.97268540791185
30
0
41
1
10
19.9241757140849
20
9.04673423984551
30
0
0
SPLINE
5
D7
100
AcDbEntity
8
1
62
256
6
ByLayer
370
18
48
1
60
0
100
AcDbSpline
70
4
71
3
72
8
73
4
40
0
40
0
40
0
40
0
40
1
40
1
40
1
40
1
41
1
10
102.988001180146
20
0.422586033301656
30
0
41
1
10
102.987868512777
20
0.353709338593234
30
0
41
1
10
102.986544489241
20
0.284893851595967
30
0
41
1
10
102.983952013716
20
0.21614353322326
30
0
0
SPLINE
5
D8
100
AcDbEntity
8
1
62
256
6
ByLayer
370
18
48
1
60
0
100
AcDbSpline
70
4
71
3
72
8
73
4
40
0
40
0
40
0
40
0
40
1
40
1
40
1
40
1
41
1
10
99.7148316784116
20
9.73589403234902
30
0
41
1
10
99.4065986692452
20
9.74495772542826
30
0
41
1
10
99.0982549269432
20
9.74936679320882
30
0
41
1
10
98.7899055311539
20
9.74914193336375
30
0
0
SPLINE
5
D9
100
AcDbEntity
8
1
62
256
6
ByLayer
370
18
48
1
60
0
100
AcDbSpline
70
4
71
3
72
56
73
52
40
0
40
0
40
0
40
0
40
0.0485855369547804
40
0.0485855369547804
40
0.080299352389621
40
0.080299352389621
40
0.112013167824461
40
0.112013167824461
40
0.175440798694143
40
0.175440798694143
40
0.207154614128984
40
0.207154614128984
40
0.238868429563825
40
0.238868429563825
40
0.270582244998665
40
0.270582244998665
40
0.302296060433506
40
0.302296060433506
40
0.365723691303187
40
0.365723691303187
40
0.397437506738028
40
0.397437506738028
40
0.429151322172868
40
0.429151322172868
40
0.49257895304255
40
0.49257895304255
40
0.52429276847739
40
0.52429276847739
40
0.556006583912231
40
0.556006583912231
40
0.587720399347072
40
0.587720399347072
40
0.619434214781913
40
0.619434214781913
40
0.682861845651594
40
0.682861845651594
40
0.714575661086435
40
0.714575661086435
40
0.746289476521276
40
0.746289476521276
40
0.809717107390957
40
0.809717107390957
40
0.841430922825797
40
0.841430922825797
40
0.873144738260638
40
0.873144738260638
40
0.904858553695478
40
0.904858553695478
40
0.936572369130319
40
0.936572369130319
40
1
40
1
40
1
40
1
41
1
10
49.7798708882936
20
-9.25174165418881
30
0
41
1
10
48.9945668936897
20
-9.38622671319757
30
0
41
1
10
48.2100263767011
20
-9.49201194799781
30
0
41
1
10
46.9118422459258
20
-9.61818513371688
30
0
41
1
10
46.3983355971517
20
-9.65547675521199
30
0
41
1
10
45.3711867252667
20
-9.70448486179816
30
0
41
1
10
44.8583858851322
20
-9.71618190184296
30
0
41
1
10
43.3207130707205
20
-9.71296329505975
30
0
41
1
10
42.2966678221177
20
-9.6597376586094
30
0
41
1
10
40.7563423177486
20
-9.50388633717782
30
0
41
1
10
40.2424803875381
20
-9.4392754326874
30
0
41
1
10
39.2167240424204
20
-9.28564420836693
30
0
41
1
10
38.7043142250453
20
-9.19657367458484
30
0
41
1
10
37.6793958989227
20
-8.99456046372143
30
0
41
1
10
37.1668759950784
20
-8.88162973238212
30
0
41
1
10
36.1408723730012
20
-8.63244023527429
30
0
41
1
10
35.6268417563089
20
-8.49601205636176
30
0
41
1
10
34.0868478483216
20
-8.0542991948779
30
0
41
1
10
33.0626889286161
20
-7.71664145253752
30
0
41
1
10
31.5244925600653
20
-7.15165943511758
30
0
41
1
10
31.0114288569472
20
-6.95359046187912
30
0
41
1
10
29.9837408834924
20
-6.53894189886199
30
0
41
1
10
29.4705242750713
20
-6.32293889013923
30
0
41
1
10
27.9321441111304
20
-5.65164690308151
30
0
41
1
10
26.9079904916235
20
-5.17264539318674
30
0
41
1
10
25.3679589233264
20
-4.41567751368092
30
0
41
1
10
24.8537347769657
20
-4.156770551866
30
0
41
1
10
23.82742530284
20
-3.62968487645926
30
0
41
1
10
23.3148176741508
20
-3.36129415630515
30
0
41
1
10
22.2896487172498
20
-2.81660300019209
30
0
41
1
10
21.7770978527136
20
-2.54028610275677
30
0
41
1
10
20.7511779852751
20
-1.98121999728977
30
0
41
1
10
20.2373673542408
20
-1.69824448601756
30
0
41
1
10
18.6962202544981
20
-0.844069654395099
30
0
41
1
10
17.671717247278
20
-0.268835824230678
30
0
41
1
10
16.1334860142914
20
0.592172111243485
30
0
41
1
10
15.6204910454108
20
0.878858430556591
30
0
41
1
10
14.5930708193982
20
1.44993545706817
30
0
41
1
10
14.0791133294408
20
1.73404262813662
30
0
41
1
10
12.5399141955307
20
2.57675623857665
30
0
41
1
10
11.515600134642
20
3.12706071502069
30
0
41
1
10
9.97583461204783
20
3.92491874241176
30
0
41
1
10
9.46158244976539
20
4.18654992600315
30
0
41
1
10
8.43435007005385
20
4.69739253032461
30
0
41
1
10
7.92118293734509
20
4.94667807219017
30
0
41
1
10
6.89470907470198
20
5.43141644319098
30
0
41
1
10
6.38146242380657
20
5.66696178545985
30
0
41
1
10
5.35402529965668
20
6.12299444752588
30
0
41
1
10
4.8398310611677
20
6.34340694475219
30
0
41
1
10
3.29953540633812
20
6.97757799186044
30
0
41
1
10
2.27390740030813
20
7.3650418547731
30
0
41
1
10
1.24602017733127
20
7.7128019415276
30
0
0
SPLINE
5
DA
100
AcDbEntity
8
1
62
256
6
ByLayer
370
18
48
1
60
0
100
AcDbSpline
70
4
71
3
72
8
73
4
40
0
40
0
40
0
40
0
40
1
40
1
40
1
40
1
41
1
10
1.11815232879266
20
-1.14998214924256
30
0
41
1
10
1.49104376426223
20
-1.36105902427846
30
0
41
1
10
1.86422951878461
20
-1.57026773401373
30
0
41
1
10
2.237792871453
20
-1.7774958332121
30
0
0
SPLINE
5
DB
100
AcDbEntity
8
1
62
256
6
ByLayer
370
18
48
1
60
0
100
AcDbSpline
70
4
71
3
72
12
73
8
40
0
40
0
40
0
40
0
40
0.5
40
0.5
40
0.75
40
0.75
40
1
40
1
40
1
40
1
41
1
10
100.117699482247
20
-9.47687048508044
30
0
41
1
10
100.053716398852
20
-9.54677237024194
30
0
41
1
10
99.9882030045948
20
-9.60353641250273
30
0
41
1
10
99.8872693892608
20
-9.66858569528372
30
0
41
1
10
99.8530924085012
20
-9.68694704608262
30
0
41
1
10
99.7842872392271
20
-9.71663517956023
30
0
41
1
10
99.7496739637442
20
-9.72797911461882
30
0
41
1
10
99.7148316784116
20
-9.73589403234902
30
0
0
SPLINE
5
DC
100
AcDbEntity
8
1
62
256
6
ByLayer
370
18
48
1
60
0
100
AcDbSpline
70
4
71
3
72
12
73
8
40
0
40
0
40
0
40
0
40
0.5
40
0.5
40
0.75
40
0.75
40
1
40
1
40
1
40
1
41
1
10
99.6926424750267
20
2.2996213076986
30
0
41
1
10
100.149512885636
20
2.28531956648675
30
0
41
1
10
100.606363380341
20
2.27120380654657
30
0
41
1
10
101.291345610121
20
2.25277108086883
30
0
41
1
10
101.519586618293
20
2.24743368699114
30
0
41
1
10
101.976061412877
20
2.23682633840497
30
0
41
1
10
102.204288350378
20
2.23162034108481
30
0
41
1
10
102.432500013131
20
2.2265569843874
30
0
0
SPLINE
5
DD
100
AcDbEntity
8
1
62
256
6
ByLayer
370
18
48
1
60
0
100
AcDbSpline
70
4
71
3
72
16
73
12
40
0
40
0
40
0
40
0
40
0.0064622196769727
40
0.0064622196769727
40
0.156747586111293
40
0.156747586111293
40
0.307032952545613
40
0.307032952545613
40
0.607603685414253
40
0.607603685414253
40
1
40
1
40
1
40
1
41
1
10
44.5040353313351
20
-9.22738026722419
30
0
41
1
10
44.4818815316925
20
-9.22729918877272
30
0
41
1
10
44.4597272494728
20
-9.22719545531874
30
0
41
1
10
43.9223404836668
20
-9.2241297117699
30
0
41
1
10
43.4068081117243
20
-9.20894049243421
30
0
41
1
10
42.3742700473003
20
-9.15404171091217
30
0
41
1
10
41.8589081707037
20
-9.11438287012578
30
0
41
1
10
40.3171325111082
20
-8.95978095749774
30
0
41
1
10
39.2937342577216
20
-8.80935770195021
30
0
41
1
10
36.9365191894604
20
-8.35895852827767
30
0
41
1
10
35.6033825396229
20
-8.02747470163541
30
0
41
1
10
34.2639810752654
20
-7.62584335042368
30
0
0
SPLINE
5
DE
100
AcDbEntity
8
1
62
256
6
ByLayer
370
13
48
1
60
0
100
AcDbSpline
70
4
71
3
72
22
73
18
40
0
40
0
40
0
40
0
40
0.101304206561102
40
0.101304206561102
40
0.247171383801164
40
0.247171383801164
40
0.393038561041227
40
0.393038561041227
40
0.684772915521353
40
0.684772915521353
40
0.757706504141385
40
0.757706504141385
40
0.830640092761416
40
0.830640092761416
40
0.976507270001479
40
0.976507270001479
40
1
40
1
40
1
40
1
41
1
10
34.2639820333629
20
-7.62584363771768
30
0
41
1
10
33.551453206176
20
-7.41218559712374
30
0
41
1
10
32.837151449642
20
-7.17867594804878
30
0
41
1
10
31.0870991950437
20
-6.56281410486127
30
0
41
1
10
30.0607123326116
20
-6.16474959752733
30
0
41
1
10
28.0157999614814
20
-5.31202442807742
30
0
41
1
10
26.9969425861743
20
-4.85720573268131
30
0
41
1
10
23.9405225626162
20
-3.42514430048371
30
0
41
1
10
21.9036327730198
20
-2.37948459320191
30
0
41
1
10
19.3228875936662
20
-1.01987726224957
30
0
41
1
10
18.8064864868457
20
-0.746174632818509
30
0
41
1
10
17.7757913710149
20
-0.198546972857031
30
0
41
1
10
17.2609574521123
20
0.0756427493696208
30
0
41
1
10
15.7165050317213
20
0.896515150701134
30
0
41
1
10
14.6870402473555
20
1.441701217353
30
0
41
1
10
13.4877350326386
20
2.06430639733966
30
0
41
1
10
13.3214635844721
20
2.15034963383437
30
0
41
1
10
13.1553141339419
20
2.23602295858282
30
0
0
LINE
5
76
100
AcDbEntity
8
81
62
256
6
ByLayer
370
18
48
1
60
0
100
AcDbLine
10
103
20
0
30
0
11
108
21
0
31
0
39
0
210
0
220
0
230
1
0
LINE
5
77
100
AcDbEntity
8
1
62
256
6
ByLayer
370
18
48
1
60
0
100
AcDbLine
10
1.118152
20
9.688125
30
0
11
0.166771
21
9.68753
31
0
39
0
210
0
220
0
230
1
0
LINE
5
79
100
AcDbEntity
8
1
62
256
6
ByLayer
370
18
48
1
60
0
100
AcDbLine
10
98.791821
20
9.749171
30
0
11
96.008561
21
9.747432
31
0
39
0
210
0
220
0
230
1
0
LINE
5
7A
100
AcDbEntity
8
1
62
256
6
ByLayer
370
18
48
1
60
0
100
AcDbLine
10
96.008561
20
-9.747432
30
0
11
98.791788
21
-9.749171
31
0
39
0
210
0
220
0
230
1
0
LINE
5
7B
100
AcDbEntity
8
1
62
256
6
ByLayer
370
18
48
1
60
0
100
AcDbLine
10
0.166771
20
-9.68753
30
0
11
1.118152
21
-9.688125
31
0
39
0
210
0
220
0
230
1
0
LINE
5
7C
100
AcDbEntity
8
SK1
62
256
6
ByLayer
370
18
48
1
60
0
100
AcDbLine
10
-46.824574
20
10
30
0
11
-47.5
21
8.830127
31
0
39
0
210
0
220
0
230
1
0
LINE
5
7E
100
AcDbEntity
8
SK1
62
256
6
ByLayer
370
18
48
1
60
0
100
AcDbLine
10
-47.5
20
-8.830127
30
0
11
-46.824574
21
-10
31
0
39
0
210
0
220
0
230
1
0
LINE
5
7F
100
AcDbEntity
8
SK1
62
256
6
ByLayer
370
18
48
1
60
0
100
AcDbLine
10
0
20
10
30
0
11
-46.824574
21
10
31
0
39
0
210
0
220
0
230
1
0
LINE
5
80
100
AcDbEntity
8
SK1
62
256
6
ByLayer
370
18
48
1
60
0
100
AcDbLine
10
-46.824574
20
-10
30
0
11
0
21
-10
31
0
39
0
210
0
220
0
230
1
0
LINE
5
81
100
AcDbEntity
8
1
62
256
6
ByLayer
370
18
48
1
60
0
100
AcDbLine
10
44.390781
20
9.71517
30
0
11
41.612886
21
9.713434
31
0
39
0
210
0
220
0
230
1
0
LINE
5
82
100
AcDbEntity
8
1
62
256
6
ByLayer
370
18
48
1
60
0
100
AcDbLine
10
41.612886
20
-9.713434
30
0
11
44.390677
21
-9.71517
31
0
39
0
210
0
220
0
230
1
0
LINE
5
83
100
AcDbEntity
8
SK4
62
256
6
ByLayer
370
18
48
0.05
60
0
100
AcDbLine
10
108
20
0
30
0
11
-55
21
0
31
0
39
0
210
0
220
0
230
1
0
LINE
5
85
100
AcDbEntity
8
4
62
256
6
ByLayer
370
18
48
0.05
60
0
100
AcDbLine
10
103
20
0
30
0
11
0
21
0
31
0
39
0
210
0
220
0
230
1
0
LINE
5
87
100
AcDbEntity
8
80
62
256
6
ByLayer
370
18
48
1
60
0
100
AcDbLine
10
0
20
0
30
0
11
-5
21
0
31
0
39
0
210
0
220
0
230
1
0
LINE
5
88
100
AcDbEntity
8
SK1
62
256
6
ByLayer
370
18
48
1
60
0
100
AcDbLine
10
0
20
10
30
0
11
0
21
-10
31
0
39
0
210
0
220
0
230
1
0
LINE
5
89
100
AcDbEntity
8
SK1
62
256
6
ByLayer
370
18
48
1
60
0
100
AcDbLine
10
-47.5
20
8.830127
30
0
11
-47.5
21
8.410175
31
0
39
0
210
0
220
0
230
1
0
LINE
5
8A
100
AcDbEntity
8
SK1
62
256
6
ByLayer
370
18
48
1
60
0
100
AcDbLine
10
-50
20
3.902707
30
0
11
-50
21
-4.327546
31
0
39
0
210
0
220
0
230
1
0
LINE
5
8B
100
AcDbEntity
8
SK1
62
256
6
ByLayer
370
18
48
1
60
0
100
AcDbLine
10
-50
20
4.327546
30
0
11
-50
21
3.902659
31
0
39
0
210
0
220
0
230
1
0
LINE
5
8C
100
AcDbEntity
8
SK1
62
256
6
ByLayer
370
18
48
1
60
0
100
AcDbLine
10
-46.824574
20
10
30
0
11
-46.824574
21
-10
31
0
39
0
210
0
220
0
230
1
0
LINE
5
8D
100
AcDbEntity
8
SK1
62
256
6
ByLayer
370
18
48
1
60
0
100
AcDbLine
10
-47.5
20
-8.810737
30
0
11
-47.5
21
-8.830127
31
0
39
0
210
0
220
0
230
1
0
LINE
5
8E
100
AcDbEntity
8
SK1
62
256
6
ByLayer
370
13
48
1
60
0
100
AcDbLine
10
-47.6
20
8.627925
30
0
11
-47.6
21
8.202942
31
0
39
0
210
0
220
0
230
1
0
LINE
5
8F
100
AcDbEntity
8
1
62
256
6
ByLayer
370
18
48
1
60
0
100
AcDbLine
10
1.118152
20
-9.688125
30
0
11
1.118152
21
-1.149982
31
0
39
0
210
0
220
0
230
1
0
LINE
5
90
100
AcDbEntity
8
1
62
256
6
ByLayer
370
13
48
1
60
0
100
AcDbLine
10
99.692642
20
2.299621
30
0
11
102.983952
21
0.216144
31
0
39
0
210
0
220
0
230
1
0
LINE
5
91
100
AcDbEntity
8
1
62
256
6
ByLayer
370
18
48
1
60
0
100
AcDbLine
10
1.118152
20
9.688125
30
0
11
1.118152
21
7.842791
31
0
39
0
210
0
220
0
230
1
0
LINE
5
92
100
AcDbEntity
8
1
62
256
6
ByLayer
370
13
48
1
60
0
100
AcDbLine
10
0.166771
20
9.68753
30
0
11
0.166771
21
-9.68753
31
0
39
0
210
0
220
0
230
1
0
LINE
5
93
100
AcDbEntity
8
1
62
256
6
ByLayer
370
13
48
1
60
0
100
AcDbLine
10
99.469553
20
2.139417
30
0
11
102.94958
21
-0.063524
31
0
39
0
210
0
220
0
230
1
0
MTEXT
5
DF
100
AcDbEntity
8
SK6
62
256
6
ByLayer
370
13
48
1
60
0
100
AcDbMText
10
28.629169
20
42.132694
30
0
210
0
220
0
230
1
1
\W0.7431;460.1-1950-088A1-XM GC34
40
3.5
41
0
44
1.084337
50
0
71
8
72
5
7
iso_b_vert
0
DIMENSION
5
EC
100
AcDbEntity
8
SK2
62
256
6
ByLayer
370
13
48
1
60
0
100
AcDbDimension
2
DimnDraft3D1
10
100.0843
20
-19.963398
30
0
11
47.834359
21
-19.963398
31
0
70
32
71
5
72
1
41
1
210
0
220
0
230
1
3
Standard
100
AcDbAlignedDimension
13
0
23
-1.5875
33
0
14
100.0843
24
-11.3375
34
0
50
0
100
AcDbRotatedDimension
1001
ACAD
1000
DSTYLE
1002
{
1070
   279
1070
     0
1070
   172
1070
     1
1070
   173
1070
     1
1070
   340
1005
E0
1070
   271
1070
     2
1070
   272
1070
     2
1070
    77
1070
     1
1070
    73
1070
     0
1070
   171
1070
     3
1070
   274
1070
     4
1070
   177
1070
    35
1070
   176
1070
    35
1070
   178
1070
    35
1070
    48
1040
-0.005
1070
    41
1041
3.5
1070
   147
1041
1.75
1070
    42
1041
1.5875
1070
    44
1041
2.0
1070
   140
1041
3.5
1070
   343
1005
0
1070
   344
1005
0
1002
}
0
DIMENSION
5
F6
100
AcDbEntity
8
SK2
62
256
6
ByLayer
370
13
48
1
60
0
100
AcDbDimension
2
DimnDraft3D2
10
103
20
-38.692985
30
0
11
24.9256
21
-38.692985
31
0
70
32
71
5
72
1
41
1
210
0
220
0
230
1
3
Standard
100
AcDbAlignedDimension
13
-50
23
-11.5875
33
0
14
103
24
-1.5875
34
0
50
0
100
AcDbRotatedDimension
1001
ACAD
1000
DSTYLE
1002
{
1070
   279
1070
     0
1070
   172
1070
     1
1070
   173
1070
     1
1070
   340
1005
E0
1070
   271
1070
     2
1070
   272
1070
     2
1070
    77
1070
     1
1070
    73
1070
     0
1070
   171
1070
     3
1070
   274
1070
     4
1070
   177
1070
    35
1070
   176
1070
    35
1070
   178
1070
    35
1070
    48
1040
-0.005
1070
    41
1041
3.5
1070
   147
1041
1.75
1070
    42
1041
1.5875
1070
    44
1041
2.0
1070
   140
1041
3.5
1070
   343
1005
0
1070
   344
1005
0
1002
}
0
DIMENSION
5
100
100
AcDbEntity
8
SK2
62
256
6
ByLayer
370
13
48
1
60
0
100
AcDbDimension
2
DimnDraft3D3
10
103
20
21.359119
30
0
11
52.795
21
21.359119
31
0
70
32
71
5
72
1
41
1
210
0
220
0
230
1
3
Standard
100
AcDbAlignedDimension
13
2.59
23
11.3375
33
0
14
103
24
1.5875
34
0
50
0
100
AcDbRotatedDimension
1001
ACAD
1000
DSTYLE
1002
{
1070
   279
1070
     0
1070
   172
1070
     1
1070
   173
1070
     1
1070
   340
1005
E0
1070
   271
1070
     2
1070
   272
1070
     2
1070
    77
1070
     1
1070
    73
1070
     0
1070
   171
1070
     3
1070
   274
1070
     4
1070
   177
1070
    35
1070
   176
1070
    35
1070
   178
1070
    35
1070
    48
1040
-0.005
1070
    41
1041
3.5
1070
   147
1041
1.75
1070
    42
1041
1.5875
1070
    44
1041
2.0
1070
   140
1041
3.5
1070
   343
1005
0
1070
   344
1005
0
1002
}
0
DIMENSION
5
10A
100
AcDbEntity
8
SK2
62
256
6
ByLayer
370
13
48
1
60
0
100
AcDbDimension
2
DimnDraft3D4
10
100.0843
20
-22.552503
30
0
11
112.981425
21
-22.552503
31
0
70
32
71
5
72
1
41
1
210
0
220
0
230
1
3
Standard
100
AcDbAlignedDimension
13
103
23
-1.5875
33
0
14
100.0843
24
-11.3375
34
0
50
0
100
AcDbRotatedDimension
1001
ACAD
1000
DSTYLE
1002
{
1070
   279
1070
     0
1070
   172
1070
     1
1070
   173
1070
     1
1070
   340
1005
E0
1070
   271
1070
     2
1070
   272
1070
     2
1070
    77
1070
     1
1070
    73
1070
     0
1070
   171
1070
     3
1070
   274
1070
     4
1070
   177
1070
    35
1070
   176
1070
    35
1070
   178
1070
    35
1070
    48
1040
-0.005
1070
    41
1041
3.5
1070
   147
1041
1.75
1070
    42
1041
1.5875
1070
    44
1041
2.0
1070
   140
1041
3.5
1070
   343
1005
0
1070
   344
1005
0
1002
}
0
DIMENSION
5
114
100
AcDbEntity
8
SK2
62
256
6
ByLayer
370
13
48
1
60
0
100
AcDbDimension
2
DimnDraft3D5
10
100.0843
20
-28.343428
30
0
11
21.844976
21
-28.343428
31
0
70
32
71
5
72
1
41
1
210
0
220
0
230
1
3
Standard
100
AcDbAlignedDimension
13
-50
23
-11.5875
33
0
14
100.0843
24
-11.3375
34
0
50
0
100
AcDbRotatedDimension
1001
ACAD
1000
DSTYLE
1002
{
1070
   279
1070
     0
1070
   172
1070
     1
1070
   173
1070
     1
1070
   340
1005
E0
1070
   271
1070
     2
1070
   272
1070
     2
1070
    77
1070
     1
1070
    73
1070
     0
1070
   171
1070
     3
1070
   274
1070
     4
1070
   177
1070
    35
1070
   176
1070
    35
1070
   178
1070
    35
1070
    48
1040
-0.005
1070
    41
1041
3.5
1070
   147
1041
1.75
1070
    42
1041
1.5875
1070
    44
1041
2.0
1070
   140
1041
3.5
1070
   343
1005
0
1070
   344
1005
0
1002
}
0
DIMENSION
5
11F
100
AcDbEntity
8
SK2
62
256
6
ByLayer
370
13
48
1
60
0
100
AcDbDimension
2
DimnDraft3D6
10
-60.625163
20
10
30
0
11
-61.250163
21
28.47418
31
0
70
33
71
5
72
1
41
1
210
0
220
0
230
1
3
Standard
100
AcDbAlignedDimension
13
-51.5875
23
-10
33
0
14
-51.5875
24
10
34
0
1001
ACAD
1000
DSTYLE
1002
{
1070
   279
1070
     0
1070
    74
1070
     0
1070
   173
1070
     1
1070
   340
1005
E0
1070
   271
1070
     3
1070
   272
1070
     2
1070
    77
1070
     1
1070
    73
1070
     0
1070
   171
1070
     3
1070
   274
1070
     4
1070
   177
1070
    35
1070
   176
1070
    35
1070
   178
1070
    35
1070
    48
1040
-0.005
1070
    41
1041
3.5
1070
   147
1041
1.75
1070
    42
1041
1.5875
1070
    44
1041
2.0
1070
   140
1041
3.5
1070
   343
1005
0
1070
   344
1005
0
1002
}
0
DIMENSION
5
12A
100
AcDbEntity
8
2
62
256
6
ByLayer
370
13
48
1
60
0
100
AcDbDimension
2
DimnDraft3D7
10
117.083343
20
9.75
30
0
11
112.458343
21
26.817266
31
0
70
33
71
5
72
1
41
1
210
0
220
0
230
1
3
Standard
100
AcDbAlignedDimension
13
101.6718
23
-9.75
33
0
14
101.6718
24
9.75
34
0
1001
ACAD
1000
DSTYLE
1002
{
1070
   279
1070
     0
1070
    74
1070
     0
1070
   173
1070
     1
1070
   340
1005
E0
1070
   271
1070
     3
1070
   272
1070
     2
1070
    77
1070
     1
1070
    73
1070
     0
1070
   171
1070
     3
1070
   274
1070
     4
1070
   177
1070
    35
1070
   176
1070
    35
1070
   178
1070
    35
1070
    48
1040
-0.005
1070
    41
1041
3.5
1070
   147
1041
1.75
1070
    42
1041
1.5875
1070
    44
1041
2.0
1070
   140
1041
3.5
1070
   343
1005
0
1070
   344
1005
0
1002
}
0
ENDSEC
0
SECTION
2
OBJECTS
0
DICTIONARY
5
195
330
0
100
AcDbDictionary
280
0
281
1
3
ACAD_GROUP
350
196
3
ACAD_MLINESTYLE
350
197
0
DICTIONARY
5
196
330
0
100
AcDbDictionary
280
0
281
1
0
DICTIONARY
5
197
330
0
100
AcDbDictionary
280
0
281
1
3
Standard
350
18
0
MLINESTYLE
5
18
330
197
100
AcDbMlineStyle
2
Standard
70
0
3

62
256
51
90
52
90
71
2
49
-0.5
62
256
6
ByLayer
49
0.5
62
256
6
ByLayer
0
RASTERVARIABLES
5
183
330

100
AcDbRasterVariables
90
0
70
1
71
1
72
1
0
ENDSEC
0
EOF
